<?xml version="1.0" standalone="no"?>
<!DOCTYPE svg PUBLIC "-//W3C//DTD SVG 1.1//EN" "http://www.w3.org/Graphics/SVG/1.1/DTD/svg11.dtd" >
<svg xmlns="http://www.w3.org/2000/svg" xmlns:xlink="http://www.w3.org/1999/xlink" version="1.1">
<metadata>
Created by FontForge 20170731 at Mon Aug  7 16:11:18 2023
 By Aleksey,,,
(c) 2018 Connary Fagen
</metadata>
<defs>
<font id="ArticulatCF-Bold" horiz-adv-x="1198" >
  <font-face 
    font-family="Articulat CF"
    font-weight="700"
    font-stretch="normal"
    units-per-em="2048"
    panose-1="0 0 8 0 0 0 0 0 0 0"
    ascent="1638"
    descent="-410"
    x-height="1065"
    cap-height="1434"
    bbox="-360 -766 2148 1964"
    underline-thickness="102"
    underline-position="-307"
    unicode-range="U+0020-FB02"
  />
<missing-glyph horiz-adv-x="1044" 
d="M856 1638v-2089h-661v2089h661zM696 1499h-346v-69h137v-78h-139v-68h348v68h-139v78h139v69zM557 1229h-209v-217h348v71h-139v146zM487 1157v-74h-69v74h69zM696 954h-348v-67h139v-78h-139v-70h209v148h139v67zM696 829h-69v-137h-279v-71h348v208zM696 575h-209v-116
h70v47h70v-98h-209v167h-70v-235h348v235zM696 213h-348v-236h348v236zM627 145v-98h-209v98h209zM696 -70h-348v-69h148l-148 -99v-69h348v69h-213l146 99h67v69z" />
    <glyph glyph-name="fi" unicode="fi" horiz-adv-x="1232" 
d="M193 1108q0 70 12.5 126t31.5 93t49 63.5t58 41t66.5 22.5t67 10t65.5 2q93 0 157 -22v-217q-50 10 -84 10q-71 0 -97.5 -31t-26.5 -104v-37h202v-234h-202v-831h-299v831h-152v234h152v43zM827 1452h299v-227h-299v227zM827 0v1065h299v-1065h-299z" />
    <glyph glyph-name="fl" unicode="fl" horiz-adv-x="1232" 
d="M193 1108q0 70 12.5 126t31.5 93t49 63.5t58 41t66.5 22.5t67 10t65.5 2q93 0 157 -22v-217q-50 10 -84 10q-71 0 -97.5 -31t-26.5 -104v-37h202v-234h-202v-831h-299v831h-152v234h152v43zM827 1446h299v-1446h-299v1446z" />
    <glyph glyph-name=".notdef" horiz-adv-x="1044" 
d="M856 1638v-2089h-661v2089h661zM696 1499h-346v-69h137v-78h-139v-68h348v68h-139v78h139v69zM557 1229h-209v-217h348v71h-139v146zM487 1157v-74h-69v74h69zM696 954h-348v-67h139v-78h-139v-70h209v148h139v67zM696 829h-69v-137h-279v-71h348v208zM696 575h-209v-116
h70v47h70v-98h-209v167h-70v-235h348v235zM696 213h-348v-236h348v236zM627 145v-98h-209v98h209zM696 -70h-348v-69h148l-148 -99v-69h348v69h-213l146 99h67v69z" />
    <glyph glyph-name=".null" horiz-adv-x="0" 
 />
    <glyph glyph-name="nonmarkingreturn" horiz-adv-x="682" 
 />
    <glyph glyph-name="space" unicode=" " horiz-adv-x="546" 
 />
    <glyph glyph-name="exclam" unicode="!" horiz-adv-x="536" 
d="M412 481h-289l-6 953h303zM106 340h324v-340h-324v340z" />
    <glyph glyph-name="quotedbl" unicode="&#x22;" horiz-adv-x="933" 
d="M82 831h287v603h-287v-603zM565 831h287v603h-287v-603z" />
    <glyph glyph-name="numbersign" unicode="#" horiz-adv-x="1236" 
d="M1145 848h-201l-24 -262h170v-236h-195l-35 -350h-225l35 350h-178l-35 -350h-226l35 350h-174v236h199l24 262h-168v235h193l35 351h225l-35 -351h178l35 351h226l-35 -351h176v-235zM694 586l25 262h-178l-25 -262h178z" />
    <glyph glyph-name="dollar" unicode="$" horiz-adv-x="1284" 
d="M1208 414q0 -191 -139 -303.5t-362 -126.5v-168h-121v168q-228 14 -362 140t-146 345h309q35 -195 199 -225v368l-70 15q-74 15 -131.5 35t-111 53t-88.5 76t-55.5 106t-20.5 141q0 179 129.5 291.5t347.5 122.5v166h121v-170q203 -19 325 -130t139 -306h-309
q-18 143 -155 174v-340l67 -15q236 -50 335 -144t99 -273zM561 877l25 -7v322q-83 -10 -126.5 -60t-43.5 -102q0 -58 32 -97.5t113 -55.5zM707 244q89 13 139.5 61t50.5 113q0 75 -44 113t-146 59v-346z" />
    <glyph glyph-name="percent" unicode="%" horiz-adv-x="1517" 
d="M383 764q-131 0 -211 86.5t-80 253.5t79.5 253.5t211.5 86.5q131 0 211 -86.5t80 -253.5t-80 -253.5t-211 -86.5zM227 0l844 1440l215 -6l-840 -1434h-219zM383 954q40 0 62 31.5t22 118.5t-22 118t-62 31q-41 0 -63.5 -31.5t-22.5 -117.5t22.5 -118t63.5 -32zM1135 -10
q-131 0 -211 86.5t-80 253.5t80 253.5t211 86.5t210.5 -86.5t79.5 -253.5t-79.5 -253.5t-210.5 -86.5zM1135 180q41 0 63.5 32t22.5 118t-22.5 117.5t-63.5 31.5q-40 0 -62 -31t-22 -118t22 -118.5t62 -31.5z" />
    <glyph glyph-name="ampersand" unicode="&#x26;" horiz-adv-x="1484" 
d="M1430 0h-332l-88 94q-164 -119 -385 -119q-109 0 -206.5 28t-174.5 81t-122.5 137.5t-45.5 188.5q0 61 20 114t48.5 89.5t73.5 71.5t79 54.5t82 42.5q-74 91 -112 169.5t-38 160.5q0 71 23 132t69 111t125.5 78.5t184.5 28.5q101 0 178.5 -28.5t123 -78.5t68.5 -111
t23 -132q0 -120 -69 -210.5t-207 -164.5l241 -260q61 126 64 277h270q-23 -287 -145 -482zM631 1243q-73 0 -113.5 -39.5t-40.5 -97.5q0 -44 26.5 -88t96.5 -121q103 56 138.5 106t35.5 103q0 58 -37.5 97.5t-105.5 39.5zM627 231q106 0 198 62l-299 321q-127 -84 -127 -198
q0 -78 63.5 -131.5t164.5 -53.5z" />
    <glyph glyph-name="quotesingle" unicode="'" horiz-adv-x="450" 
d="M82 831h287v603h-287v-603z" />
    <glyph glyph-name="parenleft" unicode="(" horiz-adv-x="702" 
d="M309 1526h289q-207 -377 -207 -871q0 -523 207 -921h-289q-217 388 -217 921q0 507 217 871z" />
    <glyph glyph-name="parenright" unicode=")" horiz-adv-x="702" 
d="M381 1526q217 -364 217 -871q0 -533 -217 -921h-289q207 398 207 921q0 494 -207 871h289z" />
    <glyph glyph-name="asterisk" unicode="*" horiz-adv-x="1089" 
d="M936 1114l-193 -53l136 -178l-213 -131l-121 170l-121 -170l-213 131l133 178l-190 53l59 246l215 -64l-6 230h240l-3 -230l218 64z" />
    <glyph glyph-name="plus" unicode="+" horiz-adv-x="1210" 
d="M1118 707v-258h-377v-375h-274v375h-375v258h375v372h274v-372h377z" />
    <glyph glyph-name="comma" unicode="," horiz-adv-x="528" 
d="M102 -342v92q65 13 95 62.5t30 121.5v66h-125v340h324v-324q0 -94 -19.5 -161.5t-49 -105t-75 -58.5t-86 -27t-94.5 -6z" />
    <glyph glyph-name="hyphen" unicode="-" horiz-adv-x="794" 
d="M82 678h631v-225h-631v225z" />
    <glyph glyph-name="period" unicode="." horiz-adv-x="528" 
d="M102 340h324v-340h-324v340z" />
    <glyph glyph-name="slash" unicode="/" horiz-adv-x="980" 
d="M920 1434l-558 -1430h-301l560 1430h299z" />
    <glyph glyph-name="zero" unicode="0" horiz-adv-x="1310" 
d="M655 1452q88 0 169 -23.5t157 -79t131.5 -138.5t89 -210t33.5 -284q0 -158 -33.5 -285t-89 -209.5t-131.5 -138t-157 -79t-169 -23.5q-87 0 -167.5 23.5t-156.5 79t-132 138t-89.5 209.5t-33.5 285q0 157 33.5 284t89.5 210t132 138.5t156.5 79t167.5 23.5zM936 717
q0 78 -8 145.5t-28 130t-51 106.5t-80.5 70.5t-113.5 26.5q-79 0 -135.5 -39t-87 -108.5t-44 -151t-13.5 -180.5q0 -100 13.5 -181.5t44 -151t87 -108t135.5 -38.5q64 0 113.5 26t80.5 70t51 107t28 130t8 146z" />
    <glyph glyph-name="one" unicode="1" horiz-adv-x="813" 
d="M676 1434v-1434h-299v1069q-101 -106 -311 -106v245q124 14 200.5 67t110.5 159h299z" />
    <glyph glyph-name="two" unicode="2" horiz-adv-x="1175" 
d="M82 0v35q0 93 10 163t36 138.5t72 126.5t116.5 115.5t170.5 115.5q20 12 64 36.5t63.5 36.5t53 34.5t49.5 41t34.5 45t26.5 57.5t8 67q0 52 -18 90t-48 58.5t-63.5 30t-70.5 9.5t-71 -10.5t-66.5 -34t-52 -70.5t-19.5 -112v-27h-285v27q0 217 123.5 346t370.5 129
q124 0 221 -34.5t156.5 -94.5t90.5 -138t31 -169q0 -54 -11.5 -101t-26 -82t-45.5 -71t-54.5 -58t-70 -53t-74.5 -46.5t-85.5 -47.5t-86.5 -49q-110 -62 -166.5 -123t-56.5 -131v-8h675v-242h-1001z" />
    <glyph glyph-name="three" unicode="3" horiz-adv-x="1249" 
d="M864 760q32 -3 69.5 -15t79.5 -39t75.5 -64t56 -95.5t22.5 -128.5q0 -198 -145.5 -320.5t-405.5 -122.5q-254 0 -400 139.5t-144 364.5h278q4 -66 28.5 -115.5t63 -77.5t83 -41.5t93.5 -13.5q34 0 67 6t66.5 21t59 37t41.5 58t16 81q0 88 -72.5 149.5t-224.5 61.5h-69
v197h69q74 0 125.5 19t75.5 50.5t33.5 60.5t9.5 60q0 80 -59.5 122t-143.5 42q-42 0 -78 -10.5t-68.5 -34t-52 -68.5t-20.5 -108h-278q0 225 131.5 351t361.5 126q110 0 203.5 -31t156.5 -83.5t98.5 -122t35.5 -146.5q0 -67 -22.5 -123t-59.5 -92.5t-76 -59.5t-80 -34z" />
    <glyph glyph-name="four" unicode="4" horiz-adv-x="1226" 
d="M1155 336h-164v-336h-299v336h-620v239l620 859h299v-859h164v-239zM692 575v498l-360 -498h360z" />
    <glyph glyph-name="five" unicode="5" horiz-adv-x="1234" 
d="M688 991q207 0 344 -135t137 -362q0 -244 -149.5 -379t-405.5 -135q-244 0 -384.5 132.5t-137.5 346.5h270q2 -64 26 -112t61.5 -75t79 -40t85.5 -13q34 0 65.5 6t68 24.5t63 47.5t44 80t17.5 117q0 63 -19.5 112.5t-47 77t-63.5 46t-64.5 24.5t-52.5 6q-152 0 -232 -121
h-270l110 795h801v-238h-600l-45 -319q5 6 15 16t36.5 28.5t58.5 33t82.5 25.5t106.5 11z" />
    <glyph glyph-name="six" unicode="6" horiz-adv-x="1230" 
d="M692 936q53 0 110.5 -12.5t122 -45.5t114.5 -82.5t83 -132.5t33 -186q0 -111 -34 -199t-87 -142t-124 -90t-140 -50t-139 -14q-90 0 -168 23.5t-148.5 78t-120.5 136.5t-79 206.5t-29 280.5q0 133 19.5 244.5t62 205t106.5 158.5t156 101t207 36q100 0 182 -25t136 -65
t92 -93.5t55.5 -107t21.5 -108.5h-264q-17 88 -82.5 131t-136.5 43q-53 0 -96.5 -18.5t-71.5 -47t-48.5 -69.5t-30.5 -78t-16 -82.5t-7.5 -73t-1.5 -57.5q14 39 100.5 87t222.5 48zM637 223q39 0 76.5 12.5t72.5 40.5t56.5 80.5t21.5 124.5q0 55 -16 99.5t-41 71.5t-57 45
t-61.5 25t-57.5 7q-37 0 -74 -12t-73 -38t-58.5 -75.5t-22.5 -114.5q0 -77 25 -133t64 -83t75 -38.5t70 -11.5z" />
    <glyph glyph-name="seven" unicode="7" horiz-adv-x="1048" 
d="M977 1434v-246q-388 -588 -461 -1188h-307q86 605 489 1188h-637v246h916z" />
    <glyph glyph-name="eight" unicode="8" horiz-adv-x="1224" 
d="M913 811q117 -52 181.5 -144.5t64.5 -215.5q0 -112 -44.5 -203t-120.5 -149t-174 -88.5t-208 -30.5t-208 30.5t-174 88.5t-120 149t-44 203q0 123 64 215.5t181 144.5q-151 108 -151 274q0 157 121.5 260t330.5 103t331 -103t122 -260q0 -165 -152 -274zM612 1243
q-90 0 -139 -48t-49 -126q0 -79 48.5 -130.5t139.5 -51.5t141 51.5t50 130.5q0 77 -50.5 125.5t-140.5 48.5zM612 221q123 0 183.5 70t60.5 174q0 113 -70 175t-174 62t-173.5 -62t-69.5 -175q0 -105 60.5 -174.5t182.5 -69.5z" />
    <glyph glyph-name="nine" unicode="9" horiz-adv-x="1220" 
d="M528 498q-43 0 -90 9t-100.5 29t-101 56t-86 84t-61.5 120.5t-23 159.5q0 111 34 199t87.5 142.5t124.5 90.5t139.5 50t138.5 14q90 0 168.5 -23.5t148.5 -78t120 -136.5t79 -206.5t29 -280.5q0 -133 -19.5 -244.5t-62 -205t-106.5 -158.5t-156 -101t-207 -36
q-100 0 -182 25t-136 65t-92 93.5t-55.5 107t-20.5 108.5h262q13 -61 52 -102t82 -56.5t88 -15.5q53 0 96 18.5t71 47t48.5 69t30.5 79t16 82.5t7.5 73t0.5 57q-13 -39 -100.5 -87t-223.5 -48zM584 1210q-39 0 -76 -12.5t-72.5 -40.5t-57.5 -81t-22 -124q0 -68 24 -119
t61.5 -77.5t75 -38.5t73.5 -12q38 0 75.5 12t73 38t58 75t22.5 114q0 62 -17 111t-43 77.5t-59 46.5t-61.5 24.5t-54.5 6.5z" />
    <glyph glyph-name="colon" unicode=":" horiz-adv-x="610" 
d="M143 1067h324v-340h-324v340zM143 340h324v-340h-324v340z" />
    <glyph glyph-name="semicolon" unicode=";" horiz-adv-x="610" 
d="M143 1067h324v-340h-324v340zM143 -342v92q65 13 95 62.5t30 121.5v66h-125v340h324v-324q0 -94 -19.5 -161.5t-49 -105t-75 -58.5t-86 -27t-94.5 -6z" />
    <glyph glyph-name="less" unicode="&#x3c;" horiz-adv-x="1038" 
d="M946 276l-581 220l581 215v278l-854 -366v-256l854 -367v276z" />
    <glyph glyph-name="equal" unicode="=" horiz-adv-x="983" 
d="M78 842h684v-226h-684v226zM78 514h684v-225h-684v225z" />
    <glyph glyph-name="greater" unicode="&#x3e;" horiz-adv-x="1038" 
d="M92 276v-276l854 367v256l-854 366v-278l582 -215z" />
    <glyph glyph-name="question" unicode="?" horiz-adv-x="1159" 
d="M594 1448q-105 0 -193.5 -27.5t-160 -84t-111 -155t-37.5 -229.5h299q0 240 203 240q92 0 133 -47t41 -111q0 -35 -17.5 -65t-45 -53.5t-61 -48t-67.5 -56t-61.5 -69t-45 -95t-17.5 -127.5v-53h319v53q0 52 16.5 92.5t42.5 68t57.5 52.5t62.5 51.5t57 58.5t42.5 80.5
t16.5 110.5q0 196 -131.5 305t-341.5 109zM451 340h323v-340h-323v340z" />
    <glyph glyph-name="at" unicode="@" horiz-adv-x="1560" 
d="M907 1036h193v-340q0 -143 90 -143q29 0 49 15t29 42.5t12.5 55t3.5 63.5q0 228 -142 374t-368 146q-101 0 -191 -36.5t-159 -103.5t-109.5 -171t-40.5 -231q0 -117 41.5 -217t110.5 -166t159.5 -103t188.5 -37q191 0 299 99l234 -58q-80 -111 -222.5 -175t-310.5 -64
q-133 0 -258 50.5t-223 141t-157.5 228.5t-59.5 301q0 114 27 217t75.5 183.5t114.5 145.5t143.5 107.5t163.5 65t174 22.5q141 0 270.5 -53.5t227 -146.5t155.5 -228.5t58 -290.5q0 -175 -86.5 -274t-208.5 -99q-45 0 -81.5 11.5t-59 26.5t-41.5 39t-27.5 40.5t-17.5 38.5
q-4 -18 -21 -42.5t-45 -51.5t-72.5 -45.5t-93.5 -18.5q-52 0 -104 21t-97 62t-73.5 111t-28.5 157t28 156t72.5 109.5t95 61.5t101.5 21q53 0 103 -27.5t79 -67.5v78zM756 549q68 0 99.5 49.5t31.5 106.5q0 55 -31.5 103t-99.5 48q-34 0 -60 -16.5t-39 -41t-19.5 -48.5
t-6.5 -45q0 -20 6.5 -44.5t19.5 -50.5t39 -43.5t60 -17.5z" />
    <glyph glyph-name="A" unicode="A" horiz-adv-x="1478" 
d="M1098 0l-92 268h-531l-92 -268h-338l555 1434h281l553 -1434h-336zM553 498h375l-189 549z" />
    <glyph glyph-name="B" unicode="B" horiz-adv-x="1357" 
d="M999 788q124 -38 198.5 -138.5t74.5 -223.5q0 -203 -138 -314.5t-413 -111.5h-615v1434h592q235 0 357.5 -100t122.5 -271q0 -94 -51.5 -167t-127.5 -108zM420 1176v-302h274q73 0 114.5 45.5t41.5 112.5q0 72 -43.5 108t-104.5 36h-282zM711 258q116 0 170.5 51
t54.5 131q0 36 -10 68.5t-33 62.5t-67 48t-105 18h-301v-379h291z" />
    <glyph glyph-name="C" unicode="C" horiz-adv-x="1394" 
d="M743 252q114 0 176.5 49t102.5 158h311q-13 -117 -65.5 -209.5t-134 -150t-182 -87.5t-214.5 -30q-301 0 -481 193t-180 542t180 542t481 193q152 0 277.5 -51t211.5 -160.5t103 -263.5h-309q-41 108 -103 156.5t-174 48.5q-163 0 -251.5 -123.5t-88.5 -341.5
q0 -216 89 -340.5t251 -124.5z" />
    <glyph glyph-name="D" unicode="D" horiz-adv-x="1409" 
d="M651 1434q342 0 517 -184.5t175 -532.5t-175 -532.5t-517 -184.5h-545v1434h545zM623 270q224 0 315.5 103.5t91.5 343.5t-91.5 343t-315.5 103h-203v-893h203z" />
    <glyph glyph-name="E" unicode="E" horiz-adv-x="1193" 
d="M420 270h713v-270h-1027v1434h1006v-271h-692v-311h590v-250h-590v-332z" />
    <glyph glyph-name="F" unicode="F" horiz-adv-x="1116" 
d="M1055 1163h-635v-329h524v-252h-524v-582h-314v1434h949v-271z" />
    <glyph glyph-name="G" unicode="G" horiz-adv-x="1458" 
d="M1372 786v-96q0 -355 -147.5 -531.5t-468.5 -176.5q-314 0 -497 192.5t-183 542.5q0 175 48.5 314.5t136 231.5t209 140.5t267.5 48.5t268 -48.5t209 -150.5t111 -245h-309q-43 89 -106.5 131.5t-166.5 42.5q-161 0 -250.5 -124t-89.5 -341q0 -216 91 -340.5t262 -124.5
q154 0 235 67.5t96 223.5h-296v243h581z" />
    <glyph glyph-name="H" unicode="H" horiz-adv-x="1388" 
d="M969 1434h313v-1434h-313v590h-549v-590h-314v1434h314v-590h549v590z" />
    <glyph glyph-name="I" unicode="I" horiz-adv-x="526" 
d="M420 0h-314v1434h314v-1434z" />
    <glyph glyph-name="J" unicode="J" horiz-adv-x="1077" 
d="M199 371q110 -115 260 -115q44 0 78.5 10.5t66 36.5t49 77.5t17.5 125.5v928h311v-942q0 -132 -41 -232t-114 -158.5t-164 -87t-199 -28.5q-140 0 -248.5 53.5t-179.5 136.5z" />
    <glyph glyph-name="K" unicode="K" horiz-adv-x="1443" 
d="M797 788l606 -788h-346l-436 565v17l-201 -236v-346h-314v1434h314v-666l569 666h359z" />
    <glyph glyph-name="L" unicode="L" horiz-adv-x="1128" 
d="M420 270h653v-270h-967v1434h314v-1164z" />
    <glyph glyph-name="M" unicode="M" horiz-adv-x="1738" 
d="M106 1434h363l399 -1018l402 1018h362v-1434h-313v907h-10l-326 -907h-229l-324 907h-10v-907h-314v1434z" />
    <glyph glyph-name="N" unicode="N" horiz-adv-x="1423" 
d="M1317 1434v-1434h-330l-561 913h-6v-913h-314v1434h318l573 -932h7v932h313z" />
    <glyph glyph-name="O" unicode="O" horiz-adv-x="1513" 
d="M758 1452q312 0 496 -195t184 -540q0 -343 -184 -539t-496 -196t-497 196t-185 539q0 345 184.5 540t497.5 195zM758 252q167 0 259.5 124t92.5 341q0 218 -92 341.5t-260 123.5q-169 0 -262 -123.5t-93 -341.5q0 -217 93 -341t262 -124z" />
    <glyph glyph-name="P" unicode="P" horiz-adv-x="1288" 
d="M682 1434q276 0 413.5 -133.5t137.5 -364.5q0 -112 -33 -202t-99 -156.5t-172.5 -103t-246.5 -36.5h-262v-438h-314v1434h576zM678 709q108 0 165.5 60.5t57.5 166.5q0 107 -57 167t-166 60h-258v-454h258z" />
    <glyph glyph-name="Q" unicode="Q" horiz-adv-x="1495" 
d="M1438 717q0 -291 -138 -484l103 -104l-186 -176l-111 110q-150 -81 -348 -81q-312 0 -497 196t-185 539q0 345 184.5 540t497.5 195q312 0 496 -195t184 -540zM758 252q76 0 137 27l-199 200l187 176l186 -188q41 106 41 250q0 218 -92 341.5t-260 123.5
q-169 0 -262 -123.5t-93 -341.5q0 -217 93 -341t262 -124z" />
    <glyph glyph-name="R" unicode="R" horiz-adv-x="1370" 
d="M1274 240q0 -95 8 -145.5t33 -94.5h-314q-24 44 -32 95.5t-8 144.5v96q0 85 -53.5 134.5t-145.5 49.5h-342v-520h-314v1434h619q268 0 401.5 -119.5t133.5 -313.5q0 -65 -16 -119.5t-46 -95t-62.5 -69.5t-74.5 -55q116 -54 164.5 -129t48.5 -187v-106zM713 766
q121 0 172 50.5t51 156.5q0 190 -217 190h-299v-397h293z" />
    <glyph glyph-name="S" unicode="S" horiz-adv-x="1329" 
d="M801 831q246 -50 349 -144t103 -273q0 -137 -79 -236.5t-210 -147.5t-298 -48q-263 0 -420 127t-170 360h323q41 -229 271 -229q118 0 189 51.5t71 126.5q0 76 -48.5 114.5t-160.5 59.5l-189 35q-77 15 -137 35t-115 53t-91.5 76t-58 106t-21.5 141q0 187 146 300.5
t388 113.5q249 0 401 -112.5t170 -327.5h-321q-23 182 -250 182q-105 0 -160 -52t-55 -112q0 -124 152 -153z" />
    <glyph glyph-name="T" unicode="T" horiz-adv-x="1228" 
d="M1184 1434v-271h-412v-1163h-313v1163h-414v271h1139z" />
    <glyph glyph-name="U" unicode="U" horiz-adv-x="1394" 
d="M1288 555q0 -271 -161.5 -422t-428.5 -151q-269 0 -430.5 150.5t-161.5 422.5v879h314v-867q0 -157 72.5 -236t205.5 -79t205 79t72 236v867h313v-879z" />
    <glyph glyph-name="V" unicode="V" horiz-adv-x="1458" 
d="M1090 1434h333l-553 -1434h-280l-555 1434h334l360 -1047z" />
    <glyph glyph-name="W" unicode="W" horiz-adv-x="2107" 
d="M1735 1434h327l-411 -1434h-289l-309 954l-310 -954h-286l-412 1434h328l245 -959l285 959h301l285 -959z" />
    <glyph glyph-name="X" unicode="X" horiz-adv-x="1388" 
d="M1354 0h-350l-310 471l-309 -471h-350l485 739l-457 695h351l280 -428l281 428h350l-455 -695z" />
    <glyph glyph-name="Y" unicode="Y" horiz-adv-x="1443" 
d="M883 526v-526h-322v526l-516 908h352l324 -607l326 607h352z" />
    <glyph glyph-name="Z" unicode="Z" horiz-adv-x="1273" 
d="M1192 270v-270h-1110v238l739 925h-721v271h1084l2 -238l-744 -926h750z" />
    <glyph glyph-name="bracketleft" unicode="[" horiz-adv-x="663" 
d="M406 1270v-1280h151v-256h-451v1792h451v-256h-151z" />
    <glyph glyph-name="backslash" unicode="\" horiz-adv-x="980" 
d="M61 1434h299l560 -1430h-302z" />
    <glyph glyph-name="bracketright" unicode="]" horiz-adv-x="663" 
d="M258 1270h-152v256h451v-1792h-451v256h152v1280z" />
    <glyph glyph-name="asciicircum" unicode="^" horiz-adv-x="1028" 
d="M709 952l-195 285l-195 -285h-227l334 482h176l334 -482h-227z" />
    <glyph glyph-name="underscore" unicode="_" horiz-adv-x="1208" 
d="M92 0h1024v-256h-1024v256z" />
    <glyph glyph-name="grave" unicode="`" horiz-adv-x="485" 
d="M485 1190l-163 262h-328l239 -262h252z" />
    <glyph glyph-name="a" unicode="a" horiz-adv-x="1146" 
d="M1034 276q0 -90 78 -96v-170q-42 -18 -108 -18q-104 0 -170 43.5t-66 126.5v8q-109 -184 -350 -184q-73 0 -136 18.5t-115 56t-82 102.5t-30 150q0 40 7.5 74t19 60t32.5 48.5t40.5 38t50.5 30t55 23.5t61.5 18t62.5 14t65 12q31 6 83.5 15t83 14.5t64.5 15.5t55 22v2
q0 49 -15 82.5t-42 48t-52.5 20t-58.5 5.5q-152 0 -170 -119h-282q30 338 454 338q250 0 357.5 -104.5t107.5 -341.5v-353zM735 336v188q-22 -11 -43.5 -19.5t-48 -15.5t-43.5 -10.5t-53 -10.5t-53 -11q-75 -19 -107.5 -49.5t-32.5 -81.5q0 -54 37 -90.5t109 -36.5
q49 0 92.5 15.5t71.5 40t44.5 44t26.5 37.5z" />
    <glyph glyph-name="b" unicode="b" horiz-adv-x="1220" 
d="M696 1075q61 0 124 -18.5t125.5 -60.5t111 -103t78.5 -154.5t30 -206.5q0 -115 -30.5 -209.5t-79 -155.5t-112.5 -103t-127 -60t-126 -18q-58 0 -108 16t-81 39t-53.5 48.5t-32 44.5t-9.5 28v-162h-300v1446h300v-516q31 54 109 99.5t181 45.5zM631 227q109 0 177.5 76.5
t68.5 228.5q0 151 -68.5 226.5t-177.5 75.5q-104 0 -171 -77.5t-67 -224.5q0 -149 67 -227t171 -78z" />
    <glyph glyph-name="c" unicode="c" horiz-adv-x="1112" 
d="M582 227q88 0 133.5 40.5t66.5 113.5h269q-15 -91 -51.5 -162t-83 -114t-106 -70.5t-115.5 -38t-115 -10.5q-76 0 -148.5 17.5t-141.5 59t-120.5 102.5t-83 155t-31.5 210q0 115 31 209t82.5 155.5t120.5 103t141 59.5t148 18q61 0 116 -10t113 -36.5t103 -68.5
t80.5 -111t51.5 -159h-274q-17 70 -59.5 107t-128.5 37q-111 0 -173.5 -79.5t-62.5 -224.5q0 -147 63 -225t175 -78z" />
    <glyph glyph-name="d" unicode="d" horiz-adv-x="1220" 
d="M524 1075q103 0 181.5 -45.5t109.5 -99.5v516h299v-1446h-299v162q0 -12 -16.5 -38.5t-48 -58.5t-90.5 -55.5t-130 -23.5q-63 0 -126 18t-127 60t-112.5 103t-79 155.5t-30.5 209.5q0 113 30 206.5t78.5 154.5t111 103t125.5 60.5t124 18.5zM590 227q104 0 170.5 78
t66.5 227q0 147 -66.5 224.5t-170.5 77.5q-109 0 -177.5 -75.5t-68.5 -226.5q0 -152 68.5 -228.5t177.5 -76.5z" />
    <glyph glyph-name="e" unicode="e" horiz-adv-x="1144" 
d="M1090 494q0 -29 -3 -56h-743q17 -121 79 -176t173 -55q155 0 205 98h260q-91 -319 -481 -319q-75 0 -147.5 18t-141.5 60t-121 102.5t-83.5 153.5t-31.5 206q0 115 31.5 209t83 156t121 104.5t142.5 61t149 18.5q82 0 154.5 -18.5t138 -62.5t113 -109.5t75 -165.5
t27.5 -225zM346 623h459q-3 106 -61 168.5t-162 62.5q-202 0 -236 -231z" />
    <glyph glyph-name="f" unicode="f" horiz-adv-x="741" 
d="M616 1237q-71 0 -97.5 -31t-26.5 -104v-37h202v-234h-202v-831h-299v831h-152v234h152v43q0 70 12.5 126t31.5 93t49 63.5t58 41t66.5 22.5t67 10t65.5 2q93 0 157 -22v-217q-50 10 -84 10z" />
    <glyph glyph-name="g" unicode="g" horiz-adv-x="1212" 
d="M807 1071h299v-1042q0 -115 -36 -204t-90 -139.5t-128 -83t-139 -43t-133 -10.5q-167 0 -293 64t-181 172l185 117q28 -30 54 -50.5t81 -39.5t125 -19q134 0 195 55.5t61 180.5v133q0 -9 -9.5 -28t-32.5 -44t-54.5 -48t-82 -38.5t-108.5 -15.5q-60 0 -121.5 18t-124 60
t-110.5 102.5t-78.5 155t-30.5 208.5q0 112 30 206t78 155t109.5 103t123 60.5t120.5 18.5q102 0 180 -45t111 -100v141zM586 229q104 0 168.5 77t64.5 226q0 148 -65 225t-168 77t-168.5 -75.5t-65.5 -226.5t65.5 -227t168.5 -76z" />
    <glyph glyph-name="h" unicode="h" horiz-adv-x="1232" 
d="M748 1075q378 0 378 -434v-641h-299v625q0 104 -52 153t-138 49q-53 0 -97.5 -21t-71 -53t-42.5 -64t-20 -60v-629h-300v1446h300v-592q13 32 39.5 66.5t68 71t103.5 60t131 23.5z" />
    <glyph glyph-name="i" unicode="i" horiz-adv-x="512" 
d="M106 1452h300v-227h-300v227zM106 1065h300v-1065h-300v1065z" />
    <glyph glyph-name="j" unicode="j" horiz-adv-x="530" 
d="M125 1452h299v-227h-299v227zM-127 -172q94 -25 139 -25q113 0 113 129v1133h299v-1182q0 -167 -87.5 -250.5t-244.5 -83.5q-135 0 -219 37v242z" />
    <glyph glyph-name="k" unicode="k" horiz-adv-x="1189" 
d="M850 0l-350 426l-94 -96v-330h-300v1446h300v-774l372 393h338l-432 -449l492 -616h-326z" />
    <glyph glyph-name="l" unicode="l" horiz-adv-x="512" 
d="M106 1446h300v-1446h-300v1446z" />
    <glyph glyph-name="m" unicode="m" horiz-adv-x="1890" 
d="M1417 1075q78 0 142.5 -25t116 -77t80 -141.5t28.5 -210.5v-621h-299v614q0 109 -48.5 161t-127.5 52q-52 0 -95 -21.5t-68 -53t-38.5 -61.5t-13.5 -52v-639h-299v614q0 109 -48.5 161t-125.5 52q-51 0 -93 -20t-67 -51.5t-39 -64.5t-16 -64v-627h-300v1065h300v-211
q13 33 36.5 67t62 70.5t98 60t128.5 23.5q261 0 334 -229q38 88 134.5 158.5t217.5 70.5z" />
    <glyph glyph-name="n" unicode="n" horiz-adv-x="1232" 
d="M748 1075q378 0 378 -434v-641h-299v625q0 104 -52 153t-138 49q-53 0 -97.5 -21t-71 -53t-42.5 -64t-20 -60v-629h-300v1065h300v-211q13 32 39.5 66.5t68 71t103.5 60t131 23.5z" />
    <glyph glyph-name="o" unicode="o" horiz-adv-x="1167" 
d="M584 1075q70 0 141.5 -18t141.5 -60.5t124 -104t87.5 -156t33.5 -208.5q0 -113 -33.5 -206.5t-87.5 -154.5t-124 -103t-141.5 -60t-141.5 -18t-141.5 18t-142 60t-124.5 103t-87.5 154.5t-33.5 206.5q0 114 33.5 208.5t87.5 156t124.5 104t142 60.5t141.5 18zM825 528
q0 154 -68.5 230t-172.5 76t-173 -76t-69 -230q0 -148 69.5 -224.5t172.5 -76.5t172 76.5t69 224.5z" />
    <glyph glyph-name="p" unicode="p" horiz-adv-x="1220" 
d="M696 1075q58 0 120 -18.5t125 -61t112.5 -103t80.5 -154.5t31 -206q0 -115 -31 -209.5t-80.5 -155.5t-113 -103t-126.5 -60t-124 -18q-58 0 -108 14t-81 33.5t-53.5 41.5t-32 38.5t-9.5 23.5v-526h-300v1454h300v-133q32 53 110 98t180 45zM629 227q106 0 177 76.5
t71 228.5q0 150 -71 226t-177 76q-104 0 -170 -77.5t-66 -224.5q0 -149 66 -227t170 -78z" />
    <glyph glyph-name="q" unicode="q" horiz-adv-x="1220" 
d="M524 1075q102 0 181 -45t110 -98v133h299v-1454h-299v526q0 -7 -9.5 -23.5t-32 -38.5t-54 -41.5t-81.5 -33.5t-108 -14q-61 0 -124 18t-126.5 60t-113 103t-80.5 155.5t-31 209.5q0 112 31 206t80.5 154.5t112.5 103t125 61t120 18.5zM592 227q104 0 169.5 78t65.5 227
q0 147 -65.5 224.5t-169.5 77.5q-106 0 -177 -76t-71 -226q0 -152 71 -228.5t177 -76.5z" />
    <glyph glyph-name="r" unicode="r" horiz-adv-x="860" 
d="M723 1075q51 0 92 -8v-262q-41 2 -70 2q-158 0 -238.5 -62t-100.5 -178v-567h-300v1065h300v-236q24 112 105 179t212 67z" />
    <glyph glyph-name="s" unicode="s" horiz-adv-x="1034" 
d="M698 735q-18 64 -62 91.5t-120 27.5q-72 0 -115 -27t-43 -77q0 -77 113 -101l191 -43q146 -33 197 -57q99 -47 122 -150q8 -37 8 -84q0 -162 -130 -245.5t-343 -83.5q-206 0 -327 89.5t-144 264.5h274q34 -133 199 -133q86 0 129 30t43 82q0 41 -25.5 63t-86.5 34
l-172 37q-174 38 -250 114.5t-76 190.5q0 149 115 233t319 84t314.5 -90t138.5 -250h-269z" />
    <glyph glyph-name="t" unicode="t" horiz-adv-x="780" 
d="M614 219q48 0 111 14v-215q-75 -30 -195 -30q-75 0 -130 12.5t-102.5 44.5t-72 94.5t-24.5 155.5v536h-176v234h176v266h299v-266h215v-234h-215v-503q0 -53 26.5 -81t87.5 -28z" />
    <glyph glyph-name="u" unicode="u" horiz-adv-x="1222" 
d="M817 1065h299v-1065h-299v209q-10 -25 -28 -52t-48.5 -58.5t-67.5 -55.5t-89 -40.5t-109 -16.5q-85 0 -151.5 23t-119 73t-80.5 136t-28 204v643h299v-627q0 -105 53 -155t140 -50q53 0 97 21.5t70.5 54t42 65t19.5 60.5v631z" />
    <glyph glyph-name="v" unicode="v" horiz-adv-x="1218" 
d="M774 0h-330l-409 1065h299l276 -766l275 766h299z" />
    <glyph glyph-name="w" unicode="w" horiz-adv-x="1667" 
d="M1632 1065l-301 -1065h-254l-243 711l-242 -711h-256l-301 1065h301l168 -686l211 686h237l211 -686l168 686h301z" />
    <glyph glyph-name="x" unicode="x" horiz-adv-x="1187" 
d="M1143 0h-326l-223 340l-223 -340h-326l383 555l-350 510h325l191 -293l190 293h326l-350 -510z" />
    <glyph glyph-name="y" unicode="y" horiz-adv-x="1181" 
d="M844 1065h303l-436 -1061q-100 -249 -221 -338t-336 -67v251q69 -7 119.5 2t81 33t46.5 46.5t31 56.5q12 34 9 58t-23 73l-383 946h309l244 -688z" />
    <glyph glyph-name="z" unicode="z" horiz-adv-x="1044" 
d="M438 250h525v-250h-881v250l522 565h-502v250h861v-250z" />
    <glyph glyph-name="braceleft" unicode="{" horiz-adv-x="718" 
d="M483 766l-114 -139l114 -135v-441q0 -61 72 -61h72v-256h-211q-40 0 -76 9t-73.5 32t-60 71.5t-22.5 118.5v516l-92 146l92 149v518q0 56 16 99.5t39.5 67.5t56 39.5t61 20.5t59.5 5h211v-256h-72q-72 0 -72 -62v-442z" />
    <glyph glyph-name="bar" unicode="|" horiz-adv-x="563" 
d="M154 1638h256v-2027h-256v2027z" />
    <glyph glyph-name="braceright" unicode="}" horiz-adv-x="718" 
d="M236 766v442q0 62 -72 62h-72v256h211q31 0 59.5 -5t61 -20.5t56 -39.5t39.5 -67.5t16 -99.5v-518l92 -149l-92 -146v-516q0 -70 -22.5 -118.5t-60 -71.5t-73.5 -32t-76 -9h-211v256h72q72 0 72 61v441l114 135z" />
    <glyph glyph-name="asciitilde" unicode="~" horiz-adv-x="1091" 
d="M866 670h123q0 -122 -68.5 -201.5t-193.5 -79.5q-57 0 -114.5 26.5t-98 57.5t-95.5 57.5t-108 26.5q-35 0 -61 -18t-25 -47h-123q0 122 68.5 201t194.5 79q47 0 92.5 -17.5t82.5 -42t73.5 -49t80 -42t86.5 -17.5q34 0 60.5 19t25.5 47z" />
    <glyph glyph-name="exclamdown" unicode="&#xa1;" horiz-adv-x="548" 
d="M106 725v340h324v-340h-324zM412 584l8 -953h-303l6 953h289z" />
    <glyph glyph-name="cent" unicode="&#xa2;" horiz-adv-x="1112" 
d="M1051 526q-14 -82 -45.5 -147t-71.5 -107t-92.5 -71t-102.5 -42.5t-106 -17.5v-223h-109v223q-71 6 -136.5 27.5t-127 64t-106.5 101.5t-72 146.5t-27 193.5q0 130 40.5 232t109 163.5t149 95t170.5 41.5v228h109v-228q71 -6 132 -27t119 -62.5t99 -115t59 -172.5h-274
q-13 57 -44 92t-91 46v-586q115 21 149 145h269zM344 674q0 -124 47 -198t133 -93v582q-87 -17 -133.5 -92t-46.5 -199z" />
    <glyph glyph-name="sterling" unicode="&#xa3;" horiz-adv-x="1193" 
d="M1102 983h-283v37q0 21 -4.5 41.5t-18.5 45t-35.5 43t-59 30.5t-85.5 12q-59 0 -101.5 -16.5t-65.5 -44.5t-33 -59t-10 -66q0 -20 2.5 -39.5t10 -41t12.5 -35t18 -37.5t17.5 -32.5t21.5 -36t20 -32.5h231v-162h-164q3 -12 3 -25q0 -111 -42.5 -177t-158.5 -152
q68 26 137 30t131.5 -6t127.5 -21t148 -9t169 26v-256q-84 -20 -167.5 -21t-146.5 11.5t-132.5 24.5t-129 19t-132 -5.5t-144.5 -48.5l-144 178q99 87 149 166.5t50 169.5q0 55 -14 96h-187v162h105q-26 45 -41 77t-28 84t-13 107q0 192 142 310t359 118q130 0 239 -48.5
t178 -148t69 -231.5v-37z" />
    <glyph glyph-name="currency" unicode="&#xa4;" horiz-adv-x="1230" 
d="M1069 975q0 -99 -37 -180l98 -99l-190 -188l-82 82q-113 -74 -248 -74q-134 0 -243 70l-78 -78l-189 188l90 90q-38 87 -38 189t43 196l-95 95l189 188l86 -86q107 66 235 66q131 0 242 -68l88 88l190 -188l-102 -103q41 -87 41 -188zM610 760q50 0 90 16.5t63 41t38 55
t20.5 55.5t5.5 47q0 27 -10 60t-32 69.5t-67.5 61t-107.5 24.5q-50 0 -89.5 -16.5t-62.5 -41t-38 -55.5t-20 -56t-5 -46q0 -22 5 -47t20 -55.5t38 -55t62.5 -41t89.5 -16.5z" />
    <glyph glyph-name="yen" unicode="&#xa5;" horiz-adv-x="1443" 
d="M1399 1434l-510 -897h237v-175h-243v-65h243v-174h-243v-123h-322v123h-237v174h237v65h-237v175h231l-510 897h352l324 -607l326 607h352z" />
    <glyph glyph-name="brokenbar" unicode="&#xa6;" horiz-adv-x="563" 
d="M154 1638h256v-573h-256v573zM154 184h256v-573h-256v573z" />
    <glyph glyph-name="section" unicode="&#xa7;" horiz-adv-x="1421" 
d="M1319 403q0 -135 -82 -233q61 -87 61 -227q0 -89 -31.5 -161t-86 -121t-131 -81.5t-163 -47.5t-184.5 -15q-266 0 -423.5 121.5t-176.5 353.5h334q15 -98 79 -147.5t190 -49.5q123 0 190.5 40t67.5 112q0 79 -45 115.5t-158 62.5l-185 41q-79 19 -138 39t-117 53.5
t-95 76t-59.5 105.5t-22.5 142q0 138 86 241q-65 87 -65 226q0 187 149.5 294t397.5 107q239 0 391 -107.5t176 -320.5h-334q-8 58 -43 92t-81 45.5t-109 11.5q-110 0 -160.5 -37.5t-50.5 -93.5q0 -51 30.5 -86t112.5 -55l217 -51q246 -56 352.5 -158.5t106.5 -286.5z
M623 432l217 -51q49 -11 129 -35q14 25 14 62q0 79 -46 118.5t-157 65.5l-184 41q-34 7 -86 22q-31 -39 -31 -82q0 -50 30.5 -85.5t113.5 -55.5z" />
    <glyph glyph-name="dieresis" unicode="&#xa8;" horiz-adv-x="784" 
d="M0 1452h303v-225h-303v225zM479 1452h305v-225h-305v225z" />
    <glyph glyph-name="copyright" unicode="&#xa9;" horiz-adv-x="1613" 
d="M807 -14q-200 0 -367 93.5t-265.5 261.5t-98.5 376q0 155 58 291.5t156.5 232t233 150.5t283.5 55t283.5 -55t233 -150.5t156.5 -232t58 -291.5q0 -208 -98.5 -376t-265.5 -261.5t-367 -93.5zM807 158q115 0 217.5 41.5t178 114t119.5 177.5t44 226q0 160 -75 288.5
t-202.5 198.5t-281.5 70t-281.5 -70t-202.5 -198.5t-75 -288.5q0 -121 44 -226t119.5 -177.5t178 -114t217.5 -41.5zM809 492q126 0 160 110h205q-20 -82 -61 -142.5t-93.5 -92t-104.5 -46t-106 -14.5q-77 0 -148 27.5t-126.5 78.5t-89 130t-33.5 174q0 126 57.5 220.5
t146.5 140.5t193 46q43 0 84 -8t85 -29t80 -52.5t66.5 -83t46.5 -117.5h-206q-13 51 -54.5 78.5t-101.5 27.5q-88 0 -142.5 -57t-54.5 -166q0 -110 55 -167.5t142 -57.5z" />
    <glyph glyph-name="ordfeminine" unicode="&#xaa;" horiz-adv-x="765" 
d="M682 944q0 -99 49 -174h-166q-49 43 -49 111q-30 -34 -54.5 -55t-71.5 -40.5t-101 -19.5q-44 0 -83 10.5t-74.5 34t-56 67.5t-20.5 103q0 101 67 148.5t206 58.5l159 12q0 62 -29.5 84.5t-95.5 22.5q-43 0 -69 -10.5t-34 -22.5t-13 -31h-170q14 118 95 170.5t198 52.5
q174 0 243.5 -78t69.5 -243v-201zM334 924q38 0 64.5 8t43 25.5t24 30.5t18.5 39q1 2 1.5 3.5t1.5 3.5v35q-64 -8 -161 -14q-39 -4 -57.5 -23t-18.5 -41q0 -67 84 -67z" />
    <glyph glyph-name="guillemotleft" unicode="&#xab;" horiz-adv-x="948" 
d="M436 750l-172 -138l172 -139v-270l-354 286v244l354 287v-270zM866 750l-172 -138l172 -139v-270l-354 286v234l354 297v-270z" />
    <glyph glyph-name="logicalnot" unicode="&#xac;" horiz-adv-x="1071" 
d="M979 639v-434h-299v205h-588v229h887z" />
    <glyph glyph-name="uni00AD" unicode="&#xad;" horiz-adv-x="794" 
d="M82 678h631v-225h-631v225z" />
    <glyph glyph-name="registered" unicode="&#xae;" horiz-adv-x="1613" 
d="M807 -14q-200 0 -367 93.5t-265.5 261.5t-98.5 376q0 155 58 291.5t156.5 232t233 150.5t283.5 55t283.5 -55t233 -150.5t156.5 -232t58 -291.5q0 -208 -98.5 -376t-265.5 -261.5t-367 -93.5zM807 158q115 0 217.5 41.5t178 114t119.5 177.5t44 226q0 160 -75 288.5
t-202.5 198.5t-281.5 70t-281.5 -70t-202.5 -198.5t-75 -288.5q0 -121 44 -226t119.5 -177.5t178 -114t217.5 -41.5zM1098 455q0 -113 24 -140h-184q-16 21 -16 150v39q0 64 -31.5 87t-85.5 23h-113v-299h-168v803h303q269 0 269 -227q0 -155 -170 -203q94 -15 133 -55.5
t39 -118.5v-59zM805 752q129 0 129 122q0 51 -28 80t-79 29h-135v-231h113z" />
    <glyph glyph-name="macron" unicode="&#xaf;" horiz-adv-x="741" 
d="M0 1452h741v-174h-741v174z" />
    <glyph glyph-name="degree" unicode="&#xb0;" horiz-adv-x="794" 
d="M397 868q-128 0 -216.5 88t-88.5 213t88.5 214.5t216.5 89.5t216.5 -89.5t88.5 -214.5t-88.5 -213t-216.5 -88zM397 1079q28 0 48 11.5t28.5 28.5t12 29.5t3.5 20.5q0 9 -3.5 22t-12 30t-28.5 29t-48 12t-48 -12t-28.5 -29t-12 -30t-3.5 -22q0 -8 3.5 -20.5t12 -29.5
t28.5 -28.5t48 -11.5z" />
    <glyph glyph-name="plusminus" unicode="&#xb1;" horiz-adv-x="1210" 
d="M741 1047h377v-259h-377v-374h-274v374h-375v259h375v372h274v-372zM242 -33v226h684v-226h-684z" />
    <glyph glyph-name="uni00B2" unicode="&#xb2;" horiz-adv-x="544" 
d="M82 901v14q0 89 28.5 146t118.5 110q8 5 26.5 15t26 14.5t20 13.5t17 17t9 19.5t4.5 25.5q0 30 -20.5 46.5t-45.5 16.5q-27 0 -48 -18.5t-21 -54.5v-17h-115v17q0 80 46.5 129t137.5 49q90 0 138.5 -47.5t48.5 -120.5q0 -18 -4.5 -35t-9 -29.5t-18 -27.5t-19.5 -22
t-27 -22t-27.5 -19t-33 -20.5t-31.5 -19.5q-70 -38 -70 -71v-6h240v-103h-371z" />
    <glyph glyph-name="uni00B3" unicode="&#xb3;" horiz-adv-x="555" 
d="M358 1186q41 -2 78 -35t37 -98q0 -73 -53 -116.5t-152 -43.5q-90 0 -143 48.5t-53 125.5h112q3 -74 90 -74q37 0 61.5 18.5t24.5 55.5q0 72 -102 72h-22v84h22q76 0 76 67q0 24 -17.5 38.5t-48.5 14.5q-30 0 -49.5 -16t-19.5 -51h-109q0 79 48 123.5t128 44.5
q84 0 133.5 -41.5t49.5 -104.5q0 -46 -27 -74.5t-64 -37.5z" />
    <glyph glyph-name="acute" unicode="&#xb4;" horiz-adv-x="491" 
d="M0 1190h252l240 262h-328z" />
    <glyph glyph-name="uni00B5" unicode="&#xb5;" horiz-adv-x="1222" 
d="M817 1065h299v-1065h-299v209q-10 -25 -28 -52t-48.5 -58.5t-67.5 -55.5t-89 -40.5t-109 -16.5q-43 0 -80 6v-381h-299v1454h299v-627q0 -105 53 -155t140 -50q53 0 97 21.5t70.5 54t42 65t19.5 60.5v631z" />
    <glyph glyph-name="paragraph" unicode="&#xb6;" horiz-adv-x="1427" 
d="M1321 1434v-1885h-242v1708h-192v-1708h-266v1047h-97q-111 0 -202 35.5t-148 95t-88 133.5t-31 154q0 81 31 155.5t88 134t148 95t202 35.5h797z" />
    <glyph glyph-name="periodcentered" unicode="&#xb7;" horiz-adv-x="528" 
d="M102 752h324v-340h-324v340z" />
    <glyph glyph-name="cedilla" unicode="&#xb8;" horiz-adv-x="432" 
d="M227 -123q85 0 145 -47t60 -133q0 -54 -22.5 -93t-58.5 -61.5t-92.5 -36t-113 -18t-131.5 -4.5v121q191 0 191 84q0 46 -45 55.5t-88 -31.5l-72 115l98 174h248z" />
    <glyph glyph-name="uni00B9" unicode="&#xb9;" horiz-adv-x="391" 
d="M309 1436v-535h-110v389q-14 -25 -47 -35.5t-70 -1.5v109q37 -4 71 20t46 54h110z" />
    <glyph glyph-name="ordmasculine" unicode="&#xba;" horiz-adv-x="782" 
d="M391 1450q85 0 160.5 -39t125.5 -118t50 -181q0 -108 -50 -189.5t-125.5 -121t-160.5 -39.5q-62 0 -121.5 23.5t-107.5 66.5t-77.5 111t-29.5 149q0 102 50.5 181t126 118t159.5 39zM537 1112q0 70 -39.5 114t-106.5 44q-66 0 -104.5 -44t-38.5 -114q0 -75 38 -120.5
t105 -45.5t106.5 44.5t39.5 121.5z" />
    <glyph glyph-name="guillemotright" unicode="&#xbb;" horiz-adv-x="952" 
d="M96 750v270l355 -297v-234l-355 -286v270l172 139zM526 750v270l355 -287v-244l-355 -286v270l172 139z" />
    <glyph glyph-name="onequarter" unicode="&#xbc;" horiz-adv-x="1251" 
d="M309 1436v-535h-110v389q-14 -25 -47 -35.5t-70 -1.5v109q37 -4 71 20t46 54h110zM223 0h-149l893 1434h149zM1149 135h-62v-135h-110v135h-240v88l240 312h110v-312h62v-88zM977 223v185l-143 -185h143z" />
    <glyph glyph-name="onehalf" unicode="&#xbd;" horiz-adv-x="1206" 
d="M293 1436v-535h-111v389q-14 -25 -46.5 -35.5t-69.5 -1.5v109q37 -4 70.5 19.5t45.5 54.5h111zM223 0h-149l893 1434h149zM743 0v14q0 89 29 146t119 110q8 5 27 15t25.5 14.5t19 14t17.5 17t9 19t4 25.5q0 30 -20 46.5t-45 16.5q-27 0 -48.5 -18.5t-21.5 -54.5v-17h-115
v17q0 80 46.5 129t138.5 49q90 0 138 -47.5t48 -120.5q0 -18 -4.5 -35t-9 -29.5t-18 -27.5t-19.5 -22t-27 -22t-27.5 -19t-33 -20.5t-31.5 -19.5q-70 -38 -70 -71v-7h240v-102h-371z" />
    <glyph glyph-name="threequarters" unicode="&#xbe;" horiz-adv-x="1239" 
d="M346 1186q41 -2 78 -35t37 -98q0 -73 -53 -116.5t-152 -43.5q-91 0 -144 48.5t-53 125.5h113q3 -74 90 -74q37 0 61.5 18.5t24.5 55.5q0 72 -102 72h-23v84h23q76 0 76 67q0 24 -17.5 38.5t-48.5 14.5t-50.5 -16.5t-19.5 -50.5h-108q0 79 48 123.5t128 44.5
q84 0 133 -41.5t49 -104.5q0 -46 -26.5 -74.5t-63.5 -37.5zM217 0h-149l893 1434h149zM1192 135h-62v-135h-110v135h-240v88l240 312h110v-312h62v-88zM1020 223v185l-143 -185h143z" />
    <glyph glyph-name="questiondown" unicode="&#xbf;" horiz-adv-x="1159" 
d="M709 725h-324v340h324v-340zM565 -383q105 0 193.5 27.5t160 84t111 155t37.5 229.5h-299q0 -240 -203 -240q-92 0 -133 47t-41 111q0 35 17.5 65t45.5 53.5t61.5 48t67 56t61.5 69t45.5 95t17.5 127.5v53h-320v-53q0 -52 -16.5 -92.5t-42.5 -68t-57 -52.5t-62.5 -51.5
t-57.5 -58.5t-42.5 -80.5t-16.5 -110.5q0 -196 131.5 -305t341.5 -109z" />
    <glyph glyph-name="Agrave" unicode="&#xc0;" horiz-adv-x="1478" 
d="M881 1559h-252l-240 262h328zM1098 0l-92 268h-531l-92 -268h-338l555 1434h281l553 -1434h-336zM553 498h375l-189 549z" />
    <glyph glyph-name="Aacute" unicode="&#xc1;" horiz-adv-x="1478" 
d="M1083 1821l-239 -262h-252l164 262h327zM1098 0l-92 268h-531l-92 -268h-338l555 1434h281l553 -1434h-336zM553 498h375l-189 549z" />
    <glyph glyph-name="Acircumflex" unicode="&#xc2;" horiz-adv-x="1478" 
d="M739 1692l-184 -160h-233l141 289h551l141 -289h-233zM1098 0l-92 268h-531l-92 -268h-338l555 1434h281l553 -1434h-336zM553 498h375l-189 549z" />
    <glyph glyph-name="Atilde" unicode="&#xc3;" horiz-adv-x="1478" 
d="M526 1696q-33 0 -59 -18t-25 -46h-116q0 118 64.5 193.5t184.5 75.5q45 0 88.5 -16.5t79.5 -40t71 -47t76 -40t81 -16.5q34 0 59.5 17t24.5 44h119q0 -116 -65 -191t-185 -75q-45 0 -89.5 16.5t-80.5 40t-71 47t-76 40t-81 16.5zM1098 0l-92 268h-531l-92 -268h-338
l555 1434h281l553 -1434h-336zM553 498h375l-189 549z" />
    <glyph glyph-name="Adieresis" unicode="&#xc4;" horiz-adv-x="1478" 
d="M651 1821v-226h-303v226h303zM1133 1821v-226h-306v226h306zM1098 0l-92 268h-531l-92 -268h-338l555 1434h281l553 -1434h-336zM553 498h375l-189 549z" />
    <glyph glyph-name="Aring" unicode="&#xc5;" horiz-adv-x="1478" 
d="M737 1554q-84 0 -144.5 59.5t-60.5 145.5t60.5 145.5t144.5 59.5t144.5 -59.5t60.5 -145.5t-60.5 -145.5t-144.5 -59.5zM737 1835q-30 0 -51.5 -21t-21.5 -55t21.5 -55t51.5 -21q32 0 54 21t22 55t-22 55t-54 21zM1098 0l-92 268h-531l-92 -268h-338l555 1434h281
l553 -1434h-336zM553 498h375l-189 549z" />
    <glyph glyph-name="AE" unicode="&#xc6;" horiz-adv-x="2117" 
d="M1343 270h713v-270h-1026v264h-475l-180 -264h-330l981 1434h1010v-271h-693v-311h590v-250h-590v-332zM721 506h309v455z" />
    <glyph glyph-name="Ccedilla" unicode="&#xc7;" horiz-adv-x="1394" 
d="M1333 459q-22 -199 -150.5 -318.5t-320.5 -148.5l-108 -115q85 0 144.5 -47t59.5 -133q0 -54 -22.5 -93t-58.5 -61.5t-92 -36t-112.5 -18t-131.5 -4.5v121q190 0 190 84q0 46 -45 55.5t-88 -31.5l-72 115l92 162q-251 38 -396.5 226t-145.5 501q0 349 180 542t481 193
q152 0 277.5 -51t211.5 -160.5t103 -263.5h-309q-41 108 -103 156.5t-174 48.5q-163 0 -251.5 -123.5t-88.5 -341.5q0 -216 89 -340.5t251 -124.5q114 0 176.5 49t102.5 158h311z" />
    <glyph glyph-name="Egrave" unicode="&#xc8;" horiz-adv-x="1193" 
d="M762 1559h-252l-240 262h328zM420 270h713v-270h-1027v1434h1006v-271h-692v-311h590v-250h-590v-332z" />
    <glyph glyph-name="Eacute" unicode="&#xc9;" horiz-adv-x="1193" 
d="M965 1821l-240 -262h-252l164 262h328zM420 270h713v-270h-1027v1434h1006v-271h-692v-311h590v-250h-590v-332z" />
    <glyph glyph-name="Ecircumflex" unicode="&#xca;" horiz-adv-x="1193" 
d="M621 1692l-185 -160h-233l141 289h551l141 -289h-233zM420 270h713v-270h-1027v1434h1006v-271h-692v-311h590v-250h-590v-332z" />
    <glyph glyph-name="Edieresis" unicode="&#xcb;" horiz-adv-x="1193" 
d="M532 1821v-226h-303v226h303zM1014 1821v-226h-305v226h305zM420 270h713v-270h-1027v1434h1006v-271h-692v-311h590v-250h-590v-332z" />
    <glyph glyph-name="Igrave" unicode="&#xcc;" horiz-adv-x="526" 
d="M403 1559l-163 262h-328l240 -262h251zM420 0h-314v1434h314v-1434z" />
    <glyph glyph-name="Iacute" unicode="&#xcd;" horiz-adv-x="526" 
d="M115 1559h252l239 262h-327zM420 0h-314v1434h314v-1434z" />
    <glyph glyph-name="Icircumflex" unicode="&#xce;" horiz-adv-x="526" 
d="M444 1532l-182 160l-184 -160h-234l142 289h551l141 -289h-234zM420 0h-314v1434h314v-1434z" />
    <glyph glyph-name="Idieresis" unicode="&#xcf;" horiz-adv-x="526" 
d="M-129 1821h303v-226h-303v226zM350 1821h305v-226h-305v226zM420 0h-314v1434h314v-1434z" />
    <glyph glyph-name="Eth" unicode="&#xd0;" horiz-adv-x="1478" 
d="M721 1434q342 0 517 -184.5t175 -532.5t-175 -532.5t-517 -184.5h-545v592h-135v225h135v617h545zM692 270q224 0 316 103.5t92 343.5q0 239 -92 342.5t-316 103.5h-203v-346h183v-225h-183v-322h203z" />
    <glyph glyph-name="Ntilde" unicode="&#xd1;" horiz-adv-x="1423" 
d="M1028 1802h119q0 -116 -65 -191t-185 -75q-55 0 -110.5 25t-94.5 55t-91 55t-101 25q-33 0 -59 -18t-25 -46h-117q0 118 65 193.5t185 75.5q45 0 88.5 -16.5t79 -40t70.5 -47t76 -40t81 -16.5q34 0 59.5 17t24.5 44zM1317 1434v-1434h-330l-561 913h-6v-913h-314v1434
h318l573 -932h7v932h313z" />
    <glyph glyph-name="Ograve" unicode="&#xd2;" horiz-adv-x="1513" 
d="M899 1559l-164 262h-327l239 -262h252zM758 1452q312 0 496 -195t184 -540q0 -343 -184 -539t-496 -196t-497 196t-185 539q0 345 184.5 540t497.5 195zM758 252q167 0 259.5 124t92.5 341q0 218 -92 341.5t-260 123.5q-169 0 -262 -123.5t-93 -341.5q0 -217 93 -341
t262 -124z" />
    <glyph glyph-name="Oacute" unicode="&#xd3;" horiz-adv-x="1513" 
d="M610 1559h252l240 262h-328zM758 1452q312 0 496 -195t184 -540q0 -343 -184 -539t-496 -196t-497 196t-185 539q0 345 184.5 540t497.5 195zM758 252q167 0 259.5 124t92.5 341q0 218 -92 341.5t-260 123.5q-169 0 -262 -123.5t-93 -341.5q0 -217 93 -341t262 -124z" />
    <glyph glyph-name="Ocircumflex" unicode="&#xd4;" horiz-adv-x="1513" 
d="M940 1532l-182 160l-185 -160h-233l141 289h551l142 -289h-234zM758 1452q312 0 496 -195t184 -540q0 -343 -184 -539t-496 -196t-497 196t-185 539q0 345 184.5 540t497.5 195zM758 252q167 0 259.5 124t92.5 341q0 218 -92 341.5t-260 123.5q-169 0 -262 -123.5
t-93 -341.5q0 -217 93 -341t262 -124z" />
    <glyph glyph-name="Otilde" unicode="&#xd5;" horiz-adv-x="1513" 
d="M1073 1802h119q0 -116 -65 -191t-185 -75q-55 0 -110.5 25t-94.5 55t-91 55t-101 25q-33 0 -59 -18t-25 -46h-117q0 118 65 193.5t185 75.5q45 0 88.5 -16.5t79 -40t70.5 -47t76 -40t81 -16.5q34 0 59.5 17t24.5 44zM758 1452q312 0 496 -195t184 -540q0 -343 -184 -539
t-496 -196t-497 196t-185 539q0 345 184.5 540t497.5 195zM758 252q167 0 259.5 124t92.5 341q0 218 -92 341.5t-260 123.5q-169 0 -262 -123.5t-93 -341.5q0 -217 93 -341t262 -124z" />
    <glyph glyph-name="Odieresis" unicode="&#xd6;" horiz-adv-x="1513" 
d="M367 1821h303v-226h-303v226zM846 1821h305v-226h-305v226zM758 1452q312 0 496 -195t184 -540q0 -343 -184 -539t-496 -196t-497 196t-185 539q0 345 184.5 540t497.5 195zM758 252q167 0 259.5 124t92.5 341q0 218 -92 341.5t-260 123.5q-169 0 -262 -123.5t-93 -341.5
q0 -217 93 -341t262 -124z" />
    <glyph glyph-name="multiply" unicode="&#xd7;" horiz-adv-x="1091" 
d="M999 250l-182 -182l-266 266l-266 -264l-193 192l266 266l-266 265l182 182l267 -264l262 262l194 -193l-264 -264z" />
    <glyph glyph-name="Oslash" unicode="&#xd8;" horiz-adv-x="1513" 
d="M1182 1321q123 -94 189.5 -247.5t66.5 -356.5q0 -343 -184 -539t-496 -196q-110 0 -205 24l-51 -108h-336l121 254q-211 201 -211 565q0 345 184.5 540t497.5 195q74 0 145 -12l41 86h336zM403 717q0 -144 39 -242l338 707h-22q-169 0 -262 -123.5t-93 -341.5zM758 252
q167 0 259.5 124t92.5 341q0 186 -70 307l-364 -764q33 -8 82 -8z" />
    <glyph glyph-name="Ugrave" unicode="&#xd9;" horiz-adv-x="1394" 
d="M815 1559l-164 262h-327l239 -262h252zM1288 555q0 -271 -161.5 -422t-428.5 -151q-269 0 -430.5 150.5t-161.5 422.5v879h314v-867q0 -157 72.5 -236t205.5 -79t205 79t72 236v867h313v-879z" />
    <glyph glyph-name="Uacute" unicode="&#xda;" horiz-adv-x="1394" 
d="M526 1559h252l240 262h-328zM1288 555q0 -271 -161.5 -422t-428.5 -151q-269 0 -430.5 150.5t-161.5 422.5v879h314v-867q0 -157 72.5 -236t205.5 -79t205 79t72 236v867h313v-879z" />
    <glyph glyph-name="Ucircumflex" unicode="&#xdb;" horiz-adv-x="1394" 
d="M856 1532l-182 160l-185 -160h-233l141 289h551l142 -289h-234zM1288 555q0 -271 -161.5 -422t-428.5 -151q-269 0 -430.5 150.5t-161.5 422.5v879h314v-867q0 -157 72.5 -236t205.5 -79t205 79t72 236v867h313v-879z" />
    <glyph glyph-name="Udieresis" unicode="&#xdc;" horiz-adv-x="1394" 
d="M283 1821h303v-226h-303v226zM762 1821h305v-226h-305v226zM1288 555q0 -271 -161.5 -422t-428.5 -151q-269 0 -430.5 150.5t-161.5 422.5v879h314v-867q0 -157 72.5 -236t205.5 -79t205 79t72 236v867h313v-879z" />
    <glyph glyph-name="Yacute" unicode="&#xdd;" horiz-adv-x="1443" 
d="M573 1559h252l240 262h-328zM883 526v-526h-322v526l-516 908h352l324 -607l326 607h352z" />
    <glyph glyph-name="Thorn" unicode="&#xde;" horiz-adv-x="1312" 
d="M709 1157q282 0 415 -109t133 -327q0 -230 -130.5 -333t-417.5 -103h-303v-285h-300v1434h300v-277h303zM713 541q38 0 56.5 0.5t49.5 4t47 10t37 19.5t30.5 32t17 47.5t7.5 66.5q0 47 -13.5 80.5t-34 52.5t-54.5 30t-66 14t-77 3h-307v-360h307z" />
    <glyph glyph-name="germandbls" unicode="&#xdf;" horiz-adv-x="1300" 
d="M918 782q112 -8 204 -107t92 -235q0 -230 -136 -335t-431 -105h-72v256h78q262 0 262 195q0 194 -297 194h-43v225h43q205 0 205 158q0 150 -198 150q-110 0 -164.5 -55.5t-54.5 -172.5v-950h-300v950q0 484 504 484q116 0 207 -21t160.5 -65t107 -119t37.5 -178
q0 -114 -65.5 -190.5t-138.5 -78.5z" />
    <glyph glyph-name="agrave" unicode="&#xe0;" horiz-adv-x="1146" 
d="M717 1190h-252l-240 262h328zM1034 276q0 -90 78 -96v-170q-42 -18 -108 -18q-104 0 -170 43.5t-66 126.5v8q-109 -184 -350 -184q-73 0 -136 18.5t-115 56t-82 102.5t-30 150q0 40 7.5 74t19 60t32.5 48.5t40.5 38t50.5 30t55 23.5t61.5 18t62.5 14t65 12q31 6 83.5 15
t83 14.5t64.5 15.5t55 22v2q0 49 -15 82.5t-42 48t-52.5 20t-58.5 5.5q-152 0 -170 -119h-282q30 338 454 338q250 0 357.5 -104.5t107.5 -341.5v-353zM735 336v188q-22 -11 -43.5 -19.5t-48 -15.5t-43.5 -10.5t-53 -10.5t-53 -11q-75 -19 -107.5 -49.5t-32.5 -81.5
q0 -54 37 -90.5t109 -36.5q49 0 92.5 15.5t71.5 40t44.5 44t26.5 37.5z" />
    <glyph glyph-name="aacute" unicode="&#xe1;" horiz-adv-x="1146" 
d="M920 1452l-240 -262h-252l164 262h328zM1034 276q0 -90 78 -96v-170q-42 -18 -108 -18q-104 0 -170 43.5t-66 126.5v8q-109 -184 -350 -184q-73 0 -136 18.5t-115 56t-82 102.5t-30 150q0 40 7.5 74t19 60t32.5 48.5t40.5 38t50.5 30t55 23.5t61.5 18t62.5 14t65 12
q31 6 83.5 15t83 14.5t64.5 15.5t55 22v2q0 49 -15 82.5t-42 48t-52.5 20t-58.5 5.5q-152 0 -170 -119h-282q30 338 454 338q250 0 357.5 -104.5t107.5 -341.5v-353zM735 336v188q-22 -11 -43.5 -19.5t-48 -15.5t-43.5 -10.5t-53 -10.5t-53 -11q-75 -19 -107.5 -49.5
t-32.5 -81.5q0 -54 37 -90.5t109 -36.5q49 0 92.5 15.5t71.5 40t44.5 44t26.5 37.5z" />
    <glyph glyph-name="acircumflex" unicode="&#xe2;" horiz-adv-x="1146" 
d="M575 1323l-184 -160h-233l141 289h551l141 -289h-233zM1034 276q0 -90 78 -96v-170q-42 -18 -108 -18q-104 0 -170 43.5t-66 126.5v8q-109 -184 -350 -184q-73 0 -136 18.5t-115 56t-82 102.5t-30 150q0 40 7.5 74t19 60t32.5 48.5t40.5 38t50.5 30t55 23.5t61.5 18
t62.5 14t65 12q31 6 83.5 15t83 14.5t64.5 15.5t55 22v2q0 49 -15 82.5t-42 48t-52.5 20t-58.5 5.5q-152 0 -170 -119h-282q30 338 454 338q250 0 357.5 -104.5t107.5 -341.5v-353zM735 336v188q-22 -11 -43.5 -19.5t-48 -15.5t-43.5 -10.5t-53 -10.5t-53 -11
q-75 -19 -107.5 -49.5t-32.5 -81.5q0 -54 37 -90.5t109 -36.5q49 0 92.5 15.5t71.5 40t44.5 44t26.5 37.5z" />
    <glyph glyph-name="atilde" unicode="&#xe3;" horiz-adv-x="1146" 
d="M362 1327q-33 0 -58.5 -17.5t-24.5 -45.5h-117q0 118 65 193t185 75q45 0 88.5 -16.5t79 -40t70.5 -47t76 -40t81 -16.5q34 0 59.5 17.5t24.5 44.5h119q0 -116 -65 -191.5t-185 -75.5q-45 0 -89.5 16.5t-80.5 40t-71 47t-76 40t-81 16.5zM1034 276q0 -90 78 -96v-170
q-42 -18 -108 -18q-104 0 -170 43.5t-66 126.5v8q-109 -184 -350 -184q-73 0 -136 18.5t-115 56t-82 102.5t-30 150q0 40 7.5 74t19 60t32.5 48.5t40.5 38t50.5 30t55 23.5t61.5 18t62.5 14t65 12q31 6 83.5 15t83 14.5t64.5 15.5t55 22v2q0 49 -15 82.5t-42 48t-52.5 20
t-58.5 5.5q-152 0 -170 -119h-282q30 338 454 338q250 0 357.5 -104.5t107.5 -341.5v-353zM735 336v188q-22 -11 -43.5 -19.5t-48 -15.5t-43.5 -10.5t-53 -10.5t-53 -11q-75 -19 -107.5 -49.5t-32.5 -81.5q0 -54 37 -90.5t109 -36.5q49 0 92.5 15.5t71.5 40t44.5 44
t26.5 37.5z" />
    <glyph glyph-name="adieresis" unicode="&#xe4;" horiz-adv-x="1146" 
d="M487 1452v-225h-303v225h303zM969 1452v-225h-305v225h305zM1034 276q0 -90 78 -96v-170q-42 -18 -108 -18q-104 0 -170 43.5t-66 126.5v8q-109 -184 -350 -184q-73 0 -136 18.5t-115 56t-82 102.5t-30 150q0 40 7.5 74t19 60t32.5 48.5t40.5 38t50.5 30t55 23.5t61.5 18
t62.5 14t65 12q31 6 83.5 15t83 14.5t64.5 15.5t55 22v2q0 49 -15 82.5t-42 48t-52.5 20t-58.5 5.5q-152 0 -170 -119h-282q30 338 454 338q250 0 357.5 -104.5t107.5 -341.5v-353zM735 336v188q-22 -11 -43.5 -19.5t-48 -15.5t-43.5 -10.5t-53 -10.5t-53 -11
q-75 -19 -107.5 -49.5t-32.5 -81.5q0 -54 37 -90.5t109 -36.5q49 0 92.5 15.5t71.5 40t44.5 44t26.5 37.5z" />
    <glyph glyph-name="aring" unicode="&#xe5;" horiz-adv-x="1146" 
d="M573 1186q-84 0 -144 59.5t-60 145.5t60 145t144 59t144.5 -59.5t60.5 -144.5q0 -86 -60.5 -145.5t-144.5 -59.5zM573 1466q-30 0 -51.5 -20.5t-21.5 -54.5t21.5 -55t51.5 -21q32 0 54 21t22 55t-22 54.5t-54 20.5zM1034 276q0 -90 78 -96v-170q-42 -18 -108 -18
q-104 0 -170 43.5t-66 126.5v8q-109 -184 -350 -184q-73 0 -136 18.5t-115 56t-82 102.5t-30 150q0 40 7.5 74t19 60t32.5 48.5t40.5 38t50.5 30t55 23.5t61.5 18t62.5 14t65 12q31 6 83.5 15t83 14.5t64.5 15.5t55 22v2q0 49 -15 82.5t-42 48t-52.5 20t-58.5 5.5
q-152 0 -170 -119h-282q30 338 454 338q250 0 357.5 -104.5t107.5 -341.5v-353zM735 336v188q-22 -11 -43.5 -19.5t-48 -15.5t-43.5 -10.5t-53 -10.5t-53 -11q-75 -19 -107.5 -49.5t-32.5 -81.5q0 -54 37 -90.5t109 -36.5q49 0 92.5 15.5t71.5 40t44.5 44t26.5 37.5z" />
    <glyph glyph-name="ae" unicode="&#xe6;" horiz-adv-x="1826" 
d="M1772 494q0 -29 -3 -56h-743q17 -121 79 -176t173 -55q155 0 205 98h260q-91 -319 -481 -319q-125 0 -241 52t-190 155q-156 -207 -413 -207q-72 0 -135.5 18.5t-115.5 55t-82 98.5t-30 143q0 278 373 324q27 3 77 8t74.5 8t58 9t56.5 14t41 20v16q0 40 -10.5 69.5
t-26 45.5t-39.5 26t-45.5 12.5t-48.5 2.5q-150 0 -168 -108h-282q15 160 129.5 243.5t320.5 83.5q254 0 365 -108q139 108 334 108q82 0 154.5 -18.5t138 -62.5t113 -109.5t75 -165.5t27.5 -225zM1032 623h455q-3 106 -61 168.5t-162 62.5q-187 0 -230 -201v-24zM735 330
v178q-22 -11 -40 -18t-43 -12.5t-40.5 -8t-57.5 -9t-71 -11.5q-63 -8 -94 -48t-31 -88q0 -46 35 -80t107 -34q49 0 92.5 14.5t71.5 37.5t45 42.5t26 36.5z" />
    <glyph glyph-name="ccedilla" unicode="&#xe7;" horiz-adv-x="1112" 
d="M1051 381q-15 -93 -51.5 -164.5t-88 -115.5t-107 -69.5t-118.5 -37.5l-113 -117q85 0 145 -47t60 -133q0 -54 -22.5 -93t-58.5 -61.5t-92.5 -36t-113 -18t-131.5 -4.5v121q191 0 191 84q0 46 -45 55.5t-88 -31.5l-72 115l98 172q-80 18 -147 57t-123 101.5t-87.5 157.5
t-31.5 214q0 115 31 209t82.5 155.5t120.5 103t141 59.5t148 18q61 0 116 -10t113 -36.5t103 -68.5t80.5 -111t51.5 -159h-274q-17 70 -59.5 107t-128.5 37q-111 0 -173.5 -79.5t-62.5 -224.5q0 -147 63 -225t175 -78q88 0 133.5 40.5t66.5 113.5h269z" />
    <glyph glyph-name="egrave" unicode="&#xe8;" horiz-adv-x="1144" 
d="M719 1190h-252l-240 262h328zM1090 494q0 -29 -3 -56h-743q17 -121 79 -176t173 -55q155 0 205 98h260q-91 -319 -481 -319q-75 0 -147.5 18t-141.5 60t-121 102.5t-83.5 153.5t-31.5 206q0 115 31.5 209t83 156t121 104.5t142.5 61t149 18.5q82 0 154.5 -18.5t138 -62.5
t113 -109.5t75 -165.5t27.5 -225zM346 623h459q-3 106 -61 168.5t-162 62.5q-202 0 -236 -231z" />
    <glyph glyph-name="eacute" unicode="&#xe9;" horiz-adv-x="1144" 
d="M922 1452l-240 -262h-252l164 262h328zM1090 494q0 -29 -3 -56h-743q17 -121 79 -176t173 -55q155 0 205 98h260q-91 -319 -481 -319q-75 0 -147.5 18t-141.5 60t-121 102.5t-83.5 153.5t-31.5 206q0 115 31.5 209t83 156t121 104.5t142.5 61t149 18.5q82 0 154.5 -18.5
t138 -62.5t113 -109.5t75 -165.5t27.5 -225zM346 623h459q-3 106 -61 168.5t-162 62.5q-202 0 -236 -231z" />
    <glyph glyph-name="ecircumflex" unicode="&#xea;" horiz-adv-x="1144" 
d="M578 1323l-185 -160h-233l141 289h551l141 -289h-233zM1090 494q0 -29 -3 -56h-743q17 -121 79 -176t173 -55q155 0 205 98h260q-91 -319 -481 -319q-75 0 -147.5 18t-141.5 60t-121 102.5t-83.5 153.5t-31.5 206q0 115 31.5 209t83 156t121 104.5t142.5 61t149 18.5
q82 0 154.5 -18.5t138 -62.5t113 -109.5t75 -165.5t27.5 -225zM346 623h459q-3 106 -61 168.5t-162 62.5q-202 0 -236 -231z" />
    <glyph glyph-name="edieresis" unicode="&#xeb;" horiz-adv-x="1144" 
d="M489 1452v-225h-303v225h303zM971 1452v-225h-305v225h305zM1090 494q0 -29 -3 -56h-743q17 -121 79 -176t173 -55q155 0 205 98h260q-91 -319 -481 -319q-75 0 -147.5 18t-141.5 60t-121 102.5t-83.5 153.5t-31.5 206q0 115 31.5 209t83 156t121 104.5t142.5 61
t149 18.5q82 0 154.5 -18.5t138 -62.5t113 -109.5t75 -165.5t27.5 -225zM346 623h459q-3 106 -61 168.5t-162 62.5q-202 0 -236 -231z" />
    <glyph glyph-name="igrave" unicode="&#xec;" horiz-adv-x="512" 
d="M397 1190l-164 262h-327l239 -262h252zM106 1065h300v-1065h-300v1065z" />
    <glyph glyph-name="iacute" unicode="&#xed;" horiz-adv-x="512" 
d="M109 1190h251l240 262h-328zM106 1065h300v-1065h-300v1065z" />
    <glyph glyph-name="icircumflex" unicode="&#xee;" horiz-adv-x="512" 
d="M438 1163l-182 160l-184 -160h-234l142 289h550l142 -289h-234zM106 1065h300v-1065h-300v1065z" />
    <glyph glyph-name="idieresis" unicode="&#xef;" horiz-adv-x="512" 
d="M-135 1452h303v-225h-303v225zM344 1452h305v-225h-305v225zM106 1065h300v-1065h-300v1065z" />
    <glyph glyph-name="eth" unicode="&#xf0;" horiz-adv-x="1214" 
d="M911 1182q115 -166 156 -301t41 -336q0 -115 -29 -210t-79.5 -160t-119.5 -109.5t-147 -65t-164 -20.5q-79 0 -152.5 20t-139.5 63.5t-115.5 105t-78 151t-28.5 196.5q0 134 38 240t105 172.5t153 101.5t186 35q116 0 198 -57q-51 100 -80 143l-200 -25v134l114 14
q-61 79 -149 160h301q62 -79 100 -129l183 22v-133zM580 236q93 0 162 70.5t69 209.5q0 155 -64.5 224t-166.5 69q-97 0 -163.5 -69.5t-66.5 -223.5q0 -141 66 -210.5t164 -69.5z" />
    <glyph glyph-name="ntilde" unicode="&#xf1;" horiz-adv-x="1232" 
d="M403 1327q-33 0 -59 -17.5t-25 -45.5h-116q0 118 65 193t185 75q45 0 88.5 -16.5t79 -40t70.5 -47t76 -40t81 -16.5q34 0 59.5 17.5t24.5 44.5h119q0 -116 -65 -191.5t-185 -75.5q-45 0 -89.5 16.5t-80.5 40t-71 47t-76 40t-81 16.5zM748 1075q378 0 378 -434v-641h-299
v625q0 104 -52 153t-138 49q-53 0 -97.5 -21t-71 -53t-42.5 -64t-20 -60v-629h-300v1065h300v-211q13 32 39.5 66.5t68 71t103.5 60t131 23.5z" />
    <glyph glyph-name="ograve" unicode="&#xf2;" horiz-adv-x="1167" 
d="M725 1190l-164 262h-328l240 -262h252zM584 1075q70 0 141.5 -18t141.5 -60.5t124 -104t87.5 -156t33.5 -208.5q0 -113 -33.5 -206.5t-87.5 -154.5t-124 -103t-141.5 -60t-141.5 -18t-141.5 18t-142 60t-124.5 103t-87.5 154.5t-33.5 206.5q0 114 33.5 208.5t87.5 156
t124.5 104t142 60.5t141.5 18zM825 528q0 154 -68.5 230t-172.5 76t-173 -76t-69 -230q0 -148 69.5 -224.5t172.5 -76.5t172 76.5t69 224.5z" />
    <glyph glyph-name="oacute" unicode="&#xf3;" horiz-adv-x="1167" 
d="M436 1190h252l240 262h-328zM584 1075q70 0 141.5 -18t141.5 -60.5t124 -104t87.5 -156t33.5 -208.5q0 -113 -33.5 -206.5t-87.5 -154.5t-124 -103t-141.5 -60t-141.5 -18t-141.5 18t-142 60t-124.5 103t-87.5 154.5t-33.5 206.5q0 114 33.5 208.5t87.5 156t124.5 104
t142 60.5t141.5 18zM825 528q0 154 -68.5 230t-172.5 76t-173 -76t-69 -230q0 -148 69.5 -224.5t172.5 -76.5t172 76.5t69 224.5z" />
    <glyph glyph-name="ocircumflex" unicode="&#xf4;" horiz-adv-x="1167" 
d="M766 1163l-182 160l-185 -160h-233l141 289h551l141 -289h-233zM584 1075q70 0 141.5 -18t141.5 -60.5t124 -104t87.5 -156t33.5 -208.5q0 -113 -33.5 -206.5t-87.5 -154.5t-124 -103t-141.5 -60t-141.5 -18t-141.5 18t-142 60t-124.5 103t-87.5 154.5t-33.5 206.5
q0 114 33.5 208.5t87.5 156t124.5 104t142 60.5t141.5 18zM825 528q0 154 -68.5 230t-172.5 76t-173 -76t-69 -230q0 -148 69.5 -224.5t172.5 -76.5t172 76.5t69 224.5z" />
    <glyph glyph-name="otilde" unicode="&#xf5;" horiz-adv-x="1167" 
d="M899 1434h119q0 -116 -65 -191.5t-185 -75.5q-55 0 -110.5 25t-94.5 55t-91 55t-101 25q-33 0 -59 -17.5t-25 -45.5h-117q0 118 65 193t185 75q45 0 88.5 -16.5t79 -40t70.5 -47t76 -40t81 -16.5q34 0 59.5 17.5t24.5 44.5zM584 1075q70 0 141.5 -18t141.5 -60.5
t124 -104t87.5 -156t33.5 -208.5q0 -113 -33.5 -206.5t-87.5 -154.5t-124 -103t-141.5 -60t-141.5 -18t-141.5 18t-142 60t-124.5 103t-87.5 154.5t-33.5 206.5q0 114 33.5 208.5t87.5 156t124.5 104t142 60.5t141.5 18zM825 528q0 154 -68.5 230t-172.5 76t-173 -76
t-69 -230q0 -148 69.5 -224.5t172.5 -76.5t172 76.5t69 224.5z" />
    <glyph glyph-name="odieresis" unicode="&#xf6;" horiz-adv-x="1167" 
d="M193 1452h303v-225h-303v225zM672 1452h305v-225h-305v225zM584 1075q70 0 141.5 -18t141.5 -60.5t124 -104t87.5 -156t33.5 -208.5q0 -113 -33.5 -206.5t-87.5 -154.5t-124 -103t-141.5 -60t-141.5 -18t-141.5 18t-142 60t-124.5 103t-87.5 154.5t-33.5 206.5
q0 114 33.5 208.5t87.5 156t124.5 104t142 60.5t141.5 18zM825 528q0 154 -68.5 230t-172.5 76t-173 -76t-69 -230q0 -148 69.5 -224.5t172.5 -76.5t172 76.5t69 224.5z" />
    <glyph glyph-name="divide" unicode="&#xf7;" horiz-adv-x="978" 
d="M489 786q-55 0 -92 37.5t-37 91.5t37 90.5t92 36.5q53 0 90 -36.5t37 -90.5t-37 -91.5t-90 -37.5zM74 678h684v-225h-684v225zM489 88q-55 0 -92 37.5t-37 93.5q0 53 37 89t92 36q53 0 90 -36.5t37 -88.5q0 -55 -37 -93t-90 -38z" />
    <glyph glyph-name="oslash" unicode="&#xf8;" horiz-adv-x="1167" 
d="M920 961q192 -149 192 -433q0 -113 -33.5 -206.5t-87.5 -154.5t-124 -103t-141.5 -60t-141.5 -18q-65 0 -125 14l-49 -102h-254l96 198q-197 150 -197 432q0 114 33.5 208.5t87.5 156t124.5 104t142 60.5t141.5 18q69 0 129 -16l59 125h254zM342 528q0 -105 35 -170
l227 476h-20q-104 0 -173 -76t-69 -230zM584 227q103 0 172 76.5t69 224.5q0 98 -30 170l-228 -471h17z" />
    <glyph glyph-name="ugrave" unicode="&#xf9;" horiz-adv-x="1222" 
d="M748 1190h-252l-240 262h328zM817 1065h299v-1065h-299v209q-10 -25 -28 -52t-48.5 -58.5t-67.5 -55.5t-89 -40.5t-109 -16.5q-85 0 -151.5 23t-119 73t-80.5 136t-28 204v643h299v-627q0 -105 53 -155t140 -50q53 0 97 21.5t70.5 54t42 65t19.5 60.5v631z" />
    <glyph glyph-name="uacute" unicode="&#xfa;" horiz-adv-x="1222" 
d="M950 1452l-239 -262h-252l164 262h327zM817 1065h299v-1065h-299v209q-10 -25 -28 -52t-48.5 -58.5t-67.5 -55.5t-89 -40.5t-109 -16.5q-85 0 -151.5 23t-119 73t-80.5 136t-28 204v643h299v-627q0 -105 53 -155t140 -50q53 0 97 21.5t70.5 54t42 65t19.5 60.5v631z" />
    <glyph glyph-name="ucircumflex" unicode="&#xfb;" horiz-adv-x="1222" 
d="M606 1323l-184 -160h-234l142 289h551l141 -289h-234zM817 1065h299v-1065h-299v209q-10 -25 -28 -52t-48.5 -58.5t-67.5 -55.5t-89 -40.5t-109 -16.5q-85 0 -151.5 23t-119 73t-80.5 136t-28 204v643h299v-627q0 -105 53 -155t140 -50q53 0 97 21.5t70.5 54t42 65
t19.5 60.5v631z" />
    <glyph glyph-name="udieresis" unicode="&#xfc;" horiz-adv-x="1222" 
d="M518 1452v-225h-303v225h303zM999 1452v-225h-305v225h305zM817 1065h299v-1065h-299v209q-10 -25 -28 -52t-48.5 -58.5t-67.5 -55.5t-89 -40.5t-109 -16.5q-85 0 -151.5 23t-119 73t-80.5 136t-28 204v643h299v-627q0 -105 53 -155t140 -50q53 0 97 21.5t70.5 54t42 65
t19.5 60.5v631z" />
    <glyph glyph-name="yacute" unicode="&#xfd;" horiz-adv-x="1181" 
d="M440 1190h252l240 262h-328zM844 1065h303l-436 -1061q-100 -249 -221 -338t-336 -67v251q69 -7 119.5 2t81 33t46.5 46.5t31 56.5q12 34 9 58t-23 73l-383 946h309l244 -688z" />
    <glyph glyph-name="thorn" unicode="&#xfe;" horiz-adv-x="1220" 
d="M696 1075q61 0 124 -18.5t125.5 -60.5t111 -103t78.5 -154.5t30 -206.5q0 -115 -30.5 -209.5t-79 -155.5t-112.5 -103t-127 -60t-126 -18q-58 0 -108 14t-81 33.5t-53.5 41.5t-32 38.5t-9.5 23.5v-526h-300v1835h300v-514q31 53 108.5 97.5t177.5 45.5h4zM631 227
q104 0 175 76.5t71 228.5q0 150 -71 226t-175 76t-171 -77.5t-67 -224.5q0 -149 67 -227t171 -78z" />
    <glyph glyph-name="ydieresis" unicode="&#xff;" horiz-adv-x="1181" 
d="M197 1452h303v-225h-303v225zM676 1452h305v-225h-305v225zM844 1065h303l-436 -1061q-100 -249 -221 -338t-336 -67v251q69 -7 119.5 2t81 33t46.5 46.5t31 56.5q12 34 9 58t-23 73l-383 946h309l244 -688z" />
    <glyph glyph-name="Amacron" unicode="&#x100;" horiz-adv-x="1478" 
d="M1110 1821v-174h-741v174h741zM1098 0l-92 268h-531l-92 -268h-338l555 1434h281l553 -1434h-336zM553 498h375l-189 549z" />
    <glyph glyph-name="amacron" unicode="&#x101;" horiz-adv-x="1146" 
d="M946 1452v-174h-741v174h741zM1034 276q0 -90 78 -96v-170q-42 -18 -108 -18q-104 0 -170 43.5t-66 126.5v8q-109 -184 -350 -184q-73 0 -136 18.5t-115 56t-82 102.5t-30 150q0 40 7.5 74t19 60t32.5 48.5t40.5 38t50.5 30t55 23.5t61.5 18t62.5 14t65 12q31 6 83.5 15
t83 14.5t64.5 15.5t55 22v2q0 49 -15 82.5t-42 48t-52.5 20t-58.5 5.5q-152 0 -170 -119h-282q30 338 454 338q250 0 357.5 -104.5t107.5 -341.5v-353zM735 336v188q-22 -11 -43.5 -19.5t-48 -15.5t-43.5 -10.5t-53 -10.5t-53 -11q-75 -19 -107.5 -49.5t-32.5 -81.5
q0 -54 37 -90.5t109 -36.5q49 0 92.5 15.5t71.5 40t44.5 44t26.5 37.5z" />
    <glyph glyph-name="Abreve" unicode="&#x102;" horiz-adv-x="1478" 
d="M739 1505q-172 0 -261 83.5t-89 232.5h195q9 -64 46 -91.5t109 -27.5q73 0 111 27.5t47 91.5h195q0 -149 -90.5 -232.5t-262.5 -83.5zM1098 0l-92 268h-531l-92 -268h-338l555 1434h281l553 -1434h-336zM553 498h375l-189 549z" />
    <glyph glyph-name="abreve" unicode="&#x103;" horiz-adv-x="1146" 
d="M575 1137q-172 0 -261 83t-89 232h195q9 -64 46 -91.5t109 -27.5q73 0 111 27.5t47 91.5h195q0 -149 -90.5 -232t-262.5 -83zM1034 276q0 -90 78 -96v-170q-42 -18 -108 -18q-104 0 -170 43.5t-66 126.5v8q-109 -184 -350 -184q-73 0 -136 18.5t-115 56t-82 102.5
t-30 150q0 40 7.5 74t19 60t32.5 48.5t40.5 38t50.5 30t55 23.5t61.5 18t62.5 14t65 12q31 6 83.5 15t83 14.5t64.5 15.5t55 22v2q0 49 -15 82.5t-42 48t-52.5 20t-58.5 5.5q-152 0 -170 -119h-282q30 338 454 338q250 0 357.5 -104.5t107.5 -341.5v-353zM735 336v188
q-22 -11 -43.5 -19.5t-48 -15.5t-43.5 -10.5t-53 -10.5t-53 -11q-75 -19 -107.5 -49.5t-32.5 -81.5q0 -54 37 -90.5t109 -36.5q49 0 92.5 15.5t71.5 40t44.5 44t26.5 37.5z" />
    <glyph glyph-name="Aogonek" unicode="&#x104;" horiz-adv-x="1478" 
d="M1315 0q-84 -22 -142.5 -51.5t-86 -60.5t-38 -56.5t-10.5 -52.5q0 -60 49 -74t125 16v-124q-43 -23 -101 -37.5t-119.5 -14.5t-114 16t-86 58.5t-33.5 106.5q0 46 21.5 88.5t57 73.5t80 55.5t91 38.5t90.5 18l-92 268h-531l-92 -268h-338l555 1434h281l553 -1434h-119z
M553 498h375l-189 549z" />
    <glyph glyph-name="aogonek" unicode="&#x105;" horiz-adv-x="1146" 
d="M1112 180v-170q-8 -4 -20 -8h8q-84 -22 -142.5 -51.5t-86 -60.5t-38 -56.5t-10.5 -52.5q0 -59 48.5 -73t125.5 16v-125q-43 -23 -101 -37.5t-119.5 -14.5t-114 16t-86 58.5t-33.5 106.5q0 46 21.5 88.5t57 73.5t80 55.5t91 38.5t90.5 18h28q-66 16 -104.5 57t-38.5 103v8
q-109 -184 -350 -184q-73 0 -136 18.5t-115 56t-82 102.5t-30 150q0 40 7.5 74t19 60t32.5 48.5t40.5 38t50.5 30t55 23.5t61.5 18t62.5 14t65 12q31 6 83.5 15t83 14.5t64.5 15.5t55 22v2q0 49 -15 82.5t-42 48t-52.5 20t-58.5 5.5q-152 0 -170 -119h-282q30 338 454 338
q250 0 357.5 -104.5t107.5 -341.5v-353q0 -90 78 -96zM735 336v188q-22 -11 -43.5 -19.5t-48 -15.5t-43.5 -10.5t-53 -10.5t-53 -11q-75 -19 -107.5 -49.5t-32.5 -81.5q0 -54 37 -90.5t109 -36.5q49 0 92.5 15.5t71.5 40t44.5 44t26.5 37.5z" />
    <glyph glyph-name="Cacute" unicode="&#x106;" horiz-adv-x="1394" 
d="M598 1559h252l240 262h-328zM743 252q114 0 176.5 49t102.5 158h311q-13 -117 -65.5 -209.5t-134 -150t-182 -87.5t-214.5 -30q-301 0 -481 193t-180 542t180 542t481 193q152 0 277.5 -51t211.5 -160.5t103 -263.5h-309q-41 108 -103 156.5t-174 48.5
q-163 0 -251.5 -123.5t-88.5 -341.5q0 -216 89 -340.5t251 -124.5z" />
    <glyph glyph-name="cacute" unicode="&#x107;" horiz-adv-x="1112" 
d="M401 1190h252l240 262h-328zM582 227q88 0 133.5 40.5t66.5 113.5h269q-15 -91 -51.5 -162t-83 -114t-106 -70.5t-115.5 -38t-115 -10.5q-76 0 -148.5 17.5t-141.5 59t-120.5 102.5t-83 155t-31.5 210q0 115 31 209t82.5 155.5t120.5 103t141 59.5t148 18q61 0 116 -10
t113 -36.5t103 -68.5t80.5 -111t51.5 -159h-274q-17 70 -59.5 107t-128.5 37q-111 0 -173.5 -79.5t-62.5 -224.5q0 -147 63 -225t175 -78z" />
    <glyph glyph-name="Cdotaccent" unicode="&#x10a;" horiz-adv-x="1394" 
d="M596 1821h303v-226h-303v226zM743 252q114 0 176.5 49t102.5 158h311q-13 -117 -65.5 -209.5t-134 -150t-182 -87.5t-214.5 -30q-301 0 -481 193t-180 542t180 542t481 193q152 0 277.5 -51t211.5 -160.5t103 -263.5h-309q-41 108 -103 156.5t-174 48.5
q-163 0 -251.5 -123.5t-88.5 -341.5q0 -216 89 -340.5t251 -124.5z" />
    <glyph glyph-name="cdotaccent" unicode="&#x10b;" horiz-adv-x="1112" 
d="M399 1452h303v-225h-303v225zM582 227q88 0 133.5 40.5t66.5 113.5h269q-15 -91 -51.5 -162t-83 -114t-106 -70.5t-115.5 -38t-115 -10.5q-76 0 -148.5 17.5t-141.5 59t-120.5 102.5t-83 155t-31.5 210q0 115 31 209t82.5 155.5t120.5 103t141 59.5t148 18q61 0 116 -10
t113 -36.5t103 -68.5t80.5 -111t51.5 -159h-274q-17 70 -59.5 107t-128.5 37q-111 0 -173.5 -79.5t-62.5 -224.5q0 -147 63 -225t175 -78z" />
    <glyph glyph-name="Ccaron" unicode="&#x10c;" horiz-adv-x="1394" 
d="M926 1802h233l-141 -289h-551l-141 289h233l184 -160zM743 252q114 0 176.5 49t102.5 158h311q-13 -117 -65.5 -209.5t-134 -150t-182 -87.5t-214.5 -30q-301 0 -481 193t-180 542t180 542t481 193q152 0 277.5 -51t211.5 -160.5t103 -263.5h-309q-41 108 -103 156.5
t-174 48.5q-163 0 -251.5 -123.5t-88.5 -341.5q0 -216 89 -340.5t251 -124.5z" />
    <glyph glyph-name="ccaron" unicode="&#x10d;" horiz-adv-x="1112" 
d="M729 1434h234l-142 -289h-551l-141 289h233l185 -160zM582 227q88 0 133.5 40.5t66.5 113.5h269q-15 -91 -51.5 -162t-83 -114t-106 -70.5t-115.5 -38t-115 -10.5q-76 0 -148.5 17.5t-141.5 59t-120.5 102.5t-83 155t-31.5 210q0 115 31 209t82.5 155.5t120.5 103
t141 59.5t148 18q61 0 116 -10t113 -36.5t103 -68.5t80.5 -111t51.5 -159h-274q-17 70 -59.5 107t-128.5 37q-111 0 -173.5 -79.5t-62.5 -224.5q0 -147 63 -225t175 -78z" />
    <glyph glyph-name="Dcaron" unicode="&#x10e;" horiz-adv-x="1409" 
d="M956 1513h-550l-142 289h234l184 -160l182 160h234zM651 1434q342 0 517 -184.5t175 -532.5t-175 -532.5t-517 -184.5h-545v1434h545zM623 270q224 0 315.5 103.5t91.5 343.5t-91.5 343t-315.5 103h-203v-893h203z" />
    <glyph glyph-name="dcaron" unicode="&#x10f;" horiz-adv-x="1630" 
d="M524 1075q103 0 181.5 -45.5t109.5 -99.5v516h299v-1446h-299v162q0 -12 -16.5 -38.5t-48 -58.5t-90.5 -55.5t-130 -23.5q-63 0 -126 18t-127 60t-112.5 103t-79 155.5t-30.5 209.5q0 113 30 206.5t78.5 154.5t111 103t125.5 60.5t124 18.5zM1180 1184h252l239 262h-328z
M590 227q104 0 170.5 78t66.5 227q0 147 -66.5 224.5t-170.5 77.5q-109 0 -177.5 -75.5t-68.5 -226.5q0 -152 68.5 -228.5t177.5 -76.5z" />
    <glyph glyph-name="Dcroat" unicode="&#x110;" horiz-adv-x="1478" 
d="M721 1434q342 0 517 -184.5t175 -532.5t-175 -532.5t-517 -184.5h-545v592h-135v225h135v617h545zM692 270q224 0 316 103.5t92 343.5q0 239 -92 342.5t-316 103.5h-203v-346h183v-225h-183v-322h203z" />
    <glyph glyph-name="dcroat" unicode="&#x111;" horiz-adv-x="1298" 
d="M1274 1321v-174h-160v-1147h-299v162q0 -12 -16.5 -38.5t-48 -58.5t-90.5 -55.5t-130 -23.5q-63 0 -126 18t-127 60t-112.5 103t-79 155.5t-30.5 209.5q0 113 30 206.5t78.5 154.5t111 103t125.5 60.5t124 18.5q103 0 181.5 -45.5t109.5 -99.5v217h-283v174h283v125h299
v-125h160zM590 227q104 0 170.5 78t66.5 227q0 147 -66.5 224.5t-170.5 77.5q-109 0 -177.5 -75.5t-68.5 -226.5q0 -152 68.5 -228.5t177.5 -76.5z" />
    <glyph glyph-name="Emacron" unicode="&#x112;" horiz-adv-x="1193" 
d="M991 1821v-174h-741v174h741zM420 270h713v-270h-1027v1434h1006v-271h-692v-311h590v-250h-590v-332z" />
    <glyph glyph-name="emacron" unicode="&#x113;" horiz-adv-x="1144" 
d="M948 1452v-174h-741v174h741zM1090 494q0 -29 -3 -56h-743q17 -121 79 -176t173 -55q155 0 205 98h260q-91 -319 -481 -319q-75 0 -147.5 18t-141.5 60t-121 102.5t-83.5 153.5t-31.5 206q0 115 31.5 209t83 156t121 104.5t142.5 61t149 18.5q82 0 154.5 -18.5t138 -62.5
t113 -109.5t75 -165.5t27.5 -225zM346 623h459q-3 106 -61 168.5t-162 62.5q-202 0 -236 -231z" />
    <glyph glyph-name="Edotaccent" unicode="&#x116;" horiz-adv-x="1193" 
d="M774 1821v-226h-303v226h303zM420 270h713v-270h-1027v1434h1006v-271h-692v-311h590v-250h-590v-332z" />
    <glyph glyph-name="edotaccent" unicode="&#x117;" horiz-adv-x="1144" 
d="M731 1452v-225h-303v225h303zM1090 494q0 -29 -3 -56h-743q17 -121 79 -176t173 -55q155 0 205 98h260q-91 -319 -481 -319q-75 0 -147.5 18t-141.5 60t-121 102.5t-83.5 153.5t-31.5 206q0 115 31.5 209t83 156t121 104.5t142.5 61t149 18.5q82 0 154.5 -18.5t138 -62.5
t113 -109.5t75 -165.5t27.5 -225zM346 623h459q-3 106 -61 168.5t-162 62.5q-202 0 -236 -231z" />
    <glyph glyph-name="Eogonek" unicode="&#x118;" horiz-adv-x="1193" 
d="M858 -221q0 -60 49 -74t125 16v-124q-43 -23 -101 -37.5t-119.5 -14.5t-114 16t-86 58.5t-33.5 106.5q0 46 21.5 88.5t57 73.5t80 55.5t91 38.5t90.5 18h-812v1434h1006v-271h-692v-311h590v-250h-590v-332h713v-270h2q-84 -22 -142.5 -51.5t-86 -60.5t-38 -56.5
t-10.5 -52.5z" />
    <glyph glyph-name="eogonek" unicode="&#x119;" horiz-adv-x="1144" 
d="M1090 494q0 -29 -3 -56h-743q17 -121 79 -176t173 -55q155 0 205 98h260q-73 -252 -330 -305h19q-84 -22 -142.5 -51.5t-86 -60.5t-38 -56.5t-10.5 -52.5q0 -60 48.5 -74t125.5 16v-124q-43 -23 -101 -37.5t-119.5 -14.5t-114 16t-86 58.5t-33.5 106.5q0 68 46 126
t110.5 92.5t137.5 49.5q-67 10 -128 34.5t-117.5 68.5t-97 103t-65 143t-24.5 183q0 115 31.5 209t83 156t121 104.5t142.5 61t149 18.5q82 0 154.5 -18.5t138 -62.5t113 -109.5t75 -165.5t27.5 -225zM346 623h459q-3 106 -61 168.5t-162 62.5q-202 0 -236 -231z" />
    <glyph glyph-name="Ecaron" unicode="&#x11a;" horiz-adv-x="1193" 
d="M893 1513h-551l-141 289h233l184 -160l183 160h233zM420 270h713v-270h-1027v1434h1006v-271h-692v-311h590v-250h-590v-332z" />
    <glyph glyph-name="ecaron" unicode="&#x11b;" horiz-adv-x="1144" 
d="M850 1145h-551l-141 289h233l184 -160l183 160h233zM1090 494q0 -29 -3 -56h-743q17 -121 79 -176t173 -55q155 0 205 98h260q-91 -319 -481 -319q-75 0 -147.5 18t-141.5 60t-121 102.5t-83.5 153.5t-31.5 206q0 115 31.5 209t83 156t121 104.5t142.5 61t149 18.5
q82 0 154.5 -18.5t138 -62.5t113 -109.5t75 -165.5t27.5 -225zM346 623h459q-3 106 -61 168.5t-162 62.5q-202 0 -236 -231z" />
    <glyph glyph-name="Gbreve" unicode="&#x11e;" horiz-adv-x="1458" 
d="M895 1821h195q0 -149 -90.5 -232.5t-262.5 -83.5t-261 83.5t-89 232.5h195q9 -64 46 -91.5t109 -27.5q73 0 111 27.5t47 91.5zM1372 786v-96q0 -355 -147.5 -531.5t-468.5 -176.5q-314 0 -497 192.5t-183 542.5q0 175 48.5 314.5t136 231.5t209 140.5t267.5 48.5
t268 -48.5t209 -150.5t111 -245h-309q-43 89 -106.5 131.5t-166.5 42.5q-161 0 -250.5 -124t-89.5 -341q0 -216 91 -340.5t262 -124.5q154 0 235 67.5t96 223.5h-296v243h581z" />
    <glyph glyph-name="gbreve" unicode="&#x11f;" horiz-adv-x="1212" 
d="M563 1137q-172 0 -261 83t-89 232h195q9 -64 46 -91.5t109 -27.5q73 0 111 27.5t47 91.5h194q0 -149 -90 -232t-262 -83zM807 1071h299v-1042q0 -115 -36 -204t-90 -139.5t-128 -83t-139 -43t-133 -10.5q-167 0 -293 64t-181 172l185 117q28 -30 54 -50.5t81 -39.5
t125 -19q134 0 195 55.5t61 180.5v133q0 -9 -9.5 -28t-32.5 -44t-54.5 -48t-82 -38.5t-108.5 -15.5q-60 0 -121.5 18t-124 60t-110.5 102.5t-78.5 155t-30.5 208.5q0 112 30 206t78 155t109.5 103t123 60.5t120.5 18.5q102 0 180 -45t111 -100v141zM586 229q104 0 168.5 77
t64.5 226q0 148 -65 225t-168 77t-168.5 -75.5t-65.5 -226.5t65.5 -227t168.5 -76z" />
    <glyph glyph-name="Gdotaccent" unicode="&#x120;" horiz-adv-x="1458" 
d="M588 1821h303v-226h-303v226zM1372 786v-96q0 -355 -147.5 -531.5t-468.5 -176.5q-314 0 -497 192.5t-183 542.5q0 175 48.5 314.5t136 231.5t209 140.5t267.5 48.5t268 -48.5t209 -150.5t111 -245h-309q-43 89 -106.5 131.5t-166.5 42.5q-161 0 -250.5 -124t-89.5 -341
q0 -216 91 -340.5t262 -124.5q154 0 235 67.5t96 223.5h-296v243h581z" />
    <glyph glyph-name="gdotaccent" unicode="&#x121;" horiz-adv-x="1212" 
d="M717 1452v-225h-303v225h303zM807 1071h299v-1042q0 -115 -36 -204t-90 -139.5t-128 -83t-139 -43t-133 -10.5q-167 0 -293 64t-181 172l185 117q28 -30 54 -50.5t81 -39.5t125 -19q134 0 195 55.5t61 180.5v133q0 -9 -9.5 -28t-32.5 -44t-54.5 -48t-82 -38.5
t-108.5 -15.5q-60 0 -121.5 18t-124 60t-110.5 102.5t-78.5 155t-30.5 208.5q0 112 30 206t78 155t109.5 103t123 60.5t120.5 18.5q102 0 180 -45t111 -100v141zM586 229q104 0 168.5 77t64.5 226q0 148 -65 225t-168 77t-168.5 -75.5t-65.5 -226.5t65.5 -227t168.5 -76z
" />
    <glyph glyph-name="Gcommaaccent" unicode="&#x122;" horiz-adv-x="1458" 
d="M1372 786v-96q0 -355 -147.5 -531.5t-468.5 -176.5q-314 0 -497 192.5t-183 542.5q0 175 48.5 314.5t136 231.5t209 140.5t267.5 48.5t268 -48.5t209 -150.5t111 -245h-309q-43 89 -106.5 131.5t-166.5 42.5q-161 0 -250.5 -124t-89.5 -341q0 -216 91 -340.5t262 -124.5
q154 0 235 67.5t96 223.5h-296v243h581zM596 -748v93q65 13 95 62.5t30 121.5v65h-125v340h324v-323q0 -94 -19.5 -161.5t-49 -105t-75 -59t-86 -27.5t-94.5 -6z" />
    <glyph glyph-name="gcommaaccent" unicode="&#x123;" horiz-adv-x="1212" 
d="M696 1499v-340h-323v324q0 68 10 122t26.5 91t42 64t51.5 42.5t61 24.5t64.5 11.5t67.5 2.5v-92q-65 -13 -95 -62.5t-30 -121.5v-66h125zM807 1071h299v-1042q0 -115 -36 -204t-90 -139.5t-128 -83t-139 -43t-133 -10.5q-167 0 -293 64t-181 172l185 117q28 -30 54 -50.5
t81 -39.5t125 -19q134 0 195 55.5t61 180.5v133q0 -9 -9.5 -28t-32.5 -44t-54.5 -48t-82 -38.5t-108.5 -15.5q-60 0 -121.5 18t-124 60t-110.5 102.5t-78.5 155t-30.5 208.5q0 112 30 206t78 155t109.5 103t123 60.5t120.5 18.5q102 0 180 -45t111 -100v141zM586 229
q104 0 168.5 77t64.5 226q0 148 -65 225t-168 77t-168.5 -75.5t-65.5 -226.5t65.5 -227t168.5 -76z" />
    <glyph glyph-name="Hbar" unicode="&#x126;" horiz-adv-x="1388" 
d="M969 1434h313v-1434h-313v590h-549v-590h-314v1434h314v-238h549v238zM420 844h549v106h-549v-106z" />
    <glyph glyph-name="hbar" unicode="&#x127;" horiz-adv-x="1302" 
d="M817 1075q379 0 379 -434v-641h-299v625q0 104 -52 153t-138 49q-53 0 -97.5 -21t-71.5 -53t-43 -64t-20 -60v-629h-299v1051h-151v206h151v189h299v-189h172v-206h-172v-197q13 32 39.5 66.5t68 71t103.5 60t131 23.5z" />
    <glyph glyph-name="Imacron" unicode="&#x12a;" horiz-adv-x="526" 
d="M-109 1821h742v-174h-742v174zM420 0h-314v1434h314v-1434z" />
    <glyph glyph-name="imacron" unicode="&#x12b;" horiz-adv-x="512" 
d="M-115 1452h742v-174h-742v174zM106 1065h300v-1065h-300v1065z" />
    <glyph glyph-name="Iogonek" unicode="&#x12e;" horiz-adv-x="526" 
d="M145 -221q0 -60 48.5 -74t125.5 16v-124q-43 -23 -101 -37.5t-119.5 -14.5t-114 16t-86 58.5t-33.5 106.5q0 46 21.5 88.5t57 73.5t80 55.5t91 38.5t90.5 18h-99v1434h314v-1434h2q-84 -22 -142.5 -51.5t-86 -60.5t-38 -56.5t-10.5 -52.5z" />
    <glyph glyph-name="iogonek" unicode="&#x12f;" horiz-adv-x="512" 
d="M106 1452h304v-225h-304v225zM106 0v1065h300v-1065h-82q-84 -22 -142.5 -51.5t-86 -60.5t-38 -56.5t-10.5 -52.5q0 -60 48.5 -74t125.5 16v-124q-43 -23 -101 -37.5t-119.5 -14.5t-114 16t-86 58.5t-33.5 106.5q0 75 56 137.5t131.5 96t151.5 40.5z" />
    <glyph glyph-name="Idotaccent" unicode="&#x130;" horiz-adv-x="526" 
d="M113 1821h303v-226h-303v226zM420 0h-314v1434h314v-1434z" />
    <glyph glyph-name="dotlessi" unicode="&#x131;" horiz-adv-x="512" 
d="M106 1065h300v-1065h-300v1065z" />
    <glyph glyph-name="IJ" unicode="&#x132;" horiz-adv-x="1603" 
d="M420 0h-314v1434h314v-1434zM725 371q110 -115 260 -115q44 0 78.5 10.5t66 36.5t49 77.5t17.5 125.5v928h311v-942q0 -132 -41 -232t-114 -158.5t-164 -87t-199 -28.5q-140 0 -248.5 53.5t-179.5 136.5z" />
    <glyph glyph-name="ij" unicode="&#x133;" horiz-adv-x="1021" 
d="M106 1452h300v-227h-300v227zM616 1452h299v-227h-299v227zM106 1065h300v-1065h-300v1065zM365 -172q94 -25 139 -25q112 0 112 129v1133h299v-1182q0 -167 -87 -250.5t-244 -83.5q-135 0 -219 37v242z" />
    <glyph glyph-name="Kcommaaccent" unicode="&#x136;" horiz-adv-x="1443" 
d="M797 788l606 -788h-346l-436 565v17l-201 -236v-346h-314v1434h314v-666l569 666h359zM555 -406v340h324v-323q0 -94 -19.5 -161.5t-49 -105t-75 -59t-86 -27.5t-94.5 -6v93q65 13 95 62.5t30 121.5v65h-125z" />
    <glyph glyph-name="kcommaaccent" unicode="&#x137;" horiz-adv-x="1189" 
d="M684 616l492 -616h-326l-350 426l-94 -96v-330h-300v1446h300v-774l372 393h338zM467 -406v340h324v-323q0 -94 -19.5 -161.5t-49 -105t-75 -59t-86 -27.5t-94.5 -6v93q65 13 95 62.5t30 121.5v65h-125z" />
    <glyph glyph-name="Lacute" unicode="&#x139;" horiz-adv-x="1128" 
d="M129 1554h252l240 263h-328zM420 270h653v-270h-967v1434h314v-1164z" />
    <glyph glyph-name="lacute" unicode="&#x13a;" horiz-adv-x="512" 
d="M109 1571h251l240 262h-328zM106 1446h300v-1446h-300v1446z" />
    <glyph glyph-name="Lcommaaccent" unicode="&#x13b;" horiz-adv-x="1128" 
d="M420 270h653v-270h-967v1434h314v-1164zM403 -758v92q65 13 95 63t30 122v65h-125v340h324v-323q0 -94 -19.5 -161.5t-49 -105t-75 -59t-86 -27.5t-94.5 -6z" />
    <glyph glyph-name="lcommaaccent" unicode="&#x13c;" horiz-adv-x="512" 
d="M106 1446h300v-1446h-300v1446zM96 -748v93q65 13 95 62.5t30 121.5v65h-125v340h324v-323q0 -94 -19.5 -161.5t-49 -105t-75 -59t-86 -27.5t-94.5 -6z" />
    <glyph glyph-name="Lcaron" unicode="&#x13d;" horiz-adv-x="1128" 
d="M420 270h653v-270h-967v1434h314v-1164zM612 752v92q65 13 95 62.5t30 121.5v66h-125v340h324v-324q0 -94 -19.5 -161.5t-49 -105t-75 -58.5t-86 -27t-94.5 -6z" />
    <glyph glyph-name="lcaron" unicode="&#x13e;" horiz-adv-x="925" 
d="M106 1446h300v-1446h-300v1446zM520 752v92q65 13 95 62.5t30 121.5v66h-125v340h324v-324q0 -94 -19.5 -161.5t-49 -105t-75 -58.5t-86 -27t-94.5 -6z" />
    <glyph glyph-name="Lslash" unicode="&#x141;" horiz-adv-x="1169" 
d="M461 270h653v-270h-967v395l-122 -129v303l122 129v736h314v-404l151 160h2v-301l-153 -162v-457z" />
    <glyph glyph-name="lslash" unicode="&#x142;" horiz-adv-x="624" 
d="M580 1163v-297l-115 -121v-745h-299v430l-121 -127v299l121 127v717h299v-402l113 119h2z" />
    <glyph glyph-name="Nacute" unicode="&#x143;" horiz-adv-x="1423" 
d="M565 1559h252l240 262h-328zM1317 1434v-1434h-330l-561 913h-6v-913h-314v1434h318l573 -932h7v932h313z" />
    <glyph glyph-name="nacute" unicode="&#x144;" horiz-adv-x="1232" 
d="M961 1452l-240 -262h-252l164 262h328zM748 1075q378 0 378 -434v-641h-299v625q0 104 -52 153t-138 49q-53 0 -97.5 -21t-71 -53t-42.5 -64t-20 -60v-629h-300v1065h300v-211q13 32 39.5 66.5t68 71t103.5 60t131 23.5z" />
    <glyph glyph-name="Ncommaaccent" unicode="&#x145;" horiz-adv-x="1423" 
d="M1317 1434v-1434h-330l-561 913h-6v-913h-314v1434h318l573 -932h7v932h313zM553 -748v93q65 13 95 62.5t30 121.5v65h-125v340h324v-323q0 -94 -19.5 -161.5t-49 -105t-75 -59t-86 -27.5t-94.5 -6z" />
    <glyph glyph-name="ncommaaccent" unicode="&#x146;" horiz-adv-x="1232" 
d="M748 1075q378 0 378 -434v-641h-299v625q0 104 -52 153t-138 49q-53 0 -97.5 -21t-71 -53t-42.5 -64t-20 -60v-629h-300v1065h300v-211q13 32 39.5 66.5t68 71t103.5 60t131 23.5zM457 -406v340h323v-323q0 -94 -19.5 -161.5t-48.5 -105t-74.5 -59t-86 -27.5t-94.5 -6v93
q65 13 95 62.5t30 121.5v65h-125z" />
    <glyph glyph-name="Ncaron" unicode="&#x147;" horiz-adv-x="1423" 
d="M893 1802h233l-141 -289h-551l-141 289h233l185 -160zM1317 1434v-1434h-330l-561 913h-6v-913h-314v1434h318l573 -932h7v932h313z" />
    <glyph glyph-name="ncaron" unicode="&#x148;" horiz-adv-x="1232" 
d="M889 1145h-551l-141 289h233l184 -160l183 160h233zM748 1075q378 0 378 -434v-641h-299v625q0 104 -52 153t-138 49q-53 0 -97.5 -21t-71 -53t-42.5 -64t-20 -60v-629h-300v1065h300v-211q13 32 39.5 66.5t68 71t103.5 60t131 23.5z" />
    <glyph glyph-name="Eng" unicode="&#x14a;" horiz-adv-x="1423" 
d="M1004 1434h313v-1379q0 -107 -27.5 -192.5t-74.5 -143.5t-113.5 -96.5t-142 -56t-162.5 -17.5q-139 0 -248 54.5t-178 136.5l161 194q109 -114 261 -114q37 0 67.5 7.5t59 25t48.5 52t29 83.5l-571 925h-6v-913h-314v1434h318l573 -934h7v934z" />
    <glyph glyph-name="eng" unicode="&#x14b;" horiz-adv-x="1232" 
d="M748 1075q378 0 378 -434v-758q0 -167 -87 -250.5t-244 -83.5q-136 0 -220 37v242q94 -25 140 -25q112 0 112 129v693q0 104 -52 153t-138 49q-53 0 -97.5 -21t-71 -53t-42.5 -64t-20 -60v-629h-300v1065h300v-211q13 32 39.5 66.5t68 71t103.5 60t131 23.5z" />
    <glyph glyph-name="Omacron" unicode="&#x14c;" horiz-adv-x="1513" 
d="M387 1821h741v-174h-741v174zM758 1452q312 0 496 -195t184 -540q0 -343 -184 -539t-496 -196t-497 196t-185 539q0 345 184.5 540t497.5 195zM758 252q167 0 259.5 124t92.5 341q0 218 -92 341.5t-260 123.5q-169 0 -262 -123.5t-93 -341.5q0 -217 93 -341t262 -124z
" />
    <glyph glyph-name="omacron" unicode="&#x14d;" horiz-adv-x="1167" 
d="M213 1452h741v-174h-741v174zM584 1075q70 0 141.5 -18t141.5 -60.5t124 -104t87.5 -156t33.5 -208.5q0 -113 -33.5 -206.5t-87.5 -154.5t-124 -103t-141.5 -60t-141.5 -18t-141.5 18t-142 60t-124.5 103t-87.5 154.5t-33.5 206.5q0 114 33.5 208.5t87.5 156t124.5 104
t142 60.5t141.5 18zM825 528q0 154 -68.5 230t-172.5 76t-173 -76t-69 -230q0 -148 69.5 -224.5t172.5 -76.5t172 76.5t69 224.5z" />
    <glyph glyph-name="Ohungarumlaut" unicode="&#x150;" horiz-adv-x="1513" 
d="M498 1559h252l239 262h-327zM926 1559h252l239 262h-327zM758 1452q312 0 496 -195t184 -540q0 -343 -184 -539t-496 -196t-497 196t-185 539q0 345 184.5 540t497.5 195zM758 252q167 0 259.5 124t92.5 341q0 218 -92 341.5t-260 123.5q-169 0 -262 -123.5t-93 -341.5
q0 -217 93 -341t262 -124z" />
    <glyph glyph-name="ohungarumlaut" unicode="&#x151;" horiz-adv-x="1167" 
d="M324 1190h251l240 262h-328zM752 1190h252l239 262h-328zM584 1075q70 0 141.5 -18t141.5 -60.5t124 -104t87.5 -156t33.5 -208.5q0 -113 -33.5 -206.5t-87.5 -154.5t-124 -103t-141.5 -60t-141.5 -18t-141.5 18t-142 60t-124.5 103t-87.5 154.5t-33.5 206.5
q0 114 33.5 208.5t87.5 156t124.5 104t142 60.5t141.5 18zM825 528q0 154 -68.5 230t-172.5 76t-173 -76t-69 -230q0 -148 69.5 -224.5t172.5 -76.5t172 76.5t69 224.5z" />
    <glyph glyph-name="OE" unicode="&#x152;" horiz-adv-x="2209" 
d="M1436 270h712v-270h-1026v74q-154 -92 -364 -92q-312 0 -497 196t-185 539q0 345 184.5 540t497.5 195q208 0 364 -90v72h1006v-271h-692v-311h589v-250h-589v-332zM758 252q167 0 259.5 124t92.5 341q0 218 -92 341.5t-260 123.5q-169 0 -262 -123.5t-93 -341.5
q0 -217 93 -341t262 -124z" />
    <glyph glyph-name="oe" unicode="&#x153;" horiz-adv-x="1914" 
d="M1860 494q0 -38 -2 -56h-744q17 -121 79 -176t173 -55q155 0 205 98h260q-91 -319 -481 -319q-107 0 -209 37.5t-176 115.5q-75 -77 -177 -115t-204 -38q-70 0 -141.5 18t-142 60t-124.5 103t-87.5 154.5t-33.5 206.5q0 114 33.5 208.5t87.5 156t124.5 104t142 60.5
t141.5 18q102 0 204 -38.5t177 -116.5q74 78 176.5 116.5t210.5 38.5q82 0 154.5 -18.5t138 -62.5t113 -109.5t75 -165.5t27.5 -225zM1116 623h459q-3 106 -61 168.5t-162 62.5q-202 0 -236 -231zM584 227q103 0 172 76.5t69 224.5q0 154 -68.5 230t-172.5 76t-173 -76
t-69 -230q0 -148 69.5 -224.5t172.5 -76.5z" />
    <glyph glyph-name="Racute" unicode="&#x154;" horiz-adv-x="1370" 
d="M936 1821l-240 -262h-252l164 262h328zM1274 240q0 -95 8 -145.5t33 -94.5h-314q-24 44 -32 95.5t-8 144.5v96q0 85 -53.5 134.5t-145.5 49.5h-342v-520h-314v1434h619q268 0 401.5 -119.5t133.5 -313.5q0 -65 -16 -119.5t-46 -95t-62.5 -69.5t-74.5 -55
q116 -54 164.5 -129t48.5 -187v-106zM713 766q121 0 172 50.5t51 156.5q0 190 -217 190h-299v-397h293z" />
    <glyph glyph-name="racute" unicode="&#x155;" horiz-adv-x="860" 
d="M801 1452l-240 -262h-252l164 262h328zM723 1075q51 0 92 -8v-262q-41 2 -70 2q-158 0 -238.5 -62t-100.5 -178v-567h-300v1065h300v-236q24 112 105 179t212 67z" />
    <glyph glyph-name="Rcommaaccent" unicode="&#x156;" horiz-adv-x="1370" 
d="M1274 240q0 -95 8 -145.5t33 -94.5h-314q-24 44 -32 95.5t-8 144.5v96q0 85 -53.5 134.5t-145.5 49.5h-342v-520h-314v1434h619q268 0 401.5 -119.5t133.5 -313.5q0 -65 -16 -119.5t-46 -95t-62.5 -69.5t-74.5 -55q116 -54 164.5 -129t48.5 -187v-106zM713 766
q121 0 172 50.5t51 156.5q0 190 -217 190h-299v-397h293zM432 -406v340h324v-323q0 -94 -19.5 -161.5t-49 -105t-75 -59t-86 -27.5t-94.5 -6v93q65 13 95 62.5t30 121.5v65h-125z" />
    <glyph glyph-name="rcommaaccent" unicode="&#x157;" horiz-adv-x="860" 
d="M723 1075q51 0 92 -8v-262q-41 2 -70 2q-158 0 -238.5 -62t-100.5 -178v-567h-300v1065h300v-236q24 112 105 179t212 67zM100 -406v340h324v-323q0 -94 -19.5 -161.5t-49 -105t-75 -59t-86 -27.5t-94.5 -6v93q65 13 95 62.5t30 121.5v65h-125z" />
    <glyph glyph-name="Rcaron" unicode="&#x158;" horiz-adv-x="1370" 
d="M864 1513h-551l-141 289h234l184 -160l182 160h234zM1274 240q0 -95 8 -145.5t33 -94.5h-314q-24 44 -32 95.5t-8 144.5v96q0 85 -53.5 134.5t-145.5 49.5h-342v-520h-314v1434h619q268 0 401.5 -119.5t133.5 -313.5q0 -65 -16 -119.5t-46 -95t-62.5 -69.5t-74.5 -55
q116 -54 164.5 -129t48.5 -187v-106zM713 766q121 0 172 50.5t51 156.5q0 190 -217 190h-299v-397h293z" />
    <glyph glyph-name="rcaron" unicode="&#x159;" horiz-adv-x="860" 
d="M729 1145h-551l-141 289h233l185 -160l182 160h233zM406 829q24 112 105 179t212 67q51 0 92 -8v-262q-41 2 -70 2q-158 0 -238.5 -62t-100.5 -178v-567h-300v1065h300v-236z" />
    <glyph glyph-name="Sacute" unicode="&#x15a;" horiz-adv-x="1329" 
d="M502 1559h252l239 262h-327zM801 831q246 -50 349 -144t103 -273q0 -137 -79 -236.5t-210 -147.5t-298 -48q-263 0 -420 127t-170 360h323q41 -229 271 -229q118 0 189 51.5t71 126.5q0 76 -48.5 114.5t-160.5 59.5l-189 35q-77 15 -137 35t-115 53t-91.5 76t-58 106
t-21.5 141q0 187 146 300.5t388 113.5q249 0 401 -112.5t170 -327.5h-321q-23 182 -250 182q-105 0 -160 -52t-55 -112q0 -124 152 -153z" />
    <glyph glyph-name="sacute" unicode="&#x15b;" horiz-adv-x="1034" 
d="M369 1190h252l239 262h-328zM698 735q-18 64 -62 91.5t-120 27.5q-72 0 -115 -27t-43 -77q0 -77 113 -101l191 -43q146 -33 197 -57q99 -47 122 -150q8 -37 8 -84q0 -162 -130 -245.5t-343 -83.5q-206 0 -327 89.5t-144 264.5h274q34 -133 199 -133q86 0 129 30t43 82
q0 41 -25.5 63t-86.5 34l-172 37q-174 38 -250 114.5t-76 190.5q0 149 115 233t319 84t314.5 -90t138.5 -250h-269z" />
    <glyph glyph-name="Scedilla" unicode="&#x15e;" horiz-adv-x="1329" 
d="M1253 414q0 -124 -66 -218t-177 -145.5t-256 -64.5l-103 -109q85 0 145 -47t60 -133q0 -54 -22.5 -93t-58.5 -61.5t-92.5 -36t-113 -18t-131.5 -4.5v121q191 0 191 84q0 46 -45 55.5t-88 -31.5l-72 115l94 166q-200 33 -315 155t-127 320h323q41 -229 271 -229
q118 0 189 51.5t71 126.5q0 76 -48.5 114.5t-160.5 59.5l-189 35q-77 15 -137 35t-115 53t-91.5 76t-58 106t-21.5 141q0 187 146 300.5t388 113.5q249 0 401 -112.5t170 -327.5h-321q-23 182 -250 182q-105 0 -160 -52t-55 -112q0 -124 152 -153l221 -46q246 -50 349 -144
t103 -273z" />
    <glyph glyph-name="scedilla" unicode="&#x15f;" horiz-adv-x="1034" 
d="M989 315q0 -139 -95.5 -219.5t-260.5 -103.5l-109 -113q85 0 145 -47t60 -133q0 -54 -22.5 -93t-58.5 -61.5t-92.5 -36t-113 -18t-131.5 -4.5v121q191 0 191 84q0 46 -45 55.5t-88 -31.5l-72 115l94 166q-306 51 -346 344h274q34 -133 199 -133q86 0 129 30t43 82
q0 41 -25.5 63t-86.5 34l-172 37q-174 38 -250 114.5t-76 190.5q0 149 115 233t319 84t314.5 -90t138.5 -250h-269q-18 64 -62 91.5t-120 27.5q-72 0 -115 -27t-43 -77q0 -77 113 -101l191 -43q146 -33 197 -57q99 -47 122 -150q8 -37 8 -84z" />
    <glyph glyph-name="Scaron" unicode="&#x160;" horiz-adv-x="1329" 
d="M829 1802h234l-141 -289h-551l-142 289h234l184 -160zM801 831q246 -50 349 -144t103 -273q0 -137 -79 -236.5t-210 -147.5t-298 -48q-263 0 -420 127t-170 360h323q41 -229 271 -229q118 0 189 51.5t71 126.5q0 76 -48.5 114.5t-160.5 59.5l-189 35q-77 15 -137 35
t-115 53t-91.5 76t-58 106t-21.5 141q0 187 146 300.5t388 113.5q249 0 401 -112.5t170 -327.5h-321q-23 182 -250 182q-105 0 -160 -52t-55 -112q0 -124 152 -153z" />
    <glyph glyph-name="scaron" unicode="&#x161;" horiz-adv-x="1034" 
d="M696 1434h234l-142 -289h-550l-142 289h234l184 -160zM698 735q-18 64 -62 91.5t-120 27.5q-72 0 -115 -27t-43 -77q0 -77 113 -101l191 -43q146 -33 197 -57q99 -47 122 -150q8 -37 8 -84q0 -162 -130 -245.5t-343 -83.5q-206 0 -327 89.5t-144 264.5h274
q34 -133 199 -133q86 0 129 30t43 82q0 41 -25.5 63t-86.5 34l-172 37q-174 38 -250 114.5t-76 190.5q0 149 115 233t319 84t314.5 -90t138.5 -250h-269z" />
    <glyph glyph-name="uni0162" unicode="&#x162;" horiz-adv-x="1228" 
d="M772 0h-65l-119 -125q85 0 145 -47t60 -133q0 -54 -22.5 -93t-58.5 -61.5t-92.5 -36t-113 -18t-131.5 -4.5v121q190 0 190 84q0 46 -45 55.5t-88 -31.5l-72 115l99 174v1163h-414v271h1139v-271h-412v-1163z" />
    <glyph glyph-name="uni0163" unicode="&#x163;" horiz-adv-x="780" 
d="M725 18q-36 -14 -98 -24l-111 -117q85 0 145 -47t60 -133q0 -54 -22.5 -93t-58.5 -61.5t-92.5 -36t-113 -18t-131.5 -4.5v121q191 0 191 84q0 46 -45.5 55.5t-88.5 -31.5l-71 115l98 174h4q-91 23 -140.5 92t-49.5 201v536h-176v234h176v266h299v-266h215v-234h-215v-503
q0 -53 26.5 -81t87.5 -28q48 0 111 14v-215z" />
    <glyph glyph-name="Tcaron" unicode="&#x164;" horiz-adv-x="1228" 
d="M887 1513h-551l-141 289h233l184 -160l183 160h233zM1184 1434v-271h-412v-1163h-313v1163h-414v271h1139z" />
    <glyph glyph-name="tcaron" unicode="&#x165;" horiz-adv-x="784" 
d="M717 1446h327l-239 -262h-252zM500 328q0 -53 26.5 -81t87.5 -28q48 0 111 14v-215q-75 -30 -195 -30q-75 0 -130 12.5t-102.5 44.5t-72 94.5t-24.5 155.5v536h-176v234h176v266h299v-266h215v-234h-215v-503z" />
    <glyph glyph-name="Tbar" unicode="&#x166;" horiz-adv-x="1228" 
d="M1184 1163h-412v-164h215v-174h-215v-825h-313v825h-213v174h213v164h-414v271h1139v-271z" />
    <glyph glyph-name="tbar" unicode="&#x167;" horiz-adv-x="780" 
d="M614 219q48 0 111 14v-215q-75 -30 -195 -30q-75 0 -130 12.5t-102.5 44.5t-72 94.5t-24.5 155.5v186h-176v240h176v110h-176v234h176v266h299v-266h215v-234h-215v-110h215v-240h-215v-153q0 -53 26.5 -81t87.5 -28z" />
    <glyph glyph-name="Utilde" unicode="&#x168;" horiz-adv-x="1394" 
d="M989 1802h119q0 -116 -65 -191t-185 -75q-55 0 -110.5 25t-94.5 55t-91 55t-101 25q-33 0 -59 -18t-25 -46h-117q0 118 65 193.5t185 75.5q45 0 88.5 -16.5t79 -40t70.5 -47t76 -40t81 -16.5q34 0 59.5 17t24.5 44zM1288 555q0 -271 -161.5 -422t-428.5 -151
q-269 0 -430.5 150.5t-161.5 422.5v879h314v-867q0 -157 72.5 -236t205.5 -79t205 79t72 236v867h313v-879z" />
    <glyph glyph-name="utilde" unicode="&#x169;" horiz-adv-x="1222" 
d="M393 1327q-33 0 -59 -17.5t-25 -45.5h-116q0 118 64.5 193t184.5 75q45 0 88.5 -16.5t79.5 -40t71 -47t76 -40t81 -16.5q34 0 59.5 17.5t24.5 44.5h118q0 -116 -64.5 -191.5t-184.5 -75.5q-45 0 -89.5 16.5t-80.5 40t-71 47t-76 40t-81 16.5zM817 1065h299v-1065h-299
v209q-10 -25 -28 -52t-48.5 -58.5t-67.5 -55.5t-89 -40.5t-109 -16.5q-85 0 -151.5 23t-119 73t-80.5 136t-28 204v643h299v-627q0 -105 53 -155t140 -50q53 0 97 21.5t70.5 54t42 65t19.5 60.5v631z" />
    <glyph glyph-name="Umacron" unicode="&#x16a;" horiz-adv-x="1394" 
d="M303 1821h741v-174h-741v174zM1288 555q0 -271 -161.5 -422t-428.5 -151q-269 0 -430.5 150.5t-161.5 422.5v879h314v-867q0 -157 72.5 -236t205.5 -79t205 79t72 236v867h313v-879z" />
    <glyph glyph-name="umacron" unicode="&#x16b;" horiz-adv-x="1222" 
d="M977 1452v-174h-741v174h741zM817 1065h299v-1065h-299v209q-10 -25 -28 -52t-48.5 -58.5t-67.5 -55.5t-89 -40.5t-109 -16.5q-85 0 -151.5 23t-119 73t-80.5 136t-28 204v643h299v-627q0 -105 53 -155t140 -50q53 0 97 21.5t70.5 54t42 65t19.5 60.5v631z" />
    <glyph glyph-name="Ubreve" unicode="&#x16c;" horiz-adv-x="1394" 
d="M831 1821h195q0 -149 -90 -232.5t-262 -83.5t-261 83.5t-89 232.5h194q9 -63 46.5 -91t109.5 -28q73 0 110.5 27.5t46.5 91.5zM1288 555q0 -271 -161.5 -422t-428.5 -151q-269 0 -430.5 150.5t-161.5 422.5v879h314v-867q0 -157 72.5 -236t205.5 -79t205 79t72 236v867
h313v-879z" />
    <glyph glyph-name="ubreve" unicode="&#x16d;" horiz-adv-x="1222" 
d="M606 1137q-172 0 -261 83t-89 232h195q9 -64 46 -91.5t109 -27.5q73 0 111 27.5t47 91.5h194q0 -149 -90 -232t-262 -83zM817 1065h299v-1065h-299v209q-10 -25 -28 -52t-48.5 -58.5t-67.5 -55.5t-89 -40.5t-109 -16.5q-85 0 -151.5 23t-119 73t-80.5 136t-28 204v643
h299v-627q0 -105 53 -155t140 -50q53 0 97 21.5t70.5 54t42 65t19.5 60.5v631z" />
    <glyph glyph-name="Uring" unicode="&#x16e;" horiz-adv-x="1394" 
d="M672 1554q-84 0 -144.5 59.5t-60.5 145.5t60.5 145.5t144.5 59.5t144.5 -59.5t60.5 -145.5t-60.5 -145.5t-144.5 -59.5zM672 1683q32 0 54 21t22 55t-22 55t-54 21q-30 0 -52 -21t-22 -55t22 -55t52 -21zM1288 555q0 -271 -161.5 -422t-428.5 -151q-269 0 -430.5 150.5
t-161.5 422.5v879h314v-867q0 -157 72.5 -236t205.5 -79t205 79t72 236v867h313v-879z" />
    <glyph glyph-name="uring" unicode="&#x16f;" horiz-adv-x="1222" 
d="M604 1186q-84 0 -144.5 59.5t-60.5 145.5q0 85 60.5 144.5t144.5 59.5t144.5 -59.5t60.5 -144.5q0 -86 -60.5 -145.5t-144.5 -59.5zM604 1466q-31 0 -52.5 -20.5t-21.5 -54.5t22 -55t52 -21q32 0 54 21t22 55t-22 54.5t-54 20.5zM817 1065h299v-1065h-299v209
q-10 -25 -28 -52t-48.5 -58.5t-67.5 -55.5t-89 -40.5t-109 -16.5q-85 0 -151.5 23t-119 73t-80.5 136t-28 204v643h299v-627q0 -105 53 -155t140 -50q53 0 97 21.5t70.5 54t42 65t19.5 60.5v631z" />
    <glyph glyph-name="Uhungarumlaut" unicode="&#x170;" horiz-adv-x="1394" 
d="M414 1559h252l239 262h-327zM842 1559h252l239 262h-327zM1288 555q0 -271 -161.5 -422t-428.5 -151q-269 0 -430.5 150.5t-161.5 422.5v879h314v-867q0 -157 72.5 -236t205.5 -79t205 79t72 236v867h313v-879z" />
    <glyph glyph-name="uhungarumlaut" unicode="&#x171;" horiz-adv-x="1222" 
d="M838 1452l-240 -262h-252l164 262h328zM1026 1190h-252l164 262h328zM817 434v631h299v-1065h-299v209q-10 -25 -28 -52t-48.5 -58.5t-67.5 -55.5t-89 -40.5t-109 -16.5q-85 0 -151.5 23t-119 73t-80.5 136t-28 204v643h299v-627q0 -105 53 -155t140 -50q53 0 97 21.5
t70.5 54t42 65t19.5 60.5z" />
    <glyph glyph-name="Uogonek" unicode="&#x172;" horiz-adv-x="1394" 
d="M975 1434h313v-879q0 -224 -111.5 -367.5t-306.5 -187.5h7q-84 -22 -142.5 -51.5t-86 -60.5t-38 -56.5t-10.5 -52.5q0 -60 49 -74t125 16v-124q-43 -23 -101 -37.5t-120 -14.5t-114.5 16t-86 58.5t-33.5 106.5q0 94 82.5 164t192.5 98q-226 28 -357 176t-131 391v879h314
v-867q0 -157 72.5 -236t205.5 -79t205 79t72 236v867z" />
    <glyph glyph-name="uogonek" unicode="&#x173;" horiz-adv-x="1222" 
d="M817 1065h299v-1065h-82q-84 -22 -142.5 -51.5t-85.5 -60.5t-37.5 -56.5t-10.5 -52.5q0 -60 49 -74t125 16v-124q-43 -23 -101 -37.5t-120 -14.5t-114.5 16t-86 58.5t-33.5 106.5q0 46 21.5 88.5t57 73.5t80 55.5t91 38.5t90.5 18v209q-10 -25 -28 -52t-48.5 -58.5
t-67.5 -55.5t-89 -40.5t-109 -16.5q-85 0 -151.5 23t-119 73t-80.5 136t-28 204v643h299v-627q0 -105 53 -155t140 -50q53 0 97 21.5t70.5 54t42 65t19.5 60.5v631z" />
    <glyph glyph-name="Wcircumflex" unicode="&#x174;" horiz-adv-x="2107" 
d="M1235 1532l-182 160l-185 -160h-233l141 289h551l141 -289h-233zM1735 1434h327l-411 -1434h-289l-309 954l-310 -954h-286l-412 1434h328l245 -959l285 959h301l285 -959z" />
    <glyph glyph-name="wcircumflex" unicode="&#x175;" horiz-adv-x="1667" 
d="M1014 1163l-183 160l-184 -160h-233l141 289h551l141 -289h-233zM1632 1065l-301 -1065h-254l-243 711l-242 -711h-256l-301 1065h301l168 -686l211 686h237l211 -686l168 686h301z" />
    <glyph glyph-name="Ycircumflex" unicode="&#x176;" horiz-adv-x="1443" 
d="M903 1532l-182 160l-184 -160h-234l141 289h551l142 -289h-234zM883 526v-526h-322v526l-516 908h352l324 -607l326 607h352z" />
    <glyph glyph-name="ycircumflex" unicode="&#x177;" horiz-adv-x="1181" 
d="M770 1163l-182 160l-185 -160h-233l141 289h551l142 -289h-234zM844 1065h303l-436 -1061q-100 -249 -221 -338t-336 -67v251q69 -7 119.5 2t81 33t46.5 46.5t31 56.5q12 34 9 58t-23 73l-383 946h309l244 -688z" />
    <glyph glyph-name="Ydieresis" unicode="&#x178;" horiz-adv-x="1443" 
d="M330 1821h303v-226h-303v226zM809 1821h305v-226h-305v226zM883 526v-526h-322v526l-516 908h352l324 -607l326 607h352z" />
    <glyph glyph-name="Zacute" unicode="&#x179;" horiz-adv-x="1273" 
d="M512 1559h252l240 262h-328zM1192 270v-270h-1110v238l739 925h-721v271h1084l2 -238l-744 -926h750z" />
    <glyph glyph-name="zacute" unicode="&#x17a;" horiz-adv-x="1044" 
d="M360 1190h252l240 262h-328zM438 250h525v-250h-881v250l522 565h-502v250h861v-250z" />
    <glyph glyph-name="Zdotaccent" unicode="&#x17b;" horiz-adv-x="1273" 
d="M510 1821h303v-226h-303v226zM1192 270v-270h-1110v238l739 925h-721v271h1084l2 -238l-744 -926h750z" />
    <glyph glyph-name="zdotaccent" unicode="&#x17c;" horiz-adv-x="1044" 
d="M358 1452h304v-225h-304v225zM438 250h525v-250h-881v250l522 565h-502v250h861v-250z" />
    <glyph glyph-name="Zcaron" unicode="&#x17d;" horiz-adv-x="1273" 
d="M840 1802h233l-141 -289h-551l-141 289h233l184 -160zM1192 270v-270h-1110v238l739 925h-721v271h1084l2 -238l-744 -926h750z" />
    <glyph glyph-name="zcaron" unicode="&#x17e;" horiz-adv-x="1044" 
d="M688 1434h234l-142 -289h-551l-141 289h234l184 -160zM438 250h525v-250h-881v250l522 565h-502v250h861v-250z" />
    <glyph glyph-name="florin" unicode="&#x192;" horiz-adv-x="638" 
d="M598 1169q-72 0 -100.5 -49t-28.5 -143v-113h129v-256h-129v-620q0 -199 -96.5 -288t-331.5 -89v256q34 0 58 10.5t38 26t21.5 42.5t9.5 52t2 61v549h-139v256h139v183q0 90 19.5 155.5t66.5 117.5t132.5 78.5t209.5 26.5v-256z" />
    <glyph glyph-name="uni01CD" unicode="&#x1cd;" horiz-adv-x="1478" 
d="M1012 1513h-551l-142 289h234l184 -160l183 160h233zM1098 0l-92 268h-531l-92 -268h-338l555 1434h281l553 -1434h-336zM553 498h375l-189 549z" />
    <glyph glyph-name="uni01CE" unicode="&#x1ce;" horiz-adv-x="1146" 
d="M848 1145h-551l-141 289h233l184 -160l183 160h233zM1034 276q0 -90 78 -96v-170q-42 -18 -108 -18q-104 0 -170 43.5t-66 126.5v8q-109 -184 -350 -184q-73 0 -136 18.5t-115 56t-82 102.5t-30 150q0 40 7.5 74t19 60t32.5 48.5t40.5 38t50.5 30t55 23.5t61.5 18
t62.5 14t65 12q31 6 83.5 15t83 14.5t64.5 15.5t55 22v2q0 49 -15 82.5t-42 48t-52.5 20t-58.5 5.5q-152 0 -170 -119h-282q30 338 454 338q250 0 357.5 -104.5t107.5 -341.5v-353zM735 336v188q-22 -11 -43.5 -19.5t-48 -15.5t-43.5 -10.5t-53 -10.5t-53 -11
q-75 -19 -107.5 -49.5t-32.5 -81.5q0 -54 37 -90.5t109 -36.5q49 0 92.5 15.5t71.5 40t44.5 44t26.5 37.5z" />
    <glyph glyph-name="uni01CF" unicode="&#x1cf;" horiz-adv-x="526" 
d="M442 1802h234l-141 -289h-551l-142 289h234l184 -160zM420 0h-314v1434h314v-1434z" />
    <glyph glyph-name="uni01D0" unicode="&#x1d0;" horiz-adv-x="512" 
d="M436 1434h234l-142 -289h-551l-141 289h234l184 -160zM106 1065h300v-1065h-300v1065z" />
    <glyph glyph-name="uni01D1" unicode="&#x1d1;" horiz-adv-x="1513" 
d="M938 1802h233l-141 -289h-551l-141 289h233l185 -160zM758 1452q312 0 496 -195t184 -540q0 -343 -184 -539t-496 -196t-497 196t-185 539q0 345 184.5 540t497.5 195zM758 252q167 0 259.5 124t92.5 341q0 218 -92 341.5t-260 123.5q-169 0 -262 -123.5t-93 -341.5
q0 -217 93 -341t262 -124z" />
    <glyph glyph-name="uni01D2" unicode="&#x1d2;" horiz-adv-x="1167" 
d="M764 1434h233l-141 -289h-551l-141 289h233l185 -160zM584 1075q70 0 141.5 -18t141.5 -60.5t124 -104t87.5 -156t33.5 -208.5q0 -113 -33.5 -206.5t-87.5 -154.5t-124 -103t-141.5 -60t-141.5 -18t-141.5 18t-142 60t-124.5 103t-87.5 154.5t-33.5 206.5
q0 114 33.5 208.5t87.5 156t124.5 104t142 60.5t141.5 18zM825 528q0 154 -68.5 230t-172.5 76t-173 -76t-69 -230q0 -148 69.5 -224.5t172.5 -76.5t172 76.5t69 224.5z" />
    <glyph glyph-name="uni01D3" unicode="&#x1d3;" horiz-adv-x="1394" 
d="M854 1802h233l-141 -289h-551l-141 289h233l185 -160zM1288 555q0 -271 -161.5 -422t-428.5 -151q-269 0 -430.5 150.5t-161.5 422.5v879h314v-867q0 -157 72.5 -236t205.5 -79t205 79t72 236v867h313v-879z" />
    <glyph glyph-name="uni01D4" unicode="&#x1d4;" horiz-adv-x="1222" 
d="M879 1145h-551l-142 289h234l184 -160l182 160h234zM817 1065h299v-1065h-299v209q-10 -25 -28 -52t-48.5 -58.5t-67.5 -55.5t-89 -40.5t-109 -16.5q-85 0 -151.5 23t-119 73t-80.5 136t-28 204v643h299v-627q0 -105 53 -155t140 -50q53 0 97 21.5t70.5 54t42 65
t19.5 60.5v631z" />
    <glyph glyph-name="uni01EA" unicode="&#x1ea;" horiz-adv-x="1513" 
d="M883 -10q-244 -74 -244 -211q0 -60 48.5 -74t125.5 16v-124q-43 -23 -101 -37.5t-120 -14.5t-114.5 16t-86 58.5t-33.5 106.5q0 66 43.5 122.5t105 90t132.5 51.5q-261 37 -412 228t-151 499q0 345 184.5 540t497.5 195q312 0 496 -195t184 -540q0 -306 -148.5 -497
t-406.5 -230zM403 717q0 -217 93 -341t262 -124q167 0 259.5 124t92.5 341q0 218 -92 341.5t-260 123.5q-169 0 -262 -123.5t-93 -341.5z" />
    <glyph glyph-name="uni01EB" unicode="&#x1eb;" horiz-adv-x="1167" 
d="M1112 528q0 -117 -34.5 -212t-94 -157.5t-128.5 -101.5t-148 -57h6q-84 -22 -142.5 -51.5t-86 -60.5t-38 -56.5t-10.5 -52.5q0 -60 49 -74t125 16v-124q-43 -23 -101 -37.5t-119.5 -14.5t-114 16t-86 58.5t-33.5 106.5q0 72 51 132t121 94t145 46q-80 16 -151.5 54.5
t-133 100.5t-97.5 159t-36 216q0 114 33.5 208.5t87.5 156t124.5 104t142 60.5t141.5 18t141.5 -18t141.5 -60.5t124 -104t87.5 -156t33.5 -208.5zM584 227q103 0 172 76.5t69 224.5q0 154 -68.5 230t-172.5 76t-173 -76t-69 -230q0 -148 69.5 -224.5t172.5 -76.5z" />
    <glyph glyph-name="Scommaaccent" unicode="&#x218;" horiz-adv-x="1329" 
d="M801 831q246 -50 349 -144t103 -273q0 -137 -79 -236.5t-210 -147.5t-298 -48q-263 0 -420 127t-170 360h323q41 -229 271 -229q118 0 189 51.5t71 126.5q0 76 -48.5 114.5t-160.5 59.5l-189 35q-77 15 -137 35t-115 53t-91.5 76t-58 106t-21.5 141q0 187 146 300.5
t388 113.5q249 0 401 -112.5t170 -327.5h-321q-23 182 -250 182q-105 0 -160 -52t-55 -112q0 -124 152 -153zM483 -748v93q65 13 95 62.5t30 121.5v65h-125v340h324v-323q0 -94 -19.5 -161.5t-49 -105t-75 -59t-86 -27.5t-94.5 -6z" />
    <glyph glyph-name="scommaaccent" unicode="&#x219;" horiz-adv-x="1034" 
d="M698 735q-18 64 -62 91.5t-120 27.5q-72 0 -115 -27t-43 -77q0 -77 113 -101l191 -43q146 -33 197 -57q99 -47 122 -150q8 -37 8 -84q0 -162 -130 -245.5t-343 -83.5q-206 0 -327 89.5t-144 264.5h274q34 -133 199 -133q86 0 129 30t43 82q0 41 -25.5 63t-86.5 34
l-172 37q-174 38 -250 114.5t-76 190.5q0 149 115 233t319 84t314.5 -90t138.5 -250h-269zM356 -766v92q65 13 95 63t30 122v65h-125v340h324v-324q0 -94 -19.5 -161.5t-49 -105t-75 -58.5t-86 -27t-94.5 -6z" />
    <glyph glyph-name="uni021A" unicode="&#x21a;" horiz-adv-x="1228" 
d="M1184 1434v-271h-412v-1163h-313v1163h-414v271h1139zM420 -408v340h323v-323q0 -94 -19.5 -161.5t-48.5 -105t-74.5 -59t-86 -27.5t-94.5 -6v93q65 13 95 62.5t30 121.5v65h-125z" />
    <glyph glyph-name="uni021B" unicode="&#x21b;" horiz-adv-x="780" 
d="M614 219q48 0 111 14v-215q-75 -30 -195 -30q-75 0 -130 12.5t-102.5 44.5t-72 94.5t-24.5 155.5v536h-176v234h176v266h299v-266h215v-234h-215v-503q0 -53 26.5 -81t87.5 -28zM348 -406v340h324v-323q0 -94 -19.5 -161.5t-49 -105t-75 -59t-86 -27.5t-94.5 -6v93
q65 13 95 62.5t30 121.5v65h-125z" />
    <glyph glyph-name="uni0237" unicode="&#x237;" horiz-adv-x="530" 
d="M-127 -172q94 -25 139 -25q113 0 113 129v1133h299v-1182q0 -167 -87.5 -250.5t-244.5 -83.5q-135 0 -219 37v242z" />
    <glyph glyph-name="circumflex" unicode="&#x2c6;" horiz-adv-x="833" 
d="M600 1163l-182 160l-185 -160h-233l141 289h551l142 -289h-234z" />
    <glyph glyph-name="caron" unicode="&#x2c7;" horiz-adv-x="833" 
d="M600 1434h234l-142 -289h-551l-141 289h233l185 -160z" />
    <glyph glyph-name="breve" unicode="&#x2d8;" horiz-adv-x="702" 
d="M508 1452h194q0 -149 -90 -232t-262 -83t-261 83t-89 232h195q9 -64 46 -91.5t109 -27.5q73 0 111 27.5t47 91.5z" />
    <glyph glyph-name="dotaccent" unicode="&#x2d9;" horiz-adv-x="303" 
d="M0 1452h303v-225h-303v225z" />
    <glyph glyph-name="ring" unicode="&#x2da;" horiz-adv-x="409" 
d="M205 1186q-84 0 -144.5 59.5t-60.5 145.5q0 85 60.5 144.5t144.5 59.5t144.5 -59.5t60.5 -144.5q0 -86 -60.5 -145.5t-144.5 -59.5zM205 1315q32 0 54 21t22 55t-22 54.5t-54 20.5q-31 0 -52.5 -20.5t-21.5 -54.5t22 -55t52 -21z" />
    <glyph glyph-name="ogonek" unicode="&#x2db;" horiz-adv-x="557" 
d="M455 -403q-43 -23 -101 -37.5t-120 -14.5t-114.5 16t-86 58.5t-33.5 106.5q0 46 21.5 88.5t57 73.5t80 55.5t91 38.5t90.5 18h217q-84 -22 -142.5 -51.5t-85.5 -60.5t-37.5 -56.5t-10.5 -52.5q0 -60 48.5 -74t125.5 16v-124z" />
    <glyph glyph-name="tilde" unicode="&#x2dc;" horiz-adv-x="847" 
d="M729 1434h119q0 -116 -65 -191.5t-185 -75.5q-55 0 -110.5 25t-94.5 55t-91 55t-101 25q-33 0 -59 -17.5t-25 -45.5h-117q0 118 65 193t185 75q45 0 88.5 -16.5t79 -40t70.5 -47t76 -40t81 -16.5q34 0 59.5 17.5t24.5 44.5z" />
    <glyph glyph-name="hungarumlaut" unicode="&#x2dd;" horiz-adv-x="929" 
d="M0 1190h252l240 262h-328zM428 1190h252l240 262h-328z" />
    <glyph glyph-name="uni0326" unicode="&#x326;" horiz-adv-x="0" 
d="M-324 -748v93q65 13 95 62.5t30 121.5v65h-125v340h324v-323q0 -94 -19.5 -161.5t-49 -105t-75 -59t-86 -27.5t-94.5 -6z" />
    <glyph glyph-name="uni0394" unicode="&#x394;" horiz-adv-x="1468" 
d="M1382 0h-1296l616 1434h64zM1010 256l-275 698l-276 -698h551z" />
    <glyph glyph-name="uni03A9" unicode="&#x3a9;" horiz-adv-x="1572" 
d="M1497 727q0 -245 -162 -442h111v-285h-483v336l61 49q76 62 122 152t46 190q0 198 -118 311t-288 113q-110 0 -199.5 -47.5t-145.5 -145.5t-56 -231q0 -100 44.5 -190t119.5 -152l61 -49v-336h-483v285h111q-162 197 -162 442q0 124 40 238t110 200.5t159.5 151t193 98
t207.5 33.5t207.5 -33.5t193.5 -98t159.5 -151t110 -200.5t40.5 -238z" />
    <glyph glyph-name="uni03BC" unicode="&#x3bc;" horiz-adv-x="1222" 
d="M817 1065h299v-1065h-299v209q-10 -25 -28 -52t-48.5 -58.5t-67.5 -55.5t-89 -40.5t-109 -16.5q-43 0 -80 6v-381h-299v1454h299v-627q0 -105 53 -155t140 -50q53 0 97 21.5t70.5 54t42 65t19.5 60.5v631z" />
    <glyph glyph-name="pi" unicode="&#x3c0;" horiz-adv-x="1480" 
d="M1266 244q67 0 139 37v-256q-31 -16 -109.5 -26.5t-128.5 -10.5q-46 0 -92.5 10.5t-91.5 33t-73.5 64.5t-28.5 97v616h-291v-809h-299v809h-205v256h1296v-256h-202v-453q0 -68 20 -90t66 -22z" />
    <glyph glyph-name="uni0401" unicode="&#x401;" horiz-adv-x="1193" 
d="M532 1821v-226h-303v226h303zM1014 1821v-226h-305v226h305zM420 270h713v-270h-1027v1434h1006v-271h-692v-311h590v-250h-590v-332z" />
    <glyph glyph-name="uni0403" unicode="&#x403;" horiz-adv-x="1075" 
d="M387 1559h252l240 262h-328zM1030 1434v-271h-610v-1163h-314v1434h924z" />
    <glyph glyph-name="uni0404" unicode="&#x404;" horiz-adv-x="1394" 
d="M1022 459h311q-13 -117 -65.5 -209.5t-134 -150t-182 -87.5t-214.5 -30q-301 0 -481 193t-180 542t180 542t481 193q152 0 277.5 -51t211.5 -160.5t103 -263.5h-309q-41 108 -103 156.5t-174 48.5q-135 0 -219.5 -86.5t-109.5 -243.5h387v-250h-389q22 -165 107 -257.5
t224 -92.5q114 0 176.5 49t102.5 158z" />
    <glyph glyph-name="uni0407" unicode="&#x407;" horiz-adv-x="526" 
d="M-129 1821h303v-226h-303v226zM350 1821h305v-226h-305v226zM420 0h-314v1434h314v-1434z" />
    <glyph glyph-name="uni040C" unicode="&#x40c;" horiz-adv-x="1443" 
d="M1065 1821l-240 -262h-252l164 262h328zM797 788l606 -788h-346l-436 565v17l-201 -236v-346h-314v1434h314v-666l569 666h359z" />
    <glyph glyph-name="uni040E" unicode="&#x40e;" horiz-adv-x="1243" 
d="M778 1821h195q0 -149 -90 -232.5t-262 -83.5t-261.5 83.5t-89.5 232.5h195q9 -63 46.5 -91t109.5 -28q73 0 110.5 27.5t46.5 91.5zM852 1434h346l-457 -1061q-73 -169 -144.5 -259t-169.5 -126t-243 -21v277q69 -7 116.5 -1t75 26t39.5 36.5t25 44.5q30 79 -26 211
l-369 873h346l227 -629z" />
    <glyph glyph-name="uni0410" unicode="&#x410;" horiz-adv-x="1478" 
d="M1098 0l-92 268h-531l-92 -268h-338l555 1434h281l553 -1434h-336zM553 498h375l-189 549z" />
    <glyph glyph-name="uni0411" unicode="&#x411;" horiz-adv-x="1318" 
d="M682 954q277 0 414 -126t137 -351q0 -223 -137 -350t-414 -127h-576v1434h924v-271h-610v-209h262zM678 266q109 0 166 55t57 156q0 102 -57 157.5t-166 55.5h-258v-424h258z" />
    <glyph glyph-name="uni0412" unicode="&#x412;" horiz-adv-x="1357" 
d="M999 788q124 -38 198.5 -138.5t74.5 -223.5q0 -203 -138 -314.5t-413 -111.5h-615v1434h592q235 0 357.5 -100t122.5 -271q0 -94 -51.5 -167t-127.5 -108zM420 1176v-302h274q73 0 114.5 45.5t41.5 112.5q0 72 -43.5 108t-104.5 36h-282zM711 258q116 0 170.5 51
t54.5 131q0 36 -10 68.5t-33 62.5t-67 48t-105 18h-301v-379h291z" />
    <glyph glyph-name="uni0413" unicode="&#x413;" horiz-adv-x="1075" 
d="M1030 1434v-271h-610v-1163h-314v1434h924z" />
    <glyph glyph-name="uni0414" unicode="&#x414;" horiz-adv-x="1716" 
d="M1403 256h252v-397h-299v141h-1012v-141h-299v397h174q40 40 69 90t56.5 135t42 220t14.5 315v418h1002v-1178zM549 256h541v907h-375v-147q0 -180 -13.5 -315t-39 -220t-51.5 -135t-62 -90z" />
    <glyph glyph-name="uni0415" unicode="&#x415;" horiz-adv-x="1193" 
d="M420 270h713v-270h-1027v1434h1006v-271h-692v-311h590v-250h-590v-332z" />
    <glyph glyph-name="uni0416" unicode="&#x416;" horiz-adv-x="2105" 
d="M2064 0h-356l-498 588v-588h-313v590l-500 -590h-356l604 723l-596 711h357l491 -578v578h313v-576l490 576h356l-596 -711z" />
    <glyph glyph-name="uni0417" unicode="&#x417;" horiz-adv-x="1249" 
d="M864 760q32 -3 69.5 -15t79.5 -39t75.5 -64t56 -95.5t22.5 -128.5q0 -198 -145.5 -320.5t-405.5 -122.5q-254 0 -400 139.5t-144 364.5h278q4 -66 28.5 -115.5t63 -77.5t83 -41.5t93.5 -13.5q34 0 67 6t66.5 21t59 37t41.5 58t16 81q0 88 -72.5 149.5t-224.5 61.5h-69
v197h69q74 0 125.5 19t75.5 50.5t33.5 60.5t9.5 60q0 80 -59.5 122t-143.5 42q-42 0 -78 -10.5t-68.5 -34t-52 -68.5t-20.5 -108h-278q0 225 131.5 351t361.5 126q110 0 203.5 -31t156.5 -83.5t98.5 -122t35.5 -146.5q0 -67 -22.5 -123t-59.5 -92.5t-76 -59.5t-80 -34z" />
    <glyph glyph-name="uni0418" unicode="&#x418;" horiz-adv-x="1423" 
d="M106 1434h314v-932h6l573 932h318v-1434h-313v913h-7l-561 -913h-330v1434z" />
    <glyph glyph-name="uni0419" unicode="&#x419;" horiz-adv-x="1423" 
d="M868 1821h195q0 -149 -90 -232.5t-262 -83.5t-261.5 83.5t-89.5 232.5h195q9 -63 46.5 -91t109.5 -28q73 0 110.5 27.5t46.5 91.5zM106 1434h314v-932h6l573 932h318v-1434h-313v913h-7l-561 -913h-330v1434z" />
    <glyph glyph-name="uni041A" unicode="&#x41a;" horiz-adv-x="1443" 
d="M797 788l606 -788h-346l-436 565v17l-201 -236v-346h-314v1434h314v-666l569 666h359z" />
    <glyph glyph-name="uni041B" unicode="&#x41b;" horiz-adv-x="1402" 
d="M1296 1434v-1434h-313v1163h-428v-712q0 -128 -39 -223.5t-109 -151.5t-165 -79t-211 -11v270q49 -1 82.5 6t65 27.5t47.5 64.5t16 111v969h1054z" />
    <glyph glyph-name="uni041C" unicode="&#x41c;" horiz-adv-x="1738" 
d="M106 1434h363l399 -1018l402 1018h362v-1434h-313v907h-10l-326 -907h-229l-324 907h-10v-907h-314v1434z" />
    <glyph glyph-name="uni041D" unicode="&#x41d;" horiz-adv-x="1388" 
d="M969 1434h313v-1434h-313v590h-549v-590h-314v1434h314v-590h549v590z" />
    <glyph glyph-name="uni041E" unicode="&#x41e;" horiz-adv-x="1513" 
d="M758 1452q312 0 496 -195t184 -540q0 -343 -184 -539t-496 -196t-497 196t-185 539q0 345 184.5 540t497.5 195zM758 252q167 0 259.5 124t92.5 341q0 218 -92 341.5t-260 123.5q-169 0 -262 -123.5t-93 -341.5q0 -217 93 -341t262 -124z" />
    <glyph glyph-name="uni041F" unicode="&#x41f;" horiz-adv-x="1388" 
d="M1282 1434v-1434h-313v1163h-549v-1163h-314v1434h1176z" />
    <glyph glyph-name="uni0420" unicode="&#x420;" horiz-adv-x="1288" 
d="M682 1434q276 0 413.5 -133.5t137.5 -364.5q0 -112 -33 -202t-99 -156.5t-172.5 -103t-246.5 -36.5h-262v-438h-314v1434h576zM678 709q108 0 165.5 60.5t57.5 166.5q0 107 -57 167t-166 60h-258v-454h258z" />
    <glyph glyph-name="uni0421" unicode="&#x421;" horiz-adv-x="1394" 
d="M743 252q114 0 176.5 49t102.5 158h311q-13 -117 -65.5 -209.5t-134 -150t-182 -87.5t-214.5 -30q-301 0 -481 193t-180 542t180 542t481 193q152 0 277.5 -51t211.5 -160.5t103 -263.5h-309q-41 108 -103 156.5t-174 48.5q-163 0 -251.5 -123.5t-88.5 -341.5
q0 -216 89 -340.5t251 -124.5z" />
    <glyph glyph-name="uni0422" unicode="&#x422;" horiz-adv-x="1228" 
d="M1184 1434v-271h-412v-1163h-313v1163h-414v271h1139z" />
    <glyph glyph-name="uni0423" unicode="&#x423;" horiz-adv-x="1243" 
d="M852 1434h346l-457 -1061q-73 -169 -144.5 -259t-169.5 -126t-243 -21v277q69 -7 116.5 -1t75 26t39.5 36.5t25 44.5q30 79 -26 211l-369 873h346l227 -629z" />
    <glyph glyph-name="uni0424" unicode="&#x424;" horiz-adv-x="1511" 
d="M1436 717q0 -238 -140 -391.5t-385 -192.5v-164h-313v164q-243 39 -382.5 193t-139.5 391q0 241 139 393.5t383 189.5v164h313v-164q246 -37 385.5 -189.5t139.5 -393.5zM911 381q112 35 169 122.5t57 213.5q0 127 -57 214t-169 122v-672zM375 717q0 -126 56.5 -213.5
t166.5 -122.5v672q-111 -35 -167 -122t-56 -214z" />
    <glyph glyph-name="uni0425" unicode="&#x425;" horiz-adv-x="1388" 
d="M1354 0h-350l-310 471l-309 -471h-350l485 739l-457 695h351l280 -428l281 428h350l-455 -695z" />
    <glyph glyph-name="uni0426" unicode="&#x426;" horiz-adv-x="1468" 
d="M1282 270h141v-559h-299v289h-1018v1434h314v-1164h549v1164h313v-1164z" />
    <glyph glyph-name="uni0427" unicode="&#x427;" horiz-adv-x="1347" 
d="M928 1434h313v-1434h-313v559q-14 -32 -45.5 -70.5t-83.5 -80.5t-132.5 -69.5t-172.5 -27.5q-196 0 -307 116.5t-111 363.5v643h313v-629q0 -108 59 -162.5t170 -54.5q69 0 128.5 23.5t96.5 58t59 70t26 63.5v631z" />
    <glyph glyph-name="uni0428" unicode="&#x428;" horiz-adv-x="1716" 
d="M1296 1434h314v-1434h-1504v1434h314v-1164h282v1164h312v-1164h282v1164z" />
    <glyph glyph-name="uni0429" unicode="&#x429;" horiz-adv-x="1792" 
d="M1610 270h137v-559h-299v289h-1342v1434h314v-1164h282v1164h312v-1164h282v1164h314v-1164z" />
    <glyph glyph-name="uni042A" unicode="&#x42a;" horiz-adv-x="1437" 
d="M801 954q277 0 414 -126t137 -351q0 -223 -137 -350t-414 -127h-576v1163h-180v271h494v-480h262zM797 266q109 0 166 55t57 156q0 102 -57 157.5t-166 55.5h-258v-424h258z" />
    <glyph glyph-name="uni042B" unicode="&#x42b;" horiz-adv-x="1800" 
d="M682 954q277 0 414 -126t137 -351q0 -223 -137 -350t-414 -127h-576v1434h314v-480h262zM1382 1434h314v-1434h-314v1434zM678 266q109 0 166 55t57 156q0 102 -57 157.5t-166 55.5h-258v-424h258z" />
    <glyph glyph-name="uni042C" unicode="&#x42c;" horiz-adv-x="1318" 
d="M682 954q277 0 414 -126t137 -351q0 -223 -137 -350t-414 -127h-576v1434h314v-480h262zM678 266q109 0 166 55t57 156q0 102 -57 157.5t-166 55.5h-258v-424h258z" />
    <glyph glyph-name="uni042D" unicode="&#x42d;" horiz-adv-x="1409" 
d="M672 1452q301 0 481 -193t180 -542t-180 -542t-481 -193q-114 0 -214.5 30t-182 87.5t-134 150t-65.5 209.5h311q40 -109 102.5 -158t176.5 -49q139 0 224 92.5t107 257.5h-391v250h389q-25 157 -109.5 243.5t-219.5 86.5q-112 0 -174 -48.5t-103 -156.5h-309
q17 154 103 263.5t211.5 160.5t277.5 51z" />
    <glyph glyph-name="uni042E" unicode="&#x42e;" horiz-adv-x="2037" 
d="M1282 1452q312 0 496 -195t184 -540q0 -343 -184 -539t-496 -196q-281 0 -460.5 161t-213.5 447h-188v-590h-314v1434h314v-590h188q34 288 213 448t461 160zM1282 252q167 0 259.5 124t92.5 341q0 218 -92 341.5t-260 123.5q-169 0 -261.5 -123.5t-92.5 -341.5
q0 -217 92.5 -341t261.5 -124z" />
    <glyph glyph-name="uni042F" unicode="&#x42f;" horiz-adv-x="1370" 
d="M1264 1434v-1434h-314v520h-342q-92 0 -145 -49.5t-53 -134.5v-96q0 -92 -8.5 -143.5t-32.5 -96.5h-314q25 44 33 94.5t8 145.5v106q0 112 48.5 187t164.5 129q-198 122 -198 339q0 94 31.5 171t94.5 136.5t167 92.5t241 33h619zM950 766v397h-299q-217 0 -217 -190
q0 -106 51 -156.5t172 -50.5h293z" />
    <glyph glyph-name="uni0430" unicode="&#x430;" horiz-adv-x="1146" 
d="M1034 276q0 -90 78 -96v-170q-42 -18 -108 -18q-104 0 -170 43.5t-66 126.5v8q-109 -184 -350 -184q-73 0 -136 18.5t-115 56t-82 102.5t-30 150q0 40 7.5 74t19 60t32.5 48.5t40.5 38t50.5 30t55 23.5t61.5 18t62.5 14t65 12q31 6 83.5 15t83 14.5t64.5 15.5t55 22v2
q0 49 -15 82.5t-42 48t-52.5 20t-58.5 5.5q-152 0 -170 -119h-282q30 338 454 338q250 0 357.5 -104.5t107.5 -341.5v-353zM735 336v188q-22 -11 -43.5 -19.5t-48 -15.5t-43.5 -10.5t-53 -10.5t-53 -11q-75 -19 -107.5 -49.5t-32.5 -81.5q0 -54 37 -90.5t109 -36.5
q49 0 92.5 15.5t71.5 40t44.5 44t26.5 37.5z" />
    <glyph glyph-name="uni0431" unicode="&#x431;" horiz-adv-x="1189" 
d="M674 1065q58 0 118 -17t122.5 -58t111 -100.5t79 -154t30.5 -209.5q0 -119 -34 -214.5t-88 -155.5t-125 -100.5t-141 -57t-141 -16.5q-72 0 -141.5 18.5t-141 66t-125 119.5t-87.5 188.5t-35 262.5v246q-1 284 121 417.5t362 133.5h68q107 0 159 45h265
q-42 -153 -126 -216t-253 -63h-113q-93 0 -146 -60t-53 -149v-63q15 51 103.5 94t210.5 43zM606 223q104 0 172 75.5t68 227.5q0 156 -69 234t-171 78q-104 0 -172.5 -78t-68.5 -234q0 -155 67.5 -229t173.5 -74z" />
    <glyph glyph-name="uni0432" unicode="&#x432;" horiz-adv-x="1210" 
d="M930 592q104 -31 164.5 -104.5t60.5 -174.5q0 -73 -25.5 -128.5t-69 -90t-107.5 -56t-133 -30t-154 -8.5h-560v1065h560q184 0 294.5 -67t110.5 -195q0 -162 -141 -211zM406 825v-178h258q41 0 70 11t40.5 28t16 29.5t4.5 23.5q0 86 -129 86h-260zM676 240q178 0 178 112
q0 22 -5.5 39t-22.5 36t-55.5 29.5t-96.5 10.5h-268v-227h270z" />
    <glyph glyph-name="uni0433" unicode="&#x433;" horiz-adv-x="911" 
d="M866 1065v-234h-460v-831h-300v1065h760z" />
    <glyph glyph-name="uni0434" unicode="&#x434;" horiz-adv-x="1366" 
d="M1219 233h102v-342h-272v109h-734v-109h-270v342h98q64 63 81.5 182t17.5 347v303h977v-832zM428 233h492v598h-379v-69q0 -215 -22.5 -340t-90.5 -189z" />
    <glyph glyph-name="uni0435" unicode="&#x435;" horiz-adv-x="1144" 
d="M1090 494q0 -29 -3 -56h-743q17 -121 79 -176t173 -55q155 0 205 98h260q-91 -319 -481 -319q-75 0 -147.5 18t-141.5 60t-121 102.5t-83.5 153.5t-31.5 206q0 115 31.5 209t83 156t121 104.5t142.5 61t149 18.5q82 0 154.5 -18.5t138 -62.5t113 -109.5t75 -165.5
t27.5 -225zM346 623h459q-3 106 -61 168.5t-162 62.5q-202 0 -236 -231z" />
    <glyph glyph-name="uni0436" unicode="&#x436;" horiz-adv-x="1830" 
d="M1817 0h-371l-373 393v-393h-299v395l-375 -395h-368l514 526l-504 539h371l362 -401v401h299v-401l363 401h368l-501 -539z" />
    <glyph glyph-name="uni0437" unicode="&#x437;" horiz-adv-x="1126" 
d="M819 561q23 -5 45 -11t60.5 -25t66 -44t49 -68.5t21.5 -97.5q0 -106 -71 -183t-186.5 -113.5t-258.5 -36.5q-240 0 -365 107.5t-125 316.5h271q0 -94 58.5 -151.5t160.5 -57.5q103 0 161 37.5t58 103.5q0 57 -63 97.5t-195 41.5v152q65 0 110 12t66 32t29 38.5t8 40.5
q0 50 -49.5 80t-120.5 30q-82 0 -134.5 -42.5t-52.5 -121.5h-270q0 180 121.5 280.5t327.5 100.5q205 0 332.5 -79.5t127.5 -213.5q0 -48 -15 -86.5t-33.5 -60.5t-48.5 -40.5t-45.5 -24.5t-39.5 -13z" />
    <glyph glyph-name="uni0438" unicode="&#x438;" horiz-adv-x="1253" 
d="M106 1065h300v-645h8l430 645h303v-1065h-299v625h-6l-420 -625h-316v1065z" />
    <glyph glyph-name="uni0439" unicode="&#x439;" horiz-adv-x="1253" 
d="M786 1452h195q0 -149 -90 -232t-262 -83t-261 83t-89 232h194q9 -63 46.5 -91t109.5 -28q73 0 110.5 27.5t46.5 91.5zM106 1065h300v-645h8l430 645h303v-1065h-299v625h-6l-420 -625h-316v1065z" />
    <glyph glyph-name="uni043A" unicode="&#x43a;" horiz-adv-x="1189" 
d="M850 0l-350 426l-94 -96v-330h-300v1065h300v-393l372 393h338l-432 -449l492 -616h-326z" />
    <glyph glyph-name="uni043B" unicode="&#x43b;" horiz-adv-x="1277" 
d="M1171 1065v-1065h-286l-11 831h-331v-387q0 -253 -136.5 -363.5t-375.5 -86.5v233q47 -1 82.5 8.5t66.5 33.5t47.5 72t16.5 118v606h927z" />
    <glyph glyph-name="uni043C" unicode="&#x43c;" horiz-adv-x="1523" 
d="M106 1065h349l307 -719l307 719h348v-1065h-299v596h-10l-238 -596h-217l-237 596h-10v-596h-300v1065z" />
    <glyph glyph-name="uni043D" unicode="&#x43d;" horiz-adv-x="1175" 
d="M770 1065h299v-1065h-299v438h-364v-438h-300v1065h300v-393h364v393z" />
    <glyph glyph-name="uni043E" unicode="&#x43e;" horiz-adv-x="1167" 
d="M584 1075q70 0 141.5 -18t141.5 -60.5t124 -104t87.5 -156t33.5 -208.5q0 -113 -33.5 -206.5t-87.5 -154.5t-124 -103t-141.5 -60t-141.5 -18t-141.5 18t-142 60t-124.5 103t-87.5 154.5t-33.5 206.5q0 114 33.5 208.5t87.5 156t124.5 104t142 60.5t141.5 18zM825 528
q0 154 -68.5 230t-172.5 76t-173 -76t-69 -230q0 -148 69.5 -224.5t172.5 -76.5t172 76.5t69 224.5z" />
    <glyph glyph-name="uni043F" unicode="&#x43f;" horiz-adv-x="1163" 
d="M1057 1065v-1065h-299v831h-352v-831h-300v1065h951z" />
    <glyph glyph-name="uni0440" unicode="&#x440;" horiz-adv-x="1220" 
d="M696 1075q58 0 120 -18.5t125 -61t112.5 -103t80.5 -154.5t31 -206q0 -115 -31 -209.5t-80.5 -155.5t-113 -103t-126.5 -60t-124 -18q-58 0 -108 14t-81 33.5t-53.5 41.5t-32 38.5t-9.5 23.5v-526h-300v1454h300v-133q32 53 110 98t180 45zM629 227q106 0 177 76.5
t71 228.5q0 150 -71 226t-177 76q-104 0 -170 -77.5t-66 -224.5q0 -149 66 -227t170 -78z" />
    <glyph glyph-name="uni0441" unicode="&#x441;" horiz-adv-x="1112" 
d="M582 227q88 0 133.5 40.5t66.5 113.5h269q-15 -91 -51.5 -162t-83 -114t-106 -70.5t-115.5 -38t-115 -10.5q-76 0 -148.5 17.5t-141.5 59t-120.5 102.5t-83 155t-31.5 210q0 115 31 209t82.5 155.5t120.5 103t141 59.5t148 18q61 0 116 -10t113 -36.5t103 -68.5
t80.5 -111t51.5 -159h-274q-17 70 -59.5 107t-128.5 37q-111 0 -173.5 -79.5t-62.5 -224.5q0 -147 63 -225t175 -78z" />
    <glyph glyph-name="uni0442" unicode="&#x442;" horiz-adv-x="1085" 
d="M1024 1065v-234h-332v-831h-299v831h-332v234h963z" />
    <glyph glyph-name="uni0443" unicode="&#x443;" horiz-adv-x="1181" 
d="M844 1065h303l-436 -1061q-100 -249 -221 -338t-336 -67v251q69 -7 119.5 2t81 33t46.5 46.5t31 56.5q12 34 9 58t-23 73l-383 946h309l244 -688z" />
    <glyph glyph-name="uni0444" unicode="&#x444;" horiz-adv-x="1257" 
d="M1202 526q0 -118 -36 -213.5t-97.5 -158.5t-136 -102t-160.5 -56v-375h-283v377q-87 18 -161.5 56.5t-137.5 100.5t-99 157.5t-36 213.5q0 120 36 217t99 160.5t137.5 103t161.5 58.5v383h283v-383q68 -15 129 -43t117 -73.5t96 -104t64 -140.5t24 -178zM299 526
q0 -245 190 -303v615q-190 -61 -190 -312zM772 223q186 61 186 303q0 248 -186 312v-615z" />
    <glyph glyph-name="uni0445" unicode="&#x445;" horiz-adv-x="1187" 
d="M1143 0h-326l-223 340l-223 -340h-326l383 555l-350 510h325l191 -293l190 293h326l-350 -510z" />
    <glyph glyph-name="uni0446" unicode="&#x446;" horiz-adv-x="1226" 
d="M1057 233h135v-520h-287v287h-799v1065h300v-832h352v832h299v-832z" />
    <glyph glyph-name="uni0447" unicode="&#x447;" horiz-adv-x="1181" 
d="M776 1065h299v-1065h-299v494q-13 -32 -39.5 -66.5t-68 -70.5t-104 -59.5t-132.5 -23.5q-174 0 -275.5 100.5t-101.5 315.5v375h299v-358q0 -90 51.5 -137.5t141.5 -47.5q53 0 97 21t70.5 53t42 64.5t19.5 62.5v342z" />
    <glyph glyph-name="uni0448" unicode="&#x448;" horiz-adv-x="1634" 
d="M1229 1065h299v-1065h-1422v1065h300v-832h270v832h282v-832h271v832z" />
    <glyph glyph-name="uni0449" unicode="&#x449;" horiz-adv-x="1695" 
d="M1528 233h133v-520h-285v287h-1270v1065h300v-832h270v832h282v-832h271v832h299v-832z" />
    <glyph glyph-name="uni044A" unicode="&#x44a;" horiz-adv-x="1298" 
d="M803 709q202 0 321 -96.5t119 -258.5q0 -165 -118.5 -259.5t-321.5 -94.5h-574v831h-184v234h483v-356h275zM801 233q76 0 113.5 32t37.5 89q0 121 -151 121h-273v-242h273z" />
    <glyph glyph-name="uni044B" unicode="&#x44b;" horiz-adv-x="1658" 
d="M680 709q202 0 321 -96.5t119 -258.5q0 -165 -118.5 -259.5t-321.5 -94.5h-574v1065h300v-356h274zM1253 1065h299v-1065h-299v1065zM678 233q76 0 113.5 32t37.5 89q0 121 -151 121h-272v-242h272z" />
    <glyph glyph-name="uni044C" unicode="&#x44c;" horiz-adv-x="1175" 
d="M680 709q202 0 321 -96.5t119 -258.5q0 -165 -118.5 -259.5t-321.5 -94.5h-574v1065h300v-356h274zM678 233q76 0 113.5 32t37.5 89q0 121 -151 121h-272v-242h272z" />
    <glyph glyph-name="uni044D" unicode="&#x44d;" horiz-adv-x="1105" 
d="M528 1075q76 0 148 -18t141 -59.5t120.5 -103t82.5 -155.5t31 -209q0 -116 -31.5 -210t-83 -155t-120.5 -102.5t-141.5 -59t-148.5 -17.5q-59 0 -115 10.5t-115.5 38t-106 70.5t-83 114t-51.5 162h269q21 -73 66.5 -113.5t133.5 -40.5q95 0 155 55.5t77 161.5h-289v183
h287q-19 100 -78 153.5t-150 53.5q-86 0 -128.5 -37t-59.5 -107h-275q16 90 51.5 159t80.5 111t103 68.5t113.5 36.5t116.5 10z" />
    <glyph glyph-name="uni044E" unicode="&#x44e;" horiz-adv-x="1642" 
d="M1059 1075q70 0 141.5 -18t141.5 -60.5t124 -104t87.5 -156t33.5 -208.5q0 -113 -33.5 -206.5t-87.5 -154.5t-124 -103t-141.5 -60t-141.5 -18q-63 0 -127 14.5t-128.5 48t-117 82t-92.5 122.5t-55 163h-133v-418h-300v1065h300v-414h135q16 89 56 162t92.5 121t116.5 81
t127 47.5t126 14.5zM1059 227q103 0 172 76.5t69 224.5q0 154 -68.5 230t-172.5 76t-173 -76t-69 -230q0 -148 69.5 -224.5t172.5 -76.5z" />
    <glyph glyph-name="uni044F" unicode="&#x44f;" horiz-adv-x="1204" 
d="M1098 1065v-1065h-299v356h-291q-58 0 -87.5 -25t-29.5 -83v-86q0 -68 -6 -96.5t-25 -65.5h-299q19 37 25 65.5t6 96.5v86q0 70 26 118.5t95 77.5q-129 96 -129 267q0 165 118.5 259.5t321.5 94.5h574zM799 590v241h-273q-151 0 -151 -120q0 -121 151 -121h273z" />
    <glyph glyph-name="uni0451" unicode="&#x451;" horiz-adv-x="1144" 
d="M489 1452v-225h-303v225h303zM971 1452v-225h-305v225h305zM1090 494q0 -29 -3 -56h-743q17 -121 79 -176t173 -55q155 0 205 98h260q-91 -319 -481 -319q-75 0 -147.5 18t-141.5 60t-121 102.5t-83.5 153.5t-31.5 206q0 115 31.5 209t83 156t121 104.5t142.5 61
t149 18.5q82 0 154.5 -18.5t138 -62.5t113 -109.5t75 -165.5t27.5 -225zM346 623h459q-3 106 -61 168.5t-162 62.5q-202 0 -236 -231z" />
    <glyph glyph-name="uni0453" unicode="&#x453;" horiz-adv-x="911" 
d="M307 1190h252l240 262h-328zM866 1065v-234h-460v-831h-300v1065h760z" />
    <glyph glyph-name="uni0454" unicode="&#x454;" horiz-adv-x="1112" 
d="M782 381h269q-15 -91 -51.5 -162t-83 -114t-106 -70.5t-115.5 -38t-115 -10.5q-76 0 -148.5 17.5t-141.5 59t-120.5 102.5t-83 155t-31.5 210q0 115 31 209t82.5 155.5t120.5 103t141 59.5t148 18q61 0 116 -10t113 -36.5t103 -68.5t80.5 -111t51.5 -159h-274
q-17 70 -59.5 107t-128.5 37q-91 0 -150 -53.5t-78 -153.5h287v-183h-289q17 -106 77 -161.5t155 -55.5q88 0 133.5 40.5t66.5 113.5z" />
    <glyph glyph-name="uni0457" unicode="&#x457;" horiz-adv-x="512" 
d="M-135 1452h303v-225h-303v225zM344 1452h305v-225h-305v225zM106 1065h300v-1065h-300v1065z" />
    <glyph glyph-name="uni045C" unicode="&#x45c;" horiz-adv-x="1189" 
d="M938 1452l-240 -262h-252l164 262h328zM850 0l-350 426l-94 -96v-330h-300v1065h300v-393l372 393h338l-432 -449l492 -616h-326z" />
    <glyph glyph-name="uni045E" unicode="&#x45e;" horiz-adv-x="1181" 
d="M748 1452h194q0 -149 -90 -232t-262 -83t-261 83t-89 232h194q9 -63 46.5 -91t109.5 -28q73 0 111 27.5t47 91.5zM844 1065h303l-436 -1061q-100 -249 -221 -338t-336 -67v251q69 -7 119.5 2t81 33t46.5 46.5t31 56.5q12 34 9 58t-23 73l-383 946h309l244 -688z" />
    <glyph glyph-name="uni0490" unicode="&#x490;" horiz-adv-x="1075" 
d="M719 1638h311v-475h-610v-1163h-314v1434h613v204z" />
    <glyph glyph-name="uni0491" unicode="&#x491;" horiz-adv-x="911" 
d="M610 1200h256v-369h-460v-831h-300v1065h504v135z" />
    <glyph glyph-name="Wgrave" unicode="&#x1e80;" horiz-adv-x="2107" 
d="M1194 1559l-164 262h-328l240 -262h252zM1735 1434h327l-411 -1434h-289l-309 954l-310 -954h-286l-412 1434h328l245 -959l285 959h301l285 -959z" />
    <glyph glyph-name="wgrave" unicode="&#x1e81;" horiz-adv-x="1667" 
d="M973 1190l-164 262h-328l240 -262h252zM1632 1065l-301 -1065h-254l-243 711l-242 -711h-256l-301 1065h301l168 -686l211 686h237l211 -686l168 686h301z" />
    <glyph glyph-name="Wacute" unicode="&#x1e82;" horiz-adv-x="2107" 
d="M905 1559h252l240 262h-328zM1735 1434h327l-411 -1434h-289l-309 954l-310 -954h-286l-412 1434h328l245 -959l285 959h301l285 -959z" />
    <glyph glyph-name="wacute" unicode="&#x1e83;" horiz-adv-x="1667" 
d="M684 1190h252l240 262h-328zM1632 1065l-301 -1065h-254l-243 711l-242 -711h-256l-301 1065h301l168 -686l211 686h237l211 -686l168 686h301z" />
    <glyph glyph-name="Wdieresis" unicode="&#x1e84;" horiz-adv-x="2107" 
d="M662 1821h303v-226h-303v226zM1141 1821h305v-226h-305v226zM1735 1434h327l-411 -1434h-289l-309 954l-310 -954h-286l-412 1434h328l245 -959l285 959h301l285 -959z" />
    <glyph glyph-name="wdieresis" unicode="&#x1e85;" horiz-adv-x="1667" 
d="M440 1452h303v-225h-303v225zM920 1452h305v-225h-305v225zM1632 1065l-301 -1065h-254l-243 711l-242 -711h-256l-301 1065h301l168 -686l211 686h237l211 -686l168 686h301z" />
    <glyph glyph-name="uni1E9E" unicode="&#x1e9e;" horiz-adv-x="1509" 
d="M989 905q90 -14 167.5 -49.5t141 -92.5t100 -144.5t36.5 -196.5q0 -202 -127.5 -322t-356.5 -120q-242 0 -348 116t-106 334h303q0 -31 7 -60.5t23.5 -57.5t47.5 -45t73 -17q53 0 89.5 27.5t50.5 64.5t14 78q0 117 -145 184t-379 55l280 527h-287q-83 0 -118 -41.5
t-35 -128.5v-1016h-314v1049q0 212 106.5 309.5t328.5 97.5h772z" />
    <glyph glyph-name="Ygrave" unicode="&#x1ef2;" horiz-adv-x="1443" 
d="M862 1559l-164 262h-327l239 -262h252zM883 526v-526h-322v526l-516 908h352l324 -607l326 607h352z" />
    <glyph glyph-name="ygrave" unicode="&#x1ef3;" horiz-adv-x="1181" 
d="M729 1190l-164 262h-327l239 -262h252zM844 1065h303l-436 -1061q-100 -249 -221 -338t-336 -67v251q69 -7 119.5 2t81 33t46.5 46.5t31 56.5q12 34 9 58t-23 73l-383 946h309l244 -688z" />
    <glyph glyph-name="endash" unicode="&#x2013;" horiz-adv-x="1228" 
d="M92 678h1045v-225h-1045v225z" />
    <glyph glyph-name="emdash" unicode="&#x2014;" horiz-adv-x="1351" 
d="M92 678h1168v-225h-1168v225z" />
    <glyph glyph-name="quoteleft" unicode="&#x2018;" horiz-adv-x="487" 
d="M406 1434v-93q-65 -13 -95 -62.5t-30 -121.5v-65h125v-340h-324v323q0 94 19.5 161.5t49 105t75 59t86 27.5t94.5 6z" />
    <glyph glyph-name="quoteright" unicode="&#x2019;" horiz-adv-x="487" 
d="M82 752v92q65 13 95 62.5t30 121.5v66h-125v340h324v-324q0 -94 -19.5 -161.5t-49 -105t-75 -58.5t-86 -27t-94.5 -6z" />
    <glyph glyph-name="quotesinglbase" unicode="&#x201a;" horiz-adv-x="487" 
d="M82 -342v92q65 13 95 62.5t30 121.5v66h-125v340h324v-324q0 -94 -19.5 -161.5t-49 -105t-75 -58.5t-86 -27t-94.5 -6z" />
    <glyph glyph-name="quotedblleft" unicode="&#x201c;" horiz-adv-x="991" 
d="M406 1436v-93q-65 -13 -95 -62.5t-30 -121.5v-65h125v-340h-324v323q0 94 19.5 161.5t49 105t75 59t86 27.5t94.5 6zM907 1436v-93q-65 -13 -95 -62.5t-30 -121.5v-65h125v-340h-323v323q0 94 19.5 161.5t48.5 105t74.5 59t86 27.5t94.5 6z" />
    <glyph glyph-name="quotedblright" unicode="&#x201d;" horiz-adv-x="991" 
d="M84 752v92q65 13 95 62.5t30 121.5v66h-125v340h324v-324q0 -94 -19.5 -161.5t-49 -105t-75 -58.5t-86 -27t-94.5 -6zM586 752v92q65 13 95 62.5t30 121.5v66h-125v340h323v-324q0 -68 -10 -122t-26.5 -91t-42 -64t-51.5 -42.5t-61 -24.5t-64.5 -11.5t-67.5 -2.5z" />
    <glyph glyph-name="quotedblbase" unicode="&#x201e;" horiz-adv-x="991" 
d="M84 -342v92q65 13 95 62.5t30 121.5v66h-125v340h324v-324q0 -94 -19.5 -161.5t-49 -105t-75 -58.5t-86 -27t-94.5 -6zM586 -342v92q65 13 95 62.5t30 121.5v66h-125v340h323v-324q0 -68 -10 -122t-26.5 -91t-42 -64t-51.5 -42.5t-61 -24.5t-64.5 -11.5t-67.5 -2.5z" />
    <glyph glyph-name="dagger" unicode="&#x2020;" horiz-adv-x="874" 
d="M772 1133v-226h-215v-506h-238v506h-217v226h217v301h238v-301h215z" />
    <glyph glyph-name="daggerdbl" unicode="&#x2021;" horiz-adv-x="874" 
d="M772 936h-215v-438h215v-226h-215v-272h-238v272h-217v226h217v438h-217v225h217v273h238v-273h215v-225z" />
    <glyph glyph-name="bullet" unicode="&#x2022;" horiz-adv-x="571" 
d="M287 356q-76 0 -130.5 55t-54.5 130q0 74 54.5 128t130.5 54q73 0 127.5 -54.5t54.5 -127.5q0 -75 -54 -130t-128 -55z" />
    <glyph glyph-name="ellipsis" unicode="&#x2026;" horiz-adv-x="1540" 
d="M102 340h324v-340h-324v340zM608 340h324v-340h-324v340zM1114 340h324v-340h-324v340z" />
    <glyph glyph-name="perthousand" unicode="&#x2030;" horiz-adv-x="2166" 
d="M383 764q-131 0 -211 86.5t-80 253.5t79.5 253.5t211.5 86.5q131 0 211 -86.5t80 -253.5t-80 -253.5t-211 -86.5zM227 0l844 1440l215 -6l-840 -1434h-219zM383 954q40 0 62 31.5t22 118.5t-22 118t-62 31q-41 0 -63.5 -31.5t-22.5 -117.5t22.5 -118t63.5 -32zM1784 -4
q-130 0 -210.5 87t-80.5 253q0 167 80 254.5t211 87.5q130 0 210.5 -87.5t80.5 -254.5q0 -166 -80.5 -253t-210.5 -87zM1135 -10q-131 0 -211 86.5t-80 253.5t80 253.5t211 86.5t210.5 -86.5t79.5 -253.5t-79.5 -253.5t-210.5 -86.5zM1784 186q40 0 62 31.5t22 118.5
q0 88 -22 119.5t-62 31.5q-41 0 -63.5 -31.5t-22.5 -119.5q0 -86 22.5 -118t63.5 -32zM1135 180q41 0 63.5 32t22.5 118t-22.5 117.5t-63.5 31.5q-40 0 -62 -31t-22 -118t22 -118.5t62 -31.5z" />
    <glyph glyph-name="guilsinglleft" unicode="&#x2039;" horiz-adv-x="518" 
d="M436 750l-172 -138l172 -139v-270l-354 286v244l354 287v-270z" />
    <glyph glyph-name="guilsinglright" unicode="&#x203a;" horiz-adv-x="522" 
d="M96 750v270l355 -287v-244l-355 -286v270l172 139z" />
    <glyph glyph-name="fraction" unicode="&#x2044;" horiz-adv-x="321" 
d="M-211 0h-149l892 1434h150z" />
    <glyph glyph-name="Euro" unicode="&#x20ac;" horiz-adv-x="1486" 
d="M1114 459h311q-13 -117 -65.5 -209.5t-134 -150t-182 -87.5t-214.5 -30q-239 0 -405 124t-225 355h-127v180h98q-2 25 -2 76v22h-96v181h114q49 256 219 394t424 138q152 0 277.5 -51t211.5 -160.5t103 -263.5h-309q-41 108 -102.5 156.5t-173.5 48.5q-120 0 -201 -68
t-115 -194h268v-181h-292v-22q0 -51 2 -76h290v-180h-249q40 -101 115.5 -155t181.5 -54q114 0 176 49t102 158z" />
    <glyph glyph-name="trademark" unicode="&#x2122;" horiz-adv-x="1062" 
d="M444 1337h-122v-272h-117v272h-123v97h362v-97zM981 1434v-369h-117v184l-67 -184h-103l-67 184v-184h-117v369h117l118 -277l119 277h117z" />
    <glyph glyph-name="partialdiff" unicode="&#x2202;" horiz-adv-x="1230" 
d="M549 936q136 0 222.5 -48t100.5 -87q0 30 -1.5 57.5t-7.5 73t-16 82.5t-30.5 78t-48.5 69.5t-71.5 47t-96.5 18.5q-71 0 -136.5 -43t-82.5 -131h-264q4 55 21.5 108.5t55.5 107t92 93.5t136 65t182 25q115 0 207 -36t156 -101t106.5 -158.5t62 -205t19.5 -244.5
q0 -156 -29 -280.5t-79 -206.5t-120.5 -136.5t-148.5 -78t-168 -23.5q-70 0 -139 14t-140 50t-124 90t-87 142t-34 199q0 103 33 186t83 132.5t114.5 82.5t122 45.5t110.5 12.5zM604 223q34 0 70 11.5t75 38.5t64 83t25 133q0 65 -22.5 114.5t-58.5 75.5t-73 38t-74 12
q-28 0 -57.5 -7t-61.5 -25t-57 -45t-41 -71.5t-16 -99.5q0 -72 21.5 -124.5t56.5 -80.5t72.5 -40.5t76.5 -12.5z" />
    <glyph glyph-name="product" unicode="&#x220f;" horiz-adv-x="1523" 
d="M92 1638h1340v-2027h-287v1755h-766v-1755h-287v2027z" />
    <glyph glyph-name="summation" unicode="&#x2211;" horiz-adv-x="1425" 
d="M1333 1368h-764l410 -743l-410 -744h764v-270h-1241l563 1014l-563 1013h1241v-270z" />
    <glyph glyph-name="minus" unicode="&#x2212;" horiz-adv-x="870" 
d="M80 629h684v-226h-684v226z" />
    <glyph glyph-name="radical" unicode="&#x221a;" horiz-adv-x="1677" 
d="M1585 1638l-530 -2027h-348l-361 878h-254v320h453l319 -813l426 1642h295z" />
    <glyph glyph-name="infinity" unicode="&#x221e;" horiz-adv-x="1701" 
d="M1241 891q165 0 275 -97.5t110 -256.5q0 -164 -110 -262.5t-275 -98.5q-186 0 -389 197q-206 -197 -387 -197q-168 0 -278.5 98.5t-110.5 262.5q0 160 110.5 257t278.5 97q179 0 387 -195q204 195 389 195zM479 399q116 0 223 138q-108 137 -223 137q-68 0 -105.5 -41.5
t-37.5 -95.5q0 -56 37.5 -97t105.5 -41zM1223 399q68 0 105.5 41t37.5 97q0 54 -37.5 95.5t-105.5 41.5q-116 0 -224 -137q107 -138 224 -138z" />
    <glyph glyph-name="integral" unicode="&#x222b;" horiz-adv-x="638" 
d="M170 1047q0 90 19.5 155.5t66.5 117.5t132.5 78.5t209.5 26.5v-256q-72 0 -100.5 -49t-28.5 -143v-989q0 -199 -96.5 -288t-331.5 -89v256q34 0 58 10.5t38 26t21.5 42.5t9.5 52t2 61v988z" />
    <glyph glyph-name="approxequal" unicode="&#x2248;" horiz-adv-x="1071" 
d="M856 809h123q0 -122 -68.5 -201.5t-193.5 -79.5q-47 0 -92.5 17.5t-83 42t-74 49t-80 42t-86.5 17.5q-35 0 -61 -18t-25 -47h-123q0 123 68 201.5t194 78.5q57 0 114.5 -26.5t98 -57.5t95.5 -57.5t108 -26.5q34 0 60.5 19t25.5 47zM856 481h123q0 -121 -68.5 -200.5
t-193.5 -79.5q-57 0 -114.5 26.5t-98 57.5t-95.5 57.5t-108 26.5q-35 0 -61 -18.5t-25 -47.5h-123q0 123 68 202t194 79q47 0 92.5 -17.5t83 -42t74 -49t80 -42t86.5 -17.5q34 0 60.5 18.5t25.5 46.5z" />
    <glyph glyph-name="notequal" unicode="&#x2260;" horiz-adv-x="870" 
d="M760 616h-211l-39 -102h250v-225h-338l-113 -289h-194l112 289h-151v225h239l39 102h-278v226h366l119 307h195l-119 -307h123v-226z" />
    <glyph glyph-name="lessequal" unicode="&#x2264;" horiz-adv-x="905" 
d="M805 571l-479 199l479 197v252l-703 -332v-234l703 -331v249zM102 225h701v-225h-701v225z" />
    <glyph glyph-name="greaterequal" unicode="&#x2265;" horiz-adv-x="909" 
d="M104 571v-249l703 331v234l-703 332v-252l480 -197zM807 225v-225h-701v225h701z" />
    <glyph glyph-name="lozenge" unicode="&#x25ca;" horiz-adv-x="1241" 
d="M831 1434l318 -717l-318 -717h-421l-318 717l318 717h421zM621 209l225 508l-225 508l-226 -508z" />
    <glyph glyph-name="G.ss01" horiz-adv-x="1439" 
d="M817 760h547v-760h-289v154q-66 -92 -148 -132t-204 -40q-142 0 -261 49t-204.5 141t-133.5 232t-48 313q0 175 48.5 314.5t136 231.5t209 140.5t267.5 48.5t268 -48.5t209 -150.5t111 -245h-309q-43 89 -106.5 131.5t-166.5 42.5q-161 0 -250.5 -124t-89.5 -341
q0 -212 91 -338t262 -127q144 -3 226.5 64.5t90.5 193.5h-256v250z" />
    <glyph glyph-name="R.ss01" horiz-adv-x="1302" 
d="M1247 0h-319l-244 438h-2h-262v-438h-314v1434h576q276 0 413.5 -133.5t137.5 -364.5q0 -158 -66.5 -274t-199.5 -173zM420 1163v-454h258q108 0 165.5 60.5t57.5 166.5q0 107 -57 167t-166 60h-258z" />
    <glyph glyph-name="G.ss05" horiz-adv-x="1439" 
d="M817 760h547v-760h-289v154q-66 -92 -148 -132t-204 -40q-142 0 -261 49t-204.5 141t-133.5 232t-48 313q0 175 48.5 314.5t136 231.5t209 140.5t267.5 48.5t268 -48.5t209 -150.5t111 -245h-309q-43 89 -106.5 131.5t-166.5 42.5q-161 0 -250.5 -124t-89.5 -341
q0 -212 91 -338t262 -127q144 -3 226.5 64.5t90.5 193.5h-256v250z" />
    <glyph glyph-name="i.loclTRK" horiz-adv-x="512" 
d="M106 1452h304v-225h-304v225zM106 1065h300v-1065h-300v1065z" />
    <glyph glyph-name="a.ss01" 
d="M793 1065h299v-1065h-299v129q-1 -16 -16.5 -38.5t-46 -46.5t-86.5 -41t-126 -17q-59 0 -120 17.5t-123.5 59t-110.5 102.5t-78.5 156t-30.5 211q0 114 30.5 208t79 154.5t110.5 102.5t123 60t120 18q199 0 275 -141v131zM580 227q103 0 164 75.5t61 229.5
q0 151 -61 226.5t-164 75.5t-164.5 -73.5t-61.5 -228.5q0 -156 61.5 -230.5t164.5 -74.5z" />
    <glyph glyph-name="aacute.ss01" 
d="M952 1452l-239 -262h-252l164 262h327zM793 1065h299v-1065h-299v129q-1 -16 -16.5 -38.5t-46 -46.5t-86.5 -41t-126 -17q-59 0 -120 17.5t-123.5 59t-110.5 102.5t-78.5 156t-30.5 211q0 114 30.5 208t79 154.5t110.5 102.5t123 60t120 18q199 0 275 -141v131zM580 227
q103 0 164 75.5t61 229.5q0 151 -61 226.5t-164 75.5t-164.5 -73.5t-61.5 -228.5q0 -156 61.5 -230.5t164.5 -74.5z" />
    <glyph glyph-name="abreve.ss01" 
d="M608 1137q-172 0 -261 83t-89 232h195q9 -64 46 -91.5t109 -27.5q73 0 111 27.5t47 91.5h195q0 -149 -90.5 -232t-262.5 -83zM793 1065h299v-1065h-299v129q-1 -16 -16.5 -38.5t-46 -46.5t-86.5 -41t-126 -17q-59 0 -120 17.5t-123.5 59t-110.5 102.5t-78.5 156
t-30.5 211q0 114 30.5 208t79 154.5t110.5 102.5t123 60t120 18q199 0 275 -141v131zM580 227q103 0 164 75.5t61 229.5q0 151 -61 226.5t-164 75.5t-164.5 -73.5t-61.5 -228.5q0 -156 61.5 -230.5t164.5 -74.5z" />
    <glyph glyph-name="uni01CE.ss01" 
d="M881 1145h-551l-142 289h234l184 -160l182 160h234zM793 1065h299v-1065h-299v129q-1 -16 -16.5 -38.5t-46 -46.5t-86.5 -41t-126 -17q-59 0 -120 17.5t-123.5 59t-110.5 102.5t-78.5 156t-30.5 211q0 114 30.5 208t79 154.5t110.5 102.5t123 60t120 18q199 0 275 -141
v131zM580 227q103 0 164 75.5t61 229.5q0 151 -61 226.5t-164 75.5t-164.5 -73.5t-61.5 -228.5q0 -156 61.5 -230.5t164.5 -74.5z" />
    <glyph glyph-name="acircumflex.ss01" 
d="M608 1323l-184 -160h-234l142 289h551l141 -289h-233zM793 1065h299v-1065h-299v129q-1 -16 -16.5 -38.5t-46 -46.5t-86.5 -41t-126 -17q-59 0 -120 17.5t-123.5 59t-110.5 102.5t-78.5 156t-30.5 211q0 114 30.5 208t79 154.5t110.5 102.5t123 60t120 18q199 0 275 -141
v131zM580 227q103 0 164 75.5t61 229.5q0 151 -61 226.5t-164 75.5t-164.5 -73.5t-61.5 -228.5q0 -156 61.5 -230.5t164.5 -74.5z" />
    <glyph glyph-name="adieresis.ss01" 
d="M520 1452v-225h-303v225h303zM1001 1452v-225h-305v225h305zM793 1065h299v-1065h-299v129q-1 -16 -16.5 -38.5t-46 -46.5t-86.5 -41t-126 -17q-59 0 -120 17.5t-123.5 59t-110.5 102.5t-78.5 156t-30.5 211q0 114 30.5 208t79 154.5t110.5 102.5t123 60t120 18
q199 0 275 -141v131zM580 227q103 0 164 75.5t61 229.5q0 151 -61 226.5t-164 75.5t-164.5 -73.5t-61.5 -228.5q0 -156 61.5 -230.5t164.5 -74.5z" />
    <glyph glyph-name="agrave.ss01" 
d="M750 1190h-252l-240 262h328zM793 1065h299v-1065h-299v129q-1 -16 -16.5 -38.5t-46 -46.5t-86.5 -41t-126 -17q-59 0 -120 17.5t-123.5 59t-110.5 102.5t-78.5 156t-30.5 211q0 114 30.5 208t79 154.5t110.5 102.5t123 60t120 18q199 0 275 -141v131zM580 227
q103 0 164 75.5t61 229.5q0 151 -61 226.5t-164 75.5t-164.5 -73.5t-61.5 -228.5q0 -156 61.5 -230.5t164.5 -74.5z" />
    <glyph glyph-name="amacron.ss01" 
d="M979 1452v-174h-741v174h741zM793 1065h299v-1065h-299v129q-1 -16 -16.5 -38.5t-46 -46.5t-86.5 -41t-126 -17q-59 0 -120 17.5t-123.5 59t-110.5 102.5t-78.5 156t-30.5 211q0 114 30.5 208t79 154.5t110.5 102.5t123 60t120 18q199 0 275 -141v131zM580 227
q103 0 164 75.5t61 229.5q0 151 -61 226.5t-164 75.5t-164.5 -73.5t-61.5 -228.5q0 -156 61.5 -230.5t164.5 -74.5z" />
    <glyph glyph-name="aogonek.ss01" 
d="M793 1065h299v-1065h-82q-84 -22 -142.5 -51.5t-86 -60.5t-38 -56.5t-10.5 -52.5q0 -60 48.5 -74t125.5 16v-124q-43 -23 -101 -37.5t-119.5 -14.5t-114 16t-86 58.5t-33.5 106.5q0 46 21.5 88.5t57 73.5t80 55.5t91 38.5t90.5 18v129q-1 -16 -16.5 -38.5t-46 -46.5
t-86.5 -41t-126 -17q-59 0 -120 17.5t-123.5 59t-110.5 102.5t-78.5 156t-30.5 211q0 114 30.5 208t79 154.5t110.5 102.5t123 60t120 18q199 0 275 -141v131zM580 227q103 0 164 75.5t61 229.5q0 151 -61 226.5t-164 75.5t-164.5 -73.5t-61.5 -228.5q0 -156 61.5 -230.5
t164.5 -74.5z" />
    <glyph glyph-name="aring.ss01" 
d="M606 1186q-84 0 -144.5 59.5t-60.5 145.5q0 85 60.5 144.5t144.5 59.5t144.5 -59.5t60.5 -144.5q0 -86 -60.5 -145.5t-144.5 -59.5zM606 1466q-31 0 -52.5 -20.5t-21.5 -54.5t22 -55t52 -21q32 0 54 21t22 55t-22 54.5t-54 20.5zM793 1065h299v-1065h-299v129
q-1 -16 -16.5 -38.5t-46 -46.5t-86.5 -41t-126 -17q-59 0 -120 17.5t-123.5 59t-110.5 102.5t-78.5 156t-30.5 211q0 114 30.5 208t79 154.5t110.5 102.5t123 60t120 18q199 0 275 -141v131zM580 227q103 0 164 75.5t61 229.5q0 151 -61 226.5t-164 75.5t-164.5 -73.5
t-61.5 -228.5q0 -156 61.5 -230.5t164.5 -74.5z" />
    <glyph glyph-name="atilde.ss01" 
d="M395 1327q-33 0 -59 -17.5t-25 -45.5h-116q0 118 64.5 193t184.5 75q45 0 88.5 -16.5t79.5 -40t71 -47t76 -40t81 -16.5q34 0 59.5 17.5t24.5 44.5h118q0 -116 -64.5 -191.5t-184.5 -75.5q-45 0 -89.5 16.5t-80.5 40t-71 47t-76 40t-81 16.5zM793 1065h299v-1065h-299
v129q-1 -16 -16.5 -38.5t-46 -46.5t-86.5 -41t-126 -17q-59 0 -120 17.5t-123.5 59t-110.5 102.5t-78.5 156t-30.5 211q0 114 30.5 208t79 154.5t110.5 102.5t123 60t120 18q199 0 275 -141v131zM580 227q103 0 164 75.5t61 229.5q0 151 -61 226.5t-164 75.5t-164.5 -73.5
t-61.5 -228.5q0 -156 61.5 -230.5t164.5 -74.5z" />
    <glyph glyph-name="g.ss01" horiz-adv-x="1159" 
d="M561 283q98 0 184 -18t163.5 -58t123 -114.5t45.5 -176.5q0 -99 -45.5 -173t-122 -114.5t-164 -60t-184.5 -19.5q-73 0 -141.5 11.5t-136 38.5t-117.5 68t-80.5 105t-30.5 144q0 185 211 268q-79 12 -139.5 56t-60.5 112q0 56 37.5 96t97.5 56q-68 87 -68 213
q0 165 114.5 262.5t301.5 97.5q176 0 291 -92q70 82 198 80v-217q-48 0 -92 -21q17 -60 17 -110q0 -165 -114.5 -262t-299.5 -97q-127 0 -217 43q-33 -9 -33 -47q0 -19 9.5 -32.5t24 -21t41 -11.5t50.5 -5t63 -1h74zM549 868q-47 0 -81 -14t-50.5 -37.5t-23.5 -47.5t-7 -52
t7 -52t23.5 -47.5t50.5 -37t81 -13.5t80.5 13.5t50 37t23 47.5t6.5 52t-6.5 52t-23 47.5t-50 37.5t-80.5 14zM567 -238q221 0 221 154t-221 154q-124 0 -172.5 -41.5t-48.5 -112.5q0 -154 221 -154z" />
    <glyph glyph-name="l.ss01" horiz-adv-x="569" 
d="M512 0q-105 -12 -181.5 -6t-126.5 37.5t-74 98.5t-24 177v1141h300v-1157q0 -77 106 -74v-217z" />
    <glyph glyph-name="a.ss02" 
d="M793 1065h299v-1065h-299v129q-1 -16 -16.5 -38.5t-46 -46.5t-86.5 -41t-126 -17q-59 0 -120 17.5t-123.5 59t-110.5 102.5t-78.5 156t-30.5 211q0 114 30.5 208t79 154.5t110.5 102.5t123 60t120 18q199 0 275 -141v131zM580 227q103 0 164 75.5t61 229.5
q0 151 -61 226.5t-164 75.5t-164.5 -73.5t-61.5 -228.5q0 -156 61.5 -230.5t164.5 -74.5z" />
    <glyph glyph-name="aacute.ss02" 
d="M952 1452l-239 -262h-252l164 262h327zM793 1065h299v-1065h-299v129q-1 -16 -16.5 -38.5t-46 -46.5t-86.5 -41t-126 -17q-59 0 -120 17.5t-123.5 59t-110.5 102.5t-78.5 156t-30.5 211q0 114 30.5 208t79 154.5t110.5 102.5t123 60t120 18q199 0 275 -141v131zM580 227
q103 0 164 75.5t61 229.5q0 151 -61 226.5t-164 75.5t-164.5 -73.5t-61.5 -228.5q0 -156 61.5 -230.5t164.5 -74.5z" />
    <glyph glyph-name="abreve.ss02" 
d="M608 1137q-172 0 -261 83t-89 232h195q9 -64 46 -91.5t109 -27.5q73 0 111 27.5t47 91.5h195q0 -149 -90.5 -232t-262.5 -83zM793 1065h299v-1065h-299v129q-1 -16 -16.5 -38.5t-46 -46.5t-86.5 -41t-126 -17q-59 0 -120 17.5t-123.5 59t-110.5 102.5t-78.5 156
t-30.5 211q0 114 30.5 208t79 154.5t110.5 102.5t123 60t120 18q199 0 275 -141v131zM580 227q103 0 164 75.5t61 229.5q0 151 -61 226.5t-164 75.5t-164.5 -73.5t-61.5 -228.5q0 -156 61.5 -230.5t164.5 -74.5z" />
    <glyph glyph-name="uni01CE.ss02" 
d="M881 1145h-551l-142 289h234l184 -160l182 160h234zM793 1065h299v-1065h-299v129q-1 -16 -16.5 -38.5t-46 -46.5t-86.5 -41t-126 -17q-59 0 -120 17.5t-123.5 59t-110.5 102.5t-78.5 156t-30.5 211q0 114 30.5 208t79 154.5t110.5 102.5t123 60t120 18q199 0 275 -141
v131zM580 227q103 0 164 75.5t61 229.5q0 151 -61 226.5t-164 75.5t-164.5 -73.5t-61.5 -228.5q0 -156 61.5 -230.5t164.5 -74.5z" />
    <glyph glyph-name="acircumflex.ss02" 
d="M608 1323l-184 -160h-234l142 289h551l141 -289h-233zM793 1065h299v-1065h-299v129q-1 -16 -16.5 -38.5t-46 -46.5t-86.5 -41t-126 -17q-59 0 -120 17.5t-123.5 59t-110.5 102.5t-78.5 156t-30.5 211q0 114 30.5 208t79 154.5t110.5 102.5t123 60t120 18q199 0 275 -141
v131zM580 227q103 0 164 75.5t61 229.5q0 151 -61 226.5t-164 75.5t-164.5 -73.5t-61.5 -228.5q0 -156 61.5 -230.5t164.5 -74.5z" />
    <glyph glyph-name="adieresis.ss02" 
d="M520 1452v-225h-303v225h303zM1001 1452v-225h-305v225h305zM793 1065h299v-1065h-299v129q-1 -16 -16.5 -38.5t-46 -46.5t-86.5 -41t-126 -17q-59 0 -120 17.5t-123.5 59t-110.5 102.5t-78.5 156t-30.5 211q0 114 30.5 208t79 154.5t110.5 102.5t123 60t120 18
q199 0 275 -141v131zM580 227q103 0 164 75.5t61 229.5q0 151 -61 226.5t-164 75.5t-164.5 -73.5t-61.5 -228.5q0 -156 61.5 -230.5t164.5 -74.5z" />
    <glyph glyph-name="agrave.ss02" 
d="M750 1190h-252l-240 262h328zM793 1065h299v-1065h-299v129q-1 -16 -16.5 -38.5t-46 -46.5t-86.5 -41t-126 -17q-59 0 -120 17.5t-123.5 59t-110.5 102.5t-78.5 156t-30.5 211q0 114 30.5 208t79 154.5t110.5 102.5t123 60t120 18q199 0 275 -141v131zM580 227
q103 0 164 75.5t61 229.5q0 151 -61 226.5t-164 75.5t-164.5 -73.5t-61.5 -228.5q0 -156 61.5 -230.5t164.5 -74.5z" />
    <glyph glyph-name="amacron.ss02" 
d="M979 1452v-174h-741v174h741zM793 1065h299v-1065h-299v129q-1 -16 -16.5 -38.5t-46 -46.5t-86.5 -41t-126 -17q-59 0 -120 17.5t-123.5 59t-110.5 102.5t-78.5 156t-30.5 211q0 114 30.5 208t79 154.5t110.5 102.5t123 60t120 18q199 0 275 -141v131zM580 227
q103 0 164 75.5t61 229.5q0 151 -61 226.5t-164 75.5t-164.5 -73.5t-61.5 -228.5q0 -156 61.5 -230.5t164.5 -74.5z" />
    <glyph glyph-name="aogonek.ss02" 
d="M793 1065h299v-1065h-82q-84 -22 -142.5 -51.5t-86 -60.5t-38 -56.5t-10.5 -52.5q0 -60 48.5 -74t125.5 16v-124q-43 -23 -101 -37.5t-119.5 -14.5t-114 16t-86 58.5t-33.5 106.5q0 46 21.5 88.5t57 73.5t80 55.5t91 38.5t90.5 18v129q-1 -16 -16.5 -38.5t-46 -46.5
t-86.5 -41t-126 -17q-59 0 -120 17.5t-123.5 59t-110.5 102.5t-78.5 156t-30.5 211q0 114 30.5 208t79 154.5t110.5 102.5t123 60t120 18q199 0 275 -141v131zM580 227q103 0 164 75.5t61 229.5q0 151 -61 226.5t-164 75.5t-164.5 -73.5t-61.5 -228.5q0 -156 61.5 -230.5
t164.5 -74.5z" />
    <glyph glyph-name="aring.ss02" 
d="M606 1186q-84 0 -144.5 59.5t-60.5 145.5q0 85 60.5 144.5t144.5 59.5t144.5 -59.5t60.5 -144.5q0 -86 -60.5 -145.5t-144.5 -59.5zM606 1466q-31 0 -52.5 -20.5t-21.5 -54.5t22 -55t52 -21q32 0 54 21t22 55t-22 54.5t-54 20.5zM793 1065h299v-1065h-299v129
q-1 -16 -16.5 -38.5t-46 -46.5t-86.5 -41t-126 -17q-59 0 -120 17.5t-123.5 59t-110.5 102.5t-78.5 156t-30.5 211q0 114 30.5 208t79 154.5t110.5 102.5t123 60t120 18q199 0 275 -141v131zM580 227q103 0 164 75.5t61 229.5q0 151 -61 226.5t-164 75.5t-164.5 -73.5
t-61.5 -228.5q0 -156 61.5 -230.5t164.5 -74.5z" />
    <glyph glyph-name="atilde.ss02" 
d="M395 1327q-33 0 -59 -17.5t-25 -45.5h-116q0 118 64.5 193t184.5 75q45 0 88.5 -16.5t79.5 -40t71 -47t76 -40t81 -16.5q34 0 59.5 17.5t24.5 44.5h118q0 -116 -64.5 -191.5t-184.5 -75.5q-45 0 -89.5 16.5t-80.5 40t-71 47t-76 40t-81 16.5zM793 1065h299v-1065h-299
v129q-1 -16 -16.5 -38.5t-46 -46.5t-86.5 -41t-126 -17q-59 0 -120 17.5t-123.5 59t-110.5 102.5t-78.5 156t-30.5 211q0 114 30.5 208t79 154.5t110.5 102.5t123 60t120 18q199 0 275 -141v131zM580 227q103 0 164 75.5t61 229.5q0 151 -61 226.5t-164 75.5t-164.5 -73.5
t-61.5 -228.5q0 -156 61.5 -230.5t164.5 -74.5z" />
    <glyph glyph-name="g.ss03" horiz-adv-x="1159" 
d="M561 283q98 0 184 -18t163.5 -58t123 -114.5t45.5 -176.5q0 -99 -45.5 -173t-122 -114.5t-164 -60t-184.5 -19.5q-73 0 -141.5 11.5t-136 38.5t-117.5 68t-80.5 105t-30.5 144q0 185 211 268q-79 12 -139.5 56t-60.5 112q0 56 37.5 96t97.5 56q-68 87 -68 213
q0 165 114.5 262.5t301.5 97.5q176 0 291 -92q70 82 198 80v-217q-48 0 -92 -21q17 -60 17 -110q0 -165 -114.5 -262t-299.5 -97q-127 0 -217 43q-33 -9 -33 -47q0 -19 9.5 -32.5t24 -21t41 -11.5t50.5 -5t63 -1h74zM549 868q-47 0 -81 -14t-50.5 -37.5t-23.5 -47.5t-7 -52
t7 -52t23.5 -47.5t50.5 -37t81 -13.5t80.5 13.5t50 37t23 47.5t6.5 52t-6.5 52t-23 47.5t-50 37.5t-80.5 14zM567 -238q221 0 221 154t-221 154q-124 0 -172.5 -41.5t-48.5 -112.5q0 -154 221 -154z" />
    <glyph glyph-name="l.ss04" horiz-adv-x="569" 
d="M512 0q-105 -12 -181.5 -6t-126.5 37.5t-74 98.5t-24 177v1141h300v-1157q0 -77 106 -74v-217z" />
    <glyph glyph-name="f_t" horiz-adv-x="1497" 
d="M1331 219q48 0 111 14v-215q-75 -30 -195 -30q-75 0 -130 12.5t-102.5 44.5t-72 94.5t-24.5 155.5v536h-426v-831h-299v831h-152v234h152v43q0 70 12.5 126t31.5 93t49 63.5t58 41t66.5 22.5t67 10t65.5 2q93 0 157 -22v-217q-50 10 -84 10q-71 0 -97.5 -31t-26.5 -104
v-37h426v266h299v-266h215v-234h-215v-503q0 -53 26.5 -81t87.5 -28z" />
    <glyph glyph-name="r_t" horiz-adv-x="1517" 
d="M1354 219q47 0 110 14v-215q-75 -30 -194 -30q-59 0 -105 7t-90 27.5t-72.5 54t-45.5 88.5t-17 130v536h-133q-100 0 -173.5 -20.5t-119 -59t-71 -85.5t-37.5 -109v-557h-300v1065h300v-246q30 105 133.5 174t224.5 72h176v266h299v-266h215v-234h-215v-503
q0 -109 115 -109z" />
    <glyph glyph-name="zero.dnom" horiz-adv-x="585" 
d="M293 -4q100 0 160.5 70.5t60.5 187.5v27q0 117 -60.5 187.5t-160.5 70.5q-99 0 -160 -71t-61 -187v-27q0 -116 61 -187t160 -71zM293 430q48 0 76 -41.5t28 -107.5v-27q0 -66 -28 -108t-76 -42t-76.5 42t-28.5 108v27q0 66 28 107.5t77 41.5z" />
    <glyph glyph-name="one.dnom" horiz-adv-x="401" 
d="M309 535v-535h-110v389q-14 -25 -47 -35.5t-70 -1.5v109q37 -4 71 20t46 54h110z" />
    <glyph glyph-name="two.dnom" horiz-adv-x="544" 
d="M82 0v14q0 89 28.5 146t118.5 110q8 5 26.5 15t26 14.5t20 13.5t17 17t9 19.5t4.5 25.5q0 30 -20.5 46.5t-45.5 16.5q-27 0 -48 -18.5t-21 -54.5v-17h-115v17q0 80 46.5 129t137.5 49q90 0 138.5 -47.5t48.5 -120.5q0 -18 -4.5 -35t-9 -29.5t-18 -27.5t-19.5 -22t-27 -22
t-27.5 -19t-33 -20.5t-31.5 -19.5q-70 -38 -70 -71v-7h240v-102h-371z" />
    <glyph glyph-name="three.dnom" horiz-adv-x="565" 
d="M369 285q41 -2 77.5 -35t36.5 -98q0 -73 -52.5 -116.5t-151.5 -43.5q-91 0 -144 48.5t-53 125.5h113q3 -74 90 -74q37 0 61.5 18.5t24.5 55.5q0 72 -103 72h-22v84h22q76 0 76 67q0 24 -17 38.5t-48 14.5t-50.5 -16.5t-19.5 -50.5h-109q0 79 48 123.5t128 44.5
q84 0 133.5 -41.5t49.5 -104.5q0 -46 -26.5 -74.5t-63.5 -37.5z" />
    <glyph glyph-name="four.dnom" horiz-adv-x="575" 
d="M494 135h-62v-135h-110v135h-240v88l240 312h110v-312h62v-88zM322 223v185l-144 -185h144z" />
    <glyph glyph-name="five.dnom" horiz-adv-x="528" 
d="M285 369q78 0 130 -51t52 -134q0 -93 -56.5 -143.5t-152.5 -50.5q-93 0 -145 48.5t-52 125.5h113q1 -35 26 -51.5t58 -16.5q34 0 60 20t26 68q0 52 -25 75.5t-59 23.5q-50 0 -78 -35h-106l41 287h295v-103h-213l-15 -94q37 31 101 31z" />
    <glyph glyph-name="six.dnom" horiz-adv-x="585" 
d="M324 356q86 0 133 -43t47 -131q0 -95 -61.5 -143.5t-145.5 -48.5q-95 0 -155 71t-60 203q0 123 55.5 200t163.5 77q85 0 133.5 -45.5t48.5 -102.5h-102q-5 21 -25.5 35t-54.5 14q-42 0 -68 -25.5t-33.5 -57t-6.5 -66.5q11 24 49.5 43.5t81.5 19.5zM297 96q38 0 62 24
t24 66q0 41 -26 64.5t-64 23.5q-34 0 -62 -23.5t-28 -66.5q0 -46 28.5 -67t65.5 -21z" />
    <glyph glyph-name="seven.dnom" horiz-adv-x="473" 
d="M412 535v-103l-203 -432h-107l203 432h-264v103h371z" />
    <glyph glyph-name="eight.dnom" horiz-adv-x="489" 
d="M352 295q40 -22 63 -57.5t23 -75.5q0 -76 -54.5 -121t-139.5 -45q-82 0 -137.5 45t-55.5 121q0 40 23.5 76.5t62.5 56.5q-55 32 -55 104q0 58 44.5 99t117.5 41q75 0 119.5 -41t44.5 -99q0 -71 -56 -104zM180 395q0 -26 18 -42.5t46 -16.5q29 0 45 16t16 43q0 58 -61 58
q-29 0 -46.5 -16t-17.5 -42zM244 82q40 0 63 21.5t23 56.5q0 37 -23.5 60.5t-62.5 23.5q-38 0 -62 -23.5t-24 -60.5q0 -33 23.5 -55.5t62.5 -22.5z" />
    <glyph glyph-name="nine.dnom" horiz-adv-x="585" 
d="M262 174q-86 0 -133 43t-47 131q0 96 61.5 144.5t145.5 48.5q95 0 155 -71.5t60 -203.5q0 -123 -55.5 -199.5t-163.5 -76.5q-85 0 -134 45.5t-49 101.5h103q5 -21 25.5 -35t54.5 -14q42 0 68 26t33.5 57.5t6.5 66.5q-11 -24 -49.5 -44t-81.5 -20zM289 434q-38 0 -62 -24
t-24 -66q0 -41 26 -64.5t64 -23.5q34 0 62 23.5t28 66.5q0 46 -28.5 67t-65.5 21z" />
    <glyph glyph-name="zero.numr" horiz-adv-x="585" 
d="M293 897q100 0 160.5 70.5t60.5 187.5v27q0 117 -60.5 187.5t-160.5 70.5q-99 0 -160 -71t-61 -187v-27q0 -116 61 -187t160 -71zM293 1331q48 0 76 -41.5t28 -107.5v-27q0 -66 -28 -107.5t-76 -41.5q-49 0 -77 41.5t-28 107.5v27q0 66 28 107.5t77 41.5z" />
    <glyph glyph-name="one.numr" horiz-adv-x="411" 
d="M309 1436v-535h-110v389q-14 -25 -47 -35.5t-70 -1.5v109q37 -4 71 20t46 54h110z" />
    <glyph glyph-name="two.numr" horiz-adv-x="544" 
d="M82 901v14q0 89 28.5 146t118.5 110q8 5 26.5 15t26 14.5t20 13.5t17 17t9 19.5t4.5 25.5q0 30 -20.5 46.5t-45.5 16.5q-27 0 -48 -18.5t-21 -54.5v-17h-115v17q0 80 46.5 129t137.5 49q90 0 138.5 -47.5t48.5 -120.5q0 -18 -4.5 -35t-9 -29.5t-18 -27.5t-19.5 -22
t-27 -22t-27.5 -19t-33 -20.5t-31.5 -19.5q-70 -38 -70 -71v-6h240v-103h-371z" />
    <glyph glyph-name="three.numr" horiz-adv-x="538" 
d="M346 1186q41 -2 78 -35t37 -98q0 -73 -53 -116.5t-152 -43.5q-91 0 -144 48.5t-53 125.5h113q3 -74 90 -74q37 0 61.5 18.5t24.5 55.5q0 72 -102 72h-23v84h23q76 0 76 67q0 24 -17.5 38.5t-48.5 14.5t-50.5 -16.5t-19.5 -50.5h-108q0 79 48 123.5t128 44.5
q84 0 133 -41.5t49 -104.5q0 -46 -26.5 -74.5t-63.5 -37.5z" />
    <glyph glyph-name="four.numr" horiz-adv-x="575" 
d="M494 1036h-62v-135h-110v135h-240v88l240 312h110v-312h62v-88zM322 1124v185l-144 -185h144z" />
    <glyph glyph-name="five.numr" horiz-adv-x="528" 
d="M285 1270q78 0 130 -51t52 -134q0 -93 -56.5 -143.5t-152.5 -50.5q-93 0 -145 48.5t-52 125.5h113q1 -35 26 -51.5t58 -16.5q34 0 60 20t26 68q0 52 -25 75.5t-59 23.5q-50 0 -78 -35h-106l41 287h295v-103h-213l-15 -94q37 31 101 31z" />
    <glyph glyph-name="six.numr" horiz-adv-x="585" 
d="M324 1255q86 0 133 -43t47 -131q0 -95 -61.5 -143.5t-145.5 -48.5q-95 0 -155 71t-60 203q0 123 55.5 200t163.5 77q85 0 133.5 -45.5t48.5 -102.5h-102q-5 21 -25.5 35t-54.5 14q-42 0 -68 -25.5t-33.5 -57t-6.5 -66.5q11 24 49.5 43.5t81.5 19.5zM297 995q38 0 62 24
t24 66q0 41 -26 65t-64 24q-34 0 -62 -24t-28 -67q0 -46 28.5 -67t65.5 -21z" />
    <glyph glyph-name="seven.numr" horiz-adv-x="473" 
d="M412 1436v-103l-203 -432h-107l203 432h-264v103h371z" />
    <glyph glyph-name="eight.numr" horiz-adv-x="489" 
d="M352 1196q40 -22 63 -57.5t23 -75.5q0 -76 -54.5 -121t-139.5 -45q-82 0 -137.5 45t-55.5 121q0 40 23.5 76.5t62.5 56.5q-55 32 -55 104q0 58 44.5 99t117.5 41q75 0 119.5 -41t44.5 -99q0 -71 -56 -104zM180 1296q0 -26 18 -42.5t46 -16.5q29 0 45 16t16 43
q0 58 -61 58q-29 0 -46.5 -16t-17.5 -42zM244 983q40 0 63 21.5t23 56.5q0 37 -23.5 60.5t-62.5 23.5q-38 0 -62 -23.5t-24 -60.5q0 -33 23.5 -55.5t62.5 -22.5z" />
    <glyph glyph-name="nine.numr" horiz-adv-x="585" 
d="M262 1075q-86 0 -133 43t-47 131q0 96 61.5 144.5t145.5 48.5q95 0 155 -71.5t60 -203.5q0 -123 -55.5 -199.5t-163.5 -76.5q-85 0 -134 45.5t-49 101.5h103q5 -21 25.5 -35t54.5 -14q42 0 68 26t33.5 57.5t6.5 66.5q-11 -24 -49.5 -44t-81.5 -20zM289 1335
q-38 0 -62 -24t-24 -66q0 -41 26 -64.5t64 -23.5q34 0 62 23.5t28 66.5q0 46 -28.5 67t-65.5 21z" />
    <glyph glyph-name="ampersand.001" horiz-adv-x="1484" 
d="M1430 0h-328l-90 96q-163 -121 -387 -121q-109 0 -206.5 28t-174.5 81t-122.5 137.5t-45.5 188.5q0 62 20.5 116.5t48.5 90.5t74 70.5t79.5 53t82.5 41.5q-74 91 -112 169.5t-38 160.5q0 71 22.5 132t68.5 111t126 78.5t185 28.5q102 0 180 -28.5t123.5 -78.5t68.5 -111
t23 -132q0 -233 -278 -375l-2 -2l239 -258q63 123 66 277h270q-23 -291 -145 -482zM633 1243q-74 0 -113 -40.5t-39 -100.5q0 -46 24.5 -88t94.5 -119q105 57 142.5 106.5t37.5 98.5q0 61 -38 102t-109 41zM627 231q105 0 200 64l-299 321q-129 -80 -129 -200
q0 -78 63.5 -131.5t164.5 -53.5z" />
    <glyph glyph-name="Aacutecy" horiz-adv-x="1478" 
d="M1083 1821l-239 -262h-252l164 262h327zM1098 0l-92 268h-531l-92 -268h-338l555 1434h281l553 -1434h-336zM553 498h375l-189 549z" />
    <glyph glyph-name="Ieacutecy" horiz-adv-x="1193" 
d="M965 1821l-240 -262h-252l164 262h328zM420 270h713v-270h-1027v1434h1006v-271h-692v-311h590v-250h-590v-332z" />
    <glyph glyph-name="Iiacutecy" horiz-adv-x="1423" 
d="M565 1559h252l240 262h-328zM106 1434h314v-932h6l573 932h318v-1434h-313v913h-7l-561 -913h-330v1434z" />
    <glyph glyph-name="Oacutecy" horiz-adv-x="1513" 
d="M610 1559h252l240 262h-328zM758 1452q312 0 496 -195t184 -540q0 -343 -184 -539t-496 -196t-497 196t-185 539q0 345 184.5 540t497.5 195zM758 252q167 0 259.5 124t92.5 341q0 218 -92 341.5t-260 123.5q-169 0 -262 -123.5t-93 -341.5q0 -217 93 -341t262 -124z" />
    <glyph glyph-name="Uacutecy" horiz-adv-x="1243" 
d="M473 1559h252l240 262h-328zM852 1434h346l-457 -1061q-73 -169 -144.5 -259t-169.5 -126t-243 -21v277q69 -7 116.5 -1t75 26t39.5 36.5t25 44.5q30 79 -26 211l-369 873h346l227 -629z" />
    <glyph glyph-name="Yeruacutecy" horiz-adv-x="1800" 
d="M754 1559l164 262h327l-239 -262h-252zM682 954q277 0 414 -126t137 -351q0 -223 -137 -350t-414 -127h-576v1434h314v-480h262zM1382 1434h314v-1434h-314v1434zM678 266q109 0 166 55t57 156q0 102 -57 157.5t-166 55.5h-258v-424h258z" />
    <glyph glyph-name="Ereversedacutecy" horiz-adv-x="1409" 
d="M1051 1821l-240 -262h-252l164 262h328zM672 1452q301 0 481 -193t180 -542t-180 -542t-481 -193q-114 0 -214.5 30t-182 87.5t-134 150t-65.5 209.5h311q40 -109 102.5 -158t176.5 -49q139 0 224 92.5t107 257.5h-391v250h389q-25 157 -109.5 243.5t-219.5 86.5
q-112 0 -174 -48.5t-103 -156.5h-309q17 154 103 263.5t211.5 160.5t277.5 51z" />
    <glyph glyph-name="Iuacutecy" horiz-adv-x="2037" 
d="M1364 1821l-240 -262h-252l164 262h328zM1282 1452q312 0 496 -195t184 -540q0 -343 -184 -539t-496 -196q-281 0 -460.5 161t-213.5 447h-188v-590h-314v1434h314v-590h188q34 288 213 448t461 160zM1282 252q167 0 259.5 124t92.5 341q0 218 -92 341.5t-260 123.5
q-169 0 -261.5 -123.5t-92.5 -341.5q0 -217 92.5 -341t261.5 -124z" />
    <glyph glyph-name="Iaacutecy" horiz-adv-x="1370" 
d="M1028 1821l-240 -262h-251l163 262h328zM1264 1434v-1434h-314v520h-342q-92 0 -145 -49.5t-53 -134.5v-96q0 -92 -8.5 -143.5t-32.5 -96.5h-314q25 44 33 94.5t8 145.5v106q0 112 48.5 187t164.5 129q-198 122 -198 339q0 94 31.5 171t94.5 136.5t167 92.5t241 33h619z
M950 766v397h-299q-217 0 -217 -190q0 -106 51 -156.5t172 -50.5h293z" />
    <glyph glyph-name="aacutecy" horiz-adv-x="1146" 
d="M920 1452l-240 -262h-252l164 262h328zM1034 276q0 -90 78 -96v-170q-42 -18 -108 -18q-104 0 -170 43.5t-66 126.5v8q-109 -184 -350 -184q-73 0 -136 18.5t-115 56t-82 102.5t-30 150q0 40 7.5 74t19 60t32.5 48.5t40.5 38t50.5 30t55 23.5t61.5 18t62.5 14t65 12
q31 6 83.5 15t83 14.5t64.5 15.5t55 22v2q0 49 -15 82.5t-42 48t-52.5 20t-58.5 5.5q-152 0 -170 -119h-282q30 338 454 338q250 0 357.5 -104.5t107.5 -341.5v-353zM735 336v188q-22 -11 -43.5 -19.5t-48 -15.5t-43.5 -10.5t-53 -10.5t-53 -11q-75 -19 -107.5 -49.5
t-32.5 -81.5q0 -54 37 -90.5t109 -36.5q49 0 92.5 15.5t71.5 40t44.5 44t26.5 37.5z" />
    <glyph glyph-name="ieacutecy" horiz-adv-x="1144" 
d="M922 1452l-240 -262h-252l164 262h328zM1090 494q0 -29 -3 -56h-743q17 -121 79 -176t173 -55q155 0 205 98h260q-91 -319 -481 -319q-75 0 -147.5 18t-141.5 60t-121 102.5t-83.5 153.5t-31.5 206q0 115 31.5 209t83 156t121 104.5t142.5 61t149 18.5q82 0 154.5 -18.5
t138 -62.5t113 -109.5t75 -165.5t27.5 -225zM346 623h459q-3 106 -61 168.5t-162 62.5q-202 0 -236 -231z" />
    <glyph glyph-name="iiacutecy" horiz-adv-x="1253" 
d="M481 1190h252l240 262h-328zM106 1065h300v-645h8l430 645h303v-1065h-299v625h-6l-420 -625h-316v1065z" />
    <glyph glyph-name="oacutecy" horiz-adv-x="1167" 
d="M436 1190h252l240 262h-328zM584 1075q70 0 141.5 -18t141.5 -60.5t124 -104t87.5 -156t33.5 -208.5q0 -113 -33.5 -206.5t-87.5 -154.5t-124 -103t-141.5 -60t-141.5 -18t-141.5 18t-142 60t-124.5 103t-87.5 154.5t-33.5 206.5q0 114 33.5 208.5t87.5 156t124.5 104
t142 60.5t141.5 18zM825 528q0 154 -68.5 230t-172.5 76t-173 -76t-69 -230q0 -148 69.5 -224.5t172.5 -76.5t172 76.5t69 224.5z" />
    <glyph glyph-name="uacutecy" horiz-adv-x="1181" 
d="M442 1190h252l240 262h-328zM844 1065h303l-436 -1061q-100 -249 -221 -338t-336 -67v251q69 -7 119.5 2t81 33t46.5 46.5t31 56.5q12 34 9 58t-23 73l-383 946h309l244 -688z" />
    <glyph glyph-name="yeruacutecy" horiz-adv-x="1658" 
d="M682 1190l164 262h328l-240 -262h-252zM680 709q202 0 321 -96.5t119 -258.5q0 -165 -118.5 -259.5t-321.5 -94.5h-574v1065h300v-356h274zM1253 1065h299v-1065h-299v1065zM678 233q76 0 113.5 32t37.5 89q0 121 -151 121h-272v-242h272z" />
    <glyph glyph-name="ereversedacutecy" horiz-adv-x="1105" 
d="M897 1452l-240 -262h-251l163 262h328zM528 1075q76 0 148 -18t141 -59.5t120.5 -103t82.5 -155.5t31 -209q0 -116 -31.5 -210t-83 -155t-120.5 -102.5t-141.5 -59t-148.5 -17.5q-59 0 -115 10.5t-115.5 38t-106 70.5t-83 114t-51.5 162h269q21 -73 66.5 -113.5
t133.5 -40.5q95 0 155 55.5t77 161.5h-289v183h287q-19 100 -78 153.5t-150 53.5q-86 0 -128.5 -37t-59.5 -107h-275q16 90 51.5 159t80.5 111t103 68.5t113.5 36.5t116.5 10z" />
    <glyph glyph-name="iuacutecy" horiz-adv-x="1642" 
d="M1165 1452l-239 -262h-252l164 262h327zM1059 1075q70 0 141.5 -18t141.5 -60.5t124 -104t87.5 -156t33.5 -208.5q0 -113 -33.5 -206.5t-87.5 -154.5t-124 -103t-141.5 -60t-141.5 -18q-63 0 -127 14.5t-128.5 48t-117 82t-92.5 122.5t-55 163h-133v-418h-300v1065h300
v-414h135q16 89 56 162t92.5 121t116.5 81t127 47.5t126 14.5zM1059 227q103 0 172 76.5t69 224.5q0 154 -68.5 230t-172.5 76t-173 -76t-69 -230q0 -148 69.5 -224.5t172.5 -76.5z" />
    <glyph glyph-name="iaacutecy" horiz-adv-x="1204" 
d="M946 1452l-239 -262h-252l163 262h328zM1098 1065v-1065h-299v356h-291q-58 0 -87.5 -25t-29.5 -83v-86q0 -68 -6 -96.5t-25 -65.5h-299q19 37 25 65.5t6 96.5v86q0 70 26 118.5t95 77.5q-129 96 -129 267q0 165 118.5 259.5t321.5 94.5h574zM799 590v241h-273
q-151 0 -151 -120q0 -121 151 -121h273z" />
    </font>
</defs>
</svg>
