<?xml version="1.0" standalone="no"?>
<!DOCTYPE svg PUBLIC "-//W3C//DTD SVG 1.1//EN" "http://www.w3.org/Graphics/SVG/1.1/DTD/svg11.dtd" >
<svg xmlns="http://www.w3.org/2000/svg" xmlns:xlink="http://www.w3.org/1999/xlink" version="1.1">
<metadata>
Created by FontForge 20170731 at Mon Aug  7 16:11:14 2023
 By Aleksey,,,
(c) 2017 Connary Fagen
</metadata>
<defs>
<font id="ArticulatCF-BoldOblique" horiz-adv-x="1183" >
  <font-face 
    font-family="Articulat CF Oblique"
    font-weight="700"
    font-style="oblique"
    font-stretch="normal"
    units-per-em="2048"
    panose-1="0 0 8 0 0 0 0 0 0 0"
    ascent="1638"
    descent="-410"
    x-height="1065"
    cap-height="1434"
    bbox="-530 -784 2243 1964"
    underline-thickness="102"
    underline-position="-307"
    slope="-9"
    unicode-range="U+0020-FB02"
  />
<missing-glyph horiz-adv-x="1044" 
d="M856 1638v-2089h-661v2089h661zM696 1499h-346v-69h137v-78h-139v-68h348v68h-139v78h139v69zM557 1229h-209v-217h348v71h-139v146zM487 1157v-74h-69v74h69zM696 954h-348v-67h139v-78h-139v-70h209v148h139v67zM696 829h-69v-137h-279v-71h348v208zM696 575h-209v-116
h70v47h70v-98h-209v167h-70v-235h348v235zM696 213h-348v-236h348v236zM627 145v-98h-209v98h209zM696 -70h-348v-69h148l-148 -99v-69h348v69h-213l146 99h67v69z" />
    <glyph glyph-name="fi" unicode="fi" horiz-adv-x="1269" 
d="M561 1102l-6 -37h201l-35 -234h-203l-131 -831h-299l133 831h-172l35 234h174l8 47q11 68 31 122.5t44.5 91t58.5 63t65.5 41.5t73 23t73.5 10.5t74 2.5q90 0 139 -14l-37 -223q-58 8 -83 8q-69 0 -101 -33t-43 -102zM1006 1452h301l-35 -227h-301zM778 0l168 1065h301
l-168 -1065h-301z" />
    <glyph glyph-name="fl" unicode="fl" horiz-adv-x="1302" 
d="M705 1237q-69 0 -101 -33t-43 -102l-6 -37h201l-35 -234h-203l-131 -831h-299l133 831h-172l35 234h174l8 47q11 68 31 122.5t44.5 91t58.5 63t65.5 41.5t73 23t73.5 10.5t74 2.5q90 0 139 -14l-37 -223q-58 8 -83 8zM1022 1434h301l-225 -1434h-301z" />
    <glyph glyph-name=".notdef" horiz-adv-x="1044" 
d="M856 1638v-2089h-661v2089h661zM696 1499h-346v-69h137v-78h-139v-68h348v68h-139v78h139v69zM557 1229h-209v-217h348v71h-139v146zM487 1157v-74h-69v74h69zM696 954h-348v-67h139v-78h-139v-70h209v148h139v67zM696 829h-69v-137h-279v-71h348v208zM696 575h-209v-116
h70v47h70v-98h-209v167h-70v-235h348v235zM696 213h-348v-236h348v236zM627 145v-98h-209v98h209zM696 -70h-348v-69h148l-148 -99v-69h348v69h-213l146 99h67v69z" />
    <glyph glyph-name=".null" horiz-adv-x="0" 
 />
    <glyph glyph-name="nonmarkingreturn" horiz-adv-x="682" 
 />
    <glyph glyph-name="space" unicode=" " horiz-adv-x="546" 
 />
    <glyph glyph-name="exclam" unicode="!" horiz-adv-x="577" 
d="M418 467h-318l142 967h338zM72 338h331l-53 -338h-330z" />
    <glyph glyph-name="quotedbl" unicode="&#x22;" horiz-adv-x="944" 
d="M162 1022h299l63 412h-299zM641 1022h299l64 412h-299z" />
    <glyph glyph-name="numbersign" unicode="#" horiz-adv-x="1218" 
d="M1167 848h-194l-66 -262h162l-37 -236h-186l-90 -350h-226l91 350h-191l-90 -350h-227l90 350h-168l37 236h192l66 262h-160l37 235h184l90 351h228l-91 -351h191l90 351h225l-90 -351h170zM682 586l66 262h-191l-65 -262h190z" />
    <glyph glyph-name="dollar" unicode="$" horiz-adv-x="1351" 
d="M1292 1012h-323q3 137 -119 172l-53 -340l49 -10q207 -41 301 -126t94 -243q0 -222 -158.5 -346t-423.5 -135l-26 -168h-158l27 172q-216 26 -337.5 151.5t-103.5 329.5h326q4 -183 158 -221l57 368l-53 11q-111 22 -190.5 64t-129 118t-49.5 180q0 211 152 331.5
t403 131.5l27 166h158l-27 -172q204 -24 309 -134t90 -300zM508 1016q0 -49 31.5 -89.5t103.5 -54.5l51 318q-87 -12 -136.5 -57t-49.5 -117zM907 438q0 114 -151 150l-56 -346q100 13 153.5 64.5t53.5 131.5z" />
    <glyph glyph-name="percent" unicode="%" horiz-adv-x="1501" 
d="M410 764q-119 0 -189.5 69t-70.5 203q0 174 90.5 291t246.5 117q117 0 185.5 -69t68.5 -204q0 -114 -37.5 -205t-114 -146.5t-179.5 -55.5zM115 0l1071 1440l221 -6l-1065 -1434h-227zM424 954q44 0 73.5 33.5t40.5 76.5t11 91q0 98 -78 98q-44 0 -74 -32t-41.5 -74.5
t-11.5 -91.5q0 -101 80 -101zM1038 -10q-118 0 -188 69.5t-70 204.5q0 174 90 290t246 116q117 0 185.5 -69t68.5 -204q0 -174 -89 -290.5t-243 -116.5zM1053 180q45 0 74.5 33.5t40 76.5t10.5 91q0 98 -78 98q-43 0 -73 -31t-42 -73.5t-12 -91.5q0 -103 80 -103z" />
    <glyph glyph-name="ampersand" unicode="&#x26;" horiz-adv-x="1476" 
d="M1325 756q-56 -301 -217 -496l203 -260h-324l-69 92q-186 -117 -406 -117q-136 0 -245 42t-176.5 130t-67.5 209q0 83 29.5 152t86 122.5t114.5 90.5t140 78q-53 75 -79.5 140.5t-26.5 141.5q0 72 27.5 138.5t80 121.5t141 88t199.5 33q182 0 271.5 -86.5t89.5 -222.5
q0 -79 -25.5 -144.5t-75.5 -117.5t-108 -91t-137 -77l200 -258q90 131 107 291h268zM711 1239q-77 0 -128 -45t-51 -115q0 -39 17.5 -77t60.5 -99q117 53 177.5 106t60.5 124q0 47 -34 76.5t-103 29.5zM551 227q106 0 217 66l-240 319q-102 -53 -143 -113t-41 -114
q0 -68 55 -113t152 -45z" />
    <glyph glyph-name="quotesingle" unicode="'" horiz-adv-x="464" 
d="M162 1022h299l63 412h-299z" />
    <glyph glyph-name="parenleft" unicode="(" horiz-adv-x="673" 
d="M434 1526h295q-267 -384 -350 -889q-81 -530 63 -903h-284q-156 403 -72 940q82 507 348 852z" />
    <glyph glyph-name="parenright" unicode=")" horiz-adv-x="671" 
d="M502 1526q165 -385 82 -889q-80 -522 -357 -903h-293q276 418 357 940q79 488 -68 852h279z" />
    <glyph glyph-name="asterisk" unicode="*" horiz-adv-x="1089" 
d="M997 1114l-200 -55l108 -176l-229 -131l-96 172l-146 -172l-196 131l159 180l-182 51l96 246l209 -64l31 230h240l-39 -230l223 64z" />
    <glyph glyph-name="plus" unicode="+" horiz-adv-x="1148" 
d="M1114 707l-41 -258h-377l-59 -375h-275l60 375h-373l39 258h375l59 372h275l-60 -372h377z" />
    <glyph glyph-name="comma" unicode="," horiz-adv-x="509" 
d="M-35 -342l17 92q65 13 103.5 63t49.5 121l10 66h-125l52 340h323l-49 -324q-14 -94 -44 -161.5t-65.5 -105t-85 -58.5t-91 -27t-95.5 -6z" />
    <glyph glyph-name="hyphen" unicode="-" horiz-adv-x="925" 
d="M86 670h741l-34 -209h-742z" />
    <glyph glyph-name="period" unicode="." horiz-adv-x="516" 
d="M72 338h331l-53 -338h-330z" />
    <glyph glyph-name="slash" unicode="/" horiz-adv-x="1015" 
d="M1057 1434l-783 -1430h-307l785 1430h305z" />
    <glyph glyph-name="zero" unicode="0" horiz-adv-x="1294" 
d="M756 1448q79 0 150 -19t134.5 -61t110 -105t73.5 -156.5t27 -209.5q0 -138 -29 -270t-87.5 -248t-140 -203.5t-195 -138.5t-244.5 -51q-98 0 -183 30t-156 92t-112 169.5t-41 250.5q0 140 28 273t85.5 250.5t138.5 205.5t194.5 139.5t246.5 51.5zM952 901q0 291 -213 291
q-75 0 -139 -38t-108 -102t-74.5 -148.5t-45 -177.5t-14.5 -189q0 -295 213 -295q76 0 140 38.5t107.5 103t74.5 149.5t45 178t14 190z" />
    <glyph glyph-name="one" unicode="1" horiz-adv-x="808" 
d="M817 1434l-225 -1434h-299l172 1057q-65 -57 -147 -76t-185 -16l35 243q248 25 348 226h301z" />
    <glyph glyph-name="two" unicode="2" horiz-adv-x="1167" 
d="M-8 0l4 43q12 96 28.5 165t50 142.5t85 131.5t132 117t191.5 114q12 6 36 17q47 22 71 34t64.5 34t62.5 38.5t50 42t42 49.5t24.5 56t10.5 67q0 72 -50.5 105.5t-119.5 33.5q-39 0 -74.5 -10t-71 -33t-62 -67.5t-36.5 -106.5h-287q32 222 172 348.5t383 126.5
q220 0 334.5 -104.5t114.5 -270.5q0 -48 -8 -91t-19 -77.5t-34 -69t-42.5 -59t-54.5 -53t-60.5 -47t-70.5 -45.5t-73.5 -42.5t-81 -43.5t-82.5 -45q-65 -35 -107.5 -61t-83 -59t-57.5 -67t-11 -69l3 -4h655l-39 -240h-989z" />
    <glyph glyph-name="three" unicode="3" horiz-adv-x="1243" 
d="M895 758q27 -2 58.5 -13t66 -35t62 -57t45.5 -83.5t18 -110.5q0 -110 -47.5 -201.5t-129.5 -153t-192.5 -95.5t-236.5 -34q-166 0 -285.5 66.5t-169.5 181.5t-21 256h269q-15 -111 48 -179.5t181 -68.5q117 0 204 65.5t87 174.5q0 76 -61.5 125t-198.5 49h-80l33 197h61
q71 0 126 18.5t84 44t47 58t23 54.5t5 40q0 67 -50.5 103t-125.5 36q-41 0 -80 -11.5t-76 -36t-64 -69t-38 -104.5h-277q37 230 181.5 353.5t371.5 123.5q205 0 327 -100.5t122 -249.5q0 -128 -84.5 -222t-202.5 -122z" />
    <glyph glyph-name="four" unicode="4" horiz-adv-x="1236" 
d="M1102 336h-164l-51 -336h-299l51 336h-621l39 239l754 859h301l-133 -859h164zM680 575l78 494l-443 -494h365z" />
    <glyph glyph-name="five" unicode="5" horiz-adv-x="1236" 
d="M711 993q191 0 309.5 -112t118.5 -306q0 -269 -172 -432t-451 -163q-146 0 -257.5 56.5t-168.5 167t-37 255.5h273q-15 -93 41.5 -158t164.5 -65q132 0 221 90.5t89 230.5q0 46 -15.5 82t-38.5 56t-51.5 33.5t-51.5 17.5t-42 4q-150 0 -254 -111h-274l235 795h801
l-43 -246h-590l-92 -301l12 11q13 10 27 20.5t40.5 24.5t54.5 24.5t68 18t83 7.5z" />
    <glyph glyph-name="six" unicode="6" horiz-adv-x="1247" 
d="M727 934q51 0 103.5 -10t110.5 -37.5t102.5 -68.5t74 -110.5t29.5 -156.5q0 -245 -169 -408t-427 -163q-117 0 -205.5 36.5t-141.5 102.5t-83.5 159t-31 205.5t16.5 241.5q56 338 221.5 530.5t432.5 192.5q100 0 180 -25.5t128.5 -66.5t79.5 -94t41 -105.5t5 -103.5h-254
q0 50 -18.5 86t-48.5 53.5t-58.5 25t-56.5 7.5q-292 0 -363 -422q24 41 114 86t218 45zM575 227q124 0 201.5 88t77.5 215q0 97 -58 146t-134 49q-121 0 -204 -83t-83 -208q0 -57 20 -100t52 -65t64 -32t64 -10z" />
    <glyph glyph-name="seven" unicode="7" horiz-adv-x="1056" 
d="M1092 1434l-35 -256q-478 -589 -649 -1178h-310q197 654 672 1186h-625l39 248h908z" />
    <glyph glyph-name="eight" unicode="8" horiz-adv-x="1265" 
d="M944 803q95 -39 152 -117.5t57 -181.5q0 -154 -83.5 -275t-222 -185t-304.5 -64q-103 0 -193 26.5t-159 76.5t-108.5 128t-39.5 174q0 147 82 260t233 176q-108 84 -108 226q0 91 40 167.5t107.5 127t154.5 78.5t181 28q193 0 302.5 -90.5t109.5 -235.5q0 -205 -201 -319
zM717 1217q-90 0 -148.5 -52.5t-58.5 -138.5q0 -54 39.5 -95.5t116.5 -41.5q91 0 149.5 56.5t58.5 139.5q0 61 -41.5 96.5t-115.5 35.5zM559 240q132 0 211.5 82.5t79.5 197.5q0 90 -60.5 136t-152.5 46q-120 0 -203.5 -78.5t-83.5 -195.5q0 -77 52 -132.5t157 -55.5z" />
    <glyph glyph-name="nine" unicode="9" horiz-adv-x="1247" 
d="M557 494q-51 0 -103.5 10t-110.5 37.5t-102.5 68.5t-74 110.5t-29.5 156.5q0 245 169 408t427 163q117 0 205.5 -36.5t141.5 -103t83.5 -159t31 -205.5t-16.5 -242q-56 -338 -221.5 -530t-432.5 -192q-100 0 -180 25.5t-128.5 66.5t-79.5 94t-41 105.5t-5 103.5h254
q0 -50 18.5 -86t48.5 -53.5t58.5 -25t56.5 -7.5q292 0 363 422q-24 -41 -114 -86t-218 -45zM709 1200q-124 0 -201.5 -88t-77.5 -215q0 -97 58.5 -146t134.5 -49q121 0 203.5 83t82.5 208q0 57 -20 100t-52 65t-64 32t-64 10z" />
    <glyph glyph-name="colon" unicode=":" horiz-adv-x="516" 
d="M188 1065h330l-53 -338h-330zM72 338h331l-53 -338h-330z" />
    <glyph glyph-name="semicolon" unicode=";" horiz-adv-x="509" 
d="M188 1065h330l-53 -338h-330zM-35 -342l17 92q65 13 103.5 63t49.5 121l10 66h-125l52 340h323l-49 -324q-14 -94 -44 -161.5t-65.5 -105t-85 -58.5t-91 -27t-95.5 -6z" />
    <glyph glyph-name="less" unicode="&#x3c;" horiz-adv-x="1019" 
d="M877 276l-547 220l614 215l45 278l-913 -366l-39 -256l797 -367z" />
    <glyph glyph-name="equal" unicode="=" horiz-adv-x="925" 
d="M109 834h800l-32 -209h-799zM59 506h799l-31 -209h-800z" />
    <glyph glyph-name="greater" unicode="&#x3e;" horiz-adv-x="1021" 
d="M23 276l-41 -276l911 367l37 256l-793 366l-47 -278l551 -215z" />
    <glyph glyph-name="question" unicode="?" horiz-adv-x="1148" 
d="M698 1448q-245 0 -390 -118.5t-181 -377.5h291q25 116 77.5 178t159.5 62q52 0 86.5 -15.5t47.5 -40t18 -54.5t-2 -58q-7 -39 -36.5 -73.5t-69 -59t-86.5 -60t-88.5 -75t-75.5 -106t-46 -150.5l-4 -33h322l4 33q10 59 33.5 105.5t54.5 77t67 57.5t72 55t67.5 60.5t56 83
t34.5 114.5q29 189 -84 292t-328 103zM379 338h330l-52 -338h-329z" />
    <glyph glyph-name="at" unicode="@" horiz-adv-x="1544" 
d="M958 1036h195q-61 -382 -61 -407q0 -76 55 -76q73 0 113 85.5t40 203.5q0 183 -115 295t-308 112q-133 0 -248 -49.5t-194.5 -134t-125 -198.5t-45.5 -240q0 -194 125.5 -318.5t310.5 -124.5q189 0 316 105l235 -72q-209 -231 -542 -231q-181 0 -326.5 79.5t-229 225.5
t-83.5 332q0 167 62.5 319.5t169 263.5t257 176.5t318.5 65.5q174 0 314.5 -75.5t223 -216.5t82.5 -322q0 -126 -40.5 -233.5t-120.5 -176t-185 -68.5q-47 0 -83.5 11t-57.5 25.5t-38 39t-23.5 40t-14.5 40.5q-18 -49 -86.5 -103.5t-157.5 -54.5q-49 0 -95.5 17.5
t-85.5 51.5t-63 90.5t-24 127.5q0 170 102 291t250 121q56 0 102.5 -27.5t69.5 -69.5zM725 549q77 0 120.5 59t43.5 135q0 46 -24.5 79.5t-80.5 33.5q-67 0 -114 -54.5t-47 -135.5q0 -45 24.5 -81t77.5 -36z" />
    <glyph glyph-name="A" unicode="A" horiz-adv-x="1490" 
d="M1010 0l-49 268h-535l-133 -268h-336l770 1434h293l326 -1434h-336zM541 498h377l-103 549z" />
    <glyph glyph-name="B" unicode="B" horiz-adv-x="1355" 
d="M1034 782q101 -32 161 -117.5t60 -197.5q0 -113 -46 -202.5t-129 -147t-194.5 -87.5t-244.5 -30h-623l228 1434h585q211 0 321 -86t110 -236q0 -114 -61.5 -201t-166.5 -129zM733 874q90 0 143.5 50t53.5 141q0 56 -36 83.5t-95 27.5h-281l-47 -302h262zM655 258
q125 0 197 55.5t72 167.5q0 68 -43 112t-138 44h-311l-59 -379h282z" />
    <glyph glyph-name="C" unicode="C" horiz-adv-x="1380" 
d="M670 252q117 0 191 50t122 157h303q-43 -156 -145 -265.5t-234.5 -160.5t-285.5 -51q-260 0 -410 146.5t-150 418.5q0 183 54.5 347t154 288t251.5 197t335 73q113 0 207.5 -30t164.5 -87.5t107 -149t31 -208.5h-305q-29 205 -242 205q-103 0 -187 -54.5t-135 -142.5
t-78.5 -192t-27.5 -211q0 -160 71.5 -245t207.5 -85z" />
    <glyph glyph-name="D" unicode="D" horiz-adv-x="1404" 
d="M782 1434q283 0 433.5 -147.5t150.5 -432.5q0 -256 -90.5 -447.5t-270.5 -299t-430 -107.5h-555l226 1434h536zM575 285q122 0 216.5 44.5t152 123t86.5 180t29 221.5q0 158 -79 226.5t-251 68.5h-213l-137 -864h196z" />
    <glyph glyph-name="E" unicode="E" horiz-adv-x="1200" 
d="M1208 1163h-694l-47 -311h590l-41 -250h-590l-51 -332h712l-43 -270h-1026l228 1434h1005z" />
    <glyph glyph-name="F" unicode="F" horiz-adv-x="1140" 
d="M1169 1163h-655l-49 -329h545l-41 -252h-545l-92 -582h-314l228 1434h968z" />
    <glyph glyph-name="G" unicode="G" horiz-adv-x="1421" 
d="M803 786h575l-14 -96q-60 -355 -233 -531.5t-494 -176.5q-270 0 -423 145t-153 414q0 184 54.5 348.5t154.5 290t252 199t334 73.5q113 0 207.5 -30t164.5 -87.5t107 -149t31 -208.5h-305q-29 205 -242 205q-101 0 -184.5 -54t-135.5 -142t-80 -194.5t-28 -216.5
q0 -157 73 -240t216 -83q156 0 250 68.5t131 222.5h-297z" />
    <glyph glyph-name="H" unicode="H" horiz-adv-x="1411" 
d="M1108 1434h313l-227 -1434h-313l94 590h-549l-94 -590h-314l228 1434h313l-94 -590h549z" />
    <glyph glyph-name="I" unicode="I" horiz-adv-x="550" 
d="M334 0h-314l226 1434h313z" />
    <glyph glyph-name="J" unicode="J" horiz-adv-x="1110" 
d="M170 371q94 -113 242 -113q45 0 81 10t71.5 35t60.5 76.5t37 126.5l147 928h311l-149 -942q-19 -131 -72 -230t-130 -158.5t-169.5 -88.5t-198.5 -29q-290 0 -426 190z" />
    <glyph glyph-name="K" unicode="K" horiz-adv-x="1449" 
d="M1487 1434l-653 -646l481 -788h-344l-348 578l-236 -232l-55 -346h-314l228 1434h313l-106 -674l680 674h354z" />
    <glyph glyph-name="L" unicode="L" horiz-adv-x="1179" 
d="M375 270h653l-43 -270h-967l228 1434h313z" />
    <glyph glyph-name="M" unicode="M" horiz-adv-x="1761" 
d="M246 1434h362l238 -1018l538 1018h388l-228 -1434h-313l143 907h-10l-459 -907h-227l-193 907h-10l-143 -907h-314z" />
    <glyph glyph-name="N" unicode="N" horiz-adv-x="1445" 
d="M1456 1434l-227 -1434h-324l-422 913h-8l-143 -913h-314l228 1434h311l432 -932h6l148 932h313z" />
    <glyph glyph-name="O" unicode="O" horiz-adv-x="1495" 
d="M874 1452q268 0 423 -150.5t155 -418.5q0 -147 -36.5 -282.5t-107.5 -247.5t-169 -195.5t-226.5 -129.5t-273.5 -46q-267 0 -421.5 150t-154.5 417q0 149 36 285t106 248t167 195t226 129t276 46zM680 250q85 0 158 34t125 92.5t89 136t54.5 165t17.5 178.5
q0 157 -75 242.5t-218 85.5q-107 0 -193.5 -52.5t-139.5 -139.5t-81 -194t-28 -223q0 -155 75.5 -240t215.5 -85z" />
    <glyph glyph-name="P" unicode="P" horiz-adv-x="1333" 
d="M821 1434q245 0 363.5 -105.5t118.5 -296.5q0 -271 -174 -432.5t-465 -161.5h-263l-69 -438h-314l228 1434h575zM707 709q120 0 189 77.5t69 200.5q0 82 -48.5 129t-142.5 47h-260l-70 -454h263z" />
    <glyph glyph-name="Q" unicode="Q" horiz-adv-x="1495" 
d="M1452 883q0 -185 -58.5 -350.5t-166.5 -290.5l104 -123l-207 -172l-108 127q-170 -92 -377 -92q-267 0 -421.5 150t-154.5 417q0 149 36 285t106 248t167 195t226 129t276 46q268 0 423 -150.5t155 -418.5zM680 250q88 0 160 35l-170 202l202 172l160 -186q92 164 92 383
q0 157 -75 242.5t-218 85.5q-107 0 -193.5 -52.5t-139.5 -139.5t-81 -194t-28 -223q0 -155 75.5 -240t215.5 -85z" />
    <glyph glyph-name="R" unicode="R" horiz-adv-x="1386" 
d="M1061 662q103 -44 143.5 -99.5t40.5 -140.5q0 -30 -17.5 -157.5t-17.5 -164.5q0 -56 17 -100h-312q-16 35 -16 104q0 43 15.5 149t15.5 124q0 65 -46.5 104t-127.5 39h-342l-82 -520h-314l228 1434h618q240 0 356.5 -96t116.5 -259q0 -150 -66 -250.5t-210 -166.5z
M754 766q126 0 191 66.5t65 179.5q0 151 -193 151h-303l-61 -397h301z" />
    <glyph glyph-name="S" unicode="S" horiz-adv-x="1349" 
d="M846 834q207 -41 301 -126t94 -243q0 -156 -82 -266t-223 -163.5t-328 -53.5q-171 0 -298 55.5t-194.5 167t-54.5 264.5h326q4 -231 246 -231q132 0 203 53t71 147q0 61 -42 99t-134 55l-182 35q-111 22 -190.5 64t-129 118t-49.5 180q0 147 78 253t212 158t310 52
q256 0 392.5 -112.5t119.5 -327.5h-323q3 92 -51 137t-162 45q-112 0 -180 -47t-68 -131q0 -51 32.5 -91.5t108.5 -54.5z" />
    <glyph glyph-name="T" unicode="T" horiz-adv-x="1251" 
d="M1323 1434l-43 -271h-414l-182 -1163h-313l182 1163h-412l43 271h1139z" />
    <glyph glyph-name="U" unicode="U" horiz-adv-x="1415" 
d="M1427 1434l-139 -873q-29 -181 -124 -311.5t-237 -196t-317 -65.5q-270 0 -408.5 151t-95.5 422l140 873h313l-137 -861q-24 -156 36.5 -235.5t192.5 -79.5q133 0 217.5 79t110.5 236l135 861h313z" />
    <glyph glyph-name="V" unicode="V" horiz-adv-x="1509" 
d="M1237 1434h334l-756 -1434h-315l-316 1430l324 4l203 -1051z" />
    <glyph glyph-name="W" unicode="W" horiz-adv-x="2140" 
d="M1864 1434h338l-637 -1434h-289l-158 954l-461 -954h-286l-187 1434h324l90 -959l436 959h303l131 -959z" />
    <glyph glyph-name="X" unicode="X" horiz-adv-x="1380" 
d="M1454 1434l-565 -695l366 -739h-354l-231 469l-383 -469h-350l600 737l-344 697h352l211 -426l346 426h352z" />
    <glyph glyph-name="Y" unicode="Y" horiz-adv-x="1476" 
d="M905 526l-84 -526h-321l82 526l-398 908h353l229 -607l424 607h348z" />
    <glyph glyph-name="Z" unicode="Z" horiz-adv-x="1253" 
d="M1130 270l-43 -270h-1110l37 238l879 925h-723l43 271h1094l-35 -238l-885 -926h743z" />
    <glyph glyph-name="bracketleft" unicode="[" horiz-adv-x="686" 
d="M520 1270l-205 -1280h152l-41 -256h-451l285 1792h451l-39 -256h-152z" />
    <glyph glyph-name="backslash" unicode="\" horiz-adv-x="1007" 
d="M195 1434h292l334 -1430h-293z" />
    <glyph glyph-name="bracketright" unicode="]" horiz-adv-x="684" 
d="M371 1270h-152l39 256h451l-285 -1792h-451l41 256h152z" />
    <glyph glyph-name="asciicircum" unicode="^" horiz-adv-x="1028" 
d="M748 952l-146 285l-244 -285h-231l410 482h176l258 -482h-223z" />
    <glyph glyph-name="underscore" unicode="_" horiz-adv-x="1208" 
d="M-20 0h1024l-39 -256h-1024z" />
    <glyph glyph-name="grave" unicode="`" horiz-adv-x="542" 
d="M647 1190l-82 262h-420l234 -262h268z" />
    <glyph glyph-name="a" unicode="a" horiz-adv-x="1175" 
d="M985 252q-6 -42 10.5 -61t57.5 -21l-29 -164q-52 -14 -113 -14q-105 0 -166 46.5t-43 117.5l3 10q-41 -53 -72 -79q-117 -101 -279 -101q-72 0 -132.5 16t-109 49t-75.5 90t-27 133q0 85 30 149t87.5 104.5t129 63.5t165.5 34q13 1 57 6t58 7t49.5 6.5t52 8t41.5 9
t43.5 11.5t34.5 13q23 168 -144 168q-73 0 -120.5 -27t-71.5 -92h-281q39 172 155.5 256t336.5 84q256 0 350 -107t61 -331zM696 336l33 180q-92 -24 -260 -51q-80 -12 -120 -50t-40 -96q0 -118 135 -118q83 0 151.5 45.5t100.5 89.5z" />
    <glyph glyph-name="b" unicode="b" horiz-adv-x="1224" 
d="M772 1075q72 0 137.5 -25t120.5 -76t88 -138.5t33 -200.5q0 -167 -67.5 -314.5t-194.5 -241t-285 -93.5q-61 0 -110.5 15t-78 37t-47.5 47.5t-25 45.5t-5 33l-29 -164h-299l226 1434h299l-80 -512q120 153 317 153zM553 227q95 0 165.5 58t104 146.5t33.5 193.5
q0 103 -53.5 156t-134.5 53q-71 0 -129 -36.5t-93 -95t-54 -128.5t-19 -142q0 -100 47.5 -152.5t132.5 -52.5z" />
    <glyph glyph-name="c" unicode="c" horiz-adv-x="1099" 
d="M506 227q158 0 219 144h274q-126 -385 -520 -385q-67 0 -129.5 14.5t-121 47.5t-101.5 81.5t-68.5 121.5t-25.5 163q0 187 74 337t211 237t313 87q63 0 118 -10.5t109 -38t92.5 -70t64 -111t29.5 -157.5h-266q-5 73 -41.5 109.5t-120.5 36.5q-91 0 -159 -62.5
t-100.5 -155t-32.5 -196.5q0 -91 48.5 -142t133.5 -51z" />
    <glyph glyph-name="d" unicode="d" horiz-adv-x="1208" 
d="M578 1075q72 0 128.5 -22t84.5 -52.5t41.5 -57t11.5 -42.5l84 533h301l-228 -1434h-301l23 139q-16 -22 -29 -37t-40 -39t-55.5 -39t-72.5 -26.5t-94 -11.5q-59 0 -114.5 15.5t-107.5 50t-91 84.5t-62.5 125.5t-23.5 166.5q0 168 68 315t194.5 239.5t282.5 92.5zM516 227
q70 0 127.5 36.5t92.5 95t54 128.5t19 142q0 98 -47 151.5t-133 53.5q-94 0 -164.5 -56.5t-104.5 -145t-34 -194.5q0 -104 54.5 -157.5t135.5 -53.5z" />
    <glyph glyph-name="e" unicode="e" horiz-adv-x="1150" 
d="M1053 434h-742v-2q0 -225 217 -225q133 0 199 88h277q-138 -309 -512 -309q-68 0 -132.5 15.5t-124.5 50t-104.5 85t-71 125.5t-26.5 166q0 181 78 329t216.5 233t309.5 85q90 0 167.5 -25.5t139.5 -77t97.5 -139t35.5 -202.5q0 -40 -7 -102t-17 -95zM614 854
q-108 0 -177 -65.5t-101 -172.5h461q6 24 6 60q0 78 -51 128t-138 50z" />
    <glyph glyph-name="f" unicode="f" horiz-adv-x="755" 
d="M705 1237q-69 0 -101 -33t-43 -102l-6 -37h201l-35 -234h-203l-131 -831h-299l133 831h-172l35 234h174l8 47q11 68 31 122.5t44.5 91t58.5 63t65.5 41.5t73 23t73.5 10.5t74 2.5q90 0 139 -14l-37 -223q-58 8 -83 8z" />
    <glyph glyph-name="g" unicode="g" horiz-adv-x="1206" 
d="M1167 1065l-161 -1034q-19 -119 -69 -208.5t-111.5 -140.5t-140.5 -82t-145 -41t-137 -10q-169 0 -280 69t-152 179l193 97q62 -101 242 -101q135 0 205 61.5t98 200.5l14 84q-20 -27 -39 -47t-54.5 -47t-86 -42t-111.5 -15q-74 0 -143 25.5t-127.5 76t-93.5 138
t-35 200.5q0 121 40.5 237.5t110.5 207.5t173.5 146.5t220.5 55.5q73 0 130 -22t85.5 -52.5t42.5 -57t12 -42.5l22 164h297zM516 229q70 0 127.5 37t92.5 96t54 129t19 140q0 97 -46 150t-132 53q-94 0 -165.5 -61.5t-105.5 -151.5t-34 -187q0 -101 54.5 -153t135.5 -52z
" />
    <glyph glyph-name="h" unicode="h" horiz-adv-x="1236" 
d="M813 1075q68 0 122 -14.5t99 -46.5t70 -83t34 -124t-8 -170l-100 -637h-299l103 637q16 99 -25 144.5t-123 45.5q-54 0 -104.5 -21.5t-84.5 -53.5t-56.5 -65.5t-30.5 -61.5l-101 -625h-299l226 1434h299l-93 -568q19 32 50 64.5t77 67t110 56t134 21.5z" />
    <glyph glyph-name="i" unicode="i" horiz-adv-x="501" 
d="M203 1225l35 227h301l-35 -227h-301zM178 1065h301l-168 -1065h-301z" />
    <glyph glyph-name="j" unicode="j" horiz-adv-x="522" 
d="M203 1225l35 227h301l-35 -227h-301zM-252 -158q52 -30 131 -30q62 0 88 40t41 130l172 1083h299l-190 -1196q-27 -163 -117.5 -241.5t-230.5 -78.5q-150 0 -236 52z" />
    <glyph glyph-name="k" unicode="k" horiz-adv-x="1202" 
d="M1206 1065l-520 -463l408 -602h-320l-291 422l-125 -111l-49 -311h-299l226 1434h299l-119 -754l430 385h360z" />
    <glyph glyph-name="l" unicode="l" horiz-adv-x="518" 
d="M236 1434h301l-226 -1434h-301z" />
    <glyph glyph-name="m" unicode="m" horiz-adv-x="1882" 
d="M1464 1075q81 0 143.5 -25.5t108 -80.5t59.5 -143t-3 -212l-97 -614h-299l99 623q18 111 -15.5 157.5t-111.5 46.5q-55 0 -104.5 -21.5t-81.5 -53.5t-52 -63t-25 -54l-100 -635h-299l100 623q18 111 -16.5 157.5t-112.5 46.5q-54 0 -102.5 -22t-80 -55t-51 -66t-26.5 -61
l-100 -623h-299l168 1065h299l-35 -203q18 33 46.5 66t71.5 68t103.5 57t126.5 22q125 0 206.5 -56t102.5 -171q54 93 156.5 160t220.5 67z" />
    <glyph glyph-name="n" unicode="n" horiz-adv-x="1224" 
d="M801 1075q177 0 265 -106t52 -336l-100 -633h-299l102 633q18 101 -23 147.5t-124 46.5q-103 0 -180.5 -69.5t-96.5 -136.5l-100 -621h-299l168 1065h299l-35 -205q19 33 50 66.5t77 69t110 57.5t134 22z" />
    <glyph glyph-name="o" unicode="o" 
d="M645 1075q65 0 129 -15.5t124.5 -50.5t106 -86t73.5 -127.5t28 -168.5q0 -178 -75.5 -324t-215 -231.5t-315.5 -85.5q-66 0 -130 15t-125 49.5t-106.5 85.5t-73.5 129t-28 173q0 176 77 321.5t217 230.5t314 85zM819 608q0 109 -55 167.5t-141 58.5q-93 0 -163.5 -60
t-103 -146t-32.5 -179q0 -105 55 -163.5t141 -58.5q94 0 164.5 60t102.5 145t32 176z" />
    <glyph glyph-name="p" unicode="p" horiz-adv-x="1222" 
d="M477 1065l-22 -137q123 147 315 147q72 0 137.5 -25t120.5 -76t88 -138.5t33 -200.5q0 -123 -40.5 -240.5t-111 -208t-174 -145.5t-221.5 -55q-61 0 -110.5 15t-78 37t-47.5 47.5t-25 45.5t-5 33l-90 -553h-299l229 1454h301zM551 227q94 0 165 59t104.5 148t33.5 191
q0 103 -53.5 156t-134.5 53q-94 0 -163 -60.5t-100.5 -148t-31.5 -185.5q0 -105 47.5 -159t132.5 -54z" />
    <glyph glyph-name="q" unicode="q" horiz-adv-x="1206" 
d="M578 1075q71 0 127.5 -22t85 -52.5t42.5 -57t13 -42.5l22 164h299l-229 -1454h-299l86 528q-23 -29 -40.5 -47.5t-54 -47t-87 -43.5t-111.5 -15q-59 0 -114.5 15.5t-107.5 49.5t-91 84t-62.5 124.5t-23.5 164.5q0 126 40 243.5t110 208t173 145t222 54.5zM516 227
q70 0 127.5 37t92.5 97t54 130t19 140q0 97 -46 150t-132 53q-95 0 -165.5 -57.5t-105 -147t-34.5 -195.5q0 -101 54.5 -154t135.5 -53z" />
    <glyph glyph-name="r" unicode="r" horiz-adv-x="851" 
d="M774 1075q56 0 105 -10l-43 -260q-37 2 -70 2q-165 0 -254.5 -71.5t-130.5 -207.5l6 43l-90 -571h-299l168 1065h299l-41 -256q40 122 129 194t221 72z" />
    <glyph glyph-name="s" unicode="s" horiz-adv-x="1052" 
d="M719 737q-11 117 -166 117q-74 0 -124 -31.5t-50 -87.5q0 -68 92 -92l174 -41q46 -11 69 -17.5t60 -19t56 -23.5t43.5 -29.5t36 -40t20 -51t8.5 -65.5q0 -177 -140 -273.5t-372 -96.5q-213 0 -324 88.5t-108 261.5h270q17 -131 185 -131q86 0 137 36t51 89q0 35 -20 55.5
t-72 32.5l-160 37q-155 36 -225 104.5t-70 173.5q0 156 133.5 249t343.5 93t311 -90.5t103 -247.5h-262z" />
    <glyph glyph-name="t" unicode="t" horiz-adv-x="796" 
d="M535 831l-80 -497q-8 -53 8 -77t67 -24q67 0 140 17l-37 -234q-73 -30 -201 -30q-41 0 -75 4.5t-67 15t-56.5 28.5t-44 45t-29 64.5t-11.5 86.5t9 112l78 489h-166l34 234h168l43 266h301l-43 -266h213l-38 -234h-213z" />
    <glyph glyph-name="u" unicode="u" horiz-adv-x="1228" 
d="M891 1065h299l-168 -1065h-299l31 190q-21 -32 -52.5 -63.5t-76.5 -64.5t-106 -53.5t-126 -20.5q-87 0 -152.5 23.5t-113.5 76t-61.5 136t2.5 204.5l102 637h299l-102 -635q-30 -186 137 -186q88 0 171 64t118 128z" />
    <glyph glyph-name="v" unicode="v" horiz-adv-x="1196" 
d="M657 0h-327l-236 1065h295l143 -762l390 762h307z" />
    <glyph glyph-name="w" unicode="w" horiz-adv-x="1658" 
d="M1692 1065l-469 -1065h-256l-131 711l-347 -711h-262l-133 1065h295l57 -686l326 686h234l104 -686l274 686h308z" />
    <glyph glyph-name="x" unicode="x" horiz-adv-x="1155" 
d="M1178 1065l-445 -516l303 -549h-317l-180 334l-281 -334h-332l488 557l-285 508h317l154 -289l246 289h332z" />
    <glyph glyph-name="y" unicode="y" horiz-adv-x="1173" 
d="M897 1065h309l-624 -1096q-89 -156 -171 -239t-187 -115t-253 -14l39 247q68 -7 120.5 3t87.5 35.5t56 51.5t41 64q19 35 23 57t-4 64l-240 942h295l148 -686z" />
    <glyph glyph-name="z" unicode="z" horiz-adv-x="1030" 
d="M360 250h529l-37 -250h-879l35 250l621 565h-508l41 250h858l-39 -250z" />
    <glyph glyph-name="braceleft" unicode="{" horiz-adv-x="718" 
d="M494 766l-136 -139l88 -135l-67 -447q-7 -31 6 -43t47 -12h80l-41 -256h-203q-40 0 -75.5 10t-70.5 34t-51 74.5t-5 120.5l84 508l-72 146l115 149l83 524q37 226 261 226h219l-39 -256h-64q-34 0 -62 -19.5t-32 -50.5z" />
    <glyph glyph-name="bar" unicode="|" horiz-adv-x="563" 
d="M299 1638h256l-322 -2027h-256z" />
    <glyph glyph-name="braceright" unicode="}" horiz-adv-x="718" 
d="M246 766l69 448q3 32 -8.5 44t-44.5 12h-80l39 256h203q30 0 58 -6t60 -21.5t51.5 -42t31.5 -69t0 -101.5l-82 -510l69 -149l-112 -146l-86 -522q-35 -225 -258 -225h-219l40 256h64q33 0 59 18.5t33 50.5l66 433l133 135z" />
    <glyph glyph-name="asciitilde" unicode="~" horiz-adv-x="1009" 
d="M850 678l119 -16q-20 -121 -96 -197t-197 -76q-49 0 -101.5 26.5t-91 57.5t-90.5 57.5t-100 26.5q-40 0 -77 -22t-40 -50l-121 15q20 121 94.5 196.5t194.5 75.5q41 0 83 -17.5t77 -42t70.5 -49t76 -42t80.5 -17.5q38 0 75.5 22t43.5 52z" />
    <glyph glyph-name="exclamdown" unicode="&#xa1;" horiz-adv-x="575" 
d="M133 727l53 338h330l-53 -338h-330zM449 598l-156 -967h-336l154 967h338z" />
    <glyph glyph-name="cent" unicode="&#xa2;" horiz-adv-x="1099" 
d="M596 367q102 23 149 135h275q-117 -356 -463 -383l-33 -201h-133l33 203q-75 11 -139.5 40.5t-117.5 79t-83.5 128t-30.5 176.5q0 177 67 322t191.5 234.5t286.5 102.5l37 230h133l-37 -232q68 -9 123 -33t102.5 -67.5t76 -115.5t32.5 -167h-266q-6 120 -107 142z
M344 551q0 -71 31.5 -119t87.5 -65l94 583q-67 -24 -116.5 -87.5t-73 -144t-23.5 -167.5z" />
    <glyph glyph-name="sterling" unicode="&#xa3;" horiz-adv-x="1171" 
d="M1141 983h-271q13 104 -38.5 156.5t-147.5 52.5q-121 0 -178 -65.5t-57 -159.5q0 -16 1 -31.5t5 -33t6 -29t8.5 -32.5t8.5 -28t10.5 -32t9.5 -29h250l-27 -162h-193q0 -125 -54 -208t-171 -151q86 35 174 35q53 0 162 -15t176 -15q96 0 195 24l-23 -264q-78 -19 -178 -19
q-89 0 -235.5 29t-215.5 29q-103 0 -227 -58l-131 187q266 190 266 397q0 19 -2 29h-190l26 162h113q-47 125 -47 211q0 112 42.5 204t116 153t171.5 94.5t209 33.5q149 0 255.5 -55.5t155 -161.5t25.5 -248z" />
    <glyph glyph-name="currency" unicode="&#xa4;" horiz-adv-x="1261" 
d="M1145 975q0 -99 -37 -180l98 -99l-188 -188l-82 82q-113 -74 -250 -74q-133 0 -242 70l-77 -78l-191 188l90 90q-39 89 -39 189q0 102 43 196l-94 95l191 188l84 -84q109 64 235 64q133 0 242 -70l90 90l188 -188l-102 -103q41 -87 41 -188zM686 760q50 0 90 16.5t63 41
t38 55t20.5 55.5t5.5 47q0 27 -10 60t-32 69.5t-67.5 61t-107.5 24.5q-50 0 -89.5 -16.5t-62.5 -41t-38 -55.5t-20 -56t-5 -46q0 -22 5 -47t20 -55.5t38 -55t62.5 -41t89.5 -16.5z" />
    <glyph glyph-name="yen" unicode="&#xa5;" horiz-adv-x="1476" 
d="M1538 1434l-618 -887h235l-29 -176h-245l-13 -70h246l-33 -176h-239l-21 -125h-321l18 125h-239l32 176h236l10 70h-233l28 176h221l-389 887h353l229 -607l424 607h348z" />
    <glyph glyph-name="brokenbar" unicode="&#xa6;" horiz-adv-x="563" 
d="M299 1638h256l-90 -573h-256zM70 184h256l-93 -573h-256z" />
    <glyph glyph-name="section" unicode="&#xa7;" horiz-adv-x="1392" 
d="M1350 1022h-328q1 46 -14 77t-45 46t-62 20.5t-76 5.5q-60 0 -107 -12t-74 -29.5t-44 -41.5t-23 -45.5t-6 -43.5q0 -35 25 -61t92 -43l211 -49q209 -50 304 -137t95 -232q0 -197 -124 -321q30 -64 30 -146q0 -101 -33.5 -183t-93 -139t-142 -96t-178 -57t-204.5 -18
q-268 0 -400.5 107.5t-136.5 365.5h330q0 -100 57.5 -147.5t180.5 -47.5q133 0 213 52t80 149q0 54 -39.5 82t-135.5 51l-178 41q-87 20 -149.5 45t-117 65t-82.5 100.5t-28 141.5q0 191 129 314q-34 64 -34 153q0 148 81 254t214 156.5t301 50.5q243 0 382 -110t130 -318z
M797 596l-179 41q-22 5 -81 22q-60 -54 -60 -124q0 -77 117 -107l211 -49q48 -11 123 -35q41 44 41 119q0 52 -39.5 81t-132.5 52z" />
    <glyph glyph-name="dieresis" unicode="&#xa8;" horiz-adv-x="786" 
d="M145 1452h304l-33 -225h-305zM625 1452h305l-35 -225h-303z" />
    <glyph glyph-name="copyright" unicode="&#xa9;" horiz-adv-x="1599" 
d="M748 -14q-191 0 -344.5 84.5t-241.5 238.5t-88 348q0 164 64 311t172 251.5t254 165.5t304 61q192 0 345.5 -85t241 -238.5t87.5 -346.5q0 -163 -64.5 -310t-172 -252t-253.5 -166.5t-304 -61.5zM735 158q141 0 261.5 51.5t202 138.5t127.5 203.5t46 245.5
q0 211 -139.5 344t-353.5 133q-174 0 -318.5 -79t-229.5 -224t-85 -326q0 -215 137.5 -351t351.5 -136zM768 489q142 0 199 113h190q-30 -85 -78 -146.5t-103.5 -92t-107 -43.5t-104.5 -13q-147 0 -250.5 97t-103.5 264q0 189 131.5 322.5t318.5 133.5q45 0 87 -8.5t83 -30
t72.5 -53.5t53.5 -83t28 -115h-187q-14 108 -155 108q-114 0 -176 -80t-62 -192q0 -83 47.5 -132t116.5 -49z" />
    <glyph glyph-name="ordfeminine" unicode="&#xaa;" horiz-adv-x="784" 
d="M733 877q0 -69 23 -111h-152q-22 27 -28.5 52t-8.5 69q-97 -121 -231 -121q-91 0 -154 45t-63 141q0 118 69.5 168t227.5 68l172 18q11 57 -14.5 79t-88.5 22q-59 0 -89.5 -20t-35.5 -46h-172q54 225 308 225q151 0 216.5 -57.5t65.5 -173.5q0 -44 -22.5 -184.5
t-22.5 -173.5zM375 924q42 0 73 9t53 28.5t32.5 33.5t27.5 41l12 31l-159 -16q-53 -4 -79 -25.5t-26 -50.5q0 -51 66 -51z" />
    <glyph glyph-name="guillemotleft" unicode="&#xab;" horiz-adv-x="958" 
d="M467 735l-195 -139l152 -139l-41 -254l-307 286l37 244l399 287zM905 735l-194 -139l151 -139l-41 -254l-307 286l37 244l399 287z" />
    <glyph glyph-name="logicalnot" unicode="&#xac;" horiz-adv-x="1071" 
d="M80 639h588l-37 -229h-588zM668 639h299l-70 -434h-299z" />
    <glyph glyph-name="uni00AD" unicode="&#xad;" horiz-adv-x="925" 
d="M86 670h741l-34 -209h-742z" />
    <glyph glyph-name="registered" unicode="&#xae;" horiz-adv-x="1599" 
d="M748 -14q-191 0 -344.5 84.5t-241.5 238.5t-88 348q0 164 64 311t172 251.5t254 165.5t304 61q192 0 345.5 -85t241 -238.5t87.5 -346.5q0 -163 -64.5 -310t-172 -252t-253.5 -166.5t-304 -61.5zM735 158q141 0 261.5 51.5t202 138.5t127.5 203.5t46 245.5
q0 211 -139.5 344t-353.5 133q-174 0 -318.5 -79t-229.5 -224t-85 -326q0 -215 137.5 -351t351.5 -136zM1059 315h-174q-6 35 -2.5 76t10 93.5t6.5 58.5q0 45 -24.5 58t-73.5 13h-119l-47 -299h-170l127 803h297q119 0 180 -52t61 -148q0 -89 -44.5 -146.5t-157.5 -89.5
q74 -12 105.5 -44.5t31.5 -92.5q0 -22 -5 -60.5t-9 -69t-3 -59.5t11 -41zM807 750q74 0 117 43t43 104q0 40 -21 63t-61 23h-146l-34 -233h102z" />
    <glyph glyph-name="macron" unicode="&#xaf;" horiz-adv-x="741" 
d="M145 1452h742l-27 -174h-741z" />
    <glyph glyph-name="degree" unicode="&#xb0;" horiz-adv-x="798" 
d="M469 864q-122 0 -198 77.5t-76 195.5q0 140 98.5 240t238.5 100q123 0 200 -77.5t77 -195.5q0 -140 -99 -240t-241 -100zM483 1075q57 0 88 39t31 72q0 28 -20 54t-64 26q-57 0 -87 -39t-30 -72q0 -28 19 -54t63 -26z" />
    <glyph glyph-name="plusminus" unicode="&#xb1;" horiz-adv-x="1146" 
d="M770 924h377l-39 -258h-379l-59 -375h-275l60 375h-373l41 258h371l59 372h276zM82 -25l35 209h798l-34 -209h-799z" />
    <glyph glyph-name="uni00B2" unicode="&#xb2;" horiz-adv-x="532" 
d="M121 901q12 101 53 159.5t133 108.5q7 4 33.5 16.5t37.5 19.5t28.5 20t24.5 28t7 33q0 25 -18.5 39t-40.5 14q-31 0 -55.5 -18t-28.5 -55h-117q11 80 65.5 129t147.5 49q81 0 122.5 -39t41.5 -102q0 -25 -5.5 -46t-19 -39.5t-25 -31t-35.5 -28t-36.5 -23.5t-42.5 -23.5
t-41 -21.5q-38 -20 -60 -44.5t-24 -41.5h240l-14 -103h-371z" />
    <glyph glyph-name="uni00B3" unicode="&#xb3;" horiz-adv-x="555" 
d="M453 1184q38 -4 71 -30.5t33 -76.5q0 -78 -62 -131t-171 -53q-85 0 -132.5 51t-35.5 123h108q-4 -39 19 -56.5t57 -17.5q39 0 69.5 21t30.5 63q0 62 -92 62h-22l14 84h22q42 0 65.5 18.5t23.5 50.5q0 51 -66 51q-69 0 -80 -67h-106q14 80 67 124t140 44q72 0 114.5 -35
t42.5 -88q0 -55 -33 -91t-77 -46z" />
    <glyph glyph-name="acute" unicode="&#xb4;" horiz-adv-x="497" 
d="M104 1190h265l274 262h-416z" />
    <glyph glyph-name="uni00B5" unicode="&#xb5;" horiz-adv-x="1226" 
d="M889 1065h299l-168 -1065h-299l31 190q-21 -31 -52.5 -63t-76.5 -64.5t-106 -52.5t-126 -20q-55 0 -94 8l-61 -387h-299l122 774l7 43l102 637h299l-105 -662q-7 -87 30 -122t110 -35q93 0 178 69.5t111 130.5l-7 -45z" />
    <glyph glyph-name="paragraph" unicode="&#xb6;" horiz-adv-x="1429" 
d="M1448 1434l-25 -177h-4l-268 -1708h-242l269 1708h-193l-268 -1708h-266l165 1047h-88q-111 0 -197.5 37t-135.5 98.5t-68.5 139.5t-5.5 163q12 76 52.5 146.5t104.5 128t159 91.5t206 34h805z" />
    <glyph glyph-name="periodcentered" unicode="&#xb7;" horiz-adv-x="548" 
d="M106 750h332l-55 -338h-330z" />
    <glyph glyph-name="cedilla" unicode="&#xb8;" horiz-adv-x="454" 
d="M117 -123q85 0 145 -47t60 -133q0 -54 -22.5 -93t-58.5 -61.5t-92 -36t-112.5 -18t-130.5 -4.5v121q188 0 188 84q0 46 -45 55.5t-88 -31.5l-72 115l101 174h246z" />
    <glyph glyph-name="uni00B9" unicode="&#xb9;" horiz-adv-x="399" 
d="M420 1434l-84 -533h-115l72 399q-41 -54 -137 -45l16 107q40 -4 77.5 19.5t55.5 52.5h115z" />
    <glyph glyph-name="ordmasculine" unicode="&#xba;" horiz-adv-x="794" 
d="M506 1450q123 0 211 -81t88 -216q0 -161 -112.5 -276t-264.5 -115q-124 0 -211.5 80.5t-87.5 220.5q0 161 111.5 274t265.5 113zM618 1149q0 54 -31 87.5t-87 33.5q-81 0 -131 -61t-50 -136q0 -58 32.5 -92.5t88.5 -34.5q82 0 130 62t48 141z" />
    <glyph glyph-name="guillemotright" unicode="&#xbb;" horiz-adv-x="958" 
d="M78 487l194 140l-151 139l41 254l307 -287l-37 -244l-399 -286zM516 487l195 140l-152 139l41 254l307 -287l-37 -244l-399 -286z" />
    <glyph glyph-name="onequarter" unicode="&#xbc;" horiz-adv-x="1370" 
d="M176 0h-149l1118 1434h149zM420 1434l-84 -533h-115l72 399q-41 -54 -137 -45l16 107q40 -4 77.5 19.5t55.5 52.5h115zM1225 135h-62l-22 -135h-111l23 135h-240l12 88l291 312h111l-51 -312h61zM1065 223l29 185l-170 -185h141z" />
    <glyph glyph-name="onehalf" unicode="&#xbd;" horiz-adv-x="1347" 
d="M176 0h-149l1118 1434h149zM420 1434l-84 -533h-115l72 399q-41 -54 -137 -45l16 107q40 -4 77.5 19.5t55.5 52.5h115zM801 0q12 101 53 159.5t133 108.5q7 4 33.5 16.5t37.5 19.5t28.5 20t24.5 28t7 33q0 25 -18.5 39t-40.5 14q-31 0 -55.5 -18t-28.5 -55h-117
q11 80 65.5 129t147.5 49q81 0 122.5 -39.5t41.5 -102.5q0 -25 -5.5 -46t-19 -39.5t-25 -31t-35.5 -28t-36.5 -23.5t-42.5 -23.5t-41 -21.5q-38 -20 -60 -44.5t-24 -41.5h240l-15 -102h-370z" />
    <glyph glyph-name="threequarters" unicode="&#xbe;" horiz-adv-x="1466" 
d="M463 1184q38 -4 71 -30.5t33 -76.5q0 -78 -62 -131t-171 -53q-85 0 -132.5 51t-35.5 123h108q-4 -39 19 -56.5t57 -17.5q39 0 70 21t31 63q0 62 -93 62h-22l14 84h23q42 0 65 18t23 51q0 51 -66 51q-69 0 -80 -67h-106q14 80 67 124t140 44q72 0 114.5 -35t42.5 -88
q0 -55 -33 -91t-77 -46zM272 0h-149l1118 1434h150zM1321 135h-61l-23 -135h-111l23 135h-240l13 88l290 312h111l-51 -312h61zM1161 223l29 185l-170 -185h141z" />
    <glyph glyph-name="questiondown" unicode="&#xbf;" horiz-adv-x="1148" 
d="M709 727h-330l51 338h330zM389 -383q245 0 390.5 118.5t181.5 377.5h-291q-24 -116 -77.5 -178t-160.5 -62q-52 0 -86.5 15.5t-47 40t-17.5 54t2 58.5q6 34 28.5 63.5t54.5 53t70 48.5t77 57.5t73 71.5t60.5 98.5t37.5 131.5l4 33h-321l-5 -33q-10 -59 -33.5 -105.5
t-54.5 -77t-67 -57.5t-72 -55t-67.5 -60.5t-56 -83t-34.5 -114.5q-29 -189 84 -292t328 -103z" />
    <glyph glyph-name="Agrave" unicode="&#xc0;" horiz-adv-x="1490" 
d="M1010 1559h-269l-233 262h420zM1010 0l-49 268h-535l-133 -268h-336l770 1434h293l326 -1434h-336zM541 498h377l-103 549z" />
    <glyph glyph-name="Aacute" unicode="&#xc1;" horiz-adv-x="1490" 
d="M1290 1821l-274 -262h-264l122 262h416zM1010 0l-49 268h-535l-133 -268h-336l770 1434h293l326 -1434h-336zM541 498h377l-103 549z" />
    <glyph glyph-name="Acircumflex" unicode="&#xc2;" horiz-adv-x="1490" 
d="M893 1692l-211 -160h-240l187 289h553l94 -289h-227zM1010 0l-49 268h-535l-133 -268h-336l770 1434h293l326 -1434h-336zM541 498h377l-103 549z" />
    <glyph glyph-name="Atilde" unicode="&#xc3;" horiz-adv-x="1490" 
d="M655 1696q-34 0 -59.5 -18t-24.5 -46h-118q0 118 64.5 193.5t184.5 75.5q45 0 89.5 -16.5t80.5 -40t71 -47t76 -40t81 -16.5q33 0 59 17.5t25 43.5h116q0 -116 -64.5 -191t-184.5 -75q-45 0 -88.5 16.5t-79.5 40t-71 47t-76 40t-81 16.5zM1010 0l-49 268h-535l-133 -268
h-336l770 1434h293l326 -1434h-336zM541 498h377l-103 549z" />
    <glyph glyph-name="Adieresis" unicode="&#xc4;" horiz-adv-x="1490" 
d="M823 1821l-32 -226h-306l35 226h303zM1305 1821l-35 -226h-303l32 226h306zM1010 0l-49 268h-535l-133 -268h-336l770 1434h293l326 -1434h-336zM541 498h377l-103 549z" />
    <glyph glyph-name="Aring" unicode="&#xc5;" horiz-adv-x="1490" 
d="M899 1559q-83 0 -136.5 52.5t-53.5 131.5q0 88 66.5 154.5t156.5 66.5q77 0 129.5 -53.5t52.5 -132.5q0 -86 -66.5 -152.5t-148.5 -66.5zM920 1841q-35 0 -62 -27t-27 -61q0 -30 22 -51t56 -21q32 0 57 26.5t25 57.5q0 32 -20 54t-51 22zM1010 0l-49 268h-535l-133 -268
h-336l770 1434h293l326 -1434h-336zM541 498h377l-103 549z" />
    <glyph glyph-name="AE" unicode="&#xc6;" horiz-adv-x="2109" 
d="M2118 1163h-695l-47 -311h590l-41 -250h-590l-51 -332h713l-43 -270h-1026l41 264h-457l-223 -264h-332l1196 1419l2 15h1006zM715 506h293l67 430z" />
    <glyph glyph-name="Ccedilla" unicode="&#xc7;" horiz-adv-x="1380" 
d="M819 1182q-103 0 -187 -54.5t-135 -142.5t-78.5 -192t-27.5 -211q0 -160 71.5 -245t207.5 -85q117 0 191 50t122 157h303q-56 -205 -208 -325t-355 -146l-105 -111q85 0 145 -47t60 -133q0 -54 -22.5 -93t-58 -61.5t-92 -36t-112.5 -18t-130 -4.5v121q188 0 188 84
q0 46 -45 55.5t-88 -31.5l-72 115l94 166q-200 34 -312 176.5t-112 376.5q0 183 54.5 347t154 288t251.5 197t335 73q113 0 207.5 -30t164.5 -87.5t107 -149t31 -208.5h-305q-29 205 -242 205z" />
    <glyph glyph-name="Egrave" unicode="&#xc8;" horiz-adv-x="1200" 
d="M903 1559l-82 262h-420l234 -262h268zM1208 1163h-694l-47 -311h590l-41 -250h-590l-51 -332h712l-43 -270h-1026l228 1434h1005z" />
    <glyph glyph-name="Eacute" unicode="&#xc9;" horiz-adv-x="1200" 
d="M645 1559h264l275 262h-416zM1208 1163h-694l-47 -311h590l-41 -250h-590l-51 -332h712l-43 -270h-1026l228 1434h1005z" />
    <glyph glyph-name="Ecircumflex" unicode="&#xca;" horiz-adv-x="1200" 
d="M942 1532l-156 160l-211 -160h-239l186 289h553l94 -289h-227zM1208 1163h-694l-47 -311h590l-41 -250h-590l-51 -332h712l-43 -270h-1026l228 1434h1005z" />
    <glyph glyph-name="Edieresis" unicode="&#xcb;" horiz-adv-x="1200" 
d="M414 1821h303l-33 -226h-305zM893 1821h305l-35 -226h-303zM1208 1163h-694l-47 -311h590l-41 -250h-590l-51 -332h712l-43 -270h-1026l228 1434h1005z" />
    <glyph glyph-name="Igrave" unicode="&#xcc;" horiz-adv-x="550" 
d="M551 1559l-82 262h-420l234 -262h268zM334 0h-314l226 1434h313z" />
    <glyph glyph-name="Iacute" unicode="&#xcd;" horiz-adv-x="550" 
d="M293 1559h264l274 262h-415zM334 0h-314l226 1434h313z" />
    <glyph glyph-name="Icircumflex" unicode="&#xce;" horiz-adv-x="550" 
d="M590 1532l-156 160l-211 -160h-239l186 289h553l94 -289h-227zM334 0h-314l226 1434h313z" />
    <glyph glyph-name="Idieresis" unicode="&#xcf;" horiz-adv-x="550" 
d="M61 1821h304l-33 -226h-305zM541 1821h305l-35 -226h-303zM334 0h-314l226 1434h313z" />
    <glyph glyph-name="Eth" unicode="&#xd0;" horiz-adv-x="1472" 
d="M850 1434q283 0 433.5 -147.5t150.5 -432.5q0 -256 -90.5 -447.5t-270.5 -299t-430 -107.5h-555l94 600h-121l35 209h119l98 625h537zM643 285q122 0 216.5 44.5t151.5 123t86 180t29 221.5q0 158 -78.5 226.5t-250.5 68.5h-213l-54 -340h308l-35 -209h-307l-50 -315h197
z" />
    <glyph glyph-name="Ntilde" unicode="&#xd1;" horiz-adv-x="1445" 
d="M1190 1802h117q0 -116 -65 -191t-185 -75q-45 0 -88.5 16.5t-79 40t-70.5 47t-76 40t-81 16.5q-34 0 -59.5 -18t-24.5 -46h-119q0 118 65 193.5t185 75.5q55 0 110.5 -25t94.5 -55t91 -55t101 -25q33 0 59 17.5t25 43.5zM1456 1434l-227 -1434h-324l-422 913h-8
l-143 -913h-314l228 1434h311l432 -932h6l148 932h313z" />
    <glyph glyph-name="Ograve" unicode="&#xd2;" horiz-adv-x="1495" 
d="M1042 1559l-81 262h-420l233 -262h268zM874 1452q268 0 423 -150.5t155 -418.5q0 -147 -36.5 -282.5t-107.5 -247.5t-169 -195.5t-226.5 -129.5t-273.5 -46q-267 0 -421.5 150t-154.5 417q0 149 36 285t106 248t167 195t226 129t276 46zM680 250q85 0 158 34t125 92.5
t89 136t54.5 165t17.5 178.5q0 157 -75 242.5t-218 85.5q-107 0 -193.5 -52.5t-139.5 -139.5t-81 -194t-28 -223q0 -155 75.5 -240t215.5 -85z" />
    <glyph glyph-name="Oacute" unicode="&#xd3;" horiz-adv-x="1495" 
d="M784 1559h265l274 262h-416zM874 1452q268 0 423 -150.5t155 -418.5q0 -147 -36.5 -282.5t-107.5 -247.5t-169 -195.5t-226.5 -129.5t-273.5 -46q-267 0 -421.5 150t-154.5 417q0 149 36 285t106 248t167 195t226 129t276 46zM680 250q85 0 158 34t125 92.5t89 136
t54.5 165t17.5 178.5q0 157 -75 242.5t-218 85.5q-107 0 -193.5 -52.5t-139.5 -139.5t-81 -194t-28 -223q0 -155 75.5 -240t215.5 -85z" />
    <glyph glyph-name="Ocircumflex" unicode="&#xd4;" horiz-adv-x="1495" 
d="M1081 1532l-155 160l-211 -160h-240l187 289h552l95 -289h-228zM874 1452q268 0 423 -150.5t155 -418.5q0 -147 -36.5 -282.5t-107.5 -247.5t-169 -195.5t-226.5 -129.5t-273.5 -46q-267 0 -421.5 150t-154.5 417q0 149 36 285t106 248t167 195t226 129t276 46zM680 250
q85 0 158 34t125 92.5t89 136t54.5 165t17.5 178.5q0 157 -75 242.5t-218 85.5q-107 0 -193.5 -52.5t-139.5 -139.5t-81 -194t-28 -223q0 -155 75.5 -240t215.5 -85z" />
    <glyph glyph-name="Otilde" unicode="&#xd5;" horiz-adv-x="1495" 
d="M1217 1802h116q0 -116 -65 -191t-185 -75q-45 0 -88.5 16.5t-79 40t-70.5 47t-76 40t-81 16.5q-34 0 -59.5 -18t-24.5 -46h-119q0 118 65 193.5t185 75.5q45 0 89.5 -16.5t80.5 -40t71 -47t76 -40t81 -16.5q33 0 59 17.5t25 43.5zM874 1452q268 0 423 -150.5t155 -418.5
q0 -147 -36.5 -282.5t-107.5 -247.5t-169 -195.5t-226.5 -129.5t-273.5 -46q-267 0 -421.5 150t-154.5 417q0 149 36 285t106 248t167 195t226 129t276 46zM680 250q85 0 158 34t125 92.5t89 136t54.5 165t17.5 178.5q0 157 -75 242.5t-218 85.5q-107 0 -193.5 -52.5
t-139.5 -139.5t-81 -194t-28 -223q0 -155 75.5 -240t215.5 -85z" />
    <glyph glyph-name="Odieresis" unicode="&#xd6;" horiz-adv-x="1495" 
d="M553 1821h303l-33 -226h-305zM1032 1821h305l-34 -226h-304zM874 1452q268 0 423 -150.5t155 -418.5q0 -147 -36.5 -282.5t-107.5 -247.5t-169 -195.5t-226.5 -129.5t-273.5 -46q-267 0 -421.5 150t-154.5 417q0 149 36 285t106 248t167 195t226 129t276 46zM680 250
q85 0 158 34t125 92.5t89 136t54.5 165t17.5 178.5q0 157 -75 242.5t-218 85.5q-107 0 -193.5 -52.5t-139.5 -139.5t-81 -194t-28 -223q0 -155 75.5 -240t215.5 -85z" />
    <glyph glyph-name="multiply" unicode="&#xd7;" horiz-adv-x="1030" 
d="M1001 778l-303 -264l224 -262l-205 -182l-225 266l-304 -264l-170 192l308 266l-226 265l205 180l225 -264l304 262z" />
    <glyph glyph-name="Oslash" unicode="&#xd8;" horiz-adv-x="1495" 
d="M1452 1526l-147 -232q147 -150 147 -411q0 -147 -36.5 -282.5t-107.5 -247.5t-169 -195.5t-226.5 -129.5t-273.5 -46q-82 0 -160 16l-63 -100h-344l147 231q-156 153 -156 420q0 149 36 285t106 248t167 195t226 129t276 46q96 0 175 -18l59 92h344zM389 575
q0 -74 23 -145l477 750q-36 4 -58 4q-107 0 -193.5 -52.5t-139.5 -139.5t-81 -194t-28 -223zM1124 856q0 70 -16 129l-467 -733q12 -2 39 -2q85 0 158 34t125 92.5t89 136t54.5 165t17.5 178.5z" />
    <glyph glyph-name="Ugrave" unicode="&#xd9;" horiz-adv-x="1415" 
d="M1001 1559l-81 262h-420l233 -262h268zM1427 1434l-139 -873q-29 -181 -124 -311.5t-237 -196t-317 -65.5q-270 0 -408.5 151t-95.5 422l140 873h313l-137 -861q-24 -156 36.5 -235.5t192.5 -79.5q133 0 217.5 79t110.5 236l135 861h313z" />
    <glyph glyph-name="Uacute" unicode="&#xda;" horiz-adv-x="1415" 
d="M743 1559h265l274 262h-416zM1427 1434l-139 -873q-29 -181 -124 -311.5t-237 -196t-317 -65.5q-270 0 -408.5 151t-95.5 422l140 873h313l-137 -861q-24 -156 36.5 -235.5t192.5 -79.5q133 0 217.5 79t110.5 236l135 861h313z" />
    <glyph glyph-name="Ucircumflex" unicode="&#xdb;" horiz-adv-x="1415" 
d="M1040 1532l-155 160l-211 -160h-240l187 289h553l94 -289h-228zM1427 1434l-139 -873q-29 -181 -124 -311.5t-237 -196t-317 -65.5q-270 0 -408.5 151t-95.5 422l140 873h313l-137 -861q-24 -156 36.5 -235.5t192.5 -79.5q133 0 217.5 79t110.5 236l135 861h313z" />
    <glyph glyph-name="Udieresis" unicode="&#xdc;" horiz-adv-x="1415" 
d="M512 1821h303l-33 -226h-305zM991 1821h305l-34 -226h-304zM1427 1434l-139 -873q-29 -181 -124 -311.5t-237 -196t-317 -65.5q-270 0 -408.5 151t-95.5 422l140 873h313l-137 -861q-24 -156 36.5 -235.5t192.5 -79.5q133 0 217.5 79t110.5 236l135 861h313z" />
    <glyph glyph-name="Yacute" unicode="&#xdd;" horiz-adv-x="1476" 
d="M772 1559h264l275 262h-416zM905 526l-84 -526h-321l82 526l-398 908h353l229 -607l424 607h348z" />
    <glyph glyph-name="Thorn" unicode="&#xde;" horiz-adv-x="1357" 
d="M764 1157q263 0 406.5 -127t109.5 -328q-30 -199 -200 -308t-437 -109h-278l41 256h266q12 0 40 -0.5t41.5 -0.5t39 1.5t39 5t35 10t34 16.5t28.5 25t25.5 34.5t18.5 46.5t14 60q6 40 2 69.5t-17.5 46.5t-33.5 28t-45.5 14t-54 4.5t-59.5 -0.5h-36h-282l-142 -901h-299
l226 1434h299l-68 -430l25 153h262z" />
    <glyph glyph-name="germandbls" unicode="&#xdf;" horiz-adv-x="1298" 
d="M950 780q96 -6 171 -92t75 -209q0 -125 -45 -218t-129.5 -149.5t-197.5 -84t-257 -27.5h-80l41 256h68q70 0 124 11.5t98 38t67.5 75t23.5 117.5q0 38 -16 65.5t-39.5 43t-60 24.5t-69.5 11.5t-75 2.5h-61l37 225h47q105 0 169 52t64 131q0 125 -180 125
q-223 0 -260 -236l-148 -942h-299l152 958q78 476 563 476q471 0 471 -351q0 -111 -73.5 -203.5t-180.5 -99.5z" />
    <glyph glyph-name="agrave" unicode="&#xe0;" horiz-adv-x="1175" 
d="M797 1190h-269l-233 262h420zM985 252q-6 -42 10.5 -61t57.5 -21l-29 -164q-52 -14 -113 -14q-105 0 -166 46.5t-43 117.5l3 10q-41 -53 -72 -79q-117 -101 -279 -101q-72 0 -132.5 16t-109 49t-75.5 90t-27 133q0 85 30 149t87.5 104.5t129 63.5t165.5 34q13 1 57 6
t58 7t49.5 6.5t52 8t41.5 9t43.5 11.5t34.5 13q23 168 -144 168q-73 0 -120.5 -27t-71.5 -92h-281q39 172 155.5 256t336.5 84q256 0 350 -107t61 -331zM696 336l33 180q-92 -24 -260 -51q-80 -12 -120 -50t-40 -96q0 -118 135 -118q83 0 151.5 45.5t100.5 89.5z" />
    <glyph glyph-name="aacute" unicode="&#xe1;" horiz-adv-x="1175" 
d="M1077 1452l-274 -262h-264l123 262h415zM1044 637l-59 -385q-6 -42 10.5 -61t57.5 -21l-29 -164q-52 -14 -113 -14q-105 0 -166 46.5t-43 117.5l3 10q-41 -53 -72 -79q-117 -101 -279 -101q-72 0 -132.5 16t-109 49t-75.5 90t-27 133q0 85 30 149t87.5 104.5t129 63.5
t165.5 34q13 1 57 6t58 7t49.5 6.5t52 8t41.5 9t43.5 11.5t34.5 13q23 168 -144 168q-73 0 -120.5 -27t-71.5 -92h-281q39 172 155.5 256t336.5 84q256 0 350 -107t61 -331zM696 336l33 180q-92 -24 -260 -51q-80 -12 -120 -50t-40 -96q0 -118 135 -118q83 0 151.5 45.5
t100.5 89.5z" />
    <glyph glyph-name="acircumflex" unicode="&#xe2;" horiz-adv-x="1175" 
d="M680 1323l-211 -160h-240l187 289h553l94 -289h-227zM1044 637l-59 -385q-6 -42 10.5 -61t57.5 -21l-29 -164q-52 -14 -113 -14q-105 0 -166 46.5t-43 117.5l3 10q-41 -53 -72 -79q-117 -101 -279 -101q-72 0 -132.5 16t-109 49t-75.5 90t-27 133q0 85 30 149t87.5 104.5
t129 63.5t165.5 34q13 1 57 6t58 7t49.5 6.5t52 8t41.5 9t43.5 11.5t34.5 13q23 168 -144 168q-73 0 -120.5 -27t-71.5 -92h-281q39 172 155.5 256t336.5 84q256 0 350 -107t61 -331zM696 336l33 180q-92 -24 -260 -51q-80 -12 -120 -50t-40 -96q0 -118 135 -118
q83 0 151.5 45.5t100.5 89.5z" />
    <glyph glyph-name="atilde" unicode="&#xe3;" horiz-adv-x="1175" 
d="M442 1327q-34 0 -59.5 -17.5t-24.5 -45.5h-118q0 118 64.5 193t184.5 75q45 0 89.5 -16.5t80.5 -40t71 -47t76 -40t81 -16.5q33 0 59 18t25 44h116q0 -116 -64.5 -191.5t-184.5 -75.5q-45 0 -88.5 16.5t-79.5 40t-71 47t-76 40t-81 16.5zM1044 637l-59 -385
q-6 -42 10.5 -61t57.5 -21l-29 -164q-52 -14 -113 -14q-105 0 -166 46.5t-43 117.5l3 10q-41 -53 -72 -79q-117 -101 -279 -101q-72 0 -132.5 16t-109 49t-75.5 90t-27 133q0 85 30 149t87.5 104.5t129 63.5t165.5 34q13 1 57 6t58 7t49.5 6.5t52 8t41.5 9t43.5 11.5
t34.5 13q23 168 -144 168q-73 0 -120.5 -27t-71.5 -92h-281q39 172 155.5 256t336.5 84q256 0 350 -107t61 -331zM696 336l33 180q-92 -24 -260 -51q-80 -12 -120 -50t-40 -96q0 -118 135 -118q83 0 151.5 45.5t100.5 89.5z" />
    <glyph glyph-name="adieresis" unicode="&#xe4;" horiz-adv-x="1175" 
d="M610 1452l-32 -225h-306l35 225h303zM786 1452h306l-35 -225h-303zM1044 637l-59 -385q-6 -42 10.5 -61t57.5 -21l-29 -164q-52 -14 -113 -14q-105 0 -166 46.5t-43 117.5l3 10q-41 -53 -72 -79q-117 -101 -279 -101q-72 0 -132.5 16t-109 49t-75.5 90t-27 133
q0 85 30 149t87.5 104.5t129 63.5t165.5 34q13 1 57 6t58 7t49.5 6.5t52 8t41.5 9t43.5 11.5t34.5 13q23 168 -144 168q-73 0 -120.5 -27t-71.5 -92h-281q39 172 155.5 256t336.5 84q256 0 350 -107t61 -331zM696 336l33 180q-92 -24 -260 -51q-80 -12 -120 -50t-40 -96
q0 -118 135 -118q83 0 151.5 45.5t100.5 89.5z" />
    <glyph glyph-name="aring" unicode="&#xe5;" horiz-adv-x="1175" 
d="M686 1190q-83 0 -136.5 52.5t-53.5 131.5q0 88 66.5 154.5t156.5 66.5q77 0 129.5 -53.5t52.5 -132.5q0 -86 -66.5 -152.5t-148.5 -66.5zM707 1473q-35 0 -62 -27.5t-27 -61.5q0 -30 21.5 -50.5t56.5 -20.5q32 0 57 26.5t25 57.5q0 32 -20 54t-51 22zM985 252
q-6 -42 10.5 -61t57.5 -21l-29 -164q-52 -14 -113 -14q-105 0 -166 46.5t-43 117.5l3 10q-41 -53 -72 -79q-117 -101 -279 -101q-72 0 -132.5 16t-109 49t-75.5 90t-27 133q0 85 30 149t87.5 104.5t129 63.5t165.5 34q13 1 57 6t58 7t49.5 6.5t52 8t41.5 9t43.5 11.5
t34.5 13q23 168 -144 168q-73 0 -120.5 -27t-71.5 -92h-281q39 172 155.5 256t336.5 84q256 0 350 -107t61 -331zM696 336l33 180q-92 -24 -260 -51q-80 -12 -120 -50t-40 -96q0 -118 135 -118q83 0 151.5 45.5t100.5 89.5z" />
    <glyph glyph-name="ae" unicode="&#xe6;" horiz-adv-x="1847" 
d="M1749 434h-741v-2q0 -225 217 -225q132 0 198 88h277q-138 -309 -512 -309q-131 0 -244 57.5t-170 171.5q-172 -227 -418 -227q-154 0 -250 69.5t-96 214.5q0 90 30.5 155t89.5 104.5t128.5 61t165.5 34.5q30 4 97 11.5t98 12t72 14t67 21.5q16 162 -150 162
q-72 0 -117 -22t-67 -78h-281q38 167 153.5 247t336.5 80q255 0 354 -108q148 108 346 108q90 0 167.5 -25.5t140 -77t98 -139t35.5 -202.5q0 -39 -7.5 -101t-17.5 -96zM1311 854q-181 0 -260 -186q0 -11 -4 -31l-13 -21h459q6 24 6 60q0 78 -50.5 128t-137.5 50zM698 336
l29 162q-27 -9 -54.5 -15.5t-46 -10t-73 -12t-90.5 -14.5q-148 -24 -148 -133q0 -100 121 -100q87 0 158.5 42t103.5 81z" />
    <glyph glyph-name="ccedilla" unicode="&#xe7;" horiz-adv-x="1099" 
d="M506 227q158 0 219 144h274q-110 -333 -424 -379l-108 -115q85 0 145 -47t60 -133q0 -54 -22.5 -93t-58.5 -61.5t-92 -36t-112.5 -18t-130.5 -4.5v121q188 0 188 84q0 46 -45 55.5t-88 -31.5l-71 115l100 174h4q-137 34 -224 137t-87 275q0 187 74 337t211 237t313 87
q63 0 118 -10.5t109 -38t92.5 -70t64 -111t29.5 -157.5h-266q-5 73 -41.5 109.5t-120.5 36.5q-91 0 -159 -62.5t-100.5 -155t-32.5 -196.5q0 -91 48.5 -142t133.5 -51z" />
    <glyph glyph-name="egrave" unicode="&#xe8;" horiz-adv-x="1150" 
d="M805 1190h-268l-234 262h420zM1053 434h-742v-2q0 -225 217 -225q133 0 199 88h277q-138 -309 -512 -309q-68 0 -132.5 15.5t-124.5 50t-104.5 85t-71 125.5t-26.5 166q0 181 78 329t216.5 233t309.5 85q90 0 167.5 -25.5t139.5 -77t97.5 -139t35.5 -202.5q0 -40 -7 -102
t-17 -95zM614 854q-108 0 -177 -65.5t-101 -172.5h461q6 24 6 60q0 78 -51 128t-138 50z" />
    <glyph glyph-name="eacute" unicode="&#xe9;" horiz-adv-x="1150" 
d="M1085 1452l-274 -262h-264l123 262h415zM637 1075q90 0 167.5 -25.5t139.5 -77t97.5 -139t35.5 -202.5q0 -40 -7 -102t-17 -95h-742v-2q0 -225 217 -225q133 0 199 88h277q-138 -309 -512 -309q-68 0 -132.5 15.5t-124.5 50t-104.5 85t-71 125.5t-26.5 166q0 181 78 329
t216.5 233t309.5 85zM797 616q6 24 6 60q0 78 -51 128t-138 50q-108 0 -177 -65.5t-101 -172.5h461z" />
    <glyph glyph-name="ecircumflex" unicode="&#xea;" horiz-adv-x="1150" 
d="M688 1323l-211 -160h-239l186 289h553l94 -289h-227zM1053 434h-742v-2q0 -225 217 -225q133 0 199 88h277q-138 -309 -512 -309q-68 0 -132.5 15.5t-124.5 50t-104.5 85t-71 125.5t-26.5 166q0 181 78 329t216.5 233t309.5 85q90 0 167.5 -25.5t139.5 -77t97.5 -139
t35.5 -202.5q0 -40 -7 -102t-17 -95zM614 854q-108 0 -177 -65.5t-101 -172.5h461q6 24 6 60q0 78 -51 128t-138 50z" />
    <glyph glyph-name="edieresis" unicode="&#xeb;" horiz-adv-x="1150" 
d="M618 1452l-32 -225h-305l34 225h303zM1100 1452l-35 -225h-303l33 225h305zM637 1075q90 0 167.5 -25.5t139.5 -77t97.5 -139t35.5 -202.5q0 -40 -7 -102t-17 -95h-742v-2q0 -225 217 -225q133 0 199 88h277q-138 -309 -512 -309q-68 0 -132.5 15.5t-124.5 50t-104.5 85
t-71 125.5t-26.5 166q0 181 78 329t216.5 233t309.5 85zM797 616q6 24 6 60q0 78 -51 128t-138 50q-108 0 -177 -65.5t-101 -172.5h461z" />
    <glyph glyph-name="igrave" unicode="&#xec;" horiz-adv-x="497" 
d="M469 1190l-82 262h-420l234 -262h268zM176 1065h299l-168 -1065h-299z" />
    <glyph glyph-name="iacute" unicode="&#xed;" horiz-adv-x="497" 
d="M211 1190h264l275 262h-416zM176 1065h299l-168 -1065h-299z" />
    <glyph glyph-name="icircumflex" unicode="&#xee;" horiz-adv-x="497" 
d="M508 1163l-156 160l-211 -160h-239l186 289h553l94 -289h-227zM176 1065h299l-168 -1065h-299z" />
    <glyph glyph-name="idieresis" unicode="&#xef;" horiz-adv-x="497" 
d="M-20 1452h303l-33 -225h-305zM459 1452h305l-35 -225h-303zM176 1065h299l-168 -1065h-299z" />
    <glyph glyph-name="eth" unicode="&#xf0;" horiz-adv-x="1216" 
d="M1096 1194l-105 -12q65 -120 93 -219t28 -207q0 -170 -39.5 -311t-116.5 -245t-197.5 -162t-273.5 -58q-92 0 -172 27.5t-143.5 80.5t-100 139.5t-36.5 196.5q0 127 40 243t111.5 204.5t177.5 141t230 52.5q113 0 203 -53q-18 67 -50 139l-208 -25l20 134l123 14
q-51 80 -125 160h287l80 -129l194 22zM500 236q133 0 219 109.5t86 264.5q0 199 -180 199q-72 0 -130 -33.5t-93.5 -88.5t-54.5 -122.5t-19 -138.5q0 -96 48.5 -143t123.5 -47z" />
    <glyph glyph-name="ntilde" unicode="&#xf1;" horiz-adv-x="1224" 
d="M1020 1434h117q0 -116 -65 -191.5t-185 -75.5q-45 0 -88.5 16.5t-79 40t-70.5 47t-76 40t-81 16.5q-34 0 -59.5 -17.5t-24.5 -45.5h-119q0 118 65 193t185 75q55 0 110.5 -25t94.5 -55t91 -55t101 -25q33 0 59 18t25 44zM801 1075q177 0 265 -106t52 -336l-100 -633h-299
l102 633q18 101 -23 147.5t-124 46.5q-103 0 -180.5 -69.5t-96.5 -136.5l-100 -621h-299l168 1065h299l-35 -205q19 33 50 66.5t77 69t110 57.5t134 22z" />
    <glyph glyph-name="ograve" unicode="&#xf2;" 
d="M799 1190l-82 262h-420l233 -262h269zM645 1075q65 0 129 -15.5t124.5 -50.5t106 -86t73.5 -127.5t28 -168.5q0 -178 -75.5 -324t-215 -231.5t-315.5 -85.5q-66 0 -130 15t-125 49.5t-106.5 85.5t-73.5 129t-28 173q0 176 77 321.5t217 230.5t314 85zM819 608
q0 109 -55 167.5t-141 58.5q-93 0 -163.5 -60t-103 -146t-32.5 -179q0 -105 55 -163.5t141 -58.5q94 0 164.5 60t102.5 145t32 176z" />
    <glyph glyph-name="oacute" unicode="&#xf3;" 
d="M541 1190h264l274 262h-415zM645 1075q65 0 129 -15.5t124.5 -50.5t106 -86t73.5 -127.5t28 -168.5q0 -178 -75.5 -324t-215 -231.5t-315.5 -85.5q-66 0 -130 15t-125 49.5t-106.5 85.5t-73.5 129t-28 173q0 176 77 321.5t217 230.5t314 85zM819 608q0 109 -55 167.5
t-141 58.5q-93 0 -163.5 -60t-103 -146t-32.5 -179q0 -105 55 -163.5t141 -58.5q94 0 164.5 60t102.5 145t32 176z" />
    <glyph glyph-name="ocircumflex" unicode="&#xf4;" 
d="M838 1163l-156 160l-211 -160h-240l187 289h553l94 -289h-227zM645 1075q65 0 129 -15.5t124.5 -50.5t106 -86t73.5 -127.5t28 -168.5q0 -178 -75.5 -324t-215 -231.5t-315.5 -85.5q-66 0 -130 15t-125 49.5t-106.5 85.5t-73.5 129t-28 173q0 176 77 321.5t217 230.5
t314 85zM819 608q0 109 -55 167.5t-141 58.5q-93 0 -163.5 -60t-103 -146t-32.5 -179q0 -105 55 -163.5t141 -58.5q94 0 164.5 60t102.5 145t32 176z" />
    <glyph glyph-name="otilde" unicode="&#xf5;" 
d="M973 1434h117q0 -116 -65 -191.5t-185 -75.5q-45 0 -88.5 16.5t-79.5 40t-71 47t-76 40t-81 16.5q-34 0 -59.5 -17.5t-24.5 -45.5h-118q0 118 65 193t185 75q55 0 110.5 -25t94.5 -55t91 -55t101 -25q33 0 59 18t25 44zM645 1075q65 0 129 -15.5t124.5 -50.5t106 -86
t73.5 -127.5t28 -168.5q0 -178 -75.5 -324t-215 -231.5t-315.5 -85.5q-66 0 -130 15t-125 49.5t-106.5 85.5t-73.5 129t-28 173q0 176 77 321.5t217 230.5t314 85zM819 608q0 109 -55 167.5t-141 58.5q-93 0 -163.5 -60t-103 -146t-32.5 -179q0 -105 55 -163.5t141 -58.5
q94 0 164.5 60t102.5 145t32 176z" />
    <glyph glyph-name="odieresis" unicode="&#xf6;" 
d="M309 1452h303l-32 -225h-306zM788 1452h306l-35 -225h-303zM645 1075q65 0 129 -15.5t124.5 -50.5t106 -86t73.5 -127.5t28 -168.5q0 -178 -75.5 -324t-215 -231.5t-315.5 -85.5q-66 0 -130 15t-125 49.5t-106.5 85.5t-73.5 129t-28 173q0 176 77 321.5t217 230.5t314 85
zM819 608q0 109 -55 167.5t-141 58.5q-93 0 -163.5 -60t-103 -146t-32.5 -179q0 -105 55 -163.5t141 -58.5q94 0 164.5 60t102.5 145t32 176z" />
    <glyph glyph-name="divide" unicode="&#xf7;" horiz-adv-x="925" 
d="M524 786q-60 0 -95 43t-26 107q5 43 41.5 74.5t85.5 31.5q59 0 94 -42t25 -103q-5 -46 -41.5 -78.5t-83.5 -32.5zM86 670h801l-35 -209h-801zM414 88q-61 0 -96 43t-25 107q8 44 45 75t86 31q59 0 93.5 -42t25.5 -103q-8 -46 -45 -78.5t-84 -32.5z" />
    <glyph glyph-name="oslash" unicode="&#xf8;" 
d="M961 967q145 -121 145 -340q0 -178 -75.5 -324t-215 -231.5t-315.5 -85.5q-80 0 -150 20l-69 -108h-250l135 211q-129 119 -129 329q0 176 77 321.5t217 230.5t314 85q65 0 125 -14l78 123h250zM324 449q0 -30 8 -76l293 461h-2q-93 0 -163.5 -60t-103 -146t-32.5 -179z
M520 227q94 0 164.5 60t102.5 145t32 176q0 62 -18 109l-309 -488q8 -2 28 -2z" />
    <glyph glyph-name="ugrave" unicode="&#xf9;" horiz-adv-x="1228" 
d="M838 1190h-269l-233 262h420zM891 1065h299l-168 -1065h-299l31 190q-21 -32 -52.5 -63.5t-76.5 -64.5t-106 -53.5t-126 -20.5q-87 0 -152.5 23.5t-113.5 76t-61.5 136t2.5 204.5l102 637h299l-102 -635q-30 -186 137 -186q88 0 171 64t118 128z" />
    <glyph glyph-name="uacute" unicode="&#xfa;" horiz-adv-x="1228" 
d="M1118 1452l-274 -262h-264l122 262h416zM891 1065h299l-168 -1065h-299l31 190q-21 -32 -52.5 -63.5t-76.5 -64.5t-106 -53.5t-126 -20.5q-87 0 -152.5 23.5t-113.5 76t-61.5 136t2.5 204.5l102 637h299l-102 -635q-30 -186 137 -186q88 0 171 64t118 128z" />
    <glyph glyph-name="ucircumflex" unicode="&#xfb;" horiz-adv-x="1228" 
d="M721 1323l-211 -160h-240l187 289h553l94 -289h-227zM891 1065h299l-168 -1065h-299l31 190q-21 -32 -52.5 -63.5t-76.5 -64.5t-106 -53.5t-126 -20.5q-87 0 -152.5 23.5t-113.5 76t-61.5 136t2.5 204.5l102 637h299l-102 -635q-30 -186 137 -186q88 0 171 64t118 128z
" />
    <glyph glyph-name="udieresis" unicode="&#xfc;" horiz-adv-x="1228" 
d="M651 1452l-33 -225h-305l35 225h303zM1133 1452l-35 -225h-303l32 225h306zM891 1065h299l-168 -1065h-299l31 190q-21 -32 -52.5 -63.5t-76.5 -64.5t-106 -53.5t-126 -20.5q-87 0 -152.5 23.5t-113.5 76t-61.5 136t2.5 204.5l102 637h299l-102 -635q-30 -186 137 -186
q88 0 171 64t118 128z" />
    <glyph glyph-name="yacute" unicode="&#xfd;" horiz-adv-x="1173" 
d="M555 1190h264l275 262h-416zM897 1065h309l-624 -1096q-89 -156 -171 -239t-187 -115t-253 -14l39 247q68 -7 120.5 3t87.5 35.5t56 51.5t41 64q19 35 23 57t-4 64l-240 942h295l148 -686z" />
    <glyph glyph-name="thorn" unicode="&#xfe;" horiz-adv-x="1198" 
d="M745 1077q73 0 138.5 -25t120.5 -74.5t87.5 -135.5t32.5 -197q0 -126 -39 -246t-106.5 -212.5t-167.5 -148.5t-215 -56q-59 0 -108 14t-77 34.5t-47 43.5t-26 40t-6 25l-88 -528h-299l291 1823h299l-76 -488q88 131 286 131zM547 223q57 0 104 24.5t79.5 65.5t55 95.5
t33 113t10.5 119.5q0 99 -44.5 147t-122.5 48q-71 0 -128.5 -37.5t-92 -98.5t-52.5 -132t-18 -144q0 -101 46.5 -151t129.5 -50z" />
    <glyph glyph-name="ydieresis" unicode="&#xff;" horiz-adv-x="1173" 
d="M324 1452h303l-33 -225h-305zM803 1452h305l-35 -225h-303zM897 1065h309l-624 -1096q-89 -156 -171 -239t-187 -115t-253 -14l39 247q68 -7 120.5 3t87.5 35.5t56 51.5t41 64q19 35 23 57t-4 64l-240 942h295l148 -686z" />
    <glyph glyph-name="Amacron" unicode="&#x100;" horiz-adv-x="1490" 
d="M1313 1821l-27 -174h-741l26 174h742zM1010 0l-49 268h-535l-133 -268h-336l770 1434h293l326 -1434h-336zM541 498h377l-103 549z" />
    <glyph glyph-name="amacron" unicode="&#x101;" horiz-adv-x="1175" 
d="M358 1452h742l-27 -174h-741zM1044 637l-59 -385q-6 -42 10.5 -61t57.5 -21l-29 -164q-52 -14 -113 -14q-105 0 -166 46.5t-43 117.5l3 10q-41 -53 -72 -79q-117 -101 -279 -101q-72 0 -132.5 16t-109 49t-75.5 90t-27 133q0 85 30 149t87.5 104.5t129 63.5t165.5 34
q13 1 57 6t58 7t49.5 6.5t52 8t41.5 9t43.5 11.5t34.5 13q23 168 -144 168q-73 0 -120.5 -27t-71.5 -92h-281q39 172 155.5 256t336.5 84q256 0 350 -107t61 -331zM696 336l33 180q-92 -24 -260 -51q-80 -12 -120 -50t-40 -96q0 -118 135 -118q83 0 151.5 45.5t100.5 89.5z
" />
    <glyph glyph-name="Abreve" unicode="&#x102;" horiz-adv-x="1490" 
d="M883 1505q-169 0 -248 86t-55 230h188q-9 -63 26 -95t107 -32q159 0 184 127h195q-51 -316 -397 -316zM1010 0l-49 268h-535l-133 -268h-336l770 1434h293l326 -1434h-336zM541 498h377l-103 549z" />
    <glyph glyph-name="abreve" unicode="&#x103;" horiz-adv-x="1175" 
d="M670 1137q-169 0 -248 85.5t-55 229.5h188q-9 -63 26 -95t107 -32q159 0 184 127h195q-51 -315 -397 -315zM1044 637l-59 -385q-6 -42 10.5 -61t57.5 -21l-29 -164q-52 -14 -113 -14q-105 0 -166 46.5t-43 117.5l3 10q-41 -53 -72 -79q-117 -101 -279 -101
q-72 0 -132.5 16t-109 49t-75.5 90t-27 133q0 85 30 149t87.5 104.5t129 63.5t165.5 34q13 1 57 6t58 7t49.5 6.5t52 8t41.5 9t43.5 11.5t34.5 13q23 168 -144 168q-73 0 -120.5 -27t-71.5 -92h-281q39 172 155.5 256t336.5 84q256 0 350 -107t61 -331zM696 336l33 180
q-92 -24 -260 -51q-80 -12 -120 -50t-40 -96q0 -118 135 -118q83 0 151.5 45.5t100.5 89.5z" />
    <glyph glyph-name="Aogonek" unicode="&#x104;" horiz-adv-x="1490" 
d="M1241 0q-167 -43 -239.5 -107.5t-81.5 -132.5q-9 -50 34 -57.5t123 21.5l-4 -134q-47 -23 -108.5 -36t-123.5 -10t-112.5 21.5t-77.5 65t-16 113.5q13 71 76.5 129t142 89t156.5 38l-49 268h-535l-133 -268h-336l770 1434h293l326 -1434h-105zM541 498h377l-103 549z" />
    <glyph glyph-name="aogonek" unicode="&#x105;" horiz-adv-x="1159" 
d="M985 252q-6 -42 10.5 -61t57.5 -21l-29 -164l-8 -2h2q-277 -73 -277 -221q0 -59 49.5 -73t124.5 16v-125q-43 -23 -101 -37.5t-119.5 -14.5t-114 16t-86 58.5t-33.5 106.5q0 59 33 109.5t85 83.5t109.5 53.5t114.5 27.5h14q-65 19 -96.5 59t-18.5 93l3 10
q-41 -53 -72 -79q-117 -101 -279 -101q-72 0 -132.5 16t-109 49t-75.5 90t-27 133q0 85 30 149t87.5 104.5t129 63.5t165.5 34q13 1 57 6t58 7t49.5 6.5t52 8t41.5 9t43.5 11.5t34.5 13q23 168 -144 168q-73 0 -120.5 -27t-71.5 -92h-281q39 172 155.5 256t336.5 84
q256 0 350 -107t61 -331zM696 336l33 180q-92 -24 -260 -51q-80 -12 -120 -50t-40 -96q0 -118 135 -118q83 0 151.5 45.5t100.5 89.5z" />
    <glyph glyph-name="Cacute" unicode="&#x106;" horiz-adv-x="1380" 
d="M723 1559h264l275 262h-416zM670 252q117 0 191 50t122 157h303q-43 -156 -145 -265.5t-234.5 -160.5t-285.5 -51q-260 0 -410 146.5t-150 418.5q0 183 54.5 347t154 288t251.5 197t335 73q113 0 207.5 -30t164.5 -87.5t107 -149t31 -208.5h-305q-29 205 -242 205
q-103 0 -187 -54.5t-135 -142.5t-78.5 -192t-27.5 -211q0 -160 71.5 -245t207.5 -85z" />
    <glyph glyph-name="cacute" unicode="&#x107;" horiz-adv-x="1099" 
d="M498 1190h264l274 262h-415zM506 227q158 0 219 144h274q-126 -385 -520 -385q-67 0 -129.5 14.5t-121 47.5t-101.5 81.5t-68.5 121.5t-25.5 163q0 187 74 337t211 237t313 87q63 0 118 -10.5t109 -38t92.5 -70t64 -111t29.5 -157.5h-266q-5 73 -41.5 109.5t-120.5 36.5
q-91 0 -159 -62.5t-100.5 -155t-32.5 -196.5q0 -91 48.5 -142t133.5 -51z" />
    <glyph glyph-name="Cdotaccent" unicode="&#x10a;" horiz-adv-x="1380" 
d="M750 1821h303l-33 -226h-305zM670 252q117 0 191 50t122 157h303q-43 -156 -145 -265.5t-234.5 -160.5t-285.5 -51q-260 0 -410 146.5t-150 418.5q0 183 54.5 347t154 288t251.5 197t335 73q113 0 207.5 -30t164.5 -87.5t107 -149t31 -208.5h-305q-29 205 -242 205
q-103 0 -187 -54.5t-135 -142.5t-78.5 -192t-27.5 -211q0 -160 71.5 -245t207.5 -85z" />
    <glyph glyph-name="cdotaccent" unicode="&#x10b;" horiz-adv-x="1099" 
d="M524 1452h303l-32 -225h-306zM506 227q158 0 219 144h274q-126 -385 -520 -385q-67 0 -129.5 14.5t-121 47.5t-101.5 81.5t-68.5 121.5t-25.5 163q0 187 74 337t211 237t313 87q63 0 118 -10.5t109 -38t92.5 -70t64 -111t29.5 -157.5h-266q-5 73 -41.5 109.5t-120.5 36.5
q-91 0 -159 -62.5t-100.5 -155t-32.5 -196.5q0 -91 48.5 -142t133.5 -51z" />
    <glyph glyph-name="Ccaron" unicode="&#x10c;" horiz-adv-x="1380" 
d="M1067 1821h240l-185 -289h-553l-96 289h227l160 -160zM670 252q117 0 191 50t122 157h303q-43 -156 -145 -265.5t-234.5 -160.5t-285.5 -51q-260 0 -410 146.5t-150 418.5q0 183 54.5 347t154 288t251.5 197t335 73q113 0 207.5 -30t164.5 -87.5t107 -149t31 -208.5h-305
q-29 205 -242 205q-103 0 -187 -54.5t-135 -142.5t-78.5 -192t-27.5 -211q0 -160 71.5 -245t207.5 -85z" />
    <glyph glyph-name="ccaron" unicode="&#x10d;" horiz-adv-x="1099" 
d="M842 1452h239l-184 -289h-553l-96 289h227l160 -160zM506 227q158 0 219 144h274q-126 -385 -520 -385q-67 0 -129.5 14.5t-121 47.5t-101.5 81.5t-68.5 121.5t-25.5 163q0 187 74 337t211 237t313 87q63 0 118 -10.5t109 -38t92.5 -70t64 -111t29.5 -157.5h-266
q-5 73 -41.5 109.5t-120.5 36.5q-91 0 -159 -62.5t-100.5 -155t-32.5 -196.5q0 -91 48.5 -142t133.5 -51z" />
    <glyph glyph-name="Dcaron" unicode="&#x10e;" horiz-adv-x="1404" 
d="M1038 1821h240l-184 -289h-553l-97 289h228l159 -160zM782 1434q283 0 433.5 -147.5t150.5 -432.5q0 -256 -90.5 -447.5t-270.5 -299t-430 -107.5h-555l226 1434h536zM575 285q122 0 216.5 44.5t152 123t86.5 180t29 221.5q0 158 -79 226.5t-251 68.5h-213l-137 -864h196
z" />
    <glyph glyph-name="dcaron" unicode="&#x10f;" horiz-adv-x="1552" 
d="M578 1075q72 0 128.5 -22t84.5 -52.5t41.5 -57t11.5 -42.5l84 533h301l-228 -1434h-301l23 139q-16 -22 -29 -37t-40 -39t-55.5 -39t-72.5 -26.5t-94 -11.5q-59 0 -114.5 15.5t-107.5 50t-91 84.5t-62.5 125.5t-23.5 166.5q0 168 68 315t194.5 239.5t282.5 92.5z
M1219 1130h227l264 304h-338zM516 227q70 0 127.5 36.5t92.5 95t54 128.5t19 142q0 98 -47 151.5t-133 53.5q-94 0 -164.5 -56.5t-104.5 -145t-34 -194.5q0 -104 54.5 -157.5t135.5 -53.5z" />
    <glyph glyph-name="Dcroat" unicode="&#x110;" horiz-adv-x="1472" 
d="M850 1434q283 0 433.5 -147.5t150.5 -432.5q0 -256 -90.5 -447.5t-270.5 -299t-430 -107.5h-555l94 600h-121l35 209h119l98 625h537zM643 285q122 0 216.5 44.5t151.5 123t86 180t29 221.5q0 158 -78.5 226.5t-250.5 68.5h-213l-54 -340h308l-35 -209h-307l-50 -315h197
z" />
    <glyph glyph-name="dcroat" unicode="&#x111;" horiz-adv-x="1247" 
d="M1352 1321l-29 -174h-139l-183 -1147h-301l23 139q-16 -22 -29 -37t-40 -39t-55.5 -39t-72.5 -26.5t-94 -11.5q-59 0 -114.5 15.5t-107.5 50t-91 84.5t-62.5 125.5t-23.5 166.5q0 168 68 315t194.5 239.5t282.5 92.5q72 0 128.5 -22t84.5 -52.5t41.5 -57t11.5 -42.5
l39 246h-269l29 174h266l19 113h301l-19 -113h142zM516 227q70 0 127.5 36.5t92.5 95t54 128.5t19 142q0 98 -47 151.5t-133 53.5q-94 0 -164.5 -56.5t-104.5 -145t-34 -194.5q0 -104 54.5 -157.5t135.5 -53.5z" />
    <glyph glyph-name="Emacron" unicode="&#x112;" horiz-adv-x="1200" 
d="M465 1821h741l-26 -174h-742zM1208 1163h-694l-47 -311h590l-41 -250h-590l-51 -332h712l-43 -270h-1026l228 1434h1005z" />
    <glyph glyph-name="emacron" unicode="&#x113;" horiz-adv-x="1150" 
d="M367 1452h741l-27 -174h-741zM637 1075q90 0 167.5 -25.5t139.5 -77t97.5 -139t35.5 -202.5q0 -40 -7 -102t-17 -95h-742v-2q0 -225 217 -225q133 0 199 88h277q-138 -309 -512 -309q-68 0 -132.5 15.5t-124.5 50t-104.5 85t-71 125.5t-26.5 166q0 181 78 329t216.5 233
t309.5 85zM797 616q6 24 6 60q0 78 -51 128t-138 50q-108 0 -177 -65.5t-101 -172.5h461z" />
    <glyph glyph-name="Edotaccent" unicode="&#x116;" horiz-adv-x="1200" 
d="M672 1821h303l-33 -226h-305zM1208 1163h-694l-47 -311h590l-41 -250h-590l-51 -332h712l-43 -270h-1026l228 1434h1005z" />
    <glyph glyph-name="edotaccent" unicode="&#x117;" horiz-adv-x="1150" 
d="M877 1452l-33 -225h-305l34 225h304zM1053 434h-742v-2q0 -225 217 -225q133 0 199 88h277q-138 -309 -512 -309q-68 0 -132.5 15.5t-124.5 50t-104.5 85t-71 125.5t-26.5 166q0 181 78 329t216.5 233t309.5 85q90 0 167.5 -25.5t139.5 -77t97.5 -139t35.5 -202.5
q0 -40 -7 -102t-17 -95zM614 854q-108 0 -177 -65.5t-101 -172.5h461q6 24 6 60q0 78 -51 128t-138 50z" />
    <glyph glyph-name="Eogonek" unicode="&#x118;" horiz-adv-x="1210" 
d="M1208 1163h-694l-47 -311h590l-41 -250h-590l-51 -332h712l-43 -270h11q-288 -71 -320 -240q-9 -50 34.5 -57.5t123.5 21.5l-4 -134q-47 -23 -108.5 -36t-124 -10t-113 21.5t-77.5 65t-15 113.5q13 70 77.5 129t137 89t135.5 38h-783l228 1434h1005z" />
    <glyph glyph-name="eogonek" unicode="&#x119;" horiz-adv-x="1140" 
d="M631 1077q195 0 314.5 -111.5t119.5 -334.5q0 -76 -14 -150l-9 -45h-720v-4q0 -111 49.5 -160t146.5 -49q62 0 119.5 24.5t87.5 63.5h285q-61 -128 -144 -203t-194 -104q-166 -43 -239.5 -106.5t-80.5 -130.5q-6 -34 12.5 -48t54.5 -10.5t91 21.5l-4 -133
q-47 -23 -108.5 -36t-123.5 -10.5t-112.5 21.5t-77.5 65t-16 113q11 59 58.5 110.5t108.5 84t130 49.5q-67 15 -125 48t-105.5 84.5t-74.5 129t-27 172.5q0 182 76 330t213.5 233.5t308.5 85.5zM618 836q-96 0 -162 -53.5t-100 -145.5h424v6q0 103 -36.5 148t-125.5 45z" />
    <glyph glyph-name="Ecaron" unicode="&#x11a;" horiz-adv-x="1200" 
d="M989 1821h240l-185 -289h-552l-97 289h228l159 -160zM1208 1163h-694l-47 -311h590l-41 -250h-590l-51 -332h712l-43 -270h-1026l228 1434h1005z" />
    <glyph glyph-name="ecaron" unicode="&#x11b;" horiz-adv-x="1140" 
d="M930 1145h-551l-96 289h229l156 -160l211 160h237zM631 1077q195 0 314.5 -111.5t119.5 -334.5q0 -76 -14 -150l-9 -45h-720v-4q0 -111 49.5 -160t146.5 -49q62 0 119.5 24.5t87.5 63.5h285q-83 -176 -210.5 -252.5t-320.5 -76.5q-65 0 -127 15.5t-120.5 50t-102 85
t-70 127t-26.5 168.5q0 182 76 330t213.5 233.5t308.5 85.5zM618 836q-96 0 -162 -53.5t-100 -145.5h424v6q0 103 -36.5 148t-125.5 45z" />
    <glyph glyph-name="Gbreve" unicode="&#x11e;" horiz-adv-x="1421" 
d="M1081 1821h195q-51 -316 -397 -316q-169 0 -248.5 86t-55.5 230h189q-9 -63 26 -95t107 -32q159 0 184 127zM803 786h575l-14 -96q-60 -355 -233 -531.5t-494 -176.5q-270 0 -423 145t-153 414q0 184 54.5 348.5t154.5 290t252 199t334 73.5q113 0 207.5 -30t164.5 -87.5
t107 -149t31 -208.5h-305q-29 205 -242 205q-101 0 -184.5 -54t-135.5 -142t-80 -194.5t-28 -216.5q0 -157 73 -240t216 -83q156 0 250 68.5t131 222.5h-297z" />
    <glyph glyph-name="gbreve" unicode="&#x11f;" horiz-adv-x="1206" 
d="M930 1452h194q-51 -315 -397 -315q-169 0 -248 85.5t-55 229.5h188q-9 -63 26 -95t107 -32q160 0 185 127zM1167 1065l-161 -1034q-19 -119 -69 -208.5t-111.5 -140.5t-140.5 -82t-145 -41t-137 -10q-169 0 -280 69t-152 179l193 97q62 -101 242 -101q135 0 205 61.5
t98 200.5l14 84q-20 -27 -39 -47t-54.5 -47t-86 -42t-111.5 -15q-74 0 -143 25.5t-127.5 76t-93.5 138t-35 200.5q0 121 40.5 237.5t110.5 207.5t173.5 146.5t220.5 55.5q73 0 130 -22t85.5 -52.5t42.5 -57t12 -42.5l22 164h297zM516 229q70 0 127.5 37t92.5 96t54 129
t19 140q0 97 -46 150t-132 53q-94 0 -165.5 -61.5t-105.5 -151.5t-34 -187q0 -101 54.5 -153t135.5 -52z" />
    <glyph glyph-name="Gdotaccent" unicode="&#x120;" horiz-adv-x="1421" 
d="M774 1821h303l-33 -226h-305zM803 786h575l-14 -96q-60 -355 -233 -531.5t-494 -176.5q-270 0 -423 145t-153 414q0 184 54.5 348.5t154.5 290t252 199t334 73.5q113 0 207.5 -30t164.5 -87.5t107 -149t31 -208.5h-305q-29 205 -242 205q-101 0 -184.5 -54t-135.5 -142
t-80 -194.5t-28 -216.5q0 -157 73 -240t216 -83q156 0 250 68.5t131 222.5h-297z" />
    <glyph glyph-name="gdotaccent" unicode="&#x121;" horiz-adv-x="1206" 
d="M623 1452h303l-33 -225h-305zM1167 1065l-161 -1034q-19 -119 -69 -208.5t-111.5 -140.5t-140.5 -82t-145 -41t-137 -10q-169 0 -280 69t-152 179l193 97q62 -101 242 -101q135 0 205 61.5t98 200.5l14 84q-20 -27 -39 -47t-54.5 -47t-86 -42t-111.5 -15q-74 0 -143 25.5
t-127.5 76t-93.5 138t-35 200.5q0 121 40.5 237.5t110.5 207.5t173.5 146.5t220.5 55.5q73 0 130 -22t85.5 -52.5t42.5 -57t12 -42.5l22 164h297zM516 229q70 0 127.5 37t92.5 96t54 129t19 140q0 97 -46 150t-132 53q-94 0 -165.5 -61.5t-105.5 -151.5t-34 -187
q0 -101 54.5 -153t135.5 -52z" />
    <glyph glyph-name="Gcommaaccent" unicode="&#x122;" horiz-adv-x="1421" 
d="M803 786h575l-14 -96q-60 -355 -233 -531.5t-494 -176.5q-270 0 -423 145t-153 414q0 184 54.5 348.5t154.5 290t252 199t334 73.5q113 0 207.5 -30t164.5 -87.5t107 -149t31 -208.5h-305q-29 205 -242 205q-101 0 -184.5 -54t-135.5 -142t-80 -194.5t-28 -216.5
q0 -157 73 -240t216 -83q156 0 250 68.5t131 222.5h-297zM354 -784l17 92q65 13 103.5 63t49.5 121l11 66h-125l51 340h323l-49 -324q-14 -94 -44 -161.5t-65.5 -105t-85 -58.5t-91 -27t-95.5 -6z" />
    <glyph glyph-name="gcommaaccent" unicode="&#x123;" horiz-adv-x="1206" 
d="M827 1911l-16 -92q-65 -13 -104 -63.5t-50 -121.5l-10 -65h125l-51 -340h-324l49 323q14 94 44 161.5t65.5 105t85 59t91 27.5t95.5 6zM1167 1065l-161 -1034q-19 -119 -69 -208.5t-111.5 -140.5t-140.5 -82t-145 -41t-137 -10q-169 0 -280 69t-152 179l193 97
q62 -101 242 -101q135 0 205 61.5t98 200.5l14 84q-20 -27 -39 -47t-54.5 -47t-86 -42t-111.5 -15q-74 0 -143 25.5t-127.5 76t-93.5 138t-35 200.5q0 121 40.5 237.5t110.5 207.5t173.5 146.5t220.5 55.5q73 0 130 -22t85.5 -52.5t42.5 -57t12 -42.5l22 164h297zM516 229
q70 0 127.5 37t92.5 96t54 129t19 140q0 97 -46 150t-132 53q-94 0 -165.5 -61.5t-105.5 -151.5t-34 -187q0 -101 54.5 -153t135.5 -52z" />
    <glyph glyph-name="Hbar" unicode="&#x126;" horiz-adv-x="1411" 
d="M1108 1434h313l-227 -1434h-313l94 590h-549l-94 -590h-314l228 1434h313l-37 -238h549zM465 844h549l18 106h-549z" />
    <glyph glyph-name="hbar" unicode="&#x127;" horiz-adv-x="1333" 
d="M909 1075q85 0 149 -23t111 -74.5t60.5 -135.5t-2.5 -205l-101 -637h-299l103 637q16 99 -25 144.5t-123 45.5q-54 0 -104.5 -21.5t-84.5 -53.5t-56.5 -65.5t-30.5 -61.5l-100 -625h-300l173 1094h-160l26 163h158l29 177h299l-29 -177h166l-27 -163h-166l-36 -228
q19 32 50 64.5t77 67t109.5 56t133.5 21.5z" />
    <glyph glyph-name="Imacron" unicode="&#x12a;" horiz-adv-x="550" 
d="M113 1821h741l-27 -174h-741zM334 0h-314l226 1434h313z" />
    <glyph glyph-name="imacron" unicode="&#x12b;" horiz-adv-x="497" 
d="M31 1452h741l-27 -174h-741zM176 1065h299l-168 -1065h-299z" />
    <glyph glyph-name="Iogonek" unicode="&#x12e;" horiz-adv-x="604" 
d="M289 1434h323l-225 -1434h-92q-167 -43 -240 -107.5t-80 -132.5q-9 -50 34.5 -57.5t121.5 21.5l-2 -134q-47 -23 -108.5 -36t-123.5 -10t-112.5 21.5t-77.5 65t-16 113.5q12 71 75.5 129t141.5 89t155 38z" />
    <glyph glyph-name="iogonek" unicode="&#x12f;" horiz-adv-x="694" 
d="M430 1452h303l-37 -225h-303zM135 0l168 1065h299l-168 -1065h-67q-167 -43 -240 -107.5t-80 -132.5q-9 -50 34.5 -57.5t121.5 21.5l-2 -134q-47 -23 -108.5 -36t-124 -10t-113 21.5t-77.5 65t-16 113.5q12 71 75.5 129t142 89t155.5 38z" />
    <glyph glyph-name="Idotaccent" unicode="&#x130;" horiz-adv-x="550" 
d="M319 1821h304l-33 -226h-305zM334 0h-314l226 1434h313z" />
    <glyph glyph-name="dotlessi" unicode="&#x131;" horiz-adv-x="497" 
d="M176 1065h299l-168 -1065h-299z" />
    <glyph glyph-name="IJ" unicode="&#x132;" horiz-adv-x="1617" 
d="M334 0h-314l226 1434h313zM678 371q94 -113 242 -113q36 0 65 5.5t60 21.5t54 43t41.5 72t28.5 106l148 928h311l-149 -942q-19 -131 -72 -230t-130 -158.5t-169.5 -88.5t-198.5 -29q-290 0 -426 190z" />
    <glyph glyph-name="Kcommaaccent" unicode="&#x136;" horiz-adv-x="1449" 
d="M1487 1434l-653 -646l481 -788h-344l-348 578l-236 -232l-55 -346h-314l228 1434h313l-106 -674l680 674h354zM436 -432l58 354h370l-55 -344q-11 -67 -32 -121.5t-46.5 -90.5t-60 -63t-67 -41.5t-73 -23t-72 -10.5t-69.5 -2l-2 94q62 13 100.5 66t49.5 125l10 57h-111z
" />
    <glyph glyph-name="kcommaaccent" unicode="&#x137;" horiz-adv-x="1202" 
d="M1206 1065l-520 -463l408 -602h-320l-291 422l-125 -111l-49 -311h-299l226 1434h299l-119 -754l430 385h360zM305 -442l51 340h324l-49 -324q-14 -94 -44 -161.5t-65.5 -105t-85 -58.5t-91 -27t-95.5 -6l16 92q65 13 104 63t50 121l10 66h-125z" />
    <glyph glyph-name="Lacute" unicode="&#x139;" horiz-adv-x="1179" 
d="M276 1559h265l274 262h-416zM375 270h653l-43 -270h-967l228 1434h313z" />
    <glyph glyph-name="lacute" unicode="&#x13a;" horiz-adv-x="512" 
d="M254 1559h264l275 262h-416zM219 1434h299l-225 -1434h-299z" />
    <glyph glyph-name="Lcommaaccent" unicode="&#x13b;" horiz-adv-x="1179" 
d="M375 270h653l-43 -270h-967l228 1434h313zM236 -784l16 92q65 13 104 63t50 121l10 66h-125l51 340h324l-50 -324q-10 -68 -28.5 -122t-40.5 -91t-52 -64t-59 -42.5t-65.5 -24.5t-66.5 -11.5t-68 -2.5z" />
    <glyph glyph-name="lcommaaccent" unicode="&#x13c;" horiz-adv-x="593" 
d="M279 1434h299l-226 -1434h-299zM-98 -774l-2 94q62 13 99 65.5t50 125.5l10 57h-110l57 354h371l-55 -344q-11 -67 -32 -121.5t-46.5 -90.5t-60 -63t-67 -41.5t-73 -23t-72 -10.5t-69.5 -2z" />
    <glyph glyph-name="Lcaron" unicode="&#x13d;" horiz-adv-x="1179" 
d="M375 270h653l-43 -270h-967l228 1434h313zM643 737l-4 94q61 13 101 66.5t51 124.5l8 57h-111l55 355h371l-53 -344q-11 -67 -31.5 -121.5t-46.5 -91t-60 -63t-66.5 -41.5t-72.5 -23.5t-71.5 -10.5t-69.5 -2z" />
    <glyph glyph-name="lcaron" unicode="&#x13e;" horiz-adv-x="931" 
d="M236 1434h299l-226 -1434h-299zM565 737l-2 94q62 13 102 67t48 124l8 57h-111l58 355h370l-55 -344q-11 -67 -31.5 -121.5t-46.5 -91t-60 -63t-66.5 -41.5t-72.5 -23.5t-71.5 -10.5t-69.5 -2z" />
    <glyph glyph-name="Lslash" unicode="&#x141;" horiz-adv-x="1222" 
d="M418 270h653l-43 -270h-967l62 393l-150 -127l45 303l154 131l117 734h313l-67 -426l215 182h4l-41 -301l-228 -191z" />
    <glyph glyph-name="lslash" unicode="&#x142;" horiz-adv-x="622" 
d="M666 1157l-41 -287l-150 -135l-115 -735h-299l66 420l-125 -113l41 291l131 117l113 719h299l-64 -406z" />
    <glyph glyph-name="Nacute" unicode="&#x143;" horiz-adv-x="1445" 
d="M758 1559h264l274 262h-415zM1456 1434l-227 -1434h-324l-422 913h-8l-143 -913h-314l228 1434h311l432 -932h6l148 932h313z" />
    <glyph glyph-name="nacute" unicode="&#x144;" horiz-adv-x="1224" 
d="M588 1190h264l274 262h-415zM801 1075q177 0 265 -106t52 -336l-100 -633h-299l102 633q18 101 -23 147.5t-124 46.5q-103 0 -180.5 -69.5t-96.5 -136.5l-100 -621h-299l168 1065h299l-35 -205q19 33 50 66.5t77 69t110 57.5t134 22z" />
    <glyph glyph-name="Ncommaaccent" unicode="&#x145;" horiz-adv-x="1445" 
d="M1456 1434l-227 -1434h-324l-422 913h-8l-143 -913h-314l228 1434h311l432 -932h6l148 932h313zM365 -784l16 92q65 13 104 63t50 121l10 66h-125l51 340h324l-50 -324q-10 -68 -28.5 -122t-40.5 -91t-52 -64t-59 -42.5t-65.5 -24.5t-66.5 -11.5t-68 -2.5z" />
    <glyph glyph-name="ncommaaccent" unicode="&#x146;" horiz-adv-x="1224" 
d="M801 1075q177 0 265 -106t52 -336l-100 -633h-299l102 633q18 101 -23 147.5t-124 46.5q-103 0 -180.5 -69.5t-96.5 -136.5l-100 -621h-299l168 1065h299l-35 -205q19 33 50 66.5t77 69t110 57.5t134 22zM254 -784l16 92q65 13 104 63t50 121l10 66h-125l51 340h324
l-49 -324q-14 -94 -44 -161.5t-65.5 -105t-85 -58.5t-91 -27t-95.5 -6z" />
    <glyph glyph-name="Ncaron" unicode="&#x147;" horiz-adv-x="1445" 
d="M1102 1821h239l-184 -289h-553l-96 289h227l160 -160zM1456 1434l-227 -1434h-324l-422 913h-8l-143 -913h-314l228 1434h311l432 -932h6l148 932h313z" />
    <glyph glyph-name="ncaron" unicode="&#x148;" horiz-adv-x="1224" 
d="M932 1452h239l-184 -289h-553l-96 289h227l160 -160zM801 1075q177 0 265 -106t52 -336l-100 -633h-299l102 633q18 101 -23 147.5t-124 46.5q-103 0 -180.5 -69.5t-96.5 -136.5l-100 -621h-299l168 1065h299l-35 -205q19 33 50 66.5t77 69t110 57.5t134 22z" />
    <glyph glyph-name="Eng" unicode="&#x14a;" horiz-adv-x="1445" 
d="M1143 1434h313l-219 -1379q-21 -131 -73.5 -230t-129.5 -158.5t-168.5 -88.5t-197.5 -29q-292 0 -428 191l194 194q93 -112 242 -112q53 0 93.5 12t79.5 51t60 105l-426 923h-8l-143 -913h-314l228 1434h311l432 -932h8l76 495z" />
    <glyph glyph-name="eng" unicode="&#x14b;" horiz-adv-x="1224" 
d="M801 1079q177 0 265 -106t52 -336l-121 -768q-27 -163 -117.5 -241.5t-230.5 -78.5q-149 0 -235 52l43 241q52 -30 129 -30q63 0 89.5 39.5t41.5 130.5l104 655q18 101 -23 147.5t-124 46.5q-103 0 -180.5 -69.5t-96.5 -136.5l-100 -625h-299l168 1065h299l-35 -199
q20 32 50.5 65t76.5 68.5t110.5 57.5t133.5 22z" />
    <glyph glyph-name="Omacron" unicode="&#x14c;" horiz-adv-x="1495" 
d="M604 1821h742l-27 -174h-741zM874 1452q268 0 423 -150.5t155 -418.5q0 -147 -36.5 -282.5t-107.5 -247.5t-169 -195.5t-226.5 -129.5t-273.5 -46q-267 0 -421.5 150t-154.5 417q0 149 36 285t106 248t167 195t226 129t276 46zM680 250q85 0 158 34t125 92.5t89 136
t54.5 165t17.5 178.5q0 157 -75 242.5t-218 85.5q-107 0 -193.5 -52.5t-139.5 -139.5t-81 -194t-28 -223q0 -155 75.5 -240t215.5 -85z" />
    <glyph glyph-name="omacron" unicode="&#x14d;" 
d="M360 1452h742l-27 -174h-741zM645 1075q65 0 129 -15.5t124.5 -50.5t106 -86t73.5 -127.5t28 -168.5q0 -178 -75.5 -324t-215 -231.5t-315.5 -85.5q-66 0 -130 15t-125 49.5t-106.5 85.5t-73.5 129t-28 173q0 176 77 321.5t217 230.5t314 85zM819 608q0 109 -55 167.5
t-141 58.5q-93 0 -163.5 -60t-103 -146t-32.5 -179q0 -105 55 -163.5t141 -58.5q94 0 164.5 60t102.5 145t32 176z" />
    <glyph glyph-name="Ohungarumlaut" unicode="&#x150;" horiz-adv-x="1495" 
d="M639 1559h268l234 262h-420zM1067 1559h268l234 262h-420zM874 1452q268 0 423 -150.5t155 -418.5q0 -147 -36.5 -282.5t-107.5 -247.5t-169 -195.5t-226.5 -129.5t-273.5 -46q-267 0 -421.5 150t-154.5 417q0 149 36 285t106 248t167 195t226 129t276 46zM680 250
q85 0 158 34t125 92.5t89 136t54.5 165t17.5 178.5q0 157 -75 242.5t-218 85.5q-107 0 -193.5 -52.5t-139.5 -139.5t-81 -194t-28 -223q0 -155 75.5 -240t215.5 -85z" />
    <glyph glyph-name="ohungarumlaut" unicode="&#x151;" 
d="M395 1190h269l233 262h-420zM823 1190h269l233 262h-420zM645 1075q65 0 129 -15.5t124.5 -50.5t106 -86t73.5 -127.5t28 -168.5q0 -178 -75.5 -324t-215 -231.5t-315.5 -85.5q-66 0 -130 15t-125 49.5t-106.5 85.5t-73.5 129t-28 173q0 176 77 321.5t217 230.5t314 85z
M819 608q0 109 -55 167.5t-141 58.5q-93 0 -163.5 -60t-103 -146t-32.5 -179q0 -105 55 -163.5t141 -58.5q94 0 164.5 60t102.5 145t32 176z" />
    <glyph glyph-name="OE" unicode="&#x152;" horiz-adv-x="2191" 
d="M2200 1163h-695l-47 -311h590l-41 -250h-590l-51 -332h713l-43 -270h-1026l12 78q-175 -96 -383 -96q-267 0 -421.5 150t-154.5 417q0 149 36 285t106 248t167 195t226 129t276 46q208 0 351 -92l12 74h1006zM680 250q85 0 158 34t125 92.5t89 136t54.5 165t17.5 178.5
q0 157 -75 242.5t-218 85.5q-107 0 -193.5 -52.5t-139.5 -139.5t-81 -194t-28 -223q0 -155 75.5 -240t215.5 -85z" />
    <glyph glyph-name="oe" unicode="&#x153;" horiz-adv-x="1916" 
d="M1819 434h-738q-1 -2 -2 -6t-2 -6q6 -215 217 -215q133 0 199 88h276q-138 -309 -512 -309q-103 0 -198 37t-160 110q-163 -147 -399 -147q-66 0 -130 15t-125 49.5t-106.5 85.5t-73.5 129t-28 173q0 176 77 321.5t217 230.5t314 85q101 0 197 -38t162 -113
q167 151 399 151q90 0 167.5 -25.5t139.5 -77t97.5 -139t35.5 -202.5q0 -40 -7 -102t-17 -95zM1380 854q-106 0 -174 -62.5t-100 -164.5v-11h457q6 24 6 60q0 78 -51 128t-138 50zM520 227q106 0 177.5 69.5t103.5 178.5q3 66 18 127v6q0 109 -55 167.5t-141 58.5
q-93 0 -163.5 -60t-103 -146t-32.5 -179q0 -105 55 -163.5t141 -58.5z" />
    <glyph glyph-name="Racute" unicode="&#x154;" horiz-adv-x="1386" 
d="M1278 1821l-274 -262h-265l123 262h416zM1061 662q103 -44 143.5 -99.5t40.5 -140.5q0 -30 -17.5 -157.5t-17.5 -164.5q0 -56 17 -100h-312q-16 35 -16 104q0 43 15.5 149t15.5 124q0 65 -46.5 104t-127.5 39h-342l-82 -520h-314l228 1434h618q240 0 356.5 -96
t116.5 -259q0 -150 -66 -250.5t-210 -166.5zM754 766q126 0 191 66.5t65 179.5q0 151 -193 151h-303l-61 -397h301z" />
    <glyph glyph-name="racute" unicode="&#x155;" horiz-adv-x="851" 
d="M940 1452l-274 -262h-265l123 262h416zM424 809q40 122 129 194t221 72q56 0 105 -10l-43 -260q-37 2 -70 2q-165 0 -254.5 -71.5t-130.5 -207.5l6 43l-90 -571h-299l168 1065h299z" />
    <glyph glyph-name="Rcommaaccent" unicode="&#x156;" horiz-adv-x="1386" 
d="M1061 662q103 -44 143.5 -99.5t40.5 -140.5q0 -30 -17.5 -157.5t-17.5 -164.5q0 -56 17 -100h-312q-16 35 -16 104q0 43 15.5 149t15.5 124q0 65 -46.5 104t-127.5 39h-342l-82 -520h-314l228 1434h618q240 0 356.5 -96t116.5 -259q0 -150 -66 -250.5t-210 -166.5z
M754 766q126 0 191 66.5t65 179.5q0 151 -193 151h-303l-61 -397h301zM401 -442l52 340h323l-49 -324q-14 -94 -44 -161.5t-65.5 -105t-85 -58.5t-91 -27t-95.5 -6l16 92q65 13 104 63t50 121l10 66h-125z" />
    <glyph glyph-name="rcommaaccent" unicode="&#x157;" horiz-adv-x="851" 
d="M774 1075q56 0 105 -10l-43 -260q-37 2 -70 2q-165 0 -254.5 -71.5t-130.5 -207.5l6 43l-90 -571h-299l168 1065h299l-41 -256q40 122 129 194t221 72zM-82 -442l51 340h324l-49 -324q-14 -94 -44 -161.5t-65.5 -105t-85 -58.5t-91 -27t-95.5 -6l16 92q65 13 104 63
t50 121l10 66h-125z" />
    <glyph glyph-name="Rcaron" unicode="&#x158;" horiz-adv-x="1386" 
d="M1139 1532h-553l-97 289h228l160 -160l206 160h240zM1061 662q103 -44 143.5 -99.5t40.5 -140.5q0 -30 -17.5 -157.5t-17.5 -164.5q0 -56 17 -100h-312q-16 35 -16 104q0 43 15.5 149t15.5 124q0 65 -46.5 104t-127.5 39h-342l-82 -520h-314l228 1434h618
q240 0 356.5 -96t116.5 -259q0 -150 -66 -250.5t-210 -166.5zM754 766q126 0 191 66.5t65 179.5q0 151 -193 151h-303l-61 -397h301z" />
    <glyph glyph-name="rcaron" unicode="&#x159;" horiz-adv-x="851" 
d="M801 1163h-553l-96 289h227l160 -160l206 160h240zM424 809q40 122 129 194t221 72q56 0 105 -10l-43 -260q-37 2 -70 2q-165 0 -254.5 -71.5t-130.5 -207.5l6 43l-90 -571h-299l168 1065h299z" />
    <glyph glyph-name="Sacute" unicode="&#x15a;" horiz-adv-x="1349" 
d="M692 1559h264l275 262h-416zM846 834q207 -41 301 -126t94 -243q0 -156 -82 -266t-223 -163.5t-328 -53.5q-171 0 -298 55.5t-194.5 167t-54.5 264.5h326q4 -231 246 -231q132 0 203 53t71 147q0 61 -42 99t-134 55l-182 35q-111 22 -190.5 64t-129 118t-49.5 180
q0 147 78 253t212 158t310 52q256 0 392.5 -112.5t119.5 -327.5h-323q3 92 -51 137t-162 45q-112 0 -180 -47t-68 -131q0 -51 32.5 -91.5t108.5 -54.5z" />
    <glyph glyph-name="sacute" unicode="&#x15b;" horiz-adv-x="1052" 
d="M489 1190h265l274 262h-416zM719 737q-11 117 -166 117q-74 0 -124 -31.5t-50 -87.5q0 -68 92 -92l174 -41q46 -11 69 -17.5t60 -19t56 -23.5t43.5 -29.5t36 -40t20 -51t8.5 -65.5q0 -177 -140 -273.5t-372 -96.5q-213 0 -324 88.5t-108 261.5h270q17 -131 185 -131
q86 0 137 36t51 89q0 35 -20 55.5t-72 32.5l-160 37q-155 36 -225 104.5t-70 173.5q0 156 133.5 249t343.5 93t311 -90.5t103 -247.5h-262z" />
    <glyph glyph-name="Scedilla" unicode="&#x15e;" horiz-adv-x="1349" 
d="M1292 1012h-323q3 92 -51 137t-162 45q-112 0 -180 -47t-68 -131q0 -51 32.5 -91.5t108.5 -54.5l197 -36q207 -41 301 -126t94 -243q0 -211 -142.5 -334t-385.5 -145l-105 -109q85 0 145 -47t60 -133q0 -54 -22.5 -93t-58.5 -61.5t-92 -36t-112.5 -18t-130.5 -4.5v121
q189 0 189 84q0 46 -45 55.5t-88 -31.5l-72 115l94 164q-204 32 -317.5 156t-96.5 321h326q4 -231 246 -231q132 0 203 53t71 147q0 61 -42 99t-134 55l-182 35q-111 22 -190.5 64t-129 118t-49.5 180q0 147 78 253t212 158t310 52q256 0 392.5 -112.5t119.5 -327.5z" />
    <glyph glyph-name="scedilla" unicode="&#x15f;" horiz-adv-x="1052" 
d="M645 602q46 -11 69 -17.5t60 -19t56 -23.5t43.5 -29.5t36 -40t20 -51t8.5 -65.5q0 -150 -102.5 -243.5t-280.5 -118.5l-111 -117q85 0 145 -47t60 -133q0 -54 -22.5 -93t-58.5 -61.5t-92 -36t-112.5 -18t-130.5 -4.5v121q189 0 189 84q0 46 -45 55.5t-88 -31.5l-72 115
l94 166q-157 22 -238.5 107.5t-78.5 234.5h270q17 -131 185 -131q86 0 137 36t51 89q0 35 -20 55.5t-72 32.5l-160 37q-155 36 -225 104.5t-70 173.5q0 156 133.5 249t343.5 93t311 -90.5t103 -247.5h-262q-11 117 -166 117q-74 0 -124 -31.5t-50 -87.5q0 -68 92 -92z" />
    <glyph glyph-name="Scaron" unicode="&#x160;" horiz-adv-x="1349" 
d="M1036 1821h240l-184 -289h-553l-97 289h228l159 -160zM846 834q207 -41 301 -126t94 -243q0 -156 -82 -266t-223 -163.5t-328 -53.5q-171 0 -298 55.5t-194.5 167t-54.5 264.5h326q4 -231 246 -231q132 0 203 53t71 147q0 61 -42 99t-134 55l-182 35q-111 22 -190.5 64
t-129 118t-49.5 180q0 147 78 253t212 158t310 52q256 0 392.5 -112.5t119.5 -327.5h-323q3 92 -51 137t-162 45q-112 0 -180 -47t-68 -131q0 -51 32.5 -91.5t108.5 -54.5z" />
    <glyph glyph-name="scaron" unicode="&#x161;" horiz-adv-x="1052" 
d="M834 1452h239l-184 -289h-553l-96 289h227l160 -160zM719 737q-11 117 -166 117q-74 0 -124 -31.5t-50 -87.5q0 -68 92 -92l174 -41q46 -11 69 -17.5t60 -19t56 -23.5t43.5 -29.5t36 -40t20 -51t8.5 -65.5q0 -177 -140 -273.5t-372 -96.5q-213 0 -324 88.5t-108 261.5
h270q17 -131 185 -131q86 0 137 36t51 89q0 35 -20 55.5t-72 32.5l-160 37q-155 36 -225 104.5t-70 173.5q0 156 133.5 249t343.5 93t311 -90.5t103 -247.5h-262z" />
    <glyph glyph-name="uni0162" unicode="&#x162;" horiz-adv-x="1251" 
d="M184 1434h1139l-43 -271h-414l-182 -1163h10l-159 -121q83 -12 132 -64t33 -141q-8 -42 -27 -74t-51 -52.5t-68 -34t-86.5 -20t-97.5 -9t-110 -2.5l4 121q194 0 211 104q5 32 -27 37q-44 8 -94 -37l-63 119l90 174h-10l182 1163h-412z" />
    <glyph glyph-name="uni0163" unicode="&#x163;" horiz-adv-x="796" 
d="M535 831l-80 -497q-8 -53 8 -77t67 -24q67 0 140 17l-37 -234q-43 -18 -105 -24l-108 -115q85 0 145 -47t60 -133q0 -54 -22.5 -93t-58.5 -61.5t-92 -36t-112.5 -18t-130.5 -4.5v121q188 0 188 84q0 46 -45 55.5t-88 -31.5l-71 115l100 174h6q-185 56 -141 340l78 489
h-166l34 234h168l43 266h301l-43 -266h213l-38 -234h-213z" />
    <glyph glyph-name="Tcaron" unicode="&#x164;" horiz-adv-x="1251" 
d="M985 1821h240l-185 -289h-553l-96 289h227l160 -160zM1323 1434l-43 -271h-414l-182 -1163h-313l182 1163h-412l43 271h1139z" />
    <glyph glyph-name="tcaron" unicode="&#x165;" horiz-adv-x="790" 
d="M801 1434h356l-280 -304h-232zM616 1331l-43 -266h213l-38 -234h-213l-80 -497q-8 -53 8 -77t67 -24q67 0 140 17l-37 -234q-73 -30 -201 -30q-41 0 -75 4.5t-67 15t-56.5 28.5t-44 45t-29 64.5t-11.5 86.5t9 112l78 489h-166l34 234h168l43 266h301z" />
    <glyph glyph-name="Tbar" unicode="&#x166;" horiz-adv-x="1251" 
d="M1280 1163h-414l-24 -157h219l-27 -172h-219l-131 -834h-313l131 834h-217l26 172h217l25 157h-412l43 271h1139z" />
    <glyph glyph-name="tbar" unicode="&#x167;" horiz-adv-x="798" 
d="M752 831h-213l-15 -96h211l-39 -233h-211l-26 -168q-8 -53 8.5 -77t67.5 -24q66 0 139 17l-37 -234q-73 -30 -201 -30q-41 0 -75 4.5t-67 15t-56.5 28.5t-44 45t-29 64.5t-11.5 86.5t9 112l24 160h-168l35 233h172l15 96h-166l35 234h167l43 266h302l-43 -266h213z" />
    <glyph glyph-name="Utilde" unicode="&#x168;" horiz-adv-x="1415" 
d="M1176 1802h116q0 -116 -65 -191t-185 -75q-45 0 -88.5 16.5t-79 40t-70.5 47t-76 40t-81 16.5q-34 0 -59.5 -18t-24.5 -46h-119q0 118 65 193.5t185 75.5q45 0 89.5 -16.5t80.5 -40t71 -47t76 -40t81 -16.5q33 0 59 17.5t25 43.5zM1427 1434l-139 -873
q-29 -181 -124 -311.5t-237 -196t-317 -65.5q-270 0 -408.5 151t-95.5 422l140 873h313l-137 -861q-24 -156 36.5 -235.5t192.5 -79.5q133 0 217.5 79t110.5 236l135 861h313z" />
    <glyph glyph-name="utilde" unicode="&#x169;" horiz-adv-x="1228" 
d="M483 1327q-34 0 -59.5 -17.5t-24.5 -45.5h-118q0 118 64.5 193t184.5 75q45 0 89.5 -16.5t80.5 -40t71 -47t76 -40t81 -16.5q33 0 59 18t25 44h116q0 -116 -64.5 -191.5t-184.5 -75.5q-45 0 -88.5 16.5t-79.5 40t-71 47t-76 40t-81 16.5zM891 1065h299l-168 -1065h-299
l31 190q-21 -32 -52.5 -63.5t-76.5 -64.5t-106 -53.5t-126 -20.5q-87 0 -152.5 23.5t-113.5 76t-61.5 136t2.5 204.5l102 637h299l-102 -635q-30 -186 137 -186q88 0 171 64t118 128z" />
    <glyph glyph-name="Umacron" unicode="&#x16a;" horiz-adv-x="1415" 
d="M563 1821h742l-27 -174h-741zM1427 1434l-139 -873q-29 -181 -124 -311.5t-237 -196t-317 -65.5q-270 0 -408.5 151t-95.5 422l140 873h313l-137 -861q-24 -156 36.5 -235.5t192.5 -79.5q133 0 217.5 79t110.5 236l135 861h313z" />
    <glyph glyph-name="umacron" unicode="&#x16b;" horiz-adv-x="1228" 
d="M1141 1452l-27 -174h-741l26 174h742zM891 1065h299l-168 -1065h-299l31 190q-21 -32 -52.5 -63.5t-76.5 -64.5t-106 -53.5t-126 -20.5q-87 0 -152.5 23.5t-113.5 76t-61.5 136t2.5 204.5l102 637h299l-102 -635q-30 -186 137 -186q88 0 171 64t118 128z" />
    <glyph glyph-name="Ubreve" unicode="&#x16c;" horiz-adv-x="1415" 
d="M1077 1821h195q-51 -316 -398 -316q-169 0 -248 86t-55 230h189q-9 -63 26 -95t107 -32q159 0 184 127zM1427 1434l-139 -873q-29 -181 -124 -311.5t-237 -196t-317 -65.5q-270 0 -408.5 151t-95.5 422l140 873h313l-137 -861q-24 -156 36.5 -235.5t192.5 -79.5
q133 0 217.5 79t110.5 236l135 861h313z" />
    <glyph glyph-name="ubreve" unicode="&#x16d;" horiz-adv-x="1228" 
d="M711 1137q-169 0 -248 85.5t-55 229.5h188q-9 -63 26 -95t107 -32q159 0 184 127h195q-51 -315 -397 -315zM891 1065h299l-168 -1065h-299l31 190q-21 -32 -52.5 -63.5t-76.5 -64.5t-106 -53.5t-126 -20.5q-87 0 -152.5 23.5t-113.5 76t-61.5 136t2.5 204.5l102 637h299
l-102 -635q-30 -186 137 -186q88 0 171 64t118 128z" />
    <glyph glyph-name="Uring" unicode="&#x16e;" horiz-adv-x="1415" 
d="M891 1559q-83 0 -137 52.5t-54 131.5q0 88 67 154.5t157 66.5q77 0 129.5 -53.5t52.5 -132.5q0 -86 -66.5 -152.5t-148.5 -66.5zM901 1681q32 0 57 26.5t25 57.5q0 32 -20.5 54t-51.5 22q-35 0 -61.5 -27t-26.5 -61q0 -30 22 -51t56 -21zM1427 1434l-139 -873
q-29 -181 -124 -311.5t-237 -196t-317 -65.5q-270 0 -408.5 151t-95.5 422l140 873h313l-137 -861q-24 -156 36.5 -235.5t192.5 -79.5q133 0 217.5 79t110.5 236l135 861h313z" />
    <glyph glyph-name="uring" unicode="&#x16f;" horiz-adv-x="1228" 
d="M727 1190q-83 0 -136.5 52.5t-53.5 131.5q0 88 66.5 154.5t156.5 66.5q77 0 129.5 -53.5t52.5 -132.5q0 -86 -66.5 -152.5t-148.5 -66.5zM748 1473q-35 0 -62 -27.5t-27 -61.5q0 -30 21.5 -50.5t56.5 -20.5q32 0 57 26.5t25 57.5q0 32 -20 54t-51 22zM891 1065h299
l-168 -1065h-299l31 190q-21 -32 -52.5 -63.5t-76.5 -64.5t-106 -53.5t-126 -20.5q-87 0 -152.5 23.5t-113.5 76t-61.5 136t2.5 204.5l102 637h299l-102 -635q-30 -186 137 -186q88 0 171 64t118 128z" />
    <glyph glyph-name="Uhungarumlaut" unicode="&#x170;" horiz-adv-x="1415" 
d="M598 1559h268l234 262h-420zM1026 1559h268l234 262h-420zM1427 1434l-139 -873q-29 -181 -124 -311.5t-237 -196t-317 -65.5q-270 0 -408.5 151t-95.5 422l140 873h313l-137 -861q-24 -156 36.5 -235.5t192.5 -79.5q133 0 217.5 79t110.5 236l135 861h313z" />
    <glyph glyph-name="uhungarumlaut" unicode="&#x171;" horiz-adv-x="1228" 
d="M936 1452l-234 -262h-268l82 262h420zM1130 1190h-268l82 262h420zM793 436l98 629h299l-168 -1065h-299l31 190q-21 -32 -52.5 -63.5t-76.5 -64.5t-106 -53.5t-126 -20.5q-87 0 -152.5 23.5t-113.5 76t-61.5 136t2.5 204.5l102 637h299l-102 -635q-30 -186 137 -186
q88 0 171 64t118 128z" />
    <glyph glyph-name="Uogonek" unicode="&#x172;" horiz-adv-x="1415" 
d="M1114 1434h313l-139 -873q-38 -235 -183 -381t-362 -182h21q-167 -43 -240 -107t-80 -131q-9 -50 34.5 -57.5t121.5 21.5l-2 -134q-47 -23 -108.5 -36t-123.5 -10t-112.5 21.5t-77.5 65t-16 113.5q11 64 65.5 118.5t123.5 87t143 46.5q-215 33 -320 179.5t-66 385.5
l140 873h313l-137 -861q-24 -156 36.5 -235.5t192.5 -79.5q133 0 217.5 79t110.5 236z" />
    <glyph glyph-name="uogonek" unicode="&#x173;" horiz-adv-x="1228" 
d="M1190 1065l-168 -1065h-191l115 -2q-167 -43 -239.5 -106.5t-81.5 -131.5q-9 -50 35 -57.5t122 21.5l-4 -134q-46 -23 -107.5 -36t-123.5 -10t-112.5 21.5t-77.5 65t-15 113.5q12 71 75 129.5t141.5 90t156.5 38.5h8l31 188q-21 -31 -52.5 -63t-76.5 -64.5t-106 -52.5
t-126 -20q-69 0 -125 14.5t-101.5 47t-71 83.5t-35 124t7.5 169l102 637h299l-102 -635q-16 -102 21.5 -143t115.5 -41q49 0 99 22t87 54.5t63.5 65t37.5 58.5l-15 -110l115 729h299z" />
    <glyph glyph-name="Wcircumflex" unicode="&#x174;" horiz-adv-x="2140" 
d="M1372 1532l-155 160l-211 -160h-240l186 289h553l94 -289h-227zM1864 1434h338l-637 -1434h-289l-158 954l-461 -954h-286l-187 1434h324l90 -959l436 959h303l131 -959z" />
    <glyph glyph-name="wcircumflex" unicode="&#x175;" horiz-adv-x="1658" 
d="M1096 1163l-156 160l-211 -160h-240l187 289h553l94 -289h-227zM1692 1065l-469 -1065h-256l-131 711l-347 -711h-262l-133 1065h295l57 -686l326 686h234l104 -686l274 686h308z" />
    <glyph glyph-name="Ycircumflex" unicode="&#x176;" horiz-adv-x="1476" 
d="M1069 1532l-156 160l-211 -160h-239l186 289h553l94 -289h-227zM905 526l-84 -526h-321l82 526l-398 908h353l229 -607l424 607h348z" />
    <glyph glyph-name="ycircumflex" unicode="&#x177;" horiz-adv-x="1173" 
d="M852 1163l-156 160l-211 -160h-239l186 289h553l94 -289h-227zM897 1065h309l-624 -1096q-89 -156 -171 -239t-187 -115t-253 -14l39 247q68 -7 120.5 3t87.5 35.5t56 51.5t41 64q19 35 23 57t-4 64l-240 942h295l148 -686z" />
    <glyph glyph-name="Ydieresis" unicode="&#x178;" horiz-adv-x="1476" 
d="M541 1821h303l-33 -226h-305zM1020 1821h305l-35 -226h-303zM905 526l-84 -526h-321l82 526l-398 908h353l229 -607l424 607h348z" />
    <glyph glyph-name="Zacute" unicode="&#x179;" horiz-adv-x="1253" 
d="M647 1559h264l275 262h-416zM1130 270l-43 -270h-1110l37 238l879 925h-723l43 271h1094l-35 -238l-885 -926h743z" />
    <glyph glyph-name="zacute" unicode="&#x17a;" horiz-adv-x="1030" 
d="M453 1190h264l274 262h-416zM360 250h529l-37 -250h-879l35 250l621 565h-508l41 250h858l-39 -250z" />
    <glyph glyph-name="Zdotaccent" unicode="&#x17b;" horiz-adv-x="1253" 
d="M674 1821h303l-33 -226h-305zM1130 270l-43 -270h-1110l37 238l879 925h-723l43 271h1094l-35 -238l-885 -926h743z" />
    <glyph glyph-name="zdotaccent" unicode="&#x17c;" horiz-adv-x="1030" 
d="M479 1452h303l-32 -225h-306zM360 250h529l-37 -250h-879l35 250l621 565h-508l41 250h858l-39 -250z" />
    <glyph glyph-name="Zcaron" unicode="&#x17d;" horiz-adv-x="1253" 
d="M991 1821h240l-184 -289h-553l-97 289h228l159 -160zM1130 270l-43 -270h-1110l37 238l879 925h-723l43 271h1094l-35 -238l-885 -926h743z" />
    <glyph glyph-name="zcaron" unicode="&#x17e;" horiz-adv-x="1030" 
d="M797 1452h239l-184 -289h-553l-96 289h227l160 -160zM360 250h529l-37 -250h-879l35 250l621 565h-508l41 250h858l-39 -250z" />
    <glyph glyph-name="florin" unicode="&#x192;" horiz-adv-x="649" 
d="M674 1169q-139 0 -170 -200l-17 -105h129l-41 -256h-129l-98 -626q-17 -102 -48.5 -170.5t-88 -117t-143.5 -68.5t-211 -15l39 256q79 0 115 52.5t50 148.5l86 540h-139l41 256h139l31 191q61 397 496 370z" />
    <glyph glyph-name="uni01CD" unicode="&#x1cd;" horiz-adv-x="1490" 
d="M1151 1532h-553l-96 289h227l160 -160l207 160h239zM1010 0l-49 268h-535l-133 -268h-336l770 1434h293l326 -1434h-336zM541 498h377l-103 549z" />
    <glyph glyph-name="uni01CE" unicode="&#x1ce;" horiz-adv-x="1175" 
d="M938 1163h-553l-96 289h227l160 -160l207 160h239zM1044 637l-59 -385q-6 -42 10.5 -61t57.5 -21l-29 -164q-52 -14 -113 -14q-105 0 -166 46.5t-43 117.5l3 10q-41 -53 -72 -79q-117 -101 -279 -101q-72 0 -132.5 16t-109 49t-75.5 90t-27 133q0 85 30 149t87.5 104.5
t129 63.5t165.5 34q13 1 57 6t58 7t49.5 6.5t52 8t41.5 9t43.5 11.5t34.5 13q23 168 -144 168q-73 0 -120.5 -27t-71.5 -92h-281q39 172 155.5 256t336.5 84q256 0 350 -107t61 -331zM696 336l33 180q-92 -24 -260 -51q-80 -12 -120 -50t-40 -96q0 -118 135 -118
q83 0 151.5 45.5t100.5 89.5z" />
    <glyph glyph-name="uni01CF" unicode="&#x1cf;" horiz-adv-x="550" 
d="M637 1821h240l-185 -289h-553l-96 289h227l160 -160zM334 0h-314l226 1434h313z" />
    <glyph glyph-name="uni01D0" unicode="&#x1d0;" horiz-adv-x="497" 
d="M555 1452h240l-185 -289h-553l-96 289h227l160 -160zM176 1065h299l-168 -1065h-299z" />
    <glyph glyph-name="uni01D1" unicode="&#x1d1;" horiz-adv-x="1495" 
d="M1128 1821h240l-184 -289h-553l-96 289h227l160 -160zM874 1452q268 0 423 -150.5t155 -418.5q0 -147 -36.5 -282.5t-107.5 -247.5t-169 -195.5t-226.5 -129.5t-273.5 -46q-267 0 -421.5 150t-154.5 417q0 149 36 285t106 248t167 195t226 129t276 46zM680 250
q85 0 158 34t125 92.5t89 136t54.5 165t17.5 178.5q0 157 -75 242.5t-218 85.5q-107 0 -193.5 -52.5t-139.5 -139.5t-81 -194t-28 -223q0 -155 75.5 -240t215.5 -85z" />
    <glyph glyph-name="uni01D2" unicode="&#x1d2;" 
d="M885 1452h239l-184 -289h-553l-96 289h227l160 -160zM645 1075q65 0 129 -15.5t124.5 -50.5t106 -86t73.5 -127.5t28 -168.5q0 -178 -75.5 -324t-215 -231.5t-315.5 -85.5q-66 0 -130 15t-125 49.5t-106.5 85.5t-73.5 129t-28 173q0 176 77 321.5t217 230.5t314 85z
M819 608q0 109 -55 167.5t-141 58.5q-93 0 -163.5 -60t-103 -146t-32.5 -179q0 -105 55 -163.5t141 -58.5q94 0 164.5 60t102.5 145t32 176z" />
    <glyph glyph-name="uni01D3" unicode="&#x1d3;" horiz-adv-x="1415" 
d="M1087 1821h240l-184 -289h-553l-96 289h227l160 -160zM1427 1434l-139 -873q-29 -181 -124 -311.5t-237 -196t-317 -65.5q-270 0 -408.5 151t-95.5 422l140 873h313l-137 -861q-24 -156 36.5 -235.5t192.5 -79.5q133 0 217.5 79t110.5 236l135 861h313z" />
    <glyph glyph-name="uni01D4" unicode="&#x1d4;" horiz-adv-x="1228" 
d="M979 1163h-553l-96 289h227l160 -160l207 160h239zM891 1065h299l-168 -1065h-299l31 190q-21 -32 -52.5 -63.5t-76.5 -64.5t-106 -53.5t-126 -20.5q-87 0 -152.5 23.5t-113.5 76t-61.5 136t2.5 204.5l102 637h299l-102 -635q-30 -186 137 -186q88 0 171 64t118 128z" />
    <glyph glyph-name="uni01EA" unicode="&#x1ea;" horiz-adv-x="1495" 
d="M1452 883q0 -328 -173.5 -573.5t-463.5 -309.5h16q-91 -22 -156.5 -52.5t-100.5 -64t-51.5 -63t-20.5 -60.5q-9 -50 35 -57.5t122 21.5l-2 -134q-47 -23 -108.5 -36t-124 -10t-113 21.5t-77.5 65t-15 113.5q14 87 104 151.5t205 94.5q-219 29 -342 175.5t-123 383.5
q0 149 36 285t106 248t167 195t226 129t276 46q268 0 423 -150.5t155 -418.5zM680 250q85 0 158 34t125 92.5t89 136t54.5 165t17.5 178.5q0 157 -75 242.5t-218 85.5q-107 0 -193.5 -52.5t-139.5 -139.5t-81 -194t-28 -223q0 -155 75.5 -240t215.5 -85z" />
    <glyph glyph-name="uni01EB" unicode="&#x1eb;" horiz-adv-x="1161" 
d="M631 1077q73 0 142.5 -19.5t134.5 -62t107.5 -109t62.5 -161t-1 -217.5q-18 -113 -64.5 -205.5t-112 -153t-136.5 -98t-148 -55.5q-293 -76 -315 -236q-9 -50 34.5 -57.5t123.5 21.5l-4 -134q-47 -23 -108.5 -36t-124 -10t-113 21.5t-77.5 65t-16 113.5q12 66 68.5 121.5
t127.5 87.5t146 45q-76 19 -138 59t-111.5 108t-65 161.5t1.5 220.5q17 112 63 203.5t106.5 151t134 100t144 58t138.5 17.5zM788 547q24 149 -21.5 219t-139.5 70q-106 0 -186.5 -82t-108.5 -246q-23 -146 23.5 -215.5t140.5 -69.5q105 0 184.5 81t107.5 243z" />
    <glyph glyph-name="Scommaaccent" unicode="&#x218;" horiz-adv-x="1349" 
d="M846 834q207 -41 301 -126t94 -243q0 -156 -82 -266t-223 -163.5t-328 -53.5q-171 0 -298 55.5t-194.5 167t-54.5 264.5h326q4 -231 246 -231q132 0 203 53t71 147q0 61 -42 99t-134 55l-182 35q-111 22 -190.5 64t-129 118t-49.5 180q0 147 78 253t212 158t310 52
q256 0 392.5 -112.5t119.5 -327.5h-323q3 92 -51 137t-162 45q-112 0 -180 -47t-68 -131q0 -51 32.5 -91.5t108.5 -54.5zM319 -784l17 92q65 13 103.5 63t49.5 121l11 66h-125l51 340h324l-50 -324q-14 -94 -44 -161.5t-65.5 -105t-85 -58.5t-91 -27t-95.5 -6z" />
    <glyph glyph-name="scommaaccent" unicode="&#x219;" horiz-adv-x="1052" 
d="M719 737q-11 117 -166 117q-74 0 -124 -31.5t-50 -87.5q0 -68 92 -92l174 -41q46 -11 69 -17.5t60 -19t56 -23.5t43.5 -29.5t36 -40t20 -51t8.5 -65.5q0 -177 -140 -273.5t-372 -96.5q-213 0 -324 88.5t-108 261.5h270q17 -131 185 -131q86 0 137 36t51 89q0 35 -20 55.5
t-72 32.5l-160 37q-155 36 -225 104.5t-70 173.5q0 156 133.5 249t343.5 93t311 -90.5t103 -247.5h-262zM156 -784l16 92q65 13 104 63t50 121l10 66h-125l51 340h324l-49 -324q-14 -94 -44 -161.5t-65.5 -105t-85 -58.5t-91 -27t-95.5 -6z" />
    <glyph glyph-name="uni021A" unicode="&#x21a;" horiz-adv-x="1251" 
d="M1323 1434l-43 -271h-414l-182 -1163h-313l182 1163h-412l43 271h1139zM252 -774l-4 94q63 13 101.5 66t49.5 125l11 57h-111l55 354h371l-53 -344q-11 -67 -32.5 -121.5t-47 -90.5t-60.5 -63t-67.5 -41.5t-72.5 -23t-71.5 -10.5t-68.5 -2z" />
    <glyph glyph-name="uni021B" unicode="&#x21b;" horiz-adv-x="796" 
d="M535 831l-80 -497q-8 -53 8 -77t67 -24q67 0 140 17l-37 -234q-73 -30 -201 -30q-41 0 -75 4.5t-67 15t-56.5 28.5t-44 45t-29 64.5t-11.5 86.5t9 112l78 489h-166l34 234h168l43 266h301l-43 -266h213l-38 -234h-213zM186 -442l52 340h323l-49 -324q-14 -94 -44 -161.5
t-65.5 -105t-85 -58.5t-91 -27t-95.5 -6l16 92q65 13 104 63t50 121l10 66h-125z" />
    <glyph glyph-name="uni0237" unicode="&#x237;" horiz-adv-x="522" 
d="M-252 -158q52 -30 131 -30q62 0 88 40t41 130l172 1083h299l-190 -1196q-27 -163 -117.5 -241.5t-230.5 -78.5q-150 0 -236 52z" />
    <glyph glyph-name="circumflex" unicode="&#x2c6;" horiz-adv-x="833" 
d="M707 1163l-156 160l-211 -160h-240l187 289h553l94 -289h-227z" />
    <glyph glyph-name="caron" unicode="&#x2c7;" horiz-adv-x="833" 
d="M739 1452h240l-184 -289h-553l-97 289h228l159 -160z" />
    <glyph glyph-name="breve" unicode="&#x2d8;" horiz-adv-x="700" 
d="M651 1452h195q-51 -315 -397 -315q-169 0 -248.5 85.5t-55.5 229.5h189q-9 -63 26 -95t107 -32q159 0 184 127z" />
    <glyph glyph-name="dotaccent" unicode="&#x2d9;" horiz-adv-x="305" 
d="M145 1452h304l-33 -225h-305z" />
    <glyph glyph-name="ring" unicode="&#x2da;" horiz-adv-x="403" 
d="M326 1190q-83 0 -137 52.5t-54 131.5q0 88 66.5 154.5t156.5 66.5q77 0 130 -53.5t53 -132.5q0 -86 -66.5 -152.5t-148.5 -66.5zM336 1313q32 0 57 26.5t25 57.5q0 32 -20.5 54t-51.5 22q-35 0 -61.5 -27.5t-26.5 -61.5q0 -30 21.5 -50.5t56.5 -20.5z" />
    <glyph glyph-name="ogonek" unicode="&#x2db;" horiz-adv-x="499" 
d="M328 -403q-43 -23 -101 -37.5t-120 -14.5t-114.5 16t-86 58.5t-33.5 106.5q0 59 33 109.5t85 83.5t109.5 53.5t114.5 27.5h215q-276 -73 -276 -221q0 -59 49.5 -73.5t124.5 15.5v-124z" />
    <glyph glyph-name="tilde" unicode="&#x2dc;" horiz-adv-x="829" 
d="M852 1434h117q0 -116 -65 -191.5t-185 -75.5q-45 0 -88.5 16.5t-79 40t-70.5 47t-76 40t-81 16.5q-34 0 -59.5 -17.5t-24.5 -45.5h-119q0 118 65 193t185 75q55 0 110.5 -25t94.5 -55t91 -55t101 -25q33 0 59 18t25 44z" />
    <glyph glyph-name="hungarumlaut" unicode="&#x2dd;" horiz-adv-x="888" 
d="M104 1190h269l233 262h-420zM532 1190h269l233 262h-420z" />
    <glyph glyph-name="uni0326" unicode="&#x326;" horiz-adv-x="0" 
d="M-530 -784l16 92q65 13 104 63t50 121l10 66h-125l51 340h324l-50 -324q-10 -68 -28.5 -122t-40.5 -91t-52 -64t-59 -42.5t-65.5 -24.5t-66.5 -11.5t-68 -2.5z" />
    <glyph glyph-name="uni0394" unicode="&#x394;" horiz-adv-x="1468" 
d="M1266 0h-1297l842 1434h66zM940 256l-162 698l-389 -698h551z" />
    <glyph glyph-name="uni03A9" unicode="&#x3a9;" horiz-adv-x="1558" 
d="M1511 823q0 -144 -61 -282t-172 -256h102l-43 -285h-485l47 336q159 118 232 230t73 249q0 161 -93 248.5t-239 87.5q-134 0 -248.5 -70.5t-178.5 -181.5t-64 -233q0 -82 17 -135.5t49.5 -93t103.5 -101.5l-49 -336h-484l43 285h121q-106 153 -106 370q0 154 64.5 299.5
t172.5 254t260 174t318 65.5q129 0 242.5 -45t197 -125t132 -198t48.5 -257z" />
    <glyph glyph-name="uni03BC" unicode="&#x3bc;" horiz-adv-x="1226" 
d="M889 1065h299l-168 -1065h-299l31 190q-21 -31 -52.5 -63t-76.5 -64.5t-106 -52.5t-126 -20q-55 0 -94 8l-61 -387h-299l122 774l7 43l102 637h299l-105 -662q-7 -87 30 -122t110 -35q89 0 173 63.5t116 126.5z" />
    <glyph glyph-name="pi" unicode="&#x3c0;" horiz-adv-x="1480" 
d="M1192 809l-72 -461q-10 -62 3.5 -83t56.5 -21q27 0 50 4t54 13.5t43 12.5l-27 -251q-32 -18 -106.5 -26.5t-126.5 -8.5q-57 0 -106 12.5t-90 39t-60 76.5t-8 117l90 576h-291l-127 -809h-299l127 809h-205l41 256h1297l-41 -256h-203z" />
    <glyph glyph-name="uni0401" unicode="&#x401;" horiz-adv-x="1200" 
d="M414 1821h303l-33 -226h-305zM893 1821h305l-35 -226h-303zM1208 1163h-694l-47 -311h590l-41 -250h-590l-51 -332h712l-43 -270h-1026l228 1434h1005z" />
    <glyph glyph-name="uni0403" unicode="&#x403;" horiz-adv-x="1097" 
d="M573 1559h265l274 262h-416zM1169 1434l-41 -271h-612l-184 -1163h-314l228 1434h923z" />
    <glyph glyph-name="uni0404" unicode="&#x404;" horiz-adv-x="1380" 
d="M819 1182q-139 0 -236.5 -91.5t-146.5 -238.5h385l-39 -250h-391v-20q0 -160 71.5 -245t207.5 -85q117 0 191 50t122 157h303q-43 -156 -145 -265.5t-234.5 -160.5t-285.5 -51q-260 0 -410 146.5t-150 418.5q0 183 54.5 347t154 288t251.5 197t335 73q113 0 207.5 -30
t164.5 -87.5t107 -149t31 -208.5h-305q-29 205 -242 205z" />
    <glyph glyph-name="uni0407" unicode="&#x407;" horiz-adv-x="550" 
d="M61 1821h304l-33 -226h-305zM541 1821h305l-35 -226h-303zM334 0h-314l226 1434h313z" />
    <glyph glyph-name="uni040C" unicode="&#x40c;" horiz-adv-x="1449" 
d="M1292 1821l-274 -262h-264l123 262h415zM1487 1434l-653 -646l481 -788h-344l-348 578l-236 -232l-55 -346h-314l228 1434h313l-106 -674l680 674h354z" />
    <glyph glyph-name="uni040E" unicode="&#x40e;" horiz-adv-x="1275" 
d="M999 1821h195q-51 -316 -397 -316q-169 0 -248 86t-55 230h188q-9 -63 26 -95t107 -32q159 0 184 127zM989 1434h348l-600 -1055q-146 -256 -288 -345t-365 -67l41 277q68 -7 117.5 0t80 28.5t46.5 41.5t32 51q53 93 19 208l-236 861h342l154 -621z" />
    <glyph glyph-name="uni0410" unicode="&#x410;" horiz-adv-x="1490" 
d="M1010 0l-49 268h-535l-133 -268h-336l770 1434h293l326 -1434h-336zM541 498h377l-103 549z" />
    <glyph glyph-name="uni0411" unicode="&#x411;" horiz-adv-x="1329" 
d="M748 954q248 0 369.5 -103.5t121.5 -291.5q0 -267 -167 -413t-460 -146h-594l228 1434h923l-41 -271h-612l-33 -209h265zM637 266q124 0 196 78.5t72 196.5q0 149 -186 149h-279l-65 -424h262z" />
    <glyph glyph-name="uni0412" unicode="&#x412;" horiz-adv-x="1355" 
d="M1034 782q101 -32 161 -117.5t60 -197.5q0 -113 -46 -202.5t-129 -147t-194.5 -87.5t-244.5 -30h-623l228 1434h585q211 0 321 -86t110 -236q0 -114 -61.5 -201t-166.5 -129zM733 874q90 0 143.5 50t53.5 141q0 56 -36 83.5t-95 27.5h-281l-47 -302h262zM655 258
q125 0 197 55.5t72 167.5q0 68 -43 112t-138 44h-311l-59 -379h282z" />
    <glyph glyph-name="uni0413" unicode="&#x413;" horiz-adv-x="1097" 
d="M1169 1434l-41 -271h-612l-184 -1163h-314l228 1434h923z" />
    <glyph glyph-name="uni0414" unicode="&#x414;" horiz-adv-x="1722" 
d="M1356 256h252l-64 -397h-299l23 141h-1012l-23 -141h-299l64 397h176q46 49 82 101t78 139t77.5 220t63.5 308l66 410h1001zM512 256h530l144 907h-375l-25 -155q-37 -231 -85 -389.5t-91 -233.5t-98 -129z" />
    <glyph glyph-name="uni0415" unicode="&#x415;" horiz-adv-x="1200" 
d="M1208 1163h-694l-47 -311h590l-41 -250h-590l-51 -332h712l-43 -270h-1026l228 1434h1005z" />
    <glyph glyph-name="uni0416" unicode="&#x416;" horiz-adv-x="2095" 
d="M2183 1434l-713 -711l490 -723h-352l-408 586l-92 -586h-313l94 592l-590 -592h-362l720 723l-479 711h350l402 -580l92 580h313l-90 -574l578 574h360z" />
    <glyph glyph-name="uni0417" unicode="&#x417;" horiz-adv-x="1243" 
d="M895 758q27 -2 58.5 -13t66 -35t62 -57t45.5 -83.5t18 -110.5q0 -110 -47.5 -201.5t-129.5 -153t-192.5 -95.5t-236.5 -34q-166 0 -285.5 66.5t-169.5 181.5t-21 256h269q-15 -111 48 -179.5t181 -68.5q117 0 204 65.5t87 174.5q0 76 -61.5 125t-198.5 49h-80l33 197h61
q71 0 126 18.5t84 44t47 58t23 54.5t5 40q0 67 -50.5 103t-125.5 36q-41 0 -80 -11.5t-76 -36t-64 -69t-38 -104.5h-277q37 230 181.5 353.5t371.5 123.5q205 0 327 -100.5t122 -249.5q0 -128 -84.5 -222t-202.5 -122z" />
    <glyph glyph-name="uni0418" unicode="&#x418;" horiz-adv-x="1445" 
d="M246 1434h313l-151 -932h6l723 932h319l-227 -1434h-314l144 913h-4l-705 -913h-332z" />
    <glyph glyph-name="uni0419" unicode="&#x419;" horiz-adv-x="1445" 
d="M1081 1821h195q-51 -316 -397 -316q-169 0 -248.5 86t-55.5 230h189q-9 -63 26 -95t107 -32q159 0 184 127zM246 1434h313l-151 -932h6l723 932h319l-227 -1434h-314l144 913h-4l-705 -913h-332z" />
    <glyph glyph-name="uni041A" unicode="&#x41a;" horiz-adv-x="1449" 
d="M1487 1434l-653 -646l481 -788h-344l-348 578l-236 -232l-55 -346h-314l228 1434h313l-106 -674l680 674h354z" />
    <glyph glyph-name="uni041B" unicode="&#x41b;" horiz-adv-x="1437" 
d="M1448 1434l-227 -1434h-314l185 1163h-428l-115 -721q-27 -170 -110 -279t-203.5 -151t-274.5 -26l27 270q47 -1 84 7.5t73 30.5t61 67t36 112l151 961h1055z" />
    <glyph glyph-name="uni041C" unicode="&#x41c;" horiz-adv-x="1761" 
d="M246 1434h362l238 -1018l538 1018h388l-228 -1434h-313l143 907h-10l-459 -907h-227l-193 907h-10l-143 -907h-314z" />
    <glyph glyph-name="uni041D" unicode="&#x41d;" horiz-adv-x="1411" 
d="M1108 1434h313l-227 -1434h-313l94 590h-549l-94 -590h-314l228 1434h313l-94 -590h549z" />
    <glyph glyph-name="uni041E" unicode="&#x41e;" horiz-adv-x="1495" 
d="M874 1452q268 0 423 -150.5t155 -418.5q0 -147 -36.5 -282.5t-107.5 -247.5t-169 -195.5t-226.5 -129.5t-273.5 -46q-267 0 -421.5 150t-154.5 417q0 149 36 285t106 248t167 195t226 129t276 46zM680 250q85 0 158 34t125 92.5t89 136t54.5 165t17.5 178.5
q0 157 -75 242.5t-218 85.5q-107 0 -193.5 -52.5t-139.5 -139.5t-81 -194t-28 -223q0 -155 75.5 -240t215.5 -85z" />
    <glyph glyph-name="uni041F" unicode="&#x41f;" horiz-adv-x="1411" 
d="M1421 1434l-227 -1434h-313l184 1163h-549l-184 -1163h-314l228 1434h1175z" />
    <glyph glyph-name="uni0420" unicode="&#x420;" horiz-adv-x="1333" 
d="M821 1434q245 0 363.5 -105.5t118.5 -296.5q0 -271 -174 -432.5t-465 -161.5h-263l-69 -438h-314l228 1434h575zM707 709q120 0 189 77.5t69 200.5q0 82 -48.5 129t-142.5 47h-260l-70 -454h263z" />
    <glyph glyph-name="uni0421" unicode="&#x421;" horiz-adv-x="1380" 
d="M670 252q117 0 191 50t122 157h303q-43 -156 -145 -265.5t-234.5 -160.5t-285.5 -51q-260 0 -410 146.5t-150 418.5q0 183 54.5 347t154 288t251.5 197t335 73q113 0 207.5 -30t164.5 -87.5t107 -149t31 -208.5h-305q-29 205 -242 205q-103 0 -187 -54.5t-135 -142.5
t-78.5 -192t-27.5 -211q0 -160 71.5 -245t207.5 -85z" />
    <glyph glyph-name="uni0422" unicode="&#x422;" horiz-adv-x="1251" 
d="M1323 1434l-43 -271h-414l-182 -1163h-313l182 1163h-412l43 271h1139z" />
    <glyph glyph-name="uni0423" unicode="&#x423;" horiz-adv-x="1275" 
d="M989 1434h348l-600 -1055q-146 -256 -288 -345t-365 -67l41 277q68 -7 117.5 0t80 28.5t46.5 41.5t32 51q53 93 19 208l-236 861h342l154 -621z" />
    <glyph glyph-name="uni0424" unicode="&#x424;" horiz-adv-x="1486" 
d="M1440 811q0 -276 -171 -457.5t-450 -222.5l-26 -162h-314l27 166q-208 37 -324 164t-116 324q0 280 171.5 461.5t454.5 218.5l25 161h313l-26 -166q207 -37 321.5 -163t114.5 -324zM858 387q134 47 209.5 160t75.5 266q0 190 -178 244zM362 625q0 -93 45.5 -158
t137.5 -92l106 674q-136 -46 -212.5 -158t-76.5 -266z" />
    <glyph glyph-name="uni0425" unicode="&#x425;" horiz-adv-x="1380" 
d="M1454 1434l-565 -695l366 -739h-354l-231 469l-383 -469h-350l600 737l-344 697h352l211 -426l346 426h352z" />
    <glyph glyph-name="uni0426" unicode="&#x426;" horiz-adv-x="1480" 
d="M1421 1434l-184 -1164h141l-90 -559h-299l47 289h-1018l228 1434h313l-184 -1164h549l184 1164h313z" />
    <glyph glyph-name="uni0427" unicode="&#x427;" horiz-adv-x="1343" 
d="M1040 1434h314l-228 -1434h-313l86 541q-22 -34 -59.5 -70t-94 -73.5t-135.5 -62t-164 -24.5q-204 0 -301.5 119t-56.5 367l100 637h314l-103 -637q-36 -209 179 -209q127 0 226 67t134 138z" />
    <glyph glyph-name="uni0428" unicode="&#x428;" horiz-adv-x="1738" 
d="M1436 1434h313l-227 -1434h-1504l228 1434h313l-184 -1164h282l185 1164h311l-182 -1164h282z" />
    <glyph glyph-name="uni0429" unicode="&#x429;" horiz-adv-x="1814" 
d="M1749 1434l-184 -1164h147l-90 -559h-299l47 289h-1352l228 1434h313l-184 -1164h282l185 1164h311l-182 -1164h282l183 1164h313z" />
    <glyph glyph-name="uni042A" unicode="&#x42a;" horiz-adv-x="1409" 
d="M829 954q247 0 368.5 -104t121.5 -291q0 -267 -166.5 -413t-458.5 -146h-583l184 1163h-170l43 271h483l-76 -480h254zM719 266q124 0 195 78.5t71 196.5q0 149 -186 149h-267l-65 -424h252z" />
    <glyph glyph-name="uni042B" unicode="&#x42b;" horiz-adv-x="1826" 
d="M737 954q247 0 368.5 -104t121.5 -291q0 -267 -166.5 -413t-458.5 -146h-584l228 1434h313l-76 -480h254zM1610 0h-314l226 1434h313zM627 266q124 0 195 78.5t71 196.5q0 149 -186 149h-267l-65 -424h252z" />
    <glyph glyph-name="uni042C" unicode="&#x42c;" horiz-adv-x="1316" 
d="M737 954q247 0 368.5 -104t121.5 -291q0 -267 -166.5 -413t-458.5 -146h-584l228 1434h313l-76 -480h254zM627 266q124 0 195 78.5t71 196.5q0 149 -186 149h-267l-65 -424h252z" />
    <glyph glyph-name="uni042D" unicode="&#x42d;" horiz-adv-x="1427" 
d="M809 1452q265 0 418 -148.5t153 -420.5q0 -148 -33 -283t-99 -247.5t-157.5 -195.5t-215.5 -129t-267 -46q-116 0 -215.5 31t-173 89.5t-113 150.5t-32.5 206h303q21 -115 70.5 -161t160.5 -46q148 0 251 96t153 254h-398l41 250h398v25q0 145 -66 225t-194 80
q-117 0 -190 -50t-132 -155h-313q41 157 143 266.5t231 159t277 49.5z" />
    <glyph glyph-name="uni042E" unicode="&#x42e;" horiz-adv-x="2019" 
d="M1399 1452q268 0 422.5 -150.5t154.5 -418.5q0 -147 -36.5 -282.5t-107.5 -247.5t-169 -195.5t-226.5 -129.5t-273.5 -46q-267 0 -421 150t-154 417v41h-162l-92 -590h-314l226 1434h313l-92 -590h160q50 179 155 314.5t264.5 214.5t352.5 79zM1204 250q106 0 192.5 52
t140.5 138.5t83 193.5t29 222q0 157 -75 242.5t-218 85.5q-107 0 -193.5 -52.5t-140 -139.5t-81.5 -194.5t-28 -222.5q0 -155 75.5 -240t215.5 -85z" />
    <glyph glyph-name="uni042F" unicode="&#x42f;" horiz-adv-x="1394" 
d="M1405 1434l-227 -1434h-314l82 520h-319q-106 0 -172.5 -57.5t-83.5 -171.5l-9 -60q-14 -90 -29.5 -138t-47.5 -93h-318q71 101 88 248l8 67q33 264 273 355q-68 37 -113 109t-45 182q0 146 75.5 254t209.5 163.5t309 55.5h633zM682 766h303l64 397h-291
q-127 0 -196.5 -66t-69.5 -165q0 -80 47.5 -123t142.5 -43z" />
    <glyph glyph-name="uni0430" unicode="&#x430;" horiz-adv-x="1175" 
d="M985 252q-6 -42 10.5 -61t57.5 -21l-29 -164q-52 -14 -113 -14q-105 0 -166 46.5t-43 117.5l3 10q-41 -53 -72 -79q-117 -101 -279 -101q-72 0 -132.5 16t-109 49t-75.5 90t-27 133q0 85 30 149t87.5 104.5t129 63.5t165.5 34q13 1 57 6t58 7t49.5 6.5t52 8t41.5 9
t43.5 11.5t34.5 13q23 168 -144 168q-73 0 -120.5 -27t-71.5 -92h-281q39 172 155.5 256t336.5 84q256 0 350 -107t61 -331zM696 336l33 180q-92 -24 -260 -51q-80 -12 -120 -50t-40 -96q0 -118 135 -118q83 0 151.5 45.5t100.5 89.5z" />
    <glyph glyph-name="uni0431" unicode="&#x431;" horiz-adv-x="1193" 
d="M719 1065q53 0 106.5 -14t107 -47.5t94 -82.5t66 -125t25.5 -169q0 -181 -79 -329t-219 -232t-312 -84q-107 0 -190.5 33t-136 93t-84.5 143.5t-35 183.5t12 214l37 242q40 284 179.5 413.5t379.5 129.5h67q112 0 168 49h273q-57 -165 -148 -224t-268 -59h-107
q-202 0 -247 -217l-11 -47q22 50 112.5 89.5t209.5 39.5zM524 223q98 0 170.5 58.5t106 143t33.5 179.5q0 120 -55 177t-144 57q-98 0 -169.5 -58t-104.5 -143t-33 -182q0 -118 56 -175t140 -57z" />
    <glyph glyph-name="uni0432" unicode="&#x432;" horiz-adv-x="1175" 
d="M911 588q85 -29 135 -93t50 -155q0 -340 -531 -340h-567l168 1065h299l-131 -825h262q209 0 209 135q0 92 -160 92h-274l28 180h250q88 0 123 31.5t35 66.5q0 80 -113 80h-266l37 240h252q169 0 271 -62t102 -178q0 -47 -14.5 -89t-56.5 -84t-108 -64z" />
    <glyph glyph-name="uni0433" unicode="&#x433;" horiz-adv-x="917" 
d="M946 1065l-39 -234h-481l-129 -831h-299l168 1065h780z" />
    <glyph glyph-name="uni0434" unicode="&#x434;" horiz-adv-x="1378" 
d="M1298 1065l-131 -832h103l-58 -342h-270l19 109h-734l-18 -109h-270l57 342h70q87 69 130 193t78 344l48 295h976zM369 233h499l95 598h-381l-11 -77q-61 -428 -202 -521z" />
    <glyph glyph-name="uni0435" unicode="&#x435;" horiz-adv-x="1150" 
d="M1053 434h-742v-2q0 -225 217 -225q133 0 199 88h277q-138 -309 -512 -309q-68 0 -132.5 15.5t-124.5 50t-104.5 85t-71 125.5t-26.5 166q0 181 78 329t216.5 233t309.5 85q90 0 167.5 -25.5t139.5 -77t97.5 -139t35.5 -202.5q0 -40 -7 -102t-17 -95zM614 854
q-108 0 -177 -65.5t-101 -172.5h461q6 24 6 60q0 78 -51 128t-138 50z" />
    <glyph glyph-name="uni0436" unicode="&#x436;" horiz-adv-x="1816" 
d="M1866 1065l-588 -537l430 -528h-367l-315 395l-61 -395h-299l63 397l-438 -397h-371l596 526l-416 539h367l303 -403l64 403h299l-64 -401l428 401h369z" />
    <glyph glyph-name="uni0437" unicode="&#x437;" horiz-adv-x="1136" 
d="M817 559q17 -4 36 -10t51 -23t56 -40t42 -62.5t18 -87.5q0 -109 -74.5 -190.5t-198 -122.5t-276.5 -41q-238 0 -357 109.5t-83 314.5h268q-9 -105 38 -157t165 -52q97 0 164 44.5t67 118.5q0 114 -235 117l10 152q105 0 170 37t65 102q0 47 -41.5 70.5t-109.5 23.5
q-78 0 -139 -45.5t-74 -118.5h-266q29 184 161.5 282.5t337.5 98.5q187 0 301.5 -73t114.5 -195q0 -95 -56 -161t-155 -91z" />
    <glyph glyph-name="uni0438" unicode="&#x438;" horiz-adv-x="1245" 
d="M166 1065h299l-100 -645h4l532 645h305l-168 -1065h-299l99 625h-4l-519 -625h-317z" />
    <glyph glyph-name="uni0439" unicode="&#x439;" horiz-adv-x="1245" 
d="M928 1452h194q-51 -315 -397 -315q-169 0 -248 85.5t-55 229.5h188q-9 -63 26 -95t107 -32q160 0 185 127zM166 1065h299l-100 -645h4l532 645h305l-168 -1065h-299l99 625h-4l-519 -625h-317z" />
    <glyph glyph-name="uni043A" unicode="&#x43a;" horiz-adv-x="1189" 
d="M1239 1065l-561 -537l403 -528h-358l-344 453l-72 -453h-299l168 1065h299l-72 -461l474 461h362z" />
    <glyph glyph-name="uni043B" unicode="&#x43b;" horiz-adv-x="1292" 
d="M1253 1065l-168 -1065h-286l119 831h-330l-64 -395q-40 -251 -195 -359.5t-390 -82.5l36 231q217 -4 256 242l95 598h927z" />
    <glyph glyph-name="uni043C" unicode="&#x43c;" horiz-adv-x="1527" 
d="M176 1065h348l193 -719l418 719h354l-168 -1065h-299l94 596h-8l-330 -596h-223l-141 588h-13l-94 -588h-299z" />
    <glyph glyph-name="uni043D" unicode="&#x43d;" horiz-adv-x="1167" 
d="M166 1065h299l-62 -393h365l61 393h299l-167 -1065h-299l69 438h-364l-70 -438h-299z" />
    <glyph glyph-name="uni043E" unicode="&#x43e;" 
d="M645 1075q65 0 129 -15.5t124.5 -50.5t106 -86t73.5 -127.5t28 -168.5q0 -178 -75.5 -324t-215 -231.5t-315.5 -85.5q-66 0 -130 15t-125 49.5t-106.5 85.5t-73.5 129t-28 173q0 176 77 321.5t217 230.5t314 85zM819 608q0 109 -55 167.5t-141 58.5q-93 0 -163.5 -60
t-103 -146t-32.5 -179q0 -105 55 -163.5t141 -58.5q94 0 164.5 60t102.5 145t32 176z" />
    <glyph glyph-name="uni043F" unicode="&#x43f;" horiz-adv-x="1155" 
d="M1116 1065l-168 -1065h-299l129 831h-352l-129 -831h-299l168 1065h950z" />
    <glyph glyph-name="uni0440" unicode="&#x440;" horiz-adv-x="1222" 
d="M477 1065l-22 -137q123 147 315 147q72 0 137.5 -25t120.5 -76t88 -138.5t33 -200.5q0 -123 -40.5 -240.5t-111 -208t-174 -145.5t-221.5 -55q-61 0 -110.5 15t-78 37t-47.5 47.5t-25 45.5t-5 33l-90 -553h-299l229 1454h301zM551 227q94 0 165 59t104.5 148t33.5 191
q0 103 -53.5 156t-134.5 53q-94 0 -163 -60.5t-100.5 -148t-31.5 -185.5q0 -105 47.5 -159t132.5 -54z" />
    <glyph glyph-name="uni0441" unicode="&#x441;" horiz-adv-x="1099" 
d="M506 227q158 0 219 144h274q-126 -385 -520 -385q-67 0 -129.5 14.5t-121 47.5t-101.5 81.5t-68.5 121.5t-25.5 163q0 187 74 337t211 237t313 87q63 0 118 -10.5t109 -38t92.5 -70t64 -111t29.5 -157.5h-266q-5 73 -41.5 109.5t-120.5 36.5q-91 0 -159 -62.5
t-100.5 -155t-32.5 -196.5q0 -91 48.5 -142t133.5 -51z" />
    <glyph glyph-name="uni0442" unicode="&#x442;" horiz-adv-x="1064" 
d="M1077 1065l-39 -234h-329l-131 -831h-299l131 831h-334l39 234h962z" />
    <glyph glyph-name="uni0443" unicode="&#x443;" horiz-adv-x="1173" 
d="M897 1065h309l-624 -1096q-89 -156 -171 -239t-187 -115t-253 -14l39 247q68 -7 120.5 3t87.5 35.5t56 51.5t41 64q19 35 23 57t-4 64l-240 942h295l148 -686z" />
    <glyph glyph-name="uni0444" unicode="&#x444;" horiz-adv-x="1271" 
d="M1196 614q0 -246 -146.5 -415t-373.5 -207l-60 -371h-282l59 379q-74 18 -136 51.5t-112.5 86t-79 129.5t-28.5 171q0 250 148.5 421t379.5 210l60 379h280l-61 -387q73 -19 134.5 -54.5t111.5 -89t78 -131.5t28 -172zM713 229q118 43 181.5 148t63.5 246q0 173 -149 219
zM276 430q0 -165 152 -211l98 612q-120 -42 -185 -149t-65 -252z" />
    <glyph glyph-name="uni0445" unicode="&#x445;" horiz-adv-x="1155" 
d="M1178 1065l-445 -516l303 -549h-317l-180 334l-281 -334h-332l488 557l-285 508h317l154 -289l246 289h332z" />
    <glyph glyph-name="uni0446" unicode="&#x446;" horiz-adv-x="1232" 
d="M985 233h135l-82 -520h-286l47 287h-801l168 1065h299l-129 -832h352l129 832h299z" />
    <glyph glyph-name="uni0447" unicode="&#x447;" 
d="M846 1065h299l-168 -1065h-299l74 473q-20 -32 -52 -64t-77 -63.5t-105.5 -51.5t-124.5 -20q-87 0 -152 23.5t-111.5 74.5t-60.5 131t1 193l55 369h299l-59 -367q-14 -89 25.5 -132.5t121.5 -43.5q100 0 172.5 58.5t106.5 128.5z" />
    <glyph glyph-name="uni0448" unicode="&#x448;" horiz-adv-x="1636" 
d="M1298 1065h299l-167 -1065h-1422l168 1065h299l-129 -832h270l129 832h283l-131 -832h270z" />
    <glyph glyph-name="uni0449" unicode="&#x449;" horiz-adv-x="1675" 
d="M1587 1065l-131 -832h109l-84 -520h-285l47 287h-1245l168 1065h299l-129 -832h270l129 832h283l-131 -832h270l131 832h299z" />
    <glyph glyph-name="uni044A" unicode="&#x44a;" horiz-adv-x="1345" 
d="M844 709q182 0 288.5 -84t106.5 -228q0 -186 -136 -291.5t-353 -105.5h-582l131 831h-213l39 234h510l-57 -356h266zM768 233q86 0 136 38t50 104q0 100 -135 100h-274l-41 -242h264z" />
    <glyph glyph-name="uni044B" unicode="&#x44b;" horiz-adv-x="1660" 
d="M684 709q182 0 288.5 -84t106.5 -228q0 -186 -136 -291.5t-353 -105.5h-582l168 1065h299l-57 -356h266zM1323 1065h299l-168 -1065h-299zM608 233q86 0 136.5 38t50.5 104q0 100 -136 100h-274l-41 -242h264z" />
    <glyph glyph-name="uni044C" unicode="&#x44c;" horiz-adv-x="1185" 
d="M684 709q182 0 288.5 -84t106.5 -228q0 -186 -136 -291.5t-353 -105.5h-582l168 1065h299l-57 -356h266zM608 233q86 0 136.5 38t50.5 104q0 100 -136 100h-274l-41 -242h264z" />
    <glyph glyph-name="uni044D" unicode="&#x44d;" horiz-adv-x="1105" 
d="M586 1075q67 0 129.5 -14.5t121 -47.5t101.5 -81.5t68.5 -121.5t25.5 -163q0 -187 -74 -337t-211 -237t-313 -87q-63 0 -118.5 10.5t-109 38t-92.5 70t-64.5 111.5t-29.5 157h267q5 -73 41.5 -109.5t120.5 -36.5q91 0 157.5 59.5t102.5 157.5h-287l27 183h292v14
q0 91 -48.5 142t-133.5 51q-158 0 -219 -144h-274q126 385 520 385z" />
    <glyph glyph-name="uni044E" unicode="&#x44e;" horiz-adv-x="1658" 
d="M1120 1075q65 0 129 -15.5t124.5 -50.5t106 -86t73.5 -127.5t28 -168.5q0 -178 -75.5 -324t-215 -231.5t-315.5 -85.5q-65 0 -127.5 14.5t-122.5 47.5t-105.5 81.5t-75 122t-32.5 164.5h-139l-66 -418h-299l168 1065h299l-65 -414h133q61 192 215 309t362 117zM995 227
q94 0 164.5 60t102.5 145t32 176q0 109 -55 167.5t-141 58.5q-93 0 -163.5 -60t-103 -146t-32.5 -179q0 -105 55 -163.5t141 -58.5z" />
    <glyph glyph-name="uni044F" unicode="&#x44f;" horiz-adv-x="1179" 
d="M559 1065h582l-168 -1065h-299l57 356h-254q-58 0 -90 -25t-41 -83l-14 -86q-1 -14 -3 -26.5t-3.5 -22t-4.5 -19.5t-4.5 -16t-5.5 -15t-5.5 -12.5t-7 -13t-6.5 -11.5t-8 -13t-8 -13h-294q24 40 34.5 68t20.5 94l12 86q10 65 39 111.5t92 76.5q-110 83 -110 232
q0 186 136 291.5t353 105.5zM764 590l41 241h-264q-87 0 -137 -37.5t-50 -103.5q0 -100 135 -100h275z" />
    <glyph glyph-name="uni0451" unicode="&#x451;" horiz-adv-x="1150" 
d="M618 1452l-32 -225h-305l34 225h303zM1100 1452l-35 -225h-303l33 225h305zM637 1075q90 0 167.5 -25.5t139.5 -77t97.5 -139t35.5 -202.5q0 -40 -7 -102t-17 -95h-742v-2q0 -225 217 -225q133 0 199 88h277q-138 -309 -512 -309q-68 0 -132.5 15.5t-124.5 50t-104.5 85
t-71 125.5t-26.5 166q0 181 78 329t216.5 233t309.5 85zM797 616q6 24 6 60q0 78 -51 128t-138 50q-108 0 -177 -65.5t-101 -172.5h461z" />
    <glyph glyph-name="uni0453" unicode="&#x453;" horiz-adv-x="917" 
d="M428 1190h264l275 262h-416zM946 1065l-39 -234h-481l-129 -831h-299l168 1065h780z" />
    <glyph glyph-name="uni0454" unicode="&#x454;" horiz-adv-x="1099" 
d="M506 227q158 0 219 144h274q-126 -385 -520 -385q-67 0 -129.5 14.5t-121 47.5t-101.5 81.5t-68.5 121.5t-25.5 163q0 187 74 337t211 237t313 87q63 0 118 -10.5t109 -38t92.5 -70t64 -111t29.5 -157.5h-266q-5 73 -41.5 109.5t-120.5 36.5q-88 0 -153 -56.5
t-103 -150.5h287l-24 -183h-299v-24q0 -91 48.5 -142t133.5 -51z" />
    <glyph glyph-name="uni0457" unicode="&#x457;" horiz-adv-x="497" 
d="M-20 1452h303l-33 -225h-305zM459 1452h305l-35 -225h-303zM176 1065h299l-168 -1065h-299z" />
    <glyph glyph-name="uni045C" unicode="&#x45c;" horiz-adv-x="1189" 
d="M1104 1452l-275 -262h-264l123 262h416zM1239 1065l-561 -537l403 -528h-358l-344 453l-72 -453h-299l168 1065h299l-72 -461l474 461h362z" />
    <glyph glyph-name="uni045E" unicode="&#x45e;" horiz-adv-x="1173" 
d="M889 1452h194q-51 -315 -397 -315q-169 0 -248 85.5t-55 229.5h188q-9 -63 26.5 -95t107.5 -32q159 0 184 127zM897 1065h309l-624 -1096q-89 -156 -171 -239t-187 -115t-253 -14l39 247q68 -7 120.5 3t87.5 35.5t56 51.5t41 64q19 35 23 57t-4 64l-240 942h295l148 -686
z" />
    <glyph glyph-name="uni0490" unicode="&#x490;" horiz-adv-x="1097" 
d="M891 1638h311l-74 -475h-612l-184 -1163h-314l228 1434h612z" />
    <glyph glyph-name="uni0491" unicode="&#x491;" horiz-adv-x="917" 
d="M713 1200h256l-62 -369h-481l-129 -831h-299l168 1065h524z" />
    <glyph glyph-name="Wgrave" unicode="&#x1e80;" horiz-adv-x="2140" 
d="M1333 1559l-82 262h-420l234 -262h268zM1864 1434h338l-637 -1434h-289l-158 954l-461 -954h-286l-187 1434h324l90 -959l436 959h303l131 -959z" />
    <glyph glyph-name="wgrave" unicode="&#x1e81;" horiz-adv-x="1658" 
d="M1057 1190l-82 262h-420l233 -262h269zM1692 1065l-469 -1065h-256l-131 711l-347 -711h-262l-133 1065h295l57 -686l326 686h234l104 -686l274 686h308z" />
    <glyph glyph-name="Wacute" unicode="&#x1e82;" horiz-adv-x="2140" 
d="M1075 1559h264l275 262h-416zM1864 1434h338l-637 -1434h-289l-158 954l-461 -954h-286l-187 1434h324l90 -959l436 959h303l131 -959z" />
    <glyph glyph-name="wacute" unicode="&#x1e83;" horiz-adv-x="1658" 
d="M799 1190h264l274 262h-415zM1692 1065l-469 -1065h-256l-131 711l-347 -711h-262l-133 1065h295l57 -686l326 686h234l104 -686l274 686h308z" />
    <glyph glyph-name="Wdieresis" unicode="&#x1e84;" horiz-adv-x="2140" 
d="M844 1821h303l-33 -226h-305zM1323 1821h305l-35 -226h-303zM1864 1434h338l-637 -1434h-289l-158 954l-461 -954h-286l-187 1434h324l90 -959l436 959h303l131 -959z" />
    <glyph glyph-name="wdieresis" unicode="&#x1e85;" horiz-adv-x="1658" 
d="M567 1452h303l-32 -225h-306zM1047 1452h305l-35 -225h-303zM1692 1065l-469 -1065h-256l-131 711l-347 -711h-262l-133 1065h295l57 -686l326 686h234l104 -686l274 686h308z" />
    <glyph glyph-name="uni1E9E" unicode="&#x1e9e;" horiz-adv-x="1507" 
d="M1036 905q77 -12 144 -42.5t121 -79t85 -122t31 -163.5q0 -233 -150 -375.5t-395 -142.5q-414 0 -399 405h297q0 -58 31.5 -96.5t103.5 -38.5q81 0 130.5 57.5t49.5 132.5q0 114 -130 172.5t-355 46.5l356 527h-278q-163 0 -191 -178l-157 -1008h-314l168 1055
q33 212 150.5 306.5t337.5 94.5h782z" />
    <glyph glyph-name="Ygrave" unicode="&#x1ef2;" horiz-adv-x="1476" 
d="M1030 1559l-82 262h-420l234 -262h268zM905 526l-84 -526h-321l82 526l-398 908h353l229 -607l424 607h348z" />
    <glyph glyph-name="ygrave" unicode="&#x1ef3;" horiz-adv-x="1173" 
d="M813 1190l-82 262h-420l234 -262h268zM897 1065h309l-624 -1096q-89 -156 -171 -239t-187 -115t-253 -14l39 247q68 -7 120.5 3t87.5 35.5t56 51.5t41 64q19 35 23 57t-4 64l-240 942h295l148 -686z" />
    <glyph glyph-name="endash" unicode="&#x2013;" horiz-adv-x="1228" 
d="M88 684h1045l-41 -246h-1045z" />
    <glyph glyph-name="emdash" unicode="&#x2014;" horiz-adv-x="1351" 
d="M88 684h1167l-41 -246h-1167z" />
    <glyph glyph-name="quoteleft" unicode="&#x2018;" horiz-adv-x="487" 
d="M549 1436l-17 -93q-65 -13 -103.5 -63t-49.5 -121l-10 -65h125l-52 -340h-323l49 323q14 94 44 161.5t65.5 105t85 59t91 27.5t95.5 6z" />
    <glyph glyph-name="quoteright" unicode="&#x2019;" horiz-adv-x="540" 
d="M131 737l-2 94q60 13 100.5 67t49.5 124l6 57h-109l55 355h371l-53 -344q-14 -93 -48.5 -161t-75 -104.5t-96 -57t-100 -26t-98.5 -4.5z" />
    <glyph glyph-name="quotesinglbase" unicode="&#x201a;" horiz-adv-x="542" 
d="M-45 -369l-2 95q62 13 100 65t49 125l11 57h-109l55 355h371l-55 -346q-12 -78 -37.5 -138t-60.5 -97t-72.5 -61.5t-84 -36t-84 -15.5t-81.5 -3z" />
    <glyph glyph-name="quotedblleft" unicode="&#x201c;" horiz-adv-x="995" 
d="M549 1436l-17 -93q-65 -13 -103.5 -63t-49.5 -121l-10 -65h125l-52 -340h-323l49 323q14 94 44 161.5t65.5 105t85 59t91 27.5t95.5 6zM1057 1436l-17 -93q-65 -13 -103.5 -63t-49.5 -121l-10 -65h124l-51 -340h-323l49 323q14 94 44 161.5t65.5 105t85 59t91 27.5
t95.5 6z" />
    <glyph glyph-name="quotedblright" unicode="&#x201d;" horiz-adv-x="999" 
d="M119 750l16 92q65 13 104 63t50 121l10 66h-125l51 340h324l-49 -324q-14 -94 -44 -161.5t-65.5 -105t-85 -58.5t-91 -27t-95.5 -6zM627 750l16 92q65 13 104 63t50 121l10 66h-125l51 340h324l-49 -324q-14 -94 -44 -161.5t-65.5 -105t-85 -58.5t-91 -27t-95.5 -6z" />
    <glyph glyph-name="quotedblbase" unicode="&#x201e;" horiz-adv-x="999" 
d="M-53 -342l16 92q65 13 104 63t50 121l10 66h-125l51 340h324l-49 -324q-14 -94 -44 -161.5t-65.5 -105t-85 -58.5t-91 -27t-95.5 -6zM455 -342l16 92q65 13 104 63t50 121l10 66h-125l51 340h324l-49 -324q-14 -94 -44 -161.5t-65.5 -105t-85 -58.5t-91 -27t-95.5 -6z
" />
    <glyph glyph-name="dagger" unicode="&#x2020;" horiz-adv-x="874" 
d="M838 1133l-37 -226h-215l-80 -506h-238l80 506h-217l37 226h217l47 301h238l-47 -301h215z" />
    <glyph glyph-name="daggerdbl" unicode="&#x2021;" horiz-adv-x="874" 
d="M805 936h-213l-70 -438h217l-39 -226h-213l-43 -272h-237l43 272h-219l39 226h215l69 438h-219l39 225h215l43 273h238l-43 -273h217z" />
    <glyph glyph-name="bullet" unicode="&#x2022;" horiz-adv-x="571" 
d="M246 356q-82 0 -132.5 59.5t-37.5 143.5q12 67 69 115.5t127 48.5q80 0 128.5 -59t35.5 -142q-11 -68 -66.5 -117t-123.5 -49z" />
    <glyph glyph-name="ellipsis" unicode="&#x2026;" horiz-adv-x="1527" 
d="M72 338h331l-53 -338h-330zM578 338h331l-53 -338h-330zM1083 338h332l-53 -338h-330z" />
    <glyph glyph-name="perthousand" unicode="&#x2030;" horiz-adv-x="2152" 
d="M410 764q-119 0 -189.5 69t-70.5 203q0 174 90.5 291t246.5 117q117 0 185.5 -69t68.5 -204q0 -114 -37.5 -205t-114 -146.5t-179.5 -55.5zM115 0l1071 1440l221 -6l-1065 -1434h-227zM424 954q44 0 73.5 33.5t40.5 76.5t11 91q0 98 -78 98q-44 0 -74 -32t-41.5 -74.5
t-11.5 -91.5q0 -101 80 -101zM1038 -10q-118 0 -188 69.5t-70 204.5q0 174 90 290t246 116q117 0 185.5 -69t68.5 -204q0 -174 -89 -290.5t-243 -116.5zM1692 -10q-119 0 -189.5 69.5t-70.5 204.5q0 174 90.5 290t246.5 116q117 0 185.5 -69t68.5 -204q0 -174 -88.5 -290.5
t-242.5 -116.5zM1053 180q45 0 74.5 33.5t40 76.5t10.5 91q0 98 -78 98q-43 0 -73 -31t-42 -73.5t-12 -91.5q0 -103 80 -103zM1706 180q44 0 73.5 33.5t40.5 76.5t11 91q0 98 -78 98q-44 0 -74 -31.5t-41.5 -73.5t-11.5 -91q0 -103 80 -103z" />
    <glyph glyph-name="guilsinglleft" unicode="&#x2039;" horiz-adv-x="520" 
d="M467 735l-195 -139l152 -139l-41 -254l-307 286l37 244l399 287z" />
    <glyph glyph-name="guilsinglright" unicode="&#x203a;" horiz-adv-x="518" 
d="M117 748l43 272l307 -287l-39 -244l-399 -286l45 266l192 139z" />
    <glyph glyph-name="fraction" unicode="&#x2044;" horiz-adv-x="323" 
d="M-293 0h-149l1118 1434h149z" />
    <glyph glyph-name="Euro" unicode="&#x20ac;" horiz-adv-x="1468" 
d="M907 1182q-122 0 -212 -71t-144 -191h268l-26 -181h-299q-11 -58 -13 -98h297l-28 -180h-258q25 -102 92.5 -155.5t173.5 -53.5q117 0 191 50t122 157h303q-43 -156 -145 -265.5t-234.5 -160.5t-285.5 -51q-238 0 -384.5 123.5t-170.5 355.5h-121l28 180h93q3 48 12 98
h-90l26 181h109q88 242 277.5 387t455.5 145q113 0 207.5 -30t164.5 -87.5t107 -149t31 -208.5h-305q-29 205 -242 205z" />
    <glyph glyph-name="trademark" unicode="&#x2122;" horiz-adv-x="1165" 
d="M594 1337h-123l-43 -272h-117l43 272h-123l15 97h362zM1145 1434l-58 -369h-116l30 184l-96 -184h-100l-41 184l-31 -184h-117l58 369h112l74 -277l166 277h119z" />
    <glyph glyph-name="partialdiff" unicode="&#x2202;" horiz-adv-x="1245" 
d="M594 934q59 0 111.5 -11.5t86.5 -28t60 -36.5t38 -36t15 -27q68 426 -200 426q-72 0 -143.5 -43t-102.5 -125h-264q12 55 37.5 108.5t70.5 106t103 92t141 64t178 24.5q147 0 249 -57t150.5 -158.5t62.5 -241t-13 -305.5q-25 -157 -74 -280t-110.5 -202t-139 -130.5
t-155.5 -72.5t-165 -21q-67 0 -130 12.5t-125 43t-108.5 76.5t-75 118.5t-28.5 162.5q0 242 151.5 391.5t379.5 149.5zM528 227q126 0 216 96.5t90 225.5q0 49 -18 85t-46.5 55t-59 27.5t-61.5 8.5q-124 0 -209.5 -90.5t-85.5 -226.5q0 -93 53.5 -137t120.5 -44z" />
    <glyph glyph-name="product" unicode="&#x220f;" horiz-adv-x="1523" 
d="M238 1638h1339l-322 -2027h-286l276 1755h-764l-278 -1755h-287z" />
    <glyph glyph-name="summation" unicode="&#x2211;" horiz-adv-x="1425" 
d="M1436 1368h-766l295 -743l-527 -744h762l-43 -270h-1243l727 1014l-401 1013h1239z" />
    <glyph glyph-name="minus" unicode="&#x2212;" horiz-adv-x="925" 
d="M78 621h799l-31 -209h-801z" />
    <glyph glyph-name="radical" unicode="&#x221a;" horiz-adv-x="1677" 
d="M1735 1638l-852 -2027h-351l-219 878h-256l49 320h449l188 -813l691 1642h301z" />
    <glyph glyph-name="infinity" unicode="&#x221e;" horiz-adv-x="1685" 
d="M1253 891q153 0 252 -84.5t99 -224.5q0 -170 -125.5 -288t-307.5 -118q-184 0 -364 203q-225 -203 -412 -203q-156 0 -254 84.5t-98 228.5q0 171 126 286.5t308 115.5q189 0 363 -201q227 201 413 201zM418 399q116 0 268 138q-74 137 -194 137q-82 0 -134.5 -50
t-52.5 -118q0 -41 29 -74t84 -33zM1159 399q81 0 131.5 46.5t50.5 117.5q0 44 -26.5 77.5t-81.5 33.5q-117 0 -272 -137q73 -138 198 -138z" />
    <glyph glyph-name="integral" unicode="&#x222b;" horiz-adv-x="649" 
d="M219 1055q61 397 496 370l-41 -256q-139 0 -170 -200l-156 -987q-17 -102 -48.5 -170.5t-88 -117t-143.5 -68.5t-211 -15l39 256q79 0 115 52.5t50 148.5z" />
    <glyph glyph-name="approxequal" unicode="&#x2248;" horiz-adv-x="1009" 
d="M872 817l119 -16q-20 -121 -96 -197t-197 -76q-40 0 -81.5 17.5t-76 42t-69.5 49t-75.5 42t-80.5 17.5t-76.5 -21.5t-39.5 -49.5l-121 14q20 121 94.5 196.5t194.5 75.5q50 0 103.5 -26.5t92 -57.5t91 -57.5t100.5 -26.5q38 0 75 22t43 52zM817 489l121 -16
q-20 -121 -94.5 -196.5t-194.5 -75.5q-50 0 -103.5 26.5t-92.5 57.5t-91 57.5t-100 26.5q-41 0 -76.5 -21.5t-38.5 -50.5l-120 14q20 121 95 197t195 76q40 0 81.5 -17.5t76.5 -42l70 -49t76 -42t81 -17.5q39 0 75.5 22t39.5 51z" />
    <glyph glyph-name="notequal" unicode="&#x2260;" horiz-adv-x="892" 
d="M860 625h-287l-63 -119h332l-31 -209h-416l-162 -297h-200l162 297h-185l33 209h266l64 119h-312l31 209h395l172 315h201l-172 -315h205z" />
    <glyph glyph-name="lessequal" unicode="&#x2264;" horiz-adv-x="829" 
d="M772 571l-448 201l510 195l43 252l-758 -332l-39 -232l649 -333zM23 184h690l-35 -209h-690z" />
    <glyph glyph-name="greaterequal" unicode="&#x2265;" horiz-adv-x="837" 
d="M78 571l-43 -249l756 333l40 232l-649 332l-43 -252l449 -195zM705 184l-35 -209h-695l35 209h695z" />
    <glyph glyph-name="lozenge" unicode="&#x25ca;" horiz-adv-x="1241" 
d="M940 1434l209 -717l-426 -717h-422l-209 717l426 717h422zM539 209l307 508l-144 508l-307 -508z" />
    <glyph glyph-name="G.ss01" horiz-adv-x="1417" 
d="M784 510l41 250h545l-119 -760h-288l24 135q-80 -91 -167.5 -127.5t-225.5 -36.5q-237 0 -382.5 155t-145.5 435q0 186 53 350t150.5 286.5t245 193.5t325.5 71q149 0 267.5 -50.5t190 -152.5t72.5 -241h-301q-28 93 -81 133.5t-152 40.5q-106 0 -192.5 -54.5
t-140.5 -144t-83 -199.5t-29 -227q0 -156 70.5 -240.5t212.5 -84.5q143 0 239 70.5t127 197.5h-256zM1040 510l7 31z" />
    <glyph glyph-name="R.ss01" horiz-adv-x="1312" 
d="M1303 1032q0 -194 -93.5 -336t-259.5 -207l203 -489h-313l-176 438h-263l-69 -438h-314l228 1434h575q245 0 363.5 -105.5t118.5 -296.5zM514 1163l-70 -454h263q120 0 189 77.5t69 200.5q0 82 -48.5 129t-142.5 47h-260z" />
    <glyph glyph-name="G.ss05" horiz-adv-x="1417" 
d="M784 510l41 250h545l-119 -760h-288l24 135q-80 -91 -167.5 -127.5t-225.5 -36.5q-237 0 -382.5 155t-145.5 435q0 186 53 350t150.5 286.5t245 193.5t325.5 71q149 0 267.5 -50.5t190 -152.5t72.5 -241h-301q-28 93 -81 133.5t-152 40.5q-106 0 -192.5 -54.5
t-140.5 -144t-83 -199.5t-29 -227q0 -156 70.5 -240.5t212.5 -84.5q143 0 239 70.5t127 197.5h-256zM1040 510l7 31z" />
    <glyph glyph-name="i.loclTRK" horiz-adv-x="497" 
d="M238 1452h303l-33 -225h-305zM176 1065h299l-168 -1065h-299z" />
    <glyph glyph-name="a.ss01" 
d="M844 1069h301l-168 -1069h-299l20 121q-3 -12 -20 -32t-49 -45.5t-88.5 -43.5t-124.5 -18q-51 0 -103 15t-102.5 49.5t-90 84t-63.5 125t-24 166.5q0 125 36 242.5t101.5 209.5t166 147.5t220.5 55.5q207 0 266 -151zM502 223q69 0 125 37t89.5 96.5t51.5 130t18 142.5
q0 103 -47 155t-131 52q-59 0 -107 -25t-80 -65.5t-54 -94t-31.5 -109t-9.5 -112.5q0 -101 46.5 -154t129.5 -53z" />
    <glyph glyph-name="aacute.ss01" 
d="M1112 1452l-274 -262h-265l123 262h416zM844 1069h301l-168 -1069h-299l20 121q-3 -12 -20 -32t-49 -45.5t-88.5 -43.5t-124.5 -18q-51 0 -103 15t-102.5 49.5t-90 84t-63.5 125t-24 166.5q0 125 36 242.5t101.5 209.5t166 147.5t220.5 55.5q207 0 266 -151zM502 223
q69 0 125 37t89.5 96.5t51.5 130t18 142.5q0 103 -47 155t-131 52q-59 0 -107 -25t-80 -65.5t-54 -94t-31.5 -109t-9.5 -112.5q0 -101 46.5 -154t129.5 -53z" />
    <glyph glyph-name="abreve.ss01" 
d="M705 1137q-169 0 -248.5 85.5t-55.5 229.5h189q-9 -63 26 -95t107 -32q159 0 184 127h195q-51 -315 -397 -315zM844 1069h301l-168 -1069h-299l20 121q-3 -12 -20 -32t-49 -45.5t-88.5 -43.5t-124.5 -18q-51 0 -103 15t-102.5 49.5t-90 84t-63.5 125t-24 166.5
q0 125 36 242.5t101.5 209.5t166 147.5t220.5 55.5q207 0 266 -151zM502 223q69 0 125 37t89.5 96.5t51.5 130t18 142.5q0 103 -47 155t-131 52q-59 0 -107 -25t-80 -65.5t-54 -94t-31.5 -109t-9.5 -112.5q0 -101 46.5 -154t129.5 -53z" />
    <glyph glyph-name="uni01CE.ss01" 
d="M973 1163h-553l-96 289h227l160 -160l207 160h239zM823 926l21 143h301l-168 -1069h-299l20 121q-3 -12 -20 -32t-49 -45.5t-88.5 -43.5t-124.5 -18q-51 0 -103 15t-102.5 49.5t-90 84t-63.5 125t-24 166.5q0 125 36 242.5t101.5 209.5t166 147.5t220.5 55.5
q207 0 266 -151zM502 223q69 0 125 37t89.5 96.5t51.5 130t18 142.5q0 103 -47 155t-131 52q-59 0 -107 -25t-80 -65.5t-54 -94t-31.5 -109t-9.5 -112.5q0 -101 46.5 -154t129.5 -53z" />
    <glyph glyph-name="acircumflex.ss01" 
d="M715 1323l-211 -160h-240l187 289h553l94 -289h-228zM844 1069h301l-168 -1069h-299l20 121q-3 -12 -20 -32t-49 -45.5t-88.5 -43.5t-124.5 -18q-51 0 -103 15t-102.5 49.5t-90 84t-63.5 125t-24 166.5q0 125 36 242.5t101.5 209.5t166 147.5t220.5 55.5q207 0 266 -151z
M502 223q69 0 125 37t89.5 96.5t51.5 130t18 142.5q0 103 -47 155t-131 52q-59 0 -107 -25t-80 -65.5t-54 -94t-31.5 -109t-9.5 -112.5q0 -101 46.5 -154t129.5 -53z" />
    <glyph glyph-name="adieresis.ss01" 
d="M645 1452l-33 -225h-305l35 225h303zM1126 1452l-34 -225h-304l33 225h305zM844 1069h301l-168 -1069h-299l20 121q-3 -12 -20 -32t-49 -45.5t-88.5 -43.5t-124.5 -18q-51 0 -103 15t-102.5 49.5t-90 84t-63.5 125t-24 166.5q0 125 36 242.5t101.5 209.5t166 147.5
t220.5 55.5q207 0 266 -151zM502 223q69 0 125 37t89.5 96.5t51.5 130t18 142.5q0 103 -47 155t-131 52q-59 0 -107 -25t-80 -65.5t-54 -94t-31.5 -109t-9.5 -112.5q0 -101 46.5 -154t129.5 -53z" />
    <glyph glyph-name="agrave.ss01" 
d="M831 1190h-268l-233 262h420zM844 1069h301l-168 -1069h-299l20 121q-3 -12 -20 -32t-49 -45.5t-88.5 -43.5t-124.5 -18q-51 0 -103 15t-102.5 49.5t-90 84t-63.5 125t-24 166.5q0 125 36 242.5t101.5 209.5t166 147.5t220.5 55.5q207 0 266 -151zM502 223q69 0 125 37
t89.5 96.5t51.5 130t18 142.5q0 103 -47 155t-131 52q-59 0 -107 -25t-80 -65.5t-54 -94t-31.5 -109t-9.5 -112.5q0 -101 46.5 -154t129.5 -53z" />
    <glyph glyph-name="amacron.ss01" 
d="M1135 1452l-27 -174h-741l26 174h742zM844 1069h301l-168 -1069h-299l20 121q-3 -12 -20 -32t-49 -45.5t-88.5 -43.5t-124.5 -18q-51 0 -103 15t-102.5 49.5t-90 84t-63.5 125t-24 166.5q0 125 36 242.5t101.5 209.5t166 147.5t220.5 55.5q207 0 266 -151zM502 223
q69 0 125 37t89.5 96.5t51.5 130t18 142.5q0 103 -47 155t-131 52q-59 0 -107 -25t-80 -65.5t-54 -94t-31.5 -109t-9.5 -112.5q0 -101 46.5 -154t129.5 -53z" />
    <glyph glyph-name="aogonek.ss01" 
d="M844 1069h301l-168 -1069h-84q-277 -73 -277 -221q0 -59 50 -73.5t125 15.5v-124q-43 -23 -101 -37.5t-120 -14.5t-114.5 16t-86 58.5t-33.5 106.5q0 59 33 109.5t85 83.5t109.5 53.5t114.5 27.5l20 121q-3 -12 -20 -32t-49 -45.5t-88.5 -43.5t-124.5 -18q-51 0 -103 15
t-102.5 49.5t-90 84t-63.5 125t-24 166.5q0 125 36 242.5t101.5 209.5t166 147.5t220.5 55.5q207 0 266 -151zM502 223q69 0 125 37t89.5 96.5t51.5 130t18 142.5q0 103 -47 155t-131 52q-59 0 -107 -25t-80 -65.5t-54 -94t-31.5 -109t-9.5 -112.5q0 -101 46.5 -154
t129.5 -53z" />
    <glyph glyph-name="aring.ss01" 
d="M721 1190q-83 0 -137 52.5t-54 131.5q0 88 67 154.5t157 66.5q77 0 129.5 -53.5t52.5 -132.5q0 -86 -66.5 -152.5t-148.5 -66.5zM741 1473q-35 0 -61.5 -27.5t-26.5 -61.5q0 -30 21.5 -50.5t56.5 -20.5q32 0 57 26.5t25 57.5q0 32 -20.5 54t-51.5 22zM844 1069h301
l-168 -1069h-299l20 121q-3 -12 -20 -32t-49 -45.5t-88.5 -43.5t-124.5 -18q-51 0 -103 15t-102.5 49.5t-90 84t-63.5 125t-24 166.5q0 125 36 242.5t101.5 209.5t166 147.5t220.5 55.5q207 0 266 -151zM502 223q69 0 125 37t89.5 96.5t51.5 130t18 142.5q0 103 -47 155
t-131 52q-59 0 -107 -25t-80 -65.5t-54 -94t-31.5 -109t-9.5 -112.5q0 -101 46.5 -154t129.5 -53z" />
    <glyph glyph-name="atilde.ss01" 
d="M477 1327q-34 0 -59.5 -17.5t-24.5 -45.5h-119q0 118 65 193t185 75q45 0 89.5 -16.5t80.5 -40t71 -47t76 -40t81 -16.5q33 0 59 18t25 44h116q0 -116 -65 -191.5t-185 -75.5q-45 0 -88.5 16.5t-79 40t-70.5 47t-76 40t-81 16.5zM844 1069h301l-168 -1069h-299l20 121
q-3 -12 -20 -32t-49 -45.5t-88.5 -43.5t-124.5 -18q-51 0 -103 15t-102.5 49.5t-90 84t-63.5 125t-24 166.5q0 125 36 242.5t101.5 209.5t166 147.5t220.5 55.5q207 0 266 -151zM502 223q69 0 125 37t89.5 96.5t51.5 130t18 142.5q0 103 -47 155t-131 52q-59 0 -107 -25
t-80 -65.5t-54 -94t-31.5 -109t-9.5 -112.5q0 -101 46.5 -154t129.5 -53z" />
    <glyph glyph-name="g.ss01" horiz-adv-x="1144" 
d="M1114 1065l-37 -217q-50 0 -102 -27q4 -36 4 -57q0 -182 -129 -294t-328 -112q-125 0 -217 45q-49 -14 -49 -59q0 -40 37 -50.5t135 -10.5h72q70 0 134.5 -10t126 -33.5t106.5 -59.5t72.5 -93t27.5 -128q0 -107 -47 -188.5t-127.5 -128.5t-177 -70t-207.5 -23
q-69 0 -133 10.5t-125 35t-106.5 61t-73 93t-27.5 126.5q0 224 256 315q-66 7 -120 50t-54 108q0 66 43 107t120 53q-43 67 -43 160q0 184 130.5 296.5t328.5 112.5q178 0 281 -92q86 82 229 80zM545 567q84 0 134 49t50 123q0 129 -147 129q-90 0 -137.5 -50t-47.5 -124
q0 -24 5 -43.5t19.5 -40t45.5 -32t78 -11.5zM477 70q-116 0 -182 -44t-66 -126q0 -60 46 -99t153 -39q118 0 185 44.5t67 127.5q0 60 -47.5 98t-155.5 38z" />
    <glyph glyph-name="l.ss01" horiz-adv-x="577" 
d="M408 0q-55 -6 -98 -7t-82.5 2t-67.5 13t-51.5 26.5t-37 41.5t-20.5 59t-6 78t10 100l181 1121h299l-183 -1151q-6 -36 16 -51.5t81 -14.5z" />
    <glyph glyph-name="a.ss02" 
d="M844 1069h301l-168 -1069h-299l20 121q-3 -12 -20 -32t-49 -45.5t-88.5 -43.5t-124.5 -18q-51 0 -103 15t-102.5 49.5t-90 84t-63.5 125t-24 166.5q0 125 36 242.5t101.5 209.5t166 147.5t220.5 55.5q207 0 266 -151zM502 223q69 0 125 37t89.5 96.5t51.5 130t18 142.5
q0 103 -47 155t-131 52q-59 0 -107 -25t-80 -65.5t-54 -94t-31.5 -109t-9.5 -112.5q0 -101 46.5 -154t129.5 -53z" />
    <glyph glyph-name="aacute.ss02" 
d="M1112 1452l-274 -262h-265l123 262h416zM844 1069h301l-168 -1069h-299l20 121q-3 -12 -20 -32t-49 -45.5t-88.5 -43.5t-124.5 -18q-51 0 -103 15t-102.5 49.5t-90 84t-63.5 125t-24 166.5q0 125 36 242.5t101.5 209.5t166 147.5t220.5 55.5q207 0 266 -151zM502 223
q69 0 125 37t89.5 96.5t51.5 130t18 142.5q0 103 -47 155t-131 52q-59 0 -107 -25t-80 -65.5t-54 -94t-31.5 -109t-9.5 -112.5q0 -101 46.5 -154t129.5 -53z" />
    <glyph glyph-name="abreve.ss02" 
d="M705 1137q-169 0 -248.5 85.5t-55.5 229.5h189q-9 -63 26 -95t107 -32q159 0 184 127h195q-51 -315 -397 -315zM844 1069h301l-168 -1069h-299l20 121q-3 -12 -20 -32t-49 -45.5t-88.5 -43.5t-124.5 -18q-51 0 -103 15t-102.5 49.5t-90 84t-63.5 125t-24 166.5
q0 125 36 242.5t101.5 209.5t166 147.5t220.5 55.5q207 0 266 -151zM502 223q69 0 125 37t89.5 96.5t51.5 130t18 142.5q0 103 -47 155t-131 52q-59 0 -107 -25t-80 -65.5t-54 -94t-31.5 -109t-9.5 -112.5q0 -101 46.5 -154t129.5 -53z" />
    <glyph glyph-name="uni01CE.ss02" 
d="M973 1163h-553l-96 289h227l160 -160l207 160h239zM823 926l21 143h301l-168 -1069h-299l20 121q-3 -12 -20 -32t-49 -45.5t-88.5 -43.5t-124.5 -18q-51 0 -103 15t-102.5 49.5t-90 84t-63.5 125t-24 166.5q0 125 36 242.5t101.5 209.5t166 147.5t220.5 55.5
q207 0 266 -151zM502 223q69 0 125 37t89.5 96.5t51.5 130t18 142.5q0 103 -47 155t-131 52q-59 0 -107 -25t-80 -65.5t-54 -94t-31.5 -109t-9.5 -112.5q0 -101 46.5 -154t129.5 -53z" />
    <glyph glyph-name="acircumflex.ss02" 
d="M715 1323l-211 -160h-240l187 289h553l94 -289h-228zM844 1069h301l-168 -1069h-299l20 121q-3 -12 -20 -32t-49 -45.5t-88.5 -43.5t-124.5 -18q-51 0 -103 15t-102.5 49.5t-90 84t-63.5 125t-24 166.5q0 125 36 242.5t101.5 209.5t166 147.5t220.5 55.5q207 0 266 -151z
M502 223q69 0 125 37t89.5 96.5t51.5 130t18 142.5q0 103 -47 155t-131 52q-59 0 -107 -25t-80 -65.5t-54 -94t-31.5 -109t-9.5 -112.5q0 -101 46.5 -154t129.5 -53z" />
    <glyph glyph-name="adieresis.ss02" 
d="M645 1452l-33 -225h-305l35 225h303zM1126 1452l-34 -225h-304l33 225h305zM844 1069h301l-168 -1069h-299l20 121q-3 -12 -20 -32t-49 -45.5t-88.5 -43.5t-124.5 -18q-51 0 -103 15t-102.5 49.5t-90 84t-63.5 125t-24 166.5q0 125 36 242.5t101.5 209.5t166 147.5
t220.5 55.5q207 0 266 -151zM502 223q69 0 125 37t89.5 96.5t51.5 130t18 142.5q0 103 -47 155t-131 52q-59 0 -107 -25t-80 -65.5t-54 -94t-31.5 -109t-9.5 -112.5q0 -101 46.5 -154t129.5 -53z" />
    <glyph glyph-name="agrave.ss02" 
d="M831 1190h-268l-233 262h420zM844 1069h301l-168 -1069h-299l20 121q-3 -12 -20 -32t-49 -45.5t-88.5 -43.5t-124.5 -18q-51 0 -103 15t-102.5 49.5t-90 84t-63.5 125t-24 166.5q0 125 36 242.5t101.5 209.5t166 147.5t220.5 55.5q207 0 266 -151zM502 223q69 0 125 37
t89.5 96.5t51.5 130t18 142.5q0 103 -47 155t-131 52q-59 0 -107 -25t-80 -65.5t-54 -94t-31.5 -109t-9.5 -112.5q0 -101 46.5 -154t129.5 -53z" />
    <glyph glyph-name="amacron.ss02" 
d="M1135 1452l-27 -174h-741l26 174h742zM844 1069h301l-168 -1069h-299l20 121q-3 -12 -20 -32t-49 -45.5t-88.5 -43.5t-124.5 -18q-51 0 -103 15t-102.5 49.5t-90 84t-63.5 125t-24 166.5q0 125 36 242.5t101.5 209.5t166 147.5t220.5 55.5q207 0 266 -151zM502 223
q69 0 125 37t89.5 96.5t51.5 130t18 142.5q0 103 -47 155t-131 52q-59 0 -107 -25t-80 -65.5t-54 -94t-31.5 -109t-9.5 -112.5q0 -101 46.5 -154t129.5 -53z" />
    <glyph glyph-name="aogonek.ss02" 
d="M844 1069h301l-168 -1069h-84q-277 -73 -277 -221q0 -59 50 -73.5t125 15.5v-124q-43 -23 -101 -37.5t-120 -14.5t-114.5 16t-86 58.5t-33.5 106.5q0 59 33 109.5t85 83.5t109.5 53.5t114.5 27.5l20 121q-3 -12 -20 -32t-49 -45.5t-88.5 -43.5t-124.5 -18q-51 0 -103 15
t-102.5 49.5t-90 84t-63.5 125t-24 166.5q0 125 36 242.5t101.5 209.5t166 147.5t220.5 55.5q207 0 266 -151zM502 223q69 0 125 37t89.5 96.5t51.5 130t18 142.5q0 103 -47 155t-131 52q-59 0 -107 -25t-80 -65.5t-54 -94t-31.5 -109t-9.5 -112.5q0 -101 46.5 -154
t129.5 -53z" />
    <glyph glyph-name="aring.ss02" 
d="M721 1190q-83 0 -137 52.5t-54 131.5q0 88 67 154.5t157 66.5q77 0 129.5 -53.5t52.5 -132.5q0 -86 -66.5 -152.5t-148.5 -66.5zM741 1473q-35 0 -61.5 -27.5t-26.5 -61.5q0 -30 21.5 -50.5t56.5 -20.5q32 0 57 26.5t25 57.5q0 32 -20.5 54t-51.5 22zM844 1069h301
l-168 -1069h-299l20 121q-3 -12 -20 -32t-49 -45.5t-88.5 -43.5t-124.5 -18q-51 0 -103 15t-102.5 49.5t-90 84t-63.5 125t-24 166.5q0 125 36 242.5t101.5 209.5t166 147.5t220.5 55.5q207 0 266 -151zM502 223q69 0 125 37t89.5 96.5t51.5 130t18 142.5q0 103 -47 155
t-131 52q-59 0 -107 -25t-80 -65.5t-54 -94t-31.5 -109t-9.5 -112.5q0 -101 46.5 -154t129.5 -53z" />
    <glyph glyph-name="atilde.ss02" 
d="M477 1327q-34 0 -59.5 -17.5t-24.5 -45.5h-119q0 118 65 193t185 75q45 0 89.5 -16.5t80.5 -40t71 -47t76 -40t81 -16.5q33 0 59 18t25 44h116q0 -116 -65 -191.5t-185 -75.5q-45 0 -88.5 16.5t-79 40t-70.5 47t-76 40t-81 16.5zM844 1069h301l-168 -1069h-299l20 121
q-3 -12 -20 -32t-49 -45.5t-88.5 -43.5t-124.5 -18q-51 0 -103 15t-102.5 49.5t-90 84t-63.5 125t-24 166.5q0 125 36 242.5t101.5 209.5t166 147.5t220.5 55.5q207 0 266 -151zM502 223q69 0 125 37t89.5 96.5t51.5 130t18 142.5q0 103 -47 155t-131 52q-59 0 -107 -25
t-80 -65.5t-54 -94t-31.5 -109t-9.5 -112.5q0 -101 46.5 -154t129.5 -53z" />
    <glyph glyph-name="g.ss03" horiz-adv-x="1144" 
d="M1114 1065l-37 -217q-50 0 -102 -27q4 -36 4 -57q0 -182 -129 -294t-328 -112q-125 0 -217 45q-49 -14 -49 -59q0 -40 37 -50.5t135 -10.5h72q70 0 134.5 -10t126 -33.5t106.5 -59.5t72.5 -93t27.5 -128q0 -107 -47 -188.5t-127.5 -128.5t-177 -70t-207.5 -23
q-69 0 -133 10.5t-125 35t-106.5 61t-73 93t-27.5 126.5q0 224 256 315q-66 7 -120 50t-54 108q0 66 43 107t120 53q-43 67 -43 160q0 184 130.5 296.5t328.5 112.5q178 0 281 -92q86 82 229 80zM545 567q84 0 134 49t50 123q0 129 -147 129q-90 0 -137.5 -50t-47.5 -124
q0 -24 5 -43.5t19.5 -40t45.5 -32t78 -11.5zM477 70q-116 0 -182 -44t-66 -126q0 -60 46 -99t153 -39q118 0 185 44.5t67 127.5q0 60 -47.5 98t-155.5 38z" />
    <glyph glyph-name="l.ss04" horiz-adv-x="577" 
d="M408 0q-55 -6 -98 -7t-82.5 2t-67.5 13t-51.5 26.5t-37 41.5t-20.5 59t-6 78t10 100l181 1121h299l-183 -1151q-6 -36 16 -51.5t81 -14.5z" />
    <glyph glyph-name="f_t" horiz-adv-x="1540" 
d="M1278 831l-80 -497q-8 -53 8.5 -77t67.5 -24q66 0 139 17l-37 -234q-74 -30 -200 -30q-41 0 -75 4.5t-67 15t-56.5 28.5t-44.5 45t-29 64.5t-11.5 86.5t8.5 112l78 489h-461l-131 -831h-299l133 831h-172l35 234h174l8 47q11 68 31 122.5t44.5 91t58.5 63t65.5 41.5
t73 23t73.5 10.5t74 2.5q90 0 139 -14l-37 -223q-58 8 -83 8q-69 0 -101 -33t-43 -102l-6 -37h461l43 266h301l-43 -266h213l-39 -234h-213z" />
    <glyph glyph-name="r_t" horiz-adv-x="1519" 
d="M1260 831l-80 -497q-8 -53 8 -77t67 -24q67 0 140 17l-37 -234q-74 -30 -201 -30q-41 0 -75 4.5t-67 15t-56.5 28.5t-44 45t-29 64.5t-11.5 86.5t9 112l78 489h-166l34 234h168l43 266h301l-43 -266h213l-38 -234h-213zM428 829q50 104 166 170t235 66l-38 -234
q-162 1 -265 -80t-145 -212l-84 -539h-299l168 1065h299z" />
    <glyph glyph-name="zero.dnom" horiz-adv-x="589" 
d="M213 -4q116 0 190 89t74 241q0 100 -50.5 156.5t-137.5 56.5q-123 0 -192.5 -96.5t-69.5 -235.5q0 -100 48.5 -155.5t137.5 -55.5zM274 432q42 0 64 -32t22 -87q0 -97 -39 -154t-98 -57q-39 0 -59.5 31t-20.5 86q0 98 37 155.5t94 57.5z" />
    <glyph glyph-name="one.dnom" horiz-adv-x="419" 
d="M276 532l-83 -532h-115l72 399q-41 -54 -138 -45l17 107q40 -4 77.5 19t55.5 52h114z" />
    <glyph glyph-name="two.dnom" horiz-adv-x="555" 
d="M8 0q12 101 53 159.5t134 108.5q7 4 33.5 16.5t37.5 19.5t28.5 20t24.5 28t7 33q0 25 -19 39t-41 14q-31 0 -55.5 -18t-28.5 -55h-116q11 80 65.5 129t147.5 49q81 0 122 -39t41 -103q0 -25 -5.5 -46t-19 -39.5t-24.5 -31t-35 -28t-36.5 -23t-43 -23.5t-40.5 -22
q-38 -20 -60 -44.5t-24 -41.5h239l-14 -102h-371z" />
    <glyph glyph-name="three.dnom" horiz-adv-x="567" 
d="M322 283q38 -4 71 -30.5t33 -76.5q0 -78 -62 -131t-171 -53q-85 0 -132.5 51t-35.5 123h108q-4 -39 19 -56.5t57 -17.5q39 0 69.5 21t30.5 63q0 62 -92 62h-22l14 84h22q42 0 65 18t23 51q0 51 -65 51q-69 0 -80 -67h-106q14 80 66.5 124t139.5 44q72 0 115 -35t43 -88
q0 -55 -33 -91t-77 -46z" />
    <glyph glyph-name="four.dnom" horiz-adv-x="577" 
d="M432 135h-61l-23 -135h-110l22 135h-240l13 88l291 312h110l-51 -312h61zM272 223l29 185l-170 -185h141z" />
    <glyph glyph-name="five.dnom" horiz-adv-x="532" 
d="M262 371q78 0 123.5 -52t32.5 -135q-17 -94 -81 -144t-161 -50q-94 0 -139.5 48.5t-34.5 125.5h119q-4 -35 17.5 -52.5t51.5 -17.5q36 0 66.5 20t38.5 70q7 52 -16 75.5t-58 23.5q-45 0 -84 -35h-102l86 287h295l-15 -103h-215l-26 -94q40 33 102 33z" />
    <glyph glyph-name="six.dnom" horiz-adv-x="591" 
d="M295 362q74 0 117 -38.5t43 -112.5q0 -59 -23 -104t-59.5 -69.5t-75 -36t-76.5 -11.5q-114 0 -156 76t-26 202q20 122 87 197.5t175 75.5q85 0 125.5 -44.5t36.5 -99.5h-117q-1 19 -19.5 31t-39.5 12q-109 0 -137 -145q17 26 57 46.5t88 20.5zM233 92q18 0 39 8
t41.5 34.5t20.5 66.5q0 37 -22 55t-54 18q-39 0 -70.5 -28t-31.5 -76q0 -40 23 -59t54 -19z" />
    <glyph glyph-name="seven.dnom" horiz-adv-x="468" 
d="M408 535l-17 -103l-285 -432h-114l289 432h-256l20 103h363z" />
    <glyph glyph-name="eight.dnom" horiz-adv-x="497" 
d="M317 295q72 -42 72 -111q0 -85 -59 -136.5t-162 -51.5q-77 0 -125.5 38.5t-48.5 104.5q0 111 106 156q-45 31 -45 88q0 61 50 108.5t135 47.5q69 0 110 -35.5t41 -87.5q0 -82 -74 -121zM158 389q0 -25 17 -39t46 -14q30 2 49 19.5t19 47.5q0 22 -15.5 36t-42.5 14
q-35 0 -54 -19.5t-19 -44.5zM178 84q50 0 75.5 27t25.5 61q0 33 -23.5 51.5t-58.5 18.5q-40 0 -69.5 -24t-29.5 -64q0 -33 22.5 -51.5t57.5 -18.5z" />
    <glyph glyph-name="nine.dnom" horiz-adv-x="591" 
d="M211 168q-74 0 -117 38.5t-43 112.5q0 59 22.5 104t59 69.5t75 36.5t77.5 12q59 0 99.5 -22t59 -60t25.5 -88.5t-2 -108.5q-20 -121 -88 -196.5t-176 -75.5q-83 0 -123 44t-37 99h115q1 -19 20 -31t41 -12q107 0 135 146q-17 -26 -56.5 -47t-86.5 -21zM272 438
q-32 0 -66 -25.5t-34 -82.5q0 -37 22 -55.5t54 -18.5q39 0 69.5 28t30.5 76q0 40 -23 59t-53 19z" />
    <glyph glyph-name="zero.numr" horiz-adv-x="587" 
d="M354 897q116 0 190 89t74 241q0 100 -50.5 156.5t-137.5 56.5q-123 0 -192.5 -96.5t-69.5 -235.5q0 -100 48.5 -155.5t137.5 -55.5zM416 1333q42 0 64 -32t22 -87q0 -97 -39 -153.5t-98 -56.5q-39 0 -59.5 30.5t-20.5 85.5q0 98 37 155.5t94 57.5z" />
    <glyph glyph-name="one.numr" horiz-adv-x="419" 
d="M420 1434l-84 -533h-115l72 399q-41 -54 -137 -45l16 107q40 -4 77.5 19.5t55.5 52.5h115z" />
    <glyph glyph-name="two.numr" horiz-adv-x="555" 
d="M152 901q12 101 53 159.5t133 108.5q7 4 33.5 16.5t37.5 19.5t28.5 20t24.5 28t7 33q0 25 -18.5 39t-40.5 14q-31 0 -55.5 -18t-28.5 -55h-117q11 80 65.5 129t147.5 49q81 0 122.5 -39t41.5 -102q0 -25 -5.5 -46t-19 -39.5t-25 -31t-35.5 -28t-36.5 -23.5t-42.5 -23.5
t-41 -21.5q-38 -20 -60 -44.5t-24 -41.5h240l-15 -103h-370z" />
    <glyph glyph-name="three.numr" horiz-adv-x="565" 
d="M463 1184q38 -4 71 -30.5t33 -76.5q0 -78 -62 -131t-171 -53q-85 0 -132.5 51t-35.5 123h108q-4 -39 19 -56.5t57 -17.5q39 0 70 21t31 63q0 62 -93 62h-22l14 84h23q42 0 65 18t23 51q0 51 -66 51q-69 0 -80 -67h-106q14 80 67 124t140 44q72 0 114.5 -35t42.5 -88
q0 -55 -33 -91t-77 -46z" />
    <glyph glyph-name="four.numr" horiz-adv-x="577" 
d="M575 1036h-61l-22 -135h-111l22 135h-239l12 88l291 312h111l-52 -312h62zM416 1124l28 185l-170 -185h142z" />
    <glyph glyph-name="five.numr" horiz-adv-x="536" 
d="M406 1272q78 0 123 -52t32 -135q-17 -94 -81 -144t-161 -50q-94 0 -139.5 48.5t-34.5 125.5h119q-4 -35 17.5 -52.5t52.5 -17.5q36 0 66 20t38 70q7 52 -15.5 75.5t-57.5 23.5q-45 0 -84 -35h-103l86 287h295l-14 -103h-215l-27 -94q40 33 103 33z" />
    <glyph glyph-name="six.numr" horiz-adv-x="591" 
d="M438 1262q74 0 117 -38.5t43 -113.5q0 -48 -15.5 -86.5t-39.5 -63t-55.5 -41t-62 -23.5t-60.5 -7q-114 0 -156.5 76t-26.5 202q20 122 87 197.5t175 75.5q85 0 125.5 -44.5t36.5 -99.5h-117q-1 19 -19.5 31t-39.5 12q-109 0 -137 -145q17 26 57.5 47t87.5 21zM377 991
q12 0 27.5 5t32.5 16t28.5 34t11.5 54q0 37 -22 55.5t-54 18.5q-39 0 -70.5 -28.5t-31.5 -76.5q0 -40 23.5 -59t54.5 -19z" />
    <glyph glyph-name="seven.numr" horiz-adv-x="468" 
d="M551 1436l-16 -103l-285 -432h-115l289 432h-256l20 103h363z" />
    <glyph glyph-name="eight.numr" horiz-adv-x="497" 
d="M461 1196q71 -41 71 -111q0 -85 -59 -136.5t-162 -51.5q-77 0 -125.5 38.5t-48.5 104.5q0 110 107 156q-45 31 -45 88q0 61 49.5 108.5t134.5 47.5q70 0 111 -35.5t41 -87.5q0 -82 -74 -121zM301 1290q0 -25 17.5 -39t46.5 -14q30 2 48.5 20t18.5 48q0 22 -15 35.5
t-42 13.5q-35 0 -54.5 -19.5t-19.5 -44.5zM322 985q50 0 75 27t25 61q0 33 -23.5 51.5t-58.5 18.5q-40 0 -69 -24t-29 -64q0 -33 22.5 -51.5t57.5 -18.5z" />
    <glyph glyph-name="nine.numr" horiz-adv-x="591" 
d="M354 1069q-74 0 -116.5 38.5t-42.5 113.5q0 59 22.5 104t58.5 69.5t74.5 36t77.5 11.5q59 0 99.5 -22t59 -60t25.5 -88.5t-2 -108.5q-20 -121 -88 -196.5t-176 -75.5q-83 0 -123 44t-37 99h115q1 -19 20 -31t41 -12q108 0 136 146q-17 -26 -57 -47t-87 -21zM416 1339
q-32 0 -66.5 -25.5t-34.5 -82.5q0 -37 22 -55.5t54 -18.5q39 0 70 28.5t31 76.5q0 40 -23 58.5t-53 18.5z" />
    <glyph glyph-name="Aacutecy" horiz-adv-x="1490" 
d="M1290 1821l-274 -262h-264l122 262h416zM1010 0l-49 268h-535l-133 -268h-336l770 1434h293l326 -1434h-336zM541 498h377l-103 549z" />
    <glyph glyph-name="Ieacutecy" horiz-adv-x="1200" 
d="M645 1559h264l275 262h-416zM1208 1163h-694l-47 -311h590l-41 -250h-590l-51 -332h712l-43 -270h-1026l228 1434h1005z" />
    <glyph glyph-name="Iiacutecy" horiz-adv-x="1445" 
d="M748 1559h264l274 262h-416zM246 1434h313l-151 -932h6l723 932h319l-227 -1434h-314l144 913h-4l-705 -913h-332z" />
    <glyph glyph-name="Oacutecy" horiz-adv-x="1495" 
d="M784 1559h265l274 262h-416zM874 1452q268 0 423 -150.5t155 -418.5q0 -147 -36.5 -282.5t-107.5 -247.5t-169 -195.5t-226.5 -129.5t-273.5 -46q-267 0 -421.5 150t-154.5 417q0 149 36 285t106 248t167 195t226 129t276 46zM680 250q85 0 158 34t125 92.5t89 136
t54.5 165t17.5 178.5q0 157 -75 242.5t-218 85.5q-107 0 -193.5 -52.5t-139.5 -139.5t-81 -194t-28 -223q0 -155 75.5 -240t215.5 -85z" />
    <glyph glyph-name="Uacutecy" horiz-adv-x="1275" 
d="M666 1559h264l274 262h-416zM989 1434h348l-600 -1055q-146 -256 -288 -345t-365 -67l41 277q68 -7 117.5 0t80 28.5t46.5 41.5t32 51q53 93 19 208l-236 861h342l154 -621z" />
    <glyph glyph-name="Yeruacutecy" horiz-adv-x="1826" 
d="M944 1559h264l275 262h-416zM737 954q247 0 368.5 -104t121.5 -291q0 -267 -166.5 -413t-458.5 -146h-584l228 1434h313l-76 -480h254zM1610 0h-314l226 1434h313zM627 266q124 0 195 78.5t71 196.5q0 149 -186 149h-267l-65 -424h252z" />
    <glyph glyph-name="Ereversedacutecy" horiz-adv-x="1427" 
d="M1282 1821l-274 -262h-265l123 262h416zM809 1452q265 0 418 -148.5t153 -420.5q0 -148 -33 -283t-99 -247.5t-157.5 -195.5t-215.5 -129t-267 -46q-116 0 -215.5 31t-173 89.5t-113 150.5t-32.5 206h303q21 -115 70.5 -161t160.5 -46q148 0 251 96t153 254h-398l41 250
h398v25q0 145 -66 225t-194 80q-117 0 -190 -50t-132 -155h-313q41 157 143 266.5t231 159t277 49.5z" />
    <glyph glyph-name="Iuacutecy" horiz-adv-x="2019" 
d="M1577 1821l-274 -262h-265l123 262h416zM1399 1452q268 0 422.5 -150.5t154.5 -418.5q0 -147 -36.5 -282.5t-107.5 -247.5t-169 -195.5t-226.5 -129.5t-273.5 -46q-267 0 -421 150t-154 417v41h-162l-92 -590h-314l226 1434h313l-92 -590h160q50 179 155 314.5
t264.5 214.5t352.5 79zM1204 250q106 0 192.5 52t140.5 138.5t83 193.5t29 222q0 157 -75 242.5t-218 85.5q-107 0 -193.5 -52.5t-140 -139.5t-81.5 -194.5t-28 -222.5q0 -155 75.5 -240t215.5 -85z" />
    <glyph glyph-name="Iaacutecy" horiz-adv-x="1394" 
d="M1264 1821l-275 -262h-264l123 262h416zM1405 1434l-227 -1434h-314l82 520h-319q-106 0 -172.5 -57.5t-83.5 -171.5l-9 -60q-14 -90 -29.5 -138t-47.5 -93h-318q71 101 88 248l8 67q33 264 273 355q-68 37 -113 109t-45 182q0 146 75.5 254t209.5 163.5t309 55.5h633z
M682 766h303l64 397h-291q-127 0 -196.5 -66t-69.5 -165q0 -80 47.5 -123t142.5 -43z" />
    <glyph glyph-name="aacutecy" horiz-adv-x="1175" 
d="M1077 1452l-274 -262h-264l123 262h415zM1044 637l-59 -385q-6 -42 10.5 -61t57.5 -21l-29 -164q-52 -14 -113 -14q-105 0 -166 46.5t-43 117.5l3 10q-41 -53 -72 -79q-117 -101 -279 -101q-72 0 -132.5 16t-109 49t-75.5 90t-27 133q0 85 30 149t87.5 104.5t129 63.5
t165.5 34q13 1 57 6t58 7t49.5 6.5t52 8t41.5 9t43.5 11.5t34.5 13q23 168 -144 168q-73 0 -120.5 -27t-71.5 -92h-281q39 172 155.5 256t336.5 84q256 0 350 -107t61 -331zM696 336l33 180q-92 -24 -260 -51q-80 -12 -120 -50t-40 -96q0 -118 135 -118q83 0 151.5 45.5
t100.5 89.5z" />
    <glyph glyph-name="ieacutecy" horiz-adv-x="1150" 
d="M1085 1452l-274 -262h-264l123 262h415zM637 1075q90 0 167.5 -25.5t139.5 -77t97.5 -139t35.5 -202.5q0 -40 -7 -102t-17 -95h-742v-2q0 -225 217 -225q133 0 199 88h277q-138 -309 -512 -309q-68 0 -132.5 15.5t-124.5 50t-104.5 85t-71 125.5t-26.5 166q0 181 78 329
t216.5 233t309.5 85zM797 616q6 24 6 60q0 78 -51 128t-138 50q-108 0 -177 -65.5t-101 -172.5h461z" />
    <glyph glyph-name="iiacutecy" horiz-adv-x="1245" 
d="M594 1190h264l275 262h-416zM166 1065h299l-100 -645h4l532 645h305l-168 -1065h-299l99 625h-4l-519 -625h-317z" />
    <glyph glyph-name="oacutecy" 
d="M541 1190h264l274 262h-415zM645 1075q65 0 129 -15.5t124.5 -50.5t106 -86t73.5 -127.5t28 -168.5q0 -178 -75.5 -324t-215 -231.5t-315.5 -85.5q-66 0 -130 15t-125 49.5t-106.5 85.5t-73.5 129t-28 173q0 176 77 321.5t217 230.5t314 85zM819 608q0 109 -55 167.5
t-141 58.5q-93 0 -163.5 -60t-103 -146t-32.5 -179q0 -105 55 -163.5t141 -58.5q94 0 164.5 60t102.5 145t32 176z" />
    <glyph glyph-name="uacutecy" horiz-adv-x="1173" 
d="M555 1190h264l275 262h-416zM897 1065h309l-624 -1096q-89 -156 -171 -239t-187 -115t-253 -14l39 247q68 -7 120.5 3t87.5 35.5t56 51.5t41 64q19 35 23 57t-4 64l-240 942h295l148 -686z" />
    <glyph glyph-name="yeruacutecy" horiz-adv-x="1660" 
d="M801 1190h264l274 262h-415zM684 709q182 0 288.5 -84t106.5 -228q0 -186 -136 -291.5t-353 -105.5h-582l168 1065h299l-57 -356h266zM1323 1065h299l-168 -1065h-299zM608 233q86 0 136.5 38t50.5 104q0 100 -136 100h-274l-41 -242h264z" />
    <glyph glyph-name="ereversedacutecy" horiz-adv-x="1105" 
d="M1063 1452l-275 -262h-264l123 262h416zM586 1075q67 0 129.5 -14.5t121 -47.5t101.5 -81.5t68.5 -121.5t25.5 -163q0 -187 -74 -337t-211 -237t-313 -87q-63 0 -118.5 10.5t-109 38t-92.5 70t-64.5 111.5t-29.5 157h267q5 -73 41.5 -109.5t120.5 -36.5q91 0 157.5 59.5
t102.5 157.5h-287l27 183h292v14q0 91 -48.5 142t-133.5 51q-158 0 -219 -144h-274q126 385 520 385z" />
    <glyph glyph-name="iuacutecy" horiz-adv-x="1658" 
d="M1337 1452l-274 -262h-264l123 262h415zM1120 1075q65 0 129 -15.5t124.5 -50.5t106 -86t73.5 -127.5t28 -168.5q0 -178 -75.5 -324t-215 -231.5t-315.5 -85.5q-65 0 -127.5 14.5t-122.5 47.5t-105.5 81.5t-75 122t-32.5 164.5h-139l-66 -418h-299l168 1065h299l-65 -414
h133q61 192 215 309t362 117zM995 227q94 0 164.5 60t102.5 145t32 176q0 109 -55 167.5t-141 58.5q-93 0 -163.5 -60t-103 -146t-32.5 -179q0 -105 55 -163.5t141 -58.5z" />
    <glyph glyph-name="iaacutecy" horiz-adv-x="1179" 
d="M1098 1452l-275 -262h-264l123 262h416zM559 1065h582l-168 -1065h-299l57 356h-254q-58 0 -90 -25t-41 -83l-14 -86q-1 -14 -3 -26.5t-3.5 -22t-4.5 -19.5t-4.5 -16t-5.5 -15t-5.5 -12.5t-7 -13t-6.5 -11.5t-8 -13t-8 -13h-294q24 40 34.5 68t20.5 94l12 86
q10 65 39 111.5t92 76.5q-110 83 -110 232q0 186 136 291.5t353 105.5zM764 590l41 241h-264q-87 0 -137 -37.5t-50 -103.5q0 -100 135 -100h275z" />
    </font>
</defs>
</svg>
