<?xml version="1.0" standalone="no"?>
<!DOCTYPE svg PUBLIC "-//W3C//DTD SVG 1.1//EN" "http://www.w3.org/Graphics/SVG/1.1/DTD/svg11.dtd" >
<svg xmlns="http://www.w3.org/2000/svg" xmlns:xlink="http://www.w3.org/1999/xlink" version="1.1">
<metadata>
Created by FontForge 20170731 at Mon Aug  7 16:11:18 2023
 By Aleksey,,,
(c) 2018 Connary Fagen
</metadata>
<defs>
<font id="ArticulatCF-DemiBold" horiz-adv-x="1132" >
  <font-face 
    font-family="Articulat CF Demi Bold"
    font-weight="600"
    font-stretch="normal"
    units-per-em="2048"
    panose-1="0 0 7 0 0 0 0 0 0 0"
    ascent="1638"
    descent="-410"
    x-height="1065"
    cap-height="1434"
    bbox="-354 -715 2150 1950"
    underline-thickness="102"
    underline-position="-307"
    unicode-range="U+0020-FB02"
  />
<missing-glyph horiz-adv-x="1044" 
d="M856 1638v-2089h-661v2089h661zM696 1499h-346v-69h137v-78h-139v-68h348v68h-139v78h139v69zM557 1229h-209v-217h348v71h-139v146zM487 1157v-74h-69v74h69zM696 954h-348v-67h139v-78h-139v-70h209v148h139v67zM696 829h-69v-137h-279v-71h348v208zM696 575h-209v-116
h70v47h70v-98h-209v167h-70v-235h348v235zM696 213h-348v-236h348v236zM627 145v-98h-209v98h209zM696 -70h-348v-69h148l-148 -99v-69h348v69h-213l146 99h67v69z" />
    <glyph glyph-name="fi" unicode="fi" horiz-adv-x="1181" 
d="M193 1126q0 65 11 117.5t28.5 87.5t45 61t54.5 39.5t62.5 22t63.5 10.5t64 2q101 0 158 -22v-193q-50 13 -96 13q-72 0 -100.5 -33t-28.5 -111v-55h217v-207h-217v-858h-262v858h-152v207h152v61zM811 1452h262v-207h-262v207zM811 0v1065h262v-1065h-262z" />
    <glyph glyph-name="fl" unicode="fl" horiz-adv-x="1181" 
d="M193 1126q0 65 11 117.5t28.5 87.5t45 61t54.5 39.5t62.5 22t63.5 10.5t64 2q101 0 158 -22v-193q-50 13 -96 13q-72 0 -100.5 -33t-28.5 -111v-55h217v-207h-217v-858h-262v858h-152v207h152v61zM811 1446h262v-1446h-262v1446z" />
    <glyph glyph-name=".notdef" horiz-adv-x="1044" 
d="M856 1638v-2089h-661v2089h661zM696 1499h-346v-69h137v-78h-139v-68h348v68h-139v78h139v69zM557 1229h-209v-217h348v71h-139v146zM487 1157v-74h-69v74h69zM696 954h-348v-67h139v-78h-139v-70h209v148h139v67zM696 829h-69v-137h-279v-71h348v208zM696 575h-209v-116
h70v47h70v-98h-209v167h-70v-235h348v235zM696 213h-348v-236h348v236zM627 145v-98h-209v98h209zM696 -70h-348v-69h148l-148 -99v-69h348v69h-213l146 99h67v69z" />
    <glyph glyph-name=".null" horiz-adv-x="0" 
 />
    <glyph glyph-name="nonmarkingreturn" horiz-adv-x="682" 
 />
    <glyph glyph-name="space" unicode=" " horiz-adv-x="550" 
 />
    <glyph glyph-name="exclam" unicode="!" horiz-adv-x="507" 
d="M381 459h-254l-6 975h266zM109 303h288v-303h-288v303z" />
    <glyph glyph-name="quotedbl" unicode="&#x22;" horiz-adv-x="847" 
d="M82 858h250v576h-250v-576zM516 858h250v576h-250v-576z" />
    <glyph glyph-name="numbersign" unicode="#" horiz-adv-x="1228" 
d="M1137 866h-205l-29 -299h180v-205h-200l-37 -362h-199l37 362h-209l-37 -362h-200l36 362h-182v205h203l29 299h-179v205h199l37 363h201l-37 -363h209l37 363h198l-37 -363h185v-205zM705 567l28 299h-209l-28 -299h209z" />
    <glyph glyph-name="dollar" unicode="$" horiz-adv-x="1263" 
d="M1186 408q0 -188 -137.5 -300t-358.5 -124v-168h-110v168q-225 13 -355.5 136.5t-144.5 334.5h272q36 -216 228 -242v418l-72 14q-91 18 -159.5 47t-124 75t-84.5 116.5t-29 163.5q0 175 126.5 285.5t342.5 119.5v166h110v-170q201 -17 320.5 -125t136.5 -295h-270
q-22 161 -187 191v-385l66 -13q227 -48 328.5 -142t101.5 -271zM549 862l31 -6v367q-98 -8 -148.5 -64t-50.5 -121q0 -141 168 -176zM690 213q103 12 162 66.5t59 130.5q0 88 -52 131.5t-165 66.5h-4v-395z" />
    <glyph glyph-name="percent" unicode="%" horiz-adv-x="1509" 
d="M377 778q-127 0 -206 86t-79 246q0 162 78.5 248t206.5 86q126 0 204 -86t78 -248q0 -160 -78 -246t-204 -86zM236 0l843 1438l191 -4l-840 -1434h-194zM377 946q47 0 73.5 36.5t26.5 127.5q0 92 -26.5 129t-73.5 37q-49 0 -76 -37t-27 -129q0 -91 27 -127.5t76 -36.5z
M1133 -10q-127 0 -205 86t-78 248q0 161 78 246t205 85t205.5 -85t78.5 -246q0 -162 -78.5 -248t-205.5 -86zM1133 160q48 0 75 36.5t27 127.5q0 163 -102 163q-103 0 -103 -163q0 -91 27.5 -127.5t75.5 -36.5z" />
    <glyph glyph-name="ampersand" unicode="&#x26;" horiz-adv-x="1460" 
d="M1403 0h-293l-100 109q-168 -134 -398 -134q-108 0 -204 29t-169.5 82t-116 134.5t-42.5 180.5q0 60 19.5 113t47 90.5t73.5 74t82 58t89 49.5q-78 94 -119 174.5t-41 163.5q0 69 22 128.5t67 107t121 75t175 27.5q96 0 170 -27.5t119 -75t67.5 -107t22.5 -128.5
q0 -120 -66.5 -207.5t-213.5 -168.5l274 -297q66 129 72 299h237q-23 -294 -143 -482zM616 1268q-79 0 -122 -42.5t-43 -109.5q0 -48 30 -96t103 -131q112 60 152 113.5t40 115.5q0 65 -43 107.5t-117 42.5zM616 201q123 0 234 82l-330 356q-160 -100 -160 -231
q0 -89 71 -148t185 -59z" />
    <glyph glyph-name="quotesingle" unicode="'" horiz-adv-x="413" 
d="M82 858h250v576h-250v-576z" />
    <glyph glyph-name="parenleft" unicode="(" horiz-adv-x="659" 
d="M309 1526h252q-207 -377 -207 -871q0 -523 207 -921h-252q-217 388 -217 921q0 507 217 871z" />
    <glyph glyph-name="parenright" unicode=")" horiz-adv-x="659" 
d="M344 1526q217 -364 217 -871q0 -533 -217 -921h-252q207 398 207 921q0 494 -207 871h252z" />
    <glyph glyph-name="asterisk" unicode="*" horiz-adv-x="1054" 
d="M901 1124l-201 -53l140 -184l-189 -115l-123 176l-125 -176l-188 115l139 184l-200 53l51 217l221 -65l-6 231h211l-2 -231l221 65z" />
    <glyph glyph-name="plus" unicode="+" horiz-adv-x="1169" 
d="M1077 692v-229h-372v-371h-242v371h-371v229h371v369h242v-369h372z" />
    <glyph glyph-name="comma" unicode="," horiz-adv-x="493" 
d="M102 -330v82q113 31 113 185v63h-113v303h289v-305q0 -83 -17.5 -144.5t-43.5 -95.5t-66.5 -54.5t-77 -26.5t-84.5 -7z" />
    <glyph glyph-name="hyphen" unicode="-" horiz-adv-x="776" 
d="M82 666h612v-197h-612v197z" />
    <glyph glyph-name="period" unicode="." horiz-adv-x="493" 
d="M102 303h289v-303h-289v303z" />
    <glyph glyph-name="slash" unicode="/" horiz-adv-x="944" 
d="M883 1434l-559 -1432h-263l557 1432h265z" />
    <glyph glyph-name="zero" unicode="0" horiz-adv-x="1304" 
d="M653 1452q89 0 170.5 -25t156 -82t129 -140.5t86.5 -208.5t32 -279t-32 -279.5t-86.5 -209t-129 -140t-156 -81.5t-170.5 -25t-170.5 25t-156 81.5t-128.5 140t-86 209t-32 279.5t32 279t86.5 208.5t128.5 140.5t155.5 82t170.5 25zM965 717q0 108 -17.5 198t-53.5 161
t-97.5 111t-143.5 40t-143.5 -40t-97.5 -111t-53 -160.5t-17 -198.5t17 -199t53 -161t97 -110.5t144 -39.5q82 0 143.5 39.5t97.5 110.5t53.5 161t17.5 199z" />
    <glyph glyph-name="one" unicode="1" horiz-adv-x="770" 
d="M629 1434v-1434h-262v1108q-100 -106 -297 -109v215q237 25 297 220h262z" />
    <glyph glyph-name="two" unicode="2" horiz-adv-x="1157" 
d="M82 0v39q0 111 18 193.5t64 160.5t125.5 147.5t202.5 143.5q17 10 53 30.5t52.5 30.5t46.5 29t45 31.5t37 32.5t32.5 37.5t22.5 40.5t17 49t5 55q0 106 -66 158.5t-159 52.5q-44 0 -83.5 -13t-74.5 -40.5t-55.5 -78t-20.5 -118.5v-27h-252v27q0 214 123 340.5t363 126.5
q119 0 213 -34t153 -93t90 -135.5t31 -165.5q0 -62 -13 -114t-40 -93.5t-57.5 -75t-77 -66t-87 -57t-98.5 -57.5q-15 -8 -23.5 -13t-21.5 -12.5t-24 -13.5q-128 -75 -192 -143.5t-64 -151.5v-10h698v-213h-983z" />
    <glyph glyph-name="three" unicode="3" horiz-adv-x="1230" 
d="M840 764q37 -5 76.5 -18.5t82 -41.5t75 -66t54 -96t21.5 -126q0 -198 -144 -319.5t-397 -121.5q-249 0 -392.5 138t-143.5 362h245q6 -136 89 -205t202 -69q52 0 99.5 13t88.5 38.5t66 71t25 104.5q0 101 -80.5 167.5t-241.5 66.5h-65v176h65q63 0 111 13.5t76 34.5
t45.5 49.5t23.5 54.5t6 54q0 86 -65 134.5t-160 48.5q-48 0 -88.5 -13t-75.5 -40.5t-55 -77t-21 -117.5h-245q0 224 129 348.5t354 124.5q215 0 348 -110t133 -269q0 -65 -21 -119.5t-56.5 -91.5t-77 -61.5t-86.5 -36.5z" />
    <glyph glyph-name="four" unicode="4" horiz-adv-x="1200" 
d="M1128 348h-163v-348h-263v348h-630v211l630 875h263v-875h163v-211zM702 559v557l-399 -557h399z" />
    <glyph glyph-name="five" unicode="5" horiz-adv-x="1218" 
d="M672 985q133 0 241 -58t173 -172.5t65 -265.5q0 -241 -147 -375t-398 -134q-239 0 -377.5 131.5t-136.5 339.5h238q3 -86 44.5 -147t101 -87.5t130.5 -26.5q40 0 78 8t76.5 29.5t66.5 54t46 86t18 121.5q0 65 -19.5 117.5t-49 84t-67.5 53t-72.5 30t-66.5 8.5
q-159 0 -254 -129h-237l111 781h782v-209h-606l-54 -363q12 15 33.5 32.5t59.5 39.5t96.5 36.5t124.5 14.5z" />
    <glyph glyph-name="six" unicode="6" horiz-adv-x="1220" 
d="M680 940q57 0 117 -14t122.5 -49t111 -86t79.5 -132.5t31 -181.5q0 -107 -31.5 -193t-82.5 -141t-119.5 -92.5t-139 -53t-143.5 -15.5q-91 0 -169.5 24.5t-146.5 80t-116 138t-75.5 204t-27.5 273.5q0 131 18.5 242t59.5 206t103 161t154 103.5t208 37.5q96 0 175.5 -24
t132 -62.5t90 -90.5t55 -104.5t20.5 -107.5h-229q-18 92 -87 141t-155 49q-65 0 -116 -23.5t-82.5 -65t-52.5 -89t-30.5 -105t-13 -101.5t-2.5 -91q19 56 110.5 109t231.5 53zM631 195q103 0 178.5 70.5t75.5 213.5q0 59 -16 107t-41.5 79.5t-60 52.5t-69.5 30.5t-71 9.5
q-46 0 -90 -15.5t-82.5 -45.5t-62 -82t-23.5 -119q0 -80 25 -141t65 -94.5t83.5 -49.5t88.5 -16z" />
    <glyph glyph-name="seven" unicode="7" horiz-adv-x="1034" 
d="M963 1434v-215q-398 -610 -474 -1219h-270q92 617 500 1219h-658v215h902z" />
    <glyph glyph-name="eight" unicode="8" horiz-adv-x="1210" 
d="M887 809q121 -52 188.5 -145.5t67.5 -221.5q0 -110 -43 -199t-117 -145.5t-171 -87t-206 -30.5q-147 0 -267 51.5t-194.5 158.5t-74.5 252q0 128 67.5 221.5t188.5 145.5q-164 103 -164 281q0 156 119 257t325 101t325.5 -101t119.5 -257q0 -84 -41.5 -156.5
t-122.5 -124.5zM606 1268q-102 0 -158.5 -53.5t-56.5 -139.5t57 -142t158 -56t157 55.5t56 142.5q0 86 -56.5 139.5t-156.5 53.5zM606 193q132 0 201.5 74t69.5 188q0 122 -76 190t-195 68t-195.5 -68t-76.5 -190q0 -114 70 -188t202 -74z" />
    <glyph glyph-name="nine" unicode="9" horiz-adv-x="1210" 
d="M530 494q-58 0 -118 14t-122.5 49t-110.5 86t-78.5 132t-30.5 181q0 107 31.5 193t82.5 141.5t119.5 93t139 53t143.5 15.5q91 0 169 -25t146 -80t116 -138t75.5 -204.5t27.5 -273.5q0 -165 -30 -297.5t-93 -235.5t-169.5 -159.5t-249.5 -56.5q-96 0 -175.5 24
t-132.5 62.5t-90.5 90.5t-55.5 104.5t-22 107.5h232q18 -92 86.5 -141.5t152.5 -49.5q57 0 103 18.5t76.5 48t53.5 71.5t35.5 84t20 91t9 86t1.5 76q-18 -56 -110 -108.5t-232 -52.5zM580 1239q-48 0 -92 -16t-81.5 -48.5t-60 -89.5t-22.5 -131q0 -73 24 -128.5t63.5 -87
t83 -47t89.5 -15.5q45 0 89 15.5t82.5 45.5t62.5 82t24 119q0 80 -25 141t-65 94.5t-83.5 49.5t-88.5 16z" />
    <glyph glyph-name="colon" unicode=":" horiz-adv-x="575" 
d="M143 1065h289v-303h-289v303zM143 303h289v-303h-289v303z" />
    <glyph glyph-name="semicolon" unicode=";" horiz-adv-x="575" 
d="M143 1065h289v-303h-289v303zM143 -330v82q113 31 113 185v63h-113v303h289v-305q0 -83 -17.5 -144.5t-43.5 -95.5t-66.5 -54.5t-77 -26.5t-84.5 -7z" />
    <glyph glyph-name="less" unicode="&#x3c;" horiz-adv-x="1038" 
d="M946 246l-616 248l616 249v244l-854 -379v-227l854 -381v246z" />
    <glyph glyph-name="equal" unicode="=" horiz-adv-x="970" 
d="M80 829h663v-196h-663v196zM80 502h663v-197h-663v197z" />
    <glyph glyph-name="greater" unicode="&#x3e;" horiz-adv-x="1038" 
d="M92 246v-246l854 381v227l-854 379v-244l617 -249z" />
    <glyph glyph-name="question" unicode="?" horiz-adv-x="1134" 
d="M580 1448q-103 0 -189.5 -27.5t-155 -84t-106.5 -152t-37 -221.5h262q0 121 55 190.5t171 69.5q101 0 150.5 -52t49.5 -131q0 -39 -18 -72t-46.5 -58.5t-63.5 -51t-69.5 -57t-63 -69t-46.5 -94.5t-18 -126v-63h278v63q0 53 17 95t44.5 70.5t60.5 54.5t65.5 53.5t60 60
t44.5 82t17 112.5q0 193 -127.5 300.5t-334.5 107.5zM451 303h288v-303h-288v303z" />
    <glyph glyph-name="at" unicode="@" horiz-adv-x="1566" 
d="M928 1040h172v-360q0 -76 26 -116t74 -40q40 0 66 29.5t35.5 73t9.5 100.5q0 240 -150.5 392.5t-382.5 152.5q-105 0 -199 -37.5t-166.5 -107.5t-114.5 -178t-42 -240q0 -124 43.5 -228.5t116 -173t166.5 -107t196 -38.5q195 0 312 102l206 -51q-84 -106 -221 -166.5
t-297 -60.5q-106 0 -208 31.5t-190.5 94t-155.5 148.5t-105.5 202t-38.5 247q0 136 38.5 255t105.5 206.5t155.5 151t190.5 95t208 31.5q140 0 269 -53.5t226.5 -146.5t155.5 -229t58 -292q0 -178 -84 -276.5t-203 -98.5q-171 0 -225 168q-13 -57 -80.5 -113.5t-159.5 -56.5
q-54 0 -106.5 21.5t-98 62.5t-74 111.5t-28.5 159.5q0 88 28.5 158.5t73.5 111.5t97 62.5t104 21.5q59 0 114.5 -33t82.5 -80v94zM758 522q73 0 112 55.5t39 127.5q0 71 -39 125.5t-112 54.5q-70 0 -110 -56.5t-40 -123.5q0 -68 40.5 -125.5t109.5 -57.5z" />
    <glyph glyph-name="A" unicode="A" horiz-adv-x="1458" 
d="M1114 0l-104 295h-561l-105 -295h-295l557 1434h246l559 -1434h-297zM520 498h418l-209 594z" />
    <glyph glyph-name="B" unicode="B" horiz-adv-x="1337" 
d="M965 786q130 -36 206 -136t76 -228q0 -202 -134.5 -312t-405.5 -110h-596v1434h577q228 0 346.5 -99.5t118.5 -267.5q0 -97 -52 -171.5t-136 -109.5zM383 1206v-342h305q85 0 131.5 51t46.5 129q0 77 -48.5 119.5t-127.5 42.5h-307zM698 227q132 0 193 56.5t61 148.5
q0 95 -58.5 158t-188.5 63h-322v-426h315z" />
    <glyph glyph-name="C" unicode="C" horiz-adv-x="1378" 
d="M737 219q124 0 195 52t112 163h273q-14 -110 -66 -197t-131 -142t-178 -84t-211 -29q-144 0 -263.5 48t-205.5 139.5t-134 231.5t-48 316t48 316t134 231.5t205.5 139.5t263.5 48q149 0 272 -49t207 -152t103 -247h-273q-41 108 -111 159t-192 51q-175 0 -272.5 -130.5
t-97.5 -366.5q0 -235 97.5 -366.5t272.5 -131.5z" />
    <glyph glyph-name="D" unicode="D" horiz-adv-x="1390" 
d="M631 1434q341 0 516.5 -185t175.5 -532t-175.5 -532t-516.5 -185h-520v1434h520zM604 238q240 0 342.5 113t102.5 366t-102.5 366t-342.5 113h-221v-958h221z" />
    <glyph glyph-name="E" unicode="E" horiz-adv-x="1177" 
d="M383 238h733v-238h-1005v1434h985v-238h-713v-356h610v-222h-610v-380z" />
    <glyph glyph-name="F" unicode="F" horiz-adv-x="1107" 
d="M1047 1196h-664v-377h547v-219h-547v-600h-272v1434h936v-238z" />
    <glyph glyph-name="G" unicode="G" horiz-adv-x="1445" 
d="M1358 772v-92q0 -349 -147.5 -523.5t-462.5 -174.5q-151 0 -273.5 48t-210.5 139.5t-136 231t-48 316.5q0 176 48 316t134 231.5t205.5 139.5t263.5 48q220 0 378.5 -110.5t197.5 -311.5h-275q-41 92 -111 138t-184 46q-174 0 -272 -131t-98 -366q0 -234 99 -366
t282 -132q169 0 258.5 80.5t99.5 257.5h-315v215h567z" />
    <glyph glyph-name="H" unicode="H" horiz-adv-x="1372" 
d="M987 1434h275v-1434h-275v600h-604v-600h-272v1434h272v-611h604v611z" />
    <glyph glyph-name="I" unicode="I" horiz-adv-x="493" 
d="M383 0h-272v1434h272v-1434z" />
    <glyph glyph-name="J" unicode="J" horiz-adv-x="1062" 
d="M182 344q108 -121 273 -121q235 0 235 281v930h275v-942q0 -133 -40.5 -233t-112 -158.5t-160.5 -86.5t-195 -28q-137 0 -243.5 52.5t-174.5 135.5z" />
    <glyph glyph-name="K" unicode="K" horiz-adv-x="1406" 
d="M750 784l616 -784h-303l-477 594v4l-203 -236v-362h-272v1434h272v-703l614 703h314z" />
    <glyph glyph-name="L" unicode="L" horiz-adv-x="1116" 
d="M383 238h676v-238h-948v1434h272v-1196z" />
    <glyph glyph-name="M" unicode="M" horiz-adv-x="1726" 
d="M111 1434h315l438 -1074l439 1074h315v-1434h-275v965h-10l-366 -965h-205l-369 965h-10v-965h-272v1434z" />
    <glyph glyph-name="N" unicode="N" horiz-adv-x="1404" 
d="M1296 1434v-1434h-292l-613 981h-8v-981h-272v1434h280l623 -998h8v998h274z" />
    <glyph glyph-name="O" unicode="O" horiz-adv-x="1501" 
d="M750 1452q307 0 489 -194t182 -541q0 -173 -48 -311.5t-136 -231.5t-212 -142.5t-275 -49.5q-305 0 -487.5 195t-182.5 540q0 173 48.5 312t136.5 231.5t211.5 142t273.5 49.5zM750 219q182 0 283.5 131t101.5 367q0 237 -101.5 367t-283.5 130q-181 0 -282 -130
t-101 -367q0 -236 101.5 -367t281.5 -131z" />
    <glyph glyph-name="P" unicode="P" horiz-adv-x="1267" 
d="M668 1434q270 0 406 -131t136 -357q0 -227 -136 -357t-406 -130h-285v-459h-272v1434h557zM668 696q123 0 186.5 65t63.5 185q0 119 -63.5 184.5t-186.5 65.5h-285v-500h285z" />
    <glyph glyph-name="Q" unicode="Q" horiz-adv-x="1490" 
d="M1421 717q0 -298 -139 -488l117 -116l-162 -154l-117 119q-158 -96 -370 -96q-305 0 -487.5 195t-182.5 540q0 173 48.5 312t136.5 231.5t211.5 142t273.5 49.5q307 0 489 -194t182 -541zM750 219q104 0 186 45l-219 221l162 154l202 -207q54 120 54 285
q0 237 -101.5 367t-283.5 130q-181 0 -282 -130t-101 -367q0 -236 101.5 -367t281.5 -131z" />
    <glyph glyph-name="R" unicode="R" horiz-adv-x="1343" 
d="M1245 240q0 -95 8.5 -147.5t32.5 -92.5h-274q-24 40 -32.5 92.5t-8.5 147.5v102q0 95 -58 145t-155 50h-375v-537h-272v1434h602q262 0 392 -116.5t130 -309.5q0 -225 -207 -346q116 -49 166.5 -123t50.5 -189v-110zM711 756q124 0 182.5 56.5t58.5 170.5q0 213 -245 213
h-324v-440h328z" />
    <glyph glyph-name="S" unicode="S" horiz-adv-x="1306" 
d="M782 821q237 -48 342 -142t105 -271q0 -134 -75.5 -231.5t-204 -146t-294.5 -48.5q-259 0 -409.5 124.5t-165.5 348.5h282q43 -246 295 -246q132 0 209.5 57.5t77.5 143.5q0 88 -54.5 131.5t-170.5 66.5l-195 37q-95 18 -166.5 47t-129 75.5t-87.5 116.5t-30 163
q0 182 141.5 293.5t382.5 111.5q242 0 388.5 -110t166.5 -314h-283q-28 197 -272 197q-120 0 -182 -58t-62 -129q0 -141 176 -176z" />
    <glyph glyph-name="T" unicode="T" horiz-adv-x="1218" 
d="M1169 1434v-238h-424v-1196h-274v1196h-422v238h1120z" />
    <glyph glyph-name="U" unicode="U" horiz-adv-x="1380" 
d="M1270 553q0 -269 -158 -420t-422 -151q-265 0 -422 150.5t-157 420.5v881h272v-871q0 -169 80 -256.5t227 -87.5t226 87t79 257v871h275v-881z" />
    <glyph glyph-name="V" unicode="V" horiz-adv-x="1437" 
d="M1108 1434h293l-559 -1434h-246l-557 1434h293l387 -1092z" />
    <glyph glyph-name="W" unicode="W" horiz-adv-x="2088" 
d="M1755 1434h287l-412 -1434h-254l-332 1018l-329 -1018h-254l-412 1434h285l270 -1020l307 1020h269l307 -1020z" />
    <glyph glyph-name="X" unicode="X" horiz-adv-x="1368" 
d="M1331 0h-307l-340 508l-338 -508h-307l491 739l-462 695h307l309 -465l309 465h307l-462 -695z" />
    <glyph glyph-name="Y" unicode="Y" horiz-adv-x="1413" 
d="M848 537v-537h-283v537l-516 897h307l351 -633l352 633h307z" />
    <glyph glyph-name="Z" unicode="Z" horiz-adv-x="1267" 
d="M1186 238v-238h-1104v211l776 985h-754v238h1074v-211l-781 -985h789z" />
    <glyph glyph-name="bracketleft" unicode="[" horiz-adv-x="638" 
d="M373 1300v-1341h157v-225h-419v1792h419v-226h-157z" />
    <glyph glyph-name="backslash" unicode="\" horiz-adv-x="944" 
d="M61 1434h265l557 -1432h-262z" />
    <glyph glyph-name="bracketright" unicode="]" horiz-adv-x="638" 
d="M266 1300h-157v226h419v-1792h-419v225h157v1341z" />
    <glyph glyph-name="asciicircum" unicode="^" horiz-adv-x="1015" 
d="M723 952l-215 308l-215 -308h-201l338 482h158l336 -482h-201z" />
    <glyph glyph-name="underscore" unicode="_" horiz-adv-x="1208" 
d="M92 0h1024v-225h-1024v225z" />
    <glyph glyph-name="grave" unicode="`" horiz-adv-x="450" 
d="M451 1190l-168 262h-287l231 -262h224z" />
    <glyph glyph-name="a" unicode="a" 
d="M1018 250q0 -87 76 -90v-152q-35 -16 -97 -16q-97 0 -156 41.5t-59 122.5v26q-9 -17 -20.5 -33.5t-43 -48.5t-69 -55t-99.5 -41t-134 -18q-98 0 -176.5 32.5t-129.5 107.5t-51 185q0 65 21 115.5t53.5 82t87 56t104 37t121.5 25.5q19 3 70 11t75.5 12.5t61 12t61 16
t42.5 19.5v4q0 55 -15.5 92t-44.5 55.5t-60.5 26t-72.5 7.5q-174 0 -196 -131h-246q13 159 126 241t318 82q241 0 347 -101.5t106 -332.5v-391zM756 336v205q-25 -12 -60 -23t-58.5 -16t-77 -15.5t-75.5 -15.5q-90 -20 -126.5 -55t-36.5 -97q0 -63 41.5 -104t121.5 -41
q172 0 271 162z" />
    <glyph glyph-name="b" unicode="b" horiz-adv-x="1210" 
d="M682 1075q63 0 126.5 -19t125.5 -61.5t110 -103.5t77.5 -154t29.5 -205q0 -113 -29.5 -207t-78 -155.5t-111.5 -104t-127 -61t-129 -18.5q-70 0 -129 22t-94 54.5t-55 62t-25 51.5v-176h-262v1446h262v-535q35 67 118 115.5t191 48.5zM627 199q118 0 194 83.5t76 249.5
q0 164 -76 247t-194 83q-115 0 -191 -84t-76 -246t76 -247.5t191 -85.5z" />
    <glyph glyph-name="c" unicode="c" horiz-adv-x="1101" 
d="M578 199q95 0 147.5 42.5t77.5 123.5h237q-16 -87 -52 -154.5t-81 -109t-103 -68.5t-113.5 -37t-115.5 -10q-76 0 -147.5 18t-139.5 59.5t-118 103t-80.5 155t-30.5 208.5q0 114 30 207t80.5 155t117.5 104t138.5 60.5t147.5 18.5q78 0 146 -17t132.5 -56.5t111.5 -114.5
t67 -180h-239q-22 75 -72.5 115t-143.5 40q-120 0 -192 -86.5t-72 -245.5q0 -161 73 -246t194 -85z" />
    <glyph glyph-name="d" unicode="d" horiz-adv-x="1210" 
d="M528 1075q108 0 191.5 -48.5t118.5 -115.5v535h262v-1446h-262v176q-5 -22 -25 -51.5t-55 -62t-94 -54.5t-129 -22q-65 0 -129.5 18.5t-127.5 61t-111 104t-78 155.5t-30 207q0 112 29.5 205t77.5 154t110 103.5t125.5 61.5t126.5 19zM584 199q115 0 190.5 85.5
t75.5 247.5t-75.5 246t-190.5 84q-118 0 -194.5 -83t-76.5 -247q0 -166 76.5 -249.5t194.5 -83.5z" />
    <glyph glyph-name="e" unicode="e" 
d="M1075 502q0 -35 -2 -53h-762q28 -267 279 -267q164 0 223 105h231q-100 -301 -469 -301q-77 0 -149 19t-139.5 61t-117.5 103.5t-80 154t-30 204.5q0 113 30 206t80.5 155t118 105t140.5 62t150 19q81 0 152.5 -19.5t135.5 -63t110 -108.5t72.5 -163t26.5 -219zM311 612
h514q-3 125 -67.5 196t-179.5 71q-111 0 -180.5 -68t-86.5 -199z" />
    <glyph glyph-name="f" unicode="f" horiz-adv-x="720" 
d="M584 1264q-72 0 -100.5 -33t-28.5 -111v-55h217v-207h-217v-858h-262v858h-152v207h152v61q0 65 11 117.5t28.5 87.5t45 61t54.5 39.5t62.5 22t63.5 10.5t64 2q101 0 158 -22v-193q-50 13 -96 13z" />
    <glyph glyph-name="g" unicode="g" horiz-adv-x="1202" 
d="M829 1071h263v-1048q0 -113 -34.5 -200.5t-87 -137.5t-124 -82t-136 -43t-132.5 -11q-163 0 -286.5 62t-178.5 166l163 102q98 -115 275 -115q143 0 210.5 61.5t67.5 197.5v153q-6 -23 -26 -51.5t-55 -61t-93.5 -54t-128.5 -21.5q-63 0 -126.5 18.5t-125.5 61
t-109.5 103.5t-76.5 154.5t-29 206.5q0 112 29 205t76.5 154t108.5 103.5t123.5 61.5t123.5 19q108 0 191 -48.5t118 -115.5v160zM582 201q114 0 187 84.5t73 246.5t-73 246t-187 84q-115 0 -189 -83.5t-74 -246.5t74 -247t189 -84z" />
    <glyph glyph-name="h" unicode="h" horiz-adv-x="1212" 
d="M725 1075q84 0 150.5 -23t119 -72t81 -134.5t28.5 -202.5v-643h-262v629q0 120 -57 174.5t-156 54.5q-47 0 -88 -15.5t-69.5 -39.5t-50 -54.5t-33 -58.5t-15.5 -53v-637h-262v1446h262v-602q10 25 28 53.5t49.5 60.5t69.5 57.5t92 42.5t113 17z" />
    <glyph glyph-name="i" unicode="i" horiz-adv-x="481" 
d="M111 1452h262v-207h-262v207zM111 1065h262v-1065h-262v1065z" />
    <glyph glyph-name="j" unicode="j" horiz-adv-x="503" 
d="M133 1452h262v-207h-262v207zM-131 -199q82 -26 145 -26q65 0 92 39.5t27 95.5v1155h262v-1196q0 -161 -83.5 -240.5t-229.5 -79.5q-128 0 -213 39v213z" />
    <glyph glyph-name="k" unicode="k" horiz-adv-x="1167" 
d="M862 0l-375 444l-114 -118v-326h-262v1446h262v-817l418 436h296l-436 -451l498 -614h-287z" />
    <glyph glyph-name="l" unicode="l" horiz-adv-x="481" 
d="M111 1446h262v-1446h-262v1446z" />
    <glyph glyph-name="m" unicode="m" horiz-adv-x="1878" 
d="M1405 1075q78 0 142 -24.5t115 -76t79 -140.5t28 -209v-625h-262v618q0 124 -52.5 182t-141.5 58q-58 0 -106.5 -23.5t-76.5 -59t-43.5 -71t-15.5 -63.5v-641h-262v618q0 124 -54 182t-143 58q-56 0 -102.5 -22.5t-74 -58t-43.5 -72t-19 -70.5v-635h-262v1065h262v-221
q11 32 35.5 68.5t64.5 74.5t102.5 63t133.5 25q121 0 209 -57t126 -180q38 92 137 164.5t224 72.5z" />
    <glyph glyph-name="n" unicode="n" horiz-adv-x="1212" 
d="M725 1075q84 0 150.5 -23t119 -72t81 -134.5t28.5 -202.5v-643h-262v629q0 120 -57 174.5t-156 54.5q-47 0 -88 -15.5t-69.5 -39.5t-50 -54.5t-33 -58.5t-15.5 -53v-637h-262v1065h262v-221q10 25 28 53.5t49.5 60.5t69.5 57.5t92 42.5t113 17z" />
    <glyph glyph-name="o" unicode="o" horiz-adv-x="1155" 
d="M578 1075q71 0 141.5 -18.5t139.5 -61t121.5 -104t85 -155t32.5 -206.5q0 -112 -32.5 -205.5t-85 -154.5t-121.5 -104t-139.5 -61.5t-141.5 -18.5t-141.5 18.5t-139 61.5t-121 104t-85 154.5t-32.5 205.5q0 113 32.5 206.5t85 155t121 104t139 61t141.5 18.5zM844 530
q0 165 -76.5 248.5t-189.5 83.5q-54 0 -101 -19.5t-84.5 -58.5t-59.5 -104.5t-22 -149.5q0 -163 77 -247t190 -84t189.5 84t76.5 247z" />
    <glyph glyph-name="p" unicode="p" horiz-adv-x="1210" 
d="M682 1075q61 0 124.5 -19t126 -61.5t110.5 -103.5t78 -154.5t30 -204.5q0 -113 -30 -207t-79 -155.5t-112 -104t-127 -61t-127 -18.5q-70 0 -129 19.5t-94 48.5t-55 56t-25 48v-547h-262v1454h262v-152q36 66 118.5 114t190.5 48zM623 199q117 0 195.5 83.5t78.5 249.5
q0 164 -78.5 247t-195.5 83q-114 0 -188.5 -84t-74.5 -246t74.5 -247.5t188.5 -85.5z" />
    <glyph glyph-name="q" unicode="q" horiz-adv-x="1210" 
d="M528 1075q108 0 191 -48t119 -114v152h262v-1454h-262v547q-5 -21 -25 -48t-55 -56t-94 -48.5t-129 -19.5q-63 0 -127 18.5t-127.5 61t-112 104t-79 155.5t-30.5 207q0 111 30 204.5t78 154.5t110.5 103.5t126 61.5t124.5 19zM588 199q114 0 188 85.5t74 247.5t-74 246
t-188 84q-117 0 -196 -83t-79 -247q0 -166 79 -249.5t196 -83.5z" />
    <glyph glyph-name="r" unicode="r" horiz-adv-x="837" 
d="M702 1075q49 0 86 -6v-231q-37 2 -65 2q-306 0 -350 -256v-584h-262v1065h262v-238q26 111 110.5 179.5t218.5 68.5z" />
    <glyph glyph-name="s" unicode="s" horiz-adv-x="1019" 
d="M713 752q-37 127 -203 127q-84 0 -132 -32t-48 -89q0 -46 32 -74t99 -43l186 -43q45 -10 70 -16t61.5 -17t56.5 -21.5t45.5 -26t39.5 -35t27 -44.5t18.5 -57.5t5.5 -71.5q0 -108 -62.5 -182t-164 -107.5t-234.5 -33.5q-199 0 -319.5 87t-141.5 259h242q36 -152 223 -152
q93 0 144 35t51 96q0 51 -30.5 76t-100.5 39l-177 39q-168 37 -242.5 112t-74.5 189q0 145 112.5 227t309.5 82q194 0 304.5 -85t139.5 -238h-237z" />
    <glyph glyph-name="t" unicode="t" horiz-adv-x="745" 
d="M575 193q48 0 111 14v-191q-79 -28 -184 -28q-55 0 -97 7t-82 25.5t-65.5 49t-41 80.5t-15.5 118v590h-172v207h172v266h262v-266h213v-207h-213v-561q0 -51 25.5 -77.5t86.5 -26.5z" />
    <glyph glyph-name="u" unicode="u" horiz-adv-x="1202" 
d="M831 1065h263v-1065h-263v219q-12 -32 -39 -68.5t-69.5 -75t-107 -64t-136.5 -25.5q-84 0 -151 23t-119.5 72.5t-80.5 135.5t-28 203v645h262v-631q0 -120 57 -175.5t154 -55.5q58 0 107 23.5t79 59.5t48 72t24 68v639z" />
    <glyph glyph-name="v" unicode="v" horiz-adv-x="1193" 
d="M741 0h-288l-414 1065h262l295 -803l297 803h262z" />
    <glyph glyph-name="w" unicode="w" horiz-adv-x="1660" 
d="M1624 1065l-305 -1065h-227l-261 754l-260 -754h-229l-303 1065h264l186 -735l238 735h207l237 -735l189 735h264z" />
    <glyph glyph-name="x" unicode="x" horiz-adv-x="1157" 
d="M1110 0h-287l-243 362l-246 -362h-285l383 553l-354 512h287l215 -320l213 320h286l-354 -512z" />
    <glyph glyph-name="y" unicode="y" horiz-adv-x="1157" 
d="M854 1065h266l-442 -1083q-94 -232 -209 -316.5t-313 -62.5v223q65 -7 114 1.5t80.5 32t50 49t35.5 62.5q12 37 10 60t-18 69l-389 965h270l266 -739z" />
    <glyph glyph-name="z" unicode="z" horiz-adv-x="1036" 
d="M395 221h559v-221h-872v221l561 623h-541v221h852v-221z" />
    <glyph glyph-name="braceleft" unicode="{" horiz-adv-x="681" 
d="M446 766l-108 -139l108 -135v-469q0 -31 19.5 -47.5t52.5 -16.5h72v-225h-189q-39 0 -73.5 9.5t-68.5 31.5t-54.5 67.5t-20.5 108.5v530l-92 146l92 149v533q0 51 14 90.5t36 63t52 38.5t57.5 20t57.5 5h189v-226h-72q-72 0 -72 -63v-471z" />
    <glyph glyph-name="bar" unicode="|" horiz-adv-x="532" 
d="M154 1638h225v-2027h-225v2027z" />
    <glyph glyph-name="braceright" unicode="}" horiz-adv-x="681" 
d="M236 766v471q0 63 -72 63h-72v226h189q30 0 57.5 -5t57.5 -20t52 -38.5t36 -63t14 -90.5v-533l92 -149l-92 -146v-530q0 -63 -20.5 -108.5t-54.5 -67.5t-68.5 -31.5t-73.5 -9.5h-189v225h72q33 0 52.5 16.5t19.5 47.5v469l108 135z" />
    <glyph glyph-name="asciitilde" unicode="~" horiz-adv-x="1054" 
d="M842 670h110q0 -116 -65 -189t-182 -73q-46 0 -90 17t-79.5 41t-70.5 47.5t-76 40.5t-82 17q-39 0 -67 -21t-27 -50h-111q0 114 66 188t182 74q46 0 90 -17t79.5 -41t70.5 -48t76 -41t82 -17q40 0 67.5 21t26.5 51z" />
    <glyph glyph-name="exclamdown" unicode="&#xa1;" horiz-adv-x="505" 
d="M109 762v303h288v-303h-288zM381 606l6 -975h-266l6 975h254z" />
    <glyph glyph-name="cent" unicode="&#xa2;" horiz-adv-x="1101" 
d="M1040 510q-18 -98 -61 -170.5t-102 -113t-122 -61t-134 -24.5v-223h-99v223q-90 8 -169.5 42t-147 96t-107 163.5t-39.5 231.5q0 129 39.5 230.5t107 163.5t147 96t169.5 42v228h99v-228q341 -23 409 -360h-239q-38 133 -170 151v-647q137 16 182 160h237zM311 674
q0 -138 57 -220.5t154 -101.5v643q-98 -19 -154.5 -101.5t-56.5 -219.5z" />
    <glyph glyph-name="sterling" unicode="&#xa3;" horiz-adv-x="1169" 
d="M1077 983h-248v37q0 38 -12 72t-37 64.5t-71 48.5t-107 18q-116 0 -173.5 -60t-57.5 -147q0 -22 2.5 -42.5t10.5 -44.5l12.5 -37.5t19 -41.5t18.5 -35.5t22.5 -40t20.5 -35.5h244v-145h-184q4 -28 4 -43q0 -113 -44.5 -186t-152.5 -160q70 26 141 30.5t135.5 -5.5
t130 -21t148 -9t166.5 25v-225q-110 -26 -192.5 -20.5t-168 19t-156.5 27t-157 4t-170 -49.5l-127 159q196 181 199 355q0 47 -17 100h-184v145h115q-28 49 -44.5 83t-31 90t-14.5 114q0 191 136.5 306.5t348.5 115.5q130 0 236.5 -49t172.5 -147.5t66 -231.5v-37z" />
    <glyph glyph-name="currency" unicode="&#xa4;" horiz-adv-x="1210" 
d="M1061 975q0 -111 -47 -203l96 -96l-168 -164l-84 82q-118 -78 -256 -78q-134 0 -254 76l-80 -80l-168 164l93 92q-50 98 -50 207q0 118 54 215l-97 94l168 164l86 -86q115 72 248 72q137 0 250 -74l90 88l168 -164l-100 -100q51 -94 51 -209zM602 731q63 0 112.5 25.5
t77 64t41 78.5t13.5 76q0 35 -13.5 75t-41 79t-77 64.5t-112.5 25.5q-64 0 -113.5 -25.5t-76.5 -64.5t-40.5 -79t-13.5 -75q0 -36 13.5 -76t40.5 -78.5t76.5 -64t113.5 -25.5z" />
    <glyph glyph-name="yen" unicode="&#xa5;" horiz-adv-x="1413" 
d="M1366 1434l-514 -891h248v-156h-252v-76h252v-153h-252v-158h-283v158h-243v153h243v76h-243v156h239l-512 891h307l351 -633l352 633h307z" />
    <glyph glyph-name="brokenbar" unicode="&#xa6;" horiz-adv-x="532" 
d="M154 1638h225v-573h-225v573zM154 184h225v-573h-225v573z" />
    <glyph glyph-name="section" unicode="&#xa7;" horiz-adv-x="1388" 
d="M1286 397q0 -138 -84 -235q64 -91 64 -225q0 -108 -45 -190t-125 -131.5t-183 -74t-227 -24.5q-261 0 -412.5 119t-171.5 341h293q16 -107 84.5 -162t208.5 -55q137 0 211 47t74 132q0 88 -52.5 132t-168.5 70l-191 41q-77 18 -136 39t-114 54t-90.5 75.5t-56.5 103
t-21 136.5q0 142 88 239q-67 89 -67 228q0 181 143.5 287t386.5 106q235 0 380.5 -105.5t168.5 -306.5h-291q-22 168 -258 168q-123 0 -181 -45t-58 -112q0 -62 38 -104t132 -64l209 -47q237 -53 344.5 -154t107.5 -283zM604 414l209 -47q69 -14 160 -45q20 33 20 77
q0 90 -53 136.5t-168 72.5l-190 41q-54 11 -109 31q-39 -42 -39 -98q0 -62 38 -103.5t132 -64.5z" />
    <glyph glyph-name="dieresis" unicode="&#xa8;" horiz-adv-x="735" 
d="M0 1452h268v-213h-268v213zM469 1452h266v-213h-266v213z" />
    <glyph glyph-name="copyright" unicode="&#xa9;" horiz-adv-x="1619" 
d="M811 -14q-200 0 -367 93.5t-265.5 261.5t-98.5 376q0 155 58 291.5t156.5 232t233 150.5t283.5 55t283.5 -55t233 -150.5t156.5 -232t58 -291.5q0 -208 -98.5 -376t-265.5 -261.5t-367 -93.5zM811 139q159 0 290.5 72.5t209.5 206t78 299.5q0 165 -78 297.5t-209.5 205
t-290.5 72.5q-160 0 -292 -72.5t-209 -204.5t-77 -298t77 -299t209 -206t292 -73zM811 465q141 0 184 121h181q-20 -79 -60.5 -137t-92 -89t-104 -45t-108.5 -14q-105 0 -194.5 47.5t-147 144t-57.5 224.5q0 97 33.5 176.5t89.5 130.5t127 78.5t149 27.5q44 0 85.5 -8
t85 -28t79.5 -51t66 -80.5t47 -112.5h-183q-41 117 -180 117q-97 0 -159 -64.5t-62 -185.5t62 -186.5t159 -65.5z" />
    <glyph glyph-name="ordfeminine" unicode="&#xaa;" horiz-adv-x="753" 
d="M668 948q0 -97 49 -174h-152q-45 45 -45 111q-30 -34 -54.5 -55t-72.5 -40.5t-104 -19.5q-44 0 -82.5 11t-73 34t-54.5 66t-20 100q0 99 65.5 146.5t197.5 58.5l172 12q1 67 -30.5 94t-101.5 27q-65 0 -92.5 -18.5t-38.5 -51.5h-151q14 110 92 161.5t195 51.5
q168 0 234.5 -76t66.5 -241v-197zM330 913q41 0 70.5 10t48 29.5t27 34.5t18.5 39v53q-21 -3 -172 -16q-45 -4 -68 -25t-23 -49q0 -35 26 -55.5t73 -20.5z" />
    <glyph glyph-name="guillemotleft" unicode="&#xab;" horiz-adv-x="915" 
d="M422 758l-178 -146l178 -147v-238l-340 277v215l340 276v-237zM834 758l-179 -146l179 -147v-238l-340 277v207l340 284v-237z" />
    <glyph glyph-name="logicalnot" unicode="&#xac;" horiz-adv-x="1052" 
d="M961 639v-416h-263v213h-606v203h869z" />
    <glyph glyph-name="uni00AD" unicode="&#xad;" horiz-adv-x="776" 
d="M82 666h612v-197h-612v197z" />
    <glyph glyph-name="registered" unicode="&#xae;" horiz-adv-x="1619" 
d="M811 -14q-200 0 -367 93.5t-265.5 261.5t-98.5 376q0 155 58 291.5t156.5 232t233 150.5t283.5 55t283.5 -55t233 -150.5t156.5 -232t58 -291.5q0 -208 -98.5 -376t-265.5 -261.5t-367 -93.5zM811 139q159 0 290.5 72.5t209.5 206t78 299.5q0 165 -78 297.5t-209.5 205
t-290.5 72.5q-160 0 -292 -72.5t-209 -204.5t-77 -298t77 -299t209 -206t292 -73zM1102 455q0 -113 24 -140h-163q-19 25 -19 148v43q0 68 -33.5 92.5t-89.5 24.5h-143v-308h-150v803h303q269 0 269 -225q0 -156 -164 -205q90 -15 128 -56t38 -118v-59zM817 743
q137 0 137 136q0 57 -31.5 87.5t-91.5 30.5h-153v-254h139z" />
    <glyph glyph-name="macron" unicode="&#xaf;" horiz-adv-x="710" 
d="M0 1452h711v-154h-711v154z" />
    <glyph glyph-name="degree" unicode="&#xb0;" horiz-adv-x="792" 
d="M397 868q-128 0 -216.5 89t-88.5 214t88.5 213.5t216.5 88.5q127 0 215 -88.5t88 -213.5t-88 -214t-215 -89zM397 1057q57 0 86 39t29 75t-29 75.5t-86 39.5q-58 0 -86 -39t-28 -76t28 -75.5t86 -38.5z" />
    <glyph glyph-name="plusminus" unicode="&#xb1;" horiz-adv-x="1169" 
d="M705 983h372v-229h-372v-371h-242v371h-371v229h371v369h242v-369zM231 -33v197h664v-197h-664z" />
    <glyph glyph-name="uni00B2" unicode="&#xb2;" horiz-adv-x="536" 
d="M82 901v17q0 84 29.5 141t117.5 110q6 3 22.5 12t21.5 12t17 10.5t16.5 12t12 12.5t10 15t5 16.5t2.5 20.5q0 32 -22 51t-52 19q-32 0 -54 -20.5t-22 -59.5v-17h-104v17q0 79 45.5 126.5t134.5 47.5q87 0 134.5 -46.5t47.5 -117.5q0 -44 -25 -81t-48.5 -54t-80.5 -51
q-7 -5 -11 -7q-80 -46 -80 -88v-6h245v-92h-362z" />
    <glyph glyph-name="uni00B3" unicode="&#xb3;" horiz-adv-x="550" 
d="M354 1186q43 -4 79 -37t36 -98q0 -70 -53 -114t-148 -44q-92 0 -144 48t-52 126h102q3 -84 98 -84q41 0 68 20.5t27 61.5q0 78 -109 78h-22v76h22q47 0 65.5 22t18.5 51q0 27 -20 44.5t-54 17.5q-36 0 -59 -19.5t-23 -58.5h-96q0 79 47 123.5t127 44.5q84 0 132 -41
t48 -103q0 -46 -26 -75t-64 -39z" />
    <glyph glyph-name="acute" unicode="&#xb4;" horiz-adv-x="454" 
d="M0 1190h223l232 262h-287z" />
    <glyph glyph-name="uni00B5" unicode="&#xb5;" horiz-adv-x="1202" 
d="M831 1065h263v-1065h-263v219q-12 -32 -39 -68.5t-69.5 -75t-107 -64t-136.5 -25.5q-61 0 -117 12v-387h-262v1454h262v-631q0 -120 57 -175.5t154 -55.5q58 0 107 23.5t79 59.5t48 72t24 68v639z" />
    <glyph glyph-name="paragraph" unicode="&#xb6;" horiz-adv-x="1370" 
d="M1260 1434v-1885h-213v1727h-189v-1727h-233v1055h-109q-109 0 -197 34.5t-144 92.5t-86 131.5t-30 155.5t30 156.5t86 132.5t144 92.5t197 34.5h744z" />
    <glyph glyph-name="periodcentered" unicode="&#xb7;" horiz-adv-x="493" 
d="M102 733h289v-303h-289v303z" />
    <glyph glyph-name="cedilla" unicode="&#xb8;" horiz-adv-x="403" 
d="M203 -119q83 0 141.5 -45.5t58.5 -128.5q0 -51 -21 -89t-54.5 -60t-86 -35.5t-105.5 -18t-122 -4.5v109q189 3 189 92q0 48 -46.5 60t-93.5 -27l-63 102l98 166h219z" />
    <glyph glyph-name="uni00B9" unicode="&#xb9;" horiz-adv-x="376" 
d="M295 1436v-535h-98v402q-13 -24 -45 -34.5t-70 -4.5v98q36 -4 70 20t45 54h98z" />
    <glyph glyph-name="ordmasculine" unicode="&#xba;" horiz-adv-x="780" 
d="M391 1450q83 0 157.5 -38.5t124.5 -117t50 -180.5q0 -81 -29 -148.5t-76.5 -110.5t-106 -66t-120.5 -23q-84 0 -158.5 39t-124 120t-49.5 189q0 102 49.5 180.5t124 117t158.5 38.5zM549 1114q0 79 -43.5 126.5t-114.5 47.5t-115.5 -47.5t-44.5 -126.5q0 -84 44.5 -133
t115.5 -49q72 0 115 48.5t43 133.5z" />
    <glyph glyph-name="guillemotright" unicode="&#xbb;" horiz-adv-x="909" 
d="M86 758v237l340 -284v-207l-340 -277v238l178 147zM498 758v237l340 -276v-215l-340 -277v238l178 147z" />
    <glyph glyph-name="onequarter" unicode="&#xbc;" horiz-adv-x="1241" 
d="M295 1436v-535h-98v402q-13 -24 -45 -34.5t-70 -4.5v98q36 -4 70 20t45 54h98zM213 0h-133l893 1434h133zM1139 135h-62v-135h-100v135h-240v80l240 320h100v-320h62v-80zM977 215v203l-152 -203h152z" />
    <glyph glyph-name="onehalf" unicode="&#xbd;" horiz-adv-x="1200" 
d="M281 1436v-535h-99v402q-13 -24 -45 -34.5t-69 -4.5v98q36 -4 69 20t45 54h99zM217 0h-133l893 1434h133zM745 0v16q0 84 30 141.5t118 110.5q5 3 22 12.5t21.5 12t17.5 10.5t16.5 12t11.5 12t10 15t4.5 16.5t2.5 20.5q0 32 -21.5 51t-51.5 19q-32 0 -54 -20.5t-22 -59.5
v-17h-105v17q0 78 46 126t135 48q87 0 134.5 -46.5t47.5 -117.5q0 -34 -11 -61t-36 -49.5t-47 -37.5t-60 -38q-3 -1 -4 -2t-3.5 -2.5t-4.5 -2.5q-80 -46 -80 -88v-6h246v-92h-363z" />
    <glyph glyph-name="threequarters" unicode="&#xbe;" horiz-adv-x="1251" 
d="M348 1186q43 -4 79 -37t36 -98q0 -70 -53 -114t-148 -44q-92 0 -144 48t-52 126h102q3 -84 98 -84q41 0 67.5 20.5t26.5 61.5q0 78 -108 78h-23v76h23q47 0 65.5 22t18.5 51q0 27 -20 44.5t-54 17.5q-36 0 -59 -19.5t-23 -58.5h-96q0 79 47 123.5t127 44.5q84 0 132 -41
t48 -103q0 -46 -26 -75t-64 -39zM231 0h-133l893 1434h133zM1182 135h-62v-135h-100v135h-240v80l240 320h100v-320h62v-80zM1020 215v203l-152 -203h152z" />
    <glyph glyph-name="questiondown" unicode="&#xbf;" horiz-adv-x="1134" 
d="M684 762h-289v303h289v-303zM555 -383q103 0 189.5 27.5t155 84t106 152t36.5 221.5h-262q0 -121 -54.5 -190.5t-170.5 -69.5q-101 0 -151 52t-50 131q0 39 18 72t46.5 58.5t63.5 51t70 57t63.5 69t46.5 94.5t18 126v63h-279v-63q0 -53 -17 -95t-44.5 -70.5t-60 -54.5
t-65.5 -53.5t-60.5 -60t-44.5 -82t-17 -112.5q0 -193 128 -300.5t335 -107.5z" />
    <glyph glyph-name="Agrave" unicode="&#xc0;" horiz-adv-x="1458" 
d="M860 1559h-223l-231 262h286zM1114 0l-104 295h-561l-105 -295h-295l557 1434h246l559 -1434h-297zM520 498h418l-209 594z" />
    <glyph glyph-name="Aacute" unicode="&#xc1;" horiz-adv-x="1458" 
d="M1047 1821l-232 -262h-223l168 262h287zM1114 0l-104 295h-561l-105 -295h-295l557 1434h246l559 -1434h-297zM520 498h418l-209 594z" />
    <glyph glyph-name="Acircumflex" unicode="&#xc2;" horiz-adv-x="1458" 
d="M729 1704l-186 -166h-207l151 283h482l151 -283h-205zM1114 0l-104 295h-561l-105 -295h-295l557 1434h246l559 -1434h-297zM520 498h418l-209 594z" />
    <glyph glyph-name="Atilde" unicode="&#xc3;" horiz-adv-x="1458" 
d="M526 1708q-38 0 -65 -20t-25 -48h-106q0 110 62.5 180t174.5 70q53 0 106 -24.5t90 -54t86.5 -54t96.5 -24.5q39 0 65 20t25 49h107q0 -110 -63.5 -180t-174.5 -70q-53 0 -106 24.5t-90 53.5t-86.5 53.5t-96.5 24.5zM1114 0l-104 295h-561l-105 -295h-295l557 1434h246
l559 -1434h-297zM520 498h418l-209 594z" />
    <glyph glyph-name="Adieresis" unicode="&#xc4;" horiz-adv-x="1458" 
d="M629 1821v-213h-269v213h269zM1096 1821v-213h-267v213h267zM1114 0l-104 295h-561l-105 -295h-295l557 1434h246l559 -1434h-297zM520 498h418l-209 594z" />
    <glyph glyph-name="Aring" unicode="&#xc5;" horiz-adv-x="1458" 
d="M729 1556q-82 0 -140.5 57t-58.5 140q0 82 58.5 139.5t140.5 57.5q80 0 138.5 -58t58.5 -139q0 -82 -58.5 -139.5t-138.5 -57.5zM729 1833q-35 0 -58.5 -22t-23.5 -58t24 -59t58 -23q33 0 56.5 23t23.5 59t-23.5 58t-56.5 22zM1114 0l-104 295h-561l-105 -295h-295
l557 1434h246l559 -1434h-297zM520 498h418l-209 594z" />
    <glyph glyph-name="AE" unicode="&#xc6;" horiz-adv-x="2099" 
d="M1305 238h733v-238h-1006v293h-495l-201 -293h-287l981 1434h987v-238h-712v-356h610v-222h-610v-380zM680 504h352v516z" />
    <glyph glyph-name="Ccedilla" unicode="&#xc7;" horiz-adv-x="1378" 
d="M1317 434q-25 -191 -155.5 -305.5t-323.5 -140.5l-103 -107q83 0 142 -45.5t59 -128.5q0 -51 -21 -89t-54.5 -60t-86 -35.5t-105.5 -18t-122 -4.5v109q95 2 141.5 23.5t46.5 68.5q0 48 -46 60t-93 -27l-64 102l91 154q-249 33 -396 221.5t-147 505.5q0 176 48 316
t134 231.5t205.5 139.5t263.5 48q149 0 272 -49t207 -152t103 -247h-273q-41 108 -111 159t-192 51q-175 0 -272.5 -130.5t-97.5 -366.5q0 -235 97.5 -366.5t272.5 -131.5q124 0 195 52t112 163h273z" />
    <glyph glyph-name="Egrave" unicode="&#xc8;" horiz-adv-x="1177" 
d="M739 1559h-223l-231 262h286zM383 238h733v-238h-1005v1434h985v-238h-713v-356h610v-222h-610v-380z" />
    <glyph glyph-name="Eacute" unicode="&#xc9;" horiz-adv-x="1177" 
d="M926 1821l-232 -262h-223l168 262h287zM383 238h733v-238h-1005v1434h985v-238h-713v-356h610v-222h-610v-380z" />
    <glyph glyph-name="Ecircumflex" unicode="&#xca;" horiz-adv-x="1177" 
d="M608 1704l-186 -166h-207l152 283h481l151 -283h-204zM383 238h733v-238h-1005v1434h985v-238h-713v-356h610v-222h-610v-380z" />
    <glyph glyph-name="Edieresis" unicode="&#xcb;" horiz-adv-x="1177" 
d="M508 1821v-213h-268v213h268zM975 1821v-213h-266v213h266zM383 238h733v-238h-1005v1434h985v-238h-713v-356h610v-222h-610v-380z" />
    <glyph glyph-name="Igrave" unicode="&#xcc;" horiz-adv-x="493" 
d="M377 1559l-168 262h-287l232 -262h223zM383 0h-272v1434h272v-1434z" />
    <glyph glyph-name="Iacute" unicode="&#xcd;" horiz-adv-x="493" 
d="M109 1559h223l231 262h-287zM383 0h-272v1434h272v-1434z" />
    <glyph glyph-name="Icircumflex" unicode="&#xce;" horiz-adv-x="493" 
d="M432 1538l-186 166l-187 -166h-206l151 283h481l152 -283h-205zM383 0h-272v1434h272v-1434z" />
    <glyph glyph-name="Idieresis" unicode="&#xcf;" horiz-adv-x="493" 
d="M-123 1821h268v-213h-268v213zM346 1821h266v-213h-266v213zM383 0h-272v1434h272v-1434z" />
    <glyph glyph-name="Eth" unicode="&#xd0;" horiz-adv-x="1454" 
d="M694 1434q341 0 516.5 -185t175.5 -532t-175.5 -532t-516.5 -185h-520v608h-133v197h133v629h520zM668 238q240 0 342 112.5t102 366.5t-102 366.5t-342 112.5h-222v-391h207v-197h-207v-370h222z" />
    <glyph glyph-name="Ntilde" unicode="&#xd1;" horiz-adv-x="1404" 
d="M1012 1802h106q0 -110 -63 -180t-174 -70q-53 0 -106 24.5t-90 53.5t-86.5 53.5t-96.5 24.5q-38 0 -65 -20t-25 -48h-107q0 110 63 180t175 70q53 0 106 -24.5t90 -54t86.5 -54t96.5 -24.5q39 0 65 20t25 49zM1296 1434v-1434h-292l-613 981h-8v-981h-272v1434h280
l623 -998h8v998h274z" />
    <glyph glyph-name="Ograve" unicode="&#xd2;" horiz-adv-x="1501" 
d="M881 1559l-168 262h-287l231 -262h224zM750 1452q307 0 489 -194t182 -541q0 -173 -48 -311.5t-136 -231.5t-212 -142.5t-275 -49.5q-305 0 -487.5 195t-182.5 540q0 173 48.5 312t136.5 231.5t211.5 142t273.5 49.5zM750 219q182 0 283.5 131t101.5 367
q0 237 -101.5 367t-283.5 130q-181 0 -282 -130t-101 -367q0 -236 101.5 -367t281.5 -131z" />
    <glyph glyph-name="Oacute" unicode="&#xd3;" horiz-adv-x="1501" 
d="M612 1559h224l231 262h-287zM750 1452q307 0 489 -194t182 -541q0 -173 -48 -311.5t-136 -231.5t-212 -142.5t-275 -49.5q-305 0 -487.5 195t-182.5 540q0 173 48.5 312t136.5 231.5t211.5 142t273.5 49.5zM750 219q182 0 283.5 131t101.5 367q0 237 -101.5 367
t-283.5 130q-181 0 -282 -130t-101 -367q0 -236 101.5 -367t281.5 -131z" />
    <glyph glyph-name="Ocircumflex" unicode="&#xd4;" horiz-adv-x="1501" 
d="M936 1538l-186 166l-187 -166h-207l152 283h481l152 -283h-205zM750 1452q307 0 489 -194t182 -541q0 -173 -48 -311.5t-136 -231.5t-212 -142.5t-275 -49.5q-305 0 -487.5 195t-182.5 540q0 173 48.5 312t136.5 231.5t211.5 142t273.5 49.5zM750 219q182 0 283.5 131
t101.5 367q0 237 -101.5 367t-283.5 130q-181 0 -282 -130t-101 -367q0 -236 101.5 -367t281.5 -131z" />
    <glyph glyph-name="Otilde" unicode="&#xd5;" horiz-adv-x="1501" 
d="M1057 1802h106q0 -110 -63 -180t-174 -70q-53 0 -106 24.5t-90 53.5t-86.5 53.5t-96.5 24.5q-38 0 -65 -20t-25 -48h-107q0 110 63 180t175 70q53 0 106 -24.5t90 -54t86.5 -54t96.5 -24.5q39 0 65 20t25 49zM750 1452q307 0 489 -194t182 -541q0 -173 -48 -311.5
t-136 -231.5t-212 -142.5t-275 -49.5q-305 0 -487.5 195t-182.5 540q0 173 48.5 312t136.5 231.5t211.5 142t273.5 49.5zM750 219q182 0 283.5 131t101.5 367q0 237 -101.5 367t-283.5 130q-181 0 -282 -130t-101 -367q0 -236 101.5 -367t281.5 -131z" />
    <glyph glyph-name="Odieresis" unicode="&#xd6;" horiz-adv-x="1501" 
d="M381 1821h268v-213h-268v213zM850 1821h266v-213h-266v213zM750 1452q307 0 489 -194t182 -541q0 -173 -48 -311.5t-136 -231.5t-212 -142.5t-275 -49.5q-305 0 -487.5 195t-182.5 540q0 173 48.5 312t136.5 231.5t211.5 142t273.5 49.5zM750 219q182 0 283.5 131
t101.5 367q0 237 -101.5 367t-283.5 130q-181 0 -282 -130t-101 -367q0 -236 101.5 -367t281.5 -131z" />
    <glyph glyph-name="multiply" unicode="&#xd7;" horiz-adv-x="1040" 
d="M950 258l-162 -162l-264 264l-262 -262l-170 170l262 262l-262 263l162 161l262 -262l260 260l170 -170l-260 -260z" />
    <glyph glyph-name="Oslash" unicode="&#xd8;" horiz-adv-x="1501" 
d="M1159 1329q126 -92 194 -247.5t68 -364.5q0 -173 -48 -311.5t-136 -231.5t-212 -142.5t-275 -49.5q-118 0 -220 30l-55 -114h-293l117 243q-219 197 -219 576q0 173 48.5 312t136.5 231.5t211.5 142t273.5 49.5q83 0 168 -16l43 90h292zM367 717q0 -181 61 -303l381 796
q-36 4 -59 4q-181 0 -282 -130t-101 -367zM750 219q182 0 283.5 131t101.5 367q0 228 -97 360l-401 -841q59 -17 113 -17z" />
    <glyph glyph-name="Ugrave" unicode="&#xd9;" horiz-adv-x="1380" 
d="M803 1559l-168 262h-287l232 -262h223zM1270 553q0 -269 -158 -420t-422 -151q-265 0 -422 150.5t-157 420.5v881h272v-871q0 -169 80 -256.5t227 -87.5t226 87t79 257v871h275v-881z" />
    <glyph glyph-name="Uacute" unicode="&#xda;" horiz-adv-x="1380" 
d="M535 1559h223l231 262h-287zM1270 553q0 -269 -158 -420t-422 -151q-265 0 -422 150.5t-157 420.5v881h272v-871q0 -169 80 -256.5t227 -87.5t226 87t79 257v871h275v-881z" />
    <glyph glyph-name="Ucircumflex" unicode="&#xdb;" horiz-adv-x="1380" 
d="M858 1538l-186 166l-187 -166h-206l151 283h481l152 -283h-205zM1270 553q0 -269 -158 -420t-422 -151q-265 0 -422 150.5t-157 420.5v881h272v-871q0 -169 80 -256.5t227 -87.5t226 87t79 257v871h275v-881z" />
    <glyph glyph-name="Udieresis" unicode="&#xdc;" horiz-adv-x="1380" 
d="M303 1821h268v-213h-268v213zM772 1821h266v-213h-266v213zM1270 553q0 -269 -158 -420t-422 -151q-265 0 -422 150.5t-157 420.5v881h272v-871q0 -169 80 -256.5t227 -87.5t226 87t79 257v871h275v-881z" />
    <glyph glyph-name="Yacute" unicode="&#xdd;" horiz-adv-x="1413" 
d="M569 1559h224l231 262h-287zM848 537v-537h-283v537l-516 897h307l351 -633l352 633h307z" />
    <glyph glyph-name="Thorn" unicode="&#xde;" horiz-adv-x="1288" 
d="M688 1157q543 0 543 -436q0 -226 -132 -331t-411 -105h-315v-285h-262v1434h262v-277h315zM692 510q53 0 90 4t75 16.5t60.5 35t37 61.5t14.5 94q0 62 -20.5 104.5t-59.5 65t-86.5 32t-110.5 9.5h-319v-422h319z" />
    <glyph glyph-name="germandbls" unicode="&#xdf;" horiz-adv-x="1275" 
d="M887 784q121 -14 211 -113t90 -235q0 -227 -135.5 -331.5t-425.5 -104.5h-84v225h90q293 0 293 217q0 51 -18 90.5t-48 64t-72.5 40t-86.5 21.5t-95 6h-63v198h63q230 0 230 176q0 90 -62 130t-162 40q-122 0 -180.5 -56.5t-58.5 -178.5v-973h-262v973q0 461 487 461
q113 0 203 -21.5t157.5 -65.5t103.5 -117.5t36 -172.5q0 -114 -64.5 -190.5t-146.5 -82.5z" />
    <glyph glyph-name="agrave" unicode="&#xe0;" 
d="M698 1190h-223l-231 262h286zM1018 250q0 -87 76 -90v-152q-35 -16 -97 -16q-97 0 -156 41.5t-59 122.5v26q-9 -17 -20.5 -33.5t-43 -48.5t-69 -55t-99.5 -41t-134 -18q-98 0 -176.5 32.5t-129.5 107.5t-51 185q0 65 21 115.5t53.5 82t87 56t104 37t121.5 25.5
q19 3 70 11t75.5 12.5t61 12t61 16t42.5 19.5v4q0 55 -15.5 92t-44.5 55.5t-60.5 26t-72.5 7.5q-174 0 -196 -131h-246q13 159 126 241t318 82q241 0 347 -101.5t106 -332.5v-391zM756 336v205q-25 -12 -60 -23t-58.5 -16t-77 -15.5t-75.5 -15.5q-90 -20 -126.5 -55
t-36.5 -97q0 -63 41.5 -104t121.5 -41q172 0 271 162z" />
    <glyph glyph-name="aacute" unicode="&#xe1;" 
d="M885 1452l-232 -262h-223l168 262h287zM1018 250q0 -87 76 -90v-152q-35 -16 -97 -16q-97 0 -156 41.5t-59 122.5v26q-9 -17 -20.5 -33.5t-43 -48.5t-69 -55t-99.5 -41t-134 -18q-98 0 -176.5 32.5t-129.5 107.5t-51 185q0 65 21 115.5t53.5 82t87 56t104 37t121.5 25.5
q19 3 70 11t75.5 12.5t61 12t61 16t42.5 19.5v4q0 55 -15.5 92t-44.5 55.5t-60.5 26t-72.5 7.5q-174 0 -196 -131h-246q13 159 126 241t318 82q241 0 347 -101.5t106 -332.5v-391zM756 336v205q-25 -12 -60 -23t-58.5 -16t-77 -15.5t-75.5 -15.5q-90 -20 -126.5 -55
t-36.5 -97q0 -63 41.5 -104t121.5 -41q172 0 271 162z" />
    <glyph glyph-name="acircumflex" unicode="&#xe2;" 
d="M567 1335l-186 -166h-207l152 283h481l151 -283h-204zM1018 250q0 -87 76 -90v-152q-35 -16 -97 -16q-97 0 -156 41.5t-59 122.5v26q-9 -17 -20.5 -33.5t-43 -48.5t-69 -55t-99.5 -41t-134 -18q-98 0 -176.5 32.5t-129.5 107.5t-51 185q0 65 21 115.5t53.5 82t87 56
t104 37t121.5 25.5q19 3 70 11t75.5 12.5t61 12t61 16t42.5 19.5v4q0 55 -15.5 92t-44.5 55.5t-60.5 26t-72.5 7.5q-174 0 -196 -131h-246q13 159 126 241t318 82q241 0 347 -101.5t106 -332.5v-391zM756 336v205q-25 -12 -60 -23t-58.5 -16t-77 -15.5t-75.5 -15.5
q-90 -20 -126.5 -55t-36.5 -97q0 -63 41.5 -104t121.5 -41q172 0 271 162z" />
    <glyph glyph-name="atilde" unicode="&#xe3;" 
d="M365 1339q-38 0 -65 -19.5t-26 -47.5h-106q0 110 63 180t175 70q44 0 86 -16.5t76 -39.5t67 -46t71.5 -39.5t77.5 -16.5q38 0 64.5 20.5t25.5 49.5h107q0 -110 -63.5 -180t-174.5 -70q-44 0 -86 16t-76 39t-67 45.5t-71.5 38.5t-77.5 16zM1018 250q0 -87 76 -90v-152
q-35 -16 -97 -16q-97 0 -156 41.5t-59 122.5v26q-9 -17 -20.5 -33.5t-43 -48.5t-69 -55t-99.5 -41t-134 -18q-98 0 -176.5 32.5t-129.5 107.5t-51 185q0 65 21 115.5t53.5 82t87 56t104 37t121.5 25.5q19 3 70 11t75.5 12.5t61 12t61 16t42.5 19.5v4q0 55 -15.5 92
t-44.5 55.5t-60.5 26t-72.5 7.5q-174 0 -196 -131h-246q13 159 126 241t318 82q241 0 347 -101.5t106 -332.5v-391zM756 336v205q-25 -12 -60 -23t-58.5 -16t-77 -15.5t-75.5 -15.5q-90 -20 -126.5 -55t-36.5 -97q0 -63 41.5 -104t121.5 -41q172 0 271 162z" />
    <glyph glyph-name="adieresis" unicode="&#xe4;" 
d="M467 1452v-213h-268v213h268zM934 1452v-213h-266v213h266zM1018 250q0 -87 76 -90v-152q-35 -16 -97 -16q-97 0 -156 41.5t-59 122.5v26q-9 -17 -20.5 -33.5t-43 -48.5t-69 -55t-99.5 -41t-134 -18q-98 0 -176.5 32.5t-129.5 107.5t-51 185q0 65 21 115.5t53.5 82t87 56
t104 37t121.5 25.5q19 3 70 11t75.5 12.5t61 12t61 16t42.5 19.5v4q0 55 -15.5 92t-44.5 55.5t-60.5 26t-72.5 7.5q-174 0 -196 -131h-246q13 159 126 241t318 82q241 0 347 -101.5t106 -332.5v-391zM756 336v205q-25 -12 -60 -23t-58.5 -16t-77 -15.5t-75.5 -15.5
q-90 -20 -126.5 -55t-36.5 -97q0 -63 41.5 -104t121.5 -41q172 0 271 162z" />
    <glyph glyph-name="aring" unicode="&#xe5;" 
d="M567 1188q-82 0 -140 56.5t-58 139.5q0 82 58 139.5t140 57.5q80 0 138.5 -58t58.5 -139q0 -82 -58.5 -139t-138.5 -57zM567 1464q-35 0 -58.5 -22t-23.5 -58t23.5 -58.5t58.5 -22.5q33 0 56.5 22.5t23.5 58.5t-23.5 58t-56.5 22zM1018 250q0 -87 76 -90v-152
q-35 -16 -97 -16q-97 0 -156 41.5t-59 122.5v26q-9 -17 -20.5 -33.5t-43 -48.5t-69 -55t-99.5 -41t-134 -18q-98 0 -176.5 32.5t-129.5 107.5t-51 185q0 65 21 115.5t53.5 82t87 56t104 37t121.5 25.5q19 3 70 11t75.5 12.5t61 12t61 16t42.5 19.5v4q0 55 -15.5 92
t-44.5 55.5t-60.5 26t-72.5 7.5q-174 0 -196 -131h-246q13 159 126 241t318 82q241 0 347 -101.5t106 -332.5v-391zM756 336v205q-25 -12 -60 -23t-58.5 -16t-77 -15.5t-75.5 -15.5q-90 -20 -126.5 -55t-36.5 -97q0 -63 41.5 -104t121.5 -41q172 0 271 162z" />
    <glyph glyph-name="ae" unicode="&#xe6;" horiz-adv-x="1832" 
d="M1774 502q0 -35 -2 -53h-762q28 -267 278 -267q164 0 223 105h232q-100 -301 -469 -301q-130 0 -246 56t-186 167q-158 -223 -426 -223q-98 0 -176.5 32t-129.5 104.5t-51 176.5q0 67 22.5 120t58.5 87.5t86.5 59t99 36.5t104.5 19q23 3 77 8.5t79 9t62.5 10t62.5 15
t45 20.5v18q0 55 -15.5 92t-44.5 55.5t-61 26t-74 7.5q-172 0 -194 -123h-246q13 153 126 234t312 81q267 0 371 -121q141 121 346 121q102 0 189 -32t157.5 -97.5t111 -179t40.5 -264.5zM1010 612h514q-3 125 -68 196t-180 71q-101 0 -167.5 -56.5t-90.5 -167.5v-14l-6 -16
q0 -9 -2 -13zM756 330v196q-21 -11 -41.5 -18.5t-49 -13.5t-48.5 -9.5t-66.5 -10t-75.5 -11.5q-77 -10 -114 -52.5t-37 -101.5q0 -56 41 -95.5t120 -39.5q57 0 106.5 17.5t82.5 46t51 49.5t31 43z" />
    <glyph glyph-name="ccedilla" unicode="&#xe7;" horiz-adv-x="1101" 
d="M1040 365q-33 -175 -133 -263.5t-237 -109.5l-107 -111q83 0 142 -45.5t59 -128.5q0 -51 -21 -89t-54.5 -60t-86 -35.5t-105.5 -18t-122 -4.5v109q95 2 141.5 23.5t46.5 68.5q0 48 -46 60t-93 -27l-64 102l97 162q-81 17 -150 55t-126 101t-89.5 159t-32.5 217
q0 114 30 207t80.5 155t117.5 104t138.5 60.5t147.5 18.5q78 0 146 -17t132.5 -56.5t111.5 -114.5t67 -180h-239q-22 75 -72.5 115t-143.5 40q-120 0 -192 -86.5t-72 -245.5q0 -161 73 -246t194 -85q95 0 147.5 42.5t77.5 123.5h237z" />
    <glyph glyph-name="egrave" unicode="&#xe8;" 
d="M705 1190h-224l-231 262h287zM1075 502q0 -35 -2 -53h-762q28 -267 279 -267q164 0 223 105h231q-100 -301 -469 -301q-77 0 -149 19t-139.5 61t-117.5 103.5t-80 154t-30 204.5q0 113 30 206t80.5 155t118 105t140.5 62t150 19q81 0 152.5 -19.5t135.5 -63t110 -108.5
t72.5 -163t26.5 -219zM311 612h514q-3 125 -67.5 196t-179.5 71q-111 0 -180.5 -68t-86.5 -199z" />
    <glyph glyph-name="eacute" unicode="&#xe9;" 
d="M891 1452l-232 -262h-223l168 262h287zM1075 502q0 -35 -2 -53h-762q28 -267 279 -267q164 0 223 105h231q-100 -301 -469 -301q-77 0 -149 19t-139.5 61t-117.5 103.5t-80 154t-30 204.5q0 113 30 206t80.5 155t118 105t140.5 62t150 19q81 0 152.5 -19.5t135.5 -63
t110 -108.5t72.5 -163t26.5 -219zM311 612h514q-3 125 -67.5 196t-179.5 71q-111 0 -180.5 -68t-86.5 -199z" />
    <glyph glyph-name="ecircumflex" unicode="&#xea;" 
d="M573 1335l-186 -166h-207l152 283h481l152 -283h-205zM1075 502q0 -35 -2 -53h-762q28 -267 279 -267q164 0 223 105h231q-100 -301 -469 -301q-77 0 -149 19t-139.5 61t-117.5 103.5t-80 154t-30 204.5q0 113 30 206t80.5 155t118 105t140.5 62t150 19q81 0 152.5 -19.5
t135.5 -63t110 -108.5t72.5 -163t26.5 -219zM311 612h514q-3 125 -67.5 196t-179.5 71q-111 0 -180.5 -68t-86.5 -199z" />
    <glyph glyph-name="edieresis" unicode="&#xeb;" 
d="M473 1452v-213h-268v213h268zM940 1452v-213h-266v213h266zM1075 502q0 -35 -2 -53h-762q28 -267 279 -267q164 0 223 105h231q-100 -301 -469 -301q-77 0 -149 19t-139.5 61t-117.5 103.5t-80 154t-30 204.5q0 113 30 206t80.5 155t118 105t140.5 62t150 19
q81 0 152.5 -19.5t135.5 -63t110 -108.5t72.5 -163t26.5 -219zM311 612h514q-3 125 -67.5 196t-179.5 71q-111 0 -180.5 -68t-86.5 -199z" />
    <glyph glyph-name="igrave" unicode="&#xec;" horiz-adv-x="481" 
d="M373 1190l-168 262h-287l232 -262h223zM111 1065h262v-1065h-262v1065z" />
    <glyph glyph-name="iacute" unicode="&#xed;" horiz-adv-x="481" 
d="M104 1190h224l231 262h-287zM111 1065h262v-1065h-262v1065z" />
    <glyph glyph-name="icircumflex" unicode="&#xee;" horiz-adv-x="481" 
d="M428 1169l-186 166l-187 -166h-207l152 283h481l152 -283h-205zM111 1065h262v-1065h-262v1065z" />
    <glyph glyph-name="idieresis" unicode="&#xef;" horiz-adv-x="481" 
d="M-127 1452h268v-213h-268v213zM342 1452h266v-213h-266v213zM111 1065h262v-1065h-262v1065z" />
    <glyph glyph-name="eth" unicode="&#xf0;" horiz-adv-x="1202" 
d="M885 1186q123 -175 166 -310.5t43 -334.5q0 -113 -28 -206.5t-77 -158.5t-116.5 -109.5t-144.5 -65.5t-163 -21q-99 0 -188.5 33.5t-161 98t-114 169t-42.5 235.5q0 132 37 237.5t102 173t151.5 103t187.5 35.5q127 0 219 -68q-58 106 -94 160l-209 -24v120l129 17
q-54 66 -152 164h264q86 -109 109 -138l188 23v-121zM571 205q51 0 96.5 18t83.5 54t60.5 97.5t22.5 141.5q0 169 -72 246.5t-191 77.5q-112 0 -183 -78t-71 -246q0 -80 21 -141.5t57 -97.5t80.5 -54t95.5 -18z" />
    <glyph glyph-name="ntilde" unicode="&#xf1;" horiz-adv-x="1212" 
d="M403 1339q-38 0 -64.5 -19.5t-25.5 -47.5h-106q0 110 62.5 180t174.5 70q44 0 86 -16.5t76 -39.5t67.5 -46t72 -39.5t77.5 -16.5q38 0 64.5 20.5t25.5 49.5h107q0 -110 -63.5 -180t-174.5 -70q-44 0 -86 16t-76 39t-67.5 45.5t-72 38.5t-77.5 16zM725 1075
q84 0 150.5 -23t119 -72t81 -134.5t28.5 -202.5v-643h-262v629q0 120 -57 174.5t-156 54.5q-47 0 -88 -15.5t-69.5 -39.5t-50 -54.5t-33 -58.5t-15.5 -53v-637h-262v1065h262v-221q10 25 28 53.5t49.5 60.5t69.5 57.5t92 42.5t113 17z" />
    <glyph glyph-name="ograve" unicode="&#xf2;" horiz-adv-x="1155" 
d="M709 1190l-168 262h-287l231 -262h224zM578 1075q71 0 141.5 -18.5t139.5 -61t121.5 -104t85 -155t32.5 -206.5q0 -112 -32.5 -205.5t-85 -154.5t-121.5 -104t-139.5 -61.5t-141.5 -18.5t-141.5 18.5t-139 61.5t-121 104t-85 154.5t-32.5 205.5q0 113 32.5 206.5t85 155
t121 104t139 61t141.5 18.5zM844 530q0 165 -76.5 248.5t-189.5 83.5q-54 0 -101 -19.5t-84.5 -58.5t-59.5 -104.5t-22 -149.5q0 -163 77 -247t190 -84t189.5 84t76.5 247z" />
    <glyph glyph-name="oacute" unicode="&#xf3;" horiz-adv-x="1155" 
d="M440 1190h224l231 262h-287zM578 1075q71 0 141.5 -18.5t139.5 -61t121.5 -104t85 -155t32.5 -206.5q0 -112 -32.5 -205.5t-85 -154.5t-121.5 -104t-139.5 -61.5t-141.5 -18.5t-141.5 18.5t-139 61.5t-121 104t-85 154.5t-32.5 205.5q0 113 32.5 206.5t85 155t121 104
t139 61t141.5 18.5zM844 530q0 165 -76.5 248.5t-189.5 83.5q-54 0 -101 -19.5t-84.5 -58.5t-59.5 -104.5t-22 -149.5q0 -163 77 -247t190 -84t189.5 84t76.5 247z" />
    <glyph glyph-name="ocircumflex" unicode="&#xf4;" horiz-adv-x="1155" 
d="M764 1169l-186 166l-187 -166h-207l152 283h481l152 -283h-205zM578 1075q71 0 141.5 -18.5t139.5 -61t121.5 -104t85 -155t32.5 -206.5q0 -112 -32.5 -205.5t-85 -154.5t-121.5 -104t-139.5 -61.5t-141.5 -18.5t-141.5 18.5t-139 61.5t-121 104t-85 154.5t-32.5 205.5
q0 113 32.5 206.5t85 155t121 104t139 61t141.5 18.5zM844 530q0 165 -76.5 248.5t-189.5 83.5q-54 0 -101 -19.5t-84.5 -58.5t-59.5 -104.5t-22 -149.5q0 -163 77 -247t190 -84t189.5 84t76.5 247z" />
    <glyph glyph-name="otilde" unicode="&#xf5;" horiz-adv-x="1155" 
d="M885 1434h106q0 -110 -63 -180t-174 -70q-44 0 -86 16t-76 39t-67.5 45.5t-72 38.5t-77.5 16q-38 0 -64.5 -19.5t-25.5 -47.5h-107q0 110 63 180t175 70q44 0 86 -16.5t76 -39.5t67.5 -46t72 -39.5t77.5 -16.5q38 0 64.5 20.5t25.5 49.5zM578 1075q71 0 141.5 -18.5
t139.5 -61t121.5 -104t85 -155t32.5 -206.5q0 -112 -32.5 -205.5t-85 -154.5t-121.5 -104t-139.5 -61.5t-141.5 -18.5t-141.5 18.5t-139 61.5t-121 104t-85 154.5t-32.5 205.5q0 113 32.5 206.5t85 155t121 104t139 61t141.5 18.5zM844 530q0 165 -76.5 248.5t-189.5 83.5
q-54 0 -101 -19.5t-84.5 -58.5t-59.5 -104.5t-22 -149.5q0 -163 77 -247t190 -84t189.5 84t76.5 247z" />
    <glyph glyph-name="odieresis" unicode="&#xf6;" horiz-adv-x="1155" 
d="M209 1452h268v-213h-268v213zM678 1452h266v-213h-266v213zM578 1075q71 0 141.5 -18.5t139.5 -61t121.5 -104t85 -155t32.5 -206.5q0 -112 -32.5 -205.5t-85 -154.5t-121.5 -104t-139.5 -61.5t-141.5 -18.5t-141.5 18.5t-139 61.5t-121 104t-85 154.5t-32.5 205.5
q0 113 32.5 206.5t85 155t121 104t139 61t141.5 18.5zM844 530q0 165 -76.5 248.5t-189.5 83.5q-54 0 -101 -19.5t-84.5 -58.5t-59.5 -104.5t-22 -149.5q0 -163 77 -247t190 -84t189.5 84t76.5 247z" />
    <glyph glyph-name="divide" unicode="&#xf7;" horiz-adv-x="968" 
d="M485 795q-49 0 -81.5 33t-32.5 83q0 47 32.5 80t81.5 33q47 0 80 -33.5t33 -79.5q0 -49 -33 -82.5t-80 -33.5zM76 666h663v-197h-663v197zM485 111q-49 0 -81.5 33t-32.5 83q0 47 32.5 80t81.5 33q47 0 80 -33.5t33 -79.5q0 -49 -33 -82.5t-80 -33.5z" />
    <glyph glyph-name="oslash" unicode="&#xf8;" horiz-adv-x="1155" 
d="M899 969q199 -149 199 -439q0 -112 -32.5 -205.5t-85 -154.5t-121.5 -104t-139.5 -61.5t-141.5 -18.5q-69 0 -140 18l-51 -106h-227l94 196q-195 155 -195 436q0 113 32.5 206.5t85 155t121 104t139 61t141.5 18.5q70 0 137 -18l61 127h228zM311 530q0 -132 51 -211
l259 539q-28 4 -43 4q-54 0 -101 -19.5t-84.5 -58.5t-59.5 -104.5t-22 -149.5zM578 199q113 0 189.5 84t76.5 247q0 134 -51 213l-261 -540q28 -4 46 -4z" />
    <glyph glyph-name="ugrave" unicode="&#xf9;" horiz-adv-x="1202" 
d="M725 1190h-223l-232 262h287zM831 1065h263v-1065h-263v219q-12 -32 -39 -68.5t-69.5 -75t-107 -64t-136.5 -25.5q-84 0 -151 23t-119.5 72.5t-80.5 135.5t-28 203v645h262v-631q0 -120 57 -175.5t154 -55.5q58 0 107 23.5t79 59.5t48 72t24 68v639z" />
    <glyph glyph-name="uacute" unicode="&#xfa;" horiz-adv-x="1202" 
d="M911 1452l-231 -262h-223l168 262h286zM831 1065h263v-1065h-263v219q-12 -32 -39 -68.5t-69.5 -75t-107 -64t-136.5 -25.5q-84 0 -151 23t-119.5 72.5t-80.5 135.5t-28 203v645h262v-631q0 -120 57 -175.5t154 -55.5q58 0 107 23.5t79 59.5t48 72t24 68v639z" />
    <glyph glyph-name="ucircumflex" unicode="&#xfb;" horiz-adv-x="1202" 
d="M594 1335l-186 -166h-207l151 283h482l151 -283h-205zM831 1065h263v-1065h-263v219q-12 -32 -39 -68.5t-69.5 -75t-107 -64t-136.5 -25.5q-84 0 -151 23t-119.5 72.5t-80.5 135.5t-28 203v645h262v-631q0 -120 57 -175.5t154 -55.5q58 0 107 23.5t79 59.5t48 72t24 68
v639z" />
    <glyph glyph-name="udieresis" unicode="&#xfc;" horiz-adv-x="1202" 
d="M494 1452v-213h-269v213h269zM961 1452v-213h-267v213h267zM831 1065h263v-1065h-263v219q-12 -32 -39 -68.5t-69.5 -75t-107 -64t-136.5 -25.5q-84 0 -151 23t-119.5 72.5t-80.5 135.5t-28 203v645h262v-631q0 -120 57 -175.5t154 -55.5q58 0 107 23.5t79 59.5t48 72
t24 68v639z" />
    <glyph glyph-name="yacute" unicode="&#xfd;" horiz-adv-x="1157" 
d="M440 1190h224l231 262h-287zM854 1065h266l-442 -1083q-94 -232 -209 -316.5t-313 -62.5v223q65 -7 114 1.5t80.5 32t50 49t35.5 62.5q12 37 10 60t-18 69l-389 965h270l266 -739z" />
    <glyph glyph-name="thorn" unicode="&#xfe;" horiz-adv-x="1210" 
d="M682 1075q63 0 126.5 -19t125.5 -61.5t110 -103.5t77.5 -154t29.5 -205q0 -113 -29.5 -207t-78 -155.5t-111.5 -104t-127 -61t-129 -18.5q-70 0 -129 19.5t-94 48.5t-55 56t-25 48v-547h-262v1835h262v-533q36 64 116 111.5t185 50.5h8zM625 199q116 0 194 84t78 249
q0 163 -78 246.5t-194 83.5q-114 0 -189.5 -84.5t-75.5 -245.5t75.5 -247t189.5 -86z" />
    <glyph glyph-name="ydieresis" unicode="&#xff;" horiz-adv-x="1157" 
d="M209 1452h268v-213h-268v213zM678 1452h266v-213h-266v213zM854 1065h266l-442 -1083q-94 -232 -209 -316.5t-313 -62.5v223q65 -7 114 1.5t80.5 32t50 49t35.5 62.5q12 37 10 60t-18 69l-389 965h270l266 -739z" />
    <glyph glyph-name="Amacron" unicode="&#x100;" horiz-adv-x="1458" 
d="M1083 1821v-154h-710v154h710zM1114 0l-104 295h-561l-105 -295h-295l557 1434h246l559 -1434h-297zM520 498h418l-209 594z" />
    <glyph glyph-name="amacron" unicode="&#x101;" 
d="M922 1452v-154h-711v154h711zM1018 250q0 -87 76 -90v-152q-35 -16 -97 -16q-97 0 -156 41.5t-59 122.5v26q-9 -17 -20.5 -33.5t-43 -48.5t-69 -55t-99.5 -41t-134 -18q-98 0 -176.5 32.5t-129.5 107.5t-51 185q0 65 21 115.5t53.5 82t87 56t104 37t121.5 25.5
q19 3 70 11t75.5 12.5t61 12t61 16t42.5 19.5v4q0 55 -15.5 92t-44.5 55.5t-60.5 26t-72.5 7.5q-174 0 -196 -131h-246q13 159 126 241t318 82q241 0 347 -101.5t106 -332.5v-391zM756 336v205q-25 -12 -60 -23t-58.5 -16t-77 -15.5t-75.5 -15.5q-90 -20 -126.5 -55
t-36.5 -97q0 -63 41.5 -104t121.5 -41q172 0 271 162z" />
    <glyph glyph-name="Abreve" unicode="&#x102;" horiz-adv-x="1458" 
d="M729 1520q-166 0 -251 81t-85 220h172q9 -65 48.5 -96t115.5 -31t115.5 31t50.5 96h170q0 -139 -85 -220t-251 -81zM1114 0l-104 295h-561l-105 -295h-295l557 1434h246l559 -1434h-297zM520 498h418l-209 594z" />
    <glyph glyph-name="abreve" unicode="&#x103;" 
d="M567 1151q-166 0 -251 81t-85 220h172q9 -65 48.5 -96t115.5 -31t115.5 31t50.5 96h170q0 -139 -85 -220t-251 -81zM1018 250q0 -87 76 -90v-152q-35 -16 -97 -16q-97 0 -156 41.5t-59 122.5v26q-9 -17 -20.5 -33.5t-43 -48.5t-69 -55t-99.5 -41t-134 -18
q-98 0 -176.5 32.5t-129.5 107.5t-51 185q0 65 21 115.5t53.5 82t87 56t104 37t121.5 25.5q19 3 70 11t75.5 12.5t61 12t61 16t42.5 19.5v4q0 55 -15.5 92t-44.5 55.5t-60.5 26t-72.5 7.5q-174 0 -196 -131h-246q13 159 126 241t318 82q241 0 347 -101.5t106 -332.5v-391z
M756 336v205q-25 -12 -60 -23t-58.5 -16t-77 -15.5t-75.5 -15.5q-90 -20 -126.5 -55t-36.5 -97q0 -63 41.5 -104t121.5 -41q172 0 271 162z" />
    <glyph glyph-name="Aogonek" unicode="&#x104;" horiz-adv-x="1458" 
d="M1307 0q-149 -42 -210 -102t-61 -123q0 -60 49 -77t129 9v-113q-41 -21 -95.5 -33.5t-112 -10.5t-106.5 18.5t-80.5 57.5t-31.5 102q0 72 54 133.5t125.5 94.5t146.5 44l-104 295h-561l-105 -295h-295l557 1434h246l559 -1434h-104zM520 498h418l-209 594z" />
    <glyph glyph-name="aogonek" unicode="&#x105;" 
d="M1094 160v-152l-15 -6h6q-149 -42 -209.5 -102t-60.5 -123q0 -60 49.5 -77t128.5 9v-112q-41 -21 -95.5 -33.5t-112 -11t-106.5 18t-80.5 57.5t-31.5 102q0 72 54 133.5t125.5 94.5t146.5 44h16q-59 16 -93 54.5t-34 99.5v26q-9 -17 -20.5 -33.5t-43 -48.5t-69 -55
t-99.5 -41t-134 -18q-98 0 -176.5 32.5t-129.5 107.5t-51 185q0 65 21 115.5t53.5 82t87 56t104 37t121.5 25.5q19 3 70 11t75.5 12.5t61 12t61 16t42.5 19.5v4q0 55 -15.5 92t-44.5 55.5t-60.5 26t-72.5 7.5q-174 0 -196 -131h-246q13 159 126 241t318 82q241 0 347 -101.5
t106 -332.5v-391q0 -87 76 -90zM756 336v205q-25 -12 -60 -23t-58.5 -16t-77 -15.5t-75.5 -15.5q-90 -20 -126.5 -55t-36.5 -97q0 -63 41.5 -104t121.5 -41q172 0 271 162z" />
    <glyph glyph-name="Cacute" unicode="&#x106;" horiz-adv-x="1378" 
d="M600 1559h223l232 262h-287zM737 219q124 0 195 52t112 163h273q-14 -110 -66 -197t-131 -142t-178 -84t-211 -29q-144 0 -263.5 48t-205.5 139.5t-134 231.5t-48 316t48 316t134 231.5t205.5 139.5t263.5 48q149 0 272 -49t207 -152t103 -247h-273q-41 108 -111 159
t-192 51q-175 0 -272.5 -130.5t-97.5 -366.5q0 -235 97.5 -366.5t272.5 -131.5z" />
    <glyph glyph-name="cacute" unicode="&#x107;" horiz-adv-x="1101" 
d="M414 1190h223l231 262h-286zM578 199q95 0 147.5 42.5t77.5 123.5h237q-16 -87 -52 -154.5t-81 -109t-103 -68.5t-113.5 -37t-115.5 -10q-76 0 -147.5 18t-139.5 59.5t-118 103t-80.5 155t-30.5 208.5q0 114 30 207t80.5 155t117.5 104t138.5 60.5t147.5 18.5
q78 0 146 -17t132.5 -56.5t111.5 -114.5t67 -180h-239q-22 75 -72.5 115t-143.5 40q-120 0 -192 -86.5t-72 -245.5q0 -161 73 -246t194 -85z" />
    <glyph glyph-name="Cdotaccent" unicode="&#x10a;" horiz-adv-x="1378" 
d="M604 1821h268v-213h-268v213zM737 219q124 0 195 52t112 163h273q-14 -110 -66 -197t-131 -142t-178 -84t-211 -29q-144 0 -263.5 48t-205.5 139.5t-134 231.5t-48 316t48 316t134 231.5t205.5 139.5t263.5 48q149 0 272 -49t207 -152t103 -247h-273q-41 108 -111 159
t-192 51q-175 0 -272.5 -130.5t-97.5 -366.5q0 -235 97.5 -366.5t272.5 -131.5z" />
    <glyph glyph-name="cdotaccent" unicode="&#x10b;" horiz-adv-x="1101" 
d="M418 1452h268v-213h-268v213zM578 199q95 0 147.5 42.5t77.5 123.5h237q-16 -87 -52 -154.5t-81 -109t-103 -68.5t-113.5 -37t-115.5 -10q-76 0 -147.5 18t-139.5 59.5t-118 103t-80.5 155t-30.5 208.5q0 114 30 207t80.5 155t117.5 104t138.5 60.5t147.5 18.5
q78 0 146 -17t132.5 -56.5t111.5 -114.5t67 -180h-239q-22 75 -72.5 115t-143.5 40q-120 0 -192 -86.5t-72 -245.5q0 -161 73 -246t194 -85z" />
    <glyph glyph-name="Ccaron" unicode="&#x10c;" horiz-adv-x="1378" 
d="M922 1802h204l-151 -282h-481l-152 282h207l186 -166zM737 219q124 0 195 52t112 163h273q-14 -110 -66 -197t-131 -142t-178 -84t-211 -29q-144 0 -263.5 48t-205.5 139.5t-134 231.5t-48 316t48 316t134 231.5t205.5 139.5t263.5 48q149 0 272 -49t207 -152t103 -247
h-273q-41 108 -111 159t-192 51q-175 0 -272.5 -130.5t-97.5 -366.5q0 -235 97.5 -366.5t272.5 -131.5z" />
    <glyph glyph-name="ccaron" unicode="&#x10d;" horiz-adv-x="1101" 
d="M735 1434h205l-152 -283h-481l-151 283h206l187 -166zM578 199q95 0 147.5 42.5t77.5 123.5h237q-16 -87 -52 -154.5t-81 -109t-103 -68.5t-113.5 -37t-115.5 -10q-76 0 -147.5 18t-139.5 59.5t-118 103t-80.5 155t-30.5 208.5q0 114 30 207t80.5 155t117.5 104
t138.5 60.5t147.5 18.5q78 0 146 -17t132.5 -56.5t111.5 -114.5t67 -180h-239q-22 75 -72.5 115t-143.5 40q-120 0 -192 -86.5t-72 -245.5q0 -161 73 -246t194 -85z" />
    <glyph glyph-name="Dcaron" unicode="&#x10e;" horiz-adv-x="1390" 
d="M920 1520h-482l-151 282h207l186 -166l186 166h205zM631 1434q341 0 516.5 -185t175.5 -532t-175.5 -532t-516.5 -185h-520v1434h520zM604 238q240 0 342.5 113t102.5 366t-102.5 366t-342.5 113h-221v-958h221z" />
    <glyph glyph-name="dcaron" unicode="&#x10f;" horiz-adv-x="1579" 
d="M528 1075q108 0 191.5 -48.5t118.5 -115.5v535h262v-1446h-262v176q-5 -22 -25 -51.5t-55 -62t-94 -54.5t-129 -22q-65 0 -129.5 18.5t-127.5 61t-111 104t-78 155.5t-30 207q0 112 29.5 205t77.5 154t110 103.5t125.5 61.5t126.5 19zM1163 1184h223l232 262h-287z
M584 199q115 0 190.5 85.5t75.5 247.5t-75.5 246t-190.5 84q-118 0 -194.5 -83t-76.5 -247q0 -166 76.5 -249.5t194.5 -83.5z" />
    <glyph glyph-name="Dcroat" unicode="&#x110;" horiz-adv-x="1454" 
d="M694 1434q341 0 516.5 -185t175.5 -532t-175.5 -532t-516.5 -185h-520v608h-133v197h133v629h520zM668 238q240 0 342 112.5t102 366.5t-102 366.5t-342 112.5h-222v-391h207v-197h-207v-370h222z" />
    <glyph glyph-name="dcroat" unicode="&#x111;" horiz-adv-x="1292" 
d="M1266 1321v-154h-166v-1167h-262v176q-5 -22 -25 -51.5t-55 -62t-94 -54.5t-129 -22q-65 0 -129.5 18.5t-127.5 61t-111 104t-78 155.5t-30 207q0 112 29.5 205t77.5 154t110 103.5t125.5 61.5t126.5 19q108 0 191.5 -48.5t118.5 -115.5v256h-283v154h283v125h262v-125
h166zM584 199q115 0 190.5 85.5t75.5 247.5t-75.5 246t-190.5 84q-118 0 -194.5 -83t-76.5 -247q0 -166 76.5 -249.5t194.5 -83.5z" />
    <glyph glyph-name="Emacron" unicode="&#x112;" horiz-adv-x="1177" 
d="M963 1821v-154h-711v154h711zM383 238h733v-238h-1005v1434h985v-238h-713v-356h610v-222h-610v-380z" />
    <glyph glyph-name="emacron" unicode="&#x113;" 
d="M928 1452v-154h-711v154h711zM1075 502q0 -35 -2 -53h-762q28 -267 279 -267q164 0 223 105h231q-100 -301 -469 -301q-77 0 -149 19t-139.5 61t-117.5 103.5t-80 154t-30 204.5q0 113 30 206t80.5 155t118 105t140.5 62t150 19q81 0 152.5 -19.5t135.5 -63t110 -108.5
t72.5 -163t26.5 -219zM311 612h514q-3 125 -67.5 196t-179.5 71q-111 0 -180.5 -68t-86.5 -199z" />
    <glyph glyph-name="Edotaccent" unicode="&#x116;" horiz-adv-x="1177" 
d="M743 1821v-213h-268v213h268zM383 238h733v-238h-1005v1434h985v-238h-713v-356h610v-222h-610v-380z" />
    <glyph glyph-name="edotaccent" unicode="&#x117;" 
d="M709 1452v-213h-269v213h269zM1075 502q0 -35 -2 -53h-762q28 -267 279 -267q164 0 223 105h231q-100 -301 -469 -301q-77 0 -149 19t-139.5 61t-117.5 103.5t-80 154t-30 204.5q0 113 30 206t80.5 155t118 105t140.5 62t150 19q81 0 152.5 -19.5t135.5 -63t110 -108.5
t72.5 -163t26.5 -219zM311 612h514q-3 125 -67.5 196t-179.5 71q-111 0 -180.5 -68t-86.5 -199z" />
    <glyph glyph-name="Eogonek" unicode="&#x118;" horiz-adv-x="1177" 
d="M1116 0q-149 -42 -209.5 -102t-60.5 -123q0 -60 49 -77t129 9v-113q-41 -21 -95.5 -33.5t-112 -10.5t-106.5 18.5t-80.5 57.5t-31.5 102q0 72 54 133.5t125.5 94.5t146.5 44h-813v1434h985v-238h-713v-356h610v-222h-610v-380h733v-238z" />
    <glyph glyph-name="eogonek" unicode="&#x119;" 
d="M1075 502q0 -35 -2 -53h-762q28 -267 279 -267q164 0 223 105h231q-78 -239 -329 -289h20q-149 -42 -209.5 -102t-60.5 -123q0 -60 49.5 -77t128.5 9v-113q-41 -21 -95.5 -33.5t-112 -10.5t-106.5 18.5t-80.5 57.5t-31.5 102q0 96 86.5 167t198.5 97q-69 9 -132 33
t-120.5 68.5t-99 104t-66.5 145t-25 187.5q0 113 30 206t80.5 155t118 105t140.5 62t150 19q81 0 152.5 -19.5t135.5 -63t110 -108.5t72.5 -163t26.5 -219zM311 612h514q-3 125 -67.5 196t-179.5 71q-111 0 -180.5 -68t-86.5 -199z" />
    <glyph glyph-name="Ecaron" unicode="&#x11a;" horiz-adv-x="1177" 
d="M846 1520h-481l-152 282h207l186 -166l187 166h204zM383 238h733v-238h-1005v1434h985v-238h-713v-356h610v-222h-610v-380z" />
    <glyph glyph-name="ecaron" unicode="&#x11b;" 
d="M811 1151h-481l-152 283h207l186 -166l187 166h205zM1075 502q0 -35 -2 -53h-762q28 -267 279 -267q164 0 223 105h231q-100 -301 -469 -301q-77 0 -149 19t-139.5 61t-117.5 103.5t-80 154t-30 204.5q0 113 30 206t80.5 155t118 105t140.5 62t150 19q81 0 152.5 -19.5
t135.5 -63t110 -108.5t72.5 -163t26.5 -219zM311 612h514q-3 125 -67.5 196t-179.5 71q-111 0 -180.5 -68t-86.5 -199z" />
    <glyph glyph-name="Gbreve" unicode="&#x11e;" horiz-adv-x="1445" 
d="M897 1821h170q0 -139 -85 -220t-251 -81t-251 81t-85 220h172q9 -65 48.5 -96t115.5 -31t115.5 31t50.5 96zM1358 772v-92q0 -349 -147.5 -523.5t-462.5 -174.5q-151 0 -273.5 48t-210.5 139.5t-136 231t-48 316.5q0 176 48 316t134 231.5t205.5 139.5t263.5 48
q220 0 378.5 -110.5t197.5 -311.5h-275q-41 92 -111 138t-184 46q-174 0 -272 -131t-98 -366q0 -234 99 -366t282 -132q169 0 258.5 80.5t99.5 257.5h-315v215h567z" />
    <glyph glyph-name="gbreve" unicode="&#x11f;" horiz-adv-x="1202" 
d="M561 1151q-166 0 -251 81t-85 220h172q9 -65 48.5 -96t115.5 -31t115.5 31t50.5 96h170q0 -139 -85 -220t-251 -81zM829 1071h263v-1048q0 -113 -34.5 -200.5t-87 -137.5t-124 -82t-136 -43t-132.5 -11q-163 0 -286.5 62t-178.5 166l163 102q98 -115 275 -115
q143 0 210.5 61.5t67.5 197.5v153q-6 -23 -26 -51.5t-55 -61t-93.5 -54t-128.5 -21.5q-63 0 -126.5 18.5t-125.5 61t-109.5 103.5t-76.5 154.5t-29 206.5q0 112 29 205t76.5 154t108.5 103.5t123.5 61.5t123.5 19q108 0 191 -48.5t118 -115.5v160zM582 201q114 0 187 84.5
t73 246.5t-73 246t-187 84q-115 0 -189 -83.5t-74 -246.5t74 -247t189 -84z" />
    <glyph glyph-name="Gdotaccent" unicode="&#x120;" horiz-adv-x="1445" 
d="M598 1821h268v-213h-268v213zM1358 772v-92q0 -349 -147.5 -523.5t-462.5 -174.5q-151 0 -273.5 48t-210.5 139.5t-136 231t-48 316.5q0 176 48 316t134 231.5t205.5 139.5t263.5 48q220 0 378.5 -110.5t197.5 -311.5h-275q-41 92 -111 138t-184 46q-174 0 -272 -131
t-98 -366q0 -234 99 -366t282 -132q169 0 258.5 80.5t99.5 257.5h-315v215h567z" />
    <glyph glyph-name="gdotaccent" unicode="&#x121;" horiz-adv-x="1202" 
d="M696 1452v-213h-268v213h268zM829 1071h263v-1048q0 -113 -34.5 -200.5t-87 -137.5t-124 -82t-136 -43t-132.5 -11q-163 0 -286.5 62t-178.5 166l163 102q98 -115 275 -115q143 0 210.5 61.5t67.5 197.5v153q-6 -23 -26 -51.5t-55 -61t-93.5 -54t-128.5 -21.5
q-63 0 -126.5 18.5t-125.5 61t-109.5 103.5t-76.5 154.5t-29 206.5q0 112 29 205t76.5 154t108.5 103.5t123.5 61.5t123.5 19q108 0 191 -48.5t118 -115.5v160zM582 201q114 0 187 84.5t73 246.5t-73 246t-187 84q-115 0 -189 -83.5t-74 -246.5t74 -247t189 -84z" />
    <glyph glyph-name="Gcommaaccent" unicode="&#x122;" horiz-adv-x="1445" 
d="M1358 772v-92q0 -349 -147.5 -523.5t-462.5 -174.5q-151 0 -273.5 48t-210.5 139.5t-136 231t-48 316.5q0 176 48 316t134 231.5t205.5 139.5t263.5 48q220 0 378.5 -110.5t197.5 -311.5h-275q-41 92 -111 138t-184 46q-174 0 -272 -131t-98 -366q0 -234 99 -366
t282 -132q169 0 258.5 80.5t99.5 257.5h-315v215h567zM604 -694v82q113 31 113 184v63h-113v304h289v-306q0 -70 -11.5 -124t-33 -89t-47.5 -58t-61 -34.5t-66 -16t-70 -5.5z" />
    <glyph glyph-name="gcommaaccent" unicode="&#x123;" horiz-adv-x="1202" 
d="M682 1464v-303h-289v305q0 83 17.5 144.5t43.5 95.5t66.5 54.5t77 26.5t84.5 7v-82q-113 -31 -113 -184v-64h113zM829 1071h263v-1048q0 -113 -34.5 -200.5t-87 -137.5t-124 -82t-136 -43t-132.5 -11q-163 0 -286.5 62t-178.5 166l163 102q98 -115 275 -115
q143 0 210.5 61.5t67.5 197.5v153q-6 -23 -26 -51.5t-55 -61t-93.5 -54t-128.5 -21.5q-63 0 -126.5 18.5t-125.5 61t-109.5 103.5t-76.5 154.5t-29 206.5q0 112 29 205t76.5 154t108.5 103.5t123.5 61.5t123.5 19q108 0 191 -48.5t118 -115.5v160zM582 201q114 0 187 84.5
t73 246.5t-73 246t-187 84q-115 0 -189 -83.5t-74 -246.5t74 -247t189 -84z" />
    <glyph glyph-name="Hbar" unicode="&#x126;" horiz-adv-x="1372" 
d="M987 1434h275v-1434h-275v600h-604v-600h-272v1434h272v-263h604v263zM383 823h604v133h-604v-133z" />
    <glyph glyph-name="hbar" unicode="&#x127;" horiz-adv-x="1280" 
d="M793 1075q84 0 150.5 -23t118.5 -72t80.5 -134.5t28.5 -202.5v-643h-262v629q0 120 -57 174.5t-156 54.5q-47 0 -88 -15.5t-69.5 -39.5t-50 -54.5t-33 -58.5t-15.5 -53v-637h-262v1075h-149v182h149v189h262v-189h187v-182h-187v-231q12 32 39 68.5t69.5 74.5t107 63
t137.5 25z" />
    <glyph glyph-name="Imacron" unicode="&#x12a;" horiz-adv-x="493" 
d="M-111 1821h711v-154h-711v154zM383 0h-272v1434h272v-1434z" />
    <glyph glyph-name="imacron" unicode="&#x12b;" horiz-adv-x="481" 
d="M-115 1452h711v-154h-711v154zM111 1065h262v-1065h-262v1065z" />
    <glyph glyph-name="Iogonek" unicode="&#x12e;" horiz-adv-x="493" 
d="M115 -225q0 -60 49.5 -77t128.5 9v-113q-41 -21 -95.5 -33.5t-112 -10.5t-106.5 18.5t-80.5 57.5t-31.5 102q0 72 54 133.5t125.5 94.5t146.5 44h-82v1434h272v-1434h2q-149 -42 -209.5 -102t-60.5 -123z" />
    <glyph glyph-name="iogonek" unicode="&#x12f;" horiz-adv-x="481" 
d="M109 1452h268v-213h-268v213zM111 0v1065h262v-1065h-70q-149 -42 -209.5 -102t-60.5 -123q0 -60 49.5 -77t128.5 9v-113q-41 -21 -95.5 -33.5t-112 -10.5t-106.5 18.5t-80.5 57.5t-31.5 102q0 72 54 133.5t125.5 94.5t146.5 44z" />
    <glyph glyph-name="Idotaccent" unicode="&#x130;" horiz-adv-x="493" 
d="M113 1821h268v-213h-268v213zM383 0h-272v1434h272v-1434z" />
    <glyph glyph-name="dotlessi" unicode="&#x131;" horiz-adv-x="481" 
d="M111 1065h262v-1065h-262v1065z" />
    <glyph glyph-name="IJ" unicode="&#x132;" horiz-adv-x="1556" 
d="M383 0h-272v1434h272v-1434zM676 344q108 -121 272 -121q236 0 236 281v930h274v-942q0 -133 -40.5 -233t-112 -158.5t-160.5 -86.5t-195 -28q-137 0 -243.5 52.5t-174.5 135.5z" />
    <glyph glyph-name="ij" unicode="&#x133;" horiz-adv-x="964" 
d="M111 1452h262v-207h-262v207zM594 1452h262v-207h-262v207zM111 1065h262v-1065h-262v1065zM330 -199q82 -26 145 -26q65 0 92 39.5t27 95.5v1155h262v-1196q0 -161 -83.5 -240.5t-229.5 -79.5q-128 0 -213 39v213z" />
    <glyph glyph-name="Kcommaaccent" unicode="&#x136;" horiz-adv-x="1406" 
d="M750 784l616 -784h-303l-477 594v4l-203 -236v-362h-272v1434h272v-703l614 703h314zM557 -365v304h289v-306q0 -70 -11.5 -124t-33 -89t-47.5 -58t-61 -34.5t-66 -16t-70 -5.5v82q113 31 113 184v63h-113z" />
    <glyph glyph-name="kcommaaccent" unicode="&#x137;" horiz-adv-x="1167" 
d="M651 614l498 -614h-287l-375 444l-114 -118v-326h-262v1446h262v-817l418 436h296zM467 -365v304h289v-306q0 -70 -11.5 -124t-33 -89t-47.5 -58t-61 -34.5t-66 -16t-70 -5.5v82q113 31 113 184v63h-113z" />
    <glyph glyph-name="Lacute" unicode="&#x139;" horiz-adv-x="1116" 
d="M129 1554h223l232 263h-287zM383 238h676v-238h-948v1434h272v-1196z" />
    <glyph glyph-name="lacute" unicode="&#x13a;" horiz-adv-x="481" 
d="M104 1571h224l231 262h-287zM111 1446h262v-1446h-262v1446z" />
    <glyph glyph-name="Lcommaaccent" unicode="&#x13b;" horiz-adv-x="1116" 
d="M383 238h676v-238h-948v1434h272v-1196zM416 -705v82q112 31 112 185v63h-112v303h289v-305q0 -83 -17.5 -144.5t-43.5 -95.5t-66.5 -54.5t-77 -26.5t-84.5 -7z" />
    <glyph glyph-name="lcommaaccent" unicode="&#x13c;" horiz-adv-x="481" 
d="M111 1446h262v-1446h-262v1446zM98 -694v82q113 31 113 184v63h-113v304h289v-306q0 -70 -11.5 -124t-33 -89t-47.5 -58t-61 -34.5t-66 -16t-70 -5.5z" />
    <glyph glyph-name="Lcaron" unicode="&#x13d;" horiz-adv-x="1116" 
d="M383 238h676v-238h-948v1434h272v-1196zM592 801v82q113 31 113 184v63h-113v304h289v-306q0 -70 -11.5 -124t-33 -89t-47.5 -58t-61 -34.5t-66 -16t-70 -5.5z" />
    <glyph glyph-name="lcaron" unicode="&#x13e;" horiz-adv-x="872" 
d="M111 1446h262v-1446h-262v1446zM502 801v82q112 31 112 184v63h-112v304h289v-306q0 -70 -11.5 -124t-33 -89t-47.5 -58t-61 -34.5t-66 -16t-70 -5.5z" />
    <glyph glyph-name="Lslash" unicode="&#x141;" horiz-adv-x="1163" 
d="M430 238h676v-238h-948v422l-129 -135v268l129 135v744h272v-457l176 186h2v-266l-178 -188v-471z" />
    <glyph glyph-name="lslash" unicode="&#x142;" horiz-adv-x="630" 
d="M584 1145v-266l-140 -148v-731h-262v455l-133 -140v269l133 141v721h262v-447l138 146h2z" />
    <glyph glyph-name="Nacute" unicode="&#x143;" horiz-adv-x="1404" 
d="M567 1559h224l231 262h-287zM1296 1434v-1434h-292l-613 981h-8v-981h-272v1434h280l623 -998h8v998h274z" />
    <glyph glyph-name="nacute" unicode="&#x144;" horiz-adv-x="1212" 
d="M924 1452l-232 -262h-223l168 262h287zM725 1075q84 0 150.5 -23t119 -72t81 -134.5t28.5 -202.5v-643h-262v629q0 120 -57 174.5t-156 54.5q-47 0 -88 -15.5t-69.5 -39.5t-50 -54.5t-33 -58.5t-15.5 -53v-637h-262v1065h262v-221q10 25 28 53.5t49.5 60.5t69.5 57.5
t92 42.5t113 17z" />
    <glyph glyph-name="Ncommaaccent" unicode="&#x145;" horiz-adv-x="1404" 
d="M1296 1434v-1434h-292l-613 981h-8v-981h-272v1434h280l623 -998h8v998h274zM561 -694v82q113 31 113 184v63h-113v304h289v-306q0 -70 -11.5 -124t-33 -89t-47.5 -58t-61 -34.5t-66 -16t-70 -5.5z" />
    <glyph glyph-name="ncommaaccent" unicode="&#x146;" horiz-adv-x="1212" 
d="M725 1075q84 0 150.5 -23t119 -72t81 -134.5t28.5 -202.5v-643h-262v629q0 120 -57 174.5t-156 54.5q-47 0 -88 -15.5t-69.5 -39.5t-50 -54.5t-33 -58.5t-15.5 -53v-637h-262v1065h262v-221q10 25 28 53.5t49.5 60.5t69.5 57.5t92 42.5t113 17zM463 -365v304h289v-306
q0 -70 -11.5 -124t-33 -89t-47.5 -58t-61 -34.5t-66 -16t-70 -5.5v82q112 31 112 184v63h-112z" />
    <glyph glyph-name="Ncaron" unicode="&#x147;" horiz-adv-x="1404" 
d="M889 1802h205l-152 -282h-481l-152 282h207l186 -166zM1296 1434v-1434h-292l-613 981h-8v-981h-272v1434h280l623 -998h8v998h274z" />
    <glyph glyph-name="ncaron" unicode="&#x148;" horiz-adv-x="1212" 
d="M844 1151h-482l-151 283h207l186 -166l187 166h204zM725 1075q84 0 150.5 -23t119 -72t81 -134.5t28.5 -202.5v-643h-262v629q0 120 -57 174.5t-156 54.5q-47 0 -88 -15.5t-69.5 -39.5t-50 -54.5t-33 -58.5t-15.5 -53v-637h-262v1065h262v-221q10 25 28 53.5t49.5 60.5
t69.5 57.5t92 42.5t113 17z" />
    <glyph glyph-name="Eng" unicode="&#x14a;" horiz-adv-x="1404" 
d="M1022 1434h274v-1379q0 -133 -41 -233t-112.5 -158.5t-160.5 -86.5t-194 -28q-138 0 -243.5 52.5t-175.5 136.5l145 170q108 -121 272 -121q196 0 230 197l-625 997h-8v-981h-272v1434h280l623 -1000h8v1000z" />
    <glyph glyph-name="eng" unicode="&#x14b;" horiz-adv-x="1212" 
d="M725 1075q84 0 150.5 -23t119 -72t81 -134.5t28.5 -202.5v-774q0 -161 -83.5 -240.5t-229.5 -79.5q-129 0 -211 39v213q79 -26 143 -26q65 0 92 39.5t27 95.5v719q0 120 -57 174.5t-156 54.5q-47 0 -88 -15.5t-69.5 -39.5t-50 -54.5t-33 -58.5t-15.5 -53v-637h-262v1065
h262v-221q10 25 28 53.5t49.5 60.5t69.5 57.5t92 42.5t113 17z" />
    <glyph glyph-name="Omacron" unicode="&#x14c;" horiz-adv-x="1501" 
d="M393 1821h711v-154h-711v154zM750 1452q307 0 489 -194t182 -541q0 -173 -48 -311.5t-136 -231.5t-212 -142.5t-275 -49.5q-305 0 -487.5 195t-182.5 540q0 173 48.5 312t136.5 231.5t211.5 142t273.5 49.5zM750 219q182 0 283.5 131t101.5 367q0 237 -101.5 367
t-283.5 130q-181 0 -282 -130t-101 -367q0 -236 101.5 -367t281.5 -131z" />
    <glyph glyph-name="omacron" unicode="&#x14d;" horiz-adv-x="1155" 
d="M221 1452h711v-154h-711v154zM578 1075q71 0 141.5 -18.5t139.5 -61t121.5 -104t85 -155t32.5 -206.5q0 -112 -32.5 -205.5t-85 -154.5t-121.5 -104t-139.5 -61.5t-141.5 -18.5t-141.5 18.5t-139 61.5t-121 104t-85 154.5t-32.5 205.5q0 113 32.5 206.5t85 155t121 104
t139 61t141.5 18.5zM844 530q0 165 -76.5 248.5t-189.5 83.5q-54 0 -101 -19.5t-84.5 -58.5t-59.5 -104.5t-22 -149.5q0 -163 77 -247t190 -84t189.5 84t76.5 247z" />
    <glyph glyph-name="Ohungarumlaut" unicode="&#x150;" horiz-adv-x="1501" 
d="M489 1559h224l231 262h-287zM893 1559h223l232 262h-287zM750 1452q307 0 489 -194t182 -541q0 -173 -48 -311.5t-136 -231.5t-212 -142.5t-275 -49.5q-305 0 -487.5 195t-182.5 540q0 173 48.5 312t136.5 231.5t211.5 142t273.5 49.5zM750 219q182 0 283.5 131
t101.5 367q0 237 -101.5 367t-283.5 130q-181 0 -282 -130t-101 -367q0 -236 101.5 -367t281.5 -131z" />
    <glyph glyph-name="ohungarumlaut" unicode="&#x151;" horiz-adv-x="1155" 
d="M317 1190h224l231 262h-287zM721 1190h223l232 262h-287zM578 1075q71 0 141.5 -18.5t139.5 -61t121.5 -104t85 -155t32.5 -206.5q0 -112 -32.5 -205.5t-85 -154.5t-121.5 -104t-139.5 -61.5t-141.5 -18.5t-141.5 18.5t-139 61.5t-121 104t-85 154.5t-32.5 205.5
q0 113 32.5 206.5t85 155t121 104t139 61t141.5 18.5zM844 530q0 165 -76.5 248.5t-189.5 83.5q-54 0 -101 -19.5t-84.5 -58.5t-59.5 -104.5t-22 -149.5q0 -163 77 -247t190 -84t189.5 84t76.5 247z" />
    <glyph glyph-name="OE" unicode="&#x152;" horiz-adv-x="2211" 
d="M1417 238h733v-238h-1005v94q-160 -112 -395 -112q-305 0 -487.5 195t-182.5 540q0 173 48.5 312t136.5 231.5t211.5 142t273.5 49.5q233 0 395 -113v95h985v-238h-713v-356h611v-222h-611v-380zM750 219q182 0 283.5 131t101.5 367q0 237 -101.5 367t-283.5 130
q-181 0 -282 -130t-101 -367q0 -236 101.5 -367t281.5 -131z" />
    <glyph glyph-name="oe" unicode="&#x153;" horiz-adv-x="1918" 
d="M1862 502q0 -35 -2 -53h-762q28 -267 278 -267q164 0 223 105h232q-100 -301 -469 -301q-113 0 -217.5 42.5t-177.5 127.5q-74 -85 -179 -127.5t-210 -42.5q-71 0 -141.5 18.5t-139 61.5t-121 104t-85 154.5t-32.5 205.5q0 113 32.5 206.5t85 155t121 104t139 61
t141.5 18.5q105 0 210 -42.5t181 -127.5q74 84 178.5 127t216.5 43q102 0 189 -32t157.5 -97.5t111 -179t40.5 -264.5zM1098 612h514q-3 125 -68 196t-180 71q-110 0 -179.5 -67.5t-86.5 -199.5zM578 199q113 0 189.5 84t76.5 247q0 165 -76.5 248.5t-189.5 83.5
q-54 0 -101 -19.5t-84.5 -58.5t-59.5 -104.5t-22 -149.5q0 -163 77 -247t190 -84z" />
    <glyph glyph-name="Racute" unicode="&#x154;" horiz-adv-x="1343" 
d="M915 1821l-231 -262h-223l168 262h286zM1245 240q0 -95 8.5 -147.5t32.5 -92.5h-274q-24 40 -32.5 92.5t-8.5 147.5v102q0 95 -58 145t-155 50h-375v-537h-272v1434h602q262 0 392 -116.5t130 -309.5q0 -225 -207 -346q116 -49 166.5 -123t50.5 -189v-110zM711 756
q124 0 182.5 56.5t58.5 170.5q0 213 -245 213h-324v-440h328z" />
    <glyph glyph-name="racute" unicode="&#x155;" horiz-adv-x="837" 
d="M758 1452l-232 -262h-223l168 262h287zM702 1075q49 0 86 -6v-231q-37 2 -65 2q-306 0 -350 -256v-584h-262v1065h262v-238q26 111 110.5 179.5t218.5 68.5z" />
    <glyph glyph-name="Rcommaaccent" unicode="&#x156;" horiz-adv-x="1343" 
d="M1245 240q0 -95 8.5 -147.5t32.5 -92.5h-274q-24 40 -32.5 92.5t-8.5 147.5v102q0 95 -58 145t-155 50h-375v-537h-272v1434h602q262 0 392 -116.5t130 -309.5q0 -225 -207 -346q116 -49 166.5 -123t50.5 -189v-110zM711 756q124 0 182.5 56.5t58.5 170.5q0 213 -245 213
h-324v-440h328zM455 -365v304h288v-306q0 -83 -17.5 -144.5t-43.5 -95.5t-66.5 -54t-76.5 -26t-84 -7v82q112 31 112 184v63h-112z" />
    <glyph glyph-name="rcommaaccent" unicode="&#x157;" horiz-adv-x="837" 
d="M702 1075q49 0 86 -6v-231q-37 2 -65 2q-306 0 -350 -256v-584h-262v1065h262v-238q26 111 110.5 179.5t218.5 68.5zM100 -365v304h289v-306q0 -70 -11.5 -124t-33 -89t-47.5 -58t-61 -34.5t-66 -16t-70 -5.5v82q113 31 113 184v63h-113z" />
    <glyph glyph-name="Rcaron" unicode="&#x158;" horiz-adv-x="1343" 
d="M836 1520h-482l-151 282h207l186 -166l186 166h205zM1245 240q0 -95 8.5 -147.5t32.5 -92.5h-274q-24 40 -32.5 92.5t-8.5 147.5v102q0 95 -58 145t-155 50h-375v-537h-272v1434h602q262 0 392 -116.5t130 -309.5q0 -225 -207 -346q116 -49 166.5 -123t50.5 -189v-110z
M711 756q124 0 182.5 56.5t58.5 170.5q0 213 -245 213h-324v-440h328z" />
    <glyph glyph-name="rcaron" unicode="&#x159;" horiz-adv-x="837" 
d="M678 1151h-481l-152 283h207l186 -166l187 166h204zM373 827q26 111 110.5 179.5t218.5 68.5q49 0 86 -6v-231q-37 2 -65 2q-306 0 -350 -256v-584h-262v1065h262v-238z" />
    <glyph glyph-name="Sacute" unicode="&#x15a;" horiz-adv-x="1306" 
d="M500 1559h223l231 262h-286zM782 821q237 -48 342 -142t105 -271q0 -134 -75.5 -231.5t-204 -146t-294.5 -48.5q-259 0 -409.5 124.5t-165.5 348.5h282q43 -246 295 -246q132 0 209.5 57.5t77.5 143.5q0 88 -54.5 131.5t-170.5 66.5l-195 37q-95 18 -166.5 47t-129 75.5
t-87.5 116.5t-30 163q0 182 141.5 293.5t382.5 111.5q242 0 388.5 -110t166.5 -314h-283q-28 197 -272 197q-120 0 -182 -58t-62 -129q0 -141 176 -176z" />
    <glyph glyph-name="sacute" unicode="&#x15b;" horiz-adv-x="1019" 
d="M371 1190h223l231 262h-286zM713 752q-37 127 -203 127q-84 0 -132 -32t-48 -89q0 -46 32 -74t99 -43l186 -43q45 -10 70 -16t61.5 -17t56.5 -21.5t45.5 -26t39.5 -35t27 -44.5t18.5 -57.5t5.5 -71.5q0 -108 -62.5 -182t-164 -107.5t-234.5 -33.5q-199 0 -319.5 87
t-141.5 259h242q36 -152 223 -152q93 0 144 35t51 96q0 51 -30.5 76t-100.5 39l-177 39q-168 37 -242.5 112t-74.5 189q0 145 112.5 227t309.5 82q194 0 304.5 -85t139.5 -238h-237z" />
    <glyph glyph-name="Scedilla" unicode="&#x15e;" horiz-adv-x="1306" 
d="M1229 408q0 -185 -137 -295.5t-361 -128.5l-98 -103q83 0 142 -45.5t59 -128.5q0 -51 -21 -89t-55 -60t-86.5 -35.5t-105.5 -18t-122 -4.5v109q189 3 189 92q0 48 -46 60t-93 -27l-64 102l92 156q-199 29 -313.5 150t-128.5 313h282q43 -246 295 -246q132 0 209.5 57.5
t77.5 143.5q0 88 -54.5 131.5t-170.5 66.5l-195 37q-95 18 -166.5 47t-129 75.5t-87.5 116.5t-30 163q0 182 141.5 293.5t382.5 111.5q242 0 388.5 -110t166.5 -314h-283q-28 197 -272 197q-120 0 -182 -58t-62 -129q0 -141 176 -176l215 -41q237 -48 342 -142t105 -271z
" />
    <glyph glyph-name="scedilla" unicode="&#x15f;" horiz-adv-x="1019" 
d="M971 309q0 -139 -97.5 -218t-261.5 -99l-104 -111q83 0 142 -45.5t59 -128.5q0 -51 -21 -89t-55 -60t-86.5 -35.5t-105.5 -18t-122 -4.5v109q189 3 189 92q0 48 -46 60t-93 -27l-64 102l92 158q-151 22 -240.5 106.5t-107.5 231.5h242q36 -152 223 -152q93 0 144 35
t51 96q0 51 -30.5 76t-100.5 39l-177 39q-168 37 -242.5 112t-74.5 189q0 145 112.5 227t309.5 82q194 0 304.5 -85t139.5 -238h-237q-37 127 -203 127q-84 0 -132 -32t-48 -89q0 -46 32 -74t99 -43l186 -43q45 -10 70 -16t61.5 -17t56.5 -21.5t45.5 -26t39.5 -35t27 -44.5
t18.5 -57.5t5.5 -71.5z" />
    <glyph glyph-name="Scaron" unicode="&#x160;" horiz-adv-x="1306" 
d="M821 1802h205l-152 -282h-481l-151 282h207l186 -166zM782 821q237 -48 342 -142t105 -271q0 -134 -75.5 -231.5t-204 -146t-294.5 -48.5q-259 0 -409.5 124.5t-165.5 348.5h282q43 -246 295 -246q132 0 209.5 57.5t77.5 143.5q0 88 -54.5 131.5t-170.5 66.5l-195 37
q-95 18 -166.5 47t-129 75.5t-87.5 116.5t-30 163q0 182 141.5 293.5t382.5 111.5q242 0 388.5 -110t166.5 -314h-283q-28 197 -272 197q-120 0 -182 -58t-62 -129q0 -141 176 -176z" />
    <glyph glyph-name="scaron" unicode="&#x161;" horiz-adv-x="1019" 
d="M692 1434h205l-152 -283h-481l-151 283h206l187 -166zM713 752q-37 127 -203 127q-84 0 -132 -32t-48 -89q0 -46 32 -74t99 -43l186 -43q45 -10 70 -16t61.5 -17t56.5 -21.5t45.5 -26t39.5 -35t27 -44.5t18.5 -57.5t5.5 -71.5q0 -108 -62.5 -182t-164 -107.5
t-234.5 -33.5q-199 0 -319.5 87t-141.5 259h242q36 -152 223 -152q93 0 144 35t51 96q0 51 -30.5 76t-100.5 39l-177 39q-168 37 -242.5 112t-74.5 189q0 145 112.5 227t309.5 82q194 0 304.5 -85t139.5 -238h-237z" />
    <glyph glyph-name="uni0162" unicode="&#x162;" horiz-adv-x="1218" 
d="M745 0h-55l-115 -121q83 0 142 -45.5t59 -128.5q0 -51 -21 -89t-54.5 -60t-86 -35.5t-105.5 -18t-122 -4.5v109q95 2 141.5 23.5t46.5 68.5q0 48 -46 60t-93 -27l-63 102l98 166v1196h-422v238h1120v-238h-424v-1196z" />
    <glyph glyph-name="uni0163" unicode="&#x163;" horiz-adv-x="745" 
d="M686 16q-45 -17 -98 -22l-107 -113q83 0 142 -45.5t59 -128.5q0 -51 -21 -89t-54.5 -60t-86 -35.5t-105.5 -18t-122 -4.5v109q95 2 141.5 23.5t46.5 68.5q0 48 -46 60t-93 -27l-63 102l98 164q-85 22 -130.5 84.5t-45.5 183.5v590h-172v207h172v266h262v-266h213v-207
h-213v-561q0 -51 25.5 -77.5t86.5 -26.5q48 0 111 14v-191z" />
    <glyph glyph-name="Tcaron" unicode="&#x164;" horiz-adv-x="1218" 
d="M846 1520h-481l-152 282h207l186 -166l187 166h204zM1169 1434v-238h-424v-1196h-274v1196h-422v238h1120z" />
    <glyph glyph-name="tcaron" unicode="&#x165;" horiz-adv-x="741" 
d="M688 1446h287l-232 -262h-223zM463 297q0 -51 25.5 -77.5t86.5 -26.5q48 0 111 14v-191q-79 -28 -184 -28q-55 0 -97 7t-82 25.5t-65.5 49t-41 80.5t-15.5 118v590h-172v207h172v266h262v-266h213v-207h-213v-561z" />
    <glyph glyph-name="Tbar" unicode="&#x166;" horiz-adv-x="1218" 
d="M1169 1196h-424v-184h222v-154h-222v-858h-274v858h-215v154h215v184h-422v238h1120v-238z" />
    <glyph glyph-name="tbar" unicode="&#x167;" horiz-adv-x="745" 
d="M575 193q48 0 111 14v-191q-79 -28 -184 -28q-55 0 -97 7t-82 25.5t-65.5 49t-41 80.5t-15.5 118v258h-172v211h172v121h-172v207h172v266h262v-266h213v-207h-213v-121h213v-211h-213v-229q0 -51 25.5 -77.5t86.5 -26.5z" />
    <glyph glyph-name="Utilde" unicode="&#x168;" horiz-adv-x="1380" 
d="M979 1802h106q0 -110 -63 -180t-174 -70q-53 0 -106 24.5t-90 53.5t-86.5 53.5t-96.5 24.5q-38 0 -65 -20t-25 -48h-107q0 110 63 180t175 70q53 0 106 -24.5t90 -54t86.5 -54t96.5 -24.5q39 0 65 20t25 49zM1270 553q0 -269 -158 -420t-422 -151q-265 0 -422 150.5
t-157 420.5v881h272v-871q0 -169 80 -256.5t227 -87.5t226 87t79 257v871h275v-881z" />
    <glyph glyph-name="utilde" unicode="&#x169;" horiz-adv-x="1202" 
d="M391 1339q-38 0 -64.5 -19.5t-25.5 -47.5h-106q0 110 62.5 180t174.5 70q44 0 86 -16.5t76 -39.5t67.5 -46t72 -39.5t77.5 -16.5q38 0 64.5 20.5t25.5 49.5h107q0 -110 -63.5 -180t-174.5 -70q-44 0 -86 16t-76 39t-67.5 45.5t-72 38.5t-77.5 16zM831 1065h263v-1065
h-263v219q-12 -32 -39 -68.5t-69.5 -75t-107 -64t-136.5 -25.5q-84 0 -151 23t-119.5 72.5t-80.5 135.5t-28 203v645h262v-631q0 -120 57 -175.5t154 -55.5q58 0 107 23.5t79 59.5t48 72t24 68v639z" />
    <glyph glyph-name="Umacron" unicode="&#x16a;" horiz-adv-x="1380" 
d="M315 1821h711v-154h-711v154zM1270 553q0 -269 -158 -420t-422 -151q-265 0 -422 150.5t-157 420.5v881h272v-871q0 -169 80 -256.5t227 -87.5t226 87t79 257v871h275v-881z" />
    <glyph glyph-name="umacron" unicode="&#x16b;" horiz-adv-x="1202" 
d="M948 1452v-154h-710v154h710zM831 1065h263v-1065h-263v219q-12 -32 -39 -68.5t-69.5 -75t-107 -64t-136.5 -25.5q-84 0 -151 23t-119.5 72.5t-80.5 135.5t-28 203v645h262v-631q0 -120 57 -175.5t154 -55.5q58 0 107 23.5t79 59.5t48 72t24 68v639z" />
    <glyph glyph-name="Ubreve" unicode="&#x16c;" horiz-adv-x="1380" 
d="M838 1821h170q0 -139 -85 -220t-251 -81t-251 81t-85 220h172q9 -65 48.5 -96t115.5 -31t115.5 31t50.5 96zM1270 553q0 -269 -158 -420t-422 -151q-265 0 -422 150.5t-157 420.5v881h272v-871q0 -169 80 -256.5t227 -87.5t226 87t79 257v871h275v-881z" />
    <glyph glyph-name="ubreve" unicode="&#x16d;" horiz-adv-x="1202" 
d="M594 1151q-166 0 -251 81t-85 220h172q9 -65 48.5 -96t115.5 -31t115.5 31t50.5 96h170q0 -139 -85 -220t-251 -81zM831 1065h263v-1065h-263v219q-12 -32 -39 -68.5t-69.5 -75t-107 -64t-136.5 -25.5q-84 0 -151 23t-119.5 72.5t-80.5 135.5t-28 203v645h262v-631
q0 -120 57 -175.5t154 -55.5q58 0 107 23.5t79 59.5t48 72t24 68v639z" />
    <glyph glyph-name="Uring" unicode="&#x16e;" horiz-adv-x="1380" 
d="M672 1556q-82 0 -140.5 57t-58.5 140q0 82 58.5 139.5t140.5 57.5q80 0 138 -58t58 -139q0 -82 -58 -139.5t-138 -57.5zM672 1671q33 0 56.5 23t23.5 59t-23.5 58t-56.5 22q-35 0 -58.5 -22t-23.5 -58t24 -59t58 -23zM1270 553q0 -269 -158 -420t-422 -151
q-265 0 -422 150.5t-157 420.5v881h272v-871q0 -169 80 -256.5t227 -87.5t226 87t79 257v871h275v-881z" />
    <glyph glyph-name="uring" unicode="&#x16f;" horiz-adv-x="1202" 
d="M594 1188q-82 0 -140.5 56.5t-58.5 139.5q0 82 58.5 139.5t140.5 57.5q80 0 138.5 -58t58.5 -139q0 -82 -58.5 -139t-138.5 -57zM594 1464q-35 0 -58.5 -22t-23.5 -58t23.5 -58.5t58.5 -22.5q33 0 56.5 22.5t23.5 58.5t-23.5 58t-56.5 22zM831 1065h263v-1065h-263v219
q-12 -32 -39 -68.5t-69.5 -75t-107 -64t-136.5 -25.5q-84 0 -151 23t-119.5 72.5t-80.5 135.5t-28 203v645h262v-631q0 -120 57 -175.5t154 -55.5q58 0 107 23.5t79 59.5t48 72t24 68v639z" />
    <glyph glyph-name="Uhungarumlaut" unicode="&#x170;" horiz-adv-x="1380" 
d="M412 1559h223l231 262h-286zM815 1559h223l232 262h-287zM1270 553q0 -269 -158 -420t-422 -151q-265 0 -422 150.5t-157 420.5v881h272v-871q0 -169 80 -256.5t227 -87.5t226 87t79 257v871h275v-881z" />
    <glyph glyph-name="uhungarumlaut" unicode="&#x171;" horiz-adv-x="1202" 
d="M788 1452l-231 -262h-223l168 262h286zM961 1190h-224l168 262h287zM831 426v639h263v-1065h-263v219q-12 -32 -39 -68.5t-69.5 -75t-107 -64t-136.5 -25.5q-84 0 -151 23t-119.5 72.5t-80.5 135.5t-28 203v645h262v-631q0 -120 57 -175.5t154 -55.5q58 0 107 23.5
t79 59.5t48 72t24 68z" />
    <glyph glyph-name="Uogonek" unicode="&#x172;" horiz-adv-x="1380" 
d="M995 1434h275v-881q0 -222 -109.5 -365.5t-300.5 -187.5h8q-149 -42 -209.5 -102t-60.5 -123q0 -60 49 -77t129 9v-113q-41 -21 -95.5 -33.5t-112 -10.5t-106.5 18.5t-80.5 57.5t-31.5 102q0 91 77 159t183 99q-231 22 -365 170.5t-134 396.5v881h272v-871
q0 -169 80 -256.5t227 -87.5t226 87t79 257v871z" />
    <glyph glyph-name="uogonek" unicode="&#x173;" horiz-adv-x="1202" 
d="M831 1065h263v-1065h-70q-149 -42 -209.5 -102t-60.5 -123q0 -60 49 -77t129 9v-113q-41 -21 -95.5 -33.5t-112 -10.5t-106.5 18.5t-80.5 57.5t-31.5 102q0 55 31 104t80 82.5t104.5 55.5t109.5 30v219q-12 -32 -39 -68.5t-69.5 -75t-107 -64t-136.5 -25.5q-84 0 -151 23
t-119.5 72.5t-80.5 135.5t-28 203v645h262v-631q0 -120 57 -175.5t154 -55.5q58 0 107 23.5t79 59.5t48 72t24 68v639z" />
    <glyph glyph-name="Wcircumflex" unicode="&#x174;" horiz-adv-x="2088" 
d="M1231 1538l-187 166l-186 -166h-207l152 283h481l152 -283h-205zM1755 1434h287l-412 -1434h-254l-332 1018l-329 -1018h-254l-412 1434h285l270 -1020l307 1020h269l307 -1020z" />
    <glyph glyph-name="wcircumflex" unicode="&#x175;" horiz-adv-x="1660" 
d="M1016 1169l-187 166l-186 -166h-207l152 283h481l152 -283h-205zM1624 1065l-305 -1065h-227l-261 754l-260 -754h-229l-303 1065h264l186 -735l238 735h207l237 -735l189 735h264z" />
    <glyph glyph-name="Ycircumflex" unicode="&#x176;" horiz-adv-x="1413" 
d="M893 1538l-186 166l-187 -166h-207l152 283h481l152 -283h-205zM848 537v-537h-283v537l-516 897h307l351 -633l352 633h307z" />
    <glyph glyph-name="ycircumflex" unicode="&#x177;" horiz-adv-x="1157" 
d="M764 1169l-186 166l-187 -166h-207l152 283h481l152 -283h-205zM854 1065h266l-442 -1083q-94 -232 -209 -316.5t-313 -62.5v223q65 -7 114 1.5t80.5 32t50 49t35.5 62.5q12 37 10 60t-18 69l-389 965h270l266 -739z" />
    <glyph glyph-name="Ydieresis" unicode="&#x178;" horiz-adv-x="1413" 
d="M338 1821h268v-213h-268v213zM807 1821h266v-213h-266v213zM848 537v-537h-283v537l-516 897h307l351 -633l352 633h307z" />
    <glyph glyph-name="Zacute" unicode="&#x179;" horiz-adv-x="1267" 
d="M514 1559h223l232 262h-287zM1186 238v-238h-1104v211l776 985h-754v238h1074v-211l-781 -985h789z" />
    <glyph glyph-name="zacute" unicode="&#x17a;" horiz-adv-x="1036" 
d="M371 1190h223l231 262h-286zM395 221h559v-221h-872v221l561 623h-541v221h852v-221z" />
    <glyph glyph-name="Zdotaccent" unicode="&#x17b;" horiz-adv-x="1267" 
d="M518 1821h268v-213h-268v213zM1186 238v-238h-1104v211l776 985h-754v238h1074v-211l-781 -985h789z" />
    <glyph glyph-name="zdotaccent" unicode="&#x17c;" horiz-adv-x="1036" 
d="M375 1452h268v-213h-268v213zM395 221h559v-221h-872v221l561 623h-541v221h852v-221z" />
    <glyph glyph-name="Zcaron" unicode="&#x17d;" horiz-adv-x="1267" 
d="M836 1802h204l-151 -282h-481l-152 282h207l186 -166zM1186 238v-238h-1104v211l776 985h-754v238h1074v-211l-781 -985h789z" />
    <glyph glyph-name="zcaron" unicode="&#x17e;" horiz-adv-x="1036" 
d="M692 1434h205l-152 -283h-481l-151 283h206l187 -166zM395 221h559v-221h-872v221l561 623h-541v221h852v-221z" />
    <glyph glyph-name="florin" unicode="&#x192;" horiz-adv-x="626" 
d="M586 1204q-76 0 -109 -49.5t-33 -148.5v-138h142v-225h-142v-666q0 -195 -93.5 -280.5t-309.5 -85.5v225q81 0 111 50t30 149v608h-145v225h145v195q0 91 20 156.5t66 114t125 72.5t193 24v-226z" />
    <glyph glyph-name="uni01CD" unicode="&#x1cd;" horiz-adv-x="1458" 
d="M967 1520h-482l-151 282h207l186 -166l186 166h205zM1114 0l-104 295h-561l-105 -295h-295l557 1434h246l559 -1434h-297zM520 498h418l-209 594z" />
    <glyph glyph-name="uni01CE" unicode="&#x1ce;" 
d="M805 1151h-481l-152 283h207l186 -166l187 166h204zM1018 250q0 -87 76 -90v-152q-35 -16 -97 -16q-97 0 -156 41.5t-59 122.5v26q-9 -17 -20.5 -33.5t-43 -48.5t-69 -55t-99.5 -41t-134 -18q-98 0 -176.5 32.5t-129.5 107.5t-51 185q0 65 21 115.5t53.5 82t87 56t104 37
t121.5 25.5q19 3 70 11t75.5 12.5t61 12t61 16t42.5 19.5v4q0 55 -15.5 92t-44.5 55.5t-60.5 26t-72.5 7.5q-174 0 -196 -131h-246q13 159 126 241t318 82q241 0 347 -101.5t106 -332.5v-391zM756 336v205q-25 -12 -60 -23t-58.5 -16t-77 -15.5t-75.5 -15.5
q-90 -20 -126.5 -55t-36.5 -97q0 -63 41.5 -104t121.5 -41q172 0 271 162z" />
    <glyph glyph-name="uni01CF" unicode="&#x1cf;" horiz-adv-x="493" 
d="M430 1802h205l-152 -282h-481l-152 282h207l187 -166zM383 0h-272v1434h272v-1434z" />
    <glyph glyph-name="uni01D0" unicode="&#x1d0;" horiz-adv-x="481" 
d="M426 1434h205l-152 -283h-481l-152 283h207l187 -166zM111 1065h262v-1065h-262v1065z" />
    <glyph glyph-name="uni01D1" unicode="&#x1d1;" horiz-adv-x="1501" 
d="M934 1802h205l-152 -282h-481l-152 282h207l187 -166zM750 1452q307 0 489 -194t182 -541q0 -173 -48 -311.5t-136 -231.5t-212 -142.5t-275 -49.5q-305 0 -487.5 195t-182.5 540q0 173 48.5 312t136.5 231.5t211.5 142t273.5 49.5zM750 219q182 0 283.5 131t101.5 367
q0 237 -101.5 367t-283.5 130q-181 0 -282 -130t-101 -367q0 -236 101.5 -367t281.5 -131z" />
    <glyph glyph-name="uni01D2" unicode="&#x1d2;" horiz-adv-x="1155" 
d="M762 1434h205l-152 -283h-481l-152 283h207l186 -166zM578 1075q71 0 141.5 -18.5t139.5 -61t121.5 -104t85 -155t32.5 -206.5q0 -112 -32.5 -205.5t-85 -154.5t-121.5 -104t-139.5 -61.5t-141.5 -18.5t-141.5 18.5t-139 61.5t-121 104t-85 154.5t-32.5 205.5
q0 113 32.5 206.5t85 155t121 104t139 61t141.5 18.5zM844 530q0 165 -76.5 248.5t-189.5 83.5q-54 0 -101 -19.5t-84.5 -58.5t-59.5 -104.5t-22 -149.5q0 -163 77 -247t190 -84t189.5 84t76.5 247z" />
    <glyph glyph-name="uni01D3" unicode="&#x1d3;" horiz-adv-x="1380" 
d="M856 1802h205l-152 -282h-481l-152 282h207l187 -166zM1270 553q0 -269 -158 -420t-422 -151q-265 0 -422 150.5t-157 420.5v881h272v-871q0 -169 80 -256.5t227 -87.5t226 87t79 257v871h275v-881z" />
    <glyph glyph-name="uni01D4" unicode="&#x1d4;" horiz-adv-x="1202" 
d="M831 1151h-481l-151 283h207l186 -166l186 166h205zM831 1065h263v-1065h-263v219q-12 -32 -39 -68.5t-69.5 -75t-107 -64t-136.5 -25.5q-84 0 -151 23t-119.5 72.5t-80.5 135.5t-28 203v645h262v-631q0 -120 57 -175.5t154 -55.5q58 0 107 23.5t79 59.5t48 72t24 68v639
z" />
    <glyph glyph-name="uni01EA" unicode="&#x1ea;" horiz-adv-x="1501" 
d="M879 -8q-133 -42 -187.5 -99.5t-54.5 -117.5t49.5 -77t128.5 9v-113q-41 -21 -95.5 -33.5t-112 -10.5t-106.5 18.5t-80.5 57.5t-31.5 102q0 91 78.5 160t185.5 100q-264 30 -418.5 221.5t-154.5 507.5q0 173 48.5 312t136.5 231.5t211.5 142t273.5 49.5q307 0 489 -194
t182 -541q0 -307 -145 -496.5t-397 -228.5zM367 717q0 -236 101.5 -367t281.5 -131q182 0 283.5 131t101.5 367q0 237 -101.5 367t-283.5 130q-181 0 -282 -130t-101 -367z" />
    <glyph glyph-name="uni01EB" unicode="&#x1eb;" horiz-adv-x="1155" 
d="M1098 530q0 -116 -34 -211t-92 -158t-127 -102.5t-147 -58.5h11q-149 -42 -210 -102t-61 -123q0 -60 49 -77t129 9v-113q-41 -21 -95.5 -33.5t-112 -10.5t-106.5 18.5t-80.5 57.5t-31.5 102q0 67 46.5 124.5t111 92t135.5 49.5q-81 15 -153.5 53t-134.5 101t-99 162
t-37 220q0 113 32.5 206.5t85 155t121 104t139 61t141.5 18.5t141.5 -18.5t139.5 -61t121.5 -104t85 -155t32.5 -206.5zM578 199q113 0 189.5 84t76.5 247q0 165 -76.5 248.5t-189.5 83.5q-54 0 -101 -19.5t-84.5 -58.5t-59.5 -104.5t-22 -149.5q0 -163 77 -247t190 -84z
" />
    <glyph glyph-name="Scommaaccent" unicode="&#x218;" horiz-adv-x="1306" 
d="M782 821q237 -48 342 -142t105 -271q0 -134 -75.5 -231.5t-204 -146t-294.5 -48.5q-259 0 -409.5 124.5t-165.5 348.5h282q43 -246 295 -246q132 0 209.5 57.5t77.5 143.5q0 88 -54.5 131.5t-170.5 66.5l-195 37q-95 18 -166.5 47t-129 75.5t-87.5 116.5t-30 163
q0 182 141.5 293.5t382.5 111.5q242 0 388.5 -110t166.5 -314h-283q-28 197 -272 197q-120 0 -182 -58t-62 -129q0 -141 176 -176zM492 -694v82q112 31 112 184v63h-112v304h288v-306q0 -83 -17.5 -144.5t-43.5 -95.5t-66.5 -54t-76.5 -26t-84 -7z" />
    <glyph glyph-name="scommaaccent" unicode="&#x219;" horiz-adv-x="1019" 
d="M713 752q-37 127 -203 127q-84 0 -132 -32t-48 -89q0 -46 32 -74t99 -43l186 -43q45 -10 70 -16t61.5 -17t56.5 -21.5t45.5 -26t39.5 -35t27 -44.5t18.5 -57.5t5.5 -71.5q0 -108 -62.5 -182t-164 -107.5t-234.5 -33.5q-199 0 -319.5 87t-141.5 259h242q36 -152 223 -152
q93 0 144 35t51 96q0 51 -30.5 76t-100.5 39l-177 39q-168 37 -242.5 112t-74.5 189q0 145 112.5 227t309.5 82q194 0 304.5 -85t139.5 -238h-237zM367 -715v82q112 31 112 184v64h-112v303h288v-305q0 -83 -17.5 -144.5t-43.5 -95.5t-66.5 -54.5t-76.5 -26.5t-84 -7z" />
    <glyph glyph-name="uni021A" unicode="&#x21a;" horiz-adv-x="1218" 
d="M1169 1434v-238h-424v-1196h-274v1196h-422v238h1120zM434 -367v304h289v-306q0 -70 -11.5 -124t-33 -89t-47.5 -58t-61 -34.5t-66 -16t-70 -5.5v82q113 31 113 184v63h-113z" />
    <glyph glyph-name="uni021B" unicode="&#x21b;" horiz-adv-x="745" 
d="M575 193q48 0 111 14v-191q-79 -28 -184 -28q-55 0 -97 7t-82 25.5t-65.5 49t-41 80.5t-15.5 118v590h-172v207h172v266h262v-266h213v-207h-213v-561q0 -51 25.5 -77.5t86.5 -26.5zM340 -365v304h289v-306q0 -70 -11.5 -124t-33 -89t-47.5 -58t-61 -34.5t-66 -16
t-70 -5.5v82q113 31 113 184v63h-113z" />
    <glyph glyph-name="uni0237" unicode="&#x237;" horiz-adv-x="503" 
d="M-131 -199q82 -26 145 -26q65 0 92 39.5t27 95.5v1155h262v-1196q0 -161 -83.5 -240.5t-229.5 -79.5q-128 0 -213 39v213z" />
    <glyph glyph-name="circumflex" unicode="&#x2c6;" horiz-adv-x="784" 
d="M580 1169l-187 166l-186 -166h-207l152 283h481l151 -283h-204z" />
    <glyph glyph-name="caron" unicode="&#x2c7;" horiz-adv-x="784" 
d="M580 1434h204l-151 -283h-481l-152 283h207l186 -166z" />
    <glyph glyph-name="breve" unicode="&#x2d8;" horiz-adv-x="671" 
d="M502 1452h170q0 -139 -85 -220t-251 -81t-251 81t-85 220h172q9 -65 48.5 -96t115.5 -31t115.5 31t50.5 96z" />
    <glyph glyph-name="dotaccent" unicode="&#x2d9;" horiz-adv-x="268" 
d="M0 1452h268v-213h-268v213z" />
    <glyph glyph-name="ring" unicode="&#x2da;" horiz-adv-x="395" 
d="M199 1188q-82 0 -140.5 56.5t-58.5 139.5q0 82 58.5 139.5t140.5 57.5q80 0 138 -58t58 -139q0 -82 -58 -139t-138 -57zM199 1303q33 0 56.5 22.5t23.5 58.5t-23.5 58t-56.5 22q-35 0 -58.5 -22t-23.5 -58t23.5 -58.5t58.5 -22.5z" />
    <glyph glyph-name="ogonek" unicode="&#x2db;" horiz-adv-x="518" 
d="M426 -406q-41 -21 -95.5 -33.5t-112 -10.5t-106.5 18.5t-80.5 57.5t-31.5 102q0 72 54 133.5t125.5 94.5t146.5 44h192q-149 -42 -209.5 -102t-60.5 -123q0 -60 49 -77t129 9v-113z" />
    <glyph glyph-name="tilde" unicode="&#x2dc;" horiz-adv-x="813" 
d="M707 1434h106q0 -110 -63.5 -180t-174.5 -70q-44 0 -86 16t-76 39t-67 45.5t-71.5 38.5t-77.5 16q-38 0 -65 -19.5t-26 -47.5h-106q0 110 63 180t175 70q44 0 86 -16.5t76 -39.5t67 -46t71.5 -39.5t77.5 -16.5t65.5 20.5t25.5 49.5z" />
    <glyph glyph-name="hungarumlaut" unicode="&#x2dd;" horiz-adv-x="868" 
d="M0 1190h223l232 262h-287zM403 1190h224l231 262h-287z" />
    <glyph glyph-name="uni0326" unicode="&#x326;" horiz-adv-x="0" 
d="M-289 -694v82q113 31 113 184v63h-113v304h289v-306q0 -70 -11.5 -124t-33 -89t-47.5 -58t-61 -34.5t-66 -16t-70 -5.5z" />
    <glyph glyph-name="uni0394" unicode="&#x394;" horiz-adv-x="1474" 
d="M1386 0h-1296l617 1434h61zM1057 225l-318 785l-319 -785h637z" />
    <glyph glyph-name="uni03A9" unicode="&#x3a9;" horiz-adv-x="1579" 
d="M1501 729q0 -273 -196 -479h145v-250h-469v307l70 53q83 67 132.5 163.5t49.5 205.5q0 140 -63 246.5t-162 159.5t-217 53t-218 -53t-162.5 -159.5t-62.5 -246.5q0 -109 49 -205.5t131 -163.5l70 -53v-307h-467v250h145q-196 202 -196 479q0 153 61.5 289.5t162 229
t228 146.5t259.5 54q131 0 258.5 -54t227.5 -146.5t162 -229t62 -289.5z" />
    <glyph glyph-name="uni03BC" unicode="&#x3bc;" horiz-adv-x="1202" 
d="M831 1065h263v-1065h-263v219q-12 -32 -39 -68.5t-69.5 -75t-107 -64t-136.5 -25.5q-61 0 -117 12v-387h-262v1454h262v-631q0 -120 57 -175.5t154 -55.5q58 0 107 23.5t79 59.5t48 72t24 68v639z" />
    <glyph glyph-name="pi" unicode="&#x3c0;" horiz-adv-x="1449" 
d="M1233 213q67 0 139 37v-225q-31 -16 -101 -26.5t-118 -10.5q-45 0 -89 10.5t-86 33t-67.5 64.5t-25.5 97v647h-328v-840h-262v840h-205v225h1260v-225h-203v-514q0 -68 20 -90.5t66 -22.5z" />
    <glyph glyph-name="uni0401" unicode="&#x401;" horiz-adv-x="1177" 
d="M508 1821v-213h-268v213h268zM975 1821v-213h-266v213h266zM383 238h733v-238h-1005v1434h985v-238h-713v-356h610v-222h-610v-380z" />
    <glyph glyph-name="uni0403" unicode="&#x403;" horiz-adv-x="1060" 
d="M389 1559h223l232 262h-287zM1014 1434v-238h-631v-1196h-272v1434h903z" />
    <glyph glyph-name="uni0404" unicode="&#x404;" horiz-adv-x="1378" 
d="M1044 434h273q-14 -110 -66 -197t-131 -142t-178 -84t-211 -29q-144 0 -263.5 48t-205.5 139.5t-134 231.5t-48 316t48 316t134 231.5t205.5 139.5t263.5 48q149 0 272 -49t207 -152t103 -247h-273q-41 108 -111 159t-192 51q-151 0 -245 -97t-117 -277h420v-222h-424
q20 -191 115 -295t251 -104q124 0 195 52t112 163z" />
    <glyph glyph-name="uni0407" unicode="&#x407;" horiz-adv-x="493" 
d="M-123 1821h268v-213h-268v213zM346 1821h266v-213h-266v213zM383 0h-272v1434h272v-1434z" />
    <glyph glyph-name="uni040C" unicode="&#x40c;" horiz-adv-x="1406" 
d="M1022 1821l-231 -262h-224l168 262h287zM750 784l616 -784h-303l-477 594v4l-203 -236v-362h-272v1434h272v-703l614 703h314z" />
    <glyph glyph-name="uni040E" unicode="&#x40e;" horiz-adv-x="1218" 
d="M776 1821h170q0 -139 -85 -220t-251 -81t-251 81t-85 220h172q9 -65 48.5 -96t115.5 -31t115.5 31t50.5 96zM870 1434h301l-462 -1084q-67 -157 -136 -241.5t-161 -118.5t-226 -19v244q65 -7 111.5 -0.5t74.5 26.5t43 41t29 54q35 79 -16 201l-379 897h301l256 -686z" />
    <glyph glyph-name="uni0410" unicode="&#x410;" horiz-adv-x="1458" 
d="M1114 0l-104 295h-561l-105 -295h-295l557 1434h246l559 -1434h-297zM520 498h418l-209 594z" />
    <glyph glyph-name="uni0411" unicode="&#x411;" horiz-adv-x="1298" 
d="M668 944q271 0 406.5 -125t135.5 -346q0 -223 -135.5 -348t-406.5 -125h-557v1434h903v-238h-631v-252h285zM668 233q123 0 186.5 61.5t63.5 178.5q0 114 -63.5 175t-186.5 61h-285v-476h285z" />
    <glyph glyph-name="uni0412" unicode="&#x412;" horiz-adv-x="1337" 
d="M965 786q130 -36 206 -136t76 -228q0 -202 -134.5 -312t-405.5 -110h-596v1434h577q228 0 346.5 -99.5t118.5 -267.5q0 -97 -52 -171.5t-136 -109.5zM383 1206v-342h305q85 0 131.5 51t46.5 129q0 77 -48.5 119.5t-127.5 42.5h-307zM698 227q132 0 193 56.5t61 148.5
q0 95 -58.5 158t-188.5 63h-322v-426h315z" />
    <glyph glyph-name="uni0413" unicode="&#x413;" horiz-adv-x="1060" 
d="M1014 1434v-238h-631v-1196h-272v1434h903z" />
    <glyph glyph-name="uni0414" unicode="&#x414;" horiz-adv-x="1667" 
d="M1372 225h234v-366h-263v141h-1032v-141h-262v366h158q57 58 94 142.5t61.5 254t24.5 418.5v394h985v-1209zM498 225h600v971h-439v-156q0 -363 -41 -544.5t-120 -270.5z" />
    <glyph glyph-name="uni0415" unicode="&#x415;" horiz-adv-x="1177" 
d="M383 238h733v-238h-1005v1434h985v-238h-713v-356h610v-222h-610v-380z" />
    <glyph glyph-name="uni0416" unicode="&#x416;" horiz-adv-x="2033" 
d="M1993 0h-314l-524 606v-606h-274v610l-527 -610h-313l618 725l-604 709h314l512 -594v594h274v-590l510 590h313l-604 -709z" />
    <glyph glyph-name="uni0417" unicode="&#x417;" horiz-adv-x="1230" 
d="M840 764q37 -5 76.5 -18.5t82 -41.5t75 -66t54 -96t21.5 -126q0 -198 -144 -319.5t-397 -121.5q-249 0 -392.5 138t-143.5 362h245q6 -136 89 -205t202 -69q52 0 99.5 13t88.5 38.5t66 71t25 104.5q0 101 -80.5 167.5t-241.5 66.5h-65v176h65q63 0 111 13.5t76 34.5
t45.5 49.5t23.5 54.5t6 54q0 86 -65 134.5t-160 48.5q-48 0 -88.5 -13t-75.5 -40.5t-55 -77t-21 -117.5h-245q0 224 129 348.5t354 124.5q215 0 348 -110t133 -269q0 -65 -21 -119.5t-56.5 -91.5t-77 -61.5t-86.5 -36.5z" />
    <glyph glyph-name="uni0418" unicode="&#x418;" horiz-adv-x="1404" 
d="M109 1434h274v-998h8l623 998h280v-1434h-272v981h-8l-613 -981h-292v1434z" />
    <glyph glyph-name="uni0419" unicode="&#x419;" horiz-adv-x="1404" 
d="M866 1821h170q0 -139 -85 -220t-251 -81q-165 0 -250 80.5t-85 220.5h172q9 -65 48 -96t115 -31t115.5 31t50.5 96zM109 1434h274v-998h8l623 998h280v-1434h-272v981h-8l-613 -981h-292v1434z" />
    <glyph glyph-name="uni041A" unicode="&#x41a;" horiz-adv-x="1406" 
d="M750 784l616 -784h-303l-477 594v4l-203 -236v-362h-272v1434h272v-703l614 703h314z" />
    <glyph glyph-name="uni041B" unicode="&#x41b;" horiz-adv-x="1396" 
d="M1288 1434v-1434h-274v1196h-486v-745q0 -253 -135.5 -369.5t-361.5 -95.5v237q51 -1 87.5 8t69 33.5t49.5 74t17 124.5v971h1034z" />
    <glyph glyph-name="uni041C" unicode="&#x41c;" horiz-adv-x="1726" 
d="M111 1434h315l438 -1074l439 1074h315v-1434h-275v965h-10l-366 -965h-205l-369 965h-10v-965h-272v1434z" />
    <glyph glyph-name="uni041D" unicode="&#x41d;" horiz-adv-x="1372" 
d="M987 1434h275v-1434h-275v600h-604v-600h-272v1434h272v-611h604v611z" />
    <glyph glyph-name="uni041E" unicode="&#x41e;" horiz-adv-x="1501" 
d="M750 1452q307 0 489 -194t182 -541q0 -173 -48 -311.5t-136 -231.5t-212 -142.5t-275 -49.5q-305 0 -487.5 195t-182.5 540q0 173 48.5 312t136.5 231.5t211.5 142t273.5 49.5zM750 219q182 0 283.5 131t101.5 367q0 237 -101.5 367t-283.5 130q-181 0 -282 -130
t-101 -367q0 -236 101.5 -367t281.5 -131z" />
    <glyph glyph-name="uni041F" unicode="&#x41f;" horiz-adv-x="1372" 
d="M1262 1434v-1434h-275v1196h-604v-1196h-272v1434h1151z" />
    <glyph glyph-name="uni0420" unicode="&#x420;" horiz-adv-x="1267" 
d="M668 1434q270 0 406 -131t136 -357q0 -227 -136 -357t-406 -130h-285v-459h-272v1434h557zM668 696q123 0 186.5 65t63.5 185q0 119 -63.5 184.5t-186.5 65.5h-285v-500h285z" />
    <glyph glyph-name="uni0421" unicode="&#x421;" horiz-adv-x="1378" 
d="M737 219q124 0 195 52t112 163h273q-14 -110 -66 -197t-131 -142t-178 -84t-211 -29q-144 0 -263.5 48t-205.5 139.5t-134 231.5t-48 316t48 316t134 231.5t205.5 139.5t263.5 48q149 0 272 -49t207 -152t103 -247h-273q-41 108 -111 159t-192 51q-175 0 -272.5 -130.5
t-97.5 -366.5q0 -235 97.5 -366.5t272.5 -131.5z" />
    <glyph glyph-name="uni0422" unicode="&#x422;" horiz-adv-x="1218" 
d="M1169 1434v-238h-424v-1196h-274v1196h-422v238h1120z" />
    <glyph glyph-name="uni0423" unicode="&#x423;" horiz-adv-x="1218" 
d="M870 1434h301l-462 -1084q-67 -157 -136 -241.5t-161 -118.5t-226 -19v244q65 -7 111.5 -0.5t74.5 26.5t43 41t29 54q35 79 -16 201l-379 897h301l256 -686z" />
    <glyph glyph-name="uni0424" unicode="&#x424;" horiz-adv-x="1497" 
d="M1419 717q0 -245 -142 -399.5t-390 -188.5v-160h-275v158q-247 34 -389.5 189t-142.5 401q0 247 142 401.5t390 188.5v157h275v-159q249 -34 390.5 -188t141.5 -400zM342 717q0 -146 69.5 -243.5t200.5 -129.5v748q-132 -34 -201 -130.5t-69 -244.5zM887 344
q132 33 201 130t69 243q0 149 -68.5 245t-201.5 128v-746z" />
    <glyph glyph-name="uni0425" unicode="&#x425;" horiz-adv-x="1368" 
d="M1331 0h-307l-340 508l-338 -508h-307l491 739l-462 695h307l309 -465l309 465h307l-462 -695z" />
    <glyph glyph-name="uni0426" unicode="&#x426;" horiz-adv-x="1437" 
d="M1262 238h129v-527h-263v289h-1017v1434h272v-1196h604v1196h275v-1196z" />
    <glyph glyph-name="uni0427" unicode="&#x427;" horiz-adv-x="1329" 
d="M946 1434h275v-1434h-275v571q-10 -25 -32 -55t-62 -66t-89 -65t-119 -48.5t-146 -19.5q-193 0 -305.5 114t-112.5 357v646h272v-633q0 -122 66.5 -181t187.5 -59q74 0 138.5 25t105.5 62.5t65.5 76t30.5 70.5v639z" />
    <glyph glyph-name="uni0428" unicode="&#x428;" horiz-adv-x="1689" 
d="M1305 1434h274v-1434h-1468v1434h272v-1196h324v1196h274v-1196h324v1196z" />
    <glyph glyph-name="uni0429" unicode="&#x429;" horiz-adv-x="1753" 
d="M1579 238h125v-527h-260v289h-1333v1434h272v-1196h324v1196h274v-1196h324v1196h274v-1196z" />
    <glyph glyph-name="uni042A" unicode="&#x42a;" horiz-adv-x="1415" 
d="M784 944q271 0 407 -125t136 -346q0 -223 -136 -348t-407 -125h-557v1196h-178v238h451v-490h284zM784 233q123 0 186.5 61.5t63.5 178.5q0 114 -63.5 175t-186.5 61h-284v-476h284z" />
    <glyph glyph-name="uni042B" unicode="&#x42b;" horiz-adv-x="1742" 
d="M668 944q271 0 406.5 -125t135.5 -346q0 -223 -135.5 -348t-406.5 -125h-557v1434h272v-490h285zM1360 1434h272v-1434h-272v1434zM668 233q123 0 186.5 61.5t63.5 178.5q0 114 -63.5 175t-186.5 61h-285v-476h285z" />
    <glyph glyph-name="uni042C" unicode="&#x42c;" horiz-adv-x="1298" 
d="M668 944q271 0 406.5 -125t135.5 -346q0 -223 -135.5 -348t-406.5 -125h-557v1434h272v-490h285zM668 233q123 0 186.5 61.5t63.5 178.5q0 114 -63.5 175t-186.5 61h-285v-476h285z" />
    <glyph glyph-name="uni042D" unicode="&#x42d;" horiz-adv-x="1394" 
d="M664 1452q144 0 263.5 -48t205.5 -139.5t134 -231.5t48 -316t-48 -316t-134 -231.5t-205.5 -139.5t-263.5 -48q-112 0 -211 29t-178 84t-131 142t-66 197h272q41 -111 112 -163t195 -52q156 0 251.5 104t115.5 295h-422v222h418q-23 180 -117.5 277t-245.5 97
q-122 0 -192 -51t-111 -159h-272q19 144 103 247t207 152t272 49z" />
    <glyph glyph-name="uni042E" unicode="&#x42e;" horiz-adv-x="1996" 
d="M1245 1452q307 0 489.5 -194t182.5 -541q0 -173 -48.5 -311.5t-136.5 -231.5t-212 -142.5t-275 -49.5q-278 0 -455.5 162.5t-207.5 455.5h-199v-600h-272v1434h272v-611h197q29 299 206.5 464t458.5 165zM1245 219q182 0 283.5 131t101.5 367q0 237 -101.5 367
t-283.5 130q-181 0 -282 -130t-101 -367q0 -236 101.5 -367t281.5 -131z" />
    <glyph glyph-name="uni042F" unicode="&#x42f;" horiz-adv-x="1343" 
d="M1233 1434v-1434h-272v537h-375q-97 0 -155 -50t-58 -145v-102q0 -95 -8.5 -147.5t-32.5 -92.5h-275q24 40 32.5 92.5t8.5 147.5v110q0 115 50.5 189t166.5 123q-206 120 -206 346q0 193 130 309.5t392 116.5h602zM961 756v440h-324q-246 0 -246 -213q0 -114 59 -170.5
t183 -56.5h328z" />
    <glyph glyph-name="uni0430" unicode="&#x430;" 
d="M1018 250q0 -87 76 -90v-152q-35 -16 -97 -16q-97 0 -156 41.5t-59 122.5v26q-9 -17 -20.5 -33.5t-43 -48.5t-69 -55t-99.5 -41t-134 -18q-98 0 -176.5 32.5t-129.5 107.5t-51 185q0 65 21 115.5t53.5 82t87 56t104 37t121.5 25.5q19 3 70 11t75.5 12.5t61 12t61 16
t42.5 19.5v4q0 55 -15.5 92t-44.5 55.5t-60.5 26t-72.5 7.5q-174 0 -196 -131h-246q13 159 126 241t318 82q241 0 347 -101.5t106 -332.5v-391zM756 336v205q-25 -12 -60 -23t-58.5 -16t-77 -15.5t-75.5 -15.5q-90 -20 -126.5 -55t-36.5 -97q0 -63 41.5 -104t121.5 -41
q172 0 271 162z" />
    <glyph glyph-name="uni0431" unicode="&#x431;" horiz-adv-x="1175" 
d="M655 1067q61 0 122.5 -18t123.5 -59.5t109.5 -101.5t77.5 -153.5t30 -206.5q0 -117 -32.5 -212t-85 -156t-122 -102t-139 -58.5t-141.5 -17.5t-141 19t-138.5 66.5t-121.5 118t-84.5 184t-32.5 255.5v278q-3 531 473 531h90q109 0 158 45h233q-40 -138 -119 -194
t-239 -56h-123q-104 0 -163.5 -66t-59.5 -166v-88q23 65 113.5 111.5t211.5 46.5zM598 195q114 0 191 83.5t77 249.5q0 168 -77 253t-191 85t-190 -85.5t-76 -254.5q0 -166 76 -248.5t190 -82.5z" />
    <glyph glyph-name="uni0432" unicode="&#x432;" horiz-adv-x="1189" 
d="M903 592q107 -32 167 -106t60 -175q0 -87 -35 -149t-101.5 -96.5t-149.5 -50t-191 -15.5h-542v1065h542q182 0 288 -67.5t106 -194.5q0 -162 -144 -211zM373 854v-211h278q46 0 78 11t47.5 28.5t22 34t6.5 33.5q0 43 -33.5 73.5t-118.5 30.5h-280zM662 213q206 0 206 131
q0 26 -7.5 47t-28 42.5t-64.5 33.5t-109 12h-286v-266h289z" />
    <glyph glyph-name="uni0433" unicode="&#x433;" horiz-adv-x="897" 
d="M848 1065v-207h-475v-858h-262v1065h737z" />
    <glyph glyph-name="uni0434" unicode="&#x434;" horiz-adv-x="1327" 
d="M1186 207h94v-322h-238v115h-755v-115h-238v322h90q63 67 80 194t17 379v285h950v-858zM391 207h533v651h-426v-78q0 -243 -20 -374t-87 -199z" />
    <glyph glyph-name="uni0435" unicode="&#x435;" 
d="M1075 502q0 -35 -2 -53h-762q28 -267 279 -267q164 0 223 105h231q-100 -301 -469 -301q-77 0 -149 19t-139.5 61t-117.5 103.5t-80 154t-30 204.5q0 113 30 206t80.5 155t118 105t140.5 62t150 19q81 0 152.5 -19.5t135.5 -63t110 -108.5t72.5 -163t26.5 -219zM311 612
h514q-3 125 -67.5 196t-179.5 71q-111 0 -180.5 -68t-86.5 -199z" />
    <glyph glyph-name="uni0436" unicode="&#x436;" horiz-adv-x="1748" 
d="M1733 0h-324l-397 416v-416h-262v414l-396 -414h-323l520 530l-508 535h324l383 -414v414h262v-416l385 416h323l-508 -535z" />
    <glyph glyph-name="uni0437" unicode="&#x437;" horiz-adv-x="1105" 
d="M786 563q26 -5 53 -13t64.5 -27.5t66 -45.5t48.5 -69.5t20 -96.5q0 -104 -69 -180t-181 -112.5t-253 -36.5q-231 0 -353.5 106t-122.5 307h236q0 -100 64.5 -161.5t175.5 -61.5q114 0 178.5 42t64.5 116q0 68 -71 112t-209 45v136q66 1 114 13.5t72 33.5t34.5 43.5
t10.5 48.5q0 57 -55 92t-135 35q-90 0 -147.5 -47.5t-57.5 -128.5h-238q0 169 118.5 267.5t317.5 98.5t322 -79t123 -209q0 -56 -19 -99t-51 -68.5t-60.5 -39t-60.5 -21.5z" />
    <glyph glyph-name="uni0438" unicode="&#x438;" horiz-adv-x="1236" 
d="M111 1065h262v-700h6l479 700h268v-1065h-262v684h-6l-469 -684h-278v1065z" />
    <glyph glyph-name="uni0439" unicode="&#x439;" horiz-adv-x="1236" 
d="M786 1452h170q0 -140 -85 -220.5t-250 -80.5q-166 0 -251 81t-85 220h172q9 -65 48.5 -96t115.5 -31t115 31t50 96zM111 1065h262v-700h6l479 700h268v-1065h-262v684h-6l-469 -684h-278v1065z" />
    <glyph glyph-name="uni043A" unicode="&#x43a;" horiz-adv-x="1167" 
d="M862 0l-375 444l-114 -118v-326h-262v1065h262v-436l418 436h296l-436 -451l498 -614h-287z" />
    <glyph glyph-name="uni043B" unicode="&#x43b;" horiz-adv-x="1261" 
d="M1151 1065v-1065h-250l-8 858h-377v-416q0 -253 -129 -362t-356 -88v207q50 -1 87.5 9.5t69.5 37.5t49 80t17 131v608h897z" />
    <glyph glyph-name="uni043C" unicode="&#x43c;" horiz-adv-x="1499" 
d="M111 1065h303l336 -762l335 762h306v-1065h-263v645h-10l-270 -645h-197l-270 645h-8v-645h-262v1065z" />
    <glyph glyph-name="uni043D" unicode="&#x43d;" horiz-adv-x="1150" 
d="M780 1065h262v-1065h-262v451h-407v-451h-262v1065h262v-408h407v408z" />
    <glyph glyph-name="uni043E" unicode="&#x43e;" horiz-adv-x="1155" 
d="M578 1075q71 0 141.5 -18.5t139.5 -61t121.5 -104t85 -155t32.5 -206.5q0 -112 -32.5 -205.5t-85 -154.5t-121.5 -104t-139.5 -61.5t-141.5 -18.5t-141.5 18.5t-139 61.5t-121 104t-85 154.5t-32.5 205.5q0 113 32.5 206.5t85 155t121 104t139 61t141.5 18.5zM844 530
q0 165 -76.5 248.5t-189.5 83.5q-54 0 -101 -19.5t-84.5 -58.5t-59.5 -104.5t-22 -149.5q0 -163 77 -247t190 -84t189.5 84t76.5 247z" />
    <glyph glyph-name="uni043F" unicode="&#x43f;" horiz-adv-x="1144" 
d="M1036 1065v-1065h-262v858h-401v-858h-262v1065h925z" />
    <glyph glyph-name="uni0440" unicode="&#x440;" horiz-adv-x="1210" 
d="M682 1075q61 0 124.5 -19t126 -61.5t110.5 -103.5t78 -154.5t30 -204.5q0 -113 -30 -207t-79 -155.5t-112 -104t-127 -61t-127 -18.5q-70 0 -129 19.5t-94 48.5t-55 56t-25 48v-547h-262v1454h262v-152q36 66 118.5 114t190.5 48zM623 199q117 0 195.5 83.5t78.5 249.5
q0 164 -78.5 247t-195.5 83q-114 0 -188.5 -84t-74.5 -246t74.5 -247.5t188.5 -85.5z" />
    <glyph glyph-name="uni0441" unicode="&#x441;" horiz-adv-x="1101" 
d="M578 199q95 0 147.5 42.5t77.5 123.5h237q-16 -87 -52 -154.5t-81 -109t-103 -68.5t-113.5 -37t-115.5 -10q-76 0 -147.5 18t-139.5 59.5t-118 103t-80.5 155t-30.5 208.5q0 114 30 207t80.5 155t117.5 104t138.5 60.5t147.5 18.5q78 0 146 -17t132.5 -56.5t111.5 -114.5
t67 -180h-239q-22 75 -72.5 115t-143.5 40q-120 0 -192 -86.5t-72 -245.5q0 -161 73 -246t194 -85z" />
    <glyph glyph-name="uni0442" unicode="&#x442;" horiz-adv-x="1054" 
d="M993 1065v-207h-334v-858h-262v858h-336v207h932z" />
    <glyph glyph-name="uni0443" unicode="&#x443;" horiz-adv-x="1157" 
d="M854 1065h266l-442 -1083q-94 -232 -209 -316.5t-313 -62.5v223q65 -7 114 1.5t80.5 32t50 49t35.5 62.5q12 37 10 60t-18 69l-389 965h270l266 -739z" />
    <glyph glyph-name="uni0444" unicode="&#x444;" horiz-adv-x="1243" 
d="M1186 528q0 -121 -36.5 -218t-100 -160.5t-140 -102.5t-164.5 -55v-371h-245v373q-70 13 -132.5 39t-119.5 70.5t-98.5 103.5t-66 141.5t-24.5 179.5q0 121 36.5 218.5t100 161.5t140 103.5t164.5 55.5v381h245v-381q70 -13 132.5 -40t119.5 -73t98.5 -105t66 -141.5
t24.5 -179.5zM274 528q0 -275 226 -335v675q-108 -29 -167 -113.5t-59 -226.5zM745 193q226 60 226 335q0 277 -226 340v-675z" />
    <glyph glyph-name="uni0445" unicode="&#x445;" horiz-adv-x="1157" 
d="M1110 0h-287l-243 362l-246 -362h-285l383 553l-354 512h287l215 -320l213 320h286l-354 -512z" />
    <glyph glyph-name="uni0446" unicode="&#x446;" horiz-adv-x="1193" 
d="M1036 207h121v-494h-250v287h-796v1065h262v-858h401v858h262v-858z" />
    <glyph glyph-name="uni0447" unicode="&#x447;" horiz-adv-x="1161" 
d="M791 1065h262v-1065h-262v504q-12 -32 -39.5 -68.5t-70.5 -74.5t-107.5 -62.5t-137.5 -24.5q-173 0 -275 100t-102 314v377h263v-363q0 -105 56 -156.5t154 -51.5q59 0 108 22.5t79 57.5t48 70.5t24 68.5v352z" />
    <glyph glyph-name="uni0448" unicode="&#x448;" horiz-adv-x="1611" 
d="M1239 1065h262v-1065h-1390v1065h262v-858h309v858h248v-858h309v858z" />
    <glyph glyph-name="uni0449" unicode="&#x449;" horiz-adv-x="1660" 
d="M1501 207h123v-494h-250v287h-1263v1065h262v-858h309v858h248v-858h309v858h262v-858z" />
    <glyph glyph-name="uni044A" unicode="&#x44a;" horiz-adv-x="1273" 
d="M778 700q203 0 321 -95t118 -255q0 -164 -117.5 -257t-321.5 -93h-545v858h-184v207h447v-365h282zM776 207q185 0 185 143q0 146 -185 146h-280v-289h280z" />
    <glyph glyph-name="uni044B" unicode="&#x44b;" horiz-adv-x="1597" 
d="M655 700q203 0 321 -95t118 -255q0 -164 -117.5 -257t-321.5 -93h-544v1065h262v-365h282zM1227 1065h262v-1065h-262v1065zM653 207q185 0 185 143q0 146 -185 146h-280v-289h280z" />
    <glyph glyph-name="uni044C" unicode="&#x44c;" horiz-adv-x="1150" 
d="M655 700q203 0 321 -95t118 -255q0 -164 -117.5 -257t-321.5 -93h-544v1065h262v-365h282zM653 207q185 0 185 143q0 146 -185 146h-280v-289h280z" />
    <glyph glyph-name="uni044D" unicode="&#x44d;" horiz-adv-x="1097" 
d="M524 1075q76 0 147.5 -18.5t138.5 -60.5t117.5 -104t80.5 -155t30 -207q0 -115 -30.5 -208.5t-80.5 -155t-118 -103t-139.5 -59.5t-147.5 -18q-60 0 -115.5 10t-113.5 37t-103 68.5t-81 109t-52 154.5h238q25 -81 77.5 -123.5t147.5 -42.5q106 0 175.5 66.5t86.5 193.5
h-311v162h309q-20 117 -88.5 179t-169.5 62q-93 0 -143 -39.5t-72 -115.5h-239q20 105 67 180t111.5 114.5t132 56.5t145.5 17z" />
    <glyph glyph-name="uni044E" unicode="&#x44e;" horiz-adv-x="1599" 
d="M1022 1075q71 0 141.5 -18.5t139.5 -61t121.5 -104t85 -155t32.5 -206.5q0 -112 -32.5 -205.5t-85 -154.5t-121.5 -104t-139.5 -61.5t-141.5 -18.5q-81 0 -161.5 26t-153.5 77t-126 139t-69 200h-139v-430h-262v1065h262v-428h139q14 91 51.5 166t88.5 124.5t114.5 84
t127.5 50t128 15.5zM1022 199q113 0 189.5 84t76.5 247q0 165 -76.5 248.5t-189.5 83.5t-189.5 -83.5t-76.5 -248.5q0 -163 76.5 -247t189.5 -84z" />
    <glyph glyph-name="uni044F" unicode="&#x44f;" horiz-adv-x="1175" 
d="M1065 1065v-1065h-262v365h-318q-67 0 -99 -27.5t-32 -89.5v-88q0 -68 -6 -98t-24 -62h-263q18 33 24.5 63t6.5 97v88q0 73 27.5 122t97.5 76q-135 94 -135 269q0 164 117 257t321 93h545zM803 569v289h-281q-184 0 -184 -143q0 -146 184 -146h281z" />
    <glyph glyph-name="uni0451" unicode="&#x451;" 
d="M473 1452v-213h-268v213h268zM940 1452v-213h-266v213h266zM1075 502q0 -35 -2 -53h-762q28 -267 279 -267q164 0 223 105h231q-100 -301 -469 -301q-77 0 -149 19t-139.5 61t-117.5 103.5t-80 154t-30 204.5q0 113 30 206t80.5 155t118 105t140.5 62t150 19
q81 0 152.5 -19.5t135.5 -63t110 -108.5t72.5 -163t26.5 -219zM311 612h514q-3 125 -67.5 196t-179.5 71q-111 0 -180.5 -68t-86.5 -199z" />
    <glyph glyph-name="uni0453" unicode="&#x453;" horiz-adv-x="897" 
d="M311 1190h224l231 262h-287zM848 1065v-207h-475v-858h-262v1065h737z" />
    <glyph glyph-name="uni0454" unicode="&#x454;" horiz-adv-x="1101" 
d="M803 365h237q-16 -87 -52 -154.5t-81 -109t-103 -68.5t-113.5 -37t-115.5 -10q-76 0 -147.5 18t-139.5 59.5t-118 103t-80.5 155t-30.5 208.5q0 114 30 207t80.5 155t117.5 104t138.5 60.5t147.5 18.5q78 0 146 -17t132.5 -56.5t111.5 -114.5t67 -180h-239
q-22 75 -72.5 115t-143.5 40q-101 0 -169.5 -62t-88.5 -179h310v-162h-312q17 -127 87 -193.5t176 -66.5q95 0 147.5 42.5t77.5 123.5z" />
    <glyph glyph-name="uni0457" unicode="&#x457;" horiz-adv-x="481" 
d="M-127 1452h268v-213h-268v213zM342 1452h266v-213h-266v213zM111 1065h262v-1065h-262v1065z" />
    <glyph glyph-name="uni045C" unicode="&#x45c;" horiz-adv-x="1167" 
d="M901 1452l-231 -262h-224l168 262h287zM862 0l-375 444l-114 -118v-326h-262v1065h262v-436l418 436h296l-436 -451l498 -614h-287z" />
    <glyph glyph-name="uni045E" unicode="&#x45e;" horiz-adv-x="1157" 
d="M745 1452h170q0 -140 -85 -220.5t-250 -80.5q-166 0 -251 81t-85 220h172q9 -65 48.5 -96t115.5 -31t115 31t50 96zM854 1065h266l-442 -1083q-94 -232 -209 -316.5t-313 -62.5v223q65 -7 114 1.5t80.5 32t50 49t35.5 62.5q12 37 10 60t-18 69l-389 965h270l266 -739z
" />
    <glyph glyph-name="uni0490" unicode="&#x490;" horiz-adv-x="1060" 
d="M739 1638h275v-442h-631v-1196h-272v1434h628v204z" />
    <glyph glyph-name="uni0491" unicode="&#x491;" horiz-adv-x="897" 
d="M623 1200h225v-342h-475v-858h-262v1065h512v135z" />
    <glyph glyph-name="Wgrave" unicode="&#x1e80;" horiz-adv-x="2088" 
d="M1176 1559l-168 262h-287l231 -262h224zM1755 1434h287l-412 -1434h-254l-332 1018l-329 -1018h-254l-412 1434h285l270 -1020l307 1020h269l307 -1020z" />
    <glyph glyph-name="wgrave" unicode="&#x1e81;" horiz-adv-x="1660" 
d="M961 1190l-168 262h-287l231 -262h224zM1624 1065l-305 -1065h-227l-261 754l-260 -754h-229l-303 1065h264l186 -735l238 735h207l237 -735l189 735h264z" />
    <glyph glyph-name="Wacute" unicode="&#x1e82;" horiz-adv-x="2088" 
d="M907 1559h223l232 262h-287zM1755 1434h287l-412 -1434h-254l-332 1018l-329 -1018h-254l-412 1434h285l270 -1020l307 1020h269l307 -1020z" />
    <glyph glyph-name="wacute" unicode="&#x1e83;" horiz-adv-x="1660" 
d="M692 1190h223l232 262h-287zM1624 1065l-305 -1065h-227l-261 754l-260 -754h-229l-303 1065h264l186 -735l238 735h207l237 -735l189 735h264z" />
    <glyph glyph-name="Wdieresis" unicode="&#x1e84;" horiz-adv-x="2088" 
d="M676 1821h268v-213h-268v213zM1145 1821h266v-213h-266v213zM1755 1434h287l-412 -1434h-254l-332 1018l-329 -1018h-254l-412 1434h285l270 -1020l307 1020h269l307 -1020z" />
    <glyph glyph-name="wdieresis" unicode="&#x1e85;" horiz-adv-x="1660" 
d="M461 1452h268v-213h-268v213zM930 1452h266v-213h-266v213zM1624 1065l-305 -1065h-227l-261 754l-260 -754h-229l-303 1065h264l186 -735l238 735h207l237 -735l189 735h264z" />
    <glyph glyph-name="uni1E9E" unicode="&#x1e9e;" horiz-adv-x="1464" 
d="M938 899q93 -14 172 -49.5t141.5 -92.5t98.5 -143t36 -192q0 -202 -125 -322t-348 -120q-446 0 -446 440h264q0 -36 10 -70t30 -65t57 -49.5t85 -18.5q92 0 139.5 60.5t47.5 140.5q0 127 -145 201t-380 65l293 533h-321q-90 0 -127 -43t-37 -136v-1038h-272v1065
q0 204 99.5 296.5t309.5 92.5h752z" />
    <glyph glyph-name="Ygrave" unicode="&#x1ef2;" horiz-adv-x="1413" 
d="M838 1559l-168 262h-287l231 -262h224zM848 537v-537h-283v537l-516 897h307l351 -633l352 633h307z" />
    <glyph glyph-name="ygrave" unicode="&#x1ef3;" horiz-adv-x="1157" 
d="M709 1190l-168 262h-287l231 -262h224zM854 1065h266l-442 -1083q-94 -232 -209 -316.5t-313 -62.5v223q65 -7 114 1.5t80.5 32t50 49t35.5 62.5q12 37 10 60t-18 69l-389 965h270l266 -739z" />
    <glyph glyph-name="endash" unicode="&#x2013;" horiz-adv-x="1228" 
d="M92 666h1045v-197h-1045v197z" />
    <glyph glyph-name="emdash" unicode="&#x2014;" horiz-adv-x="1351" 
d="M92 666h1168v-197h-1168v197z" />
    <glyph glyph-name="quoteleft" unicode="&#x2018;" horiz-adv-x="452" 
d="M371 1434v-82q-113 -31 -113 -185v-63h113v-303h-289v305q0 83 17.5 144.5t43.5 95.5t66.5 54.5t77 26.5t84.5 7z" />
    <glyph glyph-name="quoteright" unicode="&#x2019;" horiz-adv-x="452" 
d="M82 801v82q113 31 113 184v63h-113v304h289v-306q0 -70 -11.5 -124t-33 -89t-47.5 -58t-61 -34.5t-66 -16t-70 -5.5z" />
    <glyph glyph-name="quotesinglbase" unicode="&#x201a;" horiz-adv-x="452" 
d="M82 -330v82q113 31 113 185v63h-113v303h289v-305q0 -83 -17.5 -144.5t-43.5 -95.5t-66.5 -54.5t-77 -26.5t-84.5 -7z" />
    <glyph glyph-name="quotedblleft" unicode="&#x201c;" horiz-adv-x="909" 
d="M371 1436v-82q-113 -31 -113 -185v-63h113v-303h-289v305q0 83 17.5 144.5t43.5 95.5t66.5 54.5t77 26.5t84.5 7zM827 1436v-82q-112 -31 -112 -185v-63h112v-303h-288v305q0 83 17.5 144.5t43.5 95.5t66.5 54.5t76.5 26.5t84 7z" />
    <glyph glyph-name="quotedblright" unicode="&#x201d;" horiz-adv-x="909" 
d="M82 801v82q113 31 113 184v63h-113v304h289v-306q0 -70 -11.5 -124t-33 -89t-47.5 -58t-61 -34.5t-66 -16t-70 -5.5zM539 801v82q112 31 112 184v63h-112v304h288v-306q0 -83 -17.5 -144.5t-43.5 -95.5t-66.5 -54t-76.5 -26t-84 -7z" />
    <glyph glyph-name="quotedblbase" unicode="&#x201e;" horiz-adv-x="909" 
d="M82 -330v82q113 31 113 185v63h-113v303h289v-305q0 -83 -17.5 -144.5t-43.5 -95.5t-66.5 -54.5t-77 -26.5t-84.5 -7zM539 -330v82q112 31 112 185v63h-112v303h288v-305q0 -83 -17.5 -144.5t-43.5 -95.5t-66.5 -54.5t-76.5 -26.5t-84 -7z" />
    <glyph glyph-name="dagger" unicode="&#x2020;" horiz-adv-x="825" 
d="M723 1147v-199h-205v-510h-209v510h-207v199h207v287h209v-287h205z" />
    <glyph glyph-name="daggerdbl" unicode="&#x2021;" horiz-adv-x="825" 
d="M723 952h-205v-471h205v-198h-205v-283h-209v283h-207v198h207v471h-207v199h207v283h209v-283h205v-199z" />
    <glyph glyph-name="bullet" unicode="&#x2022;" horiz-adv-x="561" 
d="M281 362q-73 0 -126 53t-53 126q0 72 53 124t126 52t125.5 -52t52.5 -124q0 -74 -52.5 -126.5t-125.5 -52.5z" />
    <glyph glyph-name="ellipsis" unicode="&#x2026;" horiz-adv-x="1505" 
d="M102 303h289v-303h-289v303zM608 303h289v-303h-289v303zM1114 303h289v-303h-289v303z" />
    <glyph glyph-name="perthousand" unicode="&#x2030;" horiz-adv-x="2158" 
d="M377 778q-127 0 -206 86t-79 246q0 162 78.5 248t206.5 86q126 0 204 -86t78 -248q0 -160 -78 -246t-204 -86zM236 0l843 1438l191 -4l-840 -1434h-194zM377 946q47 0 73.5 36.5t26.5 127.5q0 92 -26.5 129t-73.5 37q-49 0 -76 -37t-27 -129q0 -91 27 -127.5t76 -36.5z
M1784 -4q-127 0 -206 85.5t-79 246.5q0 162 78.5 248t206.5 86q126 0 204 -86t78 -248t-77.5 -247t-204.5 -85zM1133 -10q-127 0 -205 86t-78 248q0 161 78 246t205 85t205.5 -85t78.5 -246q0 -162 -78.5 -248t-205.5 -86zM1784 164q47 0 73.5 36.5t26.5 127.5q0 92 -26 128
t-74 36q-49 0 -76 -36t-27 -128q0 -91 27 -127.5t76 -36.5zM1133 160q48 0 75 36.5t27 127.5q0 163 -102 163q-103 0 -103 -163q0 -91 27.5 -127.5t75.5 -36.5z" />
    <glyph glyph-name="guilsinglleft" unicode="&#x2039;" horiz-adv-x="503" 
d="M422 758l-178 -146l178 -147v-238l-340 277v215l340 276v-237z" />
    <glyph glyph-name="guilsinglright" unicode="&#x203a;" horiz-adv-x="497" 
d="M86 758v237l340 -276v-215l-340 -277v238l178 147z" />
    <glyph glyph-name="fraction" unicode="&#x2044;" horiz-adv-x="317" 
d="M-221 0h-133l893 1434h133z" />
    <glyph glyph-name="Euro" unicode="&#x20ac;" horiz-adv-x="1470" 
d="M1137 434h272q-14 -110 -66 -197t-131 -142t-178 -84t-211 -29q-239 0 -404.5 128t-221.5 369h-125v160h102q-2 25 -2 78v28h-100v160h116q45 264 214 405.5t421 141.5q149 0 272 -49t207 -152t103 -247h-272q-41 108 -111.5 159t-192.5 51q-136 0 -226 -79.5
t-124 -229.5h297v-160h-317v-28q0 -53 2 -78h315v-160h-284q42 -126 128 -193t209 -67q124 0 195.5 52t112.5 163z" />
    <glyph glyph-name="trademark" unicode="&#x2122;" horiz-adv-x="1048" 
d="M438 1343h-125v-278h-106v278h-125v91h356v-91zM967 1434v-369h-107v199l-78 -199h-92l-78 199v-199h-106v369h106l125 -281l123 281h107z" />
    <glyph glyph-name="partialdiff" unicode="&#x2202;" horiz-adv-x="1220" 
d="M551 940q140 0 231.5 -53t110.5 -109q1 47 -2.5 91t-13 101.5t-30.5 105t-52.5 89t-82.5 65t-116 23.5q-86 0 -155 -49t-87 -141h-229q3 55 20.5 107.5t55 104.5t90 90.5t132 62.5t175.5 24q116 0 208 -37.5t154 -103.5t103 -161t59.5 -206t18.5 -242
q0 -152 -27.5 -273.5t-75.5 -204t-116 -138t-146.5 -80t-169.5 -24.5q-73 0 -143.5 15.5t-139 53t-119.5 92.5t-82.5 141t-31.5 193q0 100 31 181.5t79.5 132.5t111 86t122.5 49t117 14zM600 195q45 0 88.5 16t83.5 49.5t65 94.5t25 141q0 67 -23.5 119t-62 82t-82.5 45.5
t-90 15.5q-36 0 -71 -9.5t-69.5 -30.5t-60 -52.5t-41.5 -79.5t-16 -107q0 -143 75.5 -213.5t178.5 -70.5z" />
    <glyph glyph-name="product" unicode="&#x220f;" horiz-adv-x="1486" 
d="M92 1638h1303v-2027h-252v1790h-799v-1790h-252v2027z" />
    <glyph glyph-name="summation" unicode="&#x2211;" horiz-adv-x="1406" 
d="M1315 1401h-803l428 -776l-428 -777h803v-237h-1223l563 1014l-563 1013h1223v-237z" />
    <glyph glyph-name="minus" unicode="&#x2212;" horiz-adv-x="870" 
d="M80 618h663v-196h-663v196z" />
    <glyph glyph-name="radical" unicode="&#x221a;" horiz-adv-x="1634" 
d="M1542 1638l-538 -2027h-304l-362 895h-246v280h422l324 -835l446 1687h258z" />
    <glyph glyph-name="infinity" unicode="&#x221e;" horiz-adv-x="1689" 
d="M1233 887q162 0 269.5 -96.5t107.5 -253.5q0 -161 -107.5 -259t-269.5 -98q-191 0 -389 205q-198 -205 -387 -205q-162 0 -269.5 98t-107.5 259q0 157 107.5 253.5t269.5 96.5q188 0 387 -203q199 203 389 203zM471 379q121 0 242 158q-121 155 -242 155
q-76 0 -119 -45.5t-43 -109.5q0 -65 43 -111.5t119 -46.5zM1217 379q76 0 118.5 46t42.5 112q0 64 -42.5 109.5t-118.5 45.5q-122 0 -240 -155q118 -158 240 -158z" />
    <glyph glyph-name="integral" unicode="&#x222b;" horiz-adv-x="626" 
d="M182 1063q0 91 20 156.5t66 114t125 72.5t193 24v-226q-76 0 -109 -49.5t-33 -148.5v-1029q0 -195 -93.5 -280.5t-309.5 -85.5v225q81 0 111 50t30 149v1028z" />
    <glyph glyph-name="approxequal" unicode="&#x2248;" horiz-adv-x="1034" 
d="M831 809h111q0 -116 -65.5 -189t-182.5 -73q-46 0 -90 17t-79.5 41t-70 48t-75.5 41t-82 17q-39 0 -67 -21.5t-27 -50.5h-111q0 114 66 188t182 74q46 0 90 -17t79.5 -41t70 -48t75.5 -41t82 -17q40 0 67.5 21t26.5 51zM831 481h111q0 -116 -65.5 -189t-182.5 -73
q-46 0 -90 17t-79.5 41t-70 48t-75.5 41t-82 17q-39 0 -67 -21.5t-27 -50.5h-111q0 114 66 188t182 74q56 0 111 -25.5t93.5 -56t90.5 -56t102 -25.5q40 0 67.5 20.5t26.5 50.5z" />
    <glyph glyph-name="notequal" unicode="&#x2260;" horiz-adv-x="870" 
d="M743 1149l-125 -320h123v-196h-198l-51 -131h249v-197h-325l-119 -305h-170l119 305h-168v197h244l51 131h-295v196h371l124 320h170z" />
    <glyph glyph-name="lessequal" unicode="&#x2264;" horiz-adv-x="907" 
d="M805 545l-506 225l506 225v222l-703 -345v-204l703 -346v223zM102 199h703v-199h-703v199z" />
    <glyph glyph-name="greaterequal" unicode="&#x2265;" horiz-adv-x="909" 
d="M104 545v-223l703 346v204l-703 345v-222l506 -225zM807 199v-199h-703v199h703z" />
    <glyph glyph-name="lozenge" unicode="&#x25ca;" horiz-adv-x="1185" 
d="M776 1434l318 -717l-318 -717h-366l-318 717l318 717h366zM594 186l233 531l-233 530l-236 -530z" />
    <glyph glyph-name="G.ss01" horiz-adv-x="1425" 
d="M817 750h531v-750h-254v174q-65 -100 -154 -146t-219 -46q-141 0 -258.5 48.5t-202.5 139.5t-132.5 231t-47.5 316t48 316t134 231.5t205.5 139.5t263.5 48q220 0 378.5 -110.5t197.5 -311.5h-275q-41 92 -111 138t-184 46q-174 0 -272 -131t-98 -366q0 -234 99 -365.5
t282 -132.5q162 -1 253 80.5t91 228.5h-275v222z" />
    <glyph glyph-name="R.ss01" horiz-adv-x="1282" 
d="M1223 0h-281l-260 459h-14h-285v-459h-272v1434h557q270 0 406 -131t136 -357q0 -162 -69 -276t-207 -168zM383 1196v-500h285q123 0 186.5 65t63.5 185q0 119 -63.5 184.5t-186.5 65.5h-285z" />
    <glyph glyph-name="G.ss05" horiz-adv-x="1425" 
d="M817 750h531v-750h-254v174q-65 -100 -154 -146t-219 -46q-141 0 -258.5 48.5t-202.5 139.5t-132.5 231t-47.5 316t48 316t134 231.5t205.5 139.5t263.5 48q220 0 378.5 -110.5t197.5 -311.5h-275q-41 92 -111 138t-184 46q-174 0 -272 -131t-98 -366q0 -234 99 -365.5
t282 -132.5q162 -1 253 80.5t91 228.5h-275v222z" />
    <glyph glyph-name="i.loclTRK" horiz-adv-x="481" 
d="M109 1452h268v-213h-268v213zM111 1065h262v-1065h-262v1065z" />
    <glyph glyph-name="a.ss01" horiz-adv-x="1191" 
d="M522 1075q213 0 297 -157v147h262v-1065h-262v152q-6 -25 -25 -51.5t-52.5 -53.5t-91 -44t-128.5 -17q-61 0 -123 18t-124 60.5t-109.5 103.5t-77 155.5t-29.5 208.5q0 113 29.5 206.5t76.5 154.5t109 103t124 60.5t124 18.5zM575 199q114 0 185 83t71 250
q0 165 -71 247.5t-185 82.5q-115 0 -184 -80t-69 -250q0 -171 69 -252t184 -81z" />
    <glyph glyph-name="aacute.ss01" horiz-adv-x="1191" 
d="M467 1190h223l232 262h-287zM522 1075q213 0 297 -157v147h262v-1065h-262v152q-6 -25 -25 -51.5t-52.5 -53.5t-91 -44t-128.5 -17q-61 0 -123 18t-124 60.5t-109.5 103.5t-77 155.5t-29.5 208.5q0 113 29.5 206.5t76.5 154.5t109 103t124 60.5t124 18.5zM575 199
q114 0 185 83t71 250q0 165 -71 247.5t-185 82.5q-115 0 -184 -80t-69 -250q0 -171 69 -252t184 -81z" />
    <glyph glyph-name="abreve.ss01" horiz-adv-x="1191" 
d="M770 1452h170q0 -139 -85 -220t-251 -81t-251 81t-85 220h172q9 -65 48.5 -96t115.5 -31t115.5 31t50.5 96zM522 1075q213 0 297 -157v147h262v-1065h-262v152q-6 -25 -25 -51.5t-52.5 -53.5t-91 -44t-128.5 -17q-61 0 -123 18t-124 60.5t-109.5 103.5t-77 155.5
t-29.5 208.5q0 113 29.5 206.5t76.5 154.5t109 103t124 60.5t124 18.5zM575 199q114 0 185 83t71 250q0 165 -71 247.5t-185 82.5q-115 0 -184 -80t-69 -250q0 -171 69 -252t184 -81z" />
    <glyph glyph-name="uni01CE.ss01" horiz-adv-x="1191" 
d="M788 1434h205l-151 -283h-482l-151 283h207l186 -166zM522 1075q213 0 297 -157v147h262v-1065h-262v152q-6 -25 -25 -51.5t-52.5 -53.5t-91 -44t-128.5 -17q-61 0 -123 18t-124 60.5t-109.5 103.5t-77 155.5t-29.5 208.5q0 113 29.5 206.5t76.5 154.5t109 103t124 60.5
t124 18.5zM575 199q114 0 185 83t71 250q0 165 -71 247.5t-185 82.5q-115 0 -184 -80t-69 -250q0 -171 69 -252t184 -81z" />
    <glyph glyph-name="acircumflex.ss01" horiz-adv-x="1191" 
d="M791 1169l-187 166l-186 -166h-207l151 283h482l151 -283h-204zM522 1075q213 0 297 -157v147h262v-1065h-262v152q-6 -25 -25 -51.5t-52.5 -53.5t-91 -44t-128.5 -17q-61 0 -123 18t-124 60.5t-109.5 103.5t-77 155.5t-29.5 208.5q0 113 29.5 206.5t76.5 154.5t109 103
t124 60.5t124 18.5zM575 199q114 0 185 83t71 250q0 165 -71 247.5t-185 82.5q-115 0 -184 -80t-69 -250q0 -171 69 -252t184 -81z" />
    <glyph glyph-name="adieresis.ss01" horiz-adv-x="1191" 
d="M236 1452h268v-213h-268v213zM705 1452h266v-213h-266v213zM522 1075q213 0 297 -157v147h262v-1065h-262v152q-6 -25 -25 -51.5t-52.5 -53.5t-91 -44t-128.5 -17q-61 0 -123 18t-124 60.5t-109.5 103.5t-77 155.5t-29.5 208.5q0 113 29.5 206.5t76.5 154.5t109 103
t124 60.5t124 18.5zM575 199q114 0 185 83t71 250q0 165 -71 247.5t-185 82.5q-115 0 -184 -80t-69 -250q0 -171 69 -252t184 -81z" />
    <glyph glyph-name="agrave.ss01" horiz-adv-x="1191" 
d="M735 1190l-168 262h-286l231 -262h223zM522 1075q213 0 297 -157v147h262v-1065h-262v152q-6 -25 -25 -51.5t-52.5 -53.5t-91 -44t-128.5 -17q-61 0 -123 18t-124 60.5t-109.5 103.5t-77 155.5t-29.5 208.5q0 113 29.5 206.5t76.5 154.5t109 103t124 60.5t124 18.5z
M575 199q114 0 185 83t71 250q0 165 -71 247.5t-185 82.5q-115 0 -184 -80t-69 -250q0 -171 69 -252t184 -81z" />
    <glyph glyph-name="amacron.ss01" horiz-adv-x="1191" 
d="M250 1452h711v-154h-711v154zM522 1075q213 0 297 -157v147h262v-1065h-262v152q-6 -25 -25 -51.5t-52.5 -53.5t-91 -44t-128.5 -17q-61 0 -123 18t-124 60.5t-109.5 103.5t-77 155.5t-29.5 208.5q0 113 29.5 206.5t76.5 154.5t109 103t124 60.5t124 18.5zM575 199
q114 0 185 83t71 250q0 165 -71 247.5t-185 82.5q-115 0 -184 -80t-69 -250q0 -171 69 -252t184 -81z" />
    <glyph glyph-name="aogonek.ss01" horiz-adv-x="1191" 
d="M819 1065h262v-1065h-69q-149 -42 -210 -102t-61 -123q0 -60 49.5 -77t129.5 9v-113q-41 -21 -95.5 -33.5t-112 -10.5t-106.5 18.5t-80.5 57.5t-31.5 102q0 55 31 104t80 82.5t104.5 55.5t109.5 30v152q-6 -25 -25 -51.5t-52.5 -53.5t-91 -44t-128.5 -17q-61 0 -123 18
t-124 60.5t-109.5 103.5t-77 155.5t-29.5 208.5q0 113 29.5 206.5t76.5 154.5t109 103t124 60.5t124 18.5q213 0 297 -157v147zM575 199q114 0 185 83t71 250q0 165 -71 247.5t-185 82.5q-115 0 -184 -80t-69 -250q0 -171 69 -252t184 -81z" />
    <glyph glyph-name="aring.ss01" horiz-adv-x="1191" 
d="M604 1188q-82 0 -140 56.5t-58 139.5q0 82 58 139.5t140 57.5q80 0 138.5 -58t58.5 -139q0 -82 -58.5 -139t-138.5 -57zM604 1303q33 0 56.5 22.5t23.5 58.5t-23.5 58t-56.5 22q-35 0 -58.5 -22t-23.5 -58t23.5 -58.5t58.5 -22.5zM522 1075q213 0 297 -157v147h262v-1065
h-262v152q-6 -25 -25 -51.5t-52.5 -53.5t-91 -44t-128.5 -17q-61 0 -123 18t-124 60.5t-109.5 103.5t-77 155.5t-29.5 208.5q0 113 29.5 206.5t76.5 154.5t109 103t124 60.5t124 18.5zM575 199q114 0 185 83t71 250q0 165 -71 247.5t-185 82.5q-115 0 -184 -80t-69 -250
q0 -171 69 -252t184 -81z" />
    <glyph glyph-name="atilde.ss01" horiz-adv-x="1191" 
d="M911 1434h107q0 -110 -63.5 -180t-174.5 -70q-44 0 -86 16t-76 39t-67.5 45.5t-72 38.5t-77.5 16q-38 0 -64.5 -19.5t-25.5 -47.5h-106q0 110 62.5 180t174.5 70q44 0 86 -16.5t76 -39.5t67.5 -46t72 -39.5t77.5 -16.5q38 0 64.5 20.5t25.5 49.5zM522 1075
q213 0 297 -157v147h262v-1065h-262v152q-6 -25 -25 -51.5t-52.5 -53.5t-91 -44t-128.5 -17q-61 0 -123 18t-124 60.5t-109.5 103.5t-77 155.5t-29.5 208.5q0 113 29.5 206.5t76.5 154.5t109 103t124 60.5t124 18.5zM575 199q114 0 185 83t71 250q0 165 -71 247.5t-185 82.5
q-115 0 -184 -80t-69 -250q0 -171 69 -252t184 -81z" />
    <glyph glyph-name="g.ss01" horiz-adv-x="1142" 
d="M553 274q77 0 146.5 -10.5t136.5 -37t116 -66.5t79 -103.5t30 -144.5q0 -79 -29.5 -142t-78.5 -103.5t-115.5 -67.5t-136.5 -38.5t-146 -11.5q-72 0 -140 11.5t-133.5 38.5t-114 67.5t-78.5 103.5t-30 142q0 190 213 274q-80 10 -140 53.5t-60 112.5q0 55 37.5 93.5
t99.5 52.5q-74 90 -74 221q0 165 113.5 261.5t294.5 96.5q179 0 291 -92q66 82 192 80v-191q-50 0 -96 -22q22 -64 22 -133q0 -166 -113 -261.5t-296 -95.5q-122 0 -219 46q-45 -7 -45 -54q0 -46 46.5 -63t141.5 -17h86zM543 891q-97 0 -141 -49.5t-44 -122.5
q0 -74 43.5 -123t141.5 -49q99 0 142.5 49t43.5 123q0 73 -43.5 122.5t-142.5 49.5zM559 -262q127 0 186.5 47t59.5 127q0 174 -246 174t-246 -174q0 -80 59.5 -127t186.5 -47z" />
    <glyph glyph-name="l.ss01" horiz-adv-x="530" 
d="M475 -2q-94 -10 -162.5 -4t-113.5 35t-66.5 89t-21.5 158v1172h262v-1184q0 -38 23 -56.5t79 -17.5v-192z" />
    <glyph glyph-name="a.ss02" horiz-adv-x="1191" 
d="M522 1075q213 0 297 -157v147h262v-1065h-262v152q-6 -25 -25 -51.5t-52.5 -53.5t-91 -44t-128.5 -17q-61 0 -123 18t-124 60.5t-109.5 103.5t-77 155.5t-29.5 208.5q0 113 29.5 206.5t76.5 154.5t109 103t124 60.5t124 18.5zM575 199q114 0 185 83t71 250
q0 165 -71 247.5t-185 82.5q-115 0 -184 -80t-69 -250q0 -171 69 -252t184 -81z" />
    <glyph glyph-name="aacute.ss02" horiz-adv-x="1191" 
d="M467 1190h223l232 262h-287zM522 1075q213 0 297 -157v147h262v-1065h-262v152q-6 -25 -25 -51.5t-52.5 -53.5t-91 -44t-128.5 -17q-61 0 -123 18t-124 60.5t-109.5 103.5t-77 155.5t-29.5 208.5q0 113 29.5 206.5t76.5 154.5t109 103t124 60.5t124 18.5zM575 199
q114 0 185 83t71 250q0 165 -71 247.5t-185 82.5q-115 0 -184 -80t-69 -250q0 -171 69 -252t184 -81z" />
    <glyph glyph-name="abreve.ss02" horiz-adv-x="1191" 
d="M770 1452h170q0 -139 -85 -220t-251 -81t-251 81t-85 220h172q9 -65 48.5 -96t115.5 -31t115.5 31t50.5 96zM522 1075q213 0 297 -157v147h262v-1065h-262v152q-6 -25 -25 -51.5t-52.5 -53.5t-91 -44t-128.5 -17q-61 0 -123 18t-124 60.5t-109.5 103.5t-77 155.5
t-29.5 208.5q0 113 29.5 206.5t76.5 154.5t109 103t124 60.5t124 18.5zM575 199q114 0 185 83t71 250q0 165 -71 247.5t-185 82.5q-115 0 -184 -80t-69 -250q0 -171 69 -252t184 -81z" />
    <glyph glyph-name="uni01CE.ss02" horiz-adv-x="1191" 
d="M788 1434h205l-151 -283h-482l-151 283h207l186 -166zM522 1075q213 0 297 -157v147h262v-1065h-262v152q-6 -25 -25 -51.5t-52.5 -53.5t-91 -44t-128.5 -17q-61 0 -123 18t-124 60.5t-109.5 103.5t-77 155.5t-29.5 208.5q0 113 29.5 206.5t76.5 154.5t109 103t124 60.5
t124 18.5zM575 199q114 0 185 83t71 250q0 165 -71 247.5t-185 82.5q-115 0 -184 -80t-69 -250q0 -171 69 -252t184 -81z" />
    <glyph glyph-name="acircumflex.ss02" horiz-adv-x="1191" 
d="M791 1169l-187 166l-186 -166h-207l151 283h482l151 -283h-204zM522 1075q213 0 297 -157v147h262v-1065h-262v152q-6 -25 -25 -51.5t-52.5 -53.5t-91 -44t-128.5 -17q-61 0 -123 18t-124 60.5t-109.5 103.5t-77 155.5t-29.5 208.5q0 113 29.5 206.5t76.5 154.5t109 103
t124 60.5t124 18.5zM575 199q114 0 185 83t71 250q0 165 -71 247.5t-185 82.5q-115 0 -184 -80t-69 -250q0 -171 69 -252t184 -81z" />
    <glyph glyph-name="adieresis.ss02" horiz-adv-x="1191" 
d="M236 1452h268v-213h-268v213zM705 1452h266v-213h-266v213zM522 1075q213 0 297 -157v147h262v-1065h-262v152q-6 -25 -25 -51.5t-52.5 -53.5t-91 -44t-128.5 -17q-61 0 -123 18t-124 60.5t-109.5 103.5t-77 155.5t-29.5 208.5q0 113 29.5 206.5t76.5 154.5t109 103
t124 60.5t124 18.5zM575 199q114 0 185 83t71 250q0 165 -71 247.5t-185 82.5q-115 0 -184 -80t-69 -250q0 -171 69 -252t184 -81z" />
    <glyph glyph-name="agrave.ss02" horiz-adv-x="1191" 
d="M735 1190l-168 262h-286l231 -262h223zM522 1075q213 0 297 -157v147h262v-1065h-262v152q-6 -25 -25 -51.5t-52.5 -53.5t-91 -44t-128.5 -17q-61 0 -123 18t-124 60.5t-109.5 103.5t-77 155.5t-29.5 208.5q0 113 29.5 206.5t76.5 154.5t109 103t124 60.5t124 18.5z
M575 199q114 0 185 83t71 250q0 165 -71 247.5t-185 82.5q-115 0 -184 -80t-69 -250q0 -171 69 -252t184 -81z" />
    <glyph glyph-name="amacron.ss02" horiz-adv-x="1191" 
d="M248 1452h710v-154h-710v154zM522 1075q213 0 297 -157v147h262v-1065h-262v152q-6 -25 -25 -51.5t-52.5 -53.5t-91 -44t-128.5 -17q-61 0 -123 18t-124 60.5t-109.5 103.5t-77 155.5t-29.5 208.5q0 113 29.5 206.5t76.5 154.5t109 103t124 60.5t124 18.5zM575 199
q114 0 185 83t71 250q0 165 -71 247.5t-185 82.5q-115 0 -184 -80t-69 -250q0 -171 69 -252t184 -81z" />
    <glyph glyph-name="aogonek.ss02" horiz-adv-x="1191" 
d="M819 1065h262v-1065h-69q-149 -42 -210 -102t-61 -123q0 -60 49.5 -77t129.5 9v-113q-41 -21 -95.5 -33.5t-112 -10.5t-106.5 18.5t-80.5 57.5t-31.5 102q0 55 31 104t80 82.5t104.5 55.5t109.5 30v152q-6 -25 -25 -51.5t-52.5 -53.5t-91 -44t-128.5 -17q-61 0 -123 18
t-124 60.5t-109.5 103.5t-77 155.5t-29.5 208.5q0 113 29.5 206.5t76.5 154.5t109 103t124 60.5t124 18.5q213 0 297 -157v147zM575 199q114 0 185 83t71 250q0 165 -71 247.5t-185 82.5q-115 0 -184 -80t-69 -250q0 -171 69 -252t184 -81z" />
    <glyph glyph-name="aring.ss02" horiz-adv-x="1191" 
d="M604 1188q-82 0 -140 56.5t-58 139.5q0 82 58 139.5t140 57.5q80 0 138.5 -58t58.5 -139q0 -82 -58.5 -139t-138.5 -57zM604 1303q33 0 56.5 22.5t23.5 58.5t-23.5 58t-56.5 22q-35 0 -58.5 -22t-23.5 -58t23.5 -58.5t58.5 -22.5zM522 1075q213 0 297 -157v147h262v-1065
h-262v152q-6 -25 -25 -51.5t-52.5 -53.5t-91 -44t-128.5 -17q-61 0 -123 18t-124 60.5t-109.5 103.5t-77 155.5t-29.5 208.5q0 113 29.5 206.5t76.5 154.5t109 103t124 60.5t124 18.5zM575 199q114 0 185 83t71 250q0 165 -71 247.5t-185 82.5q-115 0 -184 -80t-69 -250
q0 -171 69 -252t184 -81z" />
    <glyph glyph-name="atilde.ss02" horiz-adv-x="1191" 
d="M911 1434h107q0 -110 -63.5 -180t-174.5 -70q-44 0 -86 16t-76 39t-67.5 45.5t-72 38.5t-77.5 16q-38 0 -64.5 -19.5t-25.5 -47.5h-106q0 110 62.5 180t174.5 70q44 0 86 -16.5t76 -39.5t67.5 -46t72 -39.5t77.5 -16.5q38 0 64.5 20.5t25.5 49.5zM522 1075
q213 0 297 -157v147h262v-1065h-262v152q-6 -25 -25 -51.5t-52.5 -53.5t-91 -44t-128.5 -17q-61 0 -123 18t-124 60.5t-109.5 103.5t-77 155.5t-29.5 208.5q0 113 29.5 206.5t76.5 154.5t109 103t124 60.5t124 18.5zM575 199q114 0 185 83t71 250q0 165 -71 247.5t-185 82.5
q-115 0 -184 -80t-69 -250q0 -171 69 -252t184 -81z" />
    <glyph glyph-name="g.ss03" horiz-adv-x="1142" 
d="M553 274q77 0 146.5 -10.5t136.5 -37t116 -66.5t79 -103.5t30 -144.5q0 -79 -29.5 -142t-78.5 -103.5t-115.5 -67.5t-136.5 -38.5t-146 -11.5q-72 0 -140 11.5t-133.5 38.5t-114 67.5t-78.5 103.5t-30 142q0 190 213 274q-80 10 -140 53.5t-60 112.5q0 55 37.5 93.5
t99.5 52.5q-74 90 -74 221q0 165 113.5 261.5t294.5 96.5q179 0 291 -92q66 82 192 80v-191q-50 0 -96 -22q22 -64 22 -133q0 -166 -113 -261.5t-296 -95.5q-122 0 -219 46q-45 -7 -45 -54q0 -46 46.5 -63t141.5 -17h86zM543 891q-97 0 -141 -49.5t-44 -122.5
q0 -74 43.5 -123t141.5 -49q99 0 142.5 49t43.5 123q0 73 -43.5 122.5t-142.5 49.5zM559 -262q127 0 186.5 47t59.5 127q0 174 -246 174t-246 -174q0 -80 59.5 -127t186.5 -47z" />
    <glyph glyph-name="l.ss04" horiz-adv-x="530" 
d="M475 -2q-94 -10 -162.5 -4t-113.5 35t-66.5 89t-21.5 158v1172h262v-1184q0 -38 23 -56.5t79 -17.5v-192z" />
    <glyph glyph-name="f_t" horiz-adv-x="1445" 
d="M1276 193q47 0 110 14v-191q-79 -28 -184 -28q-55 0 -97 7t-82 25.5t-65.5 49t-41 80.5t-15.5 118v590h-446v-858h-262v858h-152v207h152v61q0 65 11 117.5t28.5 87.5t45 61t54.5 39.5t62.5 22t63.5 10.5t64 2q101 0 158 -22v-193q-50 13 -96 13q-72 0 -100.5 -33
t-28.5 -111v-55h446v266h262v-266h213v-207h-213v-561q0 -51 26 -77.5t87 -26.5z" />
    <glyph glyph-name="r_t" horiz-adv-x="1464" 
d="M1294 193q48 0 111 14v-191q-79 -28 -184 -28q-55 0 -97 7t-82 25.5t-65.5 49t-41 80.5t-15.5 118v590h-138q-193 0 -287.5 -74t-121.5 -209v-575h-262v1065h262v-246q31 105 136 174t239 72h172v266h262v-266h213v-207h-213v-561q0 -51 25.5 -77.5t86.5 -26.5z" />
    <glyph glyph-name="zero.dnom" horiz-adv-x="583" 
d="M293 -4q98 0 158.5 71t60.5 187v27q0 116 -60.5 187t-158.5 71q-100 0 -160.5 -71t-60.5 -187v-27q0 -116 60.5 -187t160.5 -71zM293 440q52 0 83.5 -43.5t31.5 -115.5v-27q0 -71 -31.5 -115.5t-83.5 -44.5q-53 0 -85 44.5t-32 115.5v27q0 72 31.5 115.5t85.5 43.5z" />
    <glyph glyph-name="one.dnom" horiz-adv-x="387" 
d="M295 535v-535h-98v401q-13 -24 -45 -34.5t-70 -4.5v99q36 -4 70 20t45 54h98z" />
    <glyph glyph-name="two.dnom" horiz-adv-x="536" 
d="M82 0v16q0 84 29.5 141.5t117.5 110.5q6 3 22.5 12t21.5 12t17 10.5t16.5 12t12 12.5t10 15t5 16.5t2.5 20.5q0 32 -22 51t-52 19q-32 0 -54 -20.5t-22 -59.5v-17h-104v17q0 79 45.5 126.5t134.5 47.5q87 0 134.5 -46.5t47.5 -117.5q0 -44 -25 -81t-48.5 -54t-80.5 -51
q-2 -2 -3 -2.5t-2.5 -1.5t-3 -1.5t-2.5 -1.5q-80 -46 -80 -88v-6h245v-92h-362z" />
    <glyph glyph-name="three.dnom" horiz-adv-x="561" 
d="M365 285q42 -4 78 -37t36 -98q0 -70 -52.5 -114t-147.5 -44q-92 0 -144.5 48t-52.5 126h102q3 -84 99 -84q41 0 67.5 20.5t26.5 61.5q0 78 -109 78h-22v75h22q47 0 65.5 22.5t18.5 51.5q0 27 -19.5 44.5t-53.5 17.5q-36 0 -59 -19.5t-23 -58.5h-97q0 79 47 123.5
t127 44.5q84 0 132.5 -41t48.5 -103q0 -46 -26 -75t-64 -39z" />
    <glyph glyph-name="four.dnom" horiz-adv-x="565" 
d="M483 135h-61v-135h-100v135h-240v80l240 320h100v-320h61v-80zM322 215v203l-152 -203h152z" />
    <glyph glyph-name="five.dnom" horiz-adv-x="522" 
d="M279 367q77 0 129.5 -50.5t52.5 -134.5q0 -91 -56 -141.5t-149 -50.5q-91 0 -143 48.5t-52 125.5h101q1 -38 28.5 -59t65.5 -21t66 23.5t28 74.5q0 56 -27.5 81.5t-64.5 25.5q-55 0 -88 -41h-96l43 287h289v-93h-216l-16 -112q10 12 39 24.5t66 12.5z" />
    <glyph glyph-name="six.dnom" horiz-adv-x="577" 
d="M315 354q83 0 132 -43t49 -129q0 -96 -59.5 -144t-143.5 -48q-94 0 -152.5 69t-58.5 203q0 124 54 201.5t161 77.5q83 0 130.5 -45.5t47.5 -100.5h-92q-5 24 -26.5 41t-59.5 17q-45 0 -73 -28.5t-35.5 -62.5t-6.5 -73q11 25 50 45t83 20zM293 84q41 0 67.5 26t26.5 74
q0 45 -27 70t-69 25q-39 0 -68.5 -25.5t-29.5 -69.5q0 -50 30 -75t70 -25z" />
    <glyph glyph-name="seven.dnom" horiz-adv-x="471" 
d="M410 535v-93l-207 -442h-97l207 442h-272v93h369z" />
    <glyph glyph-name="eight.dnom" horiz-adv-x="485" 
d="M346 293q41 -22 64.5 -57t23.5 -76q0 -75 -53.5 -119.5t-138.5 -44.5q-82 0 -136.5 44.5t-54.5 119.5q0 41 24 77t64 56q-57 37 -57 106q0 58 44 99t116 41q75 0 118 -40.5t43 -99.5q0 -71 -57 -106zM170 397q0 -29 20.5 -47t51.5 -18q32 0 51.5 18t19.5 47q0 64 -71 64
q-33 0 -52.5 -18t-19.5 -46zM242 74q45 0 69.5 23t24.5 63t-25 64t-69 24q-41 0 -69 -24.5t-28 -63.5q0 -38 27.5 -62t69.5 -24z" />
    <glyph glyph-name="nine.dnom" horiz-adv-x="577" 
d="M262 176q-83 0 -131.5 43t-48.5 129q0 96 59.5 144.5t141.5 48.5q94 0 153.5 -69.5t59.5 -203.5q0 -123 -54.5 -200.5t-160.5 -77.5q-83 0 -131 45t-50 100h95q3 -23 25.5 -40t60.5 -17q114 0 114 164q-13 -25 -51.5 -45.5t-81.5 -20.5zM285 446q-42 0 -69.5 -26
t-27.5 -74q0 -45 28.5 -69.5t70.5 -24.5q39 0 68.5 25t29.5 69q0 50 -30 75t-70 25z" />
    <glyph glyph-name="zero.numr" horiz-adv-x="583" 
d="M293 897q98 0 158.5 71t60.5 187v27q0 116 -60.5 187t-158.5 71q-100 0 -160.5 -71t-60.5 -187v-27q0 -116 60.5 -187t160.5 -71zM293 1341q52 0 83.5 -43.5t31.5 -115.5v-27q0 -71 -31.5 -115.5t-83.5 -44.5q-53 0 -85 44.5t-32 115.5v27q0 72 31.5 115.5t85.5 43.5z
" />
    <glyph glyph-name="one.numr" horiz-adv-x="397" 
d="M295 1436v-535h-98v402q-13 -24 -45 -34.5t-70 -4.5v98q36 -4 70 20t45 54h98z" />
    <glyph glyph-name="two.numr" horiz-adv-x="536" 
d="M82 901v17q0 84 29.5 141t117.5 110q6 3 22.5 12t21.5 12t17 10.5t16.5 12t12 12.5t10 15t5 16.5t2.5 20.5q0 32 -22 51t-52 19q-32 0 -54 -20.5t-22 -59.5v-17h-104v17q0 79 45.5 126.5t134.5 47.5q87 0 134.5 -46.5t47.5 -117.5q0 -44 -25 -81t-48.5 -54t-80.5 -51
q-7 -5 -11 -7q-80 -46 -80 -88v-6h245v-92h-362z" />
    <glyph glyph-name="three.numr" horiz-adv-x="548" 
d="M348 1186q43 -4 79 -37t36 -98q0 -70 -53 -114t-148 -44q-92 0 -144 48t-52 126h102q3 -84 98 -84q41 0 67.5 20.5t26.5 61.5q0 78 -108 78h-23v76h23q47 0 65.5 22t18.5 51q0 27 -20 44.5t-54 17.5q-36 0 -59 -19.5t-23 -58.5h-96q0 79 47 123.5t127 44.5q84 0 132 -41
t48 -103q0 -46 -26 -75t-64 -39z" />
    <glyph glyph-name="four.numr" horiz-adv-x="565" 
d="M483 1036h-61v-135h-100v135h-240v80l240 320h100v-320h61v-80zM322 1116v203l-152 -203h152z" />
    <glyph glyph-name="five.numr" horiz-adv-x="522" 
d="M279 1268q77 0 129.5 -50.5t52.5 -134.5q0 -91 -56 -141.5t-149 -50.5q-91 0 -143 48.5t-52 125.5h101q1 -38 28.5 -59t65.5 -21t66 23.5t28 74.5q0 56 -27.5 81.5t-64.5 25.5q-55 0 -88 -41h-96l43 287h289v-93h-216l-16 -112q10 12 39 24.5t66 12.5z" />
    <glyph glyph-name="six.numr" horiz-adv-x="577" 
d="M315 1253q83 0 132 -43t49 -129q0 -96 -59.5 -144t-143.5 -48q-94 0 -152.5 69t-58.5 203q0 124 54 201.5t161 77.5q83 0 130.5 -45.5t47.5 -100.5h-92q-5 24 -26.5 41t-59.5 17q-45 0 -73 -28.5t-35.5 -62.5t-6.5 -73q11 25 50 45t83 20zM293 983q41 0 67.5 26t26.5 74
q0 45 -27 70t-69 25q-39 0 -68.5 -25.5t-29.5 -69.5q0 -50 30 -75t70 -25z" />
    <glyph glyph-name="seven.numr" horiz-adv-x="471" 
d="M410 1436v-93l-207 -442h-97l207 442h-272v93h369z" />
    <glyph glyph-name="eight.numr" horiz-adv-x="485" 
d="M346 1194q41 -22 64.5 -57t23.5 -76q0 -75 -53.5 -119.5t-138.5 -44.5q-82 0 -136.5 44.5t-54.5 119.5q0 41 24 77t64 56q-57 37 -57 106q0 58 44 99t116 41q75 0 118 -40.5t43 -99.5q0 -71 -57 -106zM170 1298q0 -29 20.5 -47t51.5 -18q32 0 51.5 18t19.5 47
q0 64 -71 64q-33 0 -52.5 -18t-19.5 -46zM242 975q45 0 69.5 23t24.5 63t-25 64t-69 24q-41 0 -69 -24.5t-28 -63.5q0 -38 27.5 -62t69.5 -24z" />
    <glyph glyph-name="nine.numr" horiz-adv-x="577" 
d="M262 1077q-83 0 -131.5 43t-48.5 129q0 96 59.5 144.5t141.5 48.5q94 0 153.5 -69.5t59.5 -203.5q0 -123 -54.5 -200.5t-160.5 -77.5q-83 0 -131 45t-50 100h95q3 -23 25.5 -40t60.5 -17q114 0 114 164q-13 -25 -51.5 -45.5t-81.5 -20.5zM285 1348q-42 0 -69.5 -26.5
t-27.5 -74.5q0 -45 28.5 -69.5t70.5 -24.5q39 0 68.5 25t29.5 69q0 50 -30 75.5t-70 25.5z" />
    <glyph glyph-name="ampersand.001" horiz-adv-x="1460" 
d="M1403 0h-291l-100 109q-170 -134 -400 -134q-108 0 -204 29t-169.5 82t-116 134.5t-42.5 180.5q0 62 20 116t47 90t74.5 73t81.5 57t90 49q-79 95 -119.5 174.5t-40.5 163.5q0 69 22.5 128.5t67.5 107t121.5 75t176.5 27.5q96 0 171 -27.5t119.5 -75t67 -107t22.5 -128.5
q0 -120 -69 -209.5t-217 -166.5l274 -297q66 129 72 299h237q-23 -294 -143 -482zM621 1268q-80 0 -124 -44t-44 -110q0 -51 29 -97.5t104 -129.5q112 62 154 115t42 110q0 69 -42 112.5t-119 43.5zM616 201q125 0 236 82l-330 358q-86 -52 -124 -113t-38 -120
q0 -89 71 -148t185 -59z" />
    <glyph glyph-name="Aacutecy" horiz-adv-x="1458" 
d="M1047 1821l-232 -262h-223l168 262h287zM1114 0l-104 295h-561l-105 -295h-295l557 1434h246l559 -1434h-297zM520 498h418l-209 594z" />
    <glyph glyph-name="Ieacutecy" horiz-adv-x="1177" 
d="M926 1821l-232 -262h-223l168 262h287zM383 238h733v-238h-1005v1434h985v-238h-713v-356h610v-222h-610v-380z" />
    <glyph glyph-name="Iiacutecy" horiz-adv-x="1404" 
d="M567 1559h224l231 262h-287zM109 1434h274v-998h8l623 998h280v-1434h-272v981h-8l-613 -981h-292v1434z" />
    <glyph glyph-name="Oacutecy" horiz-adv-x="1501" 
d="M612 1559h224l231 262h-287zM750 1452q307 0 489 -194t182 -541q0 -173 -48 -311.5t-136 -231.5t-212 -142.5t-275 -49.5q-305 0 -487.5 195t-182.5 540q0 173 48.5 312t136.5 231.5t211.5 142t273.5 49.5zM750 219q182 0 283.5 131t101.5 367q0 237 -101.5 367
t-283.5 130q-181 0 -282 -130t-101 -367q0 -236 101.5 -367t281.5 -131z" />
    <glyph glyph-name="Uacutecy" horiz-adv-x="1218" 
d="M473 1559h223l232 262h-287zM870 1434h301l-462 -1084q-67 -157 -136 -241.5t-161 -118.5t-226 -19v244q65 -7 111.5 -0.5t74.5 26.5t43 41t29 54q35 79 -16 201l-379 897h301l256 -686z" />
    <glyph glyph-name="Yeruacutecy" horiz-adv-x="1742" 
d="M1190 1821l-232 -262h-223l168 262h287zM668 944q271 0 406.5 -125t135.5 -346q0 -223 -135.5 -348t-406.5 -125h-557v1434h272v-490h285zM1360 1434h272v-1434h-272v1434zM668 233q123 0 186.5 61.5t63.5 178.5q0 114 -63.5 175t-186.5 61h-285v-476h285z" />
    <glyph glyph-name="Ereversedacutecy" horiz-adv-x="1394" 
d="M1016 1821l-232 -262h-223l168 262h287zM664 1452q144 0 263.5 -48t205.5 -139.5t134 -231.5t48 -316t-48 -316t-134 -231.5t-205.5 -139.5t-263.5 -48q-112 0 -211 29t-178 84t-131 142t-66 197h272q41 -111 112 -163t195 -52q156 0 251.5 104t115.5 295h-422v222h418
q-23 180 -117.5 277t-245.5 97q-122 0 -192 -51t-111 -159h-272q19 144 103 247t207 152t272 49z" />
    <glyph glyph-name="Iuacutecy" horiz-adv-x="1996" 
d="M1317 1821l-232 -262h-223l168 262h287zM1245 1452q307 0 489.5 -194t182.5 -541q0 -173 -48.5 -311.5t-136.5 -231.5t-212 -142.5t-275 -49.5q-278 0 -455.5 162.5t-207.5 455.5h-199v-600h-272v1434h272v-611h197q29 299 206.5 464t458.5 165zM1245 219
q182 0 283.5 131t101.5 367q0 237 -101.5 367t-283.5 130q-181 0 -282 -130t-101 -367q0 -236 101.5 -367t281.5 -131z" />
    <glyph glyph-name="Iaacutecy" horiz-adv-x="1343" 
d="M989 1821l-231 -262h-223l167 262h287zM1233 1434v-1434h-272v537h-375q-97 0 -155 -50t-58 -145v-102q0 -95 -8.5 -147.5t-32.5 -92.5h-275q24 40 32.5 92.5t8.5 147.5v110q0 115 50.5 189t166.5 123q-206 120 -206 346q0 193 130 309.5t392 116.5h602zM961 756v440
h-324q-246 0 -246 -213q0 -114 59 -170.5t183 -56.5h328z" />
    <glyph glyph-name="aacutecy" 
d="M885 1452l-232 -262h-223l168 262h287zM1018 250q0 -87 76 -90v-152q-35 -16 -97 -16q-97 0 -156 41.5t-59 122.5v26q-9 -17 -20.5 -33.5t-43 -48.5t-69 -55t-99.5 -41t-134 -18q-98 0 -176.5 32.5t-129.5 107.5t-51 185q0 65 21 115.5t53.5 82t87 56t104 37t121.5 25.5
q19 3 70 11t75.5 12.5t61 12t61 16t42.5 19.5v4q0 55 -15.5 92t-44.5 55.5t-60.5 26t-72.5 7.5q-174 0 -196 -131h-246q13 159 126 241t318 82q241 0 347 -101.5t106 -332.5v-391zM756 336v205q-25 -12 -60 -23t-58.5 -16t-77 -15.5t-75.5 -15.5q-90 -20 -126.5 -55
t-36.5 -97q0 -63 41.5 -104t121.5 -41q172 0 271 162z" />
    <glyph glyph-name="ieacutecy" 
d="M891 1452l-232 -262h-223l168 262h287zM1075 502q0 -35 -2 -53h-762q28 -267 279 -267q164 0 223 105h231q-100 -301 -469 -301q-77 0 -149 19t-139.5 61t-117.5 103.5t-80 154t-30 204.5q0 113 30 206t80.5 155t118 105t140.5 62t150 19q81 0 152.5 -19.5t135.5 -63
t110 -108.5t72.5 -163t26.5 -219zM311 612h514q-3 125 -67.5 196t-179.5 71q-111 0 -180.5 -68t-86.5 -199z" />
    <glyph glyph-name="iiacutecy" horiz-adv-x="1236" 
d="M483 1190h224l231 262h-287zM111 1065h262v-700h6l479 700h268v-1065h-262v684h-6l-469 -684h-278v1065z" />
    <glyph glyph-name="oacutecy" horiz-adv-x="1155" 
d="M440 1190h224l231 262h-287zM578 1075q71 0 141.5 -18.5t139.5 -61t121.5 -104t85 -155t32.5 -206.5q0 -112 -32.5 -205.5t-85 -154.5t-121.5 -104t-139.5 -61.5t-141.5 -18.5t-141.5 18.5t-139 61.5t-121 104t-85 154.5t-32.5 205.5q0 113 32.5 206.5t85 155t121 104
t139 61t141.5 18.5zM844 530q0 165 -76.5 248.5t-189.5 83.5q-54 0 -101 -19.5t-84.5 -58.5t-59.5 -104.5t-22 -149.5q0 -163 77 -247t190 -84t189.5 84t76.5 247z" />
    <glyph glyph-name="uacutecy" horiz-adv-x="1157" 
d="M442 1190h224l231 262h-287zM854 1065h266l-442 -1083q-94 -232 -209 -316.5t-313 -62.5v223q65 -7 114 1.5t80.5 32t50 49t35.5 62.5q12 37 10 60t-18 69l-389 965h270l266 -739z" />
    <glyph glyph-name="yeruacutecy" horiz-adv-x="1597" 
d="M662 1190l167 262h287l-231 -262h-223zM655 700q203 0 321 -95t118 -255q0 -164 -117.5 -257t-321.5 -93h-544v1065h262v-365h282zM1227 1065h262v-1065h-262v1065zM653 207q185 0 185 143q0 146 -185 146h-280v-289h280z" />
    <glyph glyph-name="ereversedacutecy" horiz-adv-x="1097" 
d="M866 1452l-231 -262h-223l168 262h286zM524 1075q76 0 147.5 -18.5t138.5 -60.5t117.5 -104t80.5 -155t30 -207q0 -115 -30.5 -208.5t-80.5 -155t-118 -103t-139.5 -59.5t-147.5 -18q-60 0 -115.5 10t-113.5 37t-103 68.5t-81 109t-52 154.5h238q25 -81 77.5 -123.5
t147.5 -42.5q106 0 175.5 66.5t86.5 193.5h-311v162h309q-20 117 -88.5 179t-169.5 62q-93 0 -143 -39.5t-72 -115.5h-239q20 105 67 180t111.5 114.5t132 56.5t145.5 17z" />
    <glyph glyph-name="iuacutecy" horiz-adv-x="1599" 
d="M1118 1452l-231 -262h-223l167 262h287zM1022 1075q71 0 141.5 -18.5t139.5 -61t121.5 -104t85 -155t32.5 -206.5q0 -112 -32.5 -205.5t-85 -154.5t-121.5 -104t-139.5 -61.5t-141.5 -18.5q-81 0 -161.5 26t-153.5 77t-126 139t-69 200h-139v-430h-262v1065h262v-428h139
q14 91 51.5 166t88.5 124.5t114.5 84t127.5 50t128 15.5zM1022 199q113 0 189.5 84t76.5 247q0 165 -76.5 248.5t-189.5 83.5t-189.5 -83.5t-76.5 -248.5q0 -163 76.5 -247t189.5 -84z" />
    <glyph glyph-name="iaacutecy" horiz-adv-x="1175" 
d="M905 1452l-231 -262h-223l167 262h287zM1065 1065v-1065h-262v365h-318q-67 0 -99 -27.5t-32 -89.5v-88q0 -68 -6 -98t-24 -62h-263q18 33 24.5 63t6.5 97v88q0 73 27.5 122t97.5 76q-135 94 -135 269q0 164 117 257t321 93h545zM803 569v289h-281q-184 0 -184 -143
q0 -146 184 -146h281z" />
    </font>
</defs>
</svg>
