<?xml version="1.0" standalone="no"?>
<!DOCTYPE svg PUBLIC "-//W3C//DTD SVG 1.1//EN" "http://www.w3.org/Graphics/SVG/1.1/DTD/svg11.dtd" >
<svg xmlns="http://www.w3.org/2000/svg" xmlns:xlink="http://www.w3.org/1999/xlink" version="1.1">
<metadata>
Created by FontForge 20170731 at Mon Aug  7 16:11:15 2023
 By Aleksey,,,
(c) 2017 Connary Fagen
</metadata>
<defs>
<font id="ArticulatCF-DemiBoldOblique" horiz-adv-x="1173" >
  <font-face 
    font-family="Articulat CF Demi Bold"
    font-weight="600"
    font-style="oblique"
    font-stretch="normal"
    units-per-em="2048"
    panose-1="0 0 7 0 0 0 0 0 0 0"
    ascent="1638"
    descent="-410"
    x-height="1065"
    cap-height="1434"
    bbox="-487 -735 2247 1950"
    underline-thickness="102"
    underline-position="-307"
    slope="-9"
    unicode-range="U+0020-FB02"
  />
<missing-glyph horiz-adv-x="1044" 
d="M856 1638v-2089h-661v2089h661zM696 1499h-346v-69h137v-78h-139v-68h348v68h-139v78h139v69zM557 1229h-209v-217h348v71h-139v146zM487 1157v-74h-69v74h69zM696 954h-348v-67h139v-78h-139v-70h209v148h139v67zM696 829h-69v-137h-279v-71h348v208zM696 575h-209v-116
h70v47h70v-98h-209v167h-70v-235h348v235zM696 213h-348v-236h348v236zM627 145v-98h-209v98h209zM696 -70h-348v-69h148l-148 -99v-69h348v69h-213l146 99h67v69z" />
    <glyph glyph-name="fi" unicode="fi" horiz-adv-x="1214" 
d="M524 1120l-8 -55h217l-31 -207h-219l-135 -858h-262l135 858h-168l31 207h170l10 63q14 89 45.5 153t68.5 99t89 55t95 25.5t100 5.5q76 0 141 -14l-33 -199q-57 11 -94 11q-72 0 -106.5 -35t-45.5 -109zM985 1452h262l-30 -207h-263zM758 0l168 1065h262l-168 -1065
h-262z" />
    <glyph glyph-name="fl" unicode="fl" horiz-adv-x="1245" 
d="M676 1264q-72 0 -106.5 -35t-45.5 -109l-8 -55h217l-31 -207h-219l-135 -858h-262l135 858h-168l31 207h170l10 63q14 89 45.5 153t68.5 99t89 55t95 25.5t100 5.5q76 0 141 -14l-33 -199q-57 11 -94 11zM1001 1434h263l-226 -1434h-262z" />
    <glyph glyph-name=".notdef" horiz-adv-x="1044" 
d="M856 1638v-2089h-661v2089h661zM696 1499h-346v-69h137v-78h-139v-68h348v68h-139v78h139v69zM557 1229h-209v-217h348v71h-139v146zM487 1157v-74h-69v74h69zM696 954h-348v-67h139v-78h-139v-70h209v148h139v67zM696 829h-69v-137h-279v-71h348v208zM696 575h-209v-116
h70v47h70v-98h-209v167h-70v-235h348v235zM696 213h-348v-236h348v236zM627 145v-98h-209v98h209zM696 -70h-348v-69h148l-148 -99v-69h348v69h-213l146 99h67v69z" />
    <glyph glyph-name=".null" horiz-adv-x="0" 
 />
    <glyph glyph-name="nonmarkingreturn" horiz-adv-x="682" 
 />
    <glyph glyph-name="space" unicode=" " horiz-adv-x="550" 
 />
    <glyph glyph-name="exclam" unicode="!" horiz-adv-x="540" 
d="M375 449h-277l146 985h295zM68 303h290l-45 -303h-293z" />
    <glyph glyph-name="quotedbl" unicode="&#x22;" horiz-adv-x="862" 
d="M164 1028h262l61 406h-262zM596 1028h262l64 406h-263z" />
    <glyph glyph-name="numbersign" unicode="#" horiz-adv-x="1212" 
d="M1161 866h-198l-78 -299h176l-35 -205h-192l-95 -362h-198l94 362h-221l-95 -362h-198l94 362h-180l35 205h196l78 299h-174l35 205h190l94 363h199l-94 -363h221l94 363h199l-94 -363h182zM686 567l78 299h-221l-78 -299h221z" />
    <glyph glyph-name="dollar" unicode="$" horiz-adv-x="1320" 
d="M1264 1028h-283q2 76 -36.5 125t-115.5 64l-61 -386l55 -10q201 -39 295 -122.5t94 -239.5q0 -218 -158.5 -342t-420.5 -135l-27 -166h-141l27 172q-216 24 -333 146.5t-100 320.5h285q4 -202 184 -238l66 416l-55 10q-357 73 -357 356q0 203 147.5 322.5t395.5 130.5
l27 166h141l-27 -170q201 -22 305.5 -130t92.5 -290zM629 860h2l57 363q-103 -12 -161 -64.5t-58 -134.5q0 -134 160 -164zM918 434q0 70 -45.5 110.5t-141.5 61.5l-61 -395q118 12 183 70.5t65 152.5z" />
    <glyph glyph-name="percent" unicode="%" horiz-adv-x="1490" 
d="M401 778q-114 0 -181.5 68t-67.5 198q0 170 88 285t239 115q113 0 180.5 -68t67.5 -198q0 -170 -88 -285t-238 -115zM121 0l1073 1438l195 -4l-1067 -1434h-201zM414 946q71 0 107 66.5t36 150.5q0 56 -24 84.5t-68 28.5q-37 0 -65.5 -19.5t-44.5 -51.5t-24.5 -68.5
t-8.5 -75.5q0 -115 92 -115zM1034 -10q-114 0 -182 68t-68 198q0 170 88.5 284.5t239.5 114.5q113 0 180.5 -67.5t67.5 -198.5q0 -169 -88 -284t-238 -115zM1047 160q70 0 106.5 66t36.5 149q0 112 -92 112q-48 0 -82 -34t-48 -81t-14 -100q0 -112 93 -112z" />
    <glyph glyph-name="ampersand" unicode="&#x26;" horiz-adv-x="1449" 
d="M1300 752q-59 -305 -215 -494l199 -258h-285l-77 106q-189 -131 -422 -131q-206 0 -340.5 100t-134.5 275q0 69 21 128.5t53.5 103t85.5 85.5t101.5 71t116.5 63q-55 77 -83.5 145t-28.5 146q0 72 27.5 137.5t79.5 118t136 83.5t189 31q173 0 259.5 -83t86.5 -216
q0 -77 -25.5 -141.5t-75.5 -116t-109.5 -92t-141.5 -80.5l229 -295q99 141 119 314h235zM702 1264q-85 0 -140.5 -48.5t-55.5 -123.5q0 -45 21 -89.5t67 -109.5q130 62 194 118.5t64 135.5q0 54 -38 85.5t-112 31.5zM535 199q129 0 253 86l-264 354q-217 -110 -217 -262
q0 -80 60 -129t168 -49z" />
    <glyph glyph-name="quotesingle" unicode="'" horiz-adv-x="428" 
d="M164 1028h262l61 406h-262z" />
    <glyph glyph-name="parenleft" unicode="(" horiz-adv-x="634" 
d="M434 1526h256q-270 -392 -348 -887q-83 -524 61 -905h-247q-78 202 -96.5 426t24.5 512q83 511 350 854z" />
    <glyph glyph-name="parenright" unicode=")" horiz-adv-x="634" 
d="M467 1526q81 -190 102 -401.5t-20 -485.5q-85 -531 -359 -905h-256q276 419 357 938q79 489 -68 854h244z" />
    <glyph glyph-name="asterisk" unicode="*" horiz-adv-x="1054" 
d="M965 1124l-211 -55l112 -182l-200 -115l-101 176l-147 -176l-174 115l164 184l-191 53l86 217l211 -65l31 231h213l-39 -231l227 65z" />
    <glyph glyph-name="plus" unicode="+" horiz-adv-x="1107" 
d="M1071 692l-35 -229h-372l-60 -371h-244l60 371h-369l35 229h369l59 369h244l-60 -369h373z" />
    <glyph glyph-name="comma" unicode="," horiz-adv-x="475" 
d="M-33 -330l15 82q118 32 141 185l10 63h-113l46 303h290l-49 -305q-12 -83 -39 -144.5t-58.5 -95.5t-75.5 -54.5t-81.5 -26.5t-85.5 -7z" />
    <glyph glyph-name="hyphen" unicode="-" horiz-adv-x="913" 
d="M84 659h729l-31 -184h-729z" />
    <glyph glyph-name="period" unicode="." horiz-adv-x="479" 
d="M68 303h290l-45 -303h-293z" />
    <glyph glyph-name="slash" unicode="/" horiz-adv-x="976" 
d="M1018 1434l-782 -1432h-269l783 1432h268z" />
    <glyph glyph-name="zero" unicode="0" horiz-adv-x="1288" 
d="M756 1448q100 0 186 -32t154.5 -96t107.5 -172t39 -249q0 -138 -29 -270.5t-87.5 -248.5t-140 -204t-194.5 -139t-243 -51q-78 0 -148 19t-132 61t-106.5 104t-70.5 153.5t-26 204.5q0 140 28 273t85.5 250t138 205.5t194 140t244.5 51.5zM981 901q0 148 -59.5 235
t-182.5 87q-81 0 -150 -40t-116.5 -107t-81 -156t-49.5 -186.5t-16 -198.5q0 -151 58 -237.5t181 -86.5q102 0 183.5 61t131 161t75.5 220.5t26 247.5z" />
    <glyph glyph-name="one" unicode="1" horiz-adv-x="757" 
d="M766 1434l-225 -1434h-262l178 1098q-116 -102 -320 -99l31 215q234 21 336 220h262z" />
    <glyph glyph-name="two" unicode="2" horiz-adv-x="1150" 
d="M-10 0l6 45q12 92 30 161t53 139t87.5 127.5t132 115t188.5 112.5l30 15q50 25 75 38t68 37.5t66 42.5t53 45.5t44.5 53.5t25.5 60t11 71q0 79 -55.5 119.5t-136.5 40.5q-45 0 -86 -12.5t-79.5 -39.5t-66.5 -76t-39 -114h-252q32 217 171 342t374 125q214 0 325 -102
t111 -265q0 -102 -29 -178.5t-105 -143.5t-127.5 -100t-174.5 -101q-52 -29 -78 -44q-71 -38 -120.5 -69t-93.5 -68.5t-65 -77.5t-18 -82v-6h682l-32 -211h-975z" />
    <glyph glyph-name="three" unicode="3" horiz-adv-x="1226" 
d="M872 762q39 -4 81 -23.5t82.5 -54t66.5 -93.5t26 -132q0 -145 -81 -256.5t-216.5 -169.5t-302.5 -58q-248 0 -378 141t-89 359h238q-17 -124 51 -199t197 -75q133 0 228 74t95 194q0 88 -68 140.5t-214 52.5h-72l27 176h59q71 0 126.5 17.5t88 43t54 59t29 61.5t7.5 54
q0 73 -55 113.5t-141 40.5q-103 0 -183 -60.5t-102 -187.5h-242q35 229 177 351t364 122q200 0 319 -98.5t119 -245.5q0 -127 -83.5 -221.5t-207.5 -124.5z" />
    <glyph glyph-name="four" unicode="4" horiz-adv-x="1212" 
d="M1079 348h-164l-53 -348h-262l53 348h-630l32 211l768 875h264l-135 -875h164zM690 559l86 555l-493 -555h407z" />
    <glyph glyph-name="five" unicode="5" horiz-adv-x="1222" 
d="M698 987q190 0 307 -110.5t117 -303.5q0 -265 -169 -429t-443 -164q-222 0 -354 130t-101 341h240q-18 -104 46.5 -175t182.5 -71q145 0 241.5 100.5t96.5 253.5q0 48 -15.5 86.5t-39 61.5t-54 38t-58.5 21t-54 6q-164 0 -276 -119h-244l233 781h783l-37 -215h-598
l-107 -349q15 15 36 30.5t59.5 37.5t93 35.5t114.5 13.5z" />
    <glyph glyph-name="six" unicode="6" horiz-adv-x="1234" 
d="M717 938q55 0 109.5 -11.5t111 -40t99 -71t69.5 -110.5t27 -152q0 -161 -75.5 -292t-211 -206t-303.5 -75q-144 0 -242.5 56t-145.5 154.5t-60 233.5t14 293q26 163 77.5 294t130 230t190.5 153t249 54q96 0 172.5 -24.5t124.5 -64t79 -91t41.5 -103t6.5 -102.5h-224
q0 50 -18.5 87.5t-48.5 59t-64 31.5t-71 10q-61 0 -113 -18t-89 -47t-68 -70.5t-50.5 -82.5t-35.5 -90.5t-24 -86.5t-14 -78q31 60 127 110t230 50zM563 197q139 0 226.5 99t87.5 241q0 107 -63.5 162t-154.5 55q-134 0 -225.5 -93t-91.5 -231q0 -115 67 -174t154 -59z" />
    <glyph glyph-name="seven" unicode="7" horiz-adv-x="1042" 
d="M1077 1434l-30 -226q-487 -601 -666 -1208h-270q202 666 684 1214h-643l32 220h893z" />
    <glyph glyph-name="eight" unicode="8" horiz-adv-x="1245" 
d="M915 803q99 -41 157 -120.5t58 -186.5q0 -113 -48 -210.5t-129.5 -164t-191.5 -104t-233 -37.5q-136 0 -244.5 44.5t-174.5 136t-66 216.5q0 151 84.5 264.5t239.5 175.5q-121 84 -121 232q0 118 66.5 210.5t175 140.5t237.5 48q190 0 296.5 -89.5t106.5 -230.5
q0 -92 -50 -178.5t-163 -146.5zM711 1243q-103 0 -169.5 -58.5t-66.5 -152.5q0 -64 45.5 -109.5t132.5 -45.5q103 0 170.5 64.5t67.5 156.5q0 67 -47 106t-133 39zM543 207q142 0 231.5 89t89.5 216q0 96 -66.5 148.5t-168.5 52.5q-133 0 -225.5 -85.5t-92.5 -213.5
q0 -86 60 -146.5t172 -60.5z" />
    <glyph glyph-name="nine" unicode="9" horiz-adv-x="1234" 
d="M555 489q-55 0 -109.5 11.5t-111 40t-99 71t-69.5 110.5t-27 152q0 161 75.5 292.5t211 206.5t303.5 75q144 0 242.5 -56t145.5 -154.5t60 -233.5t-14 -293q-26 -163 -77.5 -294t-130 -230t-190.5 -153t-249 -54q-96 0 -172.5 24.5t-124.5 64t-79 91t-41.5 103
t-6.5 102.5h223q0 -50 18.5 -88t49 -59t64.5 -31.5t71 -10.5q61 0 113 18t89 47t68 71t50.5 82.5t35 90t23.5 86.5t14 78q-31 -60 -126.5 -110t-229.5 -50zM709 1231q-139 0 -226.5 -99t-87.5 -241q0 -107 63 -162t154 -55q134 0 226 93t92 230q0 115 -67 174.5t-154 59.5z
" />
    <glyph glyph-name="colon" unicode=":" horiz-adv-x="479" 
d="M188 1065h293l-49 -303h-293zM68 303h290l-45 -303h-293z" />
    <glyph glyph-name="semicolon" unicode=";" horiz-adv-x="475" 
d="M188 1065h293l-49 -303h-293zM-33 -330l15 82q118 32 141 185l10 63h-113l46 303h290l-49 -305q-12 -83 -39 -144.5t-58.5 -95.5t-75.5 -54.5t-81.5 -26.5t-85.5 -7z" />
    <glyph glyph-name="less" unicode="&#x3c;" horiz-adv-x="1019" 
d="M870 246l-575 248l653 249l41 244l-915 -379l-35 -227l795 -381z" />
    <glyph glyph-name="equal" unicode="=" horiz-adv-x="911" 
d="M109 823h786l-29 -184h-786zM57 496h787l-29 -185h-786z" />
    <glyph glyph-name="greater" unicode="&#x3e;" horiz-adv-x="1019" 
d="M18 246l-38 -246l913 381l35 227l-793 379l-39 -244l580 -249z" />
    <glyph glyph-name="question" unicode="?" horiz-adv-x="1130" 
d="M688 1448q-489 0 -559 -485h256q23 125 86.5 192.5t179.5 67.5q55 0 94 -16.5t56 -43t23.5 -61t-1.5 -70.5q-6 -38 -29.5 -70t-57 -57.5t-72.5 -51.5t-79.5 -58.5t-75.5 -72t-62.5 -99t-38.5 -131.5l-7 -43h281l8 43q9 60 33.5 107t57 78.5t70 59.5t75.5 57t71 62.5
t58 84.5t35 116q29 187 -82.5 289t-319.5 102zM379 303h293l-47 -303h-293z" />
    <glyph glyph-name="at" unicode="@" horiz-adv-x="1548" 
d="M981 1040h170q-64 -417 -64 -428q0 -88 68 -88q55 0 94 48.5t56.5 118.5t17.5 151q0 194 -121.5 312t-320.5 118q-182 0 -328.5 -89t-226.5 -238.5t-80 -326.5q0 -202 129.5 -329t322.5 -127t330 106l205 -63q-207 -219 -528 -219q-133 0 -249.5 45.5t-201.5 126.5
t-133.5 199.5t-48.5 258.5q0 225 107 416.5t293.5 303.5t408.5 112q173 0 312.5 -75t221.5 -216.5t82 -322.5q0 -126 -38.5 -234t-117.5 -178t-182 -70q-183 0 -211 166q-25 -61 -96 -114.5t-160 -53.5q-50 0 -96.5 17.5t-85.5 51t-62.5 91t-23.5 129.5q0 113 46 209
t129 153.5t183 57.5q62 0 113.5 -34.5t71.5 -82.5zM721 522q87 0 139.5 69t52.5 159q0 57 -30.5 96t-91.5 39q-81 0 -136 -66t-55 -160q0 -56 32 -96.5t89 -40.5z" />
    <glyph glyph-name="A" unicode="A" horiz-adv-x="1464" 
d="M1024 0l-57 295h-564l-151 -295h-295l776 1434h254l332 -1434h-295zM506 498h422l-117 594z" />
    <glyph glyph-name="B" unicode="B" horiz-adv-x="1331" 
d="M995 782q108 -32 170 -116.5t62 -198.5q0 -150 -79 -257t-213.5 -158.5t-311.5 -51.5h-605l228 1434h571q205 0 311.5 -84.5t106.5 -231.5q0 -118 -64.5 -207t-175.5 -129zM723 864q100 0 161.5 58t61.5 157q0 62 -41 94.5t-114 32.5h-308l-53 -342h293zM635 227
q140 0 220.5 64.5t80.5 187.5q0 77 -51 125.5t-162 48.5h-326l-67 -426h305z" />
    <glyph glyph-name="C" unicode="C" horiz-adv-x="1366" 
d="M659 219q125 0 206.5 53t133.5 162h267q-64 -218 -242.5 -335t-409.5 -117q-255 0 -403 145t-148 418q0 183 54 346.5t152.5 288.5t249 198.5t331.5 73.5q229 0 370 -116.5t134 -331.5h-269q-30 210 -268 210q-89 0 -165.5 -38t-130.5 -101t-92 -146t-56.5 -173.5
t-18.5 -182.5q0 -173 78.5 -263.5t226.5 -90.5z" />
    <glyph glyph-name="D" unicode="D" horiz-adv-x="1382" 
d="M756 1434q285 0 434 -146.5t149 -427.5q0 -192 -52.5 -350.5t-152 -271.5t-250 -175.5t-339.5 -62.5h-525l226 1434h510zM547 250q131 0 232.5 47t164 130.5t94 192.5t31.5 240q0 171 -86.5 247.5t-273.5 76.5h-228l-145 -934h211z" />
    <glyph glyph-name="E" unicode="E" horiz-adv-x="1179" 
d="M1194 1196h-713l-55 -356h608l-35 -222h-610l-57 -380h731l-39 -238h-1006l228 1434h985z" />
    <glyph glyph-name="F" unicode="F" horiz-adv-x="1132" 
d="M1165 1196h-684l-57 -377h567l-35 -219h-567l-96 -600h-275l228 1434h958z" />
    <glyph glyph-name="G" unicode="G" horiz-adv-x="1406" 
d="M801 772h561l-14 -92q-58 -350 -231 -524t-488 -174q-264 0 -415 144t-151 413q0 184 54 349t152.5 290.5t249 199.5t331.5 74q229 0 370 -116.5t134 -331.5h-269q-30 210 -268 210q-89 0 -165 -37.5t-130 -101t-92.5 -146.5t-57 -175t-18.5 -187q0 -169 80 -258.5
t232 -89.5q170 0 274 82t143 256h-317z" />
    <glyph glyph-name="H" unicode="H" horiz-adv-x="1388" 
d="M1124 1434h275l-228 -1434h-274l94 600h-604l-94 -600h-275l228 1434h274l-96 -611h604z" />
    <glyph glyph-name="I" unicode="I" horiz-adv-x="512" 
d="M295 0h-275l226 1434h274z" />
    <glyph glyph-name="J" unicode="J" horiz-adv-x="1089" 
d="M145 344q93 -119 254 -119q236 0 281 279l145 930h275l-150 -942q-20 -133 -72 -232.5t-128.5 -158t-166.5 -87t-194 -28.5q-284 0 -416 188z" />
    <glyph glyph-name="K" unicode="K" horiz-adv-x="1411" 
d="M1448 1434l-666 -650l494 -784h-303l-381 600l-242 -235l-57 -365h-275l228 1434h274l-112 -705l727 705h313z" />
    <glyph glyph-name="L" unicode="L" horiz-adv-x="1163" 
d="M330 238h676l-39 -238h-949l228 1434h274z" />
    <glyph glyph-name="M" unicode="M" horiz-adv-x="1742" 
d="M246 1434h315l268 -1074l588 1074h336l-227 -1434h-273l152 965h-10l-510 -965h-203l-227 965h-11l-151 -965h-275z" />
    <glyph glyph-name="N" unicode="N" horiz-adv-x="1421" 
d="M1432 1434l-228 -1434h-284l-465 981h-6l-156 -981h-275l228 1434h274l473 -998h6l158 998h275z" />
    <glyph glyph-name="O" unicode="O" horiz-adv-x="1480" 
d="M866 1452q264 0 417 -149t153 -416q0 -184 -57 -349t-159.5 -288t-255 -195.5t-333.5 -72.5q-261 0 -413 148.5t-152 414.5q0 187 56 352t157.5 288.5t253 195t333.5 71.5zM668 219q92 0 171 36t135.5 98t96.5 144.5t59 175.5t19 191q0 168 -82.5 259t-235.5 91
q-115 0 -208.5 -55.5t-151.5 -148t-88.5 -206.5t-30.5 -237q0 -167 82.5 -257.5t233.5 -90.5z" />
    <glyph glyph-name="P" unicode="P" horiz-adv-x="1306" 
d="M805 1434q238 0 355.5 -103.5t117.5 -290.5q0 -266 -171 -423.5t-458 -157.5h-284l-72 -459h-275l228 1434h559zM688 696q137 0 215 84.5t78 220.5q0 93 -54 144t-161 51h-285l-78 -500h285z" />
    <glyph glyph-name="Q" unicode="Q" horiz-adv-x="1480" 
d="M1436 887q0 -191 -60 -359t-172 -292l111 -132l-180 -151l-111 131q-175 -102 -393 -102q-261 0 -413 148.5t-152 414.5q0 187 56 352t157.5 288.5t253 195t333.5 71.5q264 0 417 -149t153 -416zM668 219q112 0 200 51l-186 222l178 151l176 -209q113 185 113 430
q0 168 -82.5 259t-235.5 91q-115 0 -208.5 -55.5t-151.5 -148t-88.5 -206.5t-30.5 -237q0 -167 82.5 -257.5t233.5 -90.5z" />
    <glyph glyph-name="R" unicode="R" horiz-adv-x="1357" 
d="M1028 662q102 -39 144 -94.5t42 -141.5q0 -32 -17 -161t-17 -167q0 -64 14 -98h-270q-19 34 -19 100q0 43 16.5 153.5t16.5 133.5q0 72 -50.5 111t-135.5 39h-375l-84 -537h-275l228 1434h604q233 0 347 -93.5t114 -253.5q0 -299 -283 -425zM745 756q134 0 206.5 75.5
t72.5 196.5q0 168 -215 168h-328l-69 -440h333z" />
    <glyph glyph-name="S" unicode="S" horiz-adv-x="1320" 
d="M823 821q201 -39 295 -122.5t94 -239.5q0 -152 -81 -261t-220 -162.5t-321 -53.5q-258 0 -404 126.5t-127 346.5h285q4 -246 268 -246q144 0 225 60t81 165q0 72 -47 112.5t-146 61.5l-186 35q-357 73 -357 356q0 212 160 332.5t426 120.5q247 0 378 -110t118 -314h-283
q2 95 -57 146t-179 51q-128 0 -202 -54t-74 -147q0 -134 160 -164z" />
    <glyph glyph-name="T" unicode="T" horiz-adv-x="1232" 
d="M1307 1434l-39 -238h-424l-189 -1196h-274l188 1196h-424l39 238h1123z" />
    <glyph glyph-name="U" unicode="U" horiz-adv-x="1394" 
d="M1407 1434l-139 -875q-44 -270 -225 -420.5t-445 -150.5q-265 0 -399.5 150.5t-92.5 420.5l140 875h274l-137 -865q-27 -169 39 -256.5t213 -87.5t240 87t120 257l138 865h274z" />
    <glyph glyph-name="V" unicode="V" horiz-adv-x="1482" 
d="M1251 1434h293l-764 -1434h-274l-322 1432l283 2l223 -1096z" />
    <glyph glyph-name="W" unicode="W" horiz-adv-x="2115" 
d="M1884 1434h293l-637 -1434h-254l-168 1018l-493 -1018h-254l-187 1434h285l102 -1020l471 1020h269l145 -1020z" />
    <glyph glyph-name="X" unicode="X" horiz-adv-x="1353" 
d="M1427 1434l-573 -695l375 -739h-307l-258 508l-418 -508h-309l608 739l-352 695h309l235 -463l381 463h309z" />
    <glyph glyph-name="Y" unicode="Y" horiz-adv-x="1439" 
d="M864 537l-84 -537h-282l84 537l-398 897h310l249 -633l453 633h305z" />
    <glyph glyph-name="Z" unicode="Z" horiz-adv-x="1245" 
d="M1118 238l-37 -238h-1104l33 211l928 985h-758l37 238h1083l-32 -211l-932 -985h782z" />
    <glyph glyph-name="bracketleft" unicode="[" horiz-adv-x="655" 
d="M487 1300l-215 -1341h158l-35 -225h-420l285 1792h420l-35 -226h-158z" />
    <glyph glyph-name="backslash" unicode="\" horiz-adv-x="970" 
d="M195 1434h258l331 -1432h-258z" />
    <glyph glyph-name="bracketright" unicode="]" horiz-adv-x="655" 
d="M383 1300h-158l35 226h420l-285 -1792h-420l35 225h158z" />
    <glyph glyph-name="asciicircum" unicode="^" horiz-adv-x="1015" 
d="M762 952l-162 308l-268 -308h-205l414 482h157l260 -482h-196z" />
    <glyph glyph-name="underscore" unicode="_" horiz-adv-x="1208" 
d="M-20 0h1024l-35 -225h-1024z" />
    <glyph glyph-name="grave" unicode="`" horiz-adv-x="505" 
d="M610 1190l-96 262h-369l232 -262h233z" />
    <glyph glyph-name="a" unicode="a" horiz-adv-x="1163" 
d="M965 231q-6 -42 10.5 -59.5t58.5 -19.5l-26 -146q-45 -14 -103 -14q-98 0 -152.5 44.5t-37.5 117.5l6 24q-47 -58 -81 -87q-125 -105 -292 -105q-150 0 -243 70.5t-93 213.5q0 85 30 148.5t87 104t129.5 64t167.5 34.5q19 3 95.5 12t105.5 13.5t75.5 15.5t75.5 24
q16 110 -30 151.5t-136 41.5q-86 0 -139.5 -30.5t-77.5 -98.5h-248q41 165 155.5 245t326.5 80q247 0 339.5 -104t59.5 -324zM717 338l35 197q-81 -27 -291 -60q-187 -29 -187 -168q0 -63 39 -98t113 -35q53 0 104 18.5t88 48t60.5 53t38.5 44.5z" />
    <glyph glyph-name="b" unicode="b" horiz-adv-x="1208" 
d="M752 1075q74 0 140.5 -25.5t122 -76t88 -137t32.5 -197.5q0 -101 -25 -197.5t-74 -178.5t-115 -144.5t-152.5 -97.5t-182.5 -35q-74 0 -131 21t-88 53t-46.5 62.5t-17.5 57.5l-31 -180h-262l226 1434h262l-82 -529q49 70 132.5 120t203.5 50zM543 199q79 0 144 36.5
t105.5 97.5t62.5 138t22 160q0 115 -60 173t-151 58q-78 0 -142 -38t-103.5 -100t-61 -138t-21.5 -156q0 -113 55 -172t150 -59z" />
    <glyph glyph-name="c" unicode="c" horiz-adv-x="1089" 
d="M496 199q174 0 245 157h242q-127 -370 -508 -370q-68 0 -130.5 15t-119.5 48.5t-99.5 82.5t-67.5 122t-25 162q0 185 74 335t210.5 237t309.5 87q80 0 146.5 -18.5t124.5 -59t94 -116t42 -179.5h-233q-9 81 -52 120.5t-135 39.5q-76 0 -139 -38.5t-103 -102t-61.5 -141.5
t-21.5 -160q0 -105 56.5 -163t150.5 -58z" />
    <glyph glyph-name="d" unicode="d" horiz-adv-x="1193" 
d="M580 1075q71 0 127.5 -20.5t88 -52t48 -62t18.5 -55.5l88 549h264l-227 -1434h-264l25 156q-117 -170 -316 -170q-61 0 -117.5 15.5t-108 50t-90 84.5t-61 124t-22.5 164q0 127 40 245t110.5 208t174 144t222.5 54zM502 199q78 0 142 38t103.5 100.5t60.5 138.5t21 155
q0 112 -54.5 171.5t-149.5 59.5q-79 0 -143.5 -35.5t-105.5 -96t-63 -137t-22 -161.5q0 -115 60 -174t151 -59z" />
    <glyph glyph-name="e" unicode="e" horiz-adv-x="1138" 
d="M1040 444h-761v-14q0 -128 63 -188t174 -60q80 0 132.5 24.5t92.5 72.5h244q-75 -152 -199 -222.5t-303 -70.5q-86 0 -164.5 26.5t-143.5 78t-103.5 138t-38.5 197.5q0 182 76.5 330t214 233.5t307.5 85.5q89 0 165.5 -25.5t137 -77t95 -137.5t34.5 -198q0 -38 -7 -100
t-16 -93zM612 879q-121 0 -199 -76t-112 -197h514q8 24 8 68q0 94 -57 149.5t-154 55.5z" />
    <glyph glyph-name="f" unicode="f" horiz-adv-x="737" 
d="M676 1264q-72 0 -106.5 -35t-45.5 -109l-8 -55h217l-31 -207h-219l-135 -858h-262l135 858h-168l31 207h170l10 63q14 89 45.5 153t68.5 99t89 55t95 25.5t100 5.5q76 0 141 -14l-33 -199q-57 11 -94 11z" />
    <glyph glyph-name="g" unicode="g" horiz-adv-x="1191" 
d="M1153 1065l-164 -1042q-18 -116 -66 -203.5t-107.5 -138t-137 -81.5t-143.5 -41t-138 -10q-163 0 -273.5 66t-150.5 172l170 86q63 -109 256 -109q146 0 224 65.5t106 215.5l21 111q-120 -168 -318 -168q-77 0 -146 25.5t-127 76t-92 137t-34 197.5q0 166 67.5 314
t195 242.5t284.5 94.5q58 0 107 -14t80.5 -35t54 -47.5t33 -50t11.5 -43.5l27 180h260zM502 201q78 0 142 38.5t103.5 101.5t60.5 138.5t21 153.5q0 111 -54.5 170t-149.5 59q-78 0 -143 -38t-106 -100.5t-63 -138.5t-22 -155q0 -114 60 -171.5t151 -57.5z" />
    <glyph glyph-name="h" unicode="h" horiz-adv-x="1210" 
d="M786 1075q85 0 149 -22.5t111 -74t60.5 -135t-2.5 -204.5l-100 -639h-263l103 641q33 217 -166 217q-60 0 -115 -23.5t-92.5 -60t-62.5 -72.5t-35 -67l-101 -635h-262l226 1434h262l-92 -580q17 32 48.5 67t78.5 71.5t114 59.5t139 23z" />
    <glyph glyph-name="i" unicode="i" horiz-adv-x="466" 
d="M207 1245l31 207h262l-31 -207h-262zM178 1065h262l-168 -1065h-262z" />
    <glyph glyph-name="j" unicode="j" horiz-adv-x="495" 
d="M215 1245l33 207h262l-33 -207h-262zM-260 -186q61 -35 135 -35q63 0 92.5 42.5t44.5 131.5l176 1112h263l-193 -1206q-50 -310 -332 -310q-142 0 -225 54z" />
    <glyph glyph-name="k" unicode="k" 
d="M1171 1065l-524 -467l414 -598h-281l-313 438l-145 -129l-50 -309h-262l226 1434h262l-125 -801l481 432h317z" />
    <glyph glyph-name="l" unicode="l" horiz-adv-x="479" 
d="M236 1434h262l-226 -1434h-262z" />
    <glyph glyph-name="m" unicode="m" horiz-adv-x="1863" 
d="M1450 1075q64 0 116 -15.5t95.5 -49t68 -87t33 -128.5t-7.5 -174l-98 -621h-262l100 629q39 229 -145 229q-59 0 -113.5 -24t-90 -60t-58.5 -72t-29 -65l-101 -637h-262l101 629q36 229 -146 229q-59 0 -112 -24.5t-89 -61t-59 -73.5t-31 -68l-100 -631h-262l168 1065
h262l-35 -213q17 33 46.5 68t74 71.5t108 60t132.5 23.5q126 0 207.5 -58t99.5 -177q54 96 159.5 165.5t229.5 69.5z" />
    <glyph glyph-name="n" unicode="n" horiz-adv-x="1198" 
d="M774 1075q85 0 149 -23t111 -75.5t60.5 -136.5t-2.5 -205l-101 -635h-262l102 637q39 221 -165 221q-60 0 -115 -24.5t-93 -61t-63 -73.5t-35 -68l-100 -631h-262l168 1065h262l-35 -215q14 25 35.5 52.5t57.5 59t77 56t96.5 41t114.5 16.5z" />
    <glyph glyph-name="o" unicode="o" horiz-adv-x="1165" 
d="M639 1075q65 0 128 -16t122 -51t103 -85.5t71 -126.5t27 -167q0 -177 -75 -323.5t-213.5 -233t-312.5 -86.5q-84 0 -162 25.5t-145 77t-107 140.5t-40 205q0 131 45.5 248.5t124 204t192 137.5t242.5 51zM838 614q0 120 -62.5 184t-157.5 64q-77 0 -141 -37t-104.5 -97.5
t-63 -134t-22.5 -149.5q0 -118 62.5 -181.5t158.5 -63.5q102 0 179.5 63.5t114 156.5t36.5 195z" />
    <glyph glyph-name="p" unicode="p" horiz-adv-x="1206" 
d="M438 1065l-24 -158q50 69 133 118.5t203 49.5q74 0 140.5 -25.5t122 -76t88 -137t32.5 -197.5q0 -125 -40.5 -243t-110.5 -209t-174.5 -146t-223.5 -55q-74 0 -131 21t-88 53t-46.5 62.5t-17.5 57.5l-92 -569h-262l229 1454h262zM541 199q104 0 181.5 63.5t114.5 160
t37 208.5q0 115 -59.5 173t-150.5 58q-104 0 -180.5 -63.5t-112 -158.5t-35.5 -204q0 -117 55 -177t150 -60z" />
    <glyph glyph-name="q" unicode="q" horiz-adv-x="1191" 
d="M580 1075q71 0 127.5 -20.5t88.5 -52t49.5 -61.5t20.5 -56l25 180h262l-229 -1454h-262l88 545q-117 -170 -318 -170q-61 0 -117.5 15.5t-108 49.5t-90 84t-61 123t-22.5 162q0 128 40 246.5t110 209t173.5 145t223.5 54.5zM502 199q78 0 142 39t103.5 102.5t60.5 139
t21 153.5q0 111 -54.5 170t-149.5 59q-79 0 -143.5 -36t-105.5 -96.5t-63 -137.5t-22 -162q0 -114 60 -172.5t151 -58.5z" />
    <glyph glyph-name="r" unicode="r" horiz-adv-x="825" 
d="M754 1075q52 0 98 -10l-39 -227q-33 2 -68 2q-166 0 -261.5 -77t-137.5 -218l2 8l-88 -553h-262l168 1065h262l-41 -262q40 122 135.5 197t231.5 75z" />
    <glyph glyph-name="s" unicode="s" horiz-adv-x="1036" 
d="M735 752q-14 127 -186 127q-88 0 -144.5 -37t-56.5 -99q0 -79 109 -108l172 -41q44 -11 69 -18t60.5 -19t55.5 -23.5t43 -29.5t35 -39t20 -49.5t8 -63.5q0 -90 -38 -160.5t-105.5 -115t-158 -67.5t-198.5 -23q-206 0 -317 87t-107 257h237q14 -152 203 -152
q98 0 159.5 42t61.5 108q0 41 -26 64.5t-86 35.5l-164 39q-150 35 -218.5 102t-68.5 172q0 152 131 243t336 91q199 0 300 -85.5t106 -237.5h-232z" />
    <glyph glyph-name="t" unicode="t" horiz-adv-x="757" 
d="M502 858l-88 -559q-9 -51 7 -73.5t66 -22.5q70 0 142 16l-33 -205q-71 -28 -193 -28q-44 0 -79 5.5t-69 19t-55 37t-37.5 59t-16.5 85t8 115.5l88 551h-168l30 207h168l43 266h263l-43 -266h215l-33 -207h-215z" />
    <glyph glyph-name="u" unicode="u" horiz-adv-x="1202" 
d="M901 1065h262l-168 -1065h-262l33 207q-19 -32 -51 -66.5t-79 -70.5t-111.5 -59t-133.5 -23q-87 0 -152 23t-113 75t-62 135.5t2 204.5l102 639h262l-102 -637q-18 -117 25 -166t132 -49q55 0 110 23.5t95.5 58.5t69 71t41.5 66z" />
    <glyph glyph-name="v" unicode="v" horiz-adv-x="1165" 
d="M623 0h-289l-240 1065h260l158 -799l418 799h268z" />
    <glyph glyph-name="w" unicode="w" horiz-adv-x="1646" 
d="M1679 1065l-473 -1065h-229l-139 754l-375 -754h-232l-137 1065h260l70 -735l354 735h209l119 -735l305 735h268z" />
    <glyph glyph-name="x" unicode="x" horiz-adv-x="1118" 
d="M1141 1065l-449 -518l305 -547h-280l-195 358l-303 -358h-293l488 555l-287 510h279l172 -320l272 320h291z" />
    <glyph glyph-name="y" unicode="y" horiz-adv-x="1142" 
d="M905 1065h271l-631 -1112q-123 -218 -247.5 -295t-326.5 -53l35 217q65 -7 116 3t86.5 35.5t59.5 55t45 70.5q21 39 25.5 58.5t-2.5 61.5l-242 959h260l160 -737z" />
    <glyph glyph-name="z" unicode="z" horiz-adv-x="1024" 
d="M313 221h566l-33 -221h-875l31 221l668 623h-545l35 221h854l-35 -221z" />
    <glyph glyph-name="braceleft" unicode="{" horiz-adv-x="681" 
d="M457 766l-131 -139l84 -135l-74 -476q-6 -31 7.5 -44t47.5 -13h78l-35 -225h-182q-37 0 -71.5 10.5t-66 34.5t-46.5 70.5t-5 109.5l87 522l-72 146l115 149l86 539q11 63 38 107.5t63 65.5t70 29.5t72 8.5h197l-35 -226h-63q-34 0 -61.5 -19t-31.5 -50z" />
    <glyph glyph-name="bar" unicode="|" horiz-adv-x="532" 
d="M299 1638h225l-321 -2027h-226z" />
    <glyph glyph-name="braceright" unicode="}" horiz-adv-x="681" 
d="M246 766l73 477q4 32 -8 44.5t-45 12.5h-80l35 226h182q29 0 56.5 -6.5t56.5 -21.5t47 -40.5t28 -64t-1 -90.5l-84 -527l69 -149l-112 -146l-88 -536q-34 -211 -242 -211h-196l34 225h66q33 0 58.5 19t31.5 51l72 463l129 135z" />
    <glyph glyph-name="asciitilde" unicode="~" horiz-adv-x="972" 
d="M823 676l109 -12q-18 -115 -91 -185.5t-186 -70.5q-40 0 -80 17t-72.5 41t-65 47.5t-71 40.5t-77.5 17q-46 0 -83 -24t-40 -55l-111 14q19 116 91.5 186t185.5 70q40 0 80 -17t73 -41l66 -48t71.5 -41t77.5 -17q44 0 81 24t42 54z" />
    <glyph glyph-name="exclamdown" unicode="&#xa1;" horiz-adv-x="538" 
d="M137 762l49 303h293l-49 -303h-293zM410 616l-156 -985h-295l158 985h293z" />
    <glyph glyph-name="cent" unicode="&#xa2;" horiz-adv-x="1089" 
d="M580 336q125 23 182 151h242q-119 -345 -459 -368l-33 -201h-121l33 203q-76 10 -140.5 39.5t-117.5 79.5t-83 129t-30 178q0 267 151 452.5t394 204.5l37 230h121l-37 -232q142 -15 233.5 -102.5t102.5 -265.5h-234q-8 70 -40 108t-97 47zM309 551q0 -87 40.5 -143.5
t109.5 -71.5l104 647q-80 -22 -139 -90t-87 -157t-28 -185z" />
    <glyph glyph-name="sterling" unicode="&#xa3;" horiz-adv-x="1148" 
d="M1118 983h-237q15 119 -40 179.5t-165 60.5q-129 0 -195.5 -72.5t-66.5 -179.5q0 -24 2.5 -46.5t9.5 -50.5t11 -42.5t14.5 -49t13.5 -43.5h262l-25 -145h-208v-12q0 -126 -57.5 -215.5t-172.5 -163.5q95 35 180 35q56 0 168 -17.5t179 -17.5q94 0 190 24l-20 -229
q-83 -21 -177 -21q-87 0 -229.5 28t-210.5 28q-109 0 -229 -56l-117 166q266 212 266 416q0 23 -2 35h-188l24 145h121q-53 130 -53 228q0 110 41.5 201.5t113 152t167.5 94t206 33.5q224 0 340.5 -124.5t83.5 -340.5z" />
    <glyph glyph-name="currency" unicode="&#xa4;" horiz-adv-x="1245" 
d="M1139 975q0 -111 -47 -203l96 -96l-168 -164l-84 82q-115 -78 -256 -78q-134 0 -254 76l-80 -80l-166 164l90 90q-49 100 -49 209q0 120 53 215l-94 94l166 164l86 -86q115 72 248 72q137 0 250 -74l90 88l168 -164l-101 -100q52 -96 52 -209zM680 731q63 0 113 25.5
t77.5 64t41.5 78.5t14 76q0 27 -8 58.5t-27.5 64.5t-47 60t-70 44t-93.5 17q-64 0 -113.5 -25.5t-76.5 -64.5t-40.5 -79t-13.5 -75q0 -36 13.5 -76t40.5 -78.5t76.5 -64t113.5 -25.5z" />
    <glyph glyph-name="yen" unicode="&#xa5;" horiz-adv-x="1439" 
d="M1501 1434l-627 -883h246l-26 -156h-252l-13 -80h252l-28 -155h-248l-25 -160h-282l24 160h-248l29 155h244l12 80h-244l27 156h233l-391 883h310l249 -633l453 633h305z" />
    <glyph glyph-name="brokenbar" unicode="&#xa6;" horiz-adv-x="532" 
d="M299 1638h225l-90 -573h-225zM70 184h225l-92 -573h-226z" />
    <glyph glyph-name="section" unicode="&#xa7;" horiz-adv-x="1361" 
d="M1317 1038h-285q3 92 -54.5 130t-166.5 38q-78 0 -135 -18t-87.5 -48.5t-44.5 -64t-14 -69.5q0 -44 31 -76t109 -51l202 -48q202 -47 298 -132t96 -230q0 -194 -125 -319q30 -64 30 -148q0 -122 -49.5 -216t-137 -152t-200.5 -87.5t-247 -29.5q-263 0 -392.5 108.5
t-130.5 351.5h289q-2 -108 60 -162.5t198 -54.5q147 0 235.5 59.5t88.5 170.5q0 63 -45 96.5t-144 56.5l-186 43q-84 19 -145.5 44.5t-113.5 64.5t-79 97.5t-27 135.5q0 189 131 314q-36 64 -36 153q0 145 79 249.5t209 155t295 50.5q240 0 371.5 -107t122.5 -305zM791 610
l-187 43q-44 10 -100 27q-68 -56 -68 -141q0 -44 30.5 -76t108.5 -51l203 -47q64 -14 150 -46q49 52 49 138q0 62 -44.5 96t-141.5 57z" />
    <glyph glyph-name="dieresis" unicode="&#xa8;" horiz-adv-x="737" 
d="M145 1452h269l-33 -213h-268zM614 1452h267l-31 -213h-268z" />
    <glyph glyph-name="copyright" unicode="&#xa9;" horiz-adv-x="1605" 
d="M745 -14q-191 0 -343.5 84t-239 235.5t-86.5 343.5q0 165 65 313.5t173.5 254t255.5 167.5t307 62q142 0 266 -49t212.5 -135.5t139.5 -210.5t51 -267q0 -164 -65 -312.5t-173.5 -254.5t-255.5 -168.5t-307 -62.5zM735 139q143 0 267 53t209.5 142.5t134.5 210.5t49 254
q0 218 -144 355.5t-364 137.5q-135 0 -256.5 -49.5t-209.5 -135t-140 -207t-52 -259.5q0 -222 142.5 -362t363.5 -140zM766 463q158 0 219 123h172q-31 -81 -78.5 -139.5t-102.5 -88.5t-107.5 -43.5t-106.5 -13.5q-148 0 -251 96.5t-103 264.5q0 194 133 331t323 137
q58 0 109.5 -14.5t97.5 -46t77 -87.5t40 -132h-164q-23 119 -174 119q-84 0 -147 -44.5t-93 -112.5t-30 -148q0 -93 53.5 -147t132.5 -54z" />
    <glyph glyph-name="ordfeminine" unicode="&#xaa;" horiz-adv-x="772" 
d="M719 877q0 -63 24 -107h-139q-33 42 -33 121q-50 -57 -104.5 -89t-132.5 -32q-89 0 -151 45t-62 139q0 114 70 165t219 67l184 18q10 64 -16 89.5t-93 25.5q-62 0 -96 -21t-43 -51h-153q52 215 301 215q145 0 208.5 -56t63.5 -171q0 -43 -23.5 -183.5t-23.5 -174.5z
M369 913q44 0 77.5 10t56.5 30t35.5 35.5t26.5 39.5l15 49l-172 -16q-58 -6 -87.5 -30t-29.5 -58q0 -27 20.5 -43.5t57.5 -16.5z" />
    <glyph glyph-name="guillemotleft" unicode="&#xab;" horiz-adv-x="925" 
d="M455 743l-201 -145l156 -147l-37 -224l-295 277l33 215l385 276zM874 743l-200 -145l155 -147l-36 -224l-295 277l32 215l385 276z" />
    <glyph glyph-name="logicalnot" unicode="&#xac;" horiz-adv-x="1052" 
d="M80 639h606l-33 -203h-606zM686 639h262l-67 -416h-260z" />
    <glyph glyph-name="uni00AD" unicode="&#xad;" horiz-adv-x="913" 
d="M84 659h729l-31 -184h-729z" />
    <glyph glyph-name="registered" unicode="&#xae;" horiz-adv-x="1605" 
d="M745 -14q-191 0 -343.5 84t-239 235.5t-86.5 343.5q0 165 65 313.5t173.5 254t255.5 167.5t307 62q142 0 266 -49t212.5 -135.5t139.5 -210.5t51 -267q0 -164 -65 -312.5t-173.5 -254.5t-255.5 -168.5t-307 -62.5zM735 139q143 0 267 53t209.5 142.5t134.5 210.5t49 254
q0 218 -144 355.5t-364 137.5q-135 0 -256.5 -49.5t-209.5 -135t-140 -207t-52 -259.5q0 -222 142.5 -362t363.5 -140zM1063 315h-154q-8 35 -5 74t10.5 92.5t7.5 63.5q0 25 -8 41t-24 23.5t-31.5 9.5t-39.5 2h-151l-47 -306h-152l127 803h297q119 0 181.5 -51t62.5 -145
q0 -90 -45 -148.5t-154 -89.5q69 -12 101 -45.5t32 -91.5q0 -21 -5 -59.5t-10 -69.5t-4 -61t11 -42zM821 743q78 0 123 47t45 115q0 92 -100 92h-160l-39 -254h131z" />
    <glyph glyph-name="macron" unicode="&#xaf;" horiz-adv-x="710" 
d="M145 1452h711l-22 -154h-713z" />
    <glyph glyph-name="degree" unicode="&#xb0;" horiz-adv-x="796" 
d="M467 866q-122 0 -198 76t-76 193q0 141 100.5 240.5t241.5 99.5q120 0 196 -76t76 -193q0 -140 -100.5 -240t-239.5 -100zM479 1055q64 0 104 45.5t40 89.5q0 36 -26 67t-75 31q-66 0 -105.5 -45.5t-39.5 -91.5q0 -36 25.5 -66t76.5 -30z" />
    <glyph glyph-name="plusminus" unicode="&#xb1;" horiz-adv-x="1107" 
d="M725 872h375l-37 -227h-373l-59 -373h-242l60 373h-369l35 227h368l60 369h241zM68 -27l30 185h789l-31 -185h-788z" />
    <glyph glyph-name="uni00B2" unicode="&#xb2;" horiz-adv-x="526" 
d="M121 901q10 97 51.5 155t136.5 111q7 4 35 18.5t38.5 21.5t28 21t24.5 29t7 33q0 29 -19.5 44.5t-45.5 15.5q-35 0 -61.5 -20.5t-30.5 -59.5h-105q11 79 64 126.5t143 47.5q79 0 119.5 -38t40.5 -99q0 -17 -3.5 -33t-7.5 -28t-14.5 -26t-16 -22t-22.5 -20.5t-23 -18
t-27.5 -17.5t-26.5 -15t-29.5 -16t-28.5 -15q-44 -23 -69 -52t-27 -51h246l-15 -92h-362z" />
    <glyph glyph-name="uni00B3" unicode="&#xb3;" horiz-adv-x="550" 
d="M449 1184q40 -6 72 -32t32 -77q0 -77 -61.5 -129.5t-167.5 -52.5q-86 0 -133 51t-35 123h96q-4 -43 20.5 -63.5t65.5 -20.5q44 0 77.5 24t33.5 68q0 68 -101 68h-22l14 76h22q46 0 71.5 21.5t25.5 57.5q0 26 -19 41t-53 15q-35 0 -60 -19.5t-32 -58.5h-94
q14 81 65.5 124.5t136.5 43.5q73 0 115.5 -34t42.5 -87q0 -55 -33.5 -91t-78.5 -48z" />
    <glyph glyph-name="acute" unicode="&#xb4;" horiz-adv-x="460" 
d="M104 1190h232l270 262h-364z" />
    <glyph glyph-name="uni00B5" unicode="&#xb5;" horiz-adv-x="1200" 
d="M899 1065h262l-168 -1065h-262l33 203q-21 -33 -53 -66.5t-78.5 -68.5t-110 -56.5t-131.5 -21.5q-77 0 -129 16l-63 -395h-262l124 780q0 5 5 35l102 639h262l-106 -664q-8 -101 35 -143.5t126 -42.5q56 0 110.5 23.5t94.5 59.5t68 72t41 66l-8 -57z" />
    <glyph glyph-name="paragraph" unicode="&#xb6;" horiz-adv-x="1366" 
d="M1384 1434l-24 -158l-273 -1727h-215l273 1727h-187l-272 -1727h-233l165 1055h-100q-109 0 -193 35.5t-132 96t-67 137.5t-5 161q12 79 52 150t103 127.5t156 89.5t201 33h751z" />
    <glyph glyph-name="periodcentered" unicode="&#xb7;" horiz-adv-x="505" 
d="M104 733h293l-49 -303h-291z" />
    <glyph glyph-name="cedilla" unicode="&#xb8;" horiz-adv-x="425" 
d="M94 -119q83 0 142 -45.5t59 -128.5q0 -51 -21 -89t-55 -60t-86 -35.5t-105.5 -18t-123.5 -4.5v109q97 2 143.5 23.5t46.5 68.5q0 48 -46 60t-93 -27l-64 102l97 166h221z" />
    <glyph glyph-name="uni00B9" unicode="&#xb9;" horiz-adv-x="385" 
d="M406 1434l-84 -533h-103l72 410q-42 -52 -133 -43l14 94q40 -4 77 19t54 53h103z" />
    <glyph glyph-name="ordmasculine" unicode="&#xba;" horiz-adv-x="786" 
d="M504 1450q122 0 208.5 -79.5t86.5 -213.5q0 -161 -112 -276t-263 -115q-122 0 -208.5 79.5t-86.5 215.5q0 162 111 275.5t264 113.5zM631 1155q0 60 -36.5 96.5t-96.5 36.5q-88 0 -143.5 -67t-55.5 -150q0 -64 36.5 -101.5t96.5 -37.5q90 0 144.5 67.5t54.5 155.5z" />
    <glyph glyph-name="guillemotright" unicode="&#xbb;" horiz-adv-x="925" 
d="M76 479l200 146l-155 147l37 223l295 -276l-33 -215l-385 -277zM496 479l200 146l-155 147l37 223l294 -276l-32 -215l-385 -277z" />
    <glyph glyph-name="onequarter" unicode="&#xbc;" horiz-adv-x="1335" 
d="M152 0h-134l1119 1434h133zM406 1434l-84 -533h-103l72 410q-42 -52 -133 -43l14 94q40 -4 77 19t54 53h103zM1190 135h-62l-22 -135h-100l22 135h-240l13 80l291 320h100l-53 -320h61zM1040 215l33 203l-184 -203h151z" />
    <glyph glyph-name="onehalf" unicode="&#xbd;" horiz-adv-x="1314" 
d="M152 0h-134l1119 1434h133zM406 1434l-84 -533h-103l72 410q-42 -52 -133 -43l14 94q40 -4 77 19t54 53h103zM776 0q10 97 52 155t137 111q7 4 35 18.5t38.5 21.5t28 21t24.5 29t7 33q0 29 -20 44.5t-46 15.5q-35 0 -61.5 -20.5t-30.5 -59.5h-104q11 79 63.5 126.5
t142.5 47.5q79 0 119.5 -38t40.5 -99q0 -38 -14.5 -69t-41.5 -54t-55.5 -40.5t-66.5 -37.5q-13 -6 -20 -10q-44 -23 -69.5 -52t-27.5 -51h246l-14 -92h-363z" />
    <glyph glyph-name="threequarters" unicode="&#xbe;" horiz-adv-x="1435" 
d="M459 1184q40 -6 72 -32t32 -77q0 -77 -61.5 -129.5t-167.5 -52.5q-86 0 -133 51t-35 123h96q-4 -43 20.5 -63.5t65.5 -20.5q44 0 77.5 24t33.5 68q0 68 -101 68h-22l14 76h23q46 0 71 21.5t25 57.5q0 26 -19 41t-53 15q-35 0 -60 -19.5t-32 -58.5h-94q14 80 66 124
t137 44q73 0 115 -34t42 -87q0 -55 -33.5 -91t-78.5 -48zM252 0h-133l1118 1434h133zM1290 135h-61l-23 -135h-100l22 135h-239l12 80l291 320h100l-53 -320h61zM1141 215l33 203l-185 -203h152z" />
    <glyph glyph-name="questiondown" unicode="&#xbf;" horiz-adv-x="1130" 
d="M690 762h-293l47 303h293zM381 -383q489 0 559 485h-256q-23 -125 -86.5 -192.5t-179.5 -67.5q-55 0 -94 16.5t-56 43t-23.5 61t1.5 70.5q6 38 29.5 70t57 57.5t73 51.5t79.5 58.5t75.5 72t63 99t38.5 131.5l6 43h-281l-8 -43q-9 -60 -33.5 -107t-57 -78.5t-70 -59.5
t-75 -57t-70.5 -62.5t-58 -84.5t-35 -116q-29 -187 82 -289t319 -102z" />
    <glyph glyph-name="Agrave" unicode="&#xc0;" horiz-adv-x="1464" 
d="M983 1559h-233l-232 262h369zM1024 0l-57 295h-564l-151 -295h-295l776 1434h254l332 -1434h-295zM506 498h422l-117 594z" />
    <glyph glyph-name="Aacute" unicode="&#xc1;" horiz-adv-x="1464" 
d="M1260 1821l-271 -262h-231l137 262h365zM1024 0l-57 295h-564l-151 -295h-295l776 1434h254l332 -1434h-295zM506 498h422l-117 594z" />
    <glyph glyph-name="Acircumflex" unicode="&#xc2;" horiz-adv-x="1464" 
d="M885 1704l-215 -166h-211l196 283h480l108 -283h-201zM1024 0l-57 295h-564l-151 -295h-295l776 1434h254l332 -1434h-295zM506 498h422l-117 594z" />
    <glyph glyph-name="Atilde" unicode="&#xc3;" horiz-adv-x="1464" 
d="M653 1708q-38 0 -65 -20t-25 -48h-106q0 110 62.5 180t174.5 70q44 0 85.5 -16t75.5 -39t67 -46.5t71.5 -39.5t77.5 -16t65 20t25 49h109q0 -110 -63.5 -180t-174.5 -70q-54 0 -107 24.5t-89.5 53.5t-86 53.5t-96.5 24.5zM1024 0l-57 295h-564l-151 -295h-295l776 1434
h254l332 -1434h-295zM506 498h422l-117 594z" />
    <glyph glyph-name="Adieresis" unicode="&#xc4;" horiz-adv-x="1464" 
d="M805 1821l-33 -213h-268l33 213h268zM1272 1821l-31 -213h-268l33 213h266zM1024 0l-57 295h-564l-151 -295h-295l776 1434h254l332 -1434h-295zM506 498h422l-117 594z" />
    <glyph glyph-name="Aring" unicode="&#xc5;" horiz-adv-x="1464" 
d="M889 1559q-80 0 -131 50.5t-51 125.5q0 87 63 151t152 64q75 0 125.5 -51.5t50.5 -126.5q0 -84 -65 -148.5t-144 -64.5zM911 1837q-38 0 -66 -27.5t-28 -64.5q0 -32 22 -53t58 -21q35 0 61.5 27t26.5 61q0 33 -21 55.5t-53 22.5zM1024 0l-57 295h-564l-151 -295h-295
l776 1434h254l332 -1434h-295zM506 498h422l-117 594z" />
    <glyph glyph-name="AE" unicode="&#xc6;" horiz-adv-x="2088" 
d="M2103 1196h-712l-56 -356h609l-35 -222h-611l-57 -380h731l-39 -238h-1005l47 293h-479l-246 -293h-293l1196 1419l2 15h985zM674 504h334l77 489z" />
    <glyph glyph-name="Ccedilla" unicode="&#xc7;" horiz-adv-x="1366" 
d="M817 1214q-89 0 -165.5 -38t-130.5 -101t-92 -146t-56.5 -173.5t-18.5 -182.5q0 -173 78.5 -263.5t226.5 -90.5q125 0 206.5 53t133.5 162h267q-58 -196 -208.5 -310.5t-352.5 -137.5l-101 -105q83 0 142 -45.5t59 -128.5q0 -51 -21 -89t-55 -60t-86 -35.5t-105.5 -18
t-123.5 -4.5v109q97 2 143.5 23.5t46.5 68.5q0 48 -46 60t-93 -27l-64 102l91 156q-201 33 -315 174t-114 379q0 183 54 346.5t152.5 288.5t249 198.5t331.5 73.5q229 0 370 -116.5t134 -331.5h-269q-30 210 -268 210z" />
    <glyph glyph-name="Egrave" unicode="&#xc8;" horiz-adv-x="1179" 
d="M877 1559l-97 262h-368l231 -262h234zM1194 1196h-713l-55 -356h608l-35 -222h-610l-57 -380h731l-39 -238h-1006l228 1434h985z" />
    <glyph glyph-name="Eacute" unicode="&#xc9;" horiz-adv-x="1179" 
d="M651 1559h232l270 262h-365zM1194 1196h-713l-55 -356h608l-35 -222h-610l-57 -380h731l-39 -238h-1006l228 1434h985z" />
    <glyph glyph-name="Ecircumflex" unicode="&#xca;" horiz-adv-x="1179" 
d="M936 1538l-158 166l-215 -166h-211l197 283h479l109 -283h-201zM1194 1196h-713l-55 -356h608l-35 -222h-610l-57 -380h731l-39 -238h-1006l228 1434h985z" />
    <glyph glyph-name="Edieresis" unicode="&#xcb;" horiz-adv-x="1179" 
d="M430 1821h268l-32 -213h-269zM899 1821h266l-30 -213h-269zM1194 1196h-713l-55 -356h608l-35 -222h-610l-57 -380h731l-39 -238h-1006l228 1434h985z" />
    <glyph glyph-name="Igrave" unicode="&#xcc;" horiz-adv-x="512" 
d="M514 1559l-96 262h-369l232 -262h233zM295 0h-275l226 1434h274z" />
    <glyph glyph-name="Iacute" unicode="&#xcd;" horiz-adv-x="512" 
d="M289 1559h231l271 262h-365zM295 0h-275l226 1434h274z" />
    <glyph glyph-name="Icircumflex" unicode="&#xce;" horiz-adv-x="512" 
d="M573 1538l-157 166l-215 -166h-211l196 283h480l108 -283h-201zM295 0h-275l226 1434h274z" />
    <glyph glyph-name="Idieresis" unicode="&#xcf;" horiz-adv-x="512" 
d="M68 1821h268l-33 -213h-268zM537 1821h266l-31 -213h-268zM295 0h-275l226 1434h274z" />
    <glyph glyph-name="Eth" unicode="&#xd0;" horiz-adv-x="1443" 
d="M817 1434q285 0 434.5 -146.5t149.5 -427.5q0 -257 -91 -450t-272 -301.5t-432 -108.5h-524l96 614h-115l31 185h113l100 635h510zM608 250q131 0 232.5 47t164 130.5t94 192.5t31.5 240q0 171 -86.5 247.5t-273.5 76.5h-227l-60 -385h340l-30 -185h-338l-58 -364h211z
" />
    <glyph glyph-name="Ntilde" unicode="&#xd1;" horiz-adv-x="1421" 
d="M1165 1802h109q0 -110 -63.5 -180t-174.5 -70q-54 0 -107 24.5t-89.5 53.5t-86 53.5t-96.5 24.5q-38 0 -65 -20t-25 -48h-106q0 110 62.5 180t174.5 70q44 0 85.5 -16t75.5 -39t67 -46.5t71.5 -39.5t77.5 -16t65 20t25 49zM1432 1434l-228 -1434h-284l-465 981h-6
l-156 -981h-275l228 1434h274l473 -998h6l158 998h275z" />
    <glyph glyph-name="Ograve" unicode="&#xd2;" horiz-adv-x="1480" 
d="M1018 1559l-96 262h-369l231 -262h234zM866 1452q264 0 417 -149t153 -416q0 -184 -57 -349t-159.5 -288t-255 -195.5t-333.5 -72.5q-261 0 -413 148.5t-152 414.5q0 187 56 352t157.5 288.5t253 195t333.5 71.5zM668 219q92 0 171 36t135.5 98t96.5 144.5t59 175.5
t19 191q0 168 -82.5 259t-235.5 91q-115 0 -208.5 -55.5t-151.5 -148t-88.5 -206.5t-30.5 -237q0 -167 82.5 -257.5t233.5 -90.5z" />
    <glyph glyph-name="Oacute" unicode="&#xd3;" horiz-adv-x="1480" 
d="M793 1559h231l270 262h-364zM866 1452q264 0 417 -149t153 -416q0 -184 -57 -349t-159.5 -288t-255 -195.5t-333.5 -72.5q-261 0 -413 148.5t-152 414.5q0 187 56 352t157.5 288.5t253 195t333.5 71.5zM668 219q92 0 171 36t135.5 98t96.5 144.5t59 175.5t19 191
q0 168 -82.5 259t-235.5 91q-115 0 -208.5 -55.5t-151.5 -148t-88.5 -206.5t-30.5 -237q0 -167 82.5 -257.5t233.5 -90.5z" />
    <glyph glyph-name="Ocircumflex" unicode="&#xd4;" horiz-adv-x="1480" 
d="M1077 1538l-157 166l-215 -166h-211l196 283h479l109 -283h-201zM866 1452q264 0 417 -149t153 -416q0 -184 -57 -349t-159.5 -288t-255 -195.5t-333.5 -72.5q-261 0 -413 148.5t-152 414.5q0 187 56 352t157.5 288.5t253 195t333.5 71.5zM668 219q92 0 171 36t135.5 98
t96.5 144.5t59 175.5t19 191q0 168 -82.5 259t-235.5 91q-115 0 -208.5 -55.5t-151.5 -148t-88.5 -206.5t-30.5 -237q0 -167 82.5 -257.5t233.5 -90.5z" />
    <glyph glyph-name="Otilde" unicode="&#xd5;" horiz-adv-x="1480" 
d="M1196 1802h109q0 -110 -63.5 -180t-174.5 -70q-54 0 -107 24.5t-89.5 53.5t-86 53.5t-96.5 24.5q-38 0 -65 -20t-25 -48h-106q0 110 62.5 180t174.5 70q44 0 85.5 -16t75.5 -39t67 -46.5t71.5 -39.5t77.5 -16t65 20t25 49zM866 1452q264 0 417 -149t153 -416
q0 -184 -57 -349t-159.5 -288t-255 -195.5t-333.5 -72.5q-261 0 -413 148.5t-152 414.5q0 187 56 352t157.5 288.5t253 195t333.5 71.5zM668 219q92 0 171 36t135.5 98t96.5 144.5t59 175.5t19 191q0 168 -82.5 259t-235.5 91q-115 0 -208.5 -55.5t-151.5 -148t-88.5 -206.5
t-30.5 -237q0 -167 82.5 -257.5t233.5 -90.5z" />
    <glyph glyph-name="Odieresis" unicode="&#xd6;" horiz-adv-x="1480" 
d="M571 1821h269l-33 -213h-268zM1040 1821h267l-31 -213h-268zM866 1452q264 0 417 -149t153 -416q0 -184 -57 -349t-159.5 -288t-255 -195.5t-333.5 -72.5q-261 0 -413 148.5t-152 414.5q0 187 56 352t157.5 288.5t253 195t333.5 71.5zM668 219q92 0 171 36t135.5 98
t96.5 144.5t59 175.5t19 191q0 168 -82.5 259t-235.5 91q-115 0 -208.5 -55.5t-151.5 -148t-88.5 -206.5t-30.5 -237q0 -167 82.5 -257.5t233.5 -90.5z" />
    <glyph glyph-name="multiply" unicode="&#xd7;" horiz-adv-x="978" 
d="M954 780l-301 -262l221 -260l-182 -162l-223 264l-301 -262l-148 170l304 264l-222 263l181 157l223 -262l299 262z" />
    <glyph glyph-name="Oslash" unicode="&#xd8;" horiz-adv-x="1480" 
d="M1280 1307q156 -150 156 -420q0 -184 -57 -349t-159.5 -288t-255 -195.5t-333.5 -72.5q-88 0 -180 20l-68 -104h-297l141 223q-161 152 -161 424q0 187 56 352t157.5 288.5t253 195t333.5 71.5q103 0 195 -25l61 99h297zM352 567q0 -116 39 -190l529 829q-39 8 -89 8
q-115 0 -208.5 -55.5t-151.5 -148t-88.5 -206.5t-30.5 -237zM668 219q92 0 171 36t135.5 98t96.5 144.5t59 175.5t19 191q0 107 -35 185l-522 -824q38 -6 76 -6z" />
    <glyph glyph-name="Ugrave" unicode="&#xd9;" horiz-adv-x="1394" 
d="M975 1559l-96 262h-369l231 -262h234zM1407 1434l-139 -875q-44 -270 -225 -420.5t-445 -150.5q-265 0 -399.5 150.5t-92.5 420.5l140 875h274l-137 -865q-27 -169 39 -256.5t213 -87.5t240 87t120 257l138 865h274z" />
    <glyph glyph-name="Uacute" unicode="&#xda;" horiz-adv-x="1394" 
d="M750 1559h231l270 262h-364zM1407 1434l-139 -875q-44 -270 -225 -420.5t-445 -150.5q-265 0 -399.5 150.5t-92.5 420.5l140 875h274l-137 -865q-27 -169 39 -256.5t213 -87.5t240 87t120 257l138 865h274z" />
    <glyph glyph-name="Ucircumflex" unicode="&#xdb;" horiz-adv-x="1394" 
d="M1034 1538l-157 166l-215 -166h-211l196 283h479l109 -283h-201zM1407 1434l-139 -875q-44 -270 -225 -420.5t-445 -150.5q-265 0 -399.5 150.5t-92.5 420.5l140 875h274l-137 -865q-27 -169 39 -256.5t213 -87.5t240 87t120 257l138 865h274z" />
    <glyph glyph-name="Udieresis" unicode="&#xdc;" horiz-adv-x="1394" 
d="M528 1821h269l-33 -213h-268zM997 1821h267l-31 -213h-268zM1407 1434l-139 -875q-44 -270 -225 -420.5t-445 -150.5q-265 0 -399.5 150.5t-92.5 420.5l140 875h274l-137 -865q-27 -169 39 -256.5t213 -87.5t240 87t120 257l138 865h274z" />
    <glyph glyph-name="Yacute" unicode="&#xdd;" horiz-adv-x="1439" 
d="M772 1559h232l270 262h-365zM864 537l-84 -537h-282l84 537l-398 897h310l249 -633l453 633h305z" />
    <glyph glyph-name="Thorn" unicode="&#xde;" horiz-adv-x="1327" 
d="M745 1157q259 0 398.5 -125.5t107.5 -326.5q-32 -200 -198.5 -310t-427.5 -110h-297l18 125l-63 -410h-263l226 1434h262l-146 -924h287q34 0 53 0.5t50 2.5t49 6t44 11.5t42.5 19t35.5 28.5t31 39.5t22.5 52.5t16.5 67q11 67 -4 108.5t-59.5 59t-86 22.5t-114.5 5h-299
l35 225h280z" />
    <glyph glyph-name="germandbls" unicode="&#xdf;" horiz-adv-x="1271" 
d="M918 782q103 -12 175 -97t72 -206q0 -244 -165 -361.5t-457 -117.5h-92l34 225h84q162 0 253 62t91 207q0 170 -280 170h-78l33 198h63q122 0 193 56.5t71 150.5q0 139 -202 139q-123 0 -192 -59.5t-89 -183.5l-151 -965h-263l156 979q71 455 547 455q457 0 457 -340
q0 -116 -74 -209t-186 -103z" />
    <glyph glyph-name="agrave" unicode="&#xe0;" horiz-adv-x="1163" 
d="M772 1190h-233l-232 262h369zM965 231q-6 -42 10.5 -59.5t58.5 -19.5l-26 -146q-45 -14 -103 -14q-98 0 -152.5 44.5t-37.5 117.5l6 24q-47 -58 -81 -87q-125 -105 -292 -105q-150 0 -243 70.5t-93 213.5q0 85 30 148.5t87 104t129.5 64t167.5 34.5q19 3 95.5 12
t105.5 13.5t75.5 15.5t75.5 24q16 110 -30 151.5t-136 41.5q-86 0 -139.5 -30.5t-77.5 -98.5h-248q41 165 155.5 245t326.5 80q247 0 339.5 -104t59.5 -324zM717 338l35 197q-81 -27 -291 -60q-187 -29 -187 -168q0 -63 39 -98t113 -35q53 0 104 18.5t88 48t60.5 53
t38.5 44.5z" />
    <glyph glyph-name="aacute" unicode="&#xe1;" horiz-adv-x="1163" 
d="M1049 1452l-271 -262h-231l137 262h365zM1028 647l-63 -416q-6 -42 10.5 -59.5t58.5 -19.5l-26 -146q-45 -14 -103 -14q-98 0 -152.5 44.5t-37.5 117.5l6 24q-47 -58 -81 -87q-125 -105 -292 -105q-150 0 -243 70.5t-93 213.5q0 85 30 148.5t87 104t129.5 64t167.5 34.5
q19 3 95.5 12t105.5 13.5t75.5 15.5t75.5 24q16 110 -30 151.5t-136 41.5q-86 0 -139.5 -30.5t-77.5 -98.5h-248q41 165 155.5 245t326.5 80q247 0 339.5 -104t59.5 -324zM717 338l35 197q-81 -27 -291 -60q-187 -29 -187 -168q0 -63 39 -98t113 -35q53 0 104 18.5t88 48
t60.5 53t38.5 44.5z" />
    <glyph glyph-name="acircumflex" unicode="&#xe2;" horiz-adv-x="1163" 
d="M674 1335l-215 -166h-211l196 283h480l108 -283h-201zM965 231q-6 -42 10.5 -59.5t58.5 -19.5l-26 -146q-45 -14 -103 -14q-98 0 -152.5 44.5t-37.5 117.5l6 24q-47 -58 -81 -87q-125 -105 -292 -105q-150 0 -243 70.5t-93 213.5q0 85 30 148.5t87 104t129.5 64
t167.5 34.5q19 3 95.5 12t105.5 13.5t75.5 15.5t75.5 24q16 110 -30 151.5t-136 41.5q-86 0 -139.5 -30.5t-77.5 -98.5h-248q41 165 155.5 245t326.5 80q247 0 339.5 -104t59.5 -324zM717 338l35 197q-81 -27 -291 -60q-187 -29 -187 -168q0 -63 39 -98t113 -35
q53 0 104 18.5t88 48t60.5 53t38.5 44.5z" />
    <glyph glyph-name="atilde" unicode="&#xe3;" horiz-adv-x="1163" 
d="M442 1339q-38 0 -64.5 -19.5t-25.5 -47.5h-106q0 110 62.5 180t174.5 70q44 0 85.5 -16.5t75.5 -39.5t67 -46t71.5 -39.5t77.5 -16.5q38 0 64.5 20.5t25.5 49.5h109q0 -110 -63.5 -180t-174.5 -70q-44 0 -86.5 16t-76.5 39t-67 45.5t-71.5 38.5t-77.5 16zM1028 647
l-63 -416q-6 -42 10.5 -59.5t58.5 -19.5l-26 -146q-45 -14 -103 -14q-98 0 -152.5 44.5t-37.5 117.5l6 24q-47 -58 -81 -87q-125 -105 -292 -105q-150 0 -243 70.5t-93 213.5q0 85 30 148.5t87 104t129.5 64t167.5 34.5q19 3 95.5 12t105.5 13.5t75.5 15.5t75.5 24
q16 110 -30 151.5t-136 41.5q-86 0 -139.5 -30.5t-77.5 -98.5h-248q41 165 155.5 245t326.5 80q247 0 339.5 -104t59.5 -324zM717 338l35 197q-81 -27 -291 -60q-187 -29 -187 -168q0 -63 39 -98t113 -35q53 0 104 18.5t88 48t60.5 53t38.5 44.5z" />
    <glyph glyph-name="adieresis" unicode="&#xe4;" horiz-adv-x="1163" 
d="M594 1452l-33 -213h-268l33 213h268zM1061 1452l-31 -213h-268l33 213h266zM1028 647l-63 -416q-6 -42 10.5 -59.5t58.5 -19.5l-26 -146q-45 -14 -103 -14q-98 0 -152.5 44.5t-37.5 117.5l6 24q-47 -58 -81 -87q-125 -105 -292 -105q-150 0 -243 70.5t-93 213.5
q0 85 30 148.5t87 104t129.5 64t167.5 34.5q19 3 95.5 12t105.5 13.5t75.5 15.5t75.5 24q16 110 -30 151.5t-136 41.5q-86 0 -139.5 -30.5t-77.5 -98.5h-248q41 165 155.5 245t326.5 80q247 0 339.5 -104t59.5 -324zM717 338l35 197q-81 -27 -291 -60q-187 -29 -187 -168
q0 -63 39 -98t113 -35q53 0 104 18.5t88 48t60.5 53t38.5 44.5z" />
    <glyph glyph-name="aring" unicode="&#xe5;" horiz-adv-x="1163" 
d="M678 1190q-80 0 -131 50.5t-51 125.5q0 87 63 151t152 64q75 0 125.5 -51.5t50.5 -126.5q0 -84 -65 -148.5t-144 -64.5zM700 1468q-38 0 -66 -27.5t-28 -64.5q0 -31 22 -52t58 -21q35 0 61.5 27t26.5 61q0 33 -21 55t-53 22zM965 231q-6 -42 10.5 -59.5t58.5 -19.5
l-26 -146q-45 -14 -103 -14q-98 0 -152.5 44.5t-37.5 117.5l6 24q-47 -58 -81 -87q-125 -105 -292 -105q-150 0 -243 70.5t-93 213.5q0 85 30 148.5t87 104t129.5 64t167.5 34.5q19 3 95.5 12t105.5 13.5t75.5 15.5t75.5 24q16 110 -30 151.5t-136 41.5q-86 0 -139.5 -30.5
t-77.5 -98.5h-248q41 165 155.5 245t326.5 80q247 0 339.5 -104t59.5 -324zM717 338l35 197q-81 -27 -291 -60q-187 -29 -187 -168q0 -63 39 -98t113 -35q53 0 104 18.5t88 48t60.5 53t38.5 44.5z" />
    <glyph glyph-name="ae" unicode="&#xe6;" horiz-adv-x="1851" 
d="M1755 444h-762v-14q0 -128 63 -188t175 -60q80 0 132.5 24.5t92.5 72.5h244q-75 -152 -199 -222.5t-303 -70.5q-134 0 -246 60.5t-166 180.5q-180 -239 -436 -239q-151 0 -244.5 69t-93.5 211q0 71 20.5 127.5t56 94t89.5 65t113 42.5t135 24q34 5 99 13t101 13.5
t80 15.5t72 23q6 57 -5.5 96.5t-38.5 58t-56.5 26t-69.5 7.5q-85 0 -136 -27t-75 -87h-245q37 161 150.5 238t326.5 77q265 0 356 -123q155 123 361 123q89 0 165.5 -25.5t137 -77t95 -137.5t34.5 -198q0 -38 -7 -100t-16 -93zM1327 879q-110 0 -184.5 -63t-112.5 -167v-2
l-2 -4l-12 -37h514q8 24 8 68q0 94 -57 149.5t-154 55.5zM420 186q55 0 107.5 17.5t90.5 44.5t61 48t38 40l33 182q-22 -8 -43 -14t-51 -11.5t-51 -9t-70 -11.5t-80 -13q-176 -23 -176 -156q0 -117 141 -117z" />
    <glyph glyph-name="ccedilla" unicode="&#xe7;" horiz-adv-x="1089" 
d="M496 199q174 0 245 157h242q-113 -327 -422 -364l-104 -111q83 0 141.5 -45.5t58.5 -128.5q0 -51 -21 -89t-55 -60t-86 -35.5t-105.5 -18t-123.5 -4.5v109q97 2 144 23.5t47 68.5q0 48 -46.5 60t-93.5 -27l-63 102l94 164q-139 34 -227 137.5t-88 278.5q0 185 74 335
t210.5 237t309.5 87q80 0 146.5 -18.5t124.5 -59t94 -116t42 -179.5h-233q-9 81 -52 120.5t-135 39.5q-76 0 -139 -38.5t-103 -102t-61.5 -141.5t-21.5 -160q0 -105 56.5 -163t150.5 -58z" />
    <glyph glyph-name="egrave" unicode="&#xe8;" horiz-adv-x="1138" 
d="M780 1190h-233l-232 262h369zM1040 444h-761v-14q0 -128 63 -188t174 -60q80 0 132.5 24.5t92.5 72.5h244q-75 -152 -199 -222.5t-303 -70.5q-86 0 -164.5 26.5t-143.5 78t-103.5 138t-38.5 197.5q0 182 76.5 330t214 233.5t307.5 85.5q89 0 165.5 -25.5t137 -77
t95 -137.5t34.5 -198q0 -38 -7 -100t-16 -93zM612 879q-121 0 -199 -76t-112 -197h514q8 24 8 68q0 94 -57 149.5t-154 55.5z" />
    <glyph glyph-name="eacute" unicode="&#xe9;" horiz-adv-x="1138" 
d="M1057 1452l-271 -262h-231l137 262h365zM1040 444h-761v-14q0 -128 63 -188t174 -60q80 0 132.5 24.5t92.5 72.5h244q-75 -152 -199 -222.5t-303 -70.5q-86 0 -164.5 26.5t-143.5 78t-103.5 138t-38.5 197.5q0 182 76.5 330t214 233.5t307.5 85.5q89 0 165.5 -25.5
t137 -77t95 -137.5t34.5 -198q0 -38 -7 -100t-16 -93zM612 879q-121 0 -199 -76t-112 -197h514q8 24 8 68q0 94 -57 149.5t-154 55.5z" />
    <glyph glyph-name="ecircumflex" unicode="&#xea;" horiz-adv-x="1138" 
d="M682 1335l-215 -166h-211l197 283h479l108 -283h-200zM1040 444h-761v-14q0 -128 63 -188t174 -60q80 0 132.5 24.5t92.5 72.5h244q-75 -152 -199 -222.5t-303 -70.5q-86 0 -164.5 26.5t-143.5 78t-103.5 138t-38.5 197.5q0 182 76.5 330t214 233.5t307.5 85.5
q89 0 165.5 -25.5t137 -77t95 -137.5t34.5 -198q0 -38 -7 -100t-16 -93zM612 879q-121 0 -199 -76t-112 -197h514q8 24 8 68q0 94 -57 149.5t-154 55.5z" />
    <glyph glyph-name="edieresis" unicode="&#xeb;" horiz-adv-x="1138" 
d="M602 1452l-33 -213h-268l33 213h268zM1069 1452l-31 -213h-268l33 213h266zM631 1075q89 0 165.5 -25.5t137 -77t95 -137.5t34.5 -198q0 -38 -7 -100t-16 -93h-761v-14q0 -128 63 -188t174 -60q80 0 132.5 24.5t92.5 72.5h244q-75 -152 -199 -222.5t-303 -70.5
q-86 0 -164.5 26.5t-143.5 78t-103.5 138t-38.5 197.5q0 182 76.5 330t214 233.5t307.5 85.5zM815 606q8 24 8 68q0 94 -57 149.5t-154 55.5q-121 0 -199 -76t-112 -197h514z" />
    <glyph glyph-name="igrave" unicode="&#xec;" horiz-adv-x="464" 
d="M434 1190l-96 262h-369l232 -262h233zM176 1065h262l-168 -1065h-262z" />
    <glyph glyph-name="iacute" unicode="&#xed;" horiz-adv-x="464" 
d="M209 1190h231l271 262h-365zM176 1065h262l-168 -1065h-262z" />
    <glyph glyph-name="icircumflex" unicode="&#xee;" horiz-adv-x="464" 
d="M494 1169l-158 166l-215 -166h-211l196 283h480l108 -283h-200zM176 1065h262l-168 -1065h-262z" />
    <glyph glyph-name="idieresis" unicode="&#xef;" horiz-adv-x="464" 
d="M-12 1452h268l-33 -213h-268zM457 1452h266l-31 -213h-268zM176 1065h262l-168 -1065h-262z" />
    <glyph glyph-name="eth" unicode="&#xf0;" horiz-adv-x="1200" 
d="M1081 1198l-116 -14q70 -128 100.5 -230t30.5 -213q0 -222 -69 -391.5t-211 -269.5t-341 -100q-91 0 -170 27.5t-140 80.5t-96.5 138.5t-35.5 193.5q0 129 40 246t110.5 205.5t176.5 141t230 52.5q128 0 221 -66q-29 92 -61 160l-218 -26l19 120l137 17q-56 86 -125 164
h252q12 -19 41.5 -67t44.5 -71l197 23zM489 205q100 0 178 58t118 152t40 206q0 219 -207 219q-104 0 -179.5 -62t-110.5 -155t-35 -201q0 -109 54.5 -163t141.5 -54z" />
    <glyph glyph-name="ntilde" unicode="&#xf1;" horiz-adv-x="1198" 
d="M995 1434h109q0 -110 -63.5 -180t-174.5 -70q-44 0 -86.5 16t-76.5 39t-67 45.5t-71.5 38.5t-77.5 16q-38 0 -64.5 -19.5t-25.5 -47.5h-106q0 110 62.5 180t174.5 70q44 0 85.5 -16.5t75.5 -39.5t67 -46t71.5 -39.5t77.5 -16.5q38 0 64.5 20.5t25.5 49.5zM774 1075
q85 0 149 -23t111 -75.5t60.5 -136.5t-2.5 -205l-101 -635h-262l102 637q39 221 -165 221q-60 0 -115 -24.5t-93 -61t-63 -73.5t-35 -68l-100 -631h-262l168 1065h262l-35 -215q14 25 35.5 52.5t57.5 59t77 56t96.5 41t114.5 16.5z" />
    <glyph glyph-name="ograve" unicode="&#xf2;" horiz-adv-x="1165" 
d="M774 1190l-96 262h-369l232 -262h233zM639 1075q65 0 128 -16t122 -51t103 -85.5t71 -126.5t27 -167q0 -177 -75 -323.5t-213.5 -233t-312.5 -86.5q-84 0 -162 25.5t-145 77t-107 140.5t-40 205q0 131 45.5 248.5t124 204t192 137.5t242.5 51zM838 614q0 120 -62.5 184
t-157.5 64q-77 0 -141 -37t-104.5 -97.5t-63 -134t-22.5 -149.5q0 -118 62.5 -181.5t158.5 -63.5q102 0 179.5 63.5t114 156.5t36.5 195z" />
    <glyph glyph-name="oacute" unicode="&#xf3;" horiz-adv-x="1165" 
d="M549 1190h231l271 262h-365zM639 1075q65 0 128 -16t122 -51t103 -85.5t71 -126.5t27 -167q0 -177 -75 -323.5t-213.5 -233t-312.5 -86.5q-84 0 -162 25.5t-145 77t-107 140.5t-40 205q0 131 45.5 248.5t124 204t192 137.5t242.5 51zM838 614q0 120 -62.5 184t-157.5 64
q-77 0 -141 -37t-104.5 -97.5t-63 -134t-22.5 -149.5q0 -118 62.5 -181.5t158.5 -63.5q102 0 179.5 63.5t114 156.5t36.5 195z" />
    <glyph glyph-name="ocircumflex" unicode="&#xf4;" horiz-adv-x="1165" 
d="M834 1169l-158 166l-215 -166h-211l196 283h480l108 -283h-200zM639 1075q65 0 128 -16t122 -51t103 -85.5t71 -126.5t27 -167q0 -177 -75 -323.5t-213.5 -233t-312.5 -86.5q-84 0 -162 25.5t-145 77t-107 140.5t-40 205q0 131 45.5 248.5t124 204t192 137.5t242.5 51z
M838 614q0 120 -62.5 184t-157.5 64q-77 0 -141 -37t-104.5 -97.5t-63 -134t-22.5 -149.5q0 -118 62.5 -181.5t158.5 -63.5q102 0 179.5 63.5t114 156.5t36.5 195z" />
    <glyph glyph-name="otilde" unicode="&#xf5;" horiz-adv-x="1165" 
d="M952 1434h109q0 -110 -63.5 -180t-174.5 -70q-44 0 -86.5 16t-76.5 39t-67 45.5t-71.5 38.5t-77.5 16q-38 0 -64.5 -19.5t-25.5 -47.5h-106q0 110 62.5 180t174.5 70q44 0 85.5 -16.5t75.5 -39.5t67 -46t71.5 -39.5t77.5 -16.5q38 0 64.5 20.5t25.5 49.5zM639 1075
q65 0 128 -16t122 -51t103 -85.5t71 -126.5t27 -167q0 -177 -75 -323.5t-213.5 -233t-312.5 -86.5q-84 0 -162 25.5t-145 77t-107 140.5t-40 205q0 131 45.5 248.5t124 204t192 137.5t242.5 51zM838 614q0 120 -62.5 184t-157.5 64q-77 0 -141 -37t-104.5 -97.5t-63 -134
t-22.5 -149.5q0 -118 62.5 -181.5t158.5 -63.5q102 0 179.5 63.5t114 156.5t36.5 195z" />
    <glyph glyph-name="odieresis" unicode="&#xf6;" horiz-adv-x="1165" 
d="M328 1452h268l-33 -213h-268zM797 1452h266l-31 -213h-268zM639 1075q65 0 128 -16t122 -51t103 -85.5t71 -126.5t27 -167q0 -177 -75 -323.5t-213.5 -233t-312.5 -86.5q-84 0 -162 25.5t-145 77t-107 140.5t-40 205q0 131 45.5 248.5t124 204t192 137.5t242.5 51z
M838 614q0 120 -62.5 184t-157.5 64q-77 0 -141 -37t-104.5 -97.5t-63 -134t-22.5 -149.5q0 -118 62.5 -181.5t158.5 -63.5q102 0 179.5 63.5t114 156.5t36.5 195z" />
    <glyph glyph-name="divide" unicode="&#xf7;" horiz-adv-x="913" 
d="M516 795q-54 0 -85.5 38t-22.5 95q5 40 38 68t76 28q53 0 84.5 -37.5t22.5 -91.5q-5 -41 -37.5 -70.5t-75.5 -29.5zM84 659h786l-30 -184h-787zM408 111q-54 0 -86 38t-23 95q6 40 40.5 68t78.5 28q53 0 83 -37.5t21 -91.5q-6 -41 -39.5 -70.5t-74.5 -29.5z" />
    <glyph glyph-name="oslash" unicode="&#xf8;" horiz-adv-x="1165" 
d="M942 971q148 -124 148 -342q0 -177 -75 -323.5t-213.5 -233t-312.5 -86.5q-83 0 -159 24l-72 -112h-221l131 204q-133 120 -133 332q0 131 45.5 248.5t124 204t192 137.5t242.5 51q69 0 137 -18l80 127h221zM287 444q0 -66 22 -118l340 534q-10 2 -31 2q-77 0 -141 -37
t-104.5 -97.5t-63 -134t-22.5 -149.5zM508 199q102 0 179.5 63.5t114 156.5t36.5 195q0 80 -33 144l-352 -553q27 -6 55 -6z" />
    <glyph glyph-name="ugrave" unicode="&#xf9;" horiz-adv-x="1202" 
d="M805 1190h-234l-231 262h369zM901 1065h262l-168 -1065h-262l33 207q-19 -32 -51 -66.5t-79 -70.5t-111.5 -59t-133.5 -23q-87 0 -152 23t-113 75t-62 135.5t2 204.5l102 639h262l-102 -637q-18 -117 25 -166t132 -49q55 0 110 23.5t95.5 58.5t69 71t41.5 66z" />
    <glyph glyph-name="uacute" unicode="&#xfa;" horiz-adv-x="1202" 
d="M1081 1452l-270 -262h-231l137 262h364zM901 1065h262l-168 -1065h-262l33 207q-19 -32 -51 -66.5t-79 -70.5t-111.5 -59t-133.5 -23q-87 0 -152 23t-113 75t-62 135.5t2 204.5l102 639h262l-102 -637q-18 -117 25 -166t132 -49q55 0 110 23.5t95.5 58.5t69 71t41.5 66z
" />
    <glyph glyph-name="ucircumflex" unicode="&#xfb;" horiz-adv-x="1202" 
d="M707 1335l-215 -166h-211l196 283h479l109 -283h-201zM901 1065h262l-168 -1065h-262l33 207q-19 -32 -51 -66.5t-79 -70.5t-111.5 -59t-133.5 -23q-87 0 -152 23t-113 75t-62 135.5t2 204.5l102 639h262l-102 -637q-18 -117 25 -166t132 -49q55 0 110 23.5t95.5 58.5
t69 71t41.5 66z" />
    <glyph glyph-name="udieresis" unicode="&#xfc;" horiz-adv-x="1202" 
d="M627 1452l-33 -213h-268l32 213h269zM1094 1452l-31 -213h-268l32 213h267zM901 1065h262l-168 -1065h-262l33 207q-19 -32 -51 -66.5t-79 -70.5t-111.5 -59t-133.5 -23q-87 0 -152 23t-113 75t-62 135.5t2 204.5l102 639h262l-102 -637q-18 -117 25 -166t132 -49
q55 0 110 23.5t95.5 58.5t69 71t41.5 66z" />
    <glyph glyph-name="yacute" unicode="&#xfd;" horiz-adv-x="1142" 
d="M557 1190h231l271 262h-365zM905 1065h271l-631 -1112q-123 -218 -247.5 -295t-326.5 -53l35 217q65 -7 116 3t86.5 35.5t59.5 55t45 70.5q21 39 25.5 58.5t-2.5 61.5l-242 959h260l160 -737z" />
    <glyph glyph-name="thorn" unicode="&#xfe;" horiz-adv-x="1185" 
d="M731 1077q74 0 140 -25t121 -75t87.5 -135t32.5 -195q0 -128 -38.5 -248t-107 -212.5t-170 -148.5t-218.5 -56q-72 0 -128.5 20.5t-87 50.5t-46 57t-17.5 48l-90 -547h-262l289 1823h262l-80 -508q101 151 313 151zM537 195q77 0 139 39.5t100 105t58 143.5t20 160
q0 112 -52.5 166.5t-142.5 54.5q-78 0 -141.5 -39t-102.5 -103t-60 -141t-21 -157q0 -114 55 -171.5t148 -57.5z" />
    <glyph glyph-name="ydieresis" unicode="&#xff;" horiz-adv-x="1142" 
d="M336 1452h268l-33 -213h-268zM805 1452h266l-31 -213h-268zM905 1065h271l-631 -1112q-123 -218 -247.5 -295t-326.5 -53l35 217q65 -7 116 3t86.5 35.5t59.5 55t45 70.5q21 39 25.5 58.5t-2.5 61.5l-242 959h260l160 -737z" />
    <glyph glyph-name="Amacron" unicode="&#x100;" horiz-adv-x="1464" 
d="M1286 1821l-22 -154h-713l24 154h711zM1024 0l-57 295h-564l-151 -295h-295l776 1434h254l332 -1434h-295zM506 498h422l-117 594z" />
    <glyph glyph-name="amacron" unicode="&#x101;" horiz-adv-x="1163" 
d="M365 1452h710l-22 -154h-713zM1028 647l-63 -416q-6 -42 10.5 -59.5t58.5 -19.5l-26 -146q-45 -14 -103 -14q-98 0 -152.5 44.5t-37.5 117.5l6 24q-47 -58 -81 -87q-125 -105 -292 -105q-150 0 -243 70.5t-93 213.5q0 85 30 148.5t87 104t129.5 64t167.5 34.5
q19 3 95.5 12t105.5 13.5t75.5 15.5t75.5 24q16 110 -30 151.5t-136 41.5q-86 0 -139.5 -30.5t-77.5 -98.5h-248q41 165 155.5 245t326.5 80q247 0 339.5 -104t59.5 -324zM717 338l35 197q-81 -27 -291 -60q-187 -29 -187 -168q0 -63 39 -98t113 -35q53 0 104 18.5t88 48
t60.5 53t38.5 44.5z" />
    <glyph glyph-name="Abreve" unicode="&#x102;" horiz-adv-x="1464" 
d="M870 1520q-161 0 -235.5 83t-52.5 218h168q-9 -66 26.5 -100.5t112.5 -34.5q78 0 127.5 34.5t62.5 100.5h172q-22 -144 -117 -222.5t-264 -78.5zM1024 0l-57 295h-564l-151 -295h-295l776 1434h254l332 -1434h-295zM506 498h422l-117 594z" />
    <glyph glyph-name="abreve" unicode="&#x103;" horiz-adv-x="1163" 
d="M659 1151q-161 0 -235.5 83t-52.5 218h168q-9 -66 26.5 -100.5t112.5 -34.5q78 0 127.5 34.5t62.5 100.5h172q-22 -144 -117 -222.5t-264 -78.5zM1028 647l-63 -416q-6 -42 10.5 -59.5t58.5 -19.5l-26 -146q-45 -14 -103 -14q-98 0 -152.5 44.5t-37.5 117.5l6 24
q-47 -58 -81 -87q-125 -105 -292 -105q-150 0 -243 70.5t-93 213.5q0 85 30 148.5t87 104t129.5 64t167.5 34.5q19 3 95.5 12t105.5 13.5t75.5 15.5t75.5 24q16 110 -30 151.5t-136 41.5q-86 0 -139.5 -30.5t-77.5 -98.5h-248q41 165 155.5 245t326.5 80q247 0 339.5 -104
t59.5 -324zM717 338l35 197q-81 -27 -291 -60q-187 -29 -187 -168q0 -63 39 -98t113 -35q53 0 104 18.5t88 48t60.5 53t38.5 44.5z" />
    <glyph glyph-name="Aogonek" unicode="&#x104;" horiz-adv-x="1464" 
d="M1227 0q-157 -42 -231 -107.5t-83 -134.5q-9 -54 35.5 -64.5t126.5 17.5l-2 -121q-44 -21 -101.5 -32.5t-116 -7.5t-105.5 23t-72 63t-14 108q12 67 72.5 124.5t136 89t151.5 42.5l-57 295h-564l-151 -295h-295l776 1434h254l332 -1434h-92zM506 498h422l-117 594z" />
    <glyph glyph-name="aogonek" unicode="&#x105;" horiz-adv-x="1142" 
d="M965 231q-6 -42 10.5 -59.5t58.5 -19.5l-26 -146q-10 -4 -33 -8q-248 -75 -248 -219q0 -60 50.5 -77t129.5 9v-112q-53 -27 -124 -38t-139.5 -2t-115.5 53.5t-47 119.5q0 56 31 105t80.5 82t104.5 54.5t110 30.5h8q-57 18 -84.5 57t-15.5 93l6 24q-47 -58 -81 -87
q-125 -105 -292 -105q-150 0 -243 70.5t-93 213.5q0 85 30 148.5t87 104t129.5 64t167.5 34.5q19 3 95.5 12t105.5 13.5t75.5 15.5t75.5 24q16 110 -30 151.5t-136 41.5q-86 0 -139.5 -30.5t-77.5 -98.5h-248q41 165 155.5 245t326.5 80q247 0 339.5 -104t59.5 -324z
M717 338l35 197q-81 -27 -291 -60q-187 -29 -187 -168q0 -63 39 -98t113 -35q53 0 104 18.5t88 48t60.5 53t38.5 44.5z" />
    <glyph glyph-name="Cacute" unicode="&#x106;" horiz-adv-x="1366" 
d="M733 1559h232l270 262h-365zM659 219q125 0 206.5 53t133.5 162h267q-64 -218 -242.5 -335t-409.5 -117q-255 0 -403 145t-148 418q0 183 54 346.5t152.5 288.5t249 198.5t331.5 73.5q229 0 370 -116.5t134 -331.5h-269q-30 210 -268 210q-89 0 -165.5 -38t-130.5 -101
t-92 -146t-56.5 -173.5t-18.5 -182.5q0 -173 78.5 -263.5t226.5 -90.5z" />
    <glyph glyph-name="cacute" unicode="&#x107;" horiz-adv-x="1089" 
d="M512 1190h231l271 262h-365zM496 199q174 0 245 157h242q-127 -370 -508 -370q-68 0 -130.5 15t-119.5 48.5t-99.5 82.5t-67.5 122t-25 162q0 185 74 335t210.5 237t309.5 87q80 0 146.5 -18.5t124.5 -59t94 -116t42 -179.5h-233q-9 81 -52 120.5t-135 39.5
q-76 0 -139 -38.5t-103 -102t-61.5 -141.5t-21.5 -160q0 -105 56.5 -163t150.5 -58z" />
    <glyph glyph-name="Cdotaccent" unicode="&#x10a;" horiz-adv-x="1366" 
d="M760 1821h268l-33 -213h-268zM659 219q125 0 206.5 53t133.5 162h267q-64 -218 -242.5 -335t-409.5 -117q-255 0 -403 145t-148 418q0 183 54 346.5t152.5 288.5t249 198.5t331.5 73.5q229 0 370 -116.5t134 -331.5h-269q-30 210 -268 210q-89 0 -165.5 -38t-130.5 -101
t-92 -146t-56.5 -173.5t-18.5 -182.5q0 -173 78.5 -263.5t226.5 -90.5z" />
    <glyph glyph-name="cdotaccent" unicode="&#x10b;" horiz-adv-x="1089" 
d="M539 1452h268l-33 -213h-268zM496 199q174 0 245 157h242q-127 -370 -508 -370q-68 0 -130.5 15t-119.5 48.5t-99.5 82.5t-67.5 122t-25 162q0 185 74 335t210.5 237t309.5 87q80 0 146.5 -18.5t124.5 -59t94 -116t42 -179.5h-233q-9 81 -52 120.5t-135 39.5
q-76 0 -139 -38.5t-103 -102t-61.5 -141.5t-21.5 -160q0 -105 56.5 -163t150.5 -58z" />
    <glyph glyph-name="Ccaron" unicode="&#x10c;" horiz-adv-x="1366" 
d="M1065 1821h211l-197 -283h-479l-108 283h200l160 -166zM659 219q125 0 206.5 53t133.5 162h267q-64 -218 -242.5 -335t-409.5 -117q-255 0 -403 145t-148 418q0 183 54 346.5t152.5 288.5t249 198.5t331.5 73.5q229 0 370 -116.5t134 -331.5h-269q-30 210 -268 210
q-89 0 -165.5 -38t-130.5 -101t-92 -146t-56.5 -173.5t-18.5 -182.5q0 -173 78.5 -263.5t226.5 -90.5z" />
    <glyph glyph-name="ccaron" unicode="&#x10d;" horiz-adv-x="1089" 
d="M844 1452h211l-197 -283h-479l-109 283h201l160 -166zM496 199q174 0 245 157h242q-127 -370 -508 -370q-68 0 -130.5 15t-119.5 48.5t-99.5 82.5t-67.5 122t-25 162q0 185 74 335t210.5 237t309.5 87q80 0 146.5 -18.5t124.5 -59t94 -116t42 -179.5h-233
q-9 81 -52 120.5t-135 39.5q-76 0 -139 -38.5t-103 -102t-61.5 -141.5t-21.5 -160q0 -105 56.5 -163t150.5 -58z" />
    <glyph glyph-name="Dcaron" unicode="&#x10e;" horiz-adv-x="1382" 
d="M1034 1821h211l-196 -283h-480l-108 283h201l159 -166zM756 1434q285 0 434 -146.5t149 -427.5q0 -192 -52.5 -350.5t-152 -271.5t-250 -175.5t-339.5 -62.5h-525l226 1434h510zM547 250q131 0 232.5 47t164 130.5t94 192.5t31.5 240q0 171 -86.5 247.5t-273.5 76.5h-228
l-145 -934h211z" />
    <glyph glyph-name="dcaron" unicode="&#x10f;" horiz-adv-x="1505" 
d="M580 1075q71 0 127.5 -20.5t88 -52t48 -62t18.5 -55.5l88 549h264l-227 -1434h-264l25 156q-117 -170 -316 -170q-61 0 -117.5 15.5t-108 50t-90 84.5t-61 124t-22.5 164q0 127 40 245t110.5 208t174 144t222.5 54zM1206 1130h203l258 304h-301zM502 199q78 0 142 38
t103.5 100.5t60.5 138.5t21 155q0 112 -54.5 171.5t-149.5 59.5q-79 0 -143.5 -35.5t-105.5 -96t-63 -137t-22 -161.5q0 -115 60 -174t151 -59z" />
    <glyph glyph-name="Dcroat" unicode="&#x110;" horiz-adv-x="1443" 
d="M817 1434q285 0 434.5 -146.5t149.5 -427.5q0 -257 -91 -450t-272 -301.5t-432 -108.5h-524l96 614h-115l31 185h113l100 635h510zM608 250q131 0 232.5 47t164 130.5t94 192.5t31.5 240q0 171 -86.5 247.5t-273.5 76.5h-227l-60 -385h340l-30 -185h-338l-58 -364h211z
" />
    <glyph glyph-name="dcroat" unicode="&#x111;" horiz-adv-x="1241" 
d="M1346 1321l-25 -154h-150l-184 -1167h-264l25 156q-117 -170 -316 -170q-61 0 -117.5 15.5t-108 50t-90 84.5t-61 124t-22.5 164q0 127 40 245t110.5 208t174 144t222.5 54q71 0 127.5 -20.5t88 -52t48 -62t18.5 -55.5l45 282h-270l25 154h270l18 113h264l-18 -113h150z
M502 199q78 0 142 38t103.5 100.5t60.5 138.5t21 155q0 112 -54.5 171.5t-149.5 59.5q-79 0 -143.5 -35.5t-105.5 -96t-63 -137t-22 -161.5q0 -115 60 -174t151 -59z" />
    <glyph glyph-name="Emacron" unicode="&#x112;" horiz-adv-x="1179" 
d="M469 1821h711l-23 -154h-713zM1194 1196h-713l-55 -356h608l-35 -222h-610l-57 -380h731l-39 -238h-1006l228 1434h985z" />
    <glyph glyph-name="emacron" unicode="&#x113;" horiz-adv-x="1138" 
d="M1083 1452l-22 -154h-713l25 154h710zM631 1075q89 0 165.5 -25.5t137 -77t95 -137.5t34.5 -198q0 -38 -7 -100t-16 -93h-761v-14q0 -128 63 -188t174 -60q80 0 132.5 24.5t92.5 72.5h244q-75 -152 -199 -222.5t-303 -70.5q-86 0 -164.5 26.5t-143.5 78t-103.5 138
t-38.5 197.5q0 182 76.5 330t214 233.5t307.5 85.5zM815 606q8 24 8 68q0 94 -57 149.5t-154 55.5q-121 0 -199 -76t-112 -197h514z" />
    <glyph glyph-name="Edotaccent" unicode="&#x116;" horiz-adv-x="1179" 
d="M678 1821h268l-33 -213h-268zM1194 1196h-713l-55 -356h608l-35 -222h-610l-57 -380h731l-39 -238h-1006l228 1434h985z" />
    <glyph glyph-name="edotaccent" unicode="&#x117;" horiz-adv-x="1138" 
d="M850 1452l-33 -213h-268l33 213h268zM1040 444h-761v-14q0 -128 63 -188t174 -60q80 0 132.5 24.5t92.5 72.5h244q-75 -152 -199 -222.5t-303 -70.5q-86 0 -164.5 26.5t-143.5 78t-103.5 138t-38.5 197.5q0 182 76.5 330t214 233.5t307.5 85.5q89 0 165.5 -25.5t137 -77
t95 -137.5t34.5 -198q0 -38 -7 -100t-16 -93zM612 879q-121 0 -199 -76t-112 -197h514q8 24 8 68q0 94 -57 149.5t-154 55.5z" />
    <glyph glyph-name="Eogonek" unicode="&#x118;" horiz-adv-x="1189" 
d="M1194 1196h-713l-55 -356h608l-35 -222h-610l-57 -380h731l-39 -238h10q-155 -42 -228 -106.5t-85 -135.5q-9 -54 34.5 -64.5t127.5 17.5l-4 -121q-44 -21 -101.5 -32.5t-116 -7.5t-105.5 23t-71.5 63t-13.5 108q11 67 72 124.5t130.5 89t133.5 42.5h-789l228 1434h985z
" />
    <glyph glyph-name="eogonek" unicode="&#x119;" horiz-adv-x="1126" 
d="M627 1077q91 0 167 -26t135 -78.5t91.5 -138.5t32.5 -199q0 -60 -13 -143l-8 -46h-747v-16q0 -235 223 -235q69 0 130 25.5t99 70.5h252q-67 -132 -159 -203.5t-218 -93.5q-139 -44 -205 -106t-75 -128q-9 -52 34.5 -63t127.5 16l-5 -121q-44 -21 -101.5 -32.5
t-115.5 -7.5t-104.5 23t-71.5 63t-14 108q13 86 97.5 150.5t193.5 95.5q-69 14 -128.5 46.5t-108 84t-76 129.5t-27.5 174q0 181 75.5 329.5t212 235t306.5 86.5zM614 864q-111 0 -187.5 -65.5t-113.5 -175.5h490v24q0 114 -45 165.5t-144 51.5z" />
    <glyph glyph-name="Ecaron" unicode="&#x11a;" horiz-adv-x="1179" 
d="M983 1821h211l-197 -283h-479l-108 283h200l160 -166zM1194 1196h-713l-55 -356h608l-35 -222h-610l-57 -380h731l-39 -238h-1006l228 1434h985z" />
    <glyph glyph-name="ecaron" unicode="&#x11b;" horiz-adv-x="1126" 
d="M889 1151h-481l-107 283h201l160 -166l212 166h211zM627 1077q91 0 167 -26t135 -78.5t91.5 -138.5t32.5 -199q0 -60 -13 -143l-8 -46h-747v-16q0 -235 223 -235q69 0 130 25.5t99 70.5h252q-84 -165 -207.5 -237t-306.5 -72q-66 0 -128 15.5t-119.5 50.5t-100.5 85.5
t-68.5 126t-25.5 166.5q0 181 75.5 329.5t212 235t306.5 86.5zM614 864q-111 0 -187.5 -65.5t-113.5 -175.5h490v24q0 114 -45 165.5t-144 51.5z" />
    <glyph glyph-name="Gbreve" unicode="&#x11e;" horiz-adv-x="1406" 
d="M1077 1821h172q-22 -144 -117 -222.5t-264 -78.5q-161 0 -235.5 83t-52.5 218h168q-9 -66 26.5 -100.5t112.5 -34.5q78 0 127.5 34.5t62.5 100.5zM801 772h561l-14 -92q-58 -350 -231 -524t-488 -174q-264 0 -415 144t-151 413q0 184 54 349t152.5 290.5t249 199.5
t331.5 74q229 0 370 -116.5t134 -331.5h-269q-30 210 -268 210q-89 0 -165 -37.5t-130 -101t-92.5 -146.5t-57 -175t-18.5 -187q0 -169 80 -258.5t232 -89.5q170 0 274 82t143 256h-317z" />
    <glyph glyph-name="gbreve" unicode="&#x11f;" horiz-adv-x="1191" 
d="M926 1452h172q-22 -144 -117 -222.5t-264 -78.5q-161 0 -236 83t-53 218h168q-9 -66 26.5 -100.5t112.5 -34.5q78 0 128 34.5t63 100.5zM1153 1065l-164 -1042q-18 -116 -66 -203.5t-107.5 -138t-137 -81.5t-143.5 -41t-138 -10q-163 0 -273.5 66t-150.5 172l170 86
q63 -109 256 -109q146 0 224 65.5t106 215.5l21 111q-120 -168 -318 -168q-77 0 -146 25.5t-127 76t-92 137t-34 197.5q0 166 67.5 314t195 242.5t284.5 94.5q58 0 107 -14t80.5 -35t54 -47.5t33 -50t11.5 -43.5l27 180h260zM502 201q78 0 142 38.5t103.5 101.5t60.5 138.5
t21 153.5q0 111 -54.5 170t-149.5 59q-78 0 -143 -38t-106 -100.5t-63 -138.5t-22 -155q0 -114 60 -171.5t151 -57.5z" />
    <glyph glyph-name="Gdotaccent" unicode="&#x120;" horiz-adv-x="1406" 
d="M782 1821h269l-33 -213h-268zM801 772h561l-14 -92q-58 -350 -231 -524t-488 -174q-264 0 -415 144t-151 413q0 184 54 349t152.5 290.5t249 199.5t331.5 74q229 0 370 -116.5t134 -331.5h-269q-30 210 -268 210q-89 0 -165 -37.5t-130 -101t-92.5 -146.5t-57 -175
t-18.5 -187q0 -169 80 -258.5t232 -89.5q170 0 274 82t143 256h-317z" />
    <glyph glyph-name="gdotaccent" unicode="&#x121;" horiz-adv-x="1191" 
d="M631 1452h268l-33 -213h-268zM1153 1065l-164 -1042q-18 -116 -66 -203.5t-107.5 -138t-137 -81.5t-143.5 -41t-138 -10q-163 0 -273.5 66t-150.5 172l170 86q63 -109 256 -109q146 0 224 65.5t106 215.5l21 111q-120 -168 -318 -168q-77 0 -146 25.5t-127 76t-92 137
t-34 197.5q0 166 67.5 314t195 242.5t284.5 94.5q58 0 107 -14t80.5 -35t54 -47.5t33 -50t11.5 -43.5l27 180h260zM502 201q78 0 142 38.5t103.5 101.5t60.5 138.5t21 153.5q0 111 -54.5 170t-149.5 59q-78 0 -143 -38t-106 -100.5t-63 -138.5t-22 -155q0 -114 60 -171.5
t151 -57.5z" />
    <glyph glyph-name="Gcommaaccent" unicode="&#x122;" horiz-adv-x="1406" 
d="M801 772h561l-14 -92q-58 -350 -231 -524t-488 -174q-264 0 -415 144t-151 413q0 184 54 349t152.5 290.5t249 199.5t331.5 74q229 0 370 -116.5t134 -331.5h-269q-30 210 -268 210q-89 0 -165 -37.5t-130 -101t-92.5 -146.5t-57 -175t-18.5 -187q0 -169 80 -258.5
t232 -89.5q170 0 274 82t143 256h-317zM371 -735l14 82q118 32 141 184l11 63h-113l45 304h291l-49 -306q-12 -83 -39 -144.5t-58.5 -95.5t-75.5 -54t-81.5 -26t-85.5 -7z" />
    <glyph glyph-name="gcommaaccent" unicode="&#x123;" horiz-adv-x="1191" 
d="M819 1862l-14 -82q-118 -32 -141 -185l-11 -63h113l-45 -303h-291l49 305q12 83 39 144.5t58.5 95.5t75.5 54.5t81.5 26.5t85.5 7zM1153 1065l-164 -1042q-18 -116 -66 -203.5t-107.5 -138t-137 -81.5t-143.5 -41t-138 -10q-163 0 -273.5 66t-150.5 172l170 86
q63 -109 256 -109q146 0 224 65.5t106 215.5l21 111q-120 -168 -318 -168q-77 0 -146 25.5t-127 76t-92 137t-34 197.5q0 166 67.5 314t195 242.5t284.5 94.5q58 0 107 -14t80.5 -35t54 -47.5t33 -50t11.5 -43.5l27 180h260zM502 201q78 0 142 38.5t103.5 101.5t60.5 138.5
t21 153.5q0 111 -54.5 170t-149.5 59q-78 0 -143 -38t-106 -100.5t-63 -138.5t-22 -155q0 -114 60 -171.5t151 -57.5z" />
    <glyph glyph-name="Hbar" unicode="&#x126;" horiz-adv-x="1388" 
d="M1124 1434h275l-228 -1434h-274l94 600h-604l-94 -600h-275l228 1434h274l-41 -263h604zM424 823h604l21 133h-605z" />
    <glyph glyph-name="hbar" unicode="&#x127;" horiz-adv-x="1304" 
d="M881 1075q68 0 122 -14t99 -46t69.5 -82.5t34 -123.5t-7.5 -170l-100 -639h-262l102 641q33 217 -166 217q-60 0 -115 -23.5t-92.5 -60t-62.5 -72.5t-35 -67l-100 -635h-263l175 1112h-158l24 145h156l29 177h262l-29 -177h180l-22 -145h-180l-41 -258q17 32 49 67
t79 71.5t114 59.5t139 23z" />
    <glyph glyph-name="Imacron" unicode="&#x12a;" horiz-adv-x="512" 
d="M106 1821h711l-22 -154h-713zM295 0h-275l226 1434h274z" />
    <glyph glyph-name="imacron" unicode="&#x12b;" horiz-adv-x="464" 
d="M27 1452h710l-22 -154h-713zM176 1065h262l-168 -1065h-262z" />
    <glyph glyph-name="Iogonek" unicode="&#x12e;" horiz-adv-x="565" 
d="M291 1434h282l-225 -1434h-78q-156 -42 -230.5 -107t-84.5 -135q-9 -54 35.5 -64.5t128.5 17.5l-4 -121q-44 -21 -101.5 -32.5t-116 -7.5t-106 23t-72.5 63t-14 108q12 67 73 124.5t136.5 89t151.5 42.5z" />
    <glyph glyph-name="iogonek" unicode="&#x12f;" horiz-adv-x="634" 
d="M403 1452h269l-35 -213h-268zM123 0l168 1065h262l-168 -1065h-59q-157 -42 -231 -107.5t-83 -134.5q-9 -54 35.5 -64.5t126.5 17.5l-4 -121q-44 -21 -101 -32.5t-115 -7.5t-105.5 23t-72.5 63t-14 108q12 67 73 124.5t136.5 89t151.5 42.5z" />
    <glyph glyph-name="Idotaccent" unicode="&#x130;" horiz-adv-x="512" 
d="M315 1821h269l-33 -213h-268zM295 0h-275l226 1434h274z" />
    <glyph glyph-name="dotlessi" unicode="&#x131;" horiz-adv-x="464" 
d="M176 1065h262l-168 -1065h-262z" />
    <glyph glyph-name="IJ" unicode="&#x132;" horiz-adv-x="1566" 
d="M295 0h-275l226 1434h274zM623 344q93 -119 254 -119q235 0 280 279l146 930h274l-150 -942q-20 -133 -72 -232.5t-128.5 -158t-166.5 -87t-194 -28.5q-283 0 -415 188z" />
    <glyph glyph-name="Kcommaaccent" unicode="&#x136;" horiz-adv-x="1411" 
d="M1448 1434l-666 -650l494 -784h-303l-381 600l-242 -235l-57 -365h-275l228 1434h274l-112 -705l727 705h313zM432 -403l49 313h328l-51 -322q-13 -83 -43.5 -144t-66.5 -94t-85.5 -52.5t-89 -25t-88.5 -5.5v84q107 27 135 188l10 58h-98z" />
    <glyph glyph-name="kcommaaccent" unicode="&#x137;" 
d="M1171 1065l-524 -467l414 -598h-281l-313 438l-145 -129l-50 -309h-262l226 1434h262l-125 -801l481 432h317zM307 -406l45 304h291l-49 -306q-12 -83 -39 -144.5t-58.5 -95.5t-75.5 -54t-81.5 -26t-85.5 -7l14 82q119 33 142 184l10 63h-113z" />
    <glyph glyph-name="Lacute" unicode="&#x139;" horiz-adv-x="1163" 
d="M274 1559h232l270 262h-364zM330 238h676l-39 -238h-949l228 1434h274z" />
    <glyph glyph-name="lacute" unicode="&#x13a;" horiz-adv-x="481" 
d="M256 1559h229l273 262h-365zM223 1434h262l-225 -1434h-264z" />
    <glyph glyph-name="Lcommaaccent" unicode="&#x13b;" horiz-adv-x="1163" 
d="M330 238h676l-39 -238h-949l228 1434h274zM250 -735l14 82q119 33 142 184l10 63h-113l45 304h291l-49 -306q-12 -83 -39 -144.5t-58.5 -95.5t-75.5 -54t-81.5 -26t-85.5 -7z" />
    <glyph glyph-name="lcommaaccent" unicode="&#x13c;" horiz-adv-x="550" 
d="M274 1434h263l-226 -1434h-262zM-94 -733l-2 84q109 27 137 188l10 58h-100l51 313h328l-51 -322q-14 -83 -44.5 -144t-66.5 -94t-85 -52.5t-88.5 -25t-88.5 -5.5z" />
    <glyph glyph-name="Lcaron" unicode="&#x13d;" horiz-adv-x="1163" 
d="M330 238h676l-39 -238h-949l228 1434h274zM625 791l-2 83q113 33 137 189l8 57h-98l49 314h328l-50 -322q-14 -83 -44.5 -144t-66 -94t-84.5 -52.5t-88.5 -25t-88.5 -5.5z" />
    <glyph glyph-name="lcaron" unicode="&#x13e;" horiz-adv-x="856" 
d="M236 1434h262l-226 -1434h-262zM532 791v83q57 17 92 67.5t44 121.5l8 57h-98l49 314h327l-51 -322q-14 -83 -44 -144t-66 -94t-84.5 -52.5t-88 -25t-88.5 -5.5z" />
    <glyph glyph-name="Lslash" unicode="&#x141;" horiz-adv-x="1214" 
d="M379 238h676l-39 -238h-948l65 418l-151 -131l36 268l160 137l117 742h274l-73 -469l229 198h4l-37 -266l-241 -207z" />
    <glyph glyph-name="lslash" unicode="&#x142;" horiz-adv-x="622" 
d="M664 1139l-37 -256l-172 -156l-115 -727h-262l72 451l-146 -132l37 261l149 133l113 721h262l-69 -447z" />
    <glyph glyph-name="Nacute" unicode="&#x143;" horiz-adv-x="1421" 
d="M762 1559h231l271 262h-365zM1432 1434l-228 -1434h-284l-465 981h-6l-156 -981h-275l228 1434h274l473 -998h6l158 998h275z" />
    <glyph glyph-name="nacute" unicode="&#x144;" horiz-adv-x="1198" 
d="M592 1190h231l271 262h-365zM774 1075q85 0 149 -23t111 -75.5t60.5 -136.5t-2.5 -205l-101 -635h-262l102 637q39 221 -165 221q-60 0 -115 -24.5t-93 -61t-63 -73.5t-35 -68l-100 -631h-262l168 1065h262l-35 -215q14 25 35.5 52.5t57.5 59t77 56t96.5 41t114.5 16.5z
" />
    <glyph glyph-name="Ncommaaccent" unicode="&#x145;" horiz-adv-x="1421" 
d="M1432 1434l-228 -1434h-284l-465 981h-6l-156 -981h-275l228 1434h274l473 -998h6l158 998h275zM377 -735l14 82q118 32 141 184l11 63h-113l45 304h291l-49 -306q-12 -83 -39 -144.5t-58.5 -95.5t-75.5 -54t-81.5 -26t-85.5 -7z" />
    <glyph glyph-name="ncommaaccent" unicode="&#x146;" horiz-adv-x="1198" 
d="M774 1075q85 0 149 -23t111 -75.5t60.5 -136.5t-2.5 -205l-101 -635h-262l102 637q39 221 -165 221q-60 0 -115 -24.5t-93 -61t-63 -73.5t-35 -68l-100 -631h-262l168 1065h262l-35 -215q14 25 35.5 52.5t57.5 59t77 56t96.5 41t114.5 16.5zM266 -735l15 82
q118 32 141 184l10 63h-113l46 304h290l-49 -306q-12 -83 -39 -144.5t-58.5 -95.5t-75.5 -54t-81.5 -26t-85.5 -7z" />
    <glyph glyph-name="Ncaron" unicode="&#x147;" horiz-adv-x="1421" 
d="M1094 1821h211l-197 -283h-479l-109 283h201l160 -166zM1432 1434l-228 -1434h-284l-465 981h-6l-156 -981h-275l228 1434h274l473 -998h6l158 998h275z" />
    <glyph glyph-name="ncaron" unicode="&#x148;" horiz-adv-x="1198" 
d="M924 1452h211l-197 -283h-479l-109 283h201l160 -166zM774 1075q85 0 149 -23t111 -75.5t60.5 -136.5t-2.5 -205l-101 -635h-262l102 637q39 221 -165 221q-60 0 -115 -24.5t-93 -61t-63 -73.5t-35 -68l-100 -631h-262l168 1065h262l-35 -215q14 25 35.5 52.5t57.5 59
t77 56t96.5 41t114.5 16.5z" />
    <glyph glyph-name="Eng" unicode="&#x14a;" horiz-adv-x="1421" 
d="M1157 1434h275l-220 -1379q-21 -133 -74 -232.5t-129 -158t-165 -87t-193 -28.5q-283 0 -415 189l172 170q93 -119 254 -119q201 0 262 201l-469 991h-6l-156 -981h-275l228 1434h274l473 -998h8l86 561z" />
    <glyph glyph-name="eng" unicode="&#x14b;" horiz-adv-x="1198" 
d="M774 1079q85 0 149 -23t111 -75.5t60.5 -136.5t-2.5 -205l-123 -780q-50 -310 -334 -310q-140 0 -223 54l37 211q64 -35 135 -35q64 0 94 42t45 132l108 688q39 221 -165 221q-60 0 -115 -24.5t-93 -61t-63 -73.5t-35 -68l-100 -635h-262l168 1065h262l-35 -211
q14 25 35.5 52.5t57.5 59t77 56t96.5 41t114.5 16.5z" />
    <glyph glyph-name="Omacron" unicode="&#x14c;" horiz-adv-x="1480" 
d="M610 1821h711l-23 -154h-712zM866 1452q264 0 417 -149t153 -416q0 -184 -57 -349t-159.5 -288t-255 -195.5t-333.5 -72.5q-261 0 -413 148.5t-152 414.5q0 187 56 352t157.5 288.5t253 195t333.5 71.5zM668 219q92 0 171 36t135.5 98t96.5 144.5t59 175.5t19 191
q0 168 -82.5 259t-235.5 91q-115 0 -208.5 -55.5t-151.5 -148t-88.5 -206.5t-30.5 -237q0 -167 82.5 -257.5t233.5 -90.5z" />
    <glyph glyph-name="omacron" unicode="&#x14d;" horiz-adv-x="1165" 
d="M367 1452h710l-22 -154h-713zM639 1075q65 0 128 -16t122 -51t103 -85.5t71 -126.5t27 -167q0 -177 -75 -323.5t-213.5 -233t-312.5 -86.5q-84 0 -162 25.5t-145 77t-107 140.5t-40 205q0 131 45.5 248.5t124 204t192 137.5t242.5 51zM838 614q0 120 -62.5 184t-157.5 64
q-77 0 -141 -37t-104.5 -97.5t-63 -134t-22.5 -149.5q0 -118 62.5 -181.5t158.5 -63.5q102 0 179.5 63.5t114 156.5t36.5 195z" />
    <glyph glyph-name="Ohungarumlaut" unicode="&#x150;" horiz-adv-x="1480" 
d="M631 1559h235l230 262h-369zM1034 1559h236l229 262h-369zM866 1452q264 0 417 -149t153 -416q0 -184 -57 -349t-159.5 -288t-255 -195.5t-333.5 -72.5q-261 0 -413 148.5t-152 414.5q0 187 56 352t157.5 288.5t253 195t333.5 71.5zM668 219q92 0 171 36t135.5 98
t96.5 144.5t59 175.5t19 191q0 168 -82.5 259t-235.5 91q-115 0 -208.5 -55.5t-151.5 -148t-88.5 -206.5t-30.5 -237q0 -167 82.5 -257.5t233.5 -90.5z" />
    <glyph glyph-name="ohungarumlaut" unicode="&#x151;" horiz-adv-x="1165" 
d="M387 1190h236l229 262h-369zM791 1190h235l229 262h-368zM639 1075q65 0 128 -16t122 -51t103 -85.5t71 -126.5t27 -167q0 -177 -75 -323.5t-213.5 -233t-312.5 -86.5q-84 0 -162 25.5t-145 77t-107 140.5t-40 205q0 131 45.5 248.5t124 204t192 137.5t242.5 51zM838 614
q0 120 -62.5 184t-157.5 64q-77 0 -141 -37t-104.5 -97.5t-63 -134t-22.5 -149.5q0 -118 62.5 -181.5t158.5 -63.5q102 0 179.5 63.5t114 156.5t36.5 195z" />
    <glyph glyph-name="OE" unicode="&#x152;" horiz-adv-x="2195" 
d="M2210 1196h-713l-55 -356h608l-35 -222h-610l-57 -380h731l-39 -238h-1006l17 102q-183 -120 -420 -120q-261 0 -413 148.5t-152 414.5q0 187 56 352t157.5 288.5t253 195t333.5 71.5q231 0 379 -117l17 99h985zM668 219q92 0 171 36t135.5 98t96.5 144.5t59 175.5
t19 191q0 168 -82.5 259t-235.5 91q-115 0 -208.5 -55.5t-151.5 -148t-88.5 -206.5t-30.5 -237q0 -167 82.5 -257.5t233.5 -90.5z" />
    <glyph glyph-name="oe" unicode="&#x153;" horiz-adv-x="1923" 
d="M1067 444q-1 -2 -2 -7t-2 -7q0 -128 63 -188t174 -60q145 0 226 97h243q-75 -152 -199 -222.5t-302 -70.5q-110 0 -207.5 41.5t-159.5 124.5q-166 -166 -412 -166q-84 0 -162 25.5t-145 77t-107 140.5t-40 205q0 131 45.5 248.5t124 204t192 137.5t242.5 51
q106 0 204 -42t161 -126q168 168 411 168q89 0 165.5 -25.5t137 -77t95 -137.5t34.5 -198q0 -39 -6.5 -100.5t-15.5 -92.5h-758zM1397 879q-119 0 -195.5 -72t-111.5 -189v-12h509q9 27 9 68q0 94 -57 149.5t-154 55.5zM508 199q117 0 197.5 77.5t113.5 198.5q3 61 19 127
v12q0 120 -62.5 184t-157.5 64q-77 0 -141 -37t-104.5 -97.5t-63 -134t-22.5 -149.5q0 -118 62.5 -181.5t158.5 -63.5z" />
    <glyph glyph-name="Racute" unicode="&#x154;" horiz-adv-x="1357" 
d="M1239 1821l-270 -262h-232l137 262h365zM1028 662q102 -39 144 -94.5t42 -141.5q0 -32 -17 -161t-17 -167q0 -64 14 -98h-270q-19 34 -19 100q0 43 16.5 153.5t16.5 133.5q0 72 -50.5 111t-135.5 39h-375l-84 -537h-275l228 1434h604q233 0 347 -93.5t114 -253.5
q0 -299 -283 -425zM745 756q134 0 206.5 75.5t72.5 196.5q0 168 -215 168h-328l-69 -440h333z" />
    <glyph glyph-name="racute" unicode="&#x155;" horiz-adv-x="825" 
d="M901 1452l-270 -262h-232l138 262h364zM387 803q40 122 135.5 197t231.5 75q52 0 98 -10l-39 -227q-33 2 -68 2q-166 0 -261.5 -77t-137.5 -218l2 8l-88 -553h-262l168 1065h262z" />
    <glyph glyph-name="Rcommaaccent" unicode="&#x156;" horiz-adv-x="1357" 
d="M1028 662q102 -39 144 -94.5t42 -141.5q0 -32 -17 -161t-17 -167q0 -64 14 -98h-270q-19 34 -19 100q0 43 16.5 153.5t16.5 133.5q0 72 -50.5 111t-135.5 39h-375l-84 -537h-275l228 1434h604q233 0 347 -93.5t114 -253.5q0 -299 -283 -425zM745 756q134 0 206.5 75.5
t72.5 196.5q0 168 -215 168h-328l-69 -440h333zM406 -406l45 304h290l-49 -306q-12 -83 -39 -144.5t-58.5 -95.5t-75.5 -54t-81.5 -26t-85.5 -7l15 82q118 32 141 184l10 63h-112z" />
    <glyph glyph-name="rcommaaccent" unicode="&#x157;" horiz-adv-x="825" 
d="M754 1075q52 0 98 -10l-39 -227q-33 2 -68 2q-166 0 -261.5 -77t-137.5 -218l2 8l-88 -553h-262l168 1065h262l-41 -262q40 122 135.5 197t231.5 75zM-76 -406l45 304h291l-49 -306q-12 -83 -39 -144.5t-58.5 -95.5t-75.5 -54t-81.5 -26t-85.5 -7l14 82q119 33 142 184
l10 63h-113z" />
    <glyph glyph-name="Rcaron" unicode="&#x158;" horiz-adv-x="1357" 
d="M1083 1538h-479l-108 283h200l160 -166l213 166h211zM1028 662q102 -39 144 -94.5t42 -141.5q0 -32 -17 -161t-17 -167q0 -64 14 -98h-270q-19 34 -19 100q0 43 16.5 153.5t16.5 133.5q0 72 -50.5 111t-135.5 39h-375l-84 -537h-275l228 1434h604q233 0 347 -93.5
t114 -253.5q0 -299 -283 -425zM745 756q134 0 206.5 75.5t72.5 196.5q0 168 -215 168h-328l-69 -440h333z" />
    <glyph glyph-name="rcaron" unicode="&#x159;" horiz-adv-x="825" 
d="M745 1169h-479l-108 283h200l160 -166l213 166h211zM387 803q40 122 135.5 197t231.5 75q52 0 98 -10l-39 -227q-33 2 -68 2q-166 0 -261.5 -77t-137.5 -218l2 8l-88 -553h-262l168 1065h262z" />
    <glyph glyph-name="Sacute" unicode="&#x15a;" horiz-adv-x="1320" 
d="M694 1559h232l270 262h-365zM823 821q201 -39 295 -122.5t94 -239.5q0 -152 -81 -261t-220 -162.5t-321 -53.5q-258 0 -404 126.5t-127 346.5h285q4 -246 268 -246q144 0 225 60t81 165q0 72 -47 112.5t-146 61.5l-186 35q-357 73 -357 356q0 212 160 332.5t426 120.5
q247 0 378 -110t118 -314h-283q2 95 -57 146t-179 51q-128 0 -202 -54t-74 -147q0 -134 160 -164z" />
    <glyph glyph-name="sacute" unicode="&#x15b;" horiz-adv-x="1036" 
d="M500 1190h231l270 262h-364zM735 752q-14 127 -186 127q-88 0 -144.5 -37t-56.5 -99q0 -79 109 -108l172 -41q44 -11 69 -18t60.5 -19t55.5 -23.5t43 -29.5t35 -39t20 -49.5t8 -63.5q0 -90 -38 -160.5t-105.5 -115t-158 -67.5t-198.5 -23q-206 0 -317 87t-107 257h237
q14 -152 203 -152q98 0 159.5 42t61.5 108q0 41 -26 64.5t-86 35.5l-164 39q-150 35 -218.5 102t-68.5 172q0 152 131 243t336 91q199 0 300 -85.5t106 -237.5h-232z" />
    <glyph glyph-name="Scedilla" unicode="&#x15e;" horiz-adv-x="1320" 
d="M1264 1028h-283q2 95 -57 146t-179 51q-128 0 -202 -54t-74 -147q0 -134 160 -164l194 -39q201 -39 295 -122.5t94 -239.5q0 -207 -143.5 -329.5t-384.5 -143.5l-98 -105q83 0 141.5 -45.5t58.5 -128.5q0 -51 -21 -89t-55 -60t-86 -35.5t-105.5 -18t-123.5 -4.5v109
q97 2 144 23.5t47 68.5q0 48 -46.5 60t-93.5 -27l-63 102l88 154q-206 28 -317.5 150.5t-94.5 314.5h285q4 -246 268 -246q144 0 225 60t81 165q0 72 -47 112.5t-146 61.5l-186 35q-357 73 -357 356q0 212 160 332.5t426 120.5q247 0 378 -110t118 -314z" />
    <glyph glyph-name="scedilla" unicode="&#x15f;" horiz-adv-x="1036" 
d="M629 594q44 -11 69 -18t60.5 -19t55.5 -23.5t43 -29.5t35 -39t20 -49.5t8 -63.5q0 -153 -103.5 -244t-279.5 -114l-107 -113q83 0 142 -45.5t59 -128.5q0 -51 -21 -89t-55 -60t-86 -35.5t-105.5 -18t-123.5 -4.5v109q97 2 143.5 23.5t46.5 68.5q0 48 -46 60t-93 -27
l-64 102l90 156q-159 21 -242 105.5t-79 232.5h237q14 -152 203 -152q98 0 159.5 42t61.5 108q0 41 -26 64.5t-86 35.5l-164 39q-150 35 -218.5 102t-68.5 172q0 152 131 243t336 91q199 0 300 -85.5t106 -237.5h-232q-14 127 -186 127q-88 0 -144.5 -37t-56.5 -99
q0 -79 109 -108z" />
    <glyph glyph-name="Scaron" unicode="&#x160;" horiz-adv-x="1320" 
d="M1026 1821h211l-197 -283h-479l-108 283h200l160 -166zM823 821q201 -39 295 -122.5t94 -239.5q0 -152 -81 -261t-220 -162.5t-321 -53.5q-258 0 -404 126.5t-127 346.5h285q4 -246 268 -246q144 0 225 60t81 165q0 72 -47 112.5t-146 61.5l-186 35q-357 73 -357 356
q0 212 160 332.5t426 120.5q247 0 378 -110t118 -314h-283q2 95 -57 146t-179 51q-128 0 -202 -54t-74 -147q0 -134 160 -164z" />
    <glyph glyph-name="scaron" unicode="&#x161;" horiz-adv-x="1036" 
d="M831 1452h211l-196 -283h-479l-109 283h201l159 -166zM735 752q-14 127 -186 127q-88 0 -144.5 -37t-56.5 -99q0 -79 109 -108l172 -41q44 -11 69 -18t60.5 -19t55.5 -23.5t43 -29.5t35 -39t20 -49.5t8 -63.5q0 -90 -38 -160.5t-105.5 -115t-158 -67.5t-198.5 -23
q-206 0 -317 87t-107 257h237q14 -152 203 -152q98 0 159.5 42t61.5 108q0 41 -26 64.5t-86 35.5l-164 39q-150 35 -218.5 102t-68.5 172q0 152 131 243t336 91q199 0 300 -85.5t106 -237.5h-232z" />
    <glyph glyph-name="uni0162" unicode="&#x162;" horiz-adv-x="1232" 
d="M184 1434h1123l-39 -238h-424l-189 -1196h11l-152 -119q81 -8 130.5 -57.5t35.5 -134.5q-8 -48 -34.5 -83.5t-62.5 -56t-89.5 -32t-105.5 -15.5t-122 -4l2 109q196 3 213 108q4 26 -14 38.5t-50 6t-65 -31.5l-55 106l94 166h-10l188 1196h-424z" />
    <glyph glyph-name="uni0163" unicode="&#x163;" horiz-adv-x="757" 
d="M502 858l-88 -559q-9 -51 7 -73.5t66 -22.5q70 0 142 16l-33 -205q-47 -18 -104 -24l-105 -109q83 0 142 -45.5t59 -128.5q0 -51 -21 -89t-55 -60t-86 -35.5t-105.5 -18t-123.5 -4.5v109q97 2 143.5 23.5t46.5 68.5q0 48 -46 60t-93 -27l-64 102l97 166
q-80 25 -114.5 96.5t-12.5 208.5l88 551h-168l30 207h168l43 266h263l-43 -266h215l-33 -207h-215z" />
    <glyph glyph-name="Tcaron" unicode="&#x164;" horiz-adv-x="1232" 
d="M979 1821h211l-197 -283h-479l-108 283h200l160 -166zM1307 1434l-39 -238h-424l-189 -1196h-274l188 1196h-424l39 238h1123z" />
    <glyph glyph-name="tcaron" unicode="&#x165;" horiz-adv-x="747" 
d="M776 1434h314l-275 -304h-203zM578 1331l-43 -266h215l-33 -207h-215l-88 -559q-9 -51 7 -73.5t66 -22.5q70 0 142 16l-33 -205q-71 -28 -193 -28q-44 0 -79 5.5t-69 19t-55 37t-37.5 59t-16.5 85t8 115.5l88 551h-168l30 207h168l43 266h263z" />
    <glyph glyph-name="Tbar" unicode="&#x166;" horiz-adv-x="1232" 
d="M1268 1196h-424l-29 -178h221l-22 -156h-223l-136 -862h-274l135 862h-219l25 156h219l28 178h-424l39 238h1123z" />
    <glyph glyph-name="tbar" unicode="&#x167;" horiz-adv-x="761" 
d="M719 858h-215l-17 -108h213l-32 -207h-213l-39 -244q-9 -51 7 -73.5t66 -22.5q70 0 142 16l-33 -205q-71 -28 -192 -28q-44 0 -79 5.5t-69 19t-55.5 37t-38 59t-16.5 85t8 115.5l37 236h-168l30 207h170l19 108h-168l30 207h168l43 266h263l-43 -266h215z" />
    <glyph glyph-name="Utilde" unicode="&#x168;" horiz-adv-x="1394" 
d="M1153 1802h109q0 -110 -63.5 -180t-174.5 -70q-54 0 -107 24.5t-89.5 53.5t-86 53.5t-96.5 24.5q-38 0 -65 -20t-25 -48h-106q0 110 62.5 180t174.5 70q44 0 85.5 -16t75.5 -39t67 -46.5t71.5 -39.5t77.5 -16t65 20t25 49zM1407 1434l-139 -875q-44 -270 -225 -420.5
t-445 -150.5q-265 0 -399.5 150.5t-92.5 420.5l140 875h274l-137 -865q-27 -169 39 -256.5t213 -87.5t240 87t120 257l138 865h274z" />
    <glyph glyph-name="utilde" unicode="&#x169;" horiz-adv-x="1202" 
d="M475 1339q-38 0 -64.5 -19.5t-25.5 -47.5h-106q0 110 62.5 180t174.5 70q44 0 85.5 -16.5t75.5 -39.5t67 -46t71.5 -39.5t77.5 -16.5q38 0 64.5 20.5t25.5 49.5h109q0 -110 -63.5 -180t-174.5 -70q-44 0 -86.5 16t-76.5 39t-67 45.5t-71.5 38.5t-77.5 16zM901 1065h262
l-168 -1065h-262l33 207q-19 -32 -51 -66.5t-79 -70.5t-111.5 -59t-133.5 -23q-87 0 -152 23t-113 75t-62 135.5t2 204.5l102 639h262l-102 -637q-18 -117 25 -166t132 -49q55 0 110 23.5t95.5 58.5t69 71t41.5 66z" />
    <glyph glyph-name="Umacron" unicode="&#x16a;" horiz-adv-x="1394" 
d="M567 1821h711l-23 -154h-712zM1407 1434l-139 -875q-44 -270 -225 -420.5t-445 -150.5q-265 0 -399.5 150.5t-92.5 420.5l140 875h274l-137 -865q-27 -169 39 -256.5t213 -87.5t240 87t120 257l138 865h274z" />
    <glyph glyph-name="umacron" unicode="&#x16b;" horiz-adv-x="1202" 
d="M1108 1452l-23 -154h-712l24 154h711zM901 1065h262l-168 -1065h-262l33 207q-19 -32 -51 -66.5t-79 -70.5t-111.5 -59t-133.5 -23q-87 0 -152 23t-113 75t-62 135.5t2 204.5l102 639h262l-102 -637q-18 -117 25 -166t132 -49q55 0 110 23.5t95.5 58.5t69 71t41.5 66z
" />
    <glyph glyph-name="Ubreve" unicode="&#x16c;" horiz-adv-x="1394" 
d="M1071 1821h172q-22 -144 -117 -222.5t-264 -78.5q-161 0 -236 83t-53 218h168q-9 -66 27 -100.5t113 -34.5q78 0 127.5 34.5t62.5 100.5zM1407 1434l-139 -875q-44 -270 -225 -420.5t-445 -150.5q-265 0 -399.5 150.5t-92.5 420.5l140 875h274l-137 -865
q-27 -169 39 -256.5t213 -87.5t240 87t120 257l138 865h274z" />
    <glyph glyph-name="ubreve" unicode="&#x16d;" horiz-adv-x="1202" 
d="M692 1151q-161 0 -236 83t-53 218h168q-9 -66 27 -100.5t113 -34.5q78 0 127.5 34.5t62.5 100.5h172q-22 -144 -117 -222.5t-264 -78.5zM901 1065h262l-168 -1065h-262l33 207q-19 -32 -51 -66.5t-79 -70.5t-111.5 -59t-133.5 -23q-87 0 -152 23t-113 75t-62 135.5
t2 204.5l102 639h262l-102 -637q-18 -117 25 -166t132 -49q55 0 110 23.5t95.5 58.5t69 71t41.5 66z" />
    <glyph glyph-name="Uring" unicode="&#x16e;" horiz-adv-x="1394" 
d="M881 1559q-81 0 -132 50.5t-51 125.5q0 87 63 151t152 64q75 0 126 -51.5t51 -126.5q0 -84 -65 -148.5t-144 -64.5zM889 1671q35 0 61.5 27t26.5 61q0 33 -21 55.5t-53 22.5q-38 0 -66 -27.5t-28 -64.5q0 -32 22 -53t58 -21zM1407 1434l-139 -875q-44 -270 -225 -420.5
t-445 -150.5q-265 0 -399.5 150.5t-92.5 420.5l140 875h274l-137 -865q-27 -169 39 -256.5t213 -87.5t240 87t120 257l138 865h274z" />
    <glyph glyph-name="uring" unicode="&#x16f;" horiz-adv-x="1202" 
d="M711 1190q-81 0 -132 50.5t-51 125.5q0 87 63 151t152 64q75 0 126 -51.5t51 -126.5q0 -84 -65 -148.5t-144 -64.5zM733 1468q-38 0 -66 -27.5t-28 -64.5q0 -31 22 -52t58 -21q35 0 61.5 27t26.5 61q0 33 -21 55t-53 22zM901 1065h262l-168 -1065h-262l33 207
q-19 -32 -51 -66.5t-79 -70.5t-111.5 -59t-133.5 -23q-87 0 -152 23t-113 75t-62 135.5t2 204.5l102 639h262l-102 -637q-18 -117 25 -166t132 -49q55 0 110 23.5t95.5 58.5t69 71t41.5 66z" />
    <glyph glyph-name="Uhungarumlaut" unicode="&#x170;" horiz-adv-x="1394" 
d="M588 1559h235l230 262h-369zM991 1559h236l229 262h-369zM1407 1434l-139 -875q-44 -270 -225 -420.5t-445 -150.5q-265 0 -399.5 150.5t-92.5 420.5l140 875h274l-137 -865q-27 -169 39 -256.5t213 -87.5t240 87t120 257l138 865h274z" />
    <glyph glyph-name="uhungarumlaut" unicode="&#x171;" horiz-adv-x="1202" 
d="M883 1452l-230 -262h-235l96 262h369zM1057 1190h-236l97 262h368zM801 432l100 633h262l-168 -1065h-262l33 207q-19 -32 -51 -66.5t-79 -70.5t-111.5 -59t-133.5 -23q-87 0 -152 23t-113 75t-62 135.5t2 204.5l102 639h262l-102 -637q-18 -117 25 -166t132 -49
q55 0 110 23.5t95.5 58.5t69 71t41.5 66z" />
    <glyph glyph-name="Uogonek" unicode="&#x172;" horiz-adv-x="1394" 
d="M1133 1434h274l-139 -875q-38 -233 -181 -379t-356 -182h23q-157 -42 -231 -106.5t-83 -133.5q-9 -54 34.5 -64.5t127.5 17.5l-4 -121q-44 -21 -101 -32.5t-115 -7.5t-105.5 23t-72.5 63t-14 108q16 90 108 156t206 94q-221 27 -328.5 174t-69.5 391l140 875h274
l-137 -865q-27 -169 39 -256.5t213 -87.5t240 87t120 257z" />
    <glyph glyph-name="uogonek" unicode="&#x173;" horiz-adv-x="1202" 
d="M1163 1065l-168 -1065h-168l101 -2q-156 -42 -230 -106t-84 -134q-9 -54 35.5 -64.5t126.5 17.5l-2 -121q-44 -21 -101.5 -32.5t-116 -7.5t-105.5 23t-72 63t-14 108q12 67 72.5 125t136 90t151.5 43h8l33 205q-19 -32 -51 -66.5t-79 -70t-111.5 -58t-133.5 -22.5
q-87 0 -152 23t-113 74.5t-62 134.5t2 204l102 639h262l-102 -637q-18 -117 24.5 -165t132.5 -48q56 0 111 24t95 59.5t68 71.5t40 66l-21 -151l123 780h262z" />
    <glyph glyph-name="Wcircumflex" unicode="&#x174;" horiz-adv-x="2115" 
d="M1364 1538l-158 166l-215 -166h-211l197 283h479l109 -283h-201zM1884 1434h293l-637 -1434h-254l-168 1018l-493 -1018h-254l-187 1434h285l102 -1020l471 1020h269l145 -1020z" />
    <glyph glyph-name="wcircumflex" unicode="&#x175;" horiz-adv-x="1646" 
d="M1094 1169l-158 166l-215 -166h-211l197 283h479l108 -283h-200zM1679 1065l-473 -1065h-229l-139 754l-375 -754h-232l-137 1065h260l70 -735l354 735h209l119 -735l305 735h268z" />
    <glyph glyph-name="Ycircumflex" unicode="&#x176;" horiz-adv-x="1439" 
d="M1057 1538l-158 166l-215 -166h-211l197 283h479l108 -283h-200zM864 537l-84 -537h-282l84 537l-398 897h310l249 -633l453 633h305z" />
    <glyph glyph-name="ycircumflex" unicode="&#x177;" horiz-adv-x="1142" 
d="M842 1169l-158 166l-215 -166h-211l197 283h479l108 -283h-200zM905 1065h271l-631 -1112q-123 -218 -247.5 -295t-326.5 -53l35 217q65 -7 116 3t86.5 35.5t59.5 55t45 70.5q21 39 25.5 58.5t-2.5 61.5l-242 959h260l160 -737z" />
    <glyph glyph-name="Ydieresis" unicode="&#x178;" horiz-adv-x="1439" 
d="M551 1821h268l-33 -213h-268zM1020 1821h266l-31 -213h-268zM864 537l-84 -537h-282l84 537l-398 897h310l249 -633l453 633h305z" />
    <glyph glyph-name="Zacute" unicode="&#x179;" horiz-adv-x="1245" 
d="M659 1559h232l270 262h-364zM1118 238l-37 -238h-1104l33 211l928 985h-758l37 238h1083l-32 -211l-932 -985h782z" />
    <glyph glyph-name="zacute" unicode="&#x17a;" horiz-adv-x="1024" 
d="M467 1190h231l271 262h-365zM313 221h566l-33 -221h-875l31 221l668 623h-545l35 221h854l-35 -221z" />
    <glyph glyph-name="Zdotaccent" unicode="&#x17b;" horiz-adv-x="1245" 
d="M686 1821h268l-32 -213h-269zM1118 238l-37 -238h-1104l33 211l928 985h-758l37 238h1083l-32 -211l-932 -985h782z" />
    <glyph glyph-name="zdotaccent" unicode="&#x17c;" horiz-adv-x="1024" 
d="M494 1452h268l-33 -213h-268zM313 221h566l-33 -221h-875l31 221l668 623h-545l35 221h854l-35 -221z" />
    <glyph glyph-name="Zcaron" unicode="&#x17d;" horiz-adv-x="1245" 
d="M991 1821h211l-196 -283h-480l-108 283h200l160 -166zM1118 238l-37 -238h-1104l33 211l928 985h-758l37 238h1083l-32 -211l-932 -985h782z" />
    <glyph glyph-name="zcaron" unicode="&#x17e;" horiz-adv-x="1024" 
d="M799 1452h211l-197 -283h-479l-109 283h201l160 -166zM313 221h566l-33 -221h-875l31 221l668 623h-545l35 221h854l-35 -221z" />
    <glyph glyph-name="florin" unicode="&#x192;" horiz-adv-x="636" 
d="M666 1204q-76 0 -122 -53.5t-61 -151.5l-20 -131h141l-35 -225h-141l-106 -674q-33 -199 -138 -283t-327 -75l32 225q83 0 124.5 53t56.5 152l96 602h-146l35 225h146l32 203q61 384 469 359z" />
    <glyph glyph-name="uni01CD" unicode="&#x1cd;" horiz-adv-x="1464" 
d="M1104 1538h-479l-109 283h201l160 -166l213 166h210zM1024 0l-57 295h-564l-151 -295h-295l776 1434h254l332 -1434h-295zM506 498h422l-117 594z" />
    <glyph glyph-name="uni01CE" unicode="&#x1ce;" horiz-adv-x="1163" 
d="M893 1169h-479l-109 283h201l160 -166l213 166h211zM1028 647l-63 -416q-6 -42 10.5 -59.5t58.5 -19.5l-26 -146q-45 -14 -103 -14q-98 0 -152.5 44.5t-37.5 117.5l6 24q-47 -58 -81 -87q-125 -105 -292 -105q-150 0 -243 70.5t-93 213.5q0 85 30 148.5t87 104t129.5 64
t167.5 34.5q19 3 95.5 12t105.5 13.5t75.5 15.5t75.5 24q16 110 -30 151.5t-136 41.5q-86 0 -139.5 -30.5t-77.5 -98.5h-248q41 165 155.5 245t326.5 80q247 0 339.5 -104t59.5 -324zM717 338l35 197q-81 -27 -291 -60q-187 -29 -187 -168q0 -63 39 -98t113 -35
q53 0 104 18.5t88 48t60.5 53t38.5 44.5z" />
    <glyph glyph-name="uni01CF" unicode="&#x1cf;" horiz-adv-x="512" 
d="M621 1821h210l-196 -283h-479l-109 283h201l160 -166zM295 0h-275l226 1434h274z" />
    <glyph glyph-name="uni01D0" unicode="&#x1d0;" horiz-adv-x="464" 
d="M541 1452h211l-197 -283h-479l-109 283h201l160 -166zM176 1065h262l-168 -1065h-262z" />
    <glyph glyph-name="uni01D1" unicode="&#x1d1;" horiz-adv-x="1480" 
d="M1124 1821h211l-196 -283h-480l-108 283h201l159 -166zM866 1452q264 0 417 -149t153 -416q0 -184 -57 -349t-159.5 -288t-255 -195.5t-333.5 -72.5q-261 0 -413 148.5t-152 414.5q0 187 56 352t157.5 288.5t253 195t333.5 71.5zM668 219q92 0 171 36t135.5 98
t96.5 144.5t59 175.5t19 191q0 168 -82.5 259t-235.5 91q-115 0 -208.5 -55.5t-151.5 -148t-88.5 -206.5t-30.5 -237q0 -167 82.5 -257.5t233.5 -90.5z" />
    <glyph glyph-name="uni01D2" unicode="&#x1d2;" horiz-adv-x="1165" 
d="M881 1452h211l-197 -283h-479l-109 283h201l160 -166zM639 1075q65 0 128 -16t122 -51t103 -85.5t71 -126.5t27 -167q0 -177 -75 -323.5t-213.5 -233t-312.5 -86.5q-84 0 -162 25.5t-145 77t-107 140.5t-40 205q0 131 45.5 248.5t124 204t192 137.5t242.5 51zM838 614
q0 120 -62.5 184t-157.5 64q-77 0 -141 -37t-104.5 -97.5t-63 -134t-22.5 -149.5q0 -118 62.5 -181.5t158.5 -63.5q102 0 179.5 63.5t114 156.5t36.5 195z" />
    <glyph glyph-name="uni01D3" unicode="&#x1d3;" horiz-adv-x="1394" 
d="M1081 1821h211l-196 -283h-480l-108 283h201l159 -166zM1407 1434l-139 -875q-44 -270 -225 -420.5t-445 -150.5q-265 0 -399.5 150.5t-92.5 420.5l140 875h274l-137 -865q-27 -169 39 -256.5t213 -87.5t240 87t120 257l138 865h274z" />
    <glyph glyph-name="uni01D4" unicode="&#x1d4;" horiz-adv-x="1202" 
d="M926 1169h-480l-108 283h201l159 -166l213 166h211zM901 1065h262l-168 -1065h-262l33 207q-19 -32 -51 -66.5t-79 -70.5t-111.5 -59t-133.5 -23q-87 0 -152 23t-113 75t-62 135.5t2 204.5l102 639h262l-102 -637q-18 -117 25 -166t132 -49q55 0 110 23.5t95.5 58.5
t69 71t41.5 66z" />
    <glyph glyph-name="uni01EA" unicode="&#x1ea;" horiz-adv-x="1480" 
d="M1436 887q0 -215 -75 -400.5t-219 -315t-335 -171.5h10q-160 -42 -235 -107t-84 -135q-17 -103 161 -47l-4 -121q-44 -21 -101.5 -32.5t-115.5 -7.5t-104.5 23t-71.5 63t-14 108q14 84 99.5 148.5t193.5 93.5q-221 25 -348 171t-127 388q0 187 56 352t157.5 288.5
t253 195t333.5 71.5q264 0 417 -149t153 -416zM668 219q92 0 171 36t135.5 98t96.5 144.5t59 175.5t19 191q0 168 -82.5 259t-235.5 91q-115 0 -208.5 -55.5t-151.5 -148t-88.5 -206.5t-30.5 -237q0 -167 82.5 -257.5t233.5 -90.5z" />
    <glyph glyph-name="uni01EB" unicode="&#x1eb;" horiz-adv-x="1146" 
d="M627 1077q72 0 141 -20t132 -62.5t105 -109.5t60.5 -159.5t-2.5 -213.5q-14 -91 -47.5 -169.5t-77.5 -135t-100 -100t-112.5 -70t-117.5 -41.5q-155 -42 -227.5 -105.5t-81.5 -132.5q-9 -54 34.5 -64.5t127.5 17.5l-4 -121q-44 -21 -101.5 -32.5t-116 -7.5t-105.5 23
t-71.5 63t-13.5 108q9 61 61.5 114.5t118.5 86t138 49.5q-78 18 -142.5 58.5t-113.5 106t-68 165t0 221.5q17 111 62.5 202.5t105 151.5t132.5 101t144 59t140 18zM811 545q25 161 -29.5 240t-160.5 79q-116 0 -205.5 -88t-118.5 -264q-26 -160 28 -238.5t160 -78.5
q116 0 206.5 88t119.5 262z" />
    <glyph glyph-name="Scommaaccent" unicode="&#x218;" horiz-adv-x="1320" 
d="M823 821q201 -39 295 -122.5t94 -239.5q0 -152 -81 -261t-220 -162.5t-321 -53.5q-258 0 -404 126.5t-127 346.5h285q4 -246 268 -246q144 0 225 60t81 165q0 72 -47 112.5t-146 61.5l-186 35q-357 73 -357 356q0 212 160 332.5t426 120.5q247 0 378 -110t118 -314h-283
q2 95 -57 146t-179 51q-128 0 -202 -54t-74 -147q0 -134 160 -164zM330 -735l14 82q118 32 141 184l11 63h-113l45 304h291l-49 -306q-12 -83 -39 -144.5t-58.5 -95.5t-75.5 -54t-81.5 -26t-85.5 -7z" />
    <glyph glyph-name="scommaaccent" unicode="&#x219;" horiz-adv-x="1036" 
d="M735 752q-14 127 -186 127q-88 0 -144.5 -37t-56.5 -99q0 -79 109 -108l172 -41q44 -11 69 -18t60.5 -19t55.5 -23.5t43 -29.5t35 -39t20 -49.5t8 -63.5q0 -90 -38 -160.5t-105.5 -115t-158 -67.5t-198.5 -23q-206 0 -317 87t-107 257h237q14 -152 203 -152
q98 0 159.5 42t61.5 108q0 41 -26 64.5t-86 35.5l-164 39q-150 35 -218.5 102t-68.5 172q0 152 131 243t336 91q199 0 300 -85.5t106 -237.5h-232zM174 -735l14 82q119 33 142 184l10 63h-113l45 304h291l-49 -306q-12 -83 -39 -144.5t-58.5 -95.5t-75.5 -54t-81.5 -26
t-85.5 -7z" />
    <glyph glyph-name="uni021A" unicode="&#x21a;" horiz-adv-x="1232" 
d="M1307 1434l-39 -238h-424l-189 -1196h-274l188 1196h-424l39 238h1123zM272 -733l-2 84q114 28 138 188l10 58h-101l52 313h327l-51 -322q-14 -83 -44.5 -144t-66.5 -94t-85 -52.5t-88.5 -25t-88.5 -5.5z" />
    <glyph glyph-name="uni021B" unicode="&#x21b;" horiz-adv-x="757" 
d="M502 858l-88 -559q-9 -51 7 -73.5t66 -22.5q70 0 142 16l-33 -205q-71 -28 -193 -28q-44 0 -79 5.5t-69 19t-55 37t-37.5 59t-16.5 85t8 115.5l88 551h-168l30 207h168l43 266h263l-43 -266h215l-33 -207h-215zM184 -406l45 304h291l-49 -306q-12 -83 -39 -144.5
t-58.5 -95.5t-75.5 -54t-81.5 -26t-85.5 -7l14 82q119 33 142 184l10 63h-113z" />
    <glyph glyph-name="uni0237" unicode="&#x237;" horiz-adv-x="495" 
d="M-260 -186q61 -35 135 -35q63 0 92.5 42.5t44.5 131.5l176 1112h263l-193 -1206q-50 -310 -332 -310q-142 0 -225 54z" />
    <glyph glyph-name="circumflex" unicode="&#x2c6;" horiz-adv-x="784" 
d="M686 1169l-158 166l-215 -166h-211l197 283h479l109 -283h-201z" />
    <glyph glyph-name="caron" unicode="&#x2c7;" horiz-adv-x="784" 
d="M719 1452h211l-197 -283h-479l-109 283h201l160 -166z" />
    <glyph glyph-name="breve" unicode="&#x2d8;" horiz-adv-x="669" 
d="M643 1452h172q-22 -144 -117 -222.5t-264 -78.5q-161 0 -236 83t-53 218h168q-9 -66 27 -100.5t113 -34.5q78 0 127.5 34.5t62.5 100.5z" />
    <glyph glyph-name="dotaccent" unicode="&#x2d9;" horiz-adv-x="270" 
d="M145 1452h269l-33 -213h-268z" />
    <glyph glyph-name="ring" unicode="&#x2da;" horiz-adv-x="389" 
d="M317 1190q-80 0 -131 50.5t-51 125.5q0 87 63 151t152 64q75 0 125.5 -51.5t50.5 -126.5q0 -84 -65 -148.5t-144 -64.5zM326 1303q35 0 61.5 27t26.5 61q0 33 -21 55t-53 22q-38 0 -66 -27.5t-28 -64.5q0 -31 22 -52t58 -21z" />
    <glyph glyph-name="ogonek" unicode="&#x2db;" horiz-adv-x="468" 
d="M301 -406q-41 -21 -96 -33.5t-112.5 -10.5t-106.5 18.5t-80 57.5t-31 102q0 56 31 105t80.5 82t104.5 54.5t110 30.5h190q-150 -42 -210 -101.5t-60 -123.5q0 -60 50.5 -77t129.5 9v-113z" />
    <glyph glyph-name="tilde" unicode="&#x2dc;" horiz-adv-x="796" 
d="M827 1434h109q0 -110 -63.5 -180t-174.5 -70q-44 0 -86.5 16t-76.5 39t-67 45.5t-71.5 38.5t-77.5 16q-38 0 -64.5 -19.5t-25.5 -47.5h-106q0 110 62.5 180t174.5 70q44 0 85.5 -16.5t75.5 -39.5t67 -46t71.5 -39.5t77.5 -16.5q38 0 64.5 20.5t25.5 49.5z" />
    <glyph glyph-name="hungarumlaut" unicode="&#x2dd;" horiz-adv-x="827" 
d="M104 1190h236l229 262h-368zM508 1190h235l230 262h-369z" />
    <glyph glyph-name="uni0326" unicode="&#x326;" horiz-adv-x="0" 
d="M-487 -735l14 82q118 32 141 184l10 63h-112l45 304h291l-49 -306q-12 -83 -39 -144.5t-58.5 -95.5t-75.5 -54t-81.5 -26t-85.5 -7z" />
    <glyph glyph-name="uni0394" unicode="&#x394;" horiz-adv-x="1474" 
d="M1270 0h-1297l844 1434h60zM981 225l-190 785l-447 -785h637z" />
    <glyph glyph-name="uni03A9" unicode="&#x3a9;" horiz-adv-x="1562" 
d="M1513 827q0 -161 -72 -309.5t-202 -267.5h139l-39 -250h-469l45 307q174 127 252 245.5t78 266.5q0 174 -103.5 272.5t-260.5 98.5q-143 0 -267.5 -75.5t-196 -196.5t-71.5 -254q0 -126 36.5 -192.5t149.5 -164.5l-45 -307h-467l39 250h154q-135 167 -135 403
q0 156 65.5 302t175 254t261 173.5t315.5 65.5q128 0 241.5 -45t196.5 -125t131.5 -197t48.5 -254z" />
    <glyph glyph-name="uni03BC" unicode="&#x3bc;" horiz-adv-x="1200" 
d="M899 1065h262l-168 -1065h-262l33 207q-19 -32 -51 -66.5t-78.5 -70t-110.5 -58t-133 -22.5q-77 0 -129 16l-63 -395h-262l124 780q0 5 5 35l102 639h262l-106 -664q-8 -101 35 -143.5t126 -42.5q101 0 190 70t124 141z" />
    <glyph glyph-name="pi" unicode="&#x3c0;" horiz-adv-x="1447" 
d="M1163 840l-82 -521q-10 -63 4 -84.5t56 -21.5q18 0 33.5 1.5t31.5 5.5t25.5 7t29 10t27.5 9l-22 -223q-33 -17 -101 -26t-116 -9q-55 0 -100.5 12t-83 38t-54 74t-6.5 113l96 615h-328l-131 -840h-262l131 840h-205l37 225h1260l-37 -225h-203z" />
    <glyph glyph-name="uni0401" unicode="&#x401;" horiz-adv-x="1179" 
d="M430 1821h268l-32 -213h-269zM899 1821h266l-30 -213h-269zM1194 1196h-713l-55 -356h608l-35 -222h-610l-57 -380h731l-39 -238h-1006l228 1434h985z" />
    <glyph glyph-name="uni0403" unicode="&#x403;" horiz-adv-x="1077" 
d="M580 1559h231l270 262h-364zM1149 1434l-37 -238h-631l-188 -1196h-275l228 1434h903z" />
    <glyph glyph-name="uni0404" unicode="&#x404;" horiz-adv-x="1366" 
d="M817 1214q-154 0 -262.5 -104.5t-159.5 -269.5h416l-35 -222h-420q-2 -14 -2 -45q0 -173 78.5 -263.5t226.5 -90.5q125 0 206.5 53t133.5 162h267q-64 -218 -242.5 -335t-409.5 -117q-255 0 -403 145t-148 418q0 183 54 346.5t152.5 288.5t249 198.5t331.5 73.5
q229 0 370 -116.5t134 -331.5h-269q-30 210 -268 210z" />
    <glyph glyph-name="uni0407" unicode="&#x407;" horiz-adv-x="512" 
d="M68 1821h268l-33 -213h-268zM537 1821h266l-31 -213h-268zM295 0h-275l226 1434h274z" />
    <glyph glyph-name="uni040C" unicode="&#x40c;" horiz-adv-x="1411" 
d="M1251 1821l-270 -262h-231l137 262h364zM1448 1434l-666 -650l494 -784h-303l-381 600l-242 -235l-57 -365h-275l228 1434h274l-112 -705l727 705h313z" />
    <glyph glyph-name="uni040E" unicode="&#x40e;" horiz-adv-x="1247" 
d="M989 1821h172q-22 -144 -117 -222.5t-264 -78.5q-161 0 -235.5 83t-52.5 218h167q-9 -66 27 -100.5t113 -34.5q78 0 127.5 34.5t62.5 100.5zM1001 1434h308l-617 -1078q-134 -238 -269 -322.5t-341 -62.5l39 244q65 -7 113 0.5t80 29.5t50.5 44.5t38.5 58.5q52 95 21 199
l-240 887h299l170 -680z" />
    <glyph glyph-name="uni0410" unicode="&#x410;" horiz-adv-x="1464" 
d="M1024 0l-57 295h-564l-151 -295h-295l776 1434h254l332 -1434h-295zM506 498h422l-117 594z" />
    <glyph glyph-name="uni0411" unicode="&#x411;" horiz-adv-x="1304" 
d="M731 944q240 0 359.5 -102t119.5 -287q0 -263 -164.5 -409t-449.5 -146h-578l228 1434h903l-37 -238h-631l-39 -252h289zM618 233q139 0 219.5 86.5t80.5 219.5q0 170 -213 170h-299l-76 -476h288z" />
    <glyph glyph-name="uni0412" unicode="&#x412;" horiz-adv-x="1331" 
d="M995 782q108 -32 170 -116.5t62 -198.5q0 -150 -79 -257t-213.5 -158.5t-311.5 -51.5h-605l228 1434h571q205 0 311.5 -84.5t106.5 -231.5q0 -118 -64.5 -207t-175.5 -129zM723 864q100 0 161.5 58t61.5 157q0 62 -41 94.5t-114 32.5h-308l-53 -342h293zM635 227
q140 0 220.5 64.5t80.5 187.5q0 77 -51 125.5t-162 48.5h-326l-67 -426h305z" />
    <glyph glyph-name="uni0413" unicode="&#x413;" horiz-adv-x="1077" 
d="M1149 1434l-37 -238h-631l-188 -1196h-275l228 1434h903z" />
    <glyph glyph-name="uni0414" unicode="&#x414;" horiz-adv-x="1671" 
d="M1317 225h233l-57 -366h-262l22 141h-1034l-22 -141h-263l58 366h162q48 49 87 108.5t79.5 153.5t76 234.5t64.5 325.5l61 387h987zM451 225h591l154 971h-436l-27 -162q-58 -362 -125 -542.5t-157 -266.5z" />
    <glyph glyph-name="uni0415" unicode="&#x415;" horiz-adv-x="1179" 
d="M1194 1196h-713l-55 -356h608l-35 -222h-610l-57 -380h731l-39 -238h-1006l228 1434h985z" />
    <glyph glyph-name="uni0416" unicode="&#x416;" horiz-adv-x="2023" 
d="M2105 1434l-719 -709l502 -725h-309l-430 606l-96 -606h-275l96 610l-620 -610h-317l735 725l-490 709h310l419 -596l95 596h274l-94 -590l602 590h317z" />
    <glyph glyph-name="uni0417" unicode="&#x417;" horiz-adv-x="1226" 
d="M872 762q39 -4 81 -23.5t82.5 -54t66.5 -93.5t26 -132q0 -145 -81 -256.5t-216.5 -169.5t-302.5 -58q-248 0 -378 141t-89 359h238q-17 -124 51 -199t197 -75q133 0 228 74t95 194q0 88 -68 140.5t-214 52.5h-72l27 176h59q71 0 126.5 17.5t88 43t54 59t29 61.5t7.5 54
q0 73 -55 113.5t-141 40.5q-103 0 -183 -60.5t-102 -187.5h-242q35 229 177 351t364 122q200 0 319 -98.5t119 -245.5q0 -127 -83.5 -221.5t-207.5 -124.5z" />
    <glyph glyph-name="uni0418" unicode="&#x418;" horiz-adv-x="1421" 
d="M246 1434h274l-160 -998h5l784 998h283l-228 -1434h-274l155 981h-4l-768 -981h-295z" />
    <glyph glyph-name="uni0419" unicode="&#x419;" horiz-adv-x="1421" 
d="M1073 1821h172q-22 -144 -117 -222.5t-264 -78.5q-161 0 -236 83t-53 218h168q-9 -66 27 -100.5t113 -34.5q78 0 127.5 34.5t62.5 100.5zM246 1434h274l-160 -998h5l784 998h283l-228 -1434h-274l155 981h-4l-768 -981h-295z" />
    <glyph glyph-name="uni041A" unicode="&#x41a;" horiz-adv-x="1411" 
d="M1448 1434l-666 -650l494 -784h-303l-381 600l-242 -235l-57 -365h-275l228 1434h274l-112 -705l727 705h313z" />
    <glyph glyph-name="uni041B" unicode="&#x41b;" horiz-adv-x="1429" 
d="M1440 1434l-228 -1434h-274l188 1196h-483l-121 -752q-40 -253 -189.5 -366t-373.5 -92l25 237q50 -1 89 9t77 35.5t64 77t38 126.5l154 963h1034z" />
    <glyph glyph-name="uni041C" unicode="&#x41c;" horiz-adv-x="1742" 
d="M246 1434h315l268 -1074l588 1074h336l-227 -1434h-273l152 965h-10l-510 -965h-203l-227 965h-11l-151 -965h-275z" />
    <glyph glyph-name="uni041D" unicode="&#x41d;" horiz-adv-x="1388" 
d="M1124 1434h275l-228 -1434h-274l94 600h-604l-94 -600h-275l228 1434h274l-96 -611h604z" />
    <glyph glyph-name="uni041E" unicode="&#x41e;" horiz-adv-x="1480" 
d="M866 1452q264 0 417 -149t153 -416q0 -184 -57 -349t-159.5 -288t-255 -195.5t-333.5 -72.5q-261 0 -413 148.5t-152 414.5q0 187 56 352t157.5 288.5t253 195t333.5 71.5zM668 219q92 0 171 36t135.5 98t96.5 144.5t59 175.5t19 191q0 168 -82.5 259t-235.5 91
q-115 0 -208.5 -55.5t-151.5 -148t-88.5 -206.5t-30.5 -237q0 -167 82.5 -257.5t233.5 -90.5z" />
    <glyph glyph-name="uni041F" unicode="&#x41f;" horiz-adv-x="1388" 
d="M1399 1434l-228 -1434h-274l190 1196h-606l-188 -1196h-275l228 1434h1153z" />
    <glyph glyph-name="uni0420" unicode="&#x420;" horiz-adv-x="1306" 
d="M805 1434q238 0 355.5 -103.5t117.5 -290.5q0 -266 -171 -423.5t-458 -157.5h-284l-72 -459h-275l228 1434h559zM688 696q137 0 215 84.5t78 220.5q0 93 -54 144t-161 51h-285l-78 -500h285z" />
    <glyph glyph-name="uni0421" unicode="&#x421;" horiz-adv-x="1366" 
d="M659 219q125 0 206.5 53t133.5 162h267q-64 -218 -242.5 -335t-409.5 -117q-255 0 -403 145t-148 418q0 183 54 346.5t152.5 288.5t249 198.5t331.5 73.5q229 0 370 -116.5t134 -331.5h-269q-30 210 -268 210q-89 0 -165.5 -38t-130.5 -101t-92 -146t-56.5 -173.5
t-18.5 -182.5q0 -173 78.5 -263.5t226.5 -90.5z" />
    <glyph glyph-name="uni0422" unicode="&#x422;" horiz-adv-x="1232" 
d="M1307 1434l-39 -238h-424l-189 -1196h-274l188 1196h-424l39 238h1123z" />
    <glyph glyph-name="uni0423" unicode="&#x423;" horiz-adv-x="1247" 
d="M1001 1434h308l-617 -1078q-134 -238 -269 -322.5t-341 -62.5l39 244q65 -7 113 0.5t80 29.5t50.5 44.5t38.5 58.5q52 95 21 199l-240 887h299l170 -680z" />
    <glyph glyph-name="uni0424" unicode="&#x424;" horiz-adv-x="1468" 
d="M1419 817q0 -285 -173.5 -469.5t-459.5 -220.5l-24 -158h-273l25 160q-213 34 -332 161t-119 328q0 285 175.5 470t463.5 221l25 155h272l-24 -159q211 -34 327.5 -160.5t116.5 -327.5zM821 348q158 43 248 168.5t90 300.5q0 110 -55 181.5t-164 95.5zM324 618
q0 -109 57 -181.5t168 -96.5l119 747q-161 -43 -252.5 -168.5t-91.5 -300.5z" />
    <glyph glyph-name="uni0425" unicode="&#x425;" horiz-adv-x="1353" 
d="M1427 1434l-573 -695l375 -739h-307l-258 508l-418 -508h-309l608 739l-352 695h309l235 -463l381 463h309z" />
    <glyph glyph-name="uni0426" unicode="&#x426;" horiz-adv-x="1443" 
d="M1399 1434l-191 -1196h129l-86 -527h-262l47 289h-1018l228 1434h274l-188 -1196h604l188 1196h275z" />
    <glyph glyph-name="uni0427" unicode="&#x427;" horiz-adv-x="1323" 
d="M1059 1434h274l-227 -1434h-275l89 555q-22 -33 -61.5 -70.5t-98.5 -77t-141.5 -65t-169.5 -25.5q-199 0 -298.5 117.5t-60.5 360.5l103 639h272l-100 -639q-40 -234 198 -234q73 0 141.5 23t117.5 58.5t83 72t51 69.5z" />
    <glyph glyph-name="uni0428" unicode="&#x428;" horiz-adv-x="1705" 
d="M1442 1434h272l-225 -1434h-1471l228 1434h274l-188 -1196h323l189 1196h274l-190 -1196h323z" />
    <glyph glyph-name="uni0429" unicode="&#x429;" horiz-adv-x="1769" 
d="M1714 1434l-188 -1196h137l-86 -527h-262l47 289h-1344l228 1434h274l-188 -1196h323l189 1196h274l-190 -1196h323l191 1196h272z" />
    <glyph glyph-name="uni042A" unicode="&#x42a;" horiz-adv-x="1386" 
d="M811 944q240 0 360.5 -102t120.5 -287q0 -263 -164.5 -409t-451.5 -146h-565l190 1196h-168l39 238h440l-77 -490h276zM698 233q139 0 220 86.5t81 219.5q0 170 -213 170h-290l-72 -476h274z" />
    <glyph glyph-name="uni042B" unicode="&#x42b;" horiz-adv-x="1763" 
d="M719 944q240 0 360.5 -102t120.5 -287q0 -263 -164.5 -409t-451.5 -146h-566l228 1434h274l-78 -490h277zM1546 0h-274l225 1434h275zM606 233q139 0 220 86.5t81 219.5q0 170 -213 170h-291l-71 -476h274z" />
    <glyph glyph-name="uni042C" unicode="&#x42c;" horiz-adv-x="1294" 
d="M719 944q240 0 360.5 -102t120.5 -287q0 -263 -164.5 -409t-451.5 -146h-566l228 1434h274l-78 -490h277zM606 233q139 0 220 86.5t81 219.5q0 170 -213 170h-291l-71 -476h274z" />
    <glyph glyph-name="uni042D" unicode="&#x42d;" horiz-adv-x="1415" 
d="M805 1452q260 0 410.5 -147t150.5 -418q0 -186 -52.5 -350t-148.5 -287.5t-242.5 -195.5t-324.5 -72q-153 0 -272 50.5t-188.5 154.5t-65.5 247h266q24 -116 82.5 -165.5t179.5 -49.5q165 0 279.5 111t164.5 288h-432l35 222h432v41q0 160 -74.5 246.5t-213.5 86.5
q-127 0 -209 -52.5t-142 -157.5h-274q43 148 141.5 251t225 150t272.5 47z" />
    <glyph glyph-name="uni042E" unicode="&#x42e;" horiz-adv-x="1978" 
d="M1362 1452q264 0 416.5 -149t152.5 -416q0 -184 -57 -349t-159.5 -288t-255 -195.5t-333.5 -72.5q-261 0 -413 148.5t-152 414.5q0 37 2 55h-174l-94 -600h-275l226 1434h274l-96 -611h172q71 281 273.5 455t492.5 174zM1163 219q92 0 171.5 36t135.5 98t96 144.5
t59.5 175.5t19.5 191q0 168 -82.5 259t-235.5 91q-115 0 -208.5 -55.5t-151.5 -148t-88.5 -206.5t-30.5 -237q0 -167 82 -257.5t233 -90.5z" />
    <glyph glyph-name="uni042F" unicode="&#x42f;" horiz-adv-x="1361" 
d="M1372 1434l-227 -1434h-275l86 537h-354q-108 0 -179.5 -57.5t-88.5 -174.5l-10 -72q-13 -92 -30 -141.5t-48 -91.5h-279q68 92 86 246l10 82q17 133 85 216t192 126q-73 37 -118.5 111t-45.5 184q0 218 160 343.5t422 125.5h614zM655 756h336l70 440h-318
q-138 0 -215 -71.5t-77 -184.5q0 -88 52.5 -136t151.5 -48z" />
    <glyph glyph-name="uni0430" unicode="&#x430;" horiz-adv-x="1163" 
d="M965 231q-6 -42 10.5 -59.5t58.5 -19.5l-26 -146q-45 -14 -103 -14q-98 0 -152.5 44.5t-37.5 117.5l6 24q-47 -58 -81 -87q-125 -105 -292 -105q-150 0 -243 70.5t-93 213.5q0 85 30 148.5t87 104t129.5 64t167.5 34.5q19 3 95.5 12t105.5 13.5t75.5 15.5t75.5 24
q16 110 -30 151.5t-136 41.5q-86 0 -139.5 -30.5t-77.5 -98.5h-248q41 165 155.5 245t326.5 80q247 0 339.5 -104t59.5 -324zM717 338l35 197q-81 -27 -291 -60q-187 -29 -187 -168q0 -63 39 -98t113 -35q53 0 104 18.5t88 48t60.5 53t38.5 44.5z" />
    <glyph glyph-name="uni0431" unicode="&#x431;" horiz-adv-x="1175" 
d="M700 1067q55 0 109.5 -14.5t107 -48.5t92.5 -83t64.5 -124t24.5 -166q0 -181 -77 -329.5t-215 -234t-308 -85.5q-105 0 -186.5 32.5t-133.5 91t-83 140t-34.5 180t11.5 209.5l41 274q40 272 178 398.5t373 126.5h88q112 0 166 47h241q-56 -147 -141 -199.5t-252 -52.5
h-117q-117 0 -184.5 -64t-89.5 -174l-17 -73q33 64 128.5 106.5t213.5 42.5zM512 195q79 0 144.5 36t107 95.5t64 133.5t22.5 152q0 128 -61.5 191t-157.5 63q-79 0 -144.5 -36t-107 -95t-64 -133t-22.5 -153q0 -129 61.5 -191.5t157.5 -62.5z" />
    <glyph glyph-name="uni0432" unicode="&#x432;" horiz-adv-x="1150" 
d="M881 586q89 -28 138.5 -91t49.5 -153q0 -94 -40 -162.5t-113.5 -106.5t-163.5 -55.5t-203 -17.5h-551l168 1065h262l-66 -422h273q96 0 138 35.5t42 83.5q0 92 -135 92h-285l33 211h274q166 0 263.5 -61t97.5 -175q0 -78 -43 -144t-139 -99zM575 213q240 0 240 160
q0 106 -184 106h-295l4 27l-47 -293h282z" />
    <glyph glyph-name="uni0433" unicode="&#x433;" horiz-adv-x="899" 
d="M926 1065l-35 -207h-496l-135 -858h-262l168 1065h760z" />
    <glyph glyph-name="uni0434" unicode="&#x434;" horiz-adv-x="1333" 
d="M1264 1065l-136 -858h95l-54 -322h-239l20 115h-755l-19 -115h-239l53 322h67q86 68 128.5 198t82.5 381l45 279h951zM322 207h544l101 651h-424l-15 -84q-32 -233 -81 -373t-125 -194z" />
    <glyph glyph-name="uni0435" unicode="&#x435;" horiz-adv-x="1138" 
d="M1040 444h-761v-14q0 -128 63 -188t174 -60q80 0 132.5 24.5t92.5 72.5h244q-75 -152 -199 -222.5t-303 -70.5q-86 0 -164.5 26.5t-143.5 78t-103.5 138t-38.5 197.5q0 182 76.5 330t214 233.5t307.5 85.5q89 0 165.5 -25.5t137 -77t95 -137.5t34.5 -198q0 -38 -7 -100
t-16 -93zM612 879q-121 0 -199 -76t-112 -197h514q8 24 8 68q0 94 -57 149.5t-154 55.5z" />
    <glyph glyph-name="uni0436" unicode="&#x436;" horiz-adv-x="1736" 
d="M1784 1065l-592 -535l434 -530h-319l-334 416l-66 -416h-262l66 414l-461 -414h-328l606 530l-422 535h322l320 -416l65 416h262l-65 -416l448 416h326z" />
    <glyph glyph-name="uni0437" unicode="&#x437;" horiz-adv-x="1110" 
d="M780 561q21 -5 43.5 -12.5t54.5 -25.5t56 -41.5t41.5 -62.5t17.5 -85q0 -108 -73.5 -189.5t-194.5 -122t-270 -40.5q-230 0 -345.5 107.5t-80.5 305.5h235q-22 -223 215 -223q111 0 186.5 50.5t75.5 131.5q0 130 -254 133l9 136q116 2 187 42.5t71 112.5q0 53 -47 82
t-121 29q-89 0 -155.5 -49.5t-80.5 -126.5h-233q26 174 155.5 270t327.5 96q182 0 293 -72t111 -190q0 -97 -60 -165t-164 -91z" />
    <glyph glyph-name="uni0438" unicode="&#x438;" horiz-adv-x="1222" 
d="M166 1065h262l-109 -700h5l587 700h273l-168 -1065h-262l106 684h-4l-577 -684h-281z" />
    <glyph glyph-name="uni0439" unicode="&#x439;" horiz-adv-x="1222" 
d="M920 1452h172q-22 -144 -117 -222.5t-264 -78.5q-161 0 -236 83t-53 218h168q-9 -66 26.5 -100.5t112.5 -34.5q78 0 128 34.5t63 100.5zM166 1065h262l-109 -700h5l587 700h273l-168 -1065h-262l106 684h-4l-577 -684h-281z" />
    <glyph glyph-name="uni043A" unicode="&#x43a;" horiz-adv-x="1138" 
d="M1186 1065l-580 -535l420 -530h-313l-369 465l-74 -465h-262l168 1065h262l-73 -465l499 465h322z" />
    <glyph glyph-name="uni043B" unicode="&#x43b;" horiz-adv-x="1271" 
d="M1233 1065l-168 -1065h-250l125 858h-375l-67 -422q-40 -252 -186 -358.5t-371 -85.5l34 207q50 -1 89.5 10.5t76 39.5t62 82t37.5 132l96 602h897z" />
    <glyph glyph-name="uni043C" unicode="&#x43c;" horiz-adv-x="1495" 
d="M176 1065h303l215 -762l457 762h305l-168 -1065h-262l104 645h-8l-372 -645h-197l-168 641h-12l-103 -641h-262z" />
    <glyph glyph-name="uni043D" unicode="&#x43d;" horiz-adv-x="1136" 
d="M166 1065h262l-63 -408h407l64 408h262l-168 -1065h-262l71 451h-407l-72 -451h-262z" />
    <glyph glyph-name="uni043E" unicode="&#x43e;" horiz-adv-x="1165" 
d="M639 1075q65 0 128 -16t122 -51t103 -85.5t71 -126.5t27 -167q0 -177 -75 -323.5t-213.5 -233t-312.5 -86.5q-84 0 -162 25.5t-145 77t-107 140.5t-40 205q0 131 45.5 248.5t124 204t192 137.5t242.5 51zM838 614q0 120 -62.5 184t-157.5 64q-77 0 -141 -37t-104.5 -97.5
t-63 -134t-22.5 -149.5q0 -118 62.5 -181.5t158.5 -63.5q102 0 179.5 63.5t114 156.5t36.5 195z" />
    <glyph glyph-name="uni043F" unicode="&#x43f;" horiz-adv-x="1130" 
d="M1092 1065l-168 -1065h-262l135 858h-402l-135 -858h-262l168 1065h926z" />
    <glyph glyph-name="uni0440" unicode="&#x440;" horiz-adv-x="1206" 
d="M438 1065l-24 -158q50 69 133 118.5t203 49.5q74 0 140.5 -25.5t122 -76t88 -137t32.5 -197.5q0 -125 -40.5 -243t-110.5 -209t-174.5 -146t-223.5 -55q-74 0 -131 21t-88 53t-46.5 62.5t-17.5 57.5l-92 -569h-262l229 1454h262zM541 199q104 0 181.5 63.5t114.5 160
t37 208.5q0 115 -59.5 173t-150.5 58q-104 0 -180.5 -63.5t-112 -158.5t-35.5 -204q0 -117 55 -177t150 -60z" />
    <glyph glyph-name="uni0441" unicode="&#x441;" horiz-adv-x="1089" 
d="M496 199q174 0 245 157h242q-127 -370 -508 -370q-68 0 -130.5 15t-119.5 48.5t-99.5 82.5t-67.5 122t-25 162q0 185 74 335t210.5 237t309.5 87q80 0 146.5 -18.5t124.5 -59t94 -116t42 -179.5h-233q-9 81 -52 120.5t-135 39.5q-76 0 -139 -38.5t-103 -102t-61.5 -141.5
t-21.5 -160q0 -105 56.5 -163t150.5 -58z" />
    <glyph glyph-name="uni0442" unicode="&#x442;" horiz-adv-x="1034" 
d="M1047 1065l-33 -207h-334l-135 -858h-262l135 858h-336l33 207h932z" />
    <glyph glyph-name="uni0443" unicode="&#x443;" horiz-adv-x="1142" 
d="M905 1065h271l-631 -1112q-123 -218 -247.5 -295t-326.5 -53l35 217q65 -7 116 3t86.5 35.5t59.5 55t45 70.5q21 39 25.5 58.5t-2.5 61.5l-242 959h260l160 -737z" />
    <glyph glyph-name="uni0444" unicode="&#x444;" horiz-adv-x="1251" 
d="M1176 618q0 -249 -149.5 -421.5t-381.5 -206.5l-57 -369h-246l59 375q-161 34 -263.5 143.5t-102.5 294.5q0 253 150.5 427t385.5 210l60 377h246l-62 -383q76 -17 139.5 -51.5t114 -88.5t79 -132.5t28.5 -174.5zM680 199q136 41 210.5 155.5t74.5 272.5q0 200 -181 243z
M248 428q0 -197 184 -240l107 676q-138 -41 -214.5 -157.5t-76.5 -278.5z" />
    <glyph glyph-name="uni0445" unicode="&#x445;" horiz-adv-x="1118" 
d="M1141 1065l-449 -518l305 -547h-280l-195 358l-303 -358h-293l488 555l-287 510h279l172 -320l272 320h291z" />
    <glyph glyph-name="uni0446" unicode="&#x446;" horiz-adv-x="1198" 
d="M1092 1065l-136 -858h123l-80 -494h-249l47 287h-799l168 1065h262l-135 -858h401l135 858h263z" />
    <glyph glyph-name="uni0447" unicode="&#x447;" horiz-adv-x="1157" 
d="M856 1065h262l-168 -1065h-262l76 485q-45 -76 -145 -143.5t-226 -67.5q-87 0 -152.5 23.5t-112 74.5t-61 131t0.5 193l57 369h262l-59 -369q-17 -104 28 -153t138 -49q58 0 111 20.5t90 53t63 66t41 66.5z" />
    <glyph glyph-name="uni0448" unicode="&#x448;" horiz-adv-x="1607" 
d="M1307 1065h262l-168 -1065h-1393l168 1065h262l-135 -858h311l136 858h245l-133 -858h309z" />
    <glyph glyph-name="uni0449" unicode="&#x449;" horiz-adv-x="1640" 
d="M1559 1065l-136 -858h99l-78 -494h-250l45 287h-1241l168 1065h262l-135 -858h311l135 858h246l-133 -858h309l135 858h263z" />
    <glyph glyph-name="uni044A" unicode="&#x44a;" horiz-adv-x="1312" 
d="M815 700q182 0 286.5 -81.5t104.5 -223.5q0 -186 -135 -290.5t-352 -104.5h-553l135 858h-209l33 207h471l-57 -365h276zM737 207q102 0 160.5 44.5t58.5 125.5q0 119 -161 119h-287l-47 -289h276z" />
    <glyph glyph-name="uni044B" unicode="&#x44b;" horiz-adv-x="1593" 
d="M657 700q182 0 287 -81.5t105 -223.5q0 -186 -135.5 -290.5t-352.5 -104.5h-553l168 1065h262l-57 -365h276zM1292 1065h262l-168 -1065h-262zM580 207q102 0 160.5 44.5t58.5 125.5q0 119 -162 119h-287l-47 -289h277z" />
    <glyph glyph-name="uni044C" unicode="&#x44c;" horiz-adv-x="1157" 
d="M657 700q182 0 287 -81.5t105 -223.5q0 -186 -135.5 -290.5t-352.5 -104.5h-553l168 1065h262l-57 -365h276zM580 207q102 0 160.5 44.5t58.5 125.5q0 119 -162 119h-287l-47 -289h277z" />
    <glyph glyph-name="uni044D" unicode="&#x44d;" horiz-adv-x="1093" 
d="M578 1075q68 0 130.5 -15t119.5 -48.5t99.5 -82.5t67.5 -122t25 -162q0 -185 -74 -335t-210.5 -237t-309.5 -87q-80 0 -147 18t-125 59t-94 116t-42 179h234q9 -81 51.5 -120t134.5 -39q107 0 184 72t113 188h-311l22 162h318v20q0 105 -56.5 163t-150.5 58
q-175 0 -246 -157h-241q127 370 508 370z" />
    <glyph glyph-name="uni044E" unicode="&#x44e;" horiz-adv-x="1609" 
d="M1083 1075q65 0 128 -16t122 -51t103 -85.5t71 -126.5t27 -167q0 -177 -75 -323.5t-213 -233t-312 -86.5q-84 0 -161.5 25.5t-144.5 76t-107.5 138.5t-41.5 202h-141l-68 -430h-262l168 1065h262l-67 -428h137q58 195 213 317.5t362 122.5zM952 199q102 0 179.5 63.5
t114 156.5t36.5 195q0 120 -62 184t-157 64q-77 0 -141.5 -37t-105 -97.5t-63 -134t-22.5 -149.5q0 -118 62.5 -181.5t158.5 -63.5z" />
    <glyph glyph-name="uni044F" unicode="&#x44f;" horiz-adv-x="1155" 
d="M563 1065h553l-168 -1065h-262l57 365h-282q-66 0 -102.5 -27.5t-45.5 -89.5l-14 -88q-8 -66 -19.5 -96t-35.5 -64h-260q23 33 34.5 63t22.5 97l12 88q10 68 40 115t95 77q-112 79 -112 230q0 186 135 290.5t352 104.5zM774 569l47 289h-276q-102 0 -160.5 -44.5
t-58.5 -125.5q0 -119 161 -119h287z" />
    <glyph glyph-name="uni0451" unicode="&#x451;" horiz-adv-x="1138" 
d="M602 1452l-33 -213h-268l33 213h268zM1069 1452l-31 -213h-268l33 213h266zM631 1075q89 0 165.5 -25.5t137 -77t95 -137.5t34.5 -198q0 -38 -7 -100t-16 -93h-761v-14q0 -128 63 -188t174 -60q80 0 132.5 24.5t92.5 72.5h244q-75 -152 -199 -222.5t-303 -70.5
q-86 0 -164.5 26.5t-143.5 78t-103.5 138t-38.5 197.5q0 182 76.5 330t214 233.5t307.5 85.5zM815 606q8 24 8 68q0 94 -57 149.5t-154 55.5q-121 0 -199 -76t-112 -197h514z" />
    <glyph glyph-name="uni0453" unicode="&#x453;" horiz-adv-x="899" 
d="M436 1190h232l270 262h-365zM926 1065l-35 -207h-496l-135 -858h-262l168 1065h760z" />
    <glyph glyph-name="uni0454" unicode="&#x454;" horiz-adv-x="1089" 
d="M496 199q174 0 245 157h242q-127 -370 -508 -370q-68 0 -130.5 15t-119.5 48.5t-99.5 82.5t-67.5 122t-25 162q0 185 74 335t210.5 237t309.5 87q80 0 146.5 -18.5t124.5 -59t94 -116t42 -179.5h-233q-9 81 -52 120.5t-135 39.5q-102 0 -177.5 -67t-112.5 -174h309
l-25 -162h-317q-2 -12 -2 -39q0 -105 56.5 -163t150.5 -58z" />
    <glyph glyph-name="uni0457" unicode="&#x457;" horiz-adv-x="464" 
d="M-12 1452h268l-33 -213h-268zM457 1452h266l-31 -213h-268zM176 1065h262l-168 -1065h-262z" />
    <glyph glyph-name="uni045C" unicode="&#x45c;" horiz-adv-x="1138" 
d="M1059 1452l-271 -262h-231l137 262h365zM1186 1065l-580 -535l420 -530h-313l-369 465l-74 -465h-262l168 1065h262l-73 -465l499 465h322z" />
    <glyph glyph-name="uni045E" unicode="&#x45e;" horiz-adv-x="1142" 
d="M879 1452h172q-22 -144 -117 -222.5t-264 -78.5q-161 0 -236 83t-53 218h168q-9 -66 26.5 -100.5t112.5 -34.5q78 0 128 34.5t63 100.5zM905 1065h271l-631 -1112q-123 -218 -247.5 -295t-326.5 -53l35 217q65 -7 116 3t86.5 35.5t59.5 55t45 70.5q21 39 25.5 58.5
t-2.5 61.5l-242 959h260l160 -737z" />
    <glyph glyph-name="uni0490" unicode="&#x490;" horiz-adv-x="1077" 
d="M907 1638h275l-70 -442h-631l-188 -1196h-275l228 1434h628z" />
    <glyph glyph-name="uni0491" unicode="&#x491;" horiz-adv-x="899" 
d="M723 1200h225l-57 -342h-496l-135 -858h-262l168 1065h534z" />
    <glyph glyph-name="Wgrave" unicode="&#x1e80;" horiz-adv-x="2115" 
d="M1305 1559l-97 262h-368l231 -262h234zM1884 1434h293l-637 -1434h-254l-168 1018l-493 -1018h-254l-187 1434h285l102 -1020l471 1020h269l145 -1020z" />
    <glyph glyph-name="wgrave" unicode="&#x1e81;" horiz-adv-x="1646" 
d="M1034 1190l-96 262h-369l232 -262h233zM1679 1065l-473 -1065h-229l-139 754l-375 -754h-232l-137 1065h260l70 -735l354 735h209l119 -735l305 735h268z" />
    <glyph glyph-name="Wacute" unicode="&#x1e82;" horiz-adv-x="2115" 
d="M1079 1559h232l270 262h-364zM1884 1434h293l-637 -1434h-254l-168 1018l-493 -1018h-254l-187 1434h285l102 -1020l471 1020h269l145 -1020z" />
    <glyph glyph-name="wacute" unicode="&#x1e83;" horiz-adv-x="1646" 
d="M809 1190h231l271 262h-365zM1679 1065l-473 -1065h-229l-139 754l-375 -754h-232l-137 1065h260l70 -735l354 735h209l119 -735l305 735h268z" />
    <glyph glyph-name="Wdieresis" unicode="&#x1e84;" horiz-adv-x="2115" 
d="M858 1821h268l-32 -213h-269zM1327 1821h266l-30 -213h-269zM1884 1434h293l-637 -1434h-254l-168 1018l-493 -1018h-254l-187 1434h285l102 -1020l471 1020h269l145 -1020z" />
    <glyph glyph-name="wdieresis" unicode="&#x1e85;" horiz-adv-x="1646" 
d="M588 1452h268l-33 -213h-268zM1057 1452h266l-31 -213h-268zM1679 1065l-473 -1065h-229l-139 754l-375 -754h-232l-137 1065h260l70 -735l354 735h209l119 -735l305 735h268z" />
    <glyph glyph-name="uni1E9E" unicode="&#x1e9e;" horiz-adv-x="1460" 
d="M983 899q80 -12 147.5 -42.5t121 -79.5t84 -121t30.5 -160q0 -230 -148 -373t-387 -143q-403 0 -391 391h260q0 -66 38.5 -110t121.5 -44q97 0 157 69t60 163q0 118 -128 181t-353 54l373 533h-316q-170 0 -198 -185l-162 -1032h-275l170 1073q32 204 142 292.5t321 88.5
h760z" />
    <glyph glyph-name="Ygrave" unicode="&#x1ef2;" horiz-adv-x="1439" 
d="M997 1559l-96 262h-369l232 -262h233zM864 537l-84 -537h-282l84 537l-398 897h310l249 -633l453 633h305z" />
    <glyph glyph-name="ygrave" unicode="&#x1ef3;" horiz-adv-x="1142" 
d="M782 1190l-96 262h-369l232 -262h233zM905 1065h271l-631 -1112q-123 -218 -247.5 -295t-326.5 -53l35 217q65 -7 116 3t86.5 35.5t59.5 55t45 70.5q21 39 25.5 58.5t-2.5 61.5l-242 959h260l160 -737z" />
    <glyph glyph-name="endash" unicode="&#x2013;" horiz-adv-x="1228" 
d="M86 672h1044l-34 -215h-1045z" />
    <glyph glyph-name="emdash" unicode="&#x2014;" horiz-adv-x="1351" 
d="M86 672h1167l-34 -215h-1168z" />
    <glyph glyph-name="quoteleft" unicode="&#x2018;" horiz-adv-x="452" 
d="M514 1436l-14 -82q-119 -33 -142 -185l-10 -63h113l-45 -303h-291l49 305q12 83 39 144.5t58.5 95.5t75.5 54.5t81.5 26.5t85.5 7z" />
    <glyph glyph-name="quoteright" unicode="&#x2019;" horiz-adv-x="495" 
d="M137 791l-2 83q113 33 137 189l9 57h-101l51 314h328l-51 -322q-13 -83 -43.5 -144t-66 -94t-84.5 -52.5t-88.5 -25t-88.5 -5.5z" />
    <glyph glyph-name="quotesinglbase" unicode="&#x201a;" horiz-adv-x="499" 
d="M-47 -369v84q110 28 135 189l10 57h-98l49 313h328l-51 -321q-14 -83 -44.5 -144t-66.5 -94.5t-85 -53t-88.5 -25t-88.5 -5.5z" />
    <glyph glyph-name="quotedblleft" unicode="&#x201c;" horiz-adv-x="913" 
d="M514 1436l-14 -82q-119 -33 -142 -185l-10 -63h113l-45 -303h-291l49 305q12 83 39 144.5t58.5 95.5t75.5 54.5t81.5 26.5t85.5 7zM975 1436l-14 -82q-119 -33 -142 -185l-10 -63h113l-45 -303h-291l49 305q12 83 39 144.5t58.5 95.5t75.5 54.5t81.5 26.5t85.5 7z" />
    <glyph glyph-name="quotedblright" unicode="&#x201d;" horiz-adv-x="915" 
d="M125 799l14 82q119 33 142 184l10 63h-113l45 304h291l-49 -306q-12 -83 -39 -144.5t-58.5 -95.5t-75.5 -54t-81.5 -26t-85.5 -7zM586 799l14 82q118 32 141 184l11 63h-113l45 304h291l-49 -306q-12 -83 -39 -144.5t-58.5 -95.5t-75.5 -54t-81.5 -26t-85.5 -7z" />
    <glyph glyph-name="quotedblbase" unicode="&#x201e;" horiz-adv-x="915" 
d="M-53 -330l14 82q118 32 141 185l11 63h-113l45 303h291l-49 -305q-12 -83 -39 -144.5t-58.5 -95.5t-75.5 -54.5t-81.5 -26.5t-85.5 -7zM408 -330l14 82q118 32 141 185l10 63h-112l45 303h291l-49 -305q-12 -83 -39 -144.5t-58.5 -95.5t-75.5 -54.5t-81.5 -26.5t-85.5 -7
z" />
    <glyph glyph-name="dagger" unicode="&#x2020;" horiz-adv-x="825" 
d="M791 1147l-31 -199h-207l-80 -510h-209l80 510h-205l31 199h207l45 287h209l-45 -287h205z" />
    <glyph glyph-name="daggerdbl" unicode="&#x2021;" horiz-adv-x="825" 
d="M760 952h-205l-74 -471h207l-35 -198h-202l-45 -283h-209l45 283h-209l35 198h204l74 471h-207l33 199h205l45 283h209l-45 -283h207z" />
    <glyph glyph-name="bullet" unicode="&#x2022;" horiz-adv-x="561" 
d="M240 362q-79 0 -127.5 57t-36.5 138q11 66 67 113t125 47q78 0 124.5 -57t33.5 -136q-9 -66 -64 -114t-122 -48z" />
    <glyph glyph-name="ellipsis" unicode="&#x2026;" horiz-adv-x="1490" 
d="M68 303h290l-45 -303h-293zM573 303h291l-45 -303h-293zM1079 303h291l-45 -303h-293z" />
    <glyph glyph-name="perthousand" unicode="&#x2030;" horiz-adv-x="2144" 
d="M401 778q-114 0 -181.5 68t-67.5 198q0 170 88 285t239 115q113 0 180.5 -68t67.5 -198q0 -170 -88 -285t-238 -115zM121 0l1073 1438l195 -4l-1067 -1434h-201zM414 946q71 0 107 66.5t36 150.5q0 56 -24 84.5t-68 28.5q-37 0 -65.5 -19.5t-44.5 -51.5t-24.5 -68.5
t-8.5 -75.5q0 -115 92 -115zM1034 -10q-114 0 -182 68t-68 198q0 170 88.5 284.5t239.5 114.5q113 0 180.5 -67.5t67.5 -198.5q0 -169 -88 -284t-238 -115zM1686 -10q-114 0 -182 68t-68 198q0 169 88.5 284t240.5 115q113 0 179.5 -67.5t66.5 -198.5q0 -170 -87.5 -284.5
t-237.5 -114.5zM1047 160q70 0 106.5 66t36.5 149q0 112 -92 112q-48 0 -82 -34t-48 -81t-14 -100q0 -112 93 -112zM1698 160q49 0 82.5 35t47 81.5t13.5 98.5q0 56 -24 84t-66 28q-48 0 -82 -34t-48.5 -81.5t-14.5 -99.5q0 -57 24.5 -84.5t67.5 -27.5z" />
    <glyph glyph-name="guilsinglleft" unicode="&#x2039;" horiz-adv-x="505" 
d="M455 743l-201 -145l156 -147l-37 -224l-295 277l33 215l385 276z" />
    <glyph glyph-name="guilsinglright" unicode="&#x203a;" horiz-adv-x="503" 
d="M117 756l39 239l295 -276l-33 -215l-385 -277l41 236l198 147z" />
    <glyph glyph-name="fraction" unicode="&#x2044;" horiz-adv-x="307" 
d="M-309 0h-133l1118 1434h133z" />
    <glyph glyph-name="Euro" unicode="&#x20ac;" horiz-adv-x="1454" 
d="M905 1214q-137 0 -238 -84.5t-161 -224.5h299l-23 -160h-323q-13 -78 -15 -106h320l-25 -160h-290q20 -127 96.5 -193.5t202.5 -66.5q125 0 206 53t133 162h267q-64 -218 -242.5 -335t-409.5 -117q-238 0 -384 127.5t-164 369.5h-119l24 160h97q3 53 12 106h-90l22 160
h109q85 247 274.5 397t454.5 150q229 0 370 -116.5t134 -331.5h-268q-30 210 -269 210z" />
    <glyph glyph-name="trademark" unicode="&#x2122;" horiz-adv-x="1150" 
d="M588 1343h-125l-43 -278h-107l45 278h-127l15 91h356zM1130 1434l-57 -369h-106l32 199l-108 -199h-92l-47 199l-33 -199h-107l58 369h104l78 -281l170 281h108z" />
    <glyph glyph-name="partialdiff" unicode="&#x2202;" horiz-adv-x="1232" 
d="M598 938q74 0 136.5 -17.5t100.5 -44t60 -53.5t27 -51q20 105 16.5 192t-26.5 150t-76.5 98t-133.5 35q-83 0 -160.5 -49t-109.5 -135h-231q12 55 38 108t71 103.5t102 88.5t137 61.5t172 23.5q117 0 204.5 -37t140 -105t81.5 -163t29 -210.5t-17 -248.5
q-25 -151 -71 -271t-106 -200t-135.5 -133t-155.5 -76.5t-169 -23.5q-69 0 -132.5 13.5t-123 45t-103.5 77.5t-70.5 117t-26.5 158q0 242 151 394.5t381 152.5zM522 197q91 0 168.5 50t121.5 132t44 174q0 101 -63 151t-146 50q-139 0 -232 -101.5t-93 -249.5
q0 -103 59 -154.5t141 -51.5z" />
    <glyph glyph-name="product" unicode="&#x220f;" horiz-adv-x="1486" 
d="M238 1638h1302l-321 -2027h-252l284 1790h-800l-283 -1790h-252z" />
    <glyph glyph-name="summation" unicode="&#x2211;" horiz-adv-x="1406" 
d="M1421 1401h-805l310 -776l-551 -777h801l-37 -237h-1225l727 1014l-401 1013h1220z" />
    <glyph glyph-name="minus" unicode="&#x2212;" horiz-adv-x="913" 
d="M76 612h786l-28 -184h-787z" />
    <glyph glyph-name="radical" unicode="&#x221a;" horiz-adv-x="1634" 
d="M1690 1638l-859 -2027h-303l-221 895h-248l43 280h418l191 -835l714 1687h265z" />
    <glyph glyph-name="infinity" unicode="&#x221e;" horiz-adv-x="1671" 
d="M1247 887q149 0 243.5 -83t94.5 -220q0 -169 -122.5 -286.5t-299.5 -117.5q-190 0 -362 211q-222 -211 -414 -211q-151 0 -245.5 83.5t-94.5 223.5q0 169 123 284.5t301 115.5q191 0 360 -209q224 209 416 209zM406 379q126 0 288 158q-82 155 -211 155q-90 0 -147 -55.5
t-57 -134.5q0 -49 32.5 -86t94.5 -37zM1153 379q88 0 144.5 54.5t56.5 133.5q0 52 -31.5 88.5t-93.5 36.5q-129 0 -291 -155q40 -77 95.5 -117.5t119.5 -40.5z" />
    <glyph glyph-name="integral" unicode="&#x222b;" horiz-adv-x="636" 
d="M233 1071q61 384 469 359l-36 -226q-76 0 -122 -53.5t-61 -151.5l-161 -1030q-33 -199 -138 -283t-327 -75l32 225q83 0 124.5 53t56.5 152z" />
    <glyph glyph-name="approxequal" unicode="&#x2248;" horiz-adv-x="972" 
d="M846 815l108 -12q-18 -116 -90.5 -186t-185.5 -70q-40 0 -80 17t-73 41t-65.5 48t-71 41t-77.5 17q-45 0 -82.5 -24.5t-40.5 -55.5l-110 14q19 116 91.5 186t184.5 70q40 0 80 -17t73.5 -41t66.5 -48t71.5 -41t77.5 -17q44 0 81 24t42 54zM793 487l108 -12
q-18 -116 -89.5 -186t-182.5 -70q-50 0 -101.5 25.5t-88.5 56.5t-86.5 56.5t-96.5 25.5q-44 0 -80 -24.5t-39 -55.5l-108 14q18 116 89.5 186t184.5 70q40 0 80 -17t73.5 -40.5t66.5 -47.5t71.5 -41t77.5 -17q44 0 81 24t40 53z" />
    <glyph glyph-name="notequal" unicode="&#x2260;" horiz-adv-x="884" 
d="M854 639h-287l-78 -143h342l-28 -185h-414l-170 -311h-178l170 311h-195l27 185h268l78 143h-323l28 184h395l179 326h178l-178 -326h213z" />
    <glyph glyph-name="lessequal" unicode="&#x2264;" horiz-adv-x="827" 
d="M766 543l-471 227l543 225l39 222l-760 -345l-35 -206l647 -344zM18 158h689l-31 -185h-688z" />
    <glyph glyph-name="greaterequal" unicode="&#x2265;" horiz-adv-x="835" 
d="M72 543l-37 -221l758 344l34 206l-647 345l-37 -222l471 -225zM698 158l-30 -185h-695l31 185h694z" />
    <glyph glyph-name="lozenge" unicode="&#x25ca;" horiz-adv-x="1185" 
d="M887 1434l207 -717l-428 -717h-367l-207 717l428 717h367zM508 186l319 531l-149 530l-320 -530z" />
    <glyph glyph-name="G.ss01" horiz-adv-x="1400" 
d="M823 750h531l-119 -750h-254l29 158q-82 -100 -178 -143.5t-238 -43.5q-237 0 -381.5 152t-144.5 430q0 150 33 286.5t98.5 249.5t157 196.5t215 130t266.5 46.5q223 0 367.5 -112t150.5 -308h-266q-28 94 -88 138.5t-168 44.5q-115 0 -208.5 -57.5t-152 -152.5
t-90 -212.5t-31.5 -243.5q0 -170 78 -260t229 -90q165 0 273 87.5t133 240.5l-2 -9h-275z" />
    <glyph glyph-name="R.ss01" horiz-adv-x="1292" 
d="M1278 1040q0 -196 -94.5 -335t-265.5 -201l210 -504h-276l-186 459h-17h-284l-72 -459h-275l228 1434h559q238 0 355.5 -103.5t117.5 -290.5zM481 1196l-78 -500h285q137 0 215 84.5t78 220.5q0 93 -54 144t-161 51h-285z" />
    <glyph glyph-name="G.ss05" horiz-adv-x="1400" 
d="M823 750h531l-119 -750h-254l29 158q-82 -100 -178 -143.5t-238 -43.5q-237 0 -381.5 152t-144.5 430q0 150 33 286.5t98.5 249.5t157 196.5t215 130t266.5 46.5q223 0 367.5 -112t150.5 -308h-266q-28 94 -88 138.5t-168 44.5q-115 0 -208.5 -57.5t-152 -152.5
t-90 -212.5t-31.5 -243.5q0 -170 78 -260t229 -90q165 0 273 87.5t133 240.5l-2 -9h-275z" />
    <glyph glyph-name="i.loclTRK" horiz-adv-x="464" 
d="M236 1452h268l-33 -213h-268zM176 1065h262l-168 -1065h-262z" />
    <glyph glyph-name="a.ss01" 
d="M1135 1067l-168 -1067h-262l22 145q-9 -21 -30.5 -46.5t-58 -53t-94.5 -45.5t-126 -18t-133.5 25.5t-123 76t-93 138t-35.5 198.5q0 127 37 245t103.5 210t168 147t221.5 55q122 0 189.5 -48.5t93.5 -119.5l24 158h265zM489 195q76 0 138.5 39t101 102t59.5 140t21 157
q0 116 -54.5 173.5t-148.5 57.5q-79 0 -141 -39t-99 -103t-56 -139t-19 -155q0 -115 53 -174t145 -59z" />
    <glyph glyph-name="aacute.ss01" 
d="M584 1190h231l270 262h-364zM1135 1067l-168 -1067h-262l22 145q-9 -21 -30.5 -46.5t-58 -53t-94.5 -45.5t-126 -18t-133.5 25.5t-123 76t-93 138t-35.5 198.5q0 127 37 245t103.5 210t168 147t221.5 55q122 0 189.5 -48.5t93.5 -119.5l24 158h265zM489 195
q76 0 138.5 39t101 102t59.5 140t21 157q0 116 -54.5 173.5t-148.5 57.5q-79 0 -141 -39t-99 -103t-56 -139t-19 -155q0 -115 53 -174t145 -59z" />
    <glyph glyph-name="abreve.ss01" 
d="M905 1452h172q-22 -144 -117 -222.5t-264 -78.5q-161 0 -235.5 83t-52.5 218h167q-9 -66 27 -100.5t113 -34.5q78 0 127.5 34.5t62.5 100.5zM1135 1067l-168 -1067h-262l22 145q-9 -21 -30.5 -46.5t-58 -53t-94.5 -45.5t-126 -18t-133.5 25.5t-123 76t-93 138
t-35.5 198.5q0 127 37 245t103.5 210t168 147t221.5 55q122 0 189.5 -48.5t93.5 -119.5l24 158h265zM489 195q76 0 138.5 39t101 102t59.5 140t21 157q0 116 -54.5 173.5t-148.5 57.5q-79 0 -141 -39t-99 -103t-56 -139t-19 -155q0 -115 53 -174t145 -59z" />
    <glyph glyph-name="uni01CE.ss01" 
d="M915 1452h211l-196 -283h-479l-109 283h201l159 -166zM1135 1067l-168 -1067h-262l22 145q-9 -21 -30.5 -46.5t-58 -53t-94.5 -45.5t-126 -18t-133.5 25.5t-123 76t-93 138t-35.5 198.5q0 127 37 245t103.5 210t168 147t221.5 55q122 0 189.5 -48.5t93.5 -119.5l24 158
h265zM489 195q76 0 138.5 39t101 102t59.5 140t21 157q0 116 -54.5 173.5t-148.5 57.5q-79 0 -141 -39t-99 -103t-56 -139t-19 -155q0 -115 53 -174t145 -59z" />
    <glyph glyph-name="acircumflex.ss01" 
d="M868 1169l-157 166l-215 -166h-211l196 283h480l108 -283h-201zM1135 1067l-168 -1067h-262l22 145q-9 -21 -30.5 -46.5t-58 -53t-94.5 -45.5t-126 -18t-133.5 25.5t-123 76t-93 138t-35.5 198.5q0 127 37 245t103.5 210t168 147t221.5 55q122 0 189.5 -48.5t93.5 -119.5
l24 158h265zM489 195q76 0 138.5 39t101 102t59.5 140t21 157q0 116 -54.5 173.5t-148.5 57.5q-79 0 -141 -39t-99 -103t-56 -139t-19 -155q0 -115 53 -174t145 -59z" />
    <glyph glyph-name="adieresis.ss01" 
d="M362 1452h269l-33 -213h-268zM831 1452h267l-31 -213h-268zM1135 1067l-168 -1067h-262l22 145q-9 -21 -30.5 -46.5t-58 -53t-94.5 -45.5t-126 -18t-133.5 25.5t-123 76t-93 138t-35.5 198.5q0 127 37 245t103.5 210t168 147t221.5 55q122 0 189.5 -48.5t93.5 -119.5
l24 158h265zM489 195q76 0 138.5 39t101 102t59.5 140t21 157q0 116 -54.5 173.5t-148.5 57.5q-79 0 -141 -39t-99 -103t-56 -139t-19 -155q0 -115 53 -174t145 -59z" />
    <glyph glyph-name="agrave.ss01" 
d="M809 1190l-96 262h-369l231 -262h234zM1135 1067l-168 -1067h-262l22 145q-9 -21 -30.5 -46.5t-58 -53t-94.5 -45.5t-126 -18t-133.5 25.5t-123 76t-93 138t-35.5 198.5q0 127 37 245t103.5 210t168 147t221.5 55q122 0 189.5 -48.5t93.5 -119.5l24 158h265zM489 195
q76 0 138.5 39t101 102t59.5 140t21 157q0 116 -54.5 173.5t-148.5 57.5q-79 0 -141 -39t-99 -103t-56 -139t-19 -155q0 -115 53 -174t145 -59z" />
    <glyph glyph-name="amacron.ss01" 
d="M401 1452h711l-22 -154h-713zM1135 1067l-168 -1067h-262l22 145q-9 -21 -30.5 -46.5t-58 -53t-94.5 -45.5t-126 -18t-133.5 25.5t-123 76t-93 138t-35.5 198.5q0 127 37 245t103.5 210t168 147t221.5 55q122 0 189.5 -48.5t93.5 -119.5l24 158h265zM489 195
q76 0 138.5 39t101 102t59.5 140t21 157q0 116 -54.5 173.5t-148.5 57.5q-79 0 -141 -39t-99 -103t-56 -139t-19 -155q0 -115 53 -174t145 -59z" />
    <glyph glyph-name="aogonek.ss01" 
d="M870 1067h265l-168 -1067h-72q-150 -42 -210 -101.5t-60 -123.5q0 -60 50.5 -77t129.5 9v-113q-41 -21 -96 -33.5t-112.5 -10.5t-106.5 18.5t-80 57.5t-31 102q0 56 31 105t80.5 82t104.5 54.5t110 30.5l22 145q-9 -21 -30.5 -46.5t-58 -53t-94.5 -45.5t-126 -18
t-133.5 25.5t-123 76t-93 138t-35.5 198.5q0 127 37 245t103.5 210t168 147t221.5 55q122 0 189.5 -48.5t93.5 -119.5zM489 195q76 0 138.5 39t101 102t59.5 140t21 157q0 116 -54.5 173.5t-148.5 57.5q-79 0 -141 -39t-99 -103t-56 -139t-19 -155q0 -115 53 -174t145 -59z
" />
    <glyph glyph-name="aring.ss01" 
d="M715 1190q-81 0 -132 50.5t-51 125.5q0 87 63.5 151t152.5 64q75 0 125.5 -51.5t50.5 -126.5q0 -84 -65 -148.5t-144 -64.5zM723 1303q35 0 61.5 27t26.5 61q0 33 -21 55t-53 22q-38 0 -66 -27.5t-28 -64.5q0 -31 22 -52t58 -21zM1135 1067l-168 -1067h-262l22 145
q-9 -21 -30.5 -46.5t-58 -53t-94.5 -45.5t-126 -18t-133.5 25.5t-123 76t-93 138t-35.5 198.5q0 127 37 245t103.5 210t168 147t221.5 55q122 0 189.5 -48.5t93.5 -119.5l24 158h265zM489 195q76 0 138.5 39t101 102t59.5 140t21 157q0 116 -54.5 173.5t-148.5 57.5
q-79 0 -141 -39t-99 -103t-56 -139t-19 -155q0 -115 53 -174t145 -59z" />
    <glyph glyph-name="atilde.ss01" 
d="M987 1434h109q0 -110 -63.5 -180t-174.5 -70q-44 0 -86.5 16t-76.5 39t-67 45.5t-71.5 38.5t-77.5 16q-38 0 -64.5 -19.5t-25.5 -47.5h-106q0 110 62.5 180t174.5 70q44 0 85.5 -16.5t75.5 -39.5t67 -46t71.5 -39.5t77.5 -16.5q38 0 64.5 20.5t25.5 49.5zM1135 1067
l-168 -1067h-262l22 145q-9 -21 -30.5 -46.5t-58 -53t-94.5 -45.5t-126 -18t-133.5 25.5t-123 76t-93 138t-35.5 198.5q0 127 37 245t103.5 210t168 147t221.5 55q122 0 189.5 -48.5t93.5 -119.5l24 158h265zM489 195q76 0 138.5 39t101 102t59.5 140t21 157
q0 116 -54.5 173.5t-148.5 57.5q-79 0 -141 -39t-99 -103t-56 -139t-19 -155q0 -115 53 -174t145 -59z" />
    <glyph glyph-name="g.ss01" horiz-adv-x="1124" 
d="M1098 1065l-33 -191q-56 0 -107 -30q9 -38 9 -76q0 -182 -127.5 -294t-325.5 -112q-126 0 -217 48q-66 -15 -66 -68q0 -41 39 -54.5t133 -13.5h86q88 0 165.5 -16.5t145 -51.5t107 -99t39.5 -150q0 -85 -30.5 -154t-82 -115.5t-122.5 -78.5t-150 -46t-166 -14
q-68 0 -131 10.5t-122.5 34.5t-103.5 60t-70.5 91.5t-26.5 123.5q0 230 262 321q-69 8 -122.5 49.5t-53.5 106.5q0 62 44 103t119 55q-45 70 -45 164q0 183 128.5 296t324.5 113q181 0 279 -92q78 82 221 80zM530 547q98 0 156.5 57t58.5 144q0 143 -165 143
q-103 0 -159 -57t-56 -146q0 -61 37 -101t128 -40zM469 86q-126 0 -200 -51t-74 -146q0 -69 53.5 -110t165.5 -41q128 0 204 52t76 147q0 69 -55 109t-170 40z" />
    <glyph glyph-name="l.ss01" horiz-adv-x="538" 
d="M369 -2q-56 -6 -99 -6t-81.5 5.5t-63.5 19t-45.5 36t-27.5 55t-9.5 76.5t8.5 101l185 1149h262l-187 -1176q-6 -36 16 -52.5t79 -15.5z" />
    <glyph glyph-name="a.ss02" 
d="M1135 1067l-168 -1067h-262l22 145q-9 -21 -30.5 -46.5t-58 -53t-94.5 -45.5t-126 -18t-133.5 25.5t-123 76t-93 138t-35.5 198.5q0 127 37 245t103.5 210t168 147t221.5 55q122 0 189.5 -48.5t93.5 -119.5l24 158h265zM489 195q76 0 138.5 39t101 102t59.5 140t21 157
q0 116 -54.5 173.5t-148.5 57.5q-79 0 -141 -39t-99 -103t-56 -139t-19 -155q0 -115 53 -174t145 -59z" />
    <glyph glyph-name="aacute.ss02" 
d="M584 1190h231l270 262h-364zM1135 1067l-168 -1067h-262l22 145q-9 -21 -30.5 -46.5t-58 -53t-94.5 -45.5t-126 -18t-133.5 25.5t-123 76t-93 138t-35.5 198.5q0 127 37 245t103.5 210t168 147t221.5 55q122 0 189.5 -48.5t93.5 -119.5l24 158h265zM489 195
q76 0 138.5 39t101 102t59.5 140t21 157q0 116 -54.5 173.5t-148.5 57.5q-79 0 -141 -39t-99 -103t-56 -139t-19 -155q0 -115 53 -174t145 -59z" />
    <glyph glyph-name="abreve.ss02" 
d="M905 1452h172q-22 -144 -117 -222.5t-264 -78.5q-161 0 -235.5 83t-52.5 218h167q-9 -66 27 -100.5t113 -34.5q78 0 127.5 34.5t62.5 100.5zM1135 1067l-168 -1067h-262l22 145q-9 -21 -30.5 -46.5t-58 -53t-94.5 -45.5t-126 -18t-133.5 25.5t-123 76t-93 138
t-35.5 198.5q0 127 37 245t103.5 210t168 147t221.5 55q122 0 189.5 -48.5t93.5 -119.5l24 158h265zM489 195q76 0 138.5 39t101 102t59.5 140t21 157q0 116 -54.5 173.5t-148.5 57.5q-79 0 -141 -39t-99 -103t-56 -139t-19 -155q0 -115 53 -174t145 -59z" />
    <glyph glyph-name="uni01CE.ss02" 
d="M915 1452h211l-196 -283h-479l-109 283h201l159 -166zM1135 1067l-168 -1067h-262l22 145q-9 -21 -30.5 -46.5t-58 -53t-94.5 -45.5t-126 -18t-133.5 25.5t-123 76t-93 138t-35.5 198.5q0 127 37 245t103.5 210t168 147t221.5 55q122 0 189.5 -48.5t93.5 -119.5l24 158
h265zM489 195q76 0 138.5 39t101 102t59.5 140t21 157q0 116 -54.5 173.5t-148.5 57.5q-79 0 -141 -39t-99 -103t-56 -139t-19 -155q0 -115 53 -174t145 -59z" />
    <glyph glyph-name="acircumflex.ss02" 
d="M868 1169l-157 166l-215 -166h-211l196 283h480l108 -283h-201zM1135 1067l-168 -1067h-262l22 145q-9 -21 -30.5 -46.5t-58 -53t-94.5 -45.5t-126 -18t-133.5 25.5t-123 76t-93 138t-35.5 198.5q0 127 37 245t103.5 210t168 147t221.5 55q122 0 189.5 -48.5t93.5 -119.5
l24 158h265zM489 195q76 0 138.5 39t101 102t59.5 140t21 157q0 116 -54.5 173.5t-148.5 57.5q-79 0 -141 -39t-99 -103t-56 -139t-19 -155q0 -115 53 -174t145 -59z" />
    <glyph glyph-name="adieresis.ss02" 
d="M362 1452h269l-33 -213h-268zM831 1452h267l-31 -213h-268zM1135 1067l-168 -1067h-262l22 145q-9 -21 -30.5 -46.5t-58 -53t-94.5 -45.5t-126 -18t-133.5 25.5t-123 76t-93 138t-35.5 198.5q0 127 37 245t103.5 210t168 147t221.5 55q122 0 189.5 -48.5t93.5 -119.5
l24 158h265zM489 195q76 0 138.5 39t101 102t59.5 140t21 157q0 116 -54.5 173.5t-148.5 57.5q-79 0 -141 -39t-99 -103t-56 -139t-19 -155q0 -115 53 -174t145 -59z" />
    <glyph glyph-name="agrave.ss02" 
d="M809 1190l-96 262h-369l231 -262h234zM1135 1067l-168 -1067h-262l22 145q-9 -21 -30.5 -46.5t-58 -53t-94.5 -45.5t-126 -18t-133.5 25.5t-123 76t-93 138t-35.5 198.5q0 127 37 245t103.5 210t168 147t221.5 55q122 0 189.5 -48.5t93.5 -119.5l24 158h265zM489 195
q76 0 138.5 39t101 102t59.5 140t21 157q0 116 -54.5 173.5t-148.5 57.5q-79 0 -141 -39t-99 -103t-56 -139t-19 -155q0 -115 53 -174t145 -59z" />
    <glyph glyph-name="amacron.ss02" 
d="M401 1452h711l-22 -154h-713zM1135 1067l-168 -1067h-262l22 145q-9 -21 -30.5 -46.5t-58 -53t-94.5 -45.5t-126 -18t-133.5 25.5t-123 76t-93 138t-35.5 198.5q0 127 37 245t103.5 210t168 147t221.5 55q122 0 189.5 -48.5t93.5 -119.5l24 158h265zM489 195
q76 0 138.5 39t101 102t59.5 140t21 157q0 116 -54.5 173.5t-148.5 57.5q-79 0 -141 -39t-99 -103t-56 -139t-19 -155q0 -115 53 -174t145 -59z" />
    <glyph glyph-name="aogonek.ss02" 
d="M870 1067h265l-168 -1067h-72q-150 -42 -210 -101.5t-60 -123.5q0 -60 50.5 -77t129.5 9v-113q-41 -21 -96 -33.5t-112.5 -10.5t-106.5 18.5t-80 57.5t-31 102q0 56 31 105t80.5 82t104.5 54.5t110 30.5l22 145q-9 -21 -30.5 -46.5t-58 -53t-94.5 -45.5t-126 -18
t-133.5 25.5t-123 76t-93 138t-35.5 198.5q0 127 37 245t103.5 210t168 147t221.5 55q122 0 189.5 -48.5t93.5 -119.5zM489 195q76 0 138.5 39t101 102t59.5 140t21 157q0 116 -54.5 173.5t-148.5 57.5q-79 0 -141 -39t-99 -103t-56 -139t-19 -155q0 -115 53 -174t145 -59z
" />
    <glyph glyph-name="aring.ss02" 
d="M715 1190q-81 0 -132 50.5t-51 125.5q0 87 63.5 151t152.5 64q75 0 125.5 -51.5t50.5 -126.5q0 -84 -65 -148.5t-144 -64.5zM723 1303q35 0 61.5 27t26.5 61q0 33 -21 55t-53 22q-38 0 -66 -27.5t-28 -64.5q0 -31 22 -52t58 -21zM1135 1067l-168 -1067h-262l22 145
q-9 -21 -30.5 -46.5t-58 -53t-94.5 -45.5t-126 -18t-133.5 25.5t-123 76t-93 138t-35.5 198.5q0 127 37 245t103.5 210t168 147t221.5 55q122 0 189.5 -48.5t93.5 -119.5l24 158h265zM489 195q76 0 138.5 39t101 102t59.5 140t21 157q0 116 -54.5 173.5t-148.5 57.5
q-79 0 -141 -39t-99 -103t-56 -139t-19 -155q0 -115 53 -174t145 -59z" />
    <glyph glyph-name="atilde.ss02" 
d="M987 1434h109q0 -110 -63.5 -180t-174.5 -70q-44 0 -86.5 16t-76.5 39t-67 45.5t-71.5 38.5t-77.5 16q-38 0 -64.5 -19.5t-25.5 -47.5h-106q0 110 62.5 180t174.5 70q44 0 85.5 -16.5t75.5 -39.5t67 -46t71.5 -39.5t77.5 -16.5q38 0 64.5 20.5t25.5 49.5zM1135 1067
l-168 -1067h-262l22 145q-9 -21 -30.5 -46.5t-58 -53t-94.5 -45.5t-126 -18t-133.5 25.5t-123 76t-93 138t-35.5 198.5q0 127 37 245t103.5 210t168 147t221.5 55q122 0 189.5 -48.5t93.5 -119.5l24 158h265zM489 195q76 0 138.5 39t101 102t59.5 140t21 157
q0 116 -54.5 173.5t-148.5 57.5q-79 0 -141 -39t-99 -103t-56 -139t-19 -155q0 -115 53 -174t145 -59z" />
    <glyph glyph-name="g.ss03" horiz-adv-x="1124" 
d="M1098 1065l-33 -191q-56 0 -107 -30q9 -38 9 -76q0 -182 -127.5 -294t-325.5 -112q-126 0 -217 48q-66 -15 -66 -68q0 -41 39 -54.5t133 -13.5h86q88 0 165.5 -16.5t145 -51.5t107 -99t39.5 -150q0 -85 -30.5 -154t-82 -115.5t-122.5 -78.5t-150 -46t-166 -14
q-68 0 -131 10.5t-122.5 34.5t-103.5 60t-70.5 91.5t-26.5 123.5q0 230 262 321q-69 8 -122.5 49.5t-53.5 106.5q0 62 44 103t119 55q-45 70 -45 164q0 183 128.5 296t324.5 113q181 0 279 -92q78 82 221 80zM530 547q98 0 156.5 57t58.5 144q0 143 -165 143
q-103 0 -159 -57t-56 -146q0 -61 37 -101t128 -40zM469 86q-126 0 -200 -51t-74 -146q0 -69 53.5 -110t165.5 -41q128 0 204 52t76 147q0 69 -55 109t-170 40z" />
    <glyph glyph-name="l.ss04" horiz-adv-x="538" 
d="M369 -2q-56 -6 -99 -6t-81.5 5.5t-63.5 19t-45.5 36t-27.5 55t-9.5 76.5t8.5 101l185 1149h262l-187 -1176q-6 -36 16 -52.5t79 -15.5z" />
    <glyph glyph-name="f_t" horiz-adv-x="1476" 
d="M1221 858l-88 -559q-9 -51 7 -73.5t66 -22.5q70 0 142 16l-33 -205q-71 -28 -193 -28q-44 0 -79 5.5t-69 19t-55.5 37t-38 59t-16.5 85t8 115.5l89 551h-478l-135 -858h-262l135 858h-168l31 207h170l10 63q14 89 45.5 153t68.5 99t89 55t95 25.5t100 5.5q76 0 141 -14
l-33 -199q-57 11 -94 11q-72 0 -106.5 -35t-45.5 -109l-8 -55h475l43 266h262l-43 -266h215l-32 -207h-215z" />
    <glyph glyph-name="r_t" horiz-adv-x="1460" 
d="M1204 858l-88 -559q-9 -51 7.5 -73.5t66.5 -22.5q69 0 141 16l-33 -205q-71 -28 -192 -28q-44 0 -79 5.5t-69 19t-55.5 37t-38 59t-16.5 85t8 115.5l88 551h-168l31 207h168l43 266h262l-43 -266h215l-33 -207h-215zM389 819q47 108 166 177t252 69l-33 -207
q-169 1 -276 -81.5t-150 -219.5l-88 -557h-262l168 1065h262z" />
    <glyph glyph-name="zero.dnom" horiz-adv-x="587" 
d="M211 -4q115 0 189.5 89t74.5 241q0 101 -50 157t-138 56q-82 0 -142 -47.5t-89 -121.5t-29 -163q0 -99 48.5 -155t135.5 -56zM276 444q45 0 70 -34t25 -95q0 -102 -43.5 -163.5t-106.5 -61.5q-44 0 -67 34t-23 93q0 104 41 165.5t104 61.5z" />
    <glyph glyph-name="one.dnom" horiz-adv-x="405" 
d="M262 532l-84 -532h-102l71 410q-42 -52 -133 -43l15 94q40 -4 77 18.5t54 52.5h102z" />
    <glyph glyph-name="two.dnom" horiz-adv-x="546" 
d="M8 0q10 97 52 155t137 111q7 4 35 18.5t38.5 21.5t28 21t24.5 29t7 33q0 29 -20 44.5t-46 15.5q-35 0 -61.5 -20.5t-30.5 -59.5h-104q11 79 63.5 126.5t142.5 47.5q79 0 119.5 -38t40.5 -99q0 -38 -14.5 -69t-41.5 -54t-55.5 -40.5t-66.5 -37.5q-5 -2 -7 -3l-6 -3t-7 -4
q-44 -23 -69.5 -52t-27.5 -51h246l-14 -92h-363z" />
    <glyph glyph-name="three.dnom" horiz-adv-x="563" 
d="M317 283q40 -6 72.5 -32t32.5 -77q0 -77 -61.5 -129.5t-167.5 -52.5q-86 0 -133 51t-35 123h96q-4 -43 20.5 -63.5t65.5 -20.5q44 0 77 24t33 68q0 68 -100 68h-22l14 75h22q46 0 71.5 22t25.5 58q0 26 -19 41t-53 15q-35 0 -60 -19.5t-32 -58.5h-94q14 81 65.5 124.5
t136.5 43.5q73 0 115.5 -34t42.5 -87q0 -55 -33.5 -91t-79.5 -48z" />
    <glyph glyph-name="four.dnom" horiz-adv-x="567" 
d="M422 135h-62l-22 -135h-100l22 135h-240l13 80l291 320h100l-53 -320h61zM272 215l33 203l-184 -203h151z" />
    <glyph glyph-name="five.dnom" horiz-adv-x="524" 
d="M256 369q77 0 121.5 -51.5t32.5 -135.5q-17 -92 -80.5 -142t-157.5 -50q-91 0 -136 48.5t-34 125.5h104q-3 -38 20.5 -59t59.5 -21q40 0 72.5 23t40.5 75q7 56 -17 80.5t-61 24.5q-55 0 -94 -39h-94l88 287h289l-15 -93h-217l-33 -112q45 39 111 39z" />
    <glyph glyph-name="six.dnom" horiz-adv-x="581" 
d="M287 360q72 0 114.5 -37.5t42.5 -111.5q0 -57 -21 -101t-55.5 -69t-73.5 -38t-79 -13q-110 0 -151 75.5t-25 200.5q20 123 85.5 199t172.5 76q82 0 121.5 -44.5t36.5 -99.5h-103q-1 23 -21 38.5t-48 15.5q-116 0 -144 -162q17 27 58 49t90 22zM225 82q39 0 76 30.5
t37 90.5q0 37 -24 56.5t-58 19.5q-45 0 -79 -30t-34 -81q0 -44 24.5 -65t57.5 -21z" />
    <glyph glyph-name="seven.dnom" horiz-adv-x="466" 
d="M406 535l-17 -93l-283 -442h-104l289 442h-264l16 93h363z" />
    <glyph glyph-name="eight.dnom" horiz-adv-x="491" 
d="M309 295q76 -40 76 -113q0 -84 -59.5 -135t-161.5 -51q-76 0 -124 37.5t-48 103.5q0 53 29 93.5t81 62.5q-45 33 -45 92t49.5 106.5t131.5 47.5q69 0 109 -34.5t40 -86.5q0 -80 -78 -123zM147 389q0 -26 19.5 -41.5t50.5 -15.5q34 0 57 21.5t23 54.5q0 23 -18 38t-50 15
q-38 0 -60 -22t-22 -50zM172 76q54 0 83.5 28t29.5 68q0 36 -25 55t-65 19q-44 0 -76.5 -26t-32.5 -70q0 -36 24 -55t62 -19z" />
    <glyph glyph-name="nine.dnom" horiz-adv-x="581" 
d="M209 172q-72 0 -115 36.5t-43 110.5t37 126.5t87 74t104 21.5q76 0 120 -38t56.5 -98t1.5 -141q-20 -123 -85.5 -198.5t-172.5 -75.5q-82 0 -121.5 44t-36.5 99h102q1 -23 21.5 -38t48.5 -15q115 0 143 162q-17 -27 -57.5 -48.5t-89.5 -21.5zM270 449q-40 0 -76 -30
t-36 -91q0 -38 23.5 -57t58.5 -19q45 0 78.5 30.5t33.5 82.5q0 42 -24.5 63t-57.5 21z" />
    <glyph glyph-name="zero.numr" horiz-adv-x="585" 
d="M352 897q115 0 189.5 89t74.5 241q0 101 -50 157t-138 56q-122 0 -191 -97t-69 -235q0 -99 48.5 -155t135.5 -56zM418 1346q45 0 69.5 -34t24.5 -95q0 -102 -44 -164t-106 -62q-44 0 -67 34t-23 93q0 104 41.5 166t104.5 62z" />
    <glyph glyph-name="one.numr" horiz-adv-x="405" 
d="M406 1434l-84 -533h-103l72 410q-42 -52 -133 -43l14 94q40 -4 77 19t54 53h103z" />
    <glyph glyph-name="two.numr" horiz-adv-x="546" 
d="M152 901q10 97 51.5 155t136.5 111q7 4 35 18.5t38.5 21.5t28 21t24.5 29t7 33q0 29 -19.5 44.5t-45.5 15.5q-35 0 -62 -20.5t-31 -59.5h-104q11 79 64 126.5t143 47.5q79 0 119.5 -38t40.5 -99q0 -17 -3.5 -33t-7.5 -28t-14.5 -26t-16 -22t-22.5 -20.5t-23 -18
t-27.5 -17.5t-26.5 -15t-29.5 -16t-28.5 -15q-44 -23 -69 -52t-27 -51h245l-14 -92h-362z" />
    <glyph glyph-name="three.numr" horiz-adv-x="561" 
d="M459 1184q40 -6 72 -32t32 -77q0 -77 -61.5 -129.5t-167.5 -52.5q-86 0 -133 51t-35 123h96q-4 -43 20.5 -63.5t65.5 -20.5q44 0 77.5 24t33.5 68q0 68 -101 68h-22l14 76h23q46 0 71 21.5t25 57.5q0 26 -19 41t-53 15q-35 0 -60 -19.5t-32 -58.5h-94q14 80 66 124
t137 44q73 0 115 -34t42 -87q0 -55 -33.5 -91t-78.5 -48z" />
    <glyph glyph-name="four.numr" horiz-adv-x="567" 
d="M565 1036h-61l-23 -135h-100l22 135h-239l12 80l291 320h100l-53 -320h61zM416 1116l33 203l-185 -203h152z" />
    <glyph glyph-name="five.numr" horiz-adv-x="528" 
d="M399 1270q77 0 121.5 -51.5t32.5 -135.5q-17 -92 -80.5 -142t-157.5 -50q-91 0 -136 48.5t-34 125.5h105q-3 -38 20.5 -59t59.5 -21q40 0 72 23t40 75q7 56 -16.5 80.5t-60.5 24.5q-56 0 -95 -39h-94l88 287h289l-14 -93h-217l-33 -112q45 39 110 39z" />
    <glyph glyph-name="six.numr" horiz-adv-x="581" 
d="M430 1260q72 0 115 -38t43 -112q0 -57 -21.5 -101t-56 -69t-73.5 -38t-79 -13q-110 0 -151 75.5t-25 200.5q20 123 85.5 199t172.5 76q82 0 121.5 -44.5t36.5 -99.5h-102q-1 23 -21.5 38.5t-48.5 15.5q-115 0 -143 -162q17 28 57.5 50t89.5 22zM369 981q39 0 75.5 30
t36.5 91q0 37 -24 56.5t-58 19.5q-45 0 -78.5 -30t-33.5 -81q0 -44 24.5 -65t57.5 -21z" />
    <glyph glyph-name="seven.numr" horiz-adv-x="466" 
d="M549 1436l-17 -93l-282 -442h-105l289 442h-264l16 93h363z" />
    <glyph glyph-name="eight.numr" horiz-adv-x="491" 
d="M453 1196q75 -40 75 -113q0 -84 -59.5 -135t-161.5 -51q-76 0 -124 37.5t-48 103.5q0 53 29.5 93.5t81.5 62.5q-45 33 -45 92t49 106.5t131 47.5q69 0 109 -34.5t40 -86.5q0 -81 -77 -123zM291 1290q0 -26 19 -41.5t50 -15.5q34 0 57 21.5t23 54.5q0 23 -17.5 38
t-49.5 15q-38 0 -60 -22t-22 -50zM315 977q54 0 83.5 28t29.5 68q0 36 -25 55t-65 19q-44 0 -76.5 -26t-32.5 -70q0 -36 24 -55t62 -19z" />
    <glyph glyph-name="nine.numr" horiz-adv-x="581" 
d="M352 1073q-72 0 -114.5 37t-42.5 111q0 56 21 100.5t55.5 69.5t73 38t77.5 13q76 0 120 -38t56.5 -98t1.5 -141q-20 -123 -85.5 -198.5t-172.5 -75.5q-82 0 -121.5 44t-36.5 99h103q1 -23 21 -38t48 -15q116 0 144 162q-17 -27 -58 -48.5t-90 -21.5zM414 1350
q-40 0 -76.5 -30t-36.5 -91q0 -38 23.5 -57t58.5 -19q45 0 79 30.5t34 82.5q0 42 -24.5 63t-57.5 21z" />
    <glyph glyph-name="Aacutecy" horiz-adv-x="1464" 
d="M1260 1821l-271 -262h-231l137 262h365zM1024 0l-57 295h-564l-151 -295h-295l776 1434h254l332 -1434h-295zM506 498h422l-117 594z" />
    <glyph glyph-name="Ieacutecy" horiz-adv-x="1179" 
d="M651 1559h232l270 262h-365zM1194 1196h-713l-55 -356h608l-35 -222h-610l-57 -380h731l-39 -238h-1006l228 1434h985z" />
    <glyph glyph-name="Iiacutecy" horiz-adv-x="1421" 
d="M752 1559h231l270 262h-364zM246 1434h274l-160 -998h5l784 998h283l-228 -1434h-274l155 981h-4l-768 -981h-295z" />
    <glyph glyph-name="Oacutecy" horiz-adv-x="1480" 
d="M793 1559h231l270 262h-364zM866 1452q264 0 417 -149t153 -416q0 -184 -57 -349t-159.5 -288t-255 -195.5t-333.5 -72.5q-261 0 -413 148.5t-152 414.5q0 187 56 352t157.5 288.5t253 195t333.5 71.5zM668 219q92 0 171 36t135.5 98t96.5 144.5t59 175.5t19 191
q0 168 -82.5 259t-235.5 91q-115 0 -208.5 -55.5t-151.5 -148t-88.5 -206.5t-30.5 -237q0 -167 82.5 -257.5t233.5 -90.5z" />
    <glyph glyph-name="Uacutecy" horiz-adv-x="1247" 
d="M668 1559h231l270 262h-364zM1001 1434h308l-617 -1078q-134 -238 -269 -322.5t-341 -62.5l39 244q65 -7 113 0.5t80 29.5t50.5 44.5t38.5 58.5q52 95 21 199l-240 887h299l170 -680z" />
    <glyph glyph-name="Yeruacutecy" horiz-adv-x="1763" 
d="M928 1559h231l271 262h-365zM719 944q240 0 360.5 -102t120.5 -287q0 -263 -164.5 -409t-451.5 -146h-566l228 1434h274l-78 -490h277zM1546 0h-274l225 1434h275zM606 233q139 0 220 86.5t81 219.5q0 170 -213 170h-291l-71 -476h274z" />
    <glyph glyph-name="Ereversedacutecy" horiz-adv-x="1415" 
d="M1255 1821l-270 -262h-231l137 262h364zM805 1452q260 0 410.5 -147t150.5 -418q0 -186 -52.5 -350t-148.5 -287.5t-242.5 -195.5t-324.5 -72q-153 0 -272 50.5t-188.5 154.5t-65.5 247h266q24 -116 82.5 -165.5t179.5 -49.5q165 0 279.5 111t164.5 288h-432l35 222h432
v41q0 160 -74.5 246.5t-213.5 86.5q-127 0 -209 -52.5t-142 -157.5h-274q43 148 141.5 251t225 150t272.5 47z" />
    <glyph glyph-name="Iuacutecy" horiz-adv-x="1978" 
d="M1536 1821l-270 -262h-232l137 262h365zM1362 1452q264 0 416.5 -149t152.5 -416q0 -184 -57 -349t-159.5 -288t-255 -195.5t-333.5 -72.5q-261 0 -413 148.5t-152 414.5q0 37 2 55h-174l-94 -600h-275l226 1434h274l-96 -611h172q71 281 273.5 455t492.5 174zM1163 219
q92 0 171.5 36t135.5 98t96 144.5t59.5 175.5t19.5 191q0 168 -82.5 259t-235.5 91q-115 0 -208.5 -55.5t-151.5 -148t-88.5 -206.5t-30.5 -237q0 -167 82 -257.5t233 -90.5z" />
    <glyph glyph-name="Iaacutecy" horiz-adv-x="1361" 
d="M1229 1821l-271 -262h-231l137 262h365zM1372 1434l-227 -1434h-275l86 537h-354q-108 0 -179.5 -57.5t-88.5 -174.5l-10 -72q-13 -92 -30 -141.5t-48 -91.5h-279q68 92 86 246l10 82q17 133 85 216t192 126q-73 37 -118.5 111t-45.5 184q0 218 160 343.5t422 125.5h614z
M655 756h336l70 440h-318q-138 0 -215 -71.5t-77 -184.5q0 -88 52.5 -136t151.5 -48z" />
    <glyph glyph-name="aacutecy" horiz-adv-x="1163" 
d="M1049 1452l-271 -262h-231l137 262h365zM1028 647l-63 -416q-6 -42 10.5 -59.5t58.5 -19.5l-26 -146q-45 -14 -103 -14q-98 0 -152.5 44.5t-37.5 117.5l6 24q-47 -58 -81 -87q-125 -105 -292 -105q-150 0 -243 70.5t-93 213.5q0 85 30 148.5t87 104t129.5 64t167.5 34.5
q19 3 95.5 12t105.5 13.5t75.5 15.5t75.5 24q16 110 -30 151.5t-136 41.5q-86 0 -139.5 -30.5t-77.5 -98.5h-248q41 165 155.5 245t326.5 80q247 0 339.5 -104t59.5 -324zM717 338l35 197q-81 -27 -291 -60q-187 -29 -187 -168q0 -63 39 -98t113 -35q53 0 104 18.5t88 48
t60.5 53t38.5 44.5z" />
    <glyph glyph-name="ieacutecy" horiz-adv-x="1138" 
d="M1057 1452l-271 -262h-231l137 262h365zM1040 444h-761v-14q0 -128 63 -188t174 -60q80 0 132.5 24.5t92.5 72.5h244q-75 -152 -199 -222.5t-303 -70.5q-86 0 -164.5 26.5t-143.5 78t-103.5 138t-38.5 197.5q0 182 76.5 330t214 233.5t307.5 85.5q89 0 165.5 -25.5
t137 -77t95 -137.5t34.5 -198q0 -38 -7 -100t-16 -93zM612 879q-121 0 -199 -76t-112 -197h514q8 24 8 68q0 94 -57 149.5t-154 55.5z" />
    <glyph glyph-name="iiacutecy" horiz-adv-x="1222" 
d="M598 1190h231l271 262h-365zM166 1065h262l-109 -700h5l587 700h273l-168 -1065h-262l106 684h-4l-577 -684h-281z" />
    <glyph glyph-name="oacutecy" horiz-adv-x="1165" 
d="M549 1190h231l271 262h-365zM639 1075q65 0 128 -16t122 -51t103 -85.5t71 -126.5t27 -167q0 -177 -75 -323.5t-213.5 -233t-312.5 -86.5q-84 0 -162 25.5t-145 77t-107 140.5t-40 205q0 131 45.5 248.5t124 204t192 137.5t242.5 51zM838 614q0 120 -62.5 184t-157.5 64
q-77 0 -141 -37t-104.5 -97.5t-63 -134t-22.5 -149.5q0 -118 62.5 -181.5t158.5 -63.5q102 0 179.5 63.5t114 156.5t36.5 195z" />
    <glyph glyph-name="uacutecy" horiz-adv-x="1142" 
d="M557 1190h231l271 262h-365zM905 1065h271l-631 -1112q-123 -218 -247.5 -295t-326.5 -53l35 217q65 -7 116 3t86.5 35.5t59.5 55t45 70.5q21 39 25.5 58.5t-2.5 61.5l-242 959h260l160 -737z" />
    <glyph glyph-name="yeruacutecy" horiz-adv-x="1593" 
d="M784 1190h232l270 262h-364zM657 700q182 0 287 -81.5t105 -223.5q0 -186 -135.5 -290.5t-352.5 -104.5h-553l168 1065h262l-57 -365h276zM1292 1065h262l-168 -1065h-262zM580 207q102 0 160.5 44.5t58.5 125.5q0 119 -162 119h-287l-47 -289h277z" />
    <glyph glyph-name="ereversedacutecy" horiz-adv-x="1093" 
d="M1034 1452l-270 -262h-232l138 262h364zM578 1075q68 0 130.5 -15t119.5 -48.5t99.5 -82.5t67.5 -122t25 -162q0 -185 -74 -335t-210.5 -237t-309.5 -87q-80 0 -147 18t-125 59t-94 116t-42 179h234q9 -81 51.5 -120t134.5 -39q107 0 184 72t113 188h-311l22 162h318v20
q0 105 -56.5 163t-150.5 58q-175 0 -246 -157h-241q127 370 508 370z" />
    <glyph glyph-name="iuacutecy" horiz-adv-x="1609" 
d="M1294 1452l-270 -262h-231l137 262h364zM1083 1075q65 0 128 -16t122 -51t103 -85.5t71 -126.5t27 -167q0 -177 -75 -323.5t-213 -233t-312 -86.5q-84 0 -161.5 25.5t-144.5 76t-107.5 138.5t-41.5 202h-141l-68 -430h-262l168 1065h262l-67 -428h137q58 195 213 317.5
t362 122.5zM952 199q102 0 179.5 63.5t114 156.5t36.5 195q0 120 -62 184t-157 64q-77 0 -141.5 -37t-105 -97.5t-63 -134t-22.5 -149.5q0 -118 62.5 -181.5t158.5 -63.5z" />
    <glyph glyph-name="iaacutecy" horiz-adv-x="1155" 
d="M1065 1452l-270 -262h-232l137 262h365zM563 1065h553l-168 -1065h-262l57 365h-282q-66 0 -102.5 -27.5t-45.5 -89.5l-14 -88q-8 -66 -19.5 -96t-35.5 -64h-260q23 33 34.5 63t22.5 97l12 88q10 68 40 115t95 77q-112 79 -112 230q0 186 135 290.5t352 104.5zM774 569
l47 289h-276q-102 0 -160.5 -44.5t-58.5 -125.5q0 -119 161 -119h287z" />
    </font>
</defs>
</svg>
