<?xml version="1.0" standalone="no"?>
<!DOCTYPE svg PUBLIC "-//W3C//DTD SVG 1.1//EN" "http://www.w3.org/Graphics/SVG/1.1/DTD/svg11.dtd" >
<svg xmlns="http://www.w3.org/2000/svg" xmlns:xlink="http://www.w3.org/1999/xlink" version="1.1">
<metadata>
Created by FontForge 20170731 at Mon Aug  7 16:11:19 2023
 By Aleksey,,,
(c) 2018 Connary Fagen
</metadata>
<defs>
<font id="ArticulatCF-ExtraBold" horiz-adv-x="1206" >
  <font-face 
    font-family="Articulat CF Extra Bold"
    font-weight="800"
    font-stretch="normal"
    units-per-em="2048"
    panose-1="0 0 9 0 0 0 0 0 0 0"
    ascent="1638"
    descent="-410"
    x-height="1065"
    cap-height="1434"
    bbox="-367 -817 2146 1980"
    underline-thickness="102"
    underline-position="-307"
    unicode-range="U+0020-FB02"
  />
<missing-glyph horiz-adv-x="1044" 
d="M856 1638v-2089h-661v2089h661zM696 1499h-346v-69h137v-78h-139v-68h348v68h-139v78h139v69zM557 1229h-209v-217h348v71h-139v146zM487 1157v-74h-69v74h69zM696 954h-348v-67h139v-78h-139v-70h209v148h139v67zM696 829h-69v-137h-279v-71h348v208zM696 575h-209v-116
h70v47h70v-98h-209v167h-70v-235h348v235zM696 213h-348v-236h348v236zM627 145v-98h-209v98h209zM696 -70h-348v-69h148l-148 -99v-69h348v69h-213l146 99h67v69z" />
    <glyph glyph-name="fi" unicode="fi" horiz-adv-x="1286" 
d="M195 1090q0 75 13 134.5t33 98.5t52 67t61.5 42.5t70.5 22.5t69.5 9.5t68.5 1.5q42 0 90 -7t70 -15v-244q-36 8 -76 8q-69 0 -93 -29t-24 -98v-16h185v-260h-185v-805h-335v805h-154v260h154v25zM848 1452h336v-248h-336v248zM848 0v1065h336v-1065h-336z" />
    <glyph glyph-name="fl" unicode="fl" horiz-adv-x="1286" 
d="M195 1090q0 75 13 134.5t33 98.5t52 67t61.5 42.5t70.5 22.5t69.5 9.5t68.5 1.5q42 0 90 -7t70 -15v-244q-36 8 -76 8q-69 0 -93 -29t-24 -98v-16h185v-260h-185v-805h-335v805h-154v260h154v25zM848 1446h336v-1446h-336v1446z" />
    <glyph glyph-name=".notdef" horiz-adv-x="1044" 
d="M856 1638v-2089h-661v2089h661zM696 1499h-346v-69h137v-78h-139v-68h348v68h-139v78h139v69zM557 1229h-209v-217h348v71h-139v146zM487 1157v-74h-69v74h69zM696 954h-348v-67h139v-78h-139v-70h209v148h139v67zM696 829h-69v-137h-279v-71h348v208zM696 575h-209v-116
h70v47h70v-98h-209v167h-70v-235h348v235zM696 213h-348v-236h348v236zM627 145v-98h-209v98h209zM696 -70h-348v-69h148l-148 -99v-69h348v69h-213l146 99h67v69z" />
    <glyph glyph-name=".null" horiz-adv-x="0" 
 />
    <glyph glyph-name="nonmarkingreturn" horiz-adv-x="682" 
 />
    <glyph glyph-name="space" unicode=" " horiz-adv-x="544" 
 />
    <glyph glyph-name="exclam" unicode="!" horiz-adv-x="565" 
d="M444 502h-323l-8 932h340zM104 375h359v-375h-359v375z" />
    <glyph glyph-name="quotedbl" unicode="&#x22;" horiz-adv-x="1019" 
d="M82 805h321v629h-321v-629zM616 805h322v629h-322v-629z" />
    <glyph glyph-name="numbersign" unicode="#" horiz-adv-x="1243" 
d="M1151 831h-190l-25 -229h160v-262h-185l-34 -340h-254l34 340h-145l-35 -340h-254l35 340h-166v262h191l24 229h-160v263h185l35 340h254l-35 -340h145l35 340h254l-35 -340h166v-263zM682 602l25 229h-146l-24 -229h145z" />
    <glyph glyph-name="dollar" unicode="$" horiz-adv-x="1306" 
d="M1235 420q0 -131 -69.5 -227.5t-183 -147.5t-259.5 -61v-168h-131v168q-231 15 -368.5 143.5t-147.5 355.5h348q28 -174 168 -207v322l-66 12q-75 15 -133.5 34t-114.5 52.5t-92.5 77.5t-59 109.5t-22.5 148.5q0 182 134 295.5t354 124.5v166h131v-170
q207 -21 333.5 -135.5t139.5 -315.5h-348q-11 124 -125 156v-295l70 -14q243 -51 342.5 -147.5t99.5 -276.5zM573 889l19 -4v274q-69 -10 -105 -53t-36 -86q0 -110 122 -131zM723 276q73 13 117.5 54.5t44.5 93.5q0 63 -35.5 96t-126.5 53v-297z" />
    <glyph glyph-name="percent" unicode="%" horiz-adv-x="1527" 
d="M391 748q-134 0 -216.5 88.5t-82.5 259.5q0 173 81.5 260.5t217.5 87.5q134 0 215.5 -87.5t81.5 -260.5q0 -172 -81.5 -260t-215.5 -88zM217 0l846 1440l240 -6l-840 -1434h-246zM391 961q33 0 50.5 26t17.5 109t-17.5 110t-50.5 27q-34 0 -51.5 -27t-17.5 -110
q0 -57 10 -88t23 -39t36 -8zM1139 -10q-136 0 -217.5 87.5t-81.5 260.5t81 260.5t218 87.5q134 0 215.5 -87.5t81.5 -260.5t-81.5 -260.5t-215.5 -87.5zM1139 203q32 0 48.5 26.5t16.5 108.5t-16.5 108.5t-48.5 26.5q-35 0 -52.5 -26t-17.5 -109t17.5 -109t52.5 -26z" />
    <glyph glyph-name="ampersand" unicode="&#x26;" horiz-adv-x="1509" 
d="M1456 0h-371l-75 82q-165 -107 -375 -107q-108 0 -206 27.5t-178.5 80t-128.5 139.5t-48 196q0 61 20.5 114.5t48.5 89t72 68.5t76.5 50.5t75.5 37.5q-72 92 -107 167.5t-35 156.5q0 72 23.5 134.5t71.5 114t131 81.5t192 30q106 0 186.5 -30t128 -81.5t70.5 -115
t23 -135.5q0 -233 -269 -371l-4 -2l209 -223q57 118 60 254h303q-26 -291 -150 -484zM643 1217q-66 0 -101.5 -36.5t-35.5 -86.5q0 -40 22.5 -79t87.5 -112q67 38 103.5 76t44.5 62t8 53q0 51 -33.5 87t-95.5 36zM639 262q83 0 162 43l-269 285q-96 -67 -96 -164
q0 -70 56 -117t147 -47z" />
    <glyph glyph-name="quotesingle" unicode="'" horiz-adv-x="485" 
d="M82 805h321v629h-321v-629z" />
    <glyph glyph-name="parenleft" unicode="(" horiz-adv-x="745" 
d="M309 1526h326q-207 -377 -207 -871q0 -523 207 -921h-326q-217 388 -217 921q0 507 217 871z" />
    <glyph glyph-name="parenright" unicode=")" horiz-adv-x="745" 
d="M418 1526q217 -364 217 -871q0 -533 -217 -921h-326q207 398 207 921q0 494 -207 871h326z" />
    <glyph glyph-name="asterisk" unicode="*" horiz-adv-x="1122" 
d="M969 1102l-183 -51l134 -174l-240 -146l-117 166l-119 -166l-239 146l133 174l-184 51l65 276l213 -61l-6 225h266l-2 -227l215 63z" />
    <glyph glyph-name="plus" unicode="+" horiz-adv-x="1249" 
d="M1157 723v-289h-379v-379h-309v379h-377v289h377v375h309v-375h379z" />
    <glyph glyph-name="comma" unicode="," horiz-adv-x="563" 
d="M102 -354v100q70 13 104 65t34 123v66h-138v375h359v-340q0 -103 -22 -177t-54.5 -114t-84 -63t-95 -29t-103.5 -6z" />
    <glyph glyph-name="hyphen" unicode="-" horiz-adv-x="813" 
d="M82 688h649v-250h-649v250z" />
    <glyph glyph-name="period" unicode="." horiz-adv-x="563" 
d="M102 375h359v-375h-359v375z" />
    <glyph glyph-name="slash" unicode="/" horiz-adv-x="1019" 
d="M958 1434l-559 -1430h-338l560 1430h337z" />
    <glyph glyph-name="zero" unicode="0" horiz-adv-x="1316" 
d="M659 1452q86 0 166.5 -22.5t158 -76.5t134.5 -136t92 -210.5t35 -289.5q0 -162 -35 -290.5t-92 -210t-134.5 -136t-158 -76.5t-166.5 -22q-71 0 -138 16t-134 50t-122.5 92.5t-99 137t-67.5 191.5t-24 248q0 161 35 289.5t92 210.5t135 136t157.5 76.5t165.5 22.5z
M907 717q0 71 -5.5 130.5t-22 120.5t-43 102.5t-72 68t-105.5 26.5q-61 0 -106.5 -26.5t-72.5 -68t-43 -102.5t-21.5 -120t-5.5 -131t5.5 -131.5t21.5 -120.5t43 -102.5t72.5 -68t106.5 -26.5q60 0 105.5 26.5t72 68t43 102.5t22 120.5t5.5 131.5z" />
    <glyph glyph-name="one" unicode="1" horiz-adv-x="858" 
d="M723 1434v-1434h-336v1028q-100 -102 -324 -102v274q131 16 209 69t115 165h336z" />
    <glyph glyph-name="two" unicode="2" horiz-adv-x="1191" 
d="M82 0v33q0 120 15.5 205t58 168.5t122.5 155.5t205 145q20 11 60 32t60 32.5t51.5 32t48 38t34 42t25.5 53.5t8 64q0 40 -11.5 71.5t-29.5 49.5t-42 29.5t-46 15.5t-45 4q-31 0 -59 -8t-58.5 -28.5t-48.5 -64t-18 -105.5v-25h-322v25q0 222 125 352.5t381 130.5
q127 0 226.5 -35.5t160.5 -97.5t92 -141.5t31 -172.5q0 -56 -11.5 -104t-27.5 -84t-47 -71t-57 -58t-71.5 -52t-77 -46t-86 -46.5t-87.5 -47.5q-97 -54 -146 -104.5t-49 -108.5v-11h654v-268h-1018z" />
    <glyph glyph-name="three" unicode="3" horiz-adv-x="1267" 
d="M887 758q29 -2 64.5 -13t78 -37t76.5 -62.5t57 -95t23 -128.5q0 -199 -147 -323t-412 -124q-259 0 -408 141t-147 369h313q4 -61 27.5 -106.5t60 -70t75 -35.5t79.5 -11q36 0 71 8t71 26t58.5 55.5t22.5 88.5q0 34 -13.5 65.5t-43.5 60t-85 46t-130 17.5h-76v219h76
q57 0 99.5 13t65.5 31.5t36.5 44t17.5 45t4 40.5q0 71 -53.5 107t-126.5 36q-190 0 -195 -194h-313q0 226 134.5 353.5t368.5 127.5q224 0 366 -113.5t142 -273.5q0 -70 -24 -128.5t-62 -94t-76 -56.5t-75 -28z" />
    <glyph glyph-name="four" unicode="4" horiz-adv-x="1251" 
d="M1180 324h-164v-324h-336v324h-608v266l608 844h336v-844h164v-266zM680 590v442l-318 -442h318z" />
    <glyph glyph-name="five" unicode="5" horiz-adv-x="1251" 
d="M702 995q137 0 247 -58.5t175.5 -173.5t65.5 -267q0 -247 -153.5 -381.5t-415.5 -134.5q-247 0 -390.5 134t-138.5 351h305q2 -61 25 -106t58 -68.5t70 -34t71 -10.5q28 0 54.5 4.5t61 20t59.5 41t42.5 73t17.5 111.5q0 61 -20 107.5t-47 70.5t-61.5 39.5t-57 19.5
t-39.5 4q-137 0 -209 -110h-301l110 807h820v-267h-596l-37 -274q0 -1 2 1.5t8.5 8t15.5 13t23 16.5t30.5 18t39 17t46.5 14t55 10t64 4z" />
    <glyph glyph-name="six" unicode="6" horiz-adv-x="1243" 
d="M707 932q48 0 102 -10.5t120.5 -41.5t118.5 -78.5t87.5 -132t35.5 -192.5q0 -115 -36.5 -205.5t-92.5 -143.5t-130 -87.5t-141 -46.5t-134 -12q-88 0 -166.5 22.5t-150.5 76.5t-123.5 135.5t-82 208t-30.5 286.5q0 169 33.5 303.5t100.5 233t174 151.5t249 53
q104 0 189.5 -26t140.5 -67.5t93.5 -96.5t56 -109t20.5 -109h-295q-10 45 -34.5 77.5t-55.5 48.5t-58.5 23t-52.5 7q-50 0 -90.5 -18.5t-65.5 -45.5t-43 -67.5t-26.5 -72.5t-13 -75t-5 -60t-0.5 -40q1 4 12.5 15t37 27.5t59.5 31.5t86.5 26t110.5 11zM645 252q30 0 60.5 10
t63.5 32.5t54 71t21 115.5q0 64 -23.5 111t-59.5 69t-67 31.5t-57 9.5q-23 0 -47 -5t-52.5 -20t-50.5 -38t-36.5 -63t-14.5 -91q0 -61 18 -106.5t42 -68.5t56.5 -37.5t53 -17.5t39.5 -3z" />
    <glyph glyph-name="seven" unicode="7" horiz-adv-x="1064" 
d="M993 1434v-275q-382 -572 -450 -1159h-346q82 587 483 1159h-619v275h932z" />
    <glyph glyph-name="eight" unicode="8" horiz-adv-x="1241" 
d="M940 815q115 -54 176.5 -145.5t61.5 -210.5q0 -115 -45.5 -208t-123.5 -151t-177 -89t-211 -31q-89 0 -170.5 19t-152.5 58.5t-123 95.5t-82 134.5t-30 171.5q0 119 61 210.5t175 145.5q-139 106 -139 266t124 263.5t337 103.5t336.5 -103.5t123.5 -263.5t-141 -266z
M621 1221q-79 0 -122.5 -44t-43.5 -114q0 -71 42 -118.5t124 -47.5t123.5 47.5t41.5 118.5q0 70 -44 114t-121 44zM621 250q113 0 164 65.5t51 159.5q0 106 -62.5 162.5t-152.5 56.5q-91 0 -154.5 -56.5t-63.5 -162.5q0 -94 52.5 -159.5t165.5 -65.5z" />
    <glyph glyph-name="nine" unicode="9" horiz-adv-x="1232" 
d="M526 502q-48 0 -102 10t-120.5 41t-118 79t-87 132t-35.5 192q0 115 36.5 205.5t92 143.5t129.5 87.5t141 47t134 12.5q88 0 166.5 -22.5t151 -76.5t124 -135.5t82.5 -208t31 -286.5q0 -169 -33.5 -303.5t-100.5 -233t-175 -151.5t-250 -53q-104 0 -189.5 26t-140.5 67.5
t-93.5 96t-56 108.5t-20.5 109h297q9 -45 33 -77.5t55 -48.5t58.5 -23t52.5 -7q50 0 90.5 19t65.5 45.5t43 67.5t26 73t12.5 75t5 59.5t0.5 39.5q-1 -4 -12 -15t-37 -27.5t-59.5 -31.5t-86 -25.5t-110.5 -10.5zM588 1182q-23 0 -47 -5.5t-51.5 -21t-49 -40t-35.5 -67
t-14 -96.5q0 -52 16 -93t39.5 -64.5t53 -38.5t53 -20t43.5 -5q23 0 47 5t52.5 20t50.5 38t36.5 63t14.5 91q0 61 -17.5 106.5t-42 69t-56.5 37.5t-53 17.5t-40 3.5z" />
    <glyph glyph-name="colon" unicode=":" horiz-adv-x="645" 
d="M143 1067h359v-375h-359v375zM143 375h359v-375h-359v375z" />
    <glyph glyph-name="semicolon" unicode=";" horiz-adv-x="645" 
d="M143 1067h359v-375h-359v375zM143 -354v100q70 13 104 65t34 123v66h-138v375h359v-340q0 -103 -22 -177t-54.5 -114t-84 -63t-95 -29t-103.5 -6z" />
    <glyph glyph-name="less" unicode="&#x3c;" horiz-adv-x="1038" 
d="M946 309l-549 187l549 184v309l-854 -352v-283l854 -354v309z" />
    <glyph glyph-name="equal" unicode="=" horiz-adv-x="995" 
d="M78 852h702v-250h-702v250zM78 524h702v-250h-702v250z" />
    <glyph glyph-name="greater" unicode="&#x3e;" horiz-adv-x="1038" 
d="M92 309v-309l854 354v283l-854 352v-309l549 -184z" />
    <glyph glyph-name="question" unicode="?" horiz-adv-x="1181" 
d="M608 1448q-85 0 -159 -16t-141.5 -53.5t-115 -94t-75 -143.5t-25.5 -197h336q0 45 7 79.5t25 68t55.5 51.5t92.5 18q44 0 75 -13.5t45.5 -35.5t20 -42t5.5 -42q0 -41 -31.5 -76t-76 -67.5t-89.5 -74t-76.5 -113.5t-31.5 -167v-45h360v45q0 50 15.5 89t40.5 65.5t55 50
t59.5 49.5t54.5 57t40.5 78.5t15.5 108.5q0 199 -133.5 309.5t-348.5 110.5zM451 375h358v-375h-358v375z" />
    <glyph glyph-name="at" unicode="@" horiz-adv-x="1556" 
d="M885 1032h217v-321q0 -66 20.5 -98.5t57.5 -32.5q22 0 38 10.5t24 25t12.5 37.5t5 39t0.5 39q0 218 -134.5 357t-353.5 139q-98 0 -184.5 -35t-151.5 -99.5t-103 -164t-38 -221.5q0 -148 66.5 -263.5t174.5 -176t236 -60.5q183 0 287 94l260 -61q-78 -117 -226 -185.5
t-321 -68.5q-133 0 -258 50.5t-223 141t-157.5 228.5t-59.5 301q0 114 27 217t75.5 183.5t114.5 145.5t143.5 107.5t163.5 65t174 22.5q113 0 219.5 -34t195 -98t155 -150.5t104 -199t37.5 -235.5q0 -174 -88.5 -271.5t-212.5 -97.5q-29 0 -55.5 5t-45.5 11t-37.5 18.5
t-29 20.5t-23.5 25t-17.5 23t-14.5 23t-11 18q-1 -9 -16 -31t-40.5 -48.5t-70.5 -46.5t-96 -20t-101.5 20.5t-96 60t-73.5 107.5t-28 154t28 155.5t72 109.5t94 61t99 21q46 0 91 -21.5t75 -56.5v61zM756 578q34 0 57 14t33 36t14 40t4 34t-4 33.5t-14 40.5t-33.5 38
t-56.5 15q-32 0 -55 -16.5t-32.5 -40.5t-13.5 -41t-4 -29q0 -7 2 -18.5t8.5 -31t17.5 -35.5t31 -27.5t46 -11.5z" />
    <glyph glyph-name="A" unicode="A" horiz-adv-x="1501" 
d="M1079 0l-80 240h-499l-78 -240h-379l549 1434h315l551 -1434h-379zM586 498h329l-165 503z" />
    <glyph glyph-name="B" unicode="B" horiz-adv-x="1380" 
d="M1032 788q119 -36 191.5 -137.5t72.5 -218.5q0 -206 -139.5 -319t-419.5 -113h-633v1434h607q238 0 363.5 -101.5t125.5 -275.5q0 -90 -49 -161.5t-119 -107.5zM455 1145v-262h247q62 0 95.5 41t33.5 98q0 64 -37.5 93.5t-80.5 29.5h-258zM723 289q101 0 148 45t47 112
q0 30 -7 57t-25 54.5t-55.5 44t-91.5 16.5h-284v-329h268z" />
    <glyph glyph-name="C" unicode="C" horiz-adv-x="1409" 
d="M750 285q104 0 157.5 45t93.5 155h347q-10 -124 -63.5 -222t-137 -158.5t-187 -91.5t-219.5 -31q-304 0 -485.5 193.5t-181.5 541.5t181.5 541.5t485.5 193.5q115 0 217.5 -31t186 -91.5t137 -157.5t64.5 -220h-349q-40 108 -92.5 152.5t-154.5 44.5
q-151 0 -229.5 -115.5t-78.5 -316.5q0 -200 78.5 -316t229.5 -116z" />
    <glyph glyph-name="D" unicode="D" horiz-adv-x="1425" 
d="M674 1434q340 0 515 -184.5t175 -532.5t-175 -532.5t-515 -184.5h-570v1434h570zM639 303q209 0 291 94t82 320t-82 319.5t-291 93.5h-184v-827h184z" />
    <glyph glyph-name="E" unicode="E" horiz-adv-x="1212" 
d="M455 303h696v-303h-1047v1434h1026v-304h-675v-266h573v-280h-573v-281z" />
    <glyph glyph-name="F" unicode="F" horiz-adv-x="1122" 
d="M1061 1130h-606v-284h501v-281h-501v-565h-351v1434h957v-304z" />
    <glyph glyph-name="G" unicode="G" horiz-adv-x="1470" 
d="M1389 801v-101q0 -362 -148 -540t-477 -178q-321 0 -505.5 193t-184.5 542q0 347 182.5 541t484.5 194q111 0 211 -30t182.5 -87t138.5 -147.5t73 -204.5h-349q-41 86 -98 126t-149 40q-148 0 -228 -116.5t-80 -315.5q0 -197 80.5 -314.5t241.5 -117.5q139 0 212.5 54
t90.5 187h-276v275h598z" />
    <glyph glyph-name="H" unicode="H" horiz-adv-x="1402" 
d="M948 1434h352v-1434h-352v578h-493v-578h-351v1434h351v-572h493v572z" />
    <glyph glyph-name="I" unicode="I" horiz-adv-x="559" 
d="M455 0h-351v1434h351v-1434z" />
    <glyph glyph-name="J" unicode="J" horiz-adv-x="1093" 
d="M213 397q108 -108 248 -108q40 0 70 8.5t58 31t43 68t15 113.5v924h352v-942q0 -132 -42 -231.5t-116.5 -158t-168 -87.5t-205.5 -29q-142 0 -253.5 55t-180.5 139z" />
    <glyph glyph-name="K" unicode="K" horiz-adv-x="1478" 
d="M846 793l592 -793h-385l-400 537l2 28l-200 -237v-328h-351v1434h351v-633l528 633h399z" />
    <glyph glyph-name="L" unicode="L" horiz-adv-x="1138" 
d="M455 303h632v-303h-983v1434h351v-1131z" />
    <glyph glyph-name="M" unicode="M" horiz-adv-x="1748" 
d="M104 1434h410l360 -965l361 965h412v-1434h-353v850h-12l-281 -850h-253l-281 850h-12v-850h-351v1434z" />
    <glyph glyph-name="N" unicode="N" horiz-adv-x="1441" 
d="M1339 1434v-1434h-366l-510 844h-8v-844h-351v1434h353l522 -869h8v869h352z" />
    <glyph glyph-name="O" unicode="O" horiz-adv-x="1527" 
d="M764 1452q317 0 503.5 -196.5t186.5 -538.5q0 -340 -187 -537.5t-503 -197.5q-317 0 -503.5 197.5t-186.5 537.5q0 343 186 539t504 196zM764 285q155 0 238 117t83 315q0 201 -83 316.5t-238 115.5t-238.5 -116t-83.5 -316q0 -198 83.5 -315t238.5 -117z" />
    <glyph glyph-name="P" unicode="P" horiz-adv-x="1310" 
d="M694 1434q283 0 423 -137t140 -369q0 -234 -140 -371t-423 -137h-239v-420h-351v1434h590zM690 723q95 0 144 54.5t49 150.5q0 95 -49 148.5t-144 53.5h-235v-407h235z" />
    <glyph glyph-name="Q" unicode="Q" horiz-adv-x="1497" 
d="M1454 717q0 -291 -139 -481l90 -93l-207 -194l-102 104q-145 -71 -332 -71q-317 0 -503.5 197.5t-186.5 537.5q0 343 186 539t504 196q317 0 503.5 -196.5t186.5 -538.5zM764 285q50 0 90 12l-176 178l207 195l168 -170q32 85 32 217q0 201 -83 316.5t-238 115.5
t-238.5 -116t-83.5 -316q0 -198 83.5 -315t238.5 -117z" />
    <glyph glyph-name="R" unicode="R" horiz-adv-x="1394" 
d="M1300 240q0 -89 8.5 -139.5t32.5 -100.5h-350q-25 49 -33 98.5t-8 141.5v92q0 74 -48 122t-134 48h-313v-502h-351v1434h633q141 0 248 -34t171 -95t96 -139t32 -171q0 -65 -16 -118.5t-46.5 -94.5t-58 -67t-67.5 -56q112 -60 158 -133.5t46 -181.5v-104zM717 778
q116 0 160.5 44.5t44.5 142.5q0 82 -50.5 122.5t-142.5 40.5h-274v-350h262z" />
    <glyph glyph-name="S" unicode="S" horiz-adv-x="1351" 
d="M821 844q252 -51 355.5 -147.5t103.5 -276.5q0 -107 -48 -191.5t-131.5 -137.5t-191.5 -81t-233 -28q-267 0 -428.5 129.5t-173.5 371.5h362q36 -213 244 -213q103 0 169 45.5t66 108.5q0 67 -41.5 100.5t-148.5 53.5l-182 32q-78 15 -138.5 34t-119 52.5t-97 77.5
t-61.5 109.5t-23 148.5q0 191 151.5 305.5t397.5 114.5q167 0 293.5 -49t205 -152.5t89.5 -253.5h-362q-19 166 -226 166q-92 0 -140 -46.5t-48 -96.5q0 -110 127 -131z" />
    <glyph glyph-name="T" unicode="T" horiz-adv-x="1241" 
d="M1200 1434v-304h-403v-1130h-353v1130h-401v304h1157z" />
    <glyph glyph-name="U" unicode="U" horiz-adv-x="1411" 
d="M1307 559q0 -183 -77 -314.5t-211.5 -197t-311.5 -65.5q-274 0 -438.5 151.5t-164.5 425.5v875h351v-863q0 -286 252 -286q247 0 247 286v863h353v-875z" />
    <glyph glyph-name="V" unicode="V" horiz-adv-x="1480" 
d="M1073 1434h375l-551 -1434h-315l-549 1434h375l331 -1002z" />
    <glyph glyph-name="W" unicode="W" horiz-adv-x="2123" 
d="M1714 1434h369l-410 -1434h-323l-287 891l-289 -891h-321l-410 1434h367l225 -899l258 899h338l260 -899z" />
    <glyph glyph-name="X" unicode="X" horiz-adv-x="1406" 
d="M1374 0h-393l-279 432l-278 -432h-391l475 737l-449 697h394l252 -392l249 392h394l-449 -697z" />
    <glyph glyph-name="Y" unicode="Y" horiz-adv-x="1472" 
d="M918 518v-518h-363v518l-512 916h393l301 -578l299 578h396z" />
    <glyph glyph-name="Z" unicode="Z" horiz-adv-x="1282" 
d="M1200 303v-303h-1118v266l700 864h-684v304h1094l2 -267l-707 -864h713z" />
    <glyph glyph-name="bracketleft" unicode="[" horiz-adv-x="688" 
d="M440 1239v-1219h146v-286h-482v1792h482v-287h-146z" />
    <glyph glyph-name="backslash" unicode="\" horiz-adv-x="1019" 
d="M61 1434h338l559 -1430h-337z" />
    <glyph glyph-name="bracketright" unicode="]" horiz-adv-x="688" 
d="M248 1239h-146v287h482v-1792h-482v286h146v1219z" />
    <glyph glyph-name="asciicircum" unicode="^" horiz-adv-x="1040" 
d="M696 952l-176 260l-176 -260h-252l332 482h194l330 -482h-252z" />
    <glyph glyph-name="underscore" unicode="_" horiz-adv-x="1208" 
d="M92 0h1024v-287h-1024v287z" />
    <glyph glyph-name="grave" unicode="`" horiz-adv-x="518" 
d="M518 1190l-160 262h-366l244 -262h282z" />
    <glyph glyph-name="a" unicode="a" horiz-adv-x="1161" 
d="M1053 301q0 -46 20 -71t55 -27v-191q-43 -20 -118 -20q-111 0 -183.5 45.5t-72.5 128.5v-10l-8 -12q-7 -11 -14.5 -21.5t-23.5 -27t-33.5 -30.5t-44.5 -29t-56.5 -25.5t-70 -17.5t-85.5 -7q-72 0 -135 18.5t-116 56t-83.5 103.5t-30.5 153q0 70 24.5 123t53.5 82.5
t91 53.5t95.5 32t108.5 22q6 1 9 2t7.5 1.5t8.5 1.5q29 6 80 15t77.5 14t58 14.5t50.5 21.5q-2 131 -144 131q-131 0 -147 -110h-315q27 354 464 354q259 0 368.5 -108t109.5 -349v-317zM717 334v172q-28 -14 -56.5 -24t-47.5 -15t-52.5 -13t-56.5 -14q-62 -17 -88.5 -42.5
t-26.5 -67.5q0 -43 30 -75t93 -32q54 0 101 22.5t69 44.5t35 44z" />
    <glyph glyph-name="b" unicode="b" horiz-adv-x="1232" 
d="M713 1075q58 0 119.5 -18t125 -60.5t112.5 -103t80.5 -154.5t31.5 -207q0 -116 -31.5 -211t-81.5 -156t-114 -102.5t-126 -59t-122 -17.5q-61 0 -112.5 17t-82 42.5t-48.5 47.5t-24 40v-133h-336v1446h336v-500q26 44 100.5 86.5t172.5 42.5zM637 254q99 0 158 69t59 209
q0 139 -59 207t-158 68q-93 0 -152 -71t-59 -204q0 -136 58.5 -207t152.5 -71z" />
    <glyph glyph-name="c" unicode="c" horiz-adv-x="1124" 
d="M586 256q82 0 120 36.5t54 102.5h303q-14 -96 -51.5 -170.5t-85.5 -118.5t-109.5 -72t-118 -38t-116.5 -10q-76 0 -148 17t-142.5 57.5t-122.5 101t-84 155.5t-32 213q0 116 32 210.5t84 155.5t121.5 102.5t141.5 59t148 17.5q63 0 118.5 -9.5t115.5 -36.5t105.5 -70
t82 -115.5t51.5 -167.5h-305q-12 61 -47.5 95t-116.5 34q-101 0 -154 -72t-53 -203q0 -133 53.5 -203.5t155.5 -70.5z" />
    <glyph glyph-name="d" unicode="d" horiz-adv-x="1232" 
d="M793 1446h335v-1446h-335v133q-6 -18 -24 -40t-48.5 -47.5t-82 -42.5t-112.5 -17q-60 0 -122 17.5t-126 59t-114 102.5t-81.5 156t-31.5 211q0 113 31.5 207t80.5 154.5t112.5 103t125 60.5t119.5 18q98 0 172.5 -42.5t100.5 -86.5v500zM596 254q94 0 152.5 71t58.5 207
q0 133 -59 204t-152 71q-99 0 -158 -68t-59 -207q0 -140 59 -209t158 -69z" />
    <glyph glyph-name="e" unicode="e" horiz-adv-x="1155" 
d="M1104 483q0 -37 -2 -53h-725q15 -104 69.5 -150.5t155.5 -46.5q150 0 184 91h289q-80 -338 -493 -338q-74 0 -146 17.5t-142 58.5t-123 101.5t-85.5 154t-32.5 208.5q0 116 32 210.5t85 156.5t123.5 104t144 60t150.5 18q83 0 156 -18.5t140 -62.5t115 -110.5t76.5 -169
t28.5 -231.5zM379 633h403q-3 89 -52 141.5t-142 52.5q-174 0 -209 -194z" />
    <glyph glyph-name="f" unicode="f" horiz-adv-x="763" 
d="M647 1208q-69 0 -93 -29t-24 -98v-16h185v-260h-185v-805h-335v805h-154v260h154v25q0 75 13 134.5t33 98.5t52 67t61.5 42.5t70.5 22.5t69.5 9.5t68.5 1.5q42 0 90 -7t70 -15v-244q-36 8 -76 8z" />
    <glyph glyph-name="g" unicode="g" horiz-adv-x="1220" 
d="M782 1073h336v-1038q0 -118 -37.5 -208.5t-93 -142t-131 -83.5t-140.5 -42t-132 -10q-173 0 -301 66.5t-183 177.5l207 129q22 -22 34.5 -32.5t43 -30t71.5 -28.5t93 -9q127 0 180 49.5t53 163.5v100q-6 -17 -22.5 -38.5t-47 -47.5t-82.5 -43.5t-114 -17.5
q-58 0 -118.5 17.5t-123 59t-111 102t-79.5 155.5t-31 210q0 113 30.5 207t79 154.5t110 103t121.5 60.5t116 18q97 0 171.5 -42.5t100.5 -86.5v127zM592 258q93 0 149 69t56 205q0 134 -56 203.5t-149 69.5t-150 -68.5t-57 -204.5t57 -205t150 -69z" />
    <glyph glyph-name="h" unicode="h" horiz-adv-x="1255" 
d="M772 1075q85 0 152 -23t119 -72.5t80 -135t28 -203.5v-641h-336v623q0 89 -47.5 132.5t-122.5 43.5q-48 0 -88.5 -19.5t-64 -48.5t-37 -58.5t-15.5 -54.5v-618h-336v1446h336v-582q14 31 40.5 64t66.5 68t99.5 57t125.5 22z" />
    <glyph glyph-name="i" unicode="i" horiz-adv-x="542" 
d="M104 1452h336v-248h-336v248zM104 1065h336v-1065h-336v1065z" />
    <glyph glyph-name="j" unicode="j" horiz-adv-x="559" 
d="M119 1452h336v-248h-336v248zM-125 -145q84 -21 133 -21q35 0 59 12.5t34.5 33.5t14 38.5t3.5 36.5v1110h336v-1169q0 -171 -94 -259t-259 -88q-139 0 -227 35v271z" />
    <glyph glyph-name="k" unicode="k" horiz-adv-x="1214" 
d="M840 0l-330 406l-70 -72v-334h-336v1446h336v-727l328 346h377l-428 -444l487 -621h-364z" />
    <glyph glyph-name="l" unicode="l" horiz-adv-x="542" 
d="M104 1446h336v-1446h-336v1446z" />
    <glyph glyph-name="m" unicode="m" horiz-adv-x="1900" 
d="M1432 1075q78 0 142.5 -25.5t115.5 -78.5t79.5 -144t28.5 -213v-614h-336v608q0 96 -43.5 143.5t-111.5 47.5q-47 0 -86 -19.5t-60 -47.5t-32 -53t-11 -42v-637h-336v608q0 95 -44 143t-111 48q-87 0 -136 -59t-51 -122v-618h-336v1065h336v-201q13 31 36 64t60.5 68
t95 57t124.5 22q253 0 331 -223q38 86 133 154.5t212 68.5z" />
    <glyph glyph-name="n" unicode="n" horiz-adv-x="1255" 
d="M772 1075q85 0 152 -23t119 -72.5t80 -135t28 -203.5v-641h-336v623q0 89 -47.5 132.5t-122.5 43.5q-48 0 -88.5 -19.5t-64 -48.5t-37 -58.5t-15.5 -54.5v-618h-336v1065h336v-201q14 31 40.5 64t66.5 68t99.5 57t125.5 22z" />
    <glyph glyph-name="o" unicode="o" horiz-adv-x="1179" 
d="M590 1075q70 0 141 -17.5t143.5 -59.5t128 -103t90.5 -156t35 -211q0 -114 -35 -208t-90.5 -154.5t-128 -102.5t-143.5 -59.5t-141 -17.5t-141 17.5t-143 59.5t-127.5 102.5t-90.5 154.5t-35 208q0 116 35 211t90.5 156t127.5 103t143 59.5t141 17.5zM805 528
q0 142 -60.5 210.5t-154.5 68.5t-154.5 -68.5t-60.5 -210.5q0 -135 61 -204.5t154 -69.5t154 69.5t61 204.5z" />
    <glyph glyph-name="p" unicode="p" horiz-adv-x="1232" 
d="M713 1075q56 0 116.5 -18t124.5 -60.5t114 -103t82 -154.5t32 -207q0 -116 -32.5 -211t-83 -155.5t-115 -102.5t-126 -59.5t-118.5 -17.5q-61 0 -112.5 14.5t-82 36.5t-48 40t-24.5 32v-498h-336v1454h336v-115q28 42 101.5 83.5t171.5 41.5zM633 254q95 0 158 69.5
t63 208.5q0 138 -63 206.5t-158 68.5q-93 0 -150 -71t-57 -204q0 -136 57 -207t150 -71z" />
    <glyph glyph-name="q" unicode="q" horiz-adv-x="1232" 
d="M793 1065h335v-1454h-335v498q-7 -14 -24.5 -32t-48 -40t-82 -36.5t-112.5 -14.5q-57 0 -118.5 17.5t-126 59.5t-115 102.5t-83 155.5t-32.5 211q0 113 32 207t82 154.5t114 103t124.5 60.5t116.5 18q98 0 171.5 -41.5t101.5 -83.5v115zM600 254q93 0 150 71t57 207
q0 133 -57 204t-150 71q-95 0 -158 -68.5t-63 -206.5q0 -139 63 -208.5t158 -69.5z" />
    <glyph glyph-name="r" unicode="r" horiz-adv-x="880" 
d="M745 1075q50 0 95 -8v-295q-45 2 -70 2q-297 0 -330 -219v-555h-336v1065h336v-225q23 109 100 172t205 63z" />
    <glyph glyph-name="s" unicode="s" horiz-adv-x="1048" 
d="M682 721q-13 59 -51.5 82.5t-106.5 23.5q-135 0 -135 -88q0 -59 92 -82l195 -41q144 -33 192 -54q99 -44 126 -139q12 -43 12 -101q0 -111 -63 -187.5t-171 -112.5t-252 -36q-212 0 -333.5 91.5t-143.5 270.5h307q15 -59 56.5 -88t117.5 -29q77 0 111.5 27t34.5 68
q0 32 -19.5 49.5t-70.5 27.5l-168 35q-182 39 -258 118t-76 196q0 152 115.5 237.5t326.5 85.5q214 0 326.5 -94t138.5 -260h-303z" />
    <glyph glyph-name="t" unicode="t" horiz-adv-x="813" 
d="M655 248q39 0 107 12v-240q-80 -32 -201 -32q-66 0 -116 8t-98 30t-78.5 58.5t-49 97t-18.5 142.5v481h-178v260h178v266h336v-266h219v-260h-219v-445q0 -55 27 -83.5t91 -28.5z" />
    <glyph glyph-name="u" unicode="u" horiz-adv-x="1245" 
d="M805 1065h336v-1065h-336v199q-15 -32 -41 -64.5t-66.5 -68t-99.5 -58t-125 -22.5q-176 0 -277.5 103.5t-101.5 332.5v643h336v-625q0 -89 47.5 -133.5t122.5 -44.5q48 0 88 19.5t63.5 49t37.5 59t16 54.5v621z" />
    <glyph glyph-name="v" unicode="v" horiz-adv-x="1245" 
d="M807 0h-369l-405 1065h336l254 -727l254 727h335z" />
    <glyph glyph-name="w" unicode="w" horiz-adv-x="1673" 
d="M1640 1065l-294 -1065h-285l-225 670l-222 -670h-286l-295 1065h338l145 -639l189 639h264l188 -639l148 639h335z" />
    <glyph glyph-name="x" unicode="x" horiz-adv-x="1218" 
d="M1178 0h-365l-203 315l-204 -315h-363l379 557l-344 508h366l166 -264l164 264h367l-344 -508z" />
    <glyph glyph-name="y" unicode="y" horiz-adv-x="1204" 
d="M834 1065h340l-431 -1040q-55 -136 -108.5 -220.5t-123 -137.5t-155 -69t-204.5 -4v283q33 -6 62.5 -3t51.5 3.5t42.5 9.5t33.5 14t26.5 17.5t21 19.5t16 21t12.5 22t10 21q9 18 8.5 38t-6 38t-20.5 59l-377 928h346l219 -635z" />
    <glyph glyph-name="z" unicode="z" horiz-adv-x="1050" 
d="M483 281h486v-281h-887v281l485 503h-465v281h867v-281z" />
    <glyph glyph-name="braceleft" unicode="{" horiz-adv-x="755" 
d="M520 766l-121 -139l121 -135v-412q0 -60 72 -60h72v-286h-232q-33 0 -62.5 4.5t-65 20t-60.5 41t-42.5 72.5t-17.5 110v499l-92 146l92 149v502q0 63 17.5 110t43.5 72.5t61.5 41t64.5 20t61 4.5h232v-287h-72q-72 0 -72 -59v-414z" />
    <glyph glyph-name="bar" unicode="|" horiz-adv-x="593" 
d="M154 1638h286v-2027h-286v2027z" />
    <glyph glyph-name="braceright" unicode="}" horiz-adv-x="755" 
d="M236 766v414q0 59 -72 59h-72v287h232q32 0 61 -4.5t64.5 -20t61 -41t43 -72.5t17.5 -110v-502l93 -149l-93 -146v-499q0 -63 -17 -110t-42 -72.5t-60.5 -41t-65 -20t-62.5 -4.5h-232v286h72q72 0 72 60v412l120 135z" />
    <glyph glyph-name="asciitilde" unicode="~" horiz-adv-x="1126" 
d="M891 670h133q0 -128 -70 -212.5t-204 -84.5q-48 0 -95.5 17.5t-86.5 42.5l-78 50t-84.5 42.5t-90.5 17.5q-29 0 -54.5 -15.5t-24.5 -42.5h-134q0 128 70.5 212.5t204.5 84.5q48 0 95.5 -17.5t86.5 -42.5t77.5 -50t84 -42.5t90.5 -17.5q29 0 55 15.5t25 42.5z" />
    <glyph glyph-name="exclamdown" unicode="&#xa1;" horiz-adv-x="591" 
d="M104 690v375h359v-375h-359zM444 563l9 -932h-340l8 932h323z" />
    <glyph glyph-name="cent" unicode="&#xa2;" horiz-adv-x="1124" 
d="M1063 541q-12 -85 -43.5 -152.5t-72.5 -110.5t-94 -73t-103.5 -44.5t-106.5 -19.5v-223h-115v223q-72 6 -137.5 26.5t-128 62.5t-108.5 101t-73.5 147.5t-27.5 195.5t27.5 195t73.5 147t108.5 101t128 62.5t137.5 26.5v228h115v-228q352 -32 410 -391h-305
q-10 48 -33.5 79t-71.5 42v-524q91 20 117 129h303zM377 674q0 -224 151 -262v524q-74 -19 -112.5 -86.5t-38.5 -175.5z" />
    <glyph glyph-name="sterling" unicode="&#xa3;" horiz-adv-x="1216" 
d="M1124 983h-317v37q0 13 -2.5 27t-13 35.5t-28 38t-52.5 28.5t-82 12q-57 0 -96.5 -16t-58.5 -43t-26.5 -52t-7.5 -53q0 -42 17 -87.5t31.5 -69.5t48.5 -74h221v-178h-146v-6q0 -111 -39.5 -170.5t-160.5 -145.5q66 26 133 29.5t127.5 -6t124 -20t146.5 -8.5t171 26v-287
q-87 -20 -172.5 -20.5t-148.5 12.5t-133 25t-129 19t-132 -6t-147 -50l-158 196q99 80 149.5 156t51.5 164q0 48 -12 92h-191v178h96q-73 124 -73 246q0 196 146 316t368 120q98 0 187 -28.5t158 -81.5t109.5 -135.5t40.5 -182.5v-37z" />
    <glyph glyph-name="currency" unicode="&#xa4;" horiz-adv-x="1251" 
d="M1079 975q0 -84 -28 -160l102 -100l-213 -209l-78 78q-114 -68 -241 -68t-236 64l-74 -74l-213 209l95 94q-31 79 -31 166q0 95 35 176l-99 98l213 209l84 -84q102 60 226 60q125 0 231 -64l88 88l213 -209l-106 -106q32 -82 32 -168zM621 788q48 0 84.5 16.5t55 38.5
t30 50.5t14 47.5t2.5 34t-2.5 33.5t-14 47t-30 50.5t-55 38.5t-84.5 16.5q-49 0 -85.5 -16.5t-55 -38.5t-30 -51t-14 -47t-2.5 -33q0 -16 2.5 -34.5t14 -47t30 -50.5t55 -38.5t85.5 -16.5z" />
    <glyph glyph-name="yen" unicode="&#xa5;" horiz-adv-x="1472" 
d="M1432 1434l-508 -904h231v-194h-237v-53h237v-193h-237v-90h-363v90h-227v193h227v53h-227v194h221l-506 904h393l301 -578l299 578h396z" />
    <glyph glyph-name="brokenbar" unicode="&#xa6;" horiz-adv-x="593" 
d="M154 1638h286v-573h-286v573zM154 184h286v-573h-286v573z" />
    <glyph glyph-name="section" unicode="&#xa7;" horiz-adv-x="1454" 
d="M1352 410q0 -135 -80 -234q59 -88 59 -225q0 -93 -33.5 -167.5t-91 -123.5t-137 -82t-167 -47t-185.5 -14q-270 0 -433.5 124t-181.5 365h377q12 -91 70.5 -134.5t171.5 -43.5q107 0 170 33t63 94q0 67 -39 99t-145 57l-178 41q-67 15 -117.5 30.5t-105 39.5t-92.5 55
t-69.5 72.5t-47 98.5t-15.5 127q0 141 84 242q-63 85 -63 225q0 191 155.5 299.5t405.5 108.5q117 0 216.5 -26.5t178.5 -79t128.5 -138.5t60.5 -198h-375q-5 42 -25.5 69.5t-53 40t-62.5 17t-68 4.5q-94 0 -139 -32.5t-45 -76.5q0 -39 24 -68t95 -47l223 -51
q254 -61 360.5 -165t106.5 -289zM641 449l223 -52q43 -9 101 -28q10 23 10 45q0 68 -40 102.5t-144 61.5l-179 40q-10 2 -20.5 4.5t-23.5 6.5t-21 6q-25 -31 -25 -72q0 -38 24 -66t95 -48z" />
    <glyph glyph-name="dieresis" unicode="&#xa8;" horiz-adv-x="831" 
d="M0 1452h340v-235h-340v235zM492 1452h339v-235h-339v235z" />
    <glyph glyph-name="copyright" unicode="&#xa9;" horiz-adv-x="1607" 
d="M805 -14q-200 0 -367 93.5t-265.5 261.5t-98.5 376q0 155 58 291.5t156.5 232t233 150.5t283.5 55t283.5 -55t233 -150.5t156.5 -232t58 -291.5q0 -208 -98.5 -376t-265.5 -261.5t-367 -93.5zM805 176q149 0 272 67t196 192t73 282q0 156 -73 280t-196 191t-272 67
q-150 0 -273 -67t-195.5 -191t-72.5 -280q0 -157 72.5 -281.5t195.5 -192t273 -67.5zM805 518q112 0 139 98h225q-15 -70 -46 -124.5t-67.5 -87t-82 -54t-86 -29.5t-82.5 -8q-102 0 -189.5 45.5t-144.5 139.5t-57 219t57 218t144.5 138t189.5 45q54 0 105 -14t103.5 -45.5
t94 -93t61.5 -146.5h-229q-10 45 -46.5 69.5t-88.5 24.5q-77 0 -122.5 -49t-45.5 -147t45.5 -148.5t122.5 -50.5z" />
    <glyph glyph-name="ordfeminine" unicode="&#xaa;" horiz-adv-x="776" 
d="M694 938q0 -92 51 -172h-182q-49 43 -49 108q-30 -33 -54.5 -53.5t-71 -39.5t-99.5 -19q-43 0 -82 10t-75 33t-57.5 68t-21.5 106q0 104 68.5 153t212.5 60l145 10q1 58 -25 76t-89 18q-41 0 -65 -10t-30 -20t-12 -27h-186q8 65 36.5 111.5t71.5 72t90 36.5t101 11
q180 0 251.5 -78.5t71.5 -246.5v-207zM338 934q16 0 29.5 2t23.5 3.5t20 7t16 8.5t13 11.5t10 12t8.5 14.5t7 14.5t7 16.5t6.5 16v21q-97 -12 -149 -17q-34 -3 -49 -19.5t-15 -33.5q0 -57 72 -57z" />
    <glyph glyph-name="guillemotleft" unicode="&#xab;" horiz-adv-x="983" 
d="M451 743l-168 -131l168 -133v-299l-369 295v273l369 294v-299zM901 743l-168 -131l168 -133v-299l-369 295v262l369 305v-299z" />
    <glyph glyph-name="logicalnot" unicode="&#xac;" horiz-adv-x="1089" 
d="M997 639v-453h-335v197h-570v256h905z" />
    <glyph glyph-name="uni00AD" unicode="&#xad;" horiz-adv-x="813" 
d="M82 688h649v-250h-649v250z" />
    <glyph glyph-name="registered" unicode="&#xae;" horiz-adv-x="1607" 
d="M805 -14q-200 0 -367 93.5t-265.5 261.5t-98.5 376q0 155 58 291.5t156.5 232t233 150.5t283.5 55t283.5 -55t233 -150.5t156.5 -232t58 -291.5q0 -208 -98.5 -376t-265.5 -261.5t-367 -93.5zM805 176q149 0 272 67t196 192t73 282q0 156 -73 280t-196 191t-272 67
q-150 0 -273 -67t-195.5 -191t-72.5 -280q0 -157 72.5 -281.5t195.5 -192t273 -67.5zM1096 457q0 -112 22 -140h-203q-14 19 -14 150v35q0 62 -29.5 84t-80.5 22h-82v-291h-187v799h303q269 0 269 -225q0 -155 -176 -203q98 -15 138 -55.5t40 -118.5v-57zM793 758
q60 0 90 27t30 87q0 43 -24 69t-64 26h-116v-209h84z" />
    <glyph glyph-name="macron" unicode="&#xaf;" horiz-adv-x="772" 
d="M0 1452h772v-192h-772v192z" />
    <glyph glyph-name="degree" unicode="&#xb0;" horiz-adv-x="798" 
d="M399 1473q129 0 218.5 -89.5t89.5 -214.5t-89 -214t-219 -89q-129 0 -218 89t-89 214q0 126 89 215t218 89zM469 1169q0 9 -3 22t-20 30.5t-47 17.5t-47 -18t-19.5 -30.5t-2.5 -21.5t2.5 -21.5t19.5 -30t47 -17.5q23 0 38.5 9.5t21.5 23.5t8 22.5t2 13.5z" />
    <glyph glyph-name="plusminus" unicode="&#xb1;" horiz-adv-x="1249" 
d="M778 1110h379v-289h-379v-379h-309v379h-377v289h377v375h309v-375zM252 -33v250h702v-250h-702z" />
    <glyph glyph-name="uni00B2" unicode="&#xb2;" horiz-adv-x="550" 
d="M82 901v14q0 46 4 76t18 64t44.5 63.5t78.5 57.5q7 4 30.5 15.5t30 16t19.5 15t17 23t4 28.5q0 27 -19 41t-41 14t-40.5 -16t-18.5 -49v-17h-127v17q0 81 46 130.5t140 49.5q95 0 145 -49t50 -121q0 -22 -4.5 -41t-16 -36t-20 -28t-30.5 -26.5t-31.5 -22t-38 -23
t-37.5 -22.5q-33 -20 -45.5 -32.5t-12.5 -24.5v-6h232v-111h-377z" />
    <glyph glyph-name="uni00B3" unicode="&#xb3;" horiz-adv-x="559" 
d="M365 1186q39 0 75.5 -33t36.5 -100q0 -72 -54 -116t-153 -44q-92 0 -145 48.5t-53 125.5h125q3 -66 79 -66q33 0 54.5 17.5t21.5 52.5q0 66 -92 66h-22v88h22q23 0 38 6.5t20 18.5t6.5 19.5t1.5 18.5q0 20 -14.5 33.5t-41.5 13.5q-25 0 -43 -14.5t-18 -44.5h-119
q0 79 48 123.5t128 44.5q87 0 137 -41t50 -105q0 -47 -26 -75t-62 -37z" />
    <glyph glyph-name="acute" unicode="&#xb4;" horiz-adv-x="526" 
d="M0 1190h283l243 262h-366z" />
    <glyph glyph-name="uni00B5" unicode="&#xb5;" horiz-adv-x="1245" 
d="M805 1065h336v-1065h-336v199q-15 -32 -41 -64.5t-66.5 -68t-99.5 -58t-125 -22.5q-29 0 -43 2v-377h-336v1454h336v-625q0 -89 47.5 -133.5t122.5 -44.5q48 0 88 19.5t63.5 49t37.5 59t16 54.5v621z" />
    <glyph glyph-name="paragraph" unicode="&#xb6;" horiz-adv-x="1486" 
d="M1382 1434v-1885h-270v1690h-197v-1690h-297v1039h-83q-115 0 -209 37t-152.5 98t-89.5 135.5t-31 153.5t31 153t89.5 134.5t152.5 97.5t209 37h847z" />
    <glyph glyph-name="periodcentered" unicode="&#xb7;" horiz-adv-x="563" 
d="M102 768h359v-375h-359v375z" />
    <glyph glyph-name="cedilla" unicode="&#xb8;" horiz-adv-x="458" 
d="M254 -125q86 -3 145.5 -51.5t59.5 -136.5q0 -48 -15.5 -84t-46.5 -59.5t-68.5 -39t-91.5 -23t-104 -10.5t-117 -3v133q97 0 144 17t47 60q0 26 -19 40.5t-47.5 10.5t-52.5 -28l-8 -8l-80 129l100 180h273z" />
    <glyph glyph-name="uni00B9" unicode="&#xb9;" horiz-adv-x="403" 
d="M322 1436v-535h-121v375q-13 -24 -47.5 -34t-71.5 -1v121q37 -6 72 18.5t47 55.5h121z" />
    <glyph glyph-name="ordmasculine" unicode="&#xba;" horiz-adv-x="786" 
d="M393 1450q85 0 161.5 -39.5t127.5 -118.5t51 -180q0 -83 -29.5 -151t-78.5 -111t-109 -66.5t-123 -23.5q-64 0 -124 23.5t-108.5 66.5t-78 111t-29.5 151q0 101 50.5 180t127 118.5t162.5 39.5zM522 1112q0 61 -33.5 100t-95.5 39t-96.5 -39t-34.5 -100q0 -67 34 -108
t97 -41t96 40t33 109z" />
    <glyph glyph-name="guillemotright" unicode="&#xbb;" horiz-adv-x="995" 
d="M104 743v299l369 -305v-262l-369 -295v299l168 133zM555 743v299l369 -294v-273l-369 -295v299l168 133z" />
    <glyph glyph-name="onequarter" unicode="&#xbc;" horiz-adv-x="1259" 
d="M322 1436v-535h-121v375q-13 -24 -47.5 -34t-71.5 -1v121q37 -6 72 18.5t47 55.5h121zM231 0h-163l893 1434h163zM1157 135h-61v-135h-121v135h-238v98l238 302h121v-302h61v-98zM975 233v166l-131 -166h131z" />
    <glyph glyph-name="onehalf" unicode="&#xbd;" horiz-adv-x="1210" 
d="M301 1436v-535h-121v375q-13 -24 -47.5 -34t-71.5 -1v121q37 -6 72 18.5t47 55.5h121zM229 0h-163l892 1434h164zM741 0v14q0 61 8 99t41 81t97 80q7 4 25.5 13t25.5 13t19 12.5t17 16t9 19t4 25.5q0 27 -18.5 41t-40.5 14t-41 -16.5t-19 -49.5v-16h-127v16
q0 81 46.5 131t140.5 50q95 0 144.5 -48.5t49.5 -121.5q0 -22 -4.5 -41t-16 -36t-20 -28t-30.5 -26.5t-31.5 -22t-38 -23t-37.5 -22.5q-57 -34 -57 -57v-6h231v-111h-377z" />
    <glyph glyph-name="threequarters" unicode="&#xbe;" horiz-adv-x="1226" 
d="M346 1186q40 0 76.5 -33t36.5 -100q0 -72 -54 -116t-153 -44q-92 0 -145.5 48.5t-53.5 125.5h125q3 -66 80 -66q33 0 54.5 17.5t21.5 52.5q0 66 -92 66h-23v88h23q23 0 37.5 6.5t20 19t6.5 19.5t1 18q0 20 -14.5 33.5t-40.5 13.5q-25 0 -43.5 -14.5t-18.5 -44.5h-118
q0 79 48 123.5t128 44.5q87 0 136.5 -41t49.5 -105q0 -47 -26 -75t-62 -37zM201 0h-164l893 1434h164zM1200 135h-61v-135h-121v135h-238v98l238 302h121v-302h61v-98zM1018 233v166l-131 -166h131z" />
    <glyph glyph-name="questiondown" unicode="&#xbf;" horiz-adv-x="1181" 
d="M731 690h-358v375h358v-375zM573 -383q85 0 159 16t141.5 53.5t115.5 94t75.5 143.5t25.5 197h-336q0 -45 -7 -79.5t-25.5 -68t-56 -51.5t-92.5 -18q-44 0 -75 13.5t-45 35.5t-19.5 42t-5.5 42q0 41 31.5 76t76 67.5t89.5 74t76.5 113.5t31.5 167v45h-360v-45
q0 -50 -15.5 -89t-40.5 -65.5t-54.5 -50t-59.5 -49.5t-55 -57t-40.5 -78.5t-15.5 -108.5q0 -199 133 -309.5t348 -110.5z" />
    <glyph glyph-name="Agrave" unicode="&#xc0;" horiz-adv-x="1501" 
d="M899 1559h-283l-243 262h366zM1079 0l-80 240h-499l-78 -240h-379l549 1434h315l551 -1434h-379zM586 498h329l-165 503z" />
    <glyph glyph-name="Aacute" unicode="&#xc1;" horiz-adv-x="1501" 
d="M1118 1821l-244 -262h-282l160 262h366zM1079 0l-80 240h-499l-78 -240h-379l549 1434h315l551 -1434h-379zM586 498h329l-165 503z" />
    <glyph glyph-name="Acircumflex" unicode="&#xc2;" horiz-adv-x="1501" 
d="M750 1679l-183 -153h-260l129 295h625l129 -295h-260zM1079 0l-80 240h-499l-78 -240h-379l549 1434h315l551 -1434h-379zM586 498h329l-165 503z" />
    <glyph glyph-name="Atilde" unicode="&#xc3;" horiz-adv-x="1501" 
d="M526 1681q-29 0 -53.5 -15t-23.5 -40h-127q0 123 66.5 203t195.5 80q55 0 112.5 -25.5t98.5 -55.5t96 -55.5t106 -25.5q30 0 54.5 14.5t23.5 40.5h127q0 -123 -66.5 -202.5t-195.5 -79.5q-46 0 -91 16.5t-83 40t-75 47.5t-80 40.5t-85 16.5zM1079 0l-80 240h-499
l-78 -240h-379l549 1434h315l551 -1434h-379zM586 498h329l-165 503z" />
    <glyph glyph-name="Adieresis" unicode="&#xc4;" horiz-adv-x="1501" 
d="M674 1821v-236h-340v236h340zM1165 1821v-236h-340v236h340zM1079 0l-80 240h-499l-78 -240h-379l549 1434h315l551 -1434h-379zM586 498h329l-165 503z" />
    <glyph glyph-name="Aring" unicode="&#xc5;" horiz-adv-x="1501" 
d="M748 1554q-87 0 -150 62t-63 151t63 151t150 62q86 0 149.5 -62.5t63.5 -150.5t-63.5 -150.5t-149.5 -62.5zM748 1839q-29 0 -49.5 -19.5t-20.5 -52.5q0 -32 20.5 -51.5t49.5 -19.5q28 0 48.5 19.5t20.5 51.5t-20.5 52t-48.5 20zM1079 0l-80 240h-499l-78 -240h-379
l549 1434h315l551 -1434h-379zM586 498h329l-165 503z" />
    <glyph glyph-name="AE" unicode="&#xc6;" horiz-adv-x="2136" 
d="M1378 303h697v-303h-1047v238h-455l-161 -238h-369l979 1434h1032v-304h-676v-266h574v-280h-574v-281zM758 506h270v397z" />
    <glyph glyph-name="Ccedilla" unicode="&#xc7;" horiz-adv-x="1409" 
d="M1348 485q-17 -204 -142.5 -329.5t-316.5 -161.5l-113 -119q86 -3 145.5 -51.5t59.5 -136.5q0 -57 -24 -97.5t-61.5 -64t-98.5 -36.5t-119 -17t-139 -4v133q97 0 143.5 17t46.5 60q0 26 -19 40.5t-47.5 10.5t-52.5 -28l-8 -8l-80 129l94 170q-252 37 -397 226t-145 499
q0 348 181.5 541.5t485.5 193.5q115 0 217.5 -31t186 -91.5t137 -157.5t64.5 -220h-349q-40 108 -92.5 152.5t-154.5 44.5q-151 0 -229.5 -115.5t-78.5 -316.5q0 -200 78.5 -316t229.5 -116q104 0 157.5 45t93.5 155h347z" />
    <glyph glyph-name="Egrave" unicode="&#xc8;" horiz-adv-x="1212" 
d="M782 1559h-282l-244 262h367zM455 303h696v-303h-1047v1434h1026v-304h-675v-266h573v-280h-573v-281z" />
    <glyph glyph-name="Eacute" unicode="&#xc9;" horiz-adv-x="1212" 
d="M1001 1821l-243 -262h-283l160 262h366zM455 303h696v-303h-1047v1434h1026v-304h-675v-266h573v-280h-573v-281z" />
    <glyph glyph-name="Ecircumflex" unicode="&#xca;" horiz-adv-x="1212" 
d="M633 1679l-182 -153h-261l129 295h625l129 -295h-260zM455 303h696v-303h-1047v1434h1026v-304h-675v-266h573v-280h-573v-281z" />
    <glyph glyph-name="Edieresis" unicode="&#xcb;" horiz-adv-x="1212" 
d="M557 1821v-236h-340v236h340zM1049 1821v-236h-340v236h340zM455 303h696v-303h-1047v1434h1026v-304h-675v-266h573v-280h-573v-281z" />
    <glyph glyph-name="Igrave" unicode="&#xcc;" horiz-adv-x="559" 
d="M426 1559l-160 262h-366l243 -262h283zM455 0h-351v1434h351v-1434z" />
    <glyph glyph-name="Iacute" unicode="&#xcd;" horiz-adv-x="559" 
d="M119 1559h282l244 262h-366zM455 0h-351v1434h351v-1434z" />
    <glyph glyph-name="Icircumflex" unicode="&#xce;" horiz-adv-x="559" 
d="M457 1526l-181 153l-182 -153h-260l129 295h625l129 -295h-260zM455 0h-351v1434h351v-1434z" />
    <glyph glyph-name="Idieresis" unicode="&#xcf;" horiz-adv-x="559" 
d="M-139 1821h340v-236h-340v236zM352 1821h340v-236h-340v236zM455 0h-351v1434h351v-1434z" />
    <glyph glyph-name="Eth" unicode="&#xd0;" horiz-adv-x="1501" 
d="M750 1434q340 0 515 -184.5t175 -532.5t-175 -532.5t-515 -184.5h-570v578h-139v249h139v607h570zM715 303q209 0 290.5 94t81.5 320t-81.5 319.5t-290.5 93.5h-185v-303h160v-249h-160v-275h185z" />
    <glyph glyph-name="Ntilde" unicode="&#xd1;" horiz-adv-x="1441" 
d="M1049 1802h127q0 -123 -67 -202.5t-196 -79.5q-55 0 -112.5 25t-98.5 55.5t-96 55.5t-106 25q-29 0 -54 -15t-24 -40h-127q0 123 66.5 203t195.5 80q55 0 113 -25.5t99 -55.5t96 -55.5t106 -25.5q30 0 54.5 14.5t23.5 40.5zM1339 1434v-1434h-366l-510 844h-8v-844h-351
v1434h353l522 -869h8v869h352z" />
    <glyph glyph-name="Ograve" unicode="&#xd2;" horiz-adv-x="1527" 
d="M913 1559l-159 262h-367l244 -262h282zM764 1452q317 0 503.5 -196.5t186.5 -538.5q0 -340 -187 -537.5t-503 -197.5q-317 0 -503.5 197.5t-186.5 537.5q0 343 186 539t504 196zM764 285q155 0 238 117t83 315q0 201 -83 316.5t-238 115.5t-238.5 -116t-83.5 -316
q0 -198 83.5 -315t238.5 -117z" />
    <glyph glyph-name="Oacute" unicode="&#xd3;" horiz-adv-x="1527" 
d="M606 1559h283l244 262h-367zM764 1452q317 0 503.5 -196.5t186.5 -538.5q0 -340 -187 -537.5t-503 -197.5q-317 0 -503.5 197.5t-186.5 537.5q0 343 186 539t504 196zM764 285q155 0 238 117t83 315q0 201 -83 316.5t-238 115.5t-238.5 -116t-83.5 -316q0 -198 83.5 -315
t238.5 -117z" />
    <glyph glyph-name="Ocircumflex" unicode="&#xd4;" horiz-adv-x="1527" 
d="M944 1526l-180 153l-182 -153h-260l129 295h624l129 -295h-260zM764 1452q317 0 503.5 -196.5t186.5 -538.5q0 -340 -187 -537.5t-503 -197.5q-317 0 -503.5 197.5t-186.5 537.5q0 343 186 539t504 196zM764 285q155 0 238 117t83 315q0 201 -83 316.5t-238 115.5
t-238.5 -116t-83.5 -316q0 -198 83.5 -315t238.5 -117z" />
    <glyph glyph-name="Otilde" unicode="&#xd5;" horiz-adv-x="1527" 
d="M1090 1802h127q0 -123 -67 -202.5t-196 -79.5q-55 0 -112.5 25t-98.5 55.5t-96 55.5t-106 25q-29 0 -54 -15t-24 -40h-127q0 123 66.5 203t195.5 80q55 0 113 -25.5t98.5 -55.5t96 -55.5t106.5 -25.5q30 0 54.5 14.5t23.5 40.5zM764 1452q317 0 503.5 -196.5
t186.5 -538.5q0 -340 -187 -537.5t-503 -197.5q-317 0 -503.5 197.5t-186.5 537.5q0 343 186 539t504 196zM764 285q155 0 238 117t83 315q0 201 -83 316.5t-238 115.5t-238.5 -116t-83.5 -316q0 -198 83.5 -315t238.5 -117z" />
    <glyph glyph-name="Odieresis" unicode="&#xd6;" horiz-adv-x="1527" 
d="M348 1821h340v-236h-340v236zM840 1821h340v-236h-340v236zM764 1452q317 0 503.5 -196.5t186.5 -538.5q0 -340 -187 -537.5t-503 -197.5q-317 0 -503.5 197.5t-186.5 537.5q0 343 186 539t504 196zM764 285q155 0 238 117t83 315q0 201 -83 316.5t-238 115.5
t-238.5 -116t-83.5 -316q0 -198 83.5 -315t238.5 -117z" />
    <glyph glyph-name="multiply" unicode="&#xd7;" horiz-adv-x="1140" 
d="M1049 246l-205 -205l-266 268l-269 -268l-219 219l268 268l-266 267l203 204l268 -266l264 264l220 -219l-265 -264z" />
    <glyph glyph-name="Oslash" unicode="&#xd8;" horiz-adv-x="1527" 
d="M1206 1311q120 -95 184 -246t64 -348q0 -340 -187 -537.5t-503 -197.5q-103 0 -184 20l-50 -104h-378l127 264q-205 199 -205 555q0 343 186 539t504 196q72 0 127 -8l39 82h379zM442 717q0 -89 19 -170l289 602q-148 -6 -228 -121.5t-80 -310.5zM764 285q155 0 238 117
t83 315q0 149 -45 248l-323 -678q7 0 23 -1t24 -1z" />
    <glyph glyph-name="Ugrave" unicode="&#xd9;" horiz-adv-x="1411" 
d="M827 1559l-159 262h-367l244 -262h282zM1307 559q0 -183 -77 -314.5t-211.5 -197t-311.5 -65.5q-274 0 -438.5 151.5t-164.5 425.5v875h351v-863q0 -286 252 -286q247 0 247 286v863h353v-875z" />
    <glyph glyph-name="Uacute" unicode="&#xda;" horiz-adv-x="1411" 
d="M520 1559h283l244 262h-367zM1307 559q0 -183 -77 -314.5t-211.5 -197t-311.5 -65.5q-274 0 -438.5 151.5t-164.5 425.5v875h351v-863q0 -286 252 -286q247 0 247 286v863h353v-875z" />
    <glyph glyph-name="Ucircumflex" unicode="&#xdb;" horiz-adv-x="1411" 
d="M858 1526l-180 153l-182 -153h-260l129 295h624l129 -295h-260zM1307 559q0 -183 -77 -314.5t-211.5 -197t-311.5 -65.5q-274 0 -438.5 151.5t-164.5 425.5v875h351v-863q0 -286 252 -286q247 0 247 286v863h353v-875z" />
    <glyph glyph-name="Udieresis" unicode="&#xdc;" horiz-adv-x="1411" 
d="M262 1821h340v-236h-340v236zM754 1821h340v-236h-340v236zM1307 559q0 -183 -77 -314.5t-211.5 -197t-311.5 -65.5q-274 0 -438.5 151.5t-164.5 425.5v875h351v-863q0 -286 252 -286q247 0 247 286v863h353v-875z" />
    <glyph glyph-name="Yacute" unicode="&#xdd;" horiz-adv-x="1472" 
d="M580 1559h282l244 262h-367zM918 518v-518h-363v518l-512 916h393l301 -578l299 578h396z" />
    <glyph glyph-name="Thorn" unicode="&#xde;" horiz-adv-x="1337" 
d="M731 1157q289 0 422 -108t133 -328q0 -231 -130.5 -333.5t-424.5 -102.5h-291v-285h-336v1434h336v-277h291zM735 571q10 0 32 -0.5t32.5 -0.5t29.5 1t29 3.5t25 7.5t23 12.5t18 19t14.5 26.5t8 35.5t3.5 45.5q0 28 -4 49.5t-14.5 37t-20 26.5t-28.5 17.5t-31.5 10.5
t-37.5 5.5t-38 2t-41 0.5h-295v-299h295z" />
    <glyph glyph-name="germandbls" unicode="&#xdf;" horiz-adv-x="1323" 
d="M954 782q47 -3 97.5 -30t93 -70t69.5 -105.5t27 -130.5q0 -234 -137 -340t-438 -106h-56v287h64q231 0 231 170q0 46 -18.5 79t-44 50.5t-65.5 27.5t-71.5 12.5t-72.5 2.5h-23v252h23q180 0 180 135q0 131 -174 131q-199 0 -199 -217v-930h-336v930q0 113 27 200.5
t73 144t113 93t141 51.5t163 15q528 0 528 -392q0 -111 -66 -186.5t-129 -73.5z" />
    <glyph glyph-name="agrave" unicode="&#xe0;" horiz-adv-x="1161" 
d="M735 1190h-282l-244 262h366zM1053 301q0 -46 20 -71t55 -27v-191q-43 -20 -118 -20q-111 0 -183.5 45.5t-72.5 128.5v-10l-8 -12q-7 -11 -14.5 -21.5t-23.5 -27t-33.5 -30.5t-44.5 -29t-56.5 -25.5t-70 -17.5t-85.5 -7q-72 0 -135 18.5t-116 56t-83.5 103.5t-30.5 153
q0 70 24.5 123t53.5 82.5t91 53.5t95.5 32t108.5 22q6 1 9 2t7.5 1.5t8.5 1.5q29 6 80 15t77.5 14t58 14.5t50.5 21.5q-2 131 -144 131q-131 0 -147 -110h-315q27 354 464 354q259 0 368.5 -108t109.5 -349v-317zM717 334v172q-28 -14 -56.5 -24t-47.5 -15t-52.5 -13
t-56.5 -14q-62 -17 -88.5 -42.5t-26.5 -67.5q0 -43 30 -75t93 -32q54 0 101 22.5t69 44.5t35 44z" />
    <glyph glyph-name="aacute" unicode="&#xe1;" horiz-adv-x="1161" 
d="M954 1452l-243 -262h-283l160 262h366zM1053 301q0 -46 20 -71t55 -27v-191q-43 -20 -118 -20q-111 0 -183.5 45.5t-72.5 128.5v-10l-8 -12q-7 -11 -14.5 -21.5t-23.5 -27t-33.5 -30.5t-44.5 -29t-56.5 -25.5t-70 -17.5t-85.5 -7q-72 0 -135 18.5t-116 56t-83.5 103.5
t-30.5 153q0 70 24.5 123t53.5 82.5t91 53.5t95.5 32t108.5 22q6 1 9 2t7.5 1.5t8.5 1.5q29 6 80 15t77.5 14t58 14.5t50.5 21.5q-2 131 -144 131q-131 0 -147 -110h-315q27 354 464 354q259 0 368.5 -108t109.5 -349v-317zM717 334v172q-28 -14 -56.5 -24t-47.5 -15
t-52.5 -13t-56.5 -14q-62 -17 -88.5 -42.5t-26.5 -67.5q0 -43 30 -75t93 -32q54 0 101 22.5t69 44.5t35 44z" />
    <glyph glyph-name="acircumflex" unicode="&#xe2;" horiz-adv-x="1161" 
d="M586 1311l-183 -154h-260l129 295h625l129 -295h-260zM1053 301q0 -46 20 -71t55 -27v-191q-43 -20 -118 -20q-111 0 -183.5 45.5t-72.5 128.5v-10l-8 -12q-7 -11 -14.5 -21.5t-23.5 -27t-33.5 -30.5t-44.5 -29t-56.5 -25.5t-70 -17.5t-85.5 -7q-72 0 -135 18.5t-116 56
t-83.5 103.5t-30.5 153q0 70 24.5 123t53.5 82.5t91 53.5t95.5 32t108.5 22q6 1 9 2t7.5 1.5t8.5 1.5q29 6 80 15t77.5 14t58 14.5t50.5 21.5q-2 131 -144 131q-131 0 -147 -110h-315q27 354 464 354q259 0 368.5 -108t109.5 -349v-317zM717 334v172q-28 -14 -56.5 -24
t-47.5 -15t-52.5 -13t-56.5 -14q-62 -17 -88.5 -42.5t-26.5 -67.5q0 -43 30 -75t93 -32q54 0 101 22.5t69 44.5t35 44z" />
    <glyph glyph-name="atilde" unicode="&#xe3;" horiz-adv-x="1161" 
d="M362 1313q-28 0 -53 -15t-24 -41h-127q0 123 66.5 203t195.5 80q55 0 113 -25.5t98.5 -55.5t96 -55.5t106.5 -25.5q30 0 54 15t23 41h127q0 -123 -66.5 -203t-195.5 -80q-55 0 -113 25.5t-98.5 55.5t-96 55.5t-106.5 25.5zM1053 301q0 -46 20 -71t55 -27v-191
q-43 -20 -118 -20q-111 0 -183.5 45.5t-72.5 128.5v-10l-8 -12q-7 -11 -14.5 -21.5t-23.5 -27t-33.5 -30.5t-44.5 -29t-56.5 -25.5t-70 -17.5t-85.5 -7q-72 0 -135 18.5t-116 56t-83.5 103.5t-30.5 153q0 70 24.5 123t53.5 82.5t91 53.5t95.5 32t108.5 22q6 1 9 2t7.5 1.5
t8.5 1.5q29 6 80 15t77.5 14t58 14.5t50.5 21.5q-2 131 -144 131q-131 0 -147 -110h-315q27 354 464 354q259 0 368.5 -108t109.5 -349v-317zM717 334v172q-28 -14 -56.5 -24t-47.5 -15t-52.5 -13t-56.5 -14q-62 -17 -88.5 -42.5t-26.5 -67.5q0 -43 30 -75t93 -32
q54 0 101 22.5t69 44.5t35 44z" />
    <glyph glyph-name="adieresis" unicode="&#xe4;" horiz-adv-x="1161" 
d="M510 1452v-235h-340v235h340zM1001 1452v-235h-339v235h339zM1053 301q0 -46 20 -71t55 -27v-191q-43 -20 -118 -20q-111 0 -183.5 45.5t-72.5 128.5v-10l-8 -12q-7 -11 -14.5 -21.5t-23.5 -27t-33.5 -30.5t-44.5 -29t-56.5 -25.5t-70 -17.5t-85.5 -7q-72 0 -135 18.5
t-116 56t-83.5 103.5t-30.5 153q0 70 24.5 123t53.5 82.5t91 53.5t95.5 32t108.5 22q6 1 9 2t7.5 1.5t8.5 1.5q29 6 80 15t77.5 14t58 14.5t50.5 21.5q-2 131 -144 131q-131 0 -147 -110h-315q27 354 464 354q259 0 368.5 -108t109.5 -349v-317zM717 334v172
q-28 -14 -56.5 -24t-47.5 -15t-52.5 -13t-56.5 -14q-62 -17 -88.5 -42.5t-26.5 -67.5q0 -43 30 -75t93 -32q54 0 101 22.5t69 44.5t35 44z" />
    <glyph glyph-name="aring" unicode="&#xe5;" horiz-adv-x="1161" 
d="M584 1186q-87 0 -150 62t-63 151t63 151t150 62q86 0 149.5 -62.5t63.5 -150.5t-63.5 -150.5t-149.5 -62.5zM584 1470q-29 0 -49.5 -19.5t-20.5 -51.5q0 -33 20.5 -52.5t49.5 -19.5q28 0 48.5 20t20.5 52t-20.5 51.5t-48.5 19.5zM1053 301q0 -46 20 -71t55 -27v-191
q-43 -20 -118 -20q-111 0 -183.5 45.5t-72.5 128.5v-10l-8 -12q-7 -11 -14.5 -21.5t-23.5 -27t-33.5 -30.5t-44.5 -29t-56.5 -25.5t-70 -17.5t-85.5 -7q-72 0 -135 18.5t-116 56t-83.5 103.5t-30.5 153q0 70 24.5 123t53.5 82.5t91 53.5t95.5 32t108.5 22q6 1 9 2t7.5 1.5
t8.5 1.5q29 6 80 15t77.5 14t58 14.5t50.5 21.5q-2 131 -144 131q-131 0 -147 -110h-315q27 354 464 354q259 0 368.5 -108t109.5 -349v-317zM717 334v172q-28 -14 -56.5 -24t-47.5 -15t-52.5 -13t-56.5 -14q-62 -17 -88.5 -42.5t-26.5 -67.5q0 -43 30 -75t93 -32
q54 0 101 22.5t69 44.5t35 44z" />
    <glyph glyph-name="ae" unicode="&#xe6;" horiz-adv-x="1822" 
d="M1772 483q0 -29 -3 -53h-725q15 -104 70 -150.5t156 -46.5q150 0 184 91h289q-40 -168 -165 -253t-329 -85q-120 0 -235.5 49t-190.5 147q-150 -196 -405 -196q-72 0 -135 18t-116 55t-83.5 100t-30.5 146q0 73 27.5 130.5t67 90.5t93.5 56t96 32t87 13q28 3 78.5 8
t72.5 7.5t53.5 8t51.5 13.5t37 20v12q0 37 -10.5 63.5t-25 40t-37 21t-37.5 9t-36 1.5q-128 0 -145 -98h-315q14 167 130 254.5t328 87.5q250 0 363 -96q136 96 323 96q83 0 156 -18.5t140.5 -62.5t115.5 -110.5t76.5 -169t28.5 -231.5zM1053 633h397q-3 89 -52.5 141.5
t-142.5 52.5q-162 0 -202 -168v-26zM717 328v161q-21 -10 -36.5 -16.5t-26 -10.5t-30.5 -8t-30 -5.5t-45 -6.5t-57 -8q-48 -6 -74.5 -42t-26.5 -75q0 -35 29 -64.5t92 -29.5q78 0 130.5 34t74.5 71z" />
    <glyph glyph-name="ccedilla" unicode="&#xe7;" horiz-adv-x="1124" 
d="M1063 395q-14 -95 -50 -168t-87 -118.5t-105.5 -72t-118.5 -38.5l-114 -123q86 -3 145.5 -51.5t59.5 -136.5q0 -48 -15.5 -84t-46.5 -59.5t-68.5 -39t-91.5 -23t-104 -10.5t-117 -3v133q97 0 144 17t47 60q0 26 -19 40.5t-47.5 10.5t-52.5 -28l-8 -8l-80 129l100 180h4
q-79 19 -145 57.5t-121.5 100.5t-87 157t-31.5 213q0 116 32 210.5t84 155.5t121.5 102.5t141.5 59t148 17.5q63 0 118.5 -9.5t115.5 -36.5t105.5 -70t82 -115.5t51.5 -167.5h-305q-12 61 -47.5 95t-116.5 34q-101 0 -154 -72t-53 -203q0 -133 53.5 -203.5t155.5 -70.5
q82 0 120 36.5t54 102.5h303z" />
    <glyph glyph-name="egrave" unicode="&#xe8;" horiz-adv-x="1155" 
d="M733 1190h-282l-244 262h366zM1104 483q0 -37 -2 -53h-725q15 -104 69.5 -150.5t155.5 -46.5q150 0 184 91h289q-80 -338 -493 -338q-74 0 -146 17.5t-142 58.5t-123 101.5t-85.5 154t-32.5 208.5q0 116 32 210.5t85 156.5t123.5 104t144 60t150.5 18q83 0 156 -18.5
t140 -62.5t115 -110.5t76.5 -169t28.5 -231.5zM379 633h403q-3 89 -52 141.5t-142 52.5q-174 0 -209 -194z" />
    <glyph glyph-name="eacute" unicode="&#xe9;" horiz-adv-x="1155" 
d="M952 1452l-243 -262h-283l160 262h366zM1104 483q0 -37 -2 -53h-725q15 -104 69.5 -150.5t155.5 -46.5q150 0 184 91h289q-80 -338 -493 -338q-74 0 -146 17.5t-142 58.5t-123 101.5t-85.5 154t-32.5 208.5q0 116 32 210.5t85 156.5t123.5 104t144 60t150.5 18
q83 0 156 -18.5t140 -62.5t115 -110.5t76.5 -169t28.5 -231.5zM379 633h403q-3 89 -52 141.5t-142 52.5q-174 0 -209 -194z" />
    <glyph glyph-name="ecircumflex" unicode="&#xea;" horiz-adv-x="1155" 
d="M584 1311l-183 -154h-260l129 295h625l129 -295h-260zM1104 483q0 -37 -2 -53h-725q15 -104 69.5 -150.5t155.5 -46.5q150 0 184 91h289q-80 -338 -493 -338q-74 0 -146 17.5t-142 58.5t-123 101.5t-85.5 154t-32.5 208.5q0 116 32 210.5t85 156.5t123.5 104t144 60
t150.5 18q83 0 156 -18.5t140 -62.5t115 -110.5t76.5 -169t28.5 -231.5zM379 633h403q-3 89 -52 141.5t-142 52.5q-174 0 -209 -194z" />
    <glyph glyph-name="edieresis" unicode="&#xeb;" horiz-adv-x="1155" 
d="M508 1452v-235h-340v235h340zM999 1452v-235h-340v235h340zM1104 483q0 -37 -2 -53h-725q15 -104 69.5 -150.5t155.5 -46.5q150 0 184 91h289q-80 -338 -493 -338q-74 0 -146 17.5t-142 58.5t-123 101.5t-85.5 154t-32.5 208.5q0 116 32 210.5t85 156.5t123.5 104t144 60
t150.5 18q83 0 156 -18.5t140 -62.5t115 -110.5t76.5 -169t28.5 -231.5zM379 633h403q-3 89 -52 141.5t-142 52.5q-174 0 -209 -194z" />
    <glyph glyph-name="igrave" unicode="&#xec;" horiz-adv-x="542" 
d="M422 1190l-160 262h-366l243 -262h283zM104 1065h336v-1065h-336v1065z" />
    <glyph glyph-name="iacute" unicode="&#xed;" horiz-adv-x="542" 
d="M115 1190h282l244 262h-367zM104 1065h336v-1065h-336v1065z" />
    <glyph glyph-name="icircumflex" unicode="&#xee;" horiz-adv-x="542" 
d="M453 1157l-181 154l-182 -154h-260l129 295h625l129 -295h-260zM104 1065h336v-1065h-336v1065z" />
    <glyph glyph-name="idieresis" unicode="&#xef;" horiz-adv-x="542" 
d="M-143 1452h340v-235h-340v235zM348 1452h340v-235h-340v235zM104 1065h336v-1065h-336v1065z" />
    <glyph glyph-name="eth" unicode="&#xf0;" horiz-adv-x="1224" 
d="M938 1178q108 -160 146 -292.5t38 -336.5q0 -117 -30 -213t-81.5 -161t-121.5 -109.5t-149 -65t-165 -20.5q-100 0 -191 32.5t-166 96t-120 169t-45 238.5q0 134 39.5 240.5t107.5 173t154 101t183 34.5q102 0 180 -47q-16 37 -64 125l-194 -23v148l100 12
q-67 82 -147 154h333q58 -71 95 -121l178 22v-147zM586 266q36 0 70.5 14t65.5 42t50 78.5t19 115.5q0 73 -18 126.5t-49 82t-65 41t-73 12.5q-37 0 -70 -12.5t-63.5 -41t-49 -82t-18.5 -126.5q0 -127 58 -188.5t143 -61.5z" />
    <glyph glyph-name="ntilde" unicode="&#xf1;" horiz-adv-x="1255" 
d="M403 1313q-28 0 -53 -15t-24 -41h-127q0 123 66.5 203t195.5 80q55 0 112.5 -25.5t98.5 -55.5t96 -55.5t106 -25.5q30 0 54.5 15t23.5 41h127q0 -123 -66.5 -203t-195.5 -80q-55 0 -113 25.5t-99 55.5t-96 55.5t-106 25.5zM772 1075q85 0 152 -23t119 -72.5t80 -135
t28 -203.5v-641h-336v623q0 89 -47.5 132.5t-122.5 43.5q-48 0 -88.5 -19.5t-64 -48.5t-37 -58.5t-15.5 -54.5v-618h-336v1065h336v-201q14 31 40.5 64t66.5 68t99.5 57t125.5 22z" />
    <glyph glyph-name="ograve" unicode="&#xf2;" horiz-adv-x="1179" 
d="M739 1190l-159 262h-367l244 -262h282zM590 1075q70 0 141 -17.5t143.5 -59.5t128 -103t90.5 -156t35 -211q0 -114 -35 -208t-90.5 -154.5t-128 -102.5t-143.5 -59.5t-141 -17.5t-141 17.5t-143 59.5t-127.5 102.5t-90.5 154.5t-35 208q0 116 35 211t90.5 156t127.5 103
t143 59.5t141 17.5zM805 528q0 142 -60.5 210.5t-154.5 68.5t-154.5 -68.5t-60.5 -210.5q0 -135 61 -204.5t154 -69.5t154 69.5t61 204.5z" />
    <glyph glyph-name="oacute" unicode="&#xf3;" horiz-adv-x="1179" 
d="M432 1190h283l243 262h-366zM590 1075q70 0 141 -17.5t143.5 -59.5t128 -103t90.5 -156t35 -211q0 -114 -35 -208t-90.5 -154.5t-128 -102.5t-143.5 -59.5t-141 -17.5t-141 17.5t-143 59.5t-127.5 102.5t-90.5 154.5t-35 208q0 116 35 211t90.5 156t127.5 103t143 59.5
t141 17.5zM805 528q0 142 -60.5 210.5t-154.5 68.5t-154.5 -68.5t-60.5 -210.5q0 -135 61 -204.5t154 -69.5t154 69.5t61 204.5z" />
    <glyph glyph-name="ocircumflex" unicode="&#xf4;" horiz-adv-x="1179" 
d="M770 1157l-180 154l-182 -154h-261l129 295h625l129 -295h-260zM590 1075q70 0 141 -17.5t143.5 -59.5t128 -103t90.5 -156t35 -211q0 -114 -35 -208t-90.5 -154.5t-128 -102.5t-143.5 -59.5t-141 -17.5t-141 17.5t-143 59.5t-127.5 102.5t-90.5 154.5t-35 208
q0 116 35 211t90.5 156t127.5 103t143 59.5t141 17.5zM805 528q0 142 -60.5 210.5t-154.5 68.5t-154.5 -68.5t-60.5 -210.5q0 -135 61 -204.5t154 -69.5t154 69.5t61 204.5z" />
    <glyph glyph-name="otilde" unicode="&#xf5;" horiz-adv-x="1179" 
d="M915 1434h127q0 -123 -66.5 -203t-195.5 -80q-55 0 -112.5 25.5t-98.5 55.5t-96 55.5t-106 25.5q-29 0 -54 -15t-24 -41h-127q0 123 66.5 203t195.5 80q55 0 113 -25.5t98.5 -55.5t96 -55.5t106.5 -25.5q30 0 54 15t23 41zM590 1075q70 0 141 -17.5t143.5 -59.5t128 -103
t90.5 -156t35 -211q0 -114 -35 -208t-90.5 -154.5t-128 -102.5t-143.5 -59.5t-141 -17.5t-141 17.5t-143 59.5t-127.5 102.5t-90.5 154.5t-35 208q0 116 35 211t90.5 156t127.5 103t143 59.5t141 17.5zM805 528q0 142 -60.5 210.5t-154.5 68.5t-154.5 -68.5t-60.5 -210.5
q0 -135 61 -204.5t154 -69.5t154 69.5t61 204.5z" />
    <glyph glyph-name="odieresis" unicode="&#xf6;" horiz-adv-x="1179" 
d="M174 1452h340v-235h-340v235zM666 1452h340v-235h-340v235zM590 1075q70 0 141 -17.5t143.5 -59.5t128 -103t90.5 -156t35 -211q0 -114 -35 -208t-90.5 -154.5t-128 -102.5t-143.5 -59.5t-141 -17.5t-141 17.5t-143 59.5t-127.5 102.5t-90.5 154.5t-35 208q0 116 35 211
t90.5 156t127.5 103t143 59.5t141 17.5zM805 528q0 142 -60.5 210.5t-154.5 68.5t-154.5 -68.5t-60.5 -210.5q0 -135 61 -204.5t154 -69.5t154 69.5t61 204.5z" />
    <glyph glyph-name="divide" unicode="&#xf7;" horiz-adv-x="987" 
d="M494 778q-60 0 -101 41.5t-41 102.5q0 59 41 99t101 40q58 0 98.5 -40.5t40.5 -98.5q0 -61 -40 -102.5t-99 -41.5zM70 688h702v-250h-702v250zM494 68q-60 0 -101 40.5t-41 100.5q0 59 41 99t101 40q58 0 98.5 -40t40.5 -99q0 -60 -40 -100.5t-99 -40.5z" />
    <glyph glyph-name="oslash" unicode="&#xf8;" horiz-adv-x="1179" 
d="M940 954q188 -148 188 -426q0 -114 -35 -208t-90.5 -154.5t-128 -102.5t-143.5 -59.5t-141 -17.5q-47 0 -109 10l-47 -98h-284l98 202q-195 151 -195 428q0 116 35 211t90.5 156t127.5 103t143 59.5t141 17.5q58 0 119 -12l57 121h285zM375 528q0 -70 18 -122l193 401
q-92 -2 -151.5 -70.5t-59.5 -208.5zM606 254q86 6 142.5 75.5t56.5 198.5q0 69 -14 115z" />
    <glyph glyph-name="ugrave" unicode="&#xf9;" horiz-adv-x="1245" 
d="M766 1190h-283l-243 262h366zM805 1065h336v-1065h-336v199q-15 -32 -41 -64.5t-66.5 -68t-99.5 -58t-125 -22.5q-176 0 -277.5 103.5t-101.5 332.5v643h336v-625q0 -89 47.5 -133.5t122.5 -44.5q48 0 88 19.5t63.5 49t37.5 59t16 54.5v621z" />
    <glyph glyph-name="uacute" unicode="&#xfa;" horiz-adv-x="1245" 
d="M985 1452l-244 -262h-282l159 262h367zM805 1065h336v-1065h-336v199q-15 -32 -41 -64.5t-66.5 -68t-99.5 -58t-125 -22.5q-176 0 -277.5 103.5t-101.5 332.5v643h336v-625q0 -89 47.5 -133.5t122.5 -44.5q48 0 88 19.5t63.5 49t37.5 59t16 54.5v621z" />
    <glyph glyph-name="ucircumflex" unicode="&#xfb;" horiz-adv-x="1245" 
d="M616 1311l-182 -154h-260l129 295h625l129 -295h-260zM805 1065h336v-1065h-336v199q-15 -32 -41 -64.5t-66.5 -68t-99.5 -58t-125 -22.5q-176 0 -277.5 103.5t-101.5 332.5v643h336v-625q0 -89 47.5 -133.5t122.5 -44.5q48 0 88 19.5t63.5 49t37.5 59t16 54.5v621z" />
    <glyph glyph-name="udieresis" unicode="&#xfc;" horiz-adv-x="1245" 
d="M541 1452v-235h-340v235h340zM1032 1452v-235h-340v235h340zM805 1065h336v-1065h-336v199q-15 -32 -41 -64.5t-66.5 -68t-99.5 -58t-125 -22.5q-176 0 -277.5 103.5t-101.5 332.5v643h336v-625q0 -89 47.5 -133.5t122.5 -44.5q48 0 88 19.5t63.5 49t37.5 59t16 54.5v621
z" />
    <glyph glyph-name="yacute" unicode="&#xfd;" horiz-adv-x="1204" 
d="M438 1190h283l244 262h-367zM834 1065h340l-431 -1040q-55 -136 -108.5 -220.5t-123 -137.5t-155 -69t-204.5 -4v283q33 -6 62.5 -3t51.5 3.5t42.5 9.5t33.5 14t26.5 17.5t21 19.5t16 21t12.5 22t10 21q9 18 8.5 38t-6 38t-20.5 59l-377 928h346l219 -635z" />
    <glyph glyph-name="thorn" unicode="&#xfe;" horiz-adv-x="1232" 
d="M713 1075q58 0 119.5 -18t125 -60.5t112.5 -103t80.5 -154.5t31.5 -207q0 -116 -31.5 -211t-81.5 -156t-114 -102.5t-126 -59t-122 -17.5q-61 0 -112.5 14.5t-82 36.5t-48 40t-24.5 32v-498h-336v1835h336v-496q27 42 100 83t169 42h4zM635 254q95 0 157 70t62 208
q0 137 -62 206t-157 69q-93 0 -151 -71.5t-58 -203.5q0 -135 58 -206.5t151 -71.5z" />
    <glyph glyph-name="ydieresis" unicode="&#xff;" horiz-adv-x="1204" 
d="M180 1452h340v-235h-340v235zM672 1452h340v-235h-340v235zM834 1065h340l-431 -1040q-55 -136 -108.5 -220.5t-123 -137.5t-155 -69t-204.5 -4v283q33 -6 62.5 -3t51.5 3.5t42.5 9.5t33.5 14t26.5 17.5t21 19.5t16 21t12.5 22t10 21q9 18 8.5 38t-6 38t-20.5 59
l-377 928h346l219 -635z" />
    <glyph glyph-name="Amacron" unicode="&#x100;" horiz-adv-x="1501" 
d="M1135 1821v-193h-773v193h773zM1079 0l-80 240h-499l-78 -240h-379l549 1434h315l551 -1434h-379zM586 498h329l-165 503z" />
    <glyph glyph-name="amacron" unicode="&#x101;" horiz-adv-x="1161" 
d="M971 1452v-192h-772v192h772zM1053 301q0 -46 20 -71t55 -27v-191q-43 -20 -118 -20q-111 0 -183.5 45.5t-72.5 128.5v-10l-8 -12q-7 -11 -14.5 -21.5t-23.5 -27t-33.5 -30.5t-44.5 -29t-56.5 -25.5t-70 -17.5t-85.5 -7q-72 0 -135 18.5t-116 56t-83.5 103.5t-30.5 153
q0 70 24.5 123t53.5 82.5t91 53.5t95.5 32t108.5 22q6 1 9 2t7.5 1.5t8.5 1.5q29 6 80 15t77.5 14t58 14.5t50.5 21.5q-2 131 -144 131q-131 0 -147 -110h-315q27 354 464 354q259 0 368.5 -108t109.5 -349v-317zM717 334v172q-28 -14 -56.5 -24t-47.5 -15t-52.5 -13
t-56.5 -14q-62 -17 -88.5 -42.5t-26.5 -67.5q0 -43 30 -75t93 -32q54 0 101 22.5t69 44.5t35 44z" />
    <glyph glyph-name="Abreve" unicode="&#x102;" horiz-adv-x="1501" 
d="M750 1491q-179 0 -273 85.5t-94 244.5h215q10 -61 46.5 -86t105.5 -25q67 0 103 25t46 86h215q0 -159 -92.5 -244.5t-271.5 -85.5zM1079 0l-80 240h-499l-78 -240h-379l549 1434h315l551 -1434h-379zM586 498h329l-165 503z" />
    <glyph glyph-name="abreve" unicode="&#x103;" horiz-adv-x="1161" 
d="M586 1122q-179 0 -273 85.5t-94 244.5h215q10 -61 46.5 -86t105.5 -25q67 0 103 25t46 86h215q0 -159 -92.5 -244.5t-271.5 -85.5zM1053 301q0 -46 20 -71t55 -27v-191q-43 -20 -118 -20q-111 0 -183.5 45.5t-72.5 128.5v-10l-8 -12q-7 -11 -14.5 -21.5t-23.5 -27
t-33.5 -30.5t-44.5 -29t-56.5 -25.5t-70 -17.5t-85.5 -7q-72 0 -135 18.5t-116 56t-83.5 103.5t-30.5 153q0 70 24.5 123t53.5 82.5t91 53.5t95.5 32t108.5 22q6 1 9 2t7.5 1.5t8.5 1.5q29 6 80 15t77.5 14t58 14.5t50.5 21.5q-2 131 -144 131q-131 0 -147 -110h-315
q27 354 464 354q259 0 368.5 -108t109.5 -349v-317zM717 334v172q-28 -14 -56.5 -24t-47.5 -15t-52.5 -13t-56.5 -14q-62 -17 -88.5 -42.5t-26.5 -67.5q0 -43 30 -75t93 -32q54 0 101 22.5t69 44.5t35 44z" />
    <glyph glyph-name="Aogonek" unicode="&#x104;" horiz-adv-x="1501" 
d="M1321 0q-283 -73 -283 -217q0 -58 48 -69.5t118 20.5v-137q-44 -25 -105.5 -41.5t-126.5 -17t-121 14.5t-92 58t-36 110q0 60 34 112.5t88 86.5t115 55t119 25l-80 240h-499l-78 -240h-379l549 1434h315l551 -1434h-137zM586 498h329l-165 503z" />
    <glyph glyph-name="aogonek" unicode="&#x105;" horiz-adv-x="1161" 
d="M1128 203v-191q-4 -3 -20 -8h8q-282 -73 -282 -217q0 -39 22 -56.5t58.5 -15t84.5 22.5v-137q-56 -32 -136.5 -47t-158 -9t-132 52.5t-54.5 128.5q0 60 34 112.5t88 86.5t115 54.5t119 24.5h31q-70 18 -110.5 59.5t-40.5 102.5v-10l-8 -12q-7 -11 -14.5 -21.5t-23.5 -27
t-33.5 -30.5t-44.5 -29t-56.5 -25.5t-70 -17.5t-85.5 -7q-72 0 -135 18.5t-116 56t-83.5 103.5t-30.5 153q0 70 24.5 123t53.5 82.5t91 53.5t95.5 32t108.5 22q6 1 9 2t7.5 1.5t8.5 1.5q29 6 80 15t77.5 14t58 14.5t50.5 21.5q-2 131 -144 131q-131 0 -147 -110h-315
q27 354 464 354q259 0 368.5 -108t109.5 -349v-317q0 -46 20 -71t55 -27zM717 334v172q-28 -14 -56.5 -24t-47.5 -15t-52.5 -13t-56.5 -14q-62 -17 -88.5 -42.5t-26.5 -67.5q0 -43 30 -75t93 -32q54 0 101 22.5t69 44.5t35 44z" />
    <glyph glyph-name="Cacute" unicode="&#x106;" horiz-adv-x="1409" 
d="M598 1559h283l243 262h-366zM750 285q104 0 157.5 45t93.5 155h347q-10 -124 -63.5 -222t-137 -158.5t-187 -91.5t-219.5 -31q-304 0 -485.5 193.5t-181.5 541.5t181.5 541.5t485.5 193.5q115 0 217.5 -31t186 -91.5t137 -157.5t64.5 -220h-349q-40 108 -92.5 152.5
t-154.5 44.5q-151 0 -229.5 -115.5t-78.5 -316.5q0 -200 78.5 -316t229.5 -116z" />
    <glyph glyph-name="cacute" unicode="&#x107;" horiz-adv-x="1124" 
d="M391 1190h283l244 262h-367zM586 256q82 0 120 36.5t54 102.5h303q-14 -96 -51.5 -170.5t-85.5 -118.5t-109.5 -72t-118 -38t-116.5 -10q-76 0 -148 17t-142.5 57.5t-122.5 101t-84 155.5t-32 213q0 116 32 210.5t84 155.5t121.5 102.5t141.5 59t148 17.5
q63 0 118.5 -9.5t115.5 -36.5t105.5 -70t82 -115.5t51.5 -167.5h-305q-12 61 -47.5 95t-116.5 34q-101 0 -154 -72t-53 -203q0 -133 53.5 -203.5t155.5 -70.5z" />
    <glyph glyph-name="Cdotaccent" unicode="&#x10a;" horiz-adv-x="1409" 
d="M588 1821h340v-236h-340v236zM750 285q104 0 157.5 45t93.5 155h347q-10 -124 -63.5 -222t-137 -158.5t-187 -91.5t-219.5 -31q-304 0 -485.5 193.5t-181.5 541.5t181.5 541.5t485.5 193.5q115 0 217.5 -31t186 -91.5t137 -157.5t64.5 -220h-349q-40 108 -92.5 152.5
t-154.5 44.5q-151 0 -229.5 -115.5t-78.5 -316.5q0 -200 78.5 -316t229.5 -116z" />
    <glyph glyph-name="cdotaccent" unicode="&#x10b;" horiz-adv-x="1124" 
d="M381 1452h340v-235h-340v235zM586 256q82 0 120 36.5t54 102.5h303q-14 -96 -51.5 -170.5t-85.5 -118.5t-109.5 -72t-118 -38t-116.5 -10q-76 0 -148 17t-142.5 57.5t-122.5 101t-84 155.5t-32 213q0 116 32 210.5t84 155.5t121.5 102.5t141.5 59t148 17.5
q63 0 118.5 -9.5t115.5 -36.5t105.5 -70t82 -115.5t51.5 -167.5h-305q-12 61 -47.5 95t-116.5 34q-101 0 -154 -72t-53 -203q0 -133 53.5 -203.5t155.5 -70.5z" />
    <glyph glyph-name="Ccaron" unicode="&#x10c;" horiz-adv-x="1409" 
d="M934 1802h260l-129 -295h-625l-129 295h260l183 -153zM750 285q104 0 157.5 45t93.5 155h347q-10 -124 -63.5 -222t-137 -158.5t-187 -91.5t-219.5 -31q-304 0 -485.5 193.5t-181.5 541.5t181.5 541.5t485.5 193.5q115 0 217.5 -31t186 -91.5t137 -157.5t64.5 -220h-349
q-40 108 -92.5 152.5t-154.5 44.5q-151 0 -229.5 -115.5t-78.5 -316.5q0 -200 78.5 -316t229.5 -116z" />
    <glyph glyph-name="ccaron" unicode="&#x10d;" horiz-adv-x="1124" 
d="M727 1434h260l-129 -295h-625l-129 295h261l182 -154zM586 256q82 0 120 36.5t54 102.5h303q-14 -96 -51.5 -170.5t-85.5 -118.5t-109.5 -72t-118 -38t-116.5 -10q-76 0 -148 17t-142.5 57.5t-122.5 101t-84 155.5t-32 213q0 116 32 210.5t84 155.5t121.5 102.5t141.5 59
t148 17.5q63 0 118.5 -9.5t115.5 -36.5t105.5 -70t82 -115.5t51.5 -167.5h-305q-12 61 -47.5 95t-116.5 34q-101 0 -154 -72t-53 -203q0 -133 53.5 -203.5t155.5 -70.5z" />
    <glyph glyph-name="Dcaron" unicode="&#x10e;" horiz-adv-x="1425" 
d="M995 1507h-624l-129 295h260l182 -153l180 153h260zM674 1434q340 0 515 -184.5t175 -532.5t-175 -532.5t-515 -184.5h-570v1434h570zM639 303q209 0 291 94t82 320t-82 319.5t-291 93.5h-184v-827h184z" />
    <glyph glyph-name="dcaron" unicode="&#x10f;" horiz-adv-x="1683" 
d="M793 946v500h335v-1446h-335v133q-6 -18 -24 -40t-48.5 -47.5t-82 -42.5t-112.5 -17q-60 0 -122 17.5t-126 59t-114 102.5t-81.5 156t-31.5 211q0 113 31.5 207t80.5 154.5t112.5 103t125 60.5t119.5 18q98 0 172.5 -42.5t100.5 -86.5zM1356 1446h366l-243 -262h-283z
M596 254q94 0 152.5 71t58.5 207q0 133 -59 204t-152 71q-99 0 -158 -68t-59 -207q0 -140 59 -209t158 -69z" />
    <glyph glyph-name="Dcroat" unicode="&#x110;" horiz-adv-x="1501" 
d="M750 1434q340 0 515 -184.5t175 -532.5t-175 -532.5t-515 -184.5h-570v578h-139v249h139v607h570zM715 303q209 0 290.5 94t81.5 320t-81.5 319.5t-290.5 93.5h-185v-303h160v-249h-160v-275h185z" />
    <glyph glyph-name="dcroat" unicode="&#x111;" horiz-adv-x="1304" 
d="M1284 1321v-193h-156v-1128h-335v133q-6 -18 -24 -40t-48.5 -47.5t-82 -42.5t-112.5 -17q-60 0 -122 17.5t-126 59t-114 102.5t-81.5 156t-31.5 211q0 113 31.5 207t80.5 154.5t112.5 103t125 60.5t119.5 18q98 0 172.5 -42.5t100.5 -86.5v182h-281v193h281v125h335v-125
h156zM596 254q94 0 152.5 71t58.5 207q0 133 -59 204t-152 71q-99 0 -158 -68t-59 -207q0 -140 59 -209t158 -69z" />
    <glyph glyph-name="Emacron" unicode="&#x112;" horiz-adv-x="1212" 
d="M1018 1821v-193h-772v193h772zM455 303h696v-303h-1047v1434h1026v-304h-675v-266h573v-280h-573v-281z" />
    <glyph glyph-name="emacron" unicode="&#x113;" horiz-adv-x="1155" 
d="M969 1452v-192h-772v192h772zM1104 483q0 -37 -2 -53h-725q15 -104 69.5 -150.5t155.5 -46.5q150 0 184 91h289q-80 -338 -493 -338q-74 0 -146 17.5t-142 58.5t-123 101.5t-85.5 154t-32.5 208.5q0 116 32 210.5t85 156.5t123.5 104t144 60t150.5 18q83 0 156 -18.5
t140 -62.5t115 -110.5t76.5 -169t28.5 -231.5zM379 633h403q-3 89 -52 141.5t-142 52.5q-174 0 -209 -194z" />
    <glyph glyph-name="Edotaccent" unicode="&#x116;" horiz-adv-x="1212" 
d="M805 1821v-236h-340v236h340zM455 303h696v-303h-1047v1434h1026v-304h-675v-266h573v-280h-573v-281z" />
    <glyph glyph-name="edotaccent" unicode="&#x117;" horiz-adv-x="1155" 
d="M756 1452v-235h-340v235h340zM1104 483q0 -37 -2 -53h-725q15 -104 69.5 -150.5t155.5 -46.5q150 0 184 91h289q-80 -338 -493 -338q-74 0 -146 17.5t-142 58.5t-123 101.5t-85.5 154t-32.5 208.5q0 116 32 210.5t85 156.5t123.5 104t144 60t150.5 18q83 0 156 -18.5
t140 -62.5t115 -110.5t76.5 -169t28.5 -231.5zM379 633h403q-3 89 -52 141.5t-142 52.5q-174 0 -209 -194z" />
    <glyph glyph-name="Eogonek" unicode="&#x118;" horiz-adv-x="1212" 
d="M1151 0q-283 -73 -283 -217q0 -58 48 -69.5t118 20.5v-137q-44 -25 -105.5 -41.5t-126.5 -17t-121 14.5t-92 58t-36 110q0 60 34 112.5t88 86.5t115 55t119 25h-805v1434h1026v-304h-675v-266h573v-280h-573v-281h696v-303z" />
    <glyph glyph-name="eogonek" unicode="&#x119;" horiz-adv-x="1155" 
d="M1104 483q0 -37 -2 -53h-725q15 -104 69.5 -150.5t155.5 -46.5q150 0 184 91h289q-61 -262 -330 -322h19q-283 -73 -283 -217q0 -39 22 -56.5t59 -15t85 22.5v-137q-56 -32 -136.5 -47t-158 -9t-132 52.5t-54.5 128.5q0 71 48.5 130.5t116 93.5t142.5 48
q-83 15 -154.5 52.5t-133 99.5t-97 159t-35.5 219q0 116 32 210.5t85 156.5t123.5 104t144 60t150.5 18q83 0 156 -18.5t140 -62.5t115 -110.5t76.5 -169t28.5 -231.5zM379 633h403q-3 89 -52 141.5t-142 52.5q-174 0 -209 -194z" />
    <glyph glyph-name="Ecaron" unicode="&#x11a;" horiz-adv-x="1212" 
d="M942 1507h-625l-129 295h261l182 -153l180 153h260zM455 303h696v-303h-1047v1434h1026v-304h-675v-266h573v-280h-573v-281z" />
    <glyph glyph-name="ecaron" unicode="&#x11b;" horiz-adv-x="1155" 
d="M893 1139h-625l-129 295h260l183 -154l180 154h260zM1104 483q0 -37 -2 -53h-725q15 -104 69.5 -150.5t155.5 -46.5q150 0 184 91h289q-80 -338 -493 -338q-74 0 -146 17.5t-142 58.5t-123 101.5t-85.5 154t-32.5 208.5q0 116 32 210.5t85 156.5t123.5 104t144 60
t150.5 18q83 0 156 -18.5t140 -62.5t115 -110.5t76.5 -169t28.5 -231.5zM379 633h403q-3 89 -52 141.5t-142 52.5q-174 0 -209 -194z" />
    <glyph glyph-name="Gbreve" unicode="&#x11e;" horiz-adv-x="1470" 
d="M891 1821h215q0 -159 -93 -244.5t-272 -85.5t-272.5 85.5t-93.5 244.5h215q10 -61 46.5 -86t104.5 -25q67 0 103.5 25t46.5 86zM1389 801v-101q0 -362 -148 -540t-477 -178q-321 0 -505.5 193t-184.5 542q0 347 182.5 541t484.5 194q111 0 211 -30t182.5 -87
t138.5 -147.5t73 -204.5h-349q-41 86 -98 126t-149 40q-148 0 -228 -116.5t-80 -315.5q0 -197 80.5 -314.5t241.5 -117.5q139 0 212.5 54t90.5 187h-276v275h598z" />
    <glyph glyph-name="gbreve" unicode="&#x11f;" horiz-adv-x="1220" 
d="M563 1122q-179 0 -272.5 85.5t-93.5 244.5h215q10 -61 46.5 -86t104.5 -25q67 0 103.5 25t46.5 86h215q0 -159 -93 -244.5t-272 -85.5zM782 1073h336v-1038q0 -118 -37.5 -208.5t-93 -142t-131 -83.5t-140.5 -42t-132 -10q-173 0 -301 66.5t-183 177.5l207 129
q22 -22 34.5 -32.5t43 -30t71.5 -28.5t93 -9q127 0 180 49.5t53 163.5v100q-6 -17 -22.5 -38.5t-47 -47.5t-82.5 -43.5t-114 -17.5q-58 0 -118.5 17.5t-123 59t-111 102t-79.5 155.5t-31 210q0 113 30.5 207t79 154.5t110 103t121.5 60.5t116 18q97 0 171.5 -42.5
t100.5 -86.5v127zM592 258q93 0 149 69t56 205q0 134 -56 203.5t-149 69.5t-150 -68.5t-57 -204.5t57 -205t150 -69z" />
    <glyph glyph-name="Gdotaccent" unicode="&#x120;" horiz-adv-x="1470" 
d="M573 1821h340v-236h-340v236zM1389 801v-101q0 -362 -148 -540t-477 -178q-321 0 -505.5 193t-184.5 542q0 347 182.5 541t484.5 194q111 0 211 -30t182.5 -87t138.5 -147.5t73 -204.5h-349q-41 86 -98 126t-149 40q-148 0 -228 -116.5t-80 -315.5q0 -197 80.5 -314.5
t241.5 -117.5q139 0 212.5 54t90.5 187h-276v275h598z" />
    <glyph glyph-name="gdotaccent" unicode="&#x121;" horiz-adv-x="1220" 
d="M735 1452v-235h-340v235h340zM782 1073h336v-1038q0 -118 -37.5 -208.5t-93 -142t-131 -83.5t-140.5 -42t-132 -10q-173 0 -301 66.5t-183 177.5l207 129q22 -22 34.5 -32.5t43 -30t71.5 -28.5t93 -9q127 0 180 49.5t53 163.5v100q-6 -17 -22.5 -38.5t-47 -47.5
t-82.5 -43.5t-114 -17.5q-58 0 -118.5 17.5t-123 59t-111 102t-79.5 155.5t-31 210q0 113 30.5 207t79 154.5t110 103t121.5 60.5t116 18q97 0 171.5 -42.5t100.5 -86.5v127zM592 258q93 0 149 69t56 205q0 134 -56 203.5t-149 69.5t-150 -68.5t-57 -204.5t57 -205t150 -69z
" />
    <glyph glyph-name="Gcommaaccent" unicode="&#x122;" horiz-adv-x="1470" 
d="M1389 801v-101q0 -362 -148 -540t-477 -178q-321 0 -505.5 193t-184.5 542q0 347 182.5 541t484.5 194q111 0 211 -30t182.5 -87t138.5 -147.5t73 -204.5h-349q-41 86 -98 126t-149 40q-148 0 -228 -116.5t-80 -315.5q0 -197 80.5 -314.5t241.5 -117.5q139 0 212.5 54
t90.5 187h-276v275h598zM588 -799v101q70 13 103.5 65t33.5 123v66h-137v374h358v-340q0 -74 -11.5 -133.5t-29.5 -99.5t-46.5 -69.5t-57.5 -45.5t-68 -26t-71.5 -12.5t-73.5 -2.5z" />
    <glyph glyph-name="gcommaaccent" unicode="&#x123;" horiz-adv-x="1220" 
d="M711 1532v-375h-359v340q0 103 22 177t54.5 114t84 63t95 29t103.5 6v-100q-70 -13 -104 -65.5t-34 -123.5v-65h138zM782 1073h336v-1038q0 -118 -37.5 -208.5t-93 -142t-131 -83.5t-140.5 -42t-132 -10q-173 0 -301 66.5t-183 177.5l207 129q22 -22 34.5 -32.5t43 -30
t71.5 -28.5t93 -9q127 0 180 49.5t53 163.5v100q-6 -17 -22.5 -38.5t-47 -47.5t-82.5 -43.5t-114 -17.5q-58 0 -118.5 17.5t-123 59t-111 102t-79.5 155.5t-31 210q0 113 30.5 207t79 154.5t110 103t121.5 60.5t116 18q97 0 171.5 -42.5t100.5 -86.5v127zM592 258
q93 0 149 69t56 205q0 134 -56 203.5t-149 69.5t-150 -68.5t-57 -204.5t57 -205t150 -69z" />
    <glyph glyph-name="Hbar" unicode="&#x126;" horiz-adv-x="1402" 
d="M948 1434h352v-1434h-352v578h-493v-578h-351v1434h351v-213h493v213zM455 862h493v82h-493v-82z" />
    <glyph glyph-name="hbar" unicode="&#x127;" horiz-adv-x="1327" 
d="M846 1075q85 0 152 -23t119 -72.5t80 -135t28 -203.5v-641h-336v623q0 89 -47.5 132.5t-122.5 43.5q-48 0 -88.5 -19.5t-64 -48.5t-37 -58.5t-15.5 -54.5v-618h-336v1026h-155v231h155v189h336v-189h156v-229q79 47 176 47zM514 864q18 40 56.5 85t93.5 77h-150v-162z
" />
    <glyph glyph-name="Imacron" unicode="&#x12a;" horiz-adv-x="559" 
d="M-111 1821h773v-193h-773v193zM455 0h-351v1434h351v-1434z" />
    <glyph glyph-name="imacron" unicode="&#x12b;" horiz-adv-x="542" 
d="M-115 1452h772v-192h-772v192zM104 1065h336v-1065h-336v1065z" />
    <glyph glyph-name="Iogonek" unicode="&#x12e;" horiz-adv-x="559" 
d="M174 -217q0 -58 48 -69.5t118 20.5v-137q-44 -25 -105.5 -41.5t-126.5 -17t-121 14.5t-92 58t-36 110q0 60 34 112.5t88 86.5t115 55t119 25h-111v1434h351v-1434h2q-283 -73 -283 -217z" />
    <glyph glyph-name="iogonek" unicode="&#x12f;" horiz-adv-x="542" 
d="M104 1452h340v-235h-340v235zM104 0v1065h336v-1065h-94q-283 -73 -283 -217q0 -39 22 -56.5t59 -15t85 22.5v-137q-44 -25 -105.5 -41.5t-126.5 -17t-121 14.5t-92 58t-36 110q0 60 34 112.5t88 86.5t115 55t119 25z" />
    <glyph glyph-name="Idotaccent" unicode="&#x130;" horiz-adv-x="559" 
d="M109 1821h340v-236h-340v236zM455 0h-351v1434h351v-1434z" />
    <glyph glyph-name="dotlessi" unicode="&#x131;" horiz-adv-x="542" 
d="M104 1065h336v-1065h-336v1065z" />
    <glyph glyph-name="IJ" unicode="&#x132;" horiz-adv-x="1652" 
d="M455 0h-351v1434h351v-1434zM772 397q108 -108 248 -108q40 0 70 8.5t58 31t43 68t15 113.5v924h353v-942q0 -106 -28 -191.5t-76.5 -143.5t-116.5 -97t-145.5 -56.5t-166.5 -17.5q-142 0 -253.5 55t-180.5 139z" />
    <glyph glyph-name="ij" unicode="&#x133;" horiz-adv-x="1081" 
d="M104 1452h336v-248h-336v248zM641 1452h336v-248h-336v248zM104 1065h336v-1065h-336v1065zM397 -145q84 -21 133 -21q35 0 59 12.5t34.5 33.5t14 38.5t3.5 36.5v1110h336v-1169q0 -171 -93.5 -259t-258.5 -88q-140 0 -228 35v271z" />
    <glyph glyph-name="Kcommaaccent" unicode="&#x136;" horiz-adv-x="1478" 
d="M846 793l592 -793h-385l-400 537l2 28l-200 -237v-328h-351v1434h351v-633l528 633h399zM555 -444v374h358v-340q0 -74 -11.5 -133.5t-29.5 -99.5t-46.5 -69.5t-57.5 -45.5t-68 -26t-71.5 -12.5t-73.5 -2.5v101q70 13 103.5 65t33.5 123v66h-137z" />
    <glyph glyph-name="kcommaaccent" unicode="&#x137;" horiz-adv-x="1214" 
d="M717 621l487 -621h-364l-330 406l-70 -72v-334h-336v1446h336v-727l328 346h377zM465 -444v374h358v-340q0 -74 -11.5 -133.5t-29.5 -99.5t-46.5 -69.5t-57.5 -45.5t-68 -26t-71.5 -12.5t-73.5 -2.5v101q70 13 103.5 65t33.5 123v66h-137z" />
    <glyph glyph-name="Lacute" unicode="&#x139;" horiz-adv-x="1138" 
d="M127 1554h283l243 263h-366zM455 303h632v-303h-983v1434h351v-1131z" />
    <glyph glyph-name="lacute" unicode="&#x13a;" horiz-adv-x="542" 
d="M115 1571h282l244 262h-367zM104 1446h336v-1446h-336v1446z" />
    <glyph glyph-name="Lcommaaccent" unicode="&#x13b;" horiz-adv-x="1138" 
d="M455 303h632v-303h-983v1434h351v-1131zM393 -809v100q70 13 103.5 65.5t33.5 123.5v65h-137v375h359v-340q0 -103 -22 -177t-54.5 -114t-84 -63t-95 -29t-103.5 -6z" />
    <glyph glyph-name="lcommaaccent" unicode="&#x13c;" horiz-adv-x="542" 
d="M104 1446h336v-1446h-336v1446zM96 -799v101q70 13 103.5 65t33.5 123v66h-137v374h359v-340q0 -103 -22 -177t-54.5 -114t-84 -63t-95 -29t-103.5 -6z" />
    <glyph glyph-name="Lcaron" unicode="&#x13d;" horiz-adv-x="1138" 
d="M455 303h632v-303h-983v1434h351v-1131zM633 705v100q70 13 103.5 65t33.5 123v66h-137v375h358v-340q0 -74 -11.5 -133.5t-29.5 -99.5t-46.5 -69.5t-57.5 -45.5t-68 -26t-71.5 -12.5t-73.5 -2.5z" />
    <glyph glyph-name="lcaron" unicode="&#x13e;" horiz-adv-x="978" 
d="M104 1446h336v-1446h-336v1446zM539 705v100q70 13 103.5 65t33.5 123v66h-137v375h358v-340q0 -74 -11.5 -133.5t-29.5 -99.5t-46.5 -69.5t-57.5 -45.5t-68 -26t-71.5 -12.5t-73.5 -2.5z" />
    <glyph glyph-name="Lslash" unicode="&#x141;" horiz-adv-x="1173" 
d="M489 303h633v-303h-983v369l-116 -123v340l116 123v725h350v-357l132 140h2v-336l-134 -142v-436z" />
    <glyph glyph-name="lslash" unicode="&#x142;" horiz-adv-x="618" 
d="M578 1182v-328l-91 -94v-760h-335v406l-109 -115v330l109 114v711h335v-356l88 92h3z" />
    <glyph glyph-name="Nacute" unicode="&#x143;" horiz-adv-x="1441" 
d="M565 1559h283l244 262h-367zM1339 1434v-1434h-366l-510 844h-8v-844h-351v1434h353l522 -869h8v869h352z" />
    <glyph glyph-name="nacute" unicode="&#x144;" horiz-adv-x="1255" 
d="M995 1452l-243 -262h-283l160 262h366zM772 1075q85 0 152 -23t119 -72.5t80 -135t28 -203.5v-641h-336v623q0 89 -47.5 132.5t-122.5 43.5q-48 0 -88.5 -19.5t-64 -48.5t-37 -58.5t-15.5 -54.5v-618h-336v1065h336v-201q14 31 40.5 64t66.5 68t99.5 57t125.5 22z" />
    <glyph glyph-name="Ncommaaccent" unicode="&#x145;" horiz-adv-x="1441" 
d="M1339 1434v-1434h-366l-510 844h-8v-844h-351v1434h353l522 -869h8v869h352zM547 -799v101q70 13 103.5 65t33.5 123v66h-137v374h358v-340q0 -74 -11.5 -133.5t-29.5 -99.5t-46.5 -69.5t-57.5 -45.5t-68 -26t-71.5 -12.5t-73.5 -2.5z" />
    <glyph glyph-name="ncommaaccent" unicode="&#x146;" horiz-adv-x="1255" 
d="M772 1075q85 0 152 -23t119 -72.5t80 -135t28 -203.5v-641h-336v623q0 89 -47.5 132.5t-122.5 43.5q-48 0 -88.5 -19.5t-64 -48.5t-37 -58.5t-15.5 -54.5v-618h-336v1065h336v-201q14 31 40.5 64t66.5 68t99.5 57t125.5 22zM451 -444v374h358v-340q0 -74 -11.5 -133.5
t-29.5 -99.5t-46.5 -69.5t-57.5 -45.5t-68 -26t-71.5 -12.5t-73.5 -2.5v101q70 13 103.5 65t33.5 123v66h-137z" />
    <glyph glyph-name="Ncaron" unicode="&#x147;" horiz-adv-x="1441" 
d="M901 1802h260l-129 -295h-624l-129 295h260l182 -153zM1339 1434v-1434h-366l-510 844h-8v-844h-351v1434h353l522 -869h8v869h352z" />
    <glyph glyph-name="ncaron" unicode="&#x148;" horiz-adv-x="1255" 
d="M936 1139h-625l-129 295h260l183 -154l180 154h260zM772 1075q85 0 152 -23t119 -72.5t80 -135t28 -203.5v-641h-336v623q0 89 -47.5 132.5t-122.5 43.5q-48 0 -88.5 -19.5t-64 -48.5t-37 -58.5t-15.5 -54.5v-618h-336v1065h336v-201q14 31 40.5 64t66.5 68t99.5 57
t125.5 22z" />
    <glyph glyph-name="Eng" unicode="&#x14a;" horiz-adv-x="1441" 
d="M987 1434h352v-1379q0 -106 -28 -191.5t-76.5 -143.5t-116.5 -97t-145.5 -56.5t-165.5 -17.5q-143 0 -254 55.5t-182 139.5l182 217q108 -108 248 -108q69 0 115.5 29.5t62.5 109.5l-516 852h-8v-844h-351v1434h353l522 -871h8v871z" />
    <glyph glyph-name="eng" unicode="&#x14b;" horiz-adv-x="1255" 
d="M772 1075q85 0 152 -23t119 -72.5t80 -135t28 -203.5v-745q0 -171 -93.5 -259t-258.5 -88q-140 0 -226 35v271q82 -21 132 -21q110 0 110 121v668q0 89 -47.5 132.5t-122.5 43.5q-48 0 -88.5 -19.5t-64 -48.5t-37 -58.5t-15.5 -54.5v-618h-336v1065h336v-201
q14 31 40.5 64t66.5 68t99.5 57t125.5 22z" />
    <glyph glyph-name="Omacron" unicode="&#x14c;" horiz-adv-x="1527" 
d="M377 1821h772v-193h-772v193zM764 1452q317 0 503.5 -196.5t186.5 -538.5q0 -340 -187 -537.5t-503 -197.5q-317 0 -503.5 197.5t-186.5 537.5q0 343 186 539t504 196zM764 285q155 0 238 117t83 315q0 201 -83 316.5t-238 115.5t-238.5 -116t-83.5 -316
q0 -198 83.5 -315t238.5 -117z" />
    <glyph glyph-name="omacron" unicode="&#x14d;" horiz-adv-x="1179" 
d="M203 1452h772v-192h-772v192zM590 1075q70 0 141 -17.5t143.5 -59.5t128 -103t90.5 -156t35 -211q0 -114 -35 -208t-90.5 -154.5t-128 -102.5t-143.5 -59.5t-141 -17.5t-141 17.5t-143 59.5t-127.5 102.5t-90.5 154.5t-35 208q0 116 35 211t90.5 156t127.5 103t143 59.5
t141 17.5zM805 528q0 142 -60.5 210.5t-154.5 68.5t-154.5 -68.5t-60.5 -210.5q0 -135 61 -204.5t154 -69.5t154 69.5t61 204.5z" />
    <glyph glyph-name="Ohungarumlaut" unicode="&#x150;" horiz-adv-x="1527" 
d="M504 1559h282l244 262h-366zM956 1559h283l244 262h-367zM764 1452q317 0 503.5 -196.5t186.5 -538.5q0 -340 -187 -537.5t-503 -197.5q-317 0 -503.5 197.5t-186.5 537.5q0 343 186 539t504 196zM764 285q155 0 238 117t83 315q0 201 -83 316.5t-238 115.5t-238.5 -116
t-83.5 -316q0 -198 83.5 -315t238.5 -117z" />
    <glyph glyph-name="ohungarumlaut" unicode="&#x151;" horiz-adv-x="1179" 
d="M330 1190h282l244 262h-367zM782 1190h283l244 262h-367zM590 1075q70 0 141 -17.5t143.5 -59.5t128 -103t90.5 -156t35 -211q0 -114 -35 -208t-90.5 -154.5t-128 -102.5t-143.5 -59.5t-141 -17.5t-141 17.5t-143 59.5t-127.5 102.5t-90.5 154.5t-35 208q0 116 35 211
t90.5 156t127.5 103t143 59.5t141 17.5zM805 528q0 142 -60.5 210.5t-154.5 68.5t-154.5 -68.5t-60.5 -210.5q0 -135 61 -204.5t154 -69.5t154 69.5t61 204.5z" />
    <glyph glyph-name="OE" unicode="&#x152;" horiz-adv-x="2207" 
d="M1450 303h696v-303h-1046v55q-143 -73 -336 -73q-317 0 -503.5 197.5t-186.5 537.5q0 343 186 539t504 196q191 0 336 -74v56h1026v-304h-676v-266h573v-280h-573v-281zM764 285q155 0 238 117t83 315q0 201 -83 316.5t-238 115.5t-238.5 -116t-83.5 -316
q0 -198 83.5 -315t238.5 -117z" />
    <glyph glyph-name="oe" unicode="&#x153;" horiz-adv-x="1908" 
d="M1858 483q0 -29 -3 -53h-725q15 -104 70 -150.5t156 -46.5q150 0 184 91h289q-40 -168 -165 -253t-329 -85q-100 0 -199 34.5t-173 104.5q-79 -70 -178.5 -104.5t-194.5 -34.5q-70 0 -141 17.5t-143 59.5t-127.5 102.5t-90.5 154.5t-35 208q0 116 35 211t90.5 156
t127.5 103t143 59.5t141 17.5q96 0 196 -35t177 -106q76 72 175 106.5t203 34.5q83 0 156 -18.5t140.5 -62.5t115.5 -110.5t76.5 -169t28.5 -231.5zM1133 633h403q-3 89 -52.5 141.5t-142.5 52.5q-173 0 -208 -194zM590 254q93 0 154 69.5t61 204.5q0 142 -60.5 210.5
t-154.5 68.5t-154.5 -68.5t-60.5 -210.5q0 -135 61 -204.5t154 -69.5z" />
    <glyph glyph-name="Racute" unicode="&#x154;" horiz-adv-x="1394" 
d="M952 1821l-243 -262h-283l160 262h366zM1300 240q0 -89 8.5 -139.5t32.5 -100.5h-350q-25 49 -33 98.5t-8 141.5v92q0 74 -48 122t-134 48h-313v-502h-351v1434h633q141 0 248 -34t171 -95t96 -139t32 -171q0 -65 -16 -118.5t-46.5 -94.5t-58 -67t-67.5 -56
q112 -60 158 -133.5t46 -181.5v-104zM717 778q116 0 160.5 44.5t44.5 142.5q0 82 -50.5 122.5t-142.5 40.5h-274v-350h262z" />
    <glyph glyph-name="racute" unicode="&#x155;" horiz-adv-x="880" 
d="M842 1452l-244 -262h-283l160 262h367zM440 840q23 109 100 172t205 63q50 0 95 -8v-295q-45 2 -70 2q-297 0 -330 -219v-555h-336v1065h336v-225z" />
    <glyph glyph-name="Rcommaaccent" unicode="&#x156;" horiz-adv-x="1394" 
d="M1300 240q0 -89 8.5 -139.5t32.5 -100.5h-350q-25 49 -33 98.5t-8 141.5v92q0 74 -48 122t-134 48h-313v-502h-351v1434h633q141 0 248 -34t171 -95t96 -139t32 -171q0 -65 -16 -118.5t-46.5 -94.5t-58 -67t-67.5 -56q112 -60 158 -133.5t46 -181.5v-104zM717 778
q116 0 160.5 44.5t44.5 142.5q0 82 -50.5 122.5t-142.5 40.5h-274v-350h262zM408 -444v374h358v-340q0 -74 -11.5 -133.5t-29.5 -99.5t-46.5 -69.5t-57.5 -45.5t-68 -26t-71.5 -12.5t-73.5 -2.5v101q70 13 103.5 65t33.5 123v66h-137z" />
    <glyph glyph-name="rcommaaccent" unicode="&#x157;" horiz-adv-x="880" 
d="M745 1075q50 0 95 -8v-295q-45 2 -70 2q-297 0 -330 -219v-555h-336v1065h336v-225q23 109 100 172t205 63zM98 -444v374h359v-340q0 -103 -22 -177t-54.5 -114t-84 -63t-95 -29t-103.5 -6v101q70 13 104 65t34 123v66h-138z" />
    <glyph glyph-name="Rcaron" unicode="&#x158;" horiz-adv-x="1394" 
d="M893 1507h-625l-129 295h260l183 -153l180 153h260zM1300 240q0 -89 8.5 -139.5t32.5 -100.5h-350q-25 49 -33 98.5t-8 141.5v92q0 74 -48 122t-134 48h-313v-502h-351v1434h633q141 0 248 -34t171 -95t96 -139t32 -171q0 -65 -16 -118.5t-46.5 -94.5t-58 -67t-67.5 -56
q112 -60 158 -133.5t46 -181.5v-104zM717 778q116 0 160.5 44.5t44.5 142.5q0 82 -50.5 122.5t-142.5 40.5h-274v-350h262z" />
    <glyph glyph-name="rcaron" unicode="&#x159;" horiz-adv-x="880" 
d="M782 1139h-624l-129 295h260l182 -154l180 154h260zM440 840q23 109 100 172t205 63q50 0 95 -8v-295q-45 2 -70 2q-297 0 -330 -219v-555h-336v1065h336v-225z" />
    <glyph glyph-name="Sacute" unicode="&#x15a;" horiz-adv-x="1351" 
d="M502 1559h282l244 262h-366zM821 844q252 -51 355.5 -147.5t103.5 -276.5q0 -107 -48 -191.5t-131.5 -137.5t-191.5 -81t-233 -28q-267 0 -428.5 129.5t-173.5 371.5h362q36 -213 244 -213q103 0 169 45.5t66 108.5q0 67 -41.5 100.5t-148.5 53.5l-182 32
q-78 15 -138.5 34t-119 52.5t-97 77.5t-61.5 109.5t-23 148.5q0 191 151.5 305.5t397.5 114.5q167 0 293.5 -49t205 -152.5t89.5 -253.5h-362q-19 166 -226 166q-92 0 -140 -46.5t-48 -96.5q0 -110 127 -131z" />
    <glyph glyph-name="sacute" unicode="&#x15b;" horiz-adv-x="1048" 
d="M365 1190h282l244 262h-367zM682 721q-13 59 -51.5 82.5t-106.5 23.5q-135 0 -135 -88q0 -59 92 -82l195 -41q144 -33 192 -54q99 -44 126 -139q12 -43 12 -101q0 -111 -63 -187.5t-171 -112.5t-252 -36q-212 0 -333.5 91.5t-143.5 270.5h307q15 -59 56.5 -88t117.5 -29
q77 0 111.5 27t34.5 68q0 32 -19.5 49.5t-70.5 27.5l-168 35q-182 39 -258 118t-76 196q0 152 115.5 237.5t326.5 85.5q214 0 326.5 -94t138.5 -260h-303z" />
    <glyph glyph-name="Scedilla" unicode="&#x15e;" horiz-adv-x="1351" 
d="M1280 420q0 -127 -68.5 -222t-180 -146.5t-255.5 -65.5l-104 -111q86 -3 145.5 -51.5t59.5 -136.5q0 -48 -15.5 -84t-46.5 -59.5t-68.5 -39t-91.5 -23t-104 -10.5t-117 -3v133q97 0 144 17t47 60q0 26 -19 40.5t-47.5 10.5t-52.5 -28l-8 -8l-80 129l96 174
q-198 36 -314 160t-126 327h362q36 -213 244 -213q103 0 169 45.5t66 108.5q0 67 -41.5 100.5t-148.5 53.5l-182 32q-78 15 -138.5 34t-119 52.5t-97 77.5t-61.5 109.5t-23 148.5q0 191 151.5 305.5t397.5 114.5q167 0 293.5 -49t205 -152.5t89.5 -253.5h-362
q-19 166 -226 166q-92 0 -140 -46.5t-48 -96.5q0 -110 127 -131l229 -45q252 -51 355.5 -147.5t103.5 -276.5z" />
    <glyph glyph-name="scedilla" unicode="&#x15f;" horiz-adv-x="1048" 
d="M1006 322q0 -138 -95.5 -221t-261.5 -107l-108 -117q86 -3 145 -51.5t59 -136.5q0 -57 -24 -97.5t-61.5 -64t-98.5 -36.5t-119 -17t-139 -4v133q97 0 144 17.5t47 60.5q0 26 -19 40t-47.5 10t-52.5 -28l-8 -8l-80 129l96 174q-302 53 -340 350h307q15 -59 56.5 -88
t117.5 -29q77 0 111.5 27t34.5 68q0 32 -19.5 49.5t-70.5 27.5l-168 35q-182 39 -258 118t-76 196q0 152 115.5 237.5t326.5 85.5q214 0 326.5 -94t138.5 -260h-303q-13 59 -51.5 82.5t-106.5 23.5q-135 0 -135 -88q0 -59 92 -82l195 -41q144 -33 192 -54q99 -44 126 -139
q12 -43 12 -101z" />
    <glyph glyph-name="Scaron" unicode="&#x160;" horiz-adv-x="1351" 
d="M838 1802h260l-129 -295h-625l-129 295h260l182 -153zM821 844q252 -51 355.5 -147.5t103.5 -276.5q0 -107 -48 -191.5t-131.5 -137.5t-191.5 -81t-233 -28q-267 0 -428.5 129.5t-173.5 371.5h362q36 -213 244 -213q103 0 169 45.5t66 108.5q0 67 -41.5 100.5
t-148.5 53.5l-182 32q-78 15 -138.5 34t-119 52.5t-97 77.5t-61.5 109.5t-23 148.5q0 191 151.5 305.5t397.5 114.5q167 0 293.5 -49t205 -152.5t89.5 -253.5h-362q-19 166 -226 166q-92 0 -140 -46.5t-48 -96.5q0 -110 127 -131z" />
    <glyph glyph-name="scaron" unicode="&#x161;" horiz-adv-x="1048" 
d="M700 1434h261l-130 -295h-624l-129 295h260l182 -154zM682 721q-13 59 -51.5 82.5t-106.5 23.5q-135 0 -135 -88q0 -59 92 -82l195 -41q144 -33 192 -54q99 -44 126 -139q12 -43 12 -101q0 -111 -63 -187.5t-171 -112.5t-252 -36q-212 0 -333.5 91.5t-143.5 270.5h307
q15 -59 56.5 -88t117.5 -29q77 0 111.5 27t34.5 68q0 32 -19.5 49.5t-70.5 27.5l-168 35q-182 39 -258 118t-76 196q0 152 115.5 237.5t326.5 85.5q214 0 326.5 -94t138.5 -260h-303z" />
    <glyph glyph-name="uni0162" unicode="&#x162;" horiz-adv-x="1241" 
d="M797 0h-78l-119 -127q86 -3 145.5 -51.5t59.5 -136.5q0 -57 -24 -97.5t-62 -64t-98.5 -37t-119 -17.5t-139.5 -4v134q97 0 144 17t47 60q0 26 -19 40.5t-47.5 10.5t-52.5 -28l-8 -8l-80 129l100 180h-2v1130h-401v304h1157v-304h-403v-1130z" />
    <glyph glyph-name="uni0163" unicode="&#x163;" horiz-adv-x="813" 
d="M762 20q-37 -15 -94 -24l-113 -121q86 -3 145.5 -51.5t59.5 -136.5q0 -48 -15.5 -84t-46.5 -59.5t-68.5 -39t-91.5 -23t-104 -10.5t-117 -3v133q97 0 144 17t47 60q0 26 -19 40.5t-47.5 10.5t-52.5 -28l-8 -8l-80 129l100 180h13q-103 25 -158 100t-55 222v481h-178v260
h178v266h336v-266h219v-260h-219v-445q0 -55 27 -83.5t91 -28.5q39 0 107 12v-240z" />
    <glyph glyph-name="Tcaron" unicode="&#x164;" horiz-adv-x="1241" 
d="M930 1507h-625l-129 295h260l182 -153l181 153h260zM1200 1434v-304h-403v-1130h-353v1130h-401v304h1157z" />
    <glyph glyph-name="tcaron" unicode="&#x165;" horiz-adv-x="825" 
d="M748 1446h366l-244 -262h-282zM537 360q0 -55 27 -83.5t91 -28.5q39 0 107 12v-240q-80 -32 -201 -32q-66 0 -116 8t-98 30t-78.5 58.5t-49 97t-18.5 142.5v481h-178v260h178v266h336v-266h219v-260h-219v-445z" />
    <glyph glyph-name="Tbar" unicode="&#x166;" horiz-adv-x="1241" 
d="M1200 1130h-403v-143h213v-192h-213v-795h-353v795h-206v192h206v143h-401v304h1157v-304z" />
    <glyph glyph-name="tbar" unicode="&#x167;" horiz-adv-x="813" 
d="M655 248q39 0 107 12v-240q-80 -32 -201 -32q-66 0 -116 8t-98 30t-78.5 58.5t-49 97t-18.5 142.5v110h-178v271h178v100h-178v260h178v266h336v-266h219v-260h-219v-100h219v-271h-219v-74q0 -55 27 -83.5t91 -28.5z" />
    <glyph glyph-name="Utilde" unicode="&#x168;" horiz-adv-x="1411" 
d="M1004 1802h126q0 -123 -66.5 -202.5t-195.5 -79.5q-55 0 -112.5 25t-98.5 55.5t-96 55.5t-106 25q-29 0 -54 -15t-24 -40h-127q0 123 66.5 203t195.5 80q55 0 113 -25.5t98.5 -55.5t96 -55.5t106.5 -25.5q30 0 54.5 14.5t23.5 40.5zM1307 559q0 -183 -77 -314.5
t-211.5 -197t-311.5 -65.5q-274 0 -438.5 151.5t-164.5 425.5v875h351v-863q0 -286 252 -286q247 0 247 286v863h353v-875z" />
    <glyph glyph-name="utilde" unicode="&#x169;" horiz-adv-x="1245" 
d="M393 1313q-29 0 -54 -15t-24 -41h-127q0 123 67 203t196 80q55 0 112.5 -25.5t98.5 -55.5t96 -55.5t106 -25.5q30 0 54.5 15t23.5 41h127q0 -123 -66.5 -203t-195.5 -80q-55 0 -113 25.5t-98.5 55.5t-96 55.5t-106.5 25.5zM805 1065h336v-1065h-336v199
q-15 -32 -41 -64.5t-66.5 -68t-99.5 -58t-125 -22.5q-176 0 -277.5 103.5t-101.5 332.5v643h336v-625q0 -89 47.5 -133.5t122.5 -44.5q48 0 88 19.5t63.5 49t37.5 59t16 54.5v621z" />
    <glyph glyph-name="Umacron" unicode="&#x16a;" horiz-adv-x="1411" 
d="M291 1821h772v-193h-772v193zM1307 559q0 -183 -77 -314.5t-211.5 -197t-311.5 -65.5q-274 0 -438.5 151.5t-164.5 425.5v875h351v-863q0 -286 252 -286q247 0 247 286v863h353v-875z" />
    <glyph glyph-name="umacron" unicode="&#x16b;" horiz-adv-x="1245" 
d="M1001 1452v-192h-772v192h772zM805 1065h336v-1065h-336v199q-15 -32 -41 -64.5t-66.5 -68t-99.5 -58t-125 -22.5q-176 0 -277.5 103.5t-101.5 332.5v643h336v-625q0 -89 47.5 -133.5t122.5 -44.5q48 0 88 19.5t63.5 49t37.5 59t16 54.5v621z" />
    <glyph glyph-name="Ubreve" unicode="&#x16c;" horiz-adv-x="1411" 
d="M827 1821h215q0 -159 -92.5 -244.5t-271.5 -85.5t-273 85.5t-94 244.5h215q10 -61 46.5 -86t105.5 -25q67 0 103 25t46 86zM1307 559q0 -183 -77 -314.5t-211.5 -197t-311.5 -65.5q-274 0 -438.5 151.5t-164.5 425.5v875h351v-863q0 -286 252 -286q247 0 247 286v863h353
v-875z" />
    <glyph glyph-name="ubreve" unicode="&#x16d;" horiz-adv-x="1245" 
d="M616 1122q-179 0 -272.5 85.5t-93.5 244.5h215q10 -61 46.5 -86t104.5 -25q67 0 103.5 25t46.5 86h215q0 -159 -93 -244.5t-272 -85.5zM805 1065h336v-1065h-336v199q-15 -32 -41 -64.5t-66.5 -68t-99.5 -58t-125 -22.5q-176 0 -277.5 103.5t-101.5 332.5v643h336v-625
q0 -89 47.5 -133.5t122.5 -44.5q48 0 88 19.5t63.5 49t37.5 59t16 54.5v621z" />
    <glyph glyph-name="Uring" unicode="&#x16e;" horiz-adv-x="1411" 
d="M676 1554q-87 0 -150 62t-63 151t63 151t150 62q86 0 149.5 -62.5t63.5 -150.5t-63.5 -150.5t-149.5 -62.5zM676 1696q28 0 48.5 19.5t20.5 51.5t-20.5 52t-48.5 20q-29 0 -49.5 -19.5t-20.5 -52.5q0 -32 20.5 -51.5t49.5 -19.5zM1307 559q0 -183 -77 -314.5t-211.5 -197
t-311.5 -65.5q-274 0 -438.5 151.5t-164.5 425.5v875h351v-863q0 -286 252 -286q247 0 247 286v863h353v-875z" />
    <glyph glyph-name="uring" unicode="&#x16f;" horiz-adv-x="1245" 
d="M614 1186q-87 0 -150 62t-63 151t63 151t150 62q86 0 149.5 -62.5t63.5 -150.5t-63.5 -150.5t-149.5 -62.5zM614 1470q-29 0 -49 -19t-20 -52t20 -52.5t49 -19.5q28 0 49 20t21 52t-21 51.5t-49 19.5zM805 1065h336v-1065h-336v199q-15 -32 -41 -64.5t-66.5 -68
t-99.5 -58t-125 -22.5q-176 0 -277.5 103.5t-101.5 332.5v643h336v-625q0 -89 47.5 -133.5t122.5 -44.5q48 0 88 19.5t63.5 49t37.5 59t16 54.5v621z" />
    <glyph glyph-name="Uhungarumlaut" unicode="&#x170;" horiz-adv-x="1411" 
d="M418 1559h282l244 262h-366zM870 1559h283l244 262h-367zM1307 559q0 -183 -77 -314.5t-211.5 -197t-311.5 -65.5q-274 0 -438.5 151.5t-164.5 425.5v875h351v-863q0 -286 252 -286q247 0 247 286v863h353v-875z" />
    <glyph glyph-name="uhungarumlaut" unicode="&#x171;" horiz-adv-x="1245" 
d="M883 1452l-244 -262h-283l160 262h367zM1092 1190h-283l160 262h366zM805 444v621h336v-1065h-336v199q-15 -32 -41 -64.5t-66.5 -68t-99.5 -58t-125 -22.5q-176 0 -277.5 103.5t-101.5 332.5v643h336v-625q0 -89 47.5 -133.5t122.5 -44.5q48 0 88 19.5t63.5 49t37.5 59
t16 54.5z" />
    <glyph glyph-name="Uogonek" unicode="&#x172;" horiz-adv-x="1411" 
d="M954 1434h353v-875q0 -225 -114.5 -370t-311.5 -189h8q-283 -73 -283 -217q0 -58 48 -69.5t118 20.5v-137q-44 -25 -105.5 -41.5t-126.5 -17t-121 14.5t-92 58t-36 110q0 69 45.5 127t109 92.5t136.5 49.5q-222 33 -350 180.5t-128 388.5v875h351v-863q0 -286 252 -286
q247 0 247 286v863z" />
    <glyph glyph-name="uogonek" unicode="&#x173;" horiz-adv-x="1245" 
d="M805 1065h336v-1065h-92q-283 -73 -283 -217q0 -58 48 -69.5t118 20.5v-137q-44 -25 -105.5 -41.5t-126.5 -17t-121 14.5t-92 58t-36 110q0 60 34 112.5t88 86.5t115 55t119 25h-2v199q-15 -32 -41 -64.5t-66.5 -68t-99.5 -58t-125 -22.5q-176 0 -277.5 103.5
t-101.5 332.5v643h336v-625q0 -89 47.5 -133.5t122.5 -44.5q48 0 88 19.5t63.5 49t37.5 59t16 54.5v621z" />
    <glyph glyph-name="Wcircumflex" unicode="&#x174;" horiz-adv-x="2123" 
d="M1243 1526l-180 153l-182 -153h-260l129 295h624l129 -295h-260zM1714 1434h369l-410 -1434h-323l-287 891l-289 -891h-321l-410 1434h367l225 -899l258 899h338l260 -899z" />
    <glyph glyph-name="wcircumflex" unicode="&#x175;" horiz-adv-x="1673" 
d="M1016 1157l-180 154l-183 -154h-260l129 295h625l129 -295h-260zM1640 1065l-294 -1065h-285l-225 670l-222 -670h-286l-295 1065h338l145 -639l189 639h264l188 -639l148 639h335z" />
    <glyph glyph-name="Ycircumflex" unicode="&#x176;" horiz-adv-x="1472" 
d="M918 1526l-181 153l-182 -153h-260l129 295h625l129 -295h-260zM918 518v-518h-363v518l-512 916h393l301 -578l299 578h396z" />
    <glyph glyph-name="ycircumflex" unicode="&#x177;" horiz-adv-x="1204" 
d="M776 1157l-180 154l-182 -154h-260l129 295h624l129 -295h-260zM834 1065h340l-431 -1040q-55 -136 -108.5 -220.5t-123 -137.5t-155 -69t-204.5 -4v283q33 -6 62.5 -3t51.5 3.5t42.5 9.5t33.5 14t26.5 17.5t21 19.5t16 21t12.5 22t10 21q9 18 8.5 38t-6 38t-20.5 59
l-377 928h346l219 -635z" />
    <glyph glyph-name="Ydieresis" unicode="&#x178;" horiz-adv-x="1472" 
d="M322 1821h340v-236h-340v236zM813 1821h340v-236h-340v236zM918 518v-518h-363v518l-512 916h393l301 -578l299 578h396z" />
    <glyph glyph-name="Zacute" unicode="&#x179;" horiz-adv-x="1282" 
d="M508 1559h283l243 262h-366zM1200 303v-303h-1118v266l700 864h-684v304h1094l2 -267l-707 -864h713z" />
    <glyph glyph-name="zacute" unicode="&#x17a;" horiz-adv-x="1050" 
d="M352 1190h283l244 262h-367zM483 281h486v-281h-887v281l485 503h-465v281h867v-281z" />
    <glyph glyph-name="Zdotaccent" unicode="&#x17b;" horiz-adv-x="1282" 
d="M498 1821h340v-236h-340v236zM1200 303v-303h-1118v266l700 864h-684v304h1094l2 -267l-707 -864h713z" />
    <glyph glyph-name="zdotaccent" unicode="&#x17c;" horiz-adv-x="1050" 
d="M342 1452h340v-235h-340v235zM483 281h486v-281h-887v281l485 503h-465v281h867v-281z" />
    <glyph glyph-name="Zcaron" unicode="&#x17d;" horiz-adv-x="1282" 
d="M844 1802h260l-129 -295h-625l-129 295h260l183 -153zM1200 303v-303h-1118v266l700 864h-684v304h1094l2 -267l-707 -864h713z" />
    <glyph glyph-name="zcaron" unicode="&#x17e;" horiz-adv-x="1050" 
d="M688 1434h260l-129 -295h-624l-129 295h260l182 -154zM483 281h486v-281h-887v281l485 503h-465v281h867v-281z" />
    <glyph glyph-name="florin" unicode="&#x192;" horiz-adv-x="651" 
d="M610 1135q-36 0 -60 -14t-35.5 -42t-16 -58t-4.5 -73v-86h116v-287h-116v-575q0 -101 -21.5 -171t-73 -120.5t-139.5 -74t-219 -23.5v287q28 0 49 6.5t33.5 21.5t20 29t10.5 40t3.5 42t0.5 47v491h-133v287h133v170q0 71 11 126t41 106t79.5 84t130.5 53t190 20v-286z
" />
    <glyph glyph-name="uni01CD" unicode="&#x1cd;" horiz-adv-x="1501" 
d="M1059 1507h-625l-129 295h260l183 -153l180 153h260zM1079 0l-80 240h-499l-78 -240h-379l549 1434h315l551 -1434h-379zM586 498h329l-165 503z" />
    <glyph glyph-name="uni01CE" unicode="&#x1ce;" horiz-adv-x="1161" 
d="M895 1139h-625l-129 295h260l183 -154l180 154h260zM1053 301q0 -46 20 -71t55 -27v-191q-43 -20 -118 -20q-111 0 -183.5 45.5t-72.5 128.5v-10l-8 -12q-7 -11 -14.5 -21.5t-23.5 -27t-33.5 -30.5t-44.5 -29t-56.5 -25.5t-70 -17.5t-85.5 -7q-72 0 -135 18.5t-116 56
t-83.5 103.5t-30.5 153q0 70 24.5 123t53.5 82.5t91 53.5t95.5 32t108.5 22q6 1 9 2t7.5 1.5t8.5 1.5q29 6 80 15t77.5 14t58 14.5t50.5 21.5q-2 131 -144 131q-131 0 -147 -110h-315q27 354 464 354q259 0 368.5 -108t109.5 -349v-317zM717 334v172q-28 -14 -56.5 -24
t-47.5 -15t-52.5 -13t-56.5 -14q-62 -17 -88.5 -42.5t-26.5 -67.5q0 -43 30 -75t93 -32q54 0 101 22.5t69 44.5t35 44z" />
    <glyph glyph-name="uni01CF" unicode="&#x1cf;" horiz-adv-x="559" 
d="M455 1802h260l-129 -295h-625l-129 295h260l182 -153zM455 0h-351v1434h351v-1434z" />
    <glyph glyph-name="uni01D0" unicode="&#x1d0;" horiz-adv-x="542" 
d="M451 1434h260l-129 -295h-625l-129 295h260l182 -154zM104 1065h336v-1065h-336v1065z" />
    <glyph glyph-name="uni01D1" unicode="&#x1d1;" horiz-adv-x="1527" 
d="M942 1802h260l-129 -295h-624l-130 295h261l182 -153zM764 1452q317 0 503.5 -196.5t186.5 -538.5q0 -340 -187 -537.5t-503 -197.5q-317 0 -503.5 197.5t-186.5 537.5q0 343 186 539t504 196zM764 285q155 0 238 117t83 315q0 201 -83 316.5t-238 115.5t-238.5 -116
t-83.5 -316q0 -198 83.5 -315t238.5 -117z" />
    <glyph glyph-name="uni01D2" unicode="&#x1d2;" horiz-adv-x="1179" 
d="M768 1434h260l-129 -295h-625l-129 295h261l182 -154zM590 1075q70 0 141 -17.5t143.5 -59.5t128 -103t90.5 -156t35 -211q0 -114 -35 -208t-90.5 -154.5t-128 -102.5t-143.5 -59.5t-141 -17.5t-141 17.5t-143 59.5t-127.5 102.5t-90.5 154.5t-35 208q0 116 35 211
t90.5 156t127.5 103t143 59.5t141 17.5zM805 528q0 142 -60.5 210.5t-154.5 68.5t-154.5 -68.5t-60.5 -210.5q0 -135 61 -204.5t154 -69.5t154 69.5t61 204.5z" />
    <glyph glyph-name="uni01D3" unicode="&#x1d3;" horiz-adv-x="1411" 
d="M856 1802h260l-129 -295h-625l-129 295h261l182 -153zM1307 559q0 -183 -77 -314.5t-211.5 -197t-311.5 -65.5q-274 0 -438.5 151.5t-164.5 425.5v875h351v-863q0 -286 252 -286q247 0 247 286v863h353v-875z" />
    <glyph glyph-name="uni01D4" unicode="&#x1d4;" horiz-adv-x="1245" 
d="M926 1139h-625l-129 295h260l182 -154l181 154h260zM805 1065h336v-1065h-336v199q-15 -32 -41 -64.5t-66.5 -68t-99.5 -58t-125 -22.5q-176 0 -277.5 103.5t-101.5 332.5v643h336v-625q0 -89 47.5 -133.5t122.5 -44.5q48 0 88 19.5t63.5 49t37.5 59t16 54.5v621z" />
    <glyph glyph-name="uni01EA" unicode="&#x1ea;" horiz-adv-x="1527" 
d="M889 -10q-248 -70 -248 -207q0 -39 22 -56.5t59 -15t85 22.5v-137q-44 -25 -105.5 -41.5t-126.5 -17t-121 14.5t-92 58t-36 110q0 70 47 129t113 93.5t141 48.5q-258 41 -405.5 232.5t-147.5 492.5q0 343 186 539t504 196q317 0 503.5 -196.5t186.5 -538.5
q0 -304 -151 -496t-414 -231zM442 717q0 -198 83.5 -315t238.5 -117t238 117t83 315q0 201 -83 316.5t-238 115.5t-238.5 -116t-83.5 -316z" />
    <glyph glyph-name="uni01EB" unicode="&#x1eb;" horiz-adv-x="1179" 
d="M1128 528q0 -95 -24 -176t-63.5 -138.5t-94 -102t-111.5 -71t-120 -40.5h6q-283 -73 -283 -217q0 -58 48 -69.5t118 20.5v-137q-44 -25 -105.5 -41.5t-126.5 -17t-121 14.5t-92 58t-36 110q0 59 33 110.5t85 86t111.5 56t116.5 26.5q-63 13 -120.5 39t-112.5 70.5
t-95 102t-64 139t-24 177.5q0 116 35 211t90.5 156t127.5 103t143 59.5t141 17.5t141 -17.5t143.5 -59.5t128 -103t90.5 -156t35 -211zM590 254q93 0 154 69.5t61 204.5q0 142 -60.5 210.5t-154.5 68.5t-154.5 -68.5t-60.5 -210.5q0 -135 61 -204.5t154 -69.5z" />
    <glyph glyph-name="Scommaaccent" unicode="&#x218;" horiz-adv-x="1351" 
d="M821 844q252 -51 355.5 -147.5t103.5 -276.5q0 -107 -48 -191.5t-131.5 -137.5t-191.5 -81t-233 -28q-267 0 -428.5 129.5t-173.5 371.5h362q36 -213 244 -213q103 0 169 45.5t66 108.5q0 67 -41.5 100.5t-148.5 53.5l-182 32q-78 15 -138.5 34t-119 52.5t-97 77.5
t-61.5 109.5t-23 148.5q0 191 151.5 305.5t397.5 114.5q167 0 293.5 -49t205 -152.5t89.5 -253.5h-362q-19 166 -226 166q-92 0 -140 -46.5t-48 -96.5q0 -110 127 -131zM475 -799v101q70 13 103.5 65t33.5 123v66h-137v374h359v-340q0 -103 -22 -177t-54.5 -114t-84 -63
t-95 -29t-103.5 -6z" />
    <glyph glyph-name="scommaaccent" unicode="&#x219;" horiz-adv-x="1048" 
d="M682 721q-13 59 -51.5 82.5t-106.5 23.5q-135 0 -135 -88q0 -59 92 -82l195 -41q144 -33 192 -54q99 -44 126 -139q12 -43 12 -101q0 -111 -63 -187.5t-171 -112.5t-252 -36q-212 0 -333.5 91.5t-143.5 270.5h307q15 -59 56.5 -88t117.5 -29q77 0 111.5 27t34.5 68
q0 32 -19.5 49.5t-70.5 27.5l-168 35q-182 39 -258 118t-76 196q0 152 115.5 237.5t326.5 85.5q214 0 326.5 -94t138.5 -260h-303zM344 -817v100q70 13 103.5 65.5t33.5 123.5v65h-137v375h358v-340q0 -74 -11.5 -133.5t-29.5 -99.5t-46.5 -69.5t-57.5 -45.5t-68 -26
t-71.5 -12.5t-73.5 -2.5z" />
    <glyph glyph-name="uni021A" unicode="&#x21a;" horiz-adv-x="1241" 
d="M1200 1434v-304h-403v-1130h-353v1130h-401v304h1157zM403 -446v374h359v-340q0 -103 -22 -177t-54.5 -114t-84 -63t-95 -29t-103.5 -6v101q70 13 104 65t34 123v66h-138z" />
    <glyph glyph-name="uni021B" unicode="&#x21b;" horiz-adv-x="813" 
d="M655 248q39 0 107 12v-240q-80 -32 -201 -32q-66 0 -116 8t-98 30t-78.5 58.5t-49 97t-18.5 142.5v481h-178v260h178v266h336v-266h219v-260h-219v-445q0 -55 27 -83.5t91 -28.5zM358 -444v374h359v-340q0 -103 -22 -177t-54.5 -114t-84 -63t-95 -29t-103.5 -6v101
q70 13 104 65t34 123v66h-138z" />
    <glyph glyph-name="uni0237" unicode="&#x237;" horiz-adv-x="559" 
d="M-125 -145q84 -21 133 -21q35 0 59 12.5t34.5 33.5t14 38.5t3.5 36.5v1110h336v-1169q0 -171 -94 -259t-259 -88q-139 0 -227 35v271z" />
    <glyph glyph-name="circumflex" unicode="&#x2c6;" horiz-adv-x="882" 
d="M623 1157l-181 154l-182 -154h-260l129 295h625l129 -295h-260z" />
    <glyph glyph-name="caron" unicode="&#x2c7;" horiz-adv-x="882" 
d="M623 1434h260l-129 -295h-625l-129 295h260l182 -154z" />
    <glyph glyph-name="breve" unicode="&#x2d8;" horiz-adv-x="731" 
d="M516 1452h215q0 -159 -92.5 -244.5t-271.5 -85.5t-273 85.5t-94 244.5h215q10 -61 46.5 -86t105.5 -25q67 0 103 25t46 86z" />
    <glyph glyph-name="dotaccent" unicode="&#x2d9;" horiz-adv-x="339" 
d="M0 1452h340v-235h-340v235z" />
    <glyph glyph-name="ring" unicode="&#x2da;" horiz-adv-x="425" 
d="M213 1186q-87 0 -150 62t-63 151t63 151t150 62q86 0 149.5 -62.5t63.5 -150.5t-63.5 -150.5t-149.5 -62.5zM213 1327q28 0 49 20t21 52t-21 51.5t-49 19.5q-29 0 -49.5 -19.5t-20.5 -51.5q0 -33 20.5 -52.5t49.5 -19.5z" />
    <glyph glyph-name="ogonek" unicode="&#x2db;" horiz-adv-x="598" 
d="M481 -403q-44 -25 -105.5 -41.5t-126.5 -17t-121 14.5t-92 58t-36 110q0 60 34 112.5t88 86.5t115 55t119 25h242q-283 -73 -283 -217q0 -39 22 -56.5t59 -15t85 22.5v-137z" />
    <glyph glyph-name="tilde" unicode="&#x2dc;" horiz-adv-x="880" 
d="M754 1434h127q0 -123 -67 -203t-196 -80q-55 0 -112.5 25.5t-98.5 55.5t-96 55.5t-106 25.5q-29 0 -54 -15t-24 -41h-127q0 123 66.5 203t195.5 80q55 0 113 -25.5t98.5 -55.5t96 -55.5t106.5 -25.5q30 0 54.5 15t23.5 41z" />
    <glyph glyph-name="hungarumlaut" unicode="&#x2dd;" horiz-adv-x="991" 
d="M0 1190h283l243 262h-366zM453 1190h282l244 262h-367z" />
    <glyph glyph-name="uni0326" unicode="&#x326;" horiz-adv-x="0" 
d="M-358 -799v101q70 13 103.5 65t33.5 123v66h-137v374h358v-340q0 -74 -11.5 -133.5t-29.5 -99.5t-46.5 -69.5t-57.5 -45.5t-68 -26t-71.5 -12.5t-73.5 -2.5z" />
    <glyph glyph-name="uni0394" unicode="&#x394;" horiz-adv-x="1462" 
d="M1380 0h-1296l612 1434h70zM965 287l-232 612l-233 -612h465z" />
    <glyph glyph-name="uni03A9" unicode="&#x3a9;" horiz-adv-x="1566" 
d="M1495 727q0 -221 -133 -408h82v-319h-502v362l57 48q68 57 110 141.5t42 175.5q0 185 -104.5 285t-262.5 100q-159 0 -261.5 -99.5t-102.5 -285.5q0 -92 40 -176t107 -141l58 -48v-362h-500v319h82q-133 187 -133 408q0 124 40 238t110 200.5t159.5 151t193 98
t207.5 33.5q103 0 206.5 -33.5t193.5 -98t160 -151t110.5 -200.5t40.5 -238z" />
    <glyph glyph-name="uni03BC" unicode="&#x3bc;" horiz-adv-x="1245" 
d="M805 1065h336v-1065h-336v199q-15 -32 -41 -64.5t-66.5 -68t-99.5 -58t-125 -22.5q-29 0 -43 2v-377h-336v1454h336v-625q0 -89 47.5 -133.5t122.5 -44.5q48 0 88 19.5t63.5 49t37.5 59t16 54.5v621z" />
    <glyph glyph-name="pi" unicode="&#x3c0;" horiz-adv-x="1511" 
d="M1300 274q64 0 140 37v-286q-32 -16 -118 -26.5t-138 -10.5q-46 0 -95.5 10.5t-99 33t-81 64.5t-31.5 97v585h-252v-778h-336v778h-205v287h1333v-287h-203v-391q0 -68 20 -90.5t66 -22.5z" />
    <glyph glyph-name="uni0401" unicode="&#x401;" horiz-adv-x="1212" 
d="M557 1821v-236h-340v236h340zM1049 1821v-236h-340v236h340zM455 303h696v-303h-1047v1434h1026v-304h-675v-266h573v-280h-573v-281z" />
    <glyph glyph-name="uni0403" unicode="&#x403;" horiz-adv-x="1091" 
d="M387 1559h283l243 262h-366zM1049 1434v-304h-594v-1130h-351v1434h945z" />
    <glyph glyph-name="uni0404" unicode="&#x404;" horiz-adv-x="1409" 
d="M1001 485h347q-10 -124 -63.5 -222t-137 -158.5t-187 -91.5t-219.5 -31q-304 0 -485.5 193.5t-181.5 541.5t181.5 541.5t485.5 193.5q115 0 217.5 -31t186 -91.5t137 -157.5t64.5 -220h-349q-40 108 -92.5 152.5t-154.5 44.5q-120 0 -195 -75t-100 -210h354v-280h-356
q24 -141 99 -220t198 -79q104 0 157.5 45t93.5 155z" />
    <glyph glyph-name="uni0407" unicode="&#x407;" horiz-adv-x="559" 
d="M-139 1821h340v-236h-340v236zM352 1821h340v-236h-340v236zM455 0h-351v1434h351v-1434z" />
    <glyph glyph-name="uni040C" unicode="&#x40c;" horiz-adv-x="1478" 
d="M1108 1821l-244 -262h-282l159 262h367zM846 793l592 -793h-385l-400 537l2 28l-200 -237v-328h-351v1434h351v-633l528 633h399z" />
    <glyph glyph-name="uni040E" unicode="&#x40e;" horiz-adv-x="1265" 
d="M782 1821h215q0 -159 -92.5 -244.5t-271.5 -85.5t-273 85.5t-94 244.5h215q10 -61 46.5 -86t105.5 -25q67 0 103 25t46 86zM836 1434h389l-451 -1041q-60 -137 -113.5 -219.5t-122.5 -136.5t-153 -70t-203 -4v309q37 -4 68.5 -4.5t55 4t41 8.5t31 14.5t21.5 16.5t16 19.5
t10.5 18t8.5 18.5q30 73 -33 221l-358 846h387l199 -570z" />
    <glyph glyph-name="uni0410" unicode="&#x410;" horiz-adv-x="1501" 
d="M1079 0l-80 240h-499l-78 -240h-379l549 1434h315l551 -1434h-379zM586 498h329l-165 503z" />
    <glyph glyph-name="uni0411" unicode="&#x411;" horiz-adv-x="1341" 
d="M694 967q285 0 424 -129t139 -355t-139 -354.5t-424 -128.5h-590v1434h945v-304h-594v-163h239zM690 297q95 0 144 48.5t49 137.5t-49 138t-144 49h-235v-373h235z" />
    <glyph glyph-name="uni0412" unicode="&#x412;" horiz-adv-x="1380" 
d="M1032 788q119 -36 191.5 -137.5t72.5 -218.5q0 -206 -139.5 -319t-419.5 -113h-633v1434h607q238 0 363.5 -101.5t125.5 -275.5q0 -90 -49 -161.5t-119 -107.5zM455 1145v-262h247q62 0 95.5 41t33.5 98q0 64 -37.5 93.5t-80.5 29.5h-258zM723 289q101 0 148 45t47 112
q0 30 -7 57t-25 54.5t-55.5 44t-91.5 16.5h-284v-329h268z" />
    <glyph glyph-name="uni0413" unicode="&#x413;" horiz-adv-x="1091" 
d="M1049 1434v-304h-594v-1130h-351v1434h945z" />
    <glyph glyph-name="uni0414" unicode="&#x414;" horiz-adv-x="1765" 
d="M1434 287h270v-428h-336v141h-989v-141h-336v428h186q39 37 67 79t58.5 120t47 205.5t16.5 299.5v443h1016v-1147zM600 287h481v843h-313v-139q0 -171 -15 -299t-43 -206t-52 -119t-58 -80z" />
    <glyph glyph-name="uni0415" unicode="&#x415;" horiz-adv-x="1212" 
d="M455 303h696v-303h-1047v1434h1026v-304h-675v-266h573v-280h-573v-281z" />
    <glyph glyph-name="uni0416" unicode="&#x416;" horiz-adv-x="2174" 
d="M2134 0h-399l-469 563v-563h-353v569l-473 -569h-399l590 719l-588 715h399l471 -566v566h353v-560l467 560h399l-586 -715z" />
    <glyph glyph-name="uni0417" unicode="&#x417;" horiz-adv-x="1267" 
d="M887 758q29 -2 64.5 -13t78 -37t76.5 -62.5t57 -95t23 -128.5q0 -199 -147 -323t-412 -124q-259 0 -408 141t-147 369h313q4 -61 27.5 -106.5t60 -70t75 -35.5t79.5 -11q36 0 71 8t71 26t58.5 55.5t22.5 88.5q0 34 -13.5 65.5t-43.5 60t-85 46t-130 17.5h-76v219h76
q57 0 99.5 13t65.5 31.5t36.5 44t17.5 45t4 40.5q0 71 -53.5 107t-126.5 36q-190 0 -195 -194h-313q0 226 134.5 353.5t368.5 127.5q224 0 366 -113.5t142 -273.5q0 -70 -24 -128.5t-62 -94t-76 -56.5t-75 -28z" />
    <glyph glyph-name="uni0418" unicode="&#x418;" horiz-adv-x="1441" 
d="M102 1434h353v-869h8l522 869h352v-1434h-350v844h-8l-510 -844h-367v1434z" />
    <glyph glyph-name="uni0419" unicode="&#x419;" horiz-adv-x="1441" 
d="M870 1821h215q0 -159 -92.5 -244.5t-271.5 -85.5t-273 85.5t-94 244.5h215q10 -61 46.5 -86t105.5 -25q67 0 103 25t46 86zM102 1434h353v-869h8l522 869h352v-1434h-350v844h-8l-510 -844h-367v1434z" />
    <glyph glyph-name="uni041A" unicode="&#x41a;" horiz-adv-x="1478" 
d="M846 793l592 -793h-385l-400 537l2 28l-200 -237v-328h-351v1434h351v-633l528 633h399z" />
    <glyph glyph-name="uni041B" unicode="&#x41b;" horiz-adv-x="1406" 
d="M1305 1434v-1434h-353v1130h-372v-679q0 -252 -150 -371.5t-399 -93.5v303q46 -1 76 4t60.5 22t45 55.5t14.5 98.5v965h1078z" />
    <glyph glyph-name="uni041C" unicode="&#x41c;" horiz-adv-x="1748" 
d="M104 1434h410l360 -965l361 965h412v-1434h-353v850h-12l-281 -850h-253l-281 850h-12v-850h-351v1434z" />
    <glyph glyph-name="uni041D" unicode="&#x41d;" horiz-adv-x="1402" 
d="M948 1434h352v-1434h-352v578h-493v-578h-351v1434h351v-572h493v572z" />
    <glyph glyph-name="uni041E" unicode="&#x41e;" horiz-adv-x="1527" 
d="M764 1452q317 0 503.5 -196.5t186.5 -538.5q0 -340 -187 -537.5t-503 -197.5q-317 0 -503.5 197.5t-186.5 537.5q0 343 186 539t504 196zM764 285q155 0 238 117t83 315q0 201 -83 316.5t-238 115.5t-238.5 -116t-83.5 -316q0 -198 83.5 -315t238.5 -117z" />
    <glyph glyph-name="uni041F" unicode="&#x41f;" horiz-adv-x="1402" 
d="M1300 1434v-1434h-352v1130h-493v-1130h-351v1434h1196z" />
    <glyph glyph-name="uni0420" unicode="&#x420;" horiz-adv-x="1310" 
d="M694 1434q283 0 423 -137t140 -369q0 -234 -140 -371t-423 -137h-239v-420h-351v1434h590zM690 723q95 0 144 54.5t49 150.5q0 95 -49 148.5t-144 53.5h-235v-407h235z" />
    <glyph glyph-name="uni0421" unicode="&#x421;" horiz-adv-x="1409" 
d="M750 285q104 0 157.5 45t93.5 155h347q-10 -124 -63.5 -222t-137 -158.5t-187 -91.5t-219.5 -31q-304 0 -485.5 193.5t-181.5 541.5t181.5 541.5t485.5 193.5q115 0 217.5 -31t186 -91.5t137 -157.5t64.5 -220h-349q-40 108 -92.5 152.5t-154.5 44.5
q-151 0 -229.5 -115.5t-78.5 -316.5q0 -200 78.5 -316t229.5 -116z" />
    <glyph glyph-name="uni0422" unicode="&#x422;" horiz-adv-x="1241" 
d="M1200 1434v-304h-403v-1130h-353v1130h-401v304h1157z" />
    <glyph glyph-name="uni0423" unicode="&#x423;" horiz-adv-x="1265" 
d="M836 1434h389l-451 -1041q-60 -137 -113.5 -219.5t-122.5 -136.5t-153 -70t-203 -4v309q37 -4 68.5 -4.5t55 4t41 8.5t31 14.5t21.5 16.5t16 19.5t10.5 18t8.5 18.5q30 73 -33 221l-358 846h387l199 -570z" />
    <glyph glyph-name="uni0424" unicode="&#x424;" horiz-adv-x="1523" 
d="M1450 717q0 -231 -136 -385t-376 -197v-166h-352v166q-240 43 -376 197t-136 385q0 234 136 387t376 194v166h352v-166q240 -43 376 -196t136 -385zM410 717q0 -223 176 -299v598q-176 -73 -176 -299zM938 420q89 37 132.5 115t43.5 182q0 223 -176 299v-596z" />
    <glyph glyph-name="uni0425" unicode="&#x425;" horiz-adv-x="1406" 
d="M1374 0h-393l-279 432l-278 -432h-391l475 737l-449 697h394l252 -392l249 392h394l-449 -697z" />
    <glyph glyph-name="uni0426" unicode="&#x426;" horiz-adv-x="1497" 
d="M1300 303h156v-592h-336v289h-1016v1434h351v-1131h493v1131h352v-1131z" />
    <glyph glyph-name="uni0427" unicode="&#x427;" horiz-adv-x="1366" 
d="M911 1434h353v-1434h-353v545q-12 -25 -32.5 -53t-58 -62.5t-82 -61t-109.5 -45t-137 -18.5q-418 0 -418 488v641h350v-627q0 -93 52.5 -142t154.5 -49q63 0 117 21.5t87 53.5t52.5 63.5t23.5 56.5v623z" />
    <glyph glyph-name="uni0428" unicode="&#x428;" horiz-adv-x="1744" 
d="M1288 1434h352v-1434h-1536v1434h351v-1131h241v1131h353v-1131h239v1131z" />
    <glyph glyph-name="uni0429" unicode="&#x429;" horiz-adv-x="1830" 
d="M1640 303h148v-592h-334v289h-1350v1434h351v-1131h241v1131h353v-1131h239v1131h352v-1131z" />
    <glyph glyph-name="uni042A" unicode="&#x42a;" horiz-adv-x="1462" 
d="M817 967q285 0 424 -129t139 -355t-139 -354.5t-424 -128.5h-590v1130h-184v304h535v-467h239zM813 297q95 0 144 48.5t49 137.5t-49 138t-144 49h-235v-373h235z" />
    <glyph glyph-name="uni042B" unicode="&#x42b;" horiz-adv-x="1859" 
d="M694 967q285 0 424 -129t139 -355t-139 -354.5t-424 -128.5h-590v1434h351v-467h239zM1405 1434h350v-1434h-350v1434zM690 297q95 0 144 48.5t49 137.5t-49 138t-144 49h-235v-373h235z" />
    <glyph glyph-name="uni042C" unicode="&#x42c;" horiz-adv-x="1341" 
d="M694 967q285 0 424 -129t139 -355t-139 -354.5t-424 -128.5h-590v1434h351v-467h239zM690 297q95 0 144 48.5t49 137.5t-49 138t-144 49h-235v-373h235z" />
    <glyph glyph-name="uni042D" unicode="&#x42d;" horiz-adv-x="1421" 
d="M680 1452q150 0 273 -49t210.5 -141.5t136 -231.5t48.5 -313t-48.5 -313t-136 -231.5t-210.5 -141.5t-273 -49q-116 0 -219 31t-187 91.5t-137 158.5t-63 222h346q40 -110 94 -155t158 -45q123 0 198 79t99 220h-357v280h355q-25 135 -100 210t-195 75q-102 0 -155 -45
t-93 -152h-348q11 123 64.5 220t136.5 157.5t185.5 91.5t217.5 31z" />
    <glyph glyph-name="uni042E" unicode="&#x42e;" horiz-adv-x="2078" 
d="M1317 1452q317 0 503.5 -196.5t186.5 -538.5q0 -340 -187 -537.5t-503 -197.5q-283 0 -463.5 158t-218.5 438h-180v-578h-351v1434h351v-572h182q38 278 218 434t462 156zM1317 285q155 0 238 117t83 315q0 201 -83 316.5t-238 115.5t-238.5 -116t-83.5 -316
q0 -198 83.5 -315t238.5 -117z" />
    <glyph glyph-name="uni042F" unicode="&#x42f;" horiz-adv-x="1394" 
d="M1290 1434v-1434h-350v502h-313q-86 0 -134.5 -48t-48.5 -122v-92q0 -92 -8 -141.5t-33 -98.5h-350q24 50 32.5 100.5t8.5 139.5v104q0 107 46 181t159 134q-40 30 -67.5 56t-58 67t-46.5 94.5t-16 118.5q0 93 31.5 171t95.5 139t171 95t248 34h633zM940 778v350h-274
q-92 0 -142.5 -40.5t-50.5 -122.5q0 -98 44.5 -142.5t160.5 -44.5h262z" />
    <glyph glyph-name="uni0430" unicode="&#x430;" horiz-adv-x="1161" 
d="M1053 301q0 -46 20 -71t55 -27v-191q-43 -20 -118 -20q-111 0 -183.5 45.5t-72.5 128.5v-10l-8 -12q-7 -11 -14.5 -21.5t-23.5 -27t-33.5 -30.5t-44.5 -29t-56.5 -25.5t-70 -17.5t-85.5 -7q-72 0 -135 18.5t-116 56t-83.5 103.5t-30.5 153q0 70 24.5 123t53.5 82.5
t91 53.5t95.5 32t108.5 22q6 1 9 2t7.5 1.5t8.5 1.5q29 6 80 15t77.5 14t58 14.5t50.5 21.5q-2 131 -144 131q-131 0 -147 -110h-315q27 354 464 354q259 0 368.5 -108t109.5 -349v-317zM717 334v172q-28 -14 -56.5 -24t-47.5 -15t-52.5 -13t-56.5 -14q-62 -17 -88.5 -42.5
t-26.5 -67.5q0 -43 30 -75t93 -32q54 0 101 22.5t69 44.5t35 44z" />
    <glyph glyph-name="uni0431" unicode="&#x431;" horiz-adv-x="1202" 
d="M690 1061q55 0 114 -16t121.5 -56t111.5 -98.5t80.5 -153.5t31.5 -211q0 -121 -35 -217.5t-90 -156t-128 -99.5t-143 -55.5t-141 -15.5q-72 0 -141.5 18t-142.5 66t-128 120.5t-90 192t-36 270.5v215q-1 296 122 433t367 137h49q109 0 158 45h297q-42 -167 -130 -236
t-267 -69h-107q-80 0 -125 -56.5t-45 -132.5v-39q7 37 91.5 76t205.5 39zM612 250q94 0 154.5 68.5t60.5 207.5q0 143 -61 214t-154 71q-94 0 -154.5 -71t-60.5 -216q0 -142 59.5 -208t155.5 -66z" />
    <glyph glyph-name="uni0432" unicode="&#x432;" horiz-adv-x="1232" 
d="M954 594q103 -32 164.5 -105t61.5 -176q0 -75 -27.5 -131.5t-73 -90.5t-112 -55t-135 -28.5t-152.5 -7.5h-576v1065h576q186 0 300 -67t114 -195q0 -160 -140 -209zM440 799v-146h236q88 0 105 59q3 9 3 15q0 72 -104 72h-240zM692 268q150 0 150 92q0 18 -4 31t-17.5 29
t-47 24.5t-85.5 8.5h-248v-185h252z" />
    <glyph glyph-name="uni0433" unicode="&#x433;" horiz-adv-x="927" 
d="M885 1065v-260h-445v-805h-336v1065h781z" />
    <glyph glyph-name="uni0434" unicode="&#x434;" horiz-adv-x="1402" 
d="M1253 260h107v-362h-303v102h-711v-102h-303v362h102q64 60 82.5 172t18.5 311v322h1007v-805zM467 260h451v545h-336v-62q0 -188 -23.5 -305t-91.5 -178z" />
    <glyph glyph-name="uni0435" unicode="&#x435;" horiz-adv-x="1155" 
d="M1104 483q0 -37 -2 -53h-725q15 -104 69.5 -150.5t155.5 -46.5q150 0 184 91h289q-80 -338 -493 -338q-74 0 -146 17.5t-142 58.5t-123 101.5t-85.5 154t-32.5 208.5q0 116 32 210.5t85 156.5t123.5 104t144 60t150.5 18q83 0 156 -18.5t140 -62.5t115 -110.5t76.5 -169
t28.5 -231.5zM379 633h403q-3 89 -52 141.5t-142 52.5q-174 0 -209 -194z" />
    <glyph glyph-name="uni0436" unicode="&#x436;" horiz-adv-x="1910" 
d="M1898 0h-413l-352 375v-375h-336v375l-351 -375h-415l508 524l-500 541h416l342 -385v385h336v-385l344 385h413l-499 -541z" />
    <glyph glyph-name="uni0437" unicode="&#x437;" horiz-adv-x="1148" 
d="M852 561q68 -19 98 -34q135 -67 135 -210q0 -107 -74.5 -184.5t-192.5 -114t-263 -36.5q-502 0 -502 436h301q0 -89 53.5 -143t147.5 -54t145.5 32.5t51.5 92.5q0 47 -55 84t-181 37v168q51 0 88.5 8t57 19.5t31 27.5t14 27t2.5 24q0 45 -44.5 71t-107.5 26
q-71 0 -119.5 -39t-48.5 -113h-301q0 188 125.5 290.5t337.5 102.5q211 0 343 -79.5t132 -215.5q0 -32 -6.5 -60t-16 -48t-25 -37.5t-27.5 -28t-30.5 -20.5t-27.5 -14t-25 -10z" />
    <glyph glyph-name="uni0438" unicode="&#x438;" horiz-adv-x="1271" 
d="M104 1065h336v-590h6l385 590h338v-1065h-335v567h-9l-370 -567h-351v1065z" />
    <glyph glyph-name="uni0439" unicode="&#x439;" horiz-adv-x="1271" 
d="M786 1452h215q0 -159 -92.5 -244.5t-271.5 -85.5t-273 85.5t-94 244.5h215q10 -61 46.5 -86t105.5 -25q67 0 103 25t46 86zM104 1065h336v-590h6l385 590h338v-1065h-335v567h-9l-370 -567h-351v1065z" />
    <glyph glyph-name="uni043A" unicode="&#x43a;" horiz-adv-x="1214" 
d="M840 0l-330 406l-70 -72v-334h-336v1065h336v-346l328 346h377l-428 -444l487 -621h-364z" />
    <glyph glyph-name="uni043B" unicode="&#x43b;" horiz-adv-x="1292" 
d="M1190 1065v-1065h-320l-12 805h-287v-361q0 -252 -145 -364.5t-395 -85.5v260q44 -1 77.5 7t64 29.5t47 65t16.5 107.5v602h954z" />
    <glyph glyph-name="uni043C" unicode="&#x43c;" horiz-adv-x="1548" 
d="M104 1065h394l276 -676l277 676h395v-1065h-336v547h-12l-203 -547h-242l-202 547h-11v-547h-336v1065z" />
    <glyph glyph-name="uni043D" unicode="&#x43d;" horiz-adv-x="1200" 
d="M762 1065h336v-1065h-336v424h-322v-424h-336v1065h336v-379h322v379z" />
    <glyph glyph-name="uni043E" unicode="&#x43e;" horiz-adv-x="1179" 
d="M590 1075q70 0 141 -17.5t143.5 -59.5t128 -103t90.5 -156t35 -211q0 -114 -35 -208t-90.5 -154.5t-128 -102.5t-143.5 -59.5t-141 -17.5t-141 17.5t-143 59.5t-127.5 102.5t-90.5 154.5t-35 208q0 116 35 211t90.5 156t127.5 103t143 59.5t141 17.5zM805 528
q0 142 -60.5 210.5t-154.5 68.5t-154.5 -68.5t-60.5 -210.5q0 -135 61 -204.5t154 -69.5t154 69.5t61 204.5z" />
    <glyph glyph-name="uni043F" unicode="&#x43f;" horiz-adv-x="1181" 
d="M1079 1065v-1065h-336v805h-303v-805h-336v1065h975z" />
    <glyph glyph-name="uni0440" unicode="&#x440;" horiz-adv-x="1232" 
d="M713 1075q56 0 116.5 -18t124.5 -60.5t114 -103t82 -154.5t32 -207q0 -116 -32.5 -211t-83 -155.5t-115 -102.5t-126 -59.5t-118.5 -17.5q-61 0 -112.5 14.5t-82 36.5t-48 40t-24.5 32v-498h-336v1454h336v-115q28 42 101.5 83.5t171.5 41.5zM633 254q95 0 158 69.5
t63 208.5q0 138 -63 206.5t-158 68.5q-93 0 -150 -71t-57 -204q0 -136 57 -207t150 -71z" />
    <glyph glyph-name="uni0441" unicode="&#x441;" horiz-adv-x="1124" 
d="M586 256q82 0 120 36.5t54 102.5h303q-14 -96 -51.5 -170.5t-85.5 -118.5t-109.5 -72t-118 -38t-116.5 -10q-76 0 -148 17t-142.5 57.5t-122.5 101t-84 155.5t-32 213q0 116 32 210.5t84 155.5t121.5 102.5t141.5 59t148 17.5q63 0 118.5 -9.5t115.5 -36.5t105.5 -70
t82 -115.5t51.5 -167.5h-305q-12 61 -47.5 95t-116.5 34q-101 0 -154 -72t-53 -203q0 -133 53.5 -203.5t155.5 -70.5z" />
    <glyph glyph-name="uni0442" unicode="&#x442;" horiz-adv-x="1116" 
d="M1055 1065v-260h-328v-805h-336v805h-330v260h994z" />
    <glyph glyph-name="uni0443" unicode="&#x443;" horiz-adv-x="1204" 
d="M834 1065h340l-431 -1040q-55 -136 -108.5 -220.5t-123 -137.5t-155 -69t-204.5 -4v283q33 -6 62.5 -3t51.5 3.5t42.5 9.5t33.5 14t26.5 17.5t21 19.5t16 21t12.5 22t10 21q9 18 8.5 38t-6 38t-20.5 59l-377 928h346l219 -635z" />
    <glyph glyph-name="uni0444" unicode="&#x444;" horiz-adv-x="1273" 
d="M1221 526q0 -116 -35.5 -210.5t-97 -157t-134 -102t-157.5 -58.5v-377h-316v379q-68 15 -128 42t-116 71t-96 101t-64 137t-24 175t24 176t64 139.5t96 104t116 73t128 42.5v389h316v-389q85 -20 157.5 -60.5t134 -103.5t97 -158.5t35.5 -212.5zM326 526q0 -208 155 -272
v551q-155 -64 -155 -279zM797 256q151 63 151 270q0 214 -151 277v-547z" />
    <glyph glyph-name="uni0445" unicode="&#x445;" horiz-adv-x="1218" 
d="M1178 0h-365l-203 315l-204 -315h-363l379 557l-344 508h366l166 -264l164 264h367l-344 -508z" />
    <glyph glyph-name="uni0446" unicode="&#x446;" horiz-adv-x="1257" 
d="M1079 260h146v-547h-320v287h-801v1065h336v-805h303v805h336v-805z" />
    <glyph glyph-name="uni0447" unicode="&#x447;" horiz-adv-x="1204" 
d="M764 1065h336v-1065h-336v483q-14 -31 -40.5 -64t-67.5 -68t-100.5 -57t-125.5 -22q-174 0 -275.5 101t-101.5 317v375h336v-356q0 -75 46 -117.5t124 -42.5q91 0 145 61t60 123v332z" />
    <glyph glyph-name="uni0448" unicode="&#x448;" horiz-adv-x="1654" 
d="M1217 1065h335v-1065h-1448v1065h336v-805h230v805h315v-805h232v805z" />
    <glyph glyph-name="uni0449" unicode="&#x449;" horiz-adv-x="1730" 
d="M1552 260h148v-547h-320v287h-1276v1065h336v-805h230v805h315v-805h232v805h335v-805z" />
    <glyph glyph-name="uni044A" unicode="&#x44a;" horiz-adv-x="1323" 
d="M827 719q202 0 323.5 -99.5t121.5 -261.5q0 -165 -121 -261.5t-324 -96.5h-600v805h-184v260h520v-346h264zM823 260q59 0 90 26t31 72q0 47 -31 73t-90 26h-260v-197h260z" />
    <glyph glyph-name="uni044B" unicode="&#x44b;" horiz-adv-x="1720" 
d="M705 719q202 0 323 -99.5t121 -261.5q0 -165 -120.5 -261.5t-323.5 -96.5h-601v1065h336v-346h265zM1282 1065h336v-1065h-336v1065zM700 260q59 0 90 26t31 72q0 47 -31 73t-90 26h-260v-197h260z" />
    <glyph glyph-name="uni044C" unicode="&#x44c;" horiz-adv-x="1200" 
d="M705 719q202 0 323 -99.5t121 -261.5q0 -165 -120.5 -261.5t-323.5 -96.5h-601v1065h336v-346h265zM700 260q59 0 90 26t31 72q0 47 -31 73t-90 26h-260v-197h260z" />
    <glyph glyph-name="uni044D" unicode="&#x44d;" horiz-adv-x="1116" 
d="M537 1075q76 0 148 -17.5t141.5 -59t121.5 -102.5t83.5 -155.5t31.5 -210.5q0 -118 -32 -213t-84 -155.5t-122 -101t-142 -57.5t-148 -17q-60 0 -116.5 10t-118 38t-110 72t-86 118.5t-51.5 170.5h303q16 -66 54 -102.5t120 -36.5q163 0 201 176h-266v203h264
q-39 170 -197 170q-80 0 -115.5 -34t-47.5 -95h-306q15 95 51.5 167.5t82.5 115.5t105.5 70t115.5 36.5t119 9.5z" />
    <glyph glyph-name="uni044E" unicode="&#x44e;" horiz-adv-x="1685" 
d="M1096 1075q70 0 141 -17.5t143.5 -59.5t128 -103t90.5 -156t35 -211q0 -114 -35 -208t-90.5 -154.5t-128 -102.5t-143.5 -59.5t-141 -17.5q-78 0 -157.5 23.5t-155.5 70.5t-133.5 130t-78.5 191h-131v-403h-336v1065h336v-399h131q23 108 80.5 190.5t133.5 128.5
t154.5 69t156.5 23zM1096 254q93 0 154 69.5t61 204.5q0 142 -60.5 210.5t-154.5 68.5t-154.5 -68.5t-60.5 -210.5q0 -135 61 -204.5t154 -69.5z" />
    <glyph glyph-name="uni044F" unicode="&#x44f;" horiz-adv-x="1232" 
d="M1128 1065v-1065h-335v346h-265q-100 0 -100 -100v-84q0 -65 -6 -93.5t-25 -68.5h-336q19 40 25 68.5t6 93.5v84q0 69 24.5 117.5t90.5 78.5q-123 99 -123 265q0 165 120.5 261.5t323.5 96.5h600zM793 608v197h-261q-59 0 -89.5 -25.5t-30.5 -72.5t30.5 -73t89.5 -26h261
z" />
    <glyph glyph-name="uni0451" unicode="&#x451;" horiz-adv-x="1155" 
d="M508 1452v-235h-340v235h340zM999 1452v-235h-340v235h340zM1104 483q0 -37 -2 -53h-725q15 -104 69.5 -150.5t155.5 -46.5q150 0 184 91h289q-80 -338 -493 -338q-74 0 -146 17.5t-142 58.5t-123 101.5t-85.5 154t-32.5 208.5q0 116 32 210.5t85 156.5t123.5 104t144 60
t150.5 18q83 0 156 -18.5t140 -62.5t115 -110.5t76.5 -169t28.5 -231.5zM379 633h403q-3 89 -52 141.5t-142 52.5q-174 0 -209 -194z" />
    <glyph glyph-name="uni0453" unicode="&#x453;" horiz-adv-x="927" 
d="M305 1190h283l243 262h-366zM885 1065v-260h-445v-805h-336v1065h781z" />
    <glyph glyph-name="uni0454" unicode="&#x454;" horiz-adv-x="1124" 
d="M760 395h303q-14 -96 -51.5 -170.5t-85.5 -118.5t-109.5 -72t-118 -38t-116.5 -10q-76 0 -148 17t-142.5 57.5t-122.5 101t-84 155.5t-32 213q0 116 32 210.5t84 155.5t121.5 102.5t141.5 59t148 17.5q63 0 118.5 -9.5t115.5 -36.5t105.5 -70t82 -115.5t51.5 -167.5h-305
q-12 61 -47.5 95t-116.5 34q-158 0 -197 -170h264v-203h-266q38 -176 201 -176q82 0 120 36.5t54 102.5z" />
    <glyph glyph-name="uni0457" unicode="&#x457;" horiz-adv-x="542" 
d="M-143 1452h340v-235h-340v235zM348 1452h340v-235h-340v235zM104 1065h336v-1065h-336v1065z" />
    <glyph glyph-name="uni045C" unicode="&#x45c;" horiz-adv-x="1214" 
d="M975 1452l-244 -262h-282l159 262h367zM840 0l-330 406l-70 -72v-334h-336v1065h336v-346l328 346h377l-428 -444l487 -621h-364z" />
    <glyph glyph-name="uni045E" unicode="&#x45e;" horiz-adv-x="1204" 
d="M752 1452h215q0 -159 -93 -244.5t-272 -85.5t-272.5 85.5t-93.5 244.5h215q10 -61 46.5 -86t104.5 -25q67 0 103.5 25t46.5 86zM834 1065h340l-431 -1040q-55 -136 -108.5 -220.5t-123 -137.5t-155 -69t-204.5 -4v283q33 -6 62.5 -3t51.5 3.5t42.5 9.5t33.5 14t26.5 17.5
t21 19.5t16 21t12.5 22t10 21q9 18 8.5 38t-6 38t-20.5 59l-377 928h346l219 -635z" />
    <glyph glyph-name="uni0490" unicode="&#x490;" horiz-adv-x="1091" 
d="M696 1638h353v-508h-594v-1130h-351v1434h592v204z" />
    <glyph glyph-name="uni0491" unicode="&#x491;" horiz-adv-x="927" 
d="M598 1200h287v-395h-445v-805h-336v1065h494v135z" />
    <glyph glyph-name="Wgrave" unicode="&#x1e80;" horiz-adv-x="2123" 
d="M1212 1559l-159 262h-367l244 -262h282zM1714 1434h369l-410 -1434h-323l-287 891l-289 -891h-321l-410 1434h367l225 -899l258 899h338l260 -899z" />
    <glyph glyph-name="wgrave" unicode="&#x1e81;" horiz-adv-x="1673" 
d="M985 1190l-160 262h-366l243 -262h283zM1640 1065l-294 -1065h-285l-225 670l-222 -670h-286l-295 1065h338l145 -639l189 639h264l188 -639l148 639h335z" />
    <glyph glyph-name="Wacute" unicode="&#x1e82;" horiz-adv-x="2123" 
d="M905 1559h283l244 262h-367zM1714 1434h369l-410 -1434h-323l-287 891l-289 -891h-321l-410 1434h367l225 -899l258 899h338l260 -899z" />
    <glyph glyph-name="wacute" unicode="&#x1e83;" horiz-adv-x="1673" 
d="M678 1190h283l243 262h-366zM1640 1065l-294 -1065h-285l-225 670l-222 -670h-286l-295 1065h338l145 -639l189 639h264l188 -639l148 639h335z" />
    <glyph glyph-name="Wdieresis" unicode="&#x1e84;" horiz-adv-x="2123" 
d="M647 1821h340v-236h-340v236zM1139 1821h340v-236h-340v236zM1714 1434h369l-410 -1434h-323l-287 891l-289 -891h-321l-410 1434h367l225 -899l258 899h338l260 -899z" />
    <glyph glyph-name="wdieresis" unicode="&#x1e85;" horiz-adv-x="1673" 
d="M420 1452h340v-235h-340v235zM911 1452h340v-235h-340v235zM1640 1065l-294 -1065h-285l-225 670l-222 -670h-286l-295 1065h338l145 -639l189 639h264l188 -639l148 639h335z" />
    <glyph glyph-name="uni1E9E" unicode="&#x1e9e;" horiz-adv-x="1552" 
d="M1042 913q87 -16 162 -51.5t138.5 -92.5t100 -145.5t36.5 -199.5q0 -201 -129 -322.5t-363 -121.5q-129 0 -219.5 31.5t-143.5 93t-76.5 143t-23.5 190.5h340q0 -25 5 -49t17 -49.5t38 -41t63 -15.5q63 0 93 43.5t30 93.5q0 107 -147.5 168t-380.5 49l266 516h-248
q-77 0 -111 -39.5t-34 -122.5v-991h-351v1030q0 218 112.5 322t344.5 104h791z" />
    <glyph glyph-name="Ygrave" unicode="&#x1ef2;" horiz-adv-x="1472" 
d="M887 1559l-160 262h-367l244 -262h283zM918 518v-518h-363v518l-512 916h393l301 -578l299 578h396z" />
    <glyph glyph-name="ygrave" unicode="&#x1ef3;" horiz-adv-x="1204" 
d="M745 1190l-159 262h-367l244 -262h282zM834 1065h340l-431 -1040q-55 -136 -108.5 -220.5t-123 -137.5t-155 -69t-204.5 -4v283q33 -6 62.5 -3t51.5 3.5t42.5 9.5t33.5 14t26.5 17.5t21 19.5t16 21t12.5 22t10 21q9 18 8.5 38t-6 38t-20.5 59l-377 928h346l219 -635z" />
    <glyph glyph-name="endash" unicode="&#x2013;" horiz-adv-x="1228" 
d="M92 688h1045v-250h-1045v250z" />
    <glyph glyph-name="emdash" unicode="&#x2014;" horiz-adv-x="1351" 
d="M92 688h1168v-250h-1168v250z" />
    <glyph glyph-name="quoteleft" unicode="&#x2018;" horiz-adv-x="522" 
d="M440 1434v-101q-70 -13 -103.5 -65t-33.5 -123v-66h137v-374h-358v339q0 74 11.5 133.5t29.5 99.5t46.5 69.5t57.5 46t68 26t71.5 12.5t73.5 3z" />
    <glyph glyph-name="quoteright" unicode="&#x2019;" horiz-adv-x="522" 
d="M82 705v100q70 13 103.5 65t33.5 123v66h-137v375h358v-340q0 -74 -11.5 -133.5t-29.5 -99.5t-46.5 -69.5t-57.5 -45.5t-68 -26t-71.5 -12.5t-73.5 -2.5z" />
    <glyph glyph-name="quotesinglbase" unicode="&#x201a;" horiz-adv-x="522" 
d="M82 -354v100q70 13 103.5 65t33.5 123v66h-137v375h358v-340q0 -74 -11.5 -133.5t-29.5 -99.5t-46.5 -69.5t-57.5 -45.5t-68 -26t-71.5 -12.5t-73.5 -2.5z" />
    <glyph glyph-name="quotedblleft" unicode="&#x201c;" horiz-adv-x="1071" 
d="M440 1436v-101q-70 -13 -103.5 -65t-33.5 -123v-66h137v-374h-358v340q0 74 11.5 133.5t29.5 99.5t46.5 69.5t57.5 45.5t68 26t71.5 12.5t73.5 2.5zM989 1436v-101q-70 -13 -103.5 -65t-33.5 -123v-66h137v-374h-358v340q0 74 11.5 133.5t29.5 99.5t46.5 69.5t57.5 45.5
t68 26t71.5 12.5t73.5 2.5z" />
    <glyph glyph-name="quotedblright" unicode="&#x201d;" horiz-adv-x="1071" 
d="M82 705v100q70 13 103.5 65t33.5 123v66h-137v375h358v-340q0 -74 -11.5 -133.5t-29.5 -99.5t-46.5 -69.5t-57.5 -45.5t-68 -26t-71.5 -12.5t-73.5 -2.5zM631 705v100q70 13 103.5 65t33.5 123v66h-137v375h358v-340q0 -74 -11.5 -133.5t-29.5 -99.5t-46.5 -69.5
t-57.5 -45.5t-68 -26t-71.5 -12.5t-73.5 -2.5z" />
    <glyph glyph-name="quotedblbase" unicode="&#x201e;" horiz-adv-x="1071" 
d="M82 -354v100q70 13 103.5 65t33.5 123v66h-137v375h358v-340q0 -74 -11.5 -133.5t-29.5 -99.5t-46.5 -69.5t-57.5 -45.5t-68 -26t-71.5 -12.5t-73.5 -2.5zM631 -354v100q70 13 103.5 65t33.5 123v66h-137v375h358v-340q0 -74 -11.5 -133.5t-29.5 -99.5t-46.5 -69.5
t-57.5 -45.5t-68 -26t-71.5 -12.5t-73.5 -2.5z" />
    <glyph glyph-name="dagger" unicode="&#x2020;" horiz-adv-x="923" 
d="M821 1118v-252h-225v-501h-266v501h-228v252h228v316h266v-316h225z" />
    <glyph glyph-name="daggerdbl" unicode="&#x2021;" horiz-adv-x="923" 
d="M821 920h-225v-406h225v-252h-225v-262h-266v262h-228v252h228v406h-228v251h228v263h266v-263h225v-251z" />
    <glyph glyph-name="bullet" unicode="&#x2022;" horiz-adv-x="579" 
d="M291 352q-77 0 -133 55.5t-56 133.5q0 76 56 131t133 55t131.5 -54.5t54.5 -131.5q0 -78 -54.5 -133.5t-131.5 -55.5z" />
    <glyph glyph-name="ellipsis" unicode="&#x2026;" horiz-adv-x="1574" 
d="M102 375h359v-375h-359v375zM608 375h359v-375h-359v375zM1114 375h359v-375h-359v375z" />
    <glyph glyph-name="perthousand" unicode="&#x2030;" horiz-adv-x="2174" 
d="M391 748q-134 0 -216.5 88.5t-82.5 259.5q0 173 81.5 260.5t217.5 87.5q134 0 215.5 -87.5t81.5 -260.5q0 -172 -81.5 -260t-215.5 -88zM217 0l846 1440l240 -6l-840 -1434h-246zM391 961q33 0 50.5 26t17.5 109t-17.5 110t-50.5 27q-34 0 -51.5 -27t-17.5 -110
q0 -57 10 -88t23 -39t36 -8zM1786 -2q-136 0 -217.5 87.5t-81.5 260.5q0 172 82 259t217 87q134 0 215.5 -87t81.5 -259q0 -173 -81.5 -260.5t-215.5 -87.5zM1139 -10q-136 0 -217.5 87.5t-81.5 260.5t81 260.5t218 87.5q134 0 215.5 -87.5t81.5 -260.5t-81.5 -260.5
t-215.5 -87.5zM1786 209q32 0 49.5 27.5t17.5 109.5q0 81 -17.5 108t-49.5 27q-34 0 -52 -26.5t-18 -108.5q0 -83 18 -110t52 -27zM1139 203q32 0 48.5 26.5t16.5 108.5t-16.5 108.5t-48.5 26.5q-35 0 -52.5 -26t-17.5 -109t17.5 -109t52.5 -26z" />
    <glyph glyph-name="guilsinglleft" unicode="&#x2039;" horiz-adv-x="532" 
d="M451 743l-168 -131l168 -133v-299l-369 295v273l369 294v-299z" />
    <glyph glyph-name="guilsinglright" unicode="&#x203a;" horiz-adv-x="544" 
d="M104 743v299l369 -294v-273l-369 -295v299l168 133z" />
    <glyph glyph-name="fraction" unicode="&#x2044;" horiz-adv-x="323" 
d="M-203 0h-164l893 1434h164z" />
    <glyph glyph-name="Euro" unicode="&#x20ac;" horiz-adv-x="1501" 
d="M1094 485h346q-10 -124 -63 -222t-137 -158.5t-187 -91.5t-219 -31q-237 0 -403 120t-230 342h-129v201h96q-2 23 -2 72v16h-94v201h116q52 248 222.5 383t423.5 135q115 0 217.5 -31t185.5 -91.5t136.5 -157.5t64.5 -220h-348q-40 107 -93 152t-155 45q-104 0 -174 -56
t-103 -159h236v-201h-266v-16q0 -49 2 -72h264v-201h-213q78 -159 254 -159q104 0 158 45t94 155z" />
    <glyph glyph-name="trademark" unicode="&#x2122;" horiz-adv-x="1077" 
d="M451 1329h-121v-264h-127v264h-121v105h369v-105zM995 1434v-369h-127v172l-57 -172h-113l-57 172v-172h-127v369h127l115 -273l112 273h127z" />
    <glyph glyph-name="partialdiff" unicode="&#x2202;" horiz-adv-x="1243" 
d="M547 932q58 0 110.5 -11t86 -26t59.5 -31.5t37 -27.5t12 -15q0 23 -0.5 40t-5 60t-13 75t-26.5 72.5t-43 67.5t-65.5 45.5t-90.5 18.5q-25 0 -52.5 -7t-58.5 -23t-55 -48.5t-34 -77.5h-295q3 55 20.5 109t56 109t93 96.5t140 67.5t189.5 26q142 0 249 -53t174 -151.5
t100.5 -233t33.5 -303.5q0 -160 -30.5 -286.5t-82 -208t-123.5 -135.5t-150.5 -76.5t-166.5 -22.5q-67 0 -134 12t-141 46.5t-130 87.5t-92.5 143.5t-36.5 205.5q0 91 24.5 165t65.5 122t89.5 82.5t103.5 52t99 25.5t83 8zM608 252q19 0 39.5 3t53 17.5t56.5 37.5t42 68.5
t18 106.5q0 51 -14.5 91t-36.5 63t-50.5 38t-52.5 20t-47 5q-26 0 -57 -9.5t-66.5 -31.5t-59 -69t-23.5 -111q0 -54 14.5 -96.5t35.5 -66.5t49 -39.5t52 -21t47 -5.5z" />
    <glyph glyph-name="product" unicode="&#x220f;" horiz-adv-x="1560" 
d="M92 1638h1376v-2027h-323v1722h-729v-1722h-324v2027z" />
    <glyph glyph-name="summation" unicode="&#x2211;" horiz-adv-x="1443" 
d="M1352 1335h-723l391 -710l-391 -711h723v-303h-1260l563 1014l-563 1013h1260v-303z" />
    <glyph glyph-name="minus" unicode="&#x2212;" horiz-adv-x="870" 
d="M80 635h702v-250h-702v250z" />
    <glyph glyph-name="radical" unicode="&#x221a;" horiz-adv-x="1722" 
d="M1630 1638l-522 -2027h-397l-359 862h-260v361h486l313 -795l407 1599h332z" />
    <glyph glyph-name="infinity" unicode="&#x221e;" horiz-adv-x="1716" 
d="M1247 895q170 0 282.5 -97.5t112.5 -260.5q0 -167 -112 -266t-283 -99q-184 0 -389 188q-205 -188 -387 -188q-172 0 -284.5 98.5t-112.5 266.5q0 163 112.5 260.5t284.5 97.5q181 0 387 -186q206 186 389 186zM489 422q108 0 203 115q-98 116 -203 116q-62 0 -93 -35.5
t-31 -80.5q0 -46 31 -80.5t93 -34.5zM1227 422q62 0 93.5 34.5t31.5 80.5q0 45 -31.5 80.5t-93.5 35.5q-105 0 -203 -116q95 -115 203 -115z" />
    <glyph glyph-name="integral" unicode="&#x222b;" horiz-adv-x="651" 
d="M158 1032q0 71 11 126t41 106t79.5 84t130.5 53t190 20v-286q-36 0 -60 -14t-35.5 -42t-16 -58t-4.5 -73v-948q0 -101 -21.5 -171t-73 -120.5t-139.5 -74t-219 -23.5v287q28 0 49 6.5t33.5 21.5t20 29t10.5 40t3.5 42t0.5 47v948z" />
    <glyph glyph-name="approxequal" unicode="&#x2248;" horiz-adv-x="1105" 
d="M881 809h133q0 -128 -70.5 -212.5t-204.5 -84.5q-48 0 -95.5 17.5t-86.5 42.5t-77.5 50t-84 42.5t-90.5 17.5q-29 0 -55 -15t-25 -42h-133q0 128 70.5 212.5t204.5 84.5q48 0 95.5 -17.5t86.5 -42.5t77.5 -50t84 -42.5t90.5 -17.5q29 0 55 15t25 42zM881 481h133
q0 -128 -70.5 -212.5t-204.5 -84.5q-48 0 -95.5 17.5t-86.5 42.5t-77.5 50t-84 42.5t-90.5 17.5q-29 0 -55 -15t-25 -42h-133q0 128 70.5 212.5t204.5 84.5q48 0 95.5 -17.5t86.5 -42.5t77.5 -50t84 -42.5t90.5 -17.5q29 0 55 15t25 42z" />
    <glyph glyph-name="notequal" unicode="&#x2260;" horiz-adv-x="870" 
d="M778 602h-225l-31 -78h256v-250h-352l-107 -274h-215l107 274h-135v250h231l31 78h-262v250h360l115 297h215l-115 -297h127v-250z" />
    <glyph glyph-name="lessequal" unicode="&#x2264;" horiz-adv-x="905" 
d="M805 602l-451 168l451 168v281l-703 -320v-256l703 -321v280zM102 252h701v-252h-701v252z" />
    <glyph glyph-name="greaterequal" unicode="&#x2265;" horiz-adv-x="909" 
d="M104 602v-280l703 321v256l-703 320v-281l451 -168zM807 252v-252h-701v252h701z" />
    <glyph glyph-name="lozenge" unicode="&#x25ca;" horiz-adv-x="1296" 
d="M887 1434l317 -717l-317 -717h-477l-318 717l318 717h477zM649 229l215 488l-215 487l-217 -487z" />
    <glyph glyph-name="G.ss01" horiz-adv-x="1452" 
d="M817 770h561v-770h-323v133q-64 -83 -139 -117t-189 -34q-294 0 -473.5 196t-179.5 539q0 347 182.5 541t484.5 194q111 0 211 -30t182.5 -87t138.5 -147.5t73 -204.5h-349q-41 86 -98 126t-149 40q-148 0 -228 -116.5t-80 -315.5q0 -194 80.5 -311.5t241.5 -120.5
q126 -3 198.5 49t86.5 155h-232v281z" />
    <glyph glyph-name="R.ss01" horiz-adv-x="1325" 
d="M1272 0h-359l-231 420h-227v-420h-351v1434h590q283 0 423 -137t140 -369q0 -157 -63.5 -273t-192.5 -176zM455 1130v-407h235q95 0 144 54.5t49 150.5q0 95 -49 148.5t-144 53.5h-235z" />
    <glyph glyph-name="G.ss05" horiz-adv-x="1452" 
d="M817 770h561v-770h-323v133q-64 -83 -139 -117t-189 -34q-294 0 -473.5 196t-179.5 539q0 347 182.5 541t484.5 194q111 0 211 -30t182.5 -87t138.5 -147.5t73 -204.5h-349q-41 86 -98 126t-149 40q-148 0 -228 -116.5t-80 -315.5q0 -194 80.5 -311.5t241.5 -120.5
q126 -3 198.5 49t86.5 155h-232v281z" />
    <glyph glyph-name="i.loclTRK" horiz-adv-x="542" 
d="M104 1452h340v-235h-340v235zM104 1065h336v-1065h-336v1065z" />
    <glyph glyph-name="a.ss01" 
d="M766 1065h336v-1065h-336v94q-15 -36 -78.5 -72t-175.5 -36q-56 0 -115 17t-121.5 58.5t-111 101.5t-80 156t-31.5 213q0 114 31 208.5t79.5 155t111 102t122 59.5t115.5 18q50 0 91 -9t66.5 -21.5t46.5 -31t30.5 -31.5t19.5 -30v113zM584 256q93 0 144.5 67.5
t51.5 208.5q0 136 -52 204.5t-144 68.5q-195 0 -195 -273q0 -276 195 -276z" />
    <glyph glyph-name="aacute.ss01" 
d="M983 1452l-244 -262h-282l159 262h367zM766 1065h336v-1065h-336v94q-15 -36 -78.5 -72t-175.5 -36q-56 0 -115 17t-121.5 58.5t-111 101.5t-80 156t-31.5 213q0 114 31 208.5t79.5 155t111 102t122 59.5t115.5 18q50 0 91 -9t66.5 -21.5t46.5 -31t30.5 -31.5t19.5 -30
v113zM584 256q93 0 144.5 67.5t51.5 208.5q0 136 -52 204.5t-144 68.5q-195 0 -195 -273q0 -276 195 -276z" />
    <glyph glyph-name="abreve.ss01" 
d="M614 1122q-179 0 -272.5 85.5t-93.5 244.5h215q10 -61 46.5 -86t104.5 -25q67 0 103.5 25t46.5 86h215q0 -159 -93 -244.5t-272 -85.5zM766 1065h336v-1065h-336v94q-15 -36 -78.5 -72t-175.5 -36q-56 0 -115 17t-121.5 58.5t-111 101.5t-80 156t-31.5 213
q0 114 31 208.5t79.5 155t111 102t122 59.5t115.5 18q50 0 91 -9t66.5 -21.5t46.5 -31t30.5 -31.5t19.5 -30v113zM584 256q93 0 144.5 67.5t51.5 208.5q0 136 -52 204.5t-144 68.5q-195 0 -195 -273q0 -276 195 -276z" />
    <glyph glyph-name="uni01CE.ss01" 
d="M924 1139h-625l-129 295h260l182 -154l181 154h260zM766 1065h336v-1065h-336v94q-15 -36 -78.5 -72t-175.5 -36q-56 0 -115 17t-121.5 58.5t-111 101.5t-80 156t-31.5 213q0 114 31 208.5t79.5 155t111 102t122 59.5t115.5 18q50 0 91 -9t66.5 -21.5t46.5 -31
t30.5 -31.5t19.5 -30v113zM584 256q93 0 144.5 67.5t51.5 208.5q0 136 -52 204.5t-144 68.5q-195 0 -195 -273q0 -276 195 -276z" />
    <glyph glyph-name="acircumflex.ss01" 
d="M614 1311l-182 -154h-260l129 295h625l129 -295h-260zM766 1065h336v-1065h-336v94q-15 -36 -78.5 -72t-175.5 -36q-56 0 -115 17t-121.5 58.5t-111 101.5t-80 156t-31.5 213q0 114 31 208.5t79.5 155t111 102t122 59.5t115.5 18q50 0 91 -9t66.5 -21.5t46.5 -31
t30.5 -31.5t19.5 -30v113zM584 256q93 0 144.5 67.5t51.5 208.5q0 136 -52 204.5t-144 68.5q-195 0 -195 -273q0 -276 195 -276z" />
    <glyph glyph-name="adieresis.ss01" 
d="M539 1452v-235h-340v235h340zM1030 1452v-235h-340v235h340zM766 1065h336v-1065h-336v94q-15 -36 -78.5 -72t-175.5 -36q-56 0 -115 17t-121.5 58.5t-111 101.5t-80 156t-31.5 213q0 114 31 208.5t79.5 155t111 102t122 59.5t115.5 18q50 0 91 -9t66.5 -21.5t46.5 -31
t30.5 -31.5t19.5 -30v113zM584 256q93 0 144.5 67.5t51.5 208.5q0 136 -52 204.5t-144 68.5q-195 0 -195 -273q0 -276 195 -276z" />
    <glyph glyph-name="agrave.ss01" 
d="M764 1190h-283l-243 262h366zM766 1065h336v-1065h-336v94q-15 -36 -78.5 -72t-175.5 -36q-56 0 -115 17t-121.5 58.5t-111 101.5t-80 156t-31.5 213q0 114 31 208.5t79.5 155t111 102t122 59.5t115.5 18q50 0 91 -9t66.5 -21.5t46.5 -31t30.5 -31.5t19.5 -30v113z
M584 256q93 0 144.5 67.5t51.5 208.5q0 136 -52 204.5t-144 68.5q-195 0 -195 -273q0 -276 195 -276z" />
    <glyph glyph-name="amacron.ss01" 
d="M1001 1452v-192h-772v192h772zM766 1065h336v-1065h-336v94q-15 -36 -78.5 -72t-175.5 -36q-56 0 -115 17t-121.5 58.5t-111 101.5t-80 156t-31.5 213q0 114 31 208.5t79.5 155t111 102t122 59.5t115.5 18q50 0 91 -9t66.5 -21.5t46.5 -31t30.5 -31.5t19.5 -30v113z
M584 256q93 0 144.5 67.5t51.5 208.5q0 136 -52 204.5t-144 68.5q-195 0 -195 -273q0 -276 195 -276z" />
    <glyph glyph-name="aogonek.ss01" 
d="M766 1065h336v-1065h-94q-283 -73 -283 -217q0 -39 22 -56.5t59 -15t85 22.5v-137q-44 -25 -105.5 -41.5t-126.5 -17t-121 14.5t-92 58t-36 110q0 60 34 112.5t88 86.5t115 55t119 25v94q-15 -36 -78.5 -72t-175.5 -36q-56 0 -115 17t-121.5 58.5t-111 101.5t-80 156
t-31.5 213q0 114 31 208.5t79.5 155t111 102t122 59.5t115.5 18q50 0 91 -9t66.5 -21.5t46.5 -31t30.5 -31.5t19.5 -30v113zM584 256q93 0 144.5 67.5t51.5 208.5q0 136 -52 204.5t-144 68.5q-195 0 -195 -273q0 -276 195 -276z" />
    <glyph glyph-name="aring.ss01" 
d="M612 1186q-87 0 -150 62t-63 151t63 151t150 62q86 0 149.5 -62.5t63.5 -150.5t-63.5 -150.5t-149.5 -62.5zM612 1470q-29 0 -49 -19t-20 -52t20 -52.5t49 -19.5q28 0 49 20t21 52t-21 51.5t-49 19.5zM766 1065h336v-1065h-336v94q-15 -36 -78.5 -72t-175.5 -36
q-56 0 -115 17t-121.5 58.5t-111 101.5t-80 156t-31.5 213q0 114 31 208.5t79.5 155t111 102t122 59.5t115.5 18q50 0 91 -9t66.5 -21.5t46.5 -31t30.5 -31.5t19.5 -30v113zM584 256q93 0 144.5 67.5t51.5 208.5q0 136 -52 204.5t-144 68.5q-195 0 -195 -273
q0 -276 195 -276z" />
    <glyph glyph-name="atilde.ss01" 
d="M391 1313q-29 0 -54 -15t-24 -41h-127q0 123 67 203t196 80q55 0 112.5 -25.5t98.5 -55.5t96 -55.5t106 -25.5q30 0 54.5 15t23.5 41h127q0 -123 -66.5 -203t-195.5 -80q-55 0 -113 25.5t-98.5 55.5t-96 55.5t-106.5 25.5zM766 1065h336v-1065h-336v94q-15 -36 -78.5 -72
t-175.5 -36q-56 0 -115 17t-121.5 58.5t-111 101.5t-80 156t-31.5 213q0 114 31 208.5t79.5 155t111 102t122 59.5t115.5 18q50 0 91 -9t66.5 -21.5t46.5 -31t30.5 -31.5t19.5 -30v113zM584 256q93 0 144.5 67.5t51.5 208.5q0 136 -52 204.5t-144 68.5q-195 0 -195 -273
q0 -276 195 -276z" />
    <glyph glyph-name="g.ss01" horiz-adv-x="1177" 
d="M567 289q78 0 149 -10.5t142 -37t122.5 -67t83.5 -106.5t32 -150q0 -68 -22 -124.5t-61 -96t-89 -69t-110.5 -46.5t-120.5 -25t-124 -8q-94 0 -180 19t-164 59.5t-125 115.5t-47 175q0 177 205 264q-76 12 -137.5 57.5t-61.5 114.5q0 58 38 97t100 55q-66 87 -66 209
q0 165 116.5 263.5t305.5 98.5q176 0 293 -90q80 80 207 78v-242q-43 0 -88 -18q10 -48 10 -90q0 -165 -116 -262t-306 -97q-116 0 -211 39q-20 -13 -20 -39q0 -16 5.5 -28t19.5 -19t27 -11t38.5 -6t44 -2.5t53.5 -0.5h57zM553 844q-43 0 -72.5 -13t-42.5 -35t-17.5 -41
t-4.5 -40q0 -125 137 -125t137 125q0 129 -137 129zM575 -213q195 0 195 131q0 27 -7 48t-25.5 41.5t-60 32t-102.5 11.5q-63 0 -104.5 -11t-60 -32.5t-25 -41.5t-6.5 -48q0 -25 6.5 -44.5t25 -41t60.5 -33.5t104 -12z" />
    <glyph glyph-name="l.ss01" horiz-adv-x="610" 
d="M549 0q-115 -13 -199 -7t-138.5 40t-81 107t-26.5 196v1114h336v-1135q0 -36 24.5 -54t84.5 -17v-244z" />
    <glyph glyph-name="a.ss02" 
d="M766 1065h336v-1065h-336v94q-15 -36 -78.5 -72t-175.5 -36q-56 0 -115 17t-121.5 58.5t-111 101.5t-80 156t-31.5 213q0 114 31 208.5t79.5 155t111 102t122 59.5t115.5 18q50 0 91 -9t66.5 -21.5t46.5 -31t30.5 -31.5t19.5 -30v113zM584 256q93 0 144.5 67.5
t51.5 208.5q0 136 -52 204.5t-144 68.5q-195 0 -195 -273q0 -276 195 -276z" />
    <glyph glyph-name="aacute.ss02" 
d="M983 1452l-244 -262h-282l159 262h367zM766 1065h336v-1065h-336v94q-15 -36 -78.5 -72t-175.5 -36q-56 0 -115 17t-121.5 58.5t-111 101.5t-80 156t-31.5 213q0 114 31 208.5t79.5 155t111 102t122 59.5t115.5 18q50 0 91 -9t66.5 -21.5t46.5 -31t30.5 -31.5t19.5 -30
v113zM584 256q93 0 144.5 67.5t51.5 208.5q0 136 -52 204.5t-144 68.5q-195 0 -195 -273q0 -276 195 -276z" />
    <glyph glyph-name="abreve.ss02" 
d="M614 1122q-179 0 -272.5 85.5t-93.5 244.5h215q10 -61 46.5 -86t104.5 -25q67 0 103.5 25t46.5 86h215q0 -159 -93 -244.5t-272 -85.5zM766 1065h336v-1065h-336v94q-15 -36 -78.5 -72t-175.5 -36q-56 0 -115 17t-121.5 58.5t-111 101.5t-80 156t-31.5 213
q0 114 31 208.5t79.5 155t111 102t122 59.5t115.5 18q50 0 91 -9t66.5 -21.5t46.5 -31t30.5 -31.5t19.5 -30v113zM584 256q93 0 144.5 67.5t51.5 208.5q0 136 -52 204.5t-144 68.5q-195 0 -195 -273q0 -276 195 -276z" />
    <glyph glyph-name="uni01CE.ss02" 
d="M924 1139h-625l-129 295h260l182 -154l181 154h260zM766 1065h336v-1065h-336v94q-15 -36 -78.5 -72t-175.5 -36q-56 0 -115 17t-121.5 58.5t-111 101.5t-80 156t-31.5 213q0 114 31 208.5t79.5 155t111 102t122 59.5t115.5 18q50 0 91 -9t66.5 -21.5t46.5 -31
t30.5 -31.5t19.5 -30v113zM584 256q93 0 144.5 67.5t51.5 208.5q0 136 -52 204.5t-144 68.5q-195 0 -195 -273q0 -276 195 -276z" />
    <glyph glyph-name="acircumflex.ss02" 
d="M614 1311l-182 -154h-260l129 295h625l129 -295h-260zM766 1065h336v-1065h-336v94q-15 -36 -78.5 -72t-175.5 -36q-56 0 -115 17t-121.5 58.5t-111 101.5t-80 156t-31.5 213q0 114 31 208.5t79.5 155t111 102t122 59.5t115.5 18q50 0 91 -9t66.5 -21.5t46.5 -31
t30.5 -31.5t19.5 -30v113zM584 256q93 0 144.5 67.5t51.5 208.5q0 136 -52 204.5t-144 68.5q-195 0 -195 -273q0 -276 195 -276z" />
    <glyph glyph-name="adieresis.ss02" 
d="M539 1452v-235h-340v235h340zM1030 1452v-235h-340v235h340zM766 1065h336v-1065h-336v94q-15 -36 -78.5 -72t-175.5 -36q-56 0 -115 17t-121.5 58.5t-111 101.5t-80 156t-31.5 213q0 114 31 208.5t79.5 155t111 102t122 59.5t115.5 18q50 0 91 -9t66.5 -21.5t46.5 -31
t30.5 -31.5t19.5 -30v113zM584 256q93 0 144.5 67.5t51.5 208.5q0 136 -52 204.5t-144 68.5q-195 0 -195 -273q0 -276 195 -276z" />
    <glyph glyph-name="agrave.ss02" 
d="M764 1190h-283l-243 262h366zM766 1065h336v-1065h-336v94q-15 -36 -78.5 -72t-175.5 -36q-56 0 -115 17t-121.5 58.5t-111 101.5t-80 156t-31.5 213q0 114 31 208.5t79.5 155t111 102t122 59.5t115.5 18q50 0 91 -9t66.5 -21.5t46.5 -31t30.5 -31.5t19.5 -30v113z
M584 256q93 0 144.5 67.5t51.5 208.5q0 136 -52 204.5t-144 68.5q-195 0 -195 -273q0 -276 195 -276z" />
    <glyph glyph-name="amacron.ss02" 
d="M999 1452v-192h-772v192h772zM766 1065h336v-1065h-336v94q-15 -36 -78.5 -72t-175.5 -36q-56 0 -115 17t-121.5 58.5t-111 101.5t-80 156t-31.5 213q0 114 31 208.5t79.5 155t111 102t122 59.5t115.5 18q50 0 91 -9t66.5 -21.5t46.5 -31t30.5 -31.5t19.5 -30v113z
M584 256q93 0 144.5 67.5t51.5 208.5q0 136 -52 204.5t-144 68.5q-195 0 -195 -273q0 -276 195 -276z" />
    <glyph glyph-name="aogonek.ss02" 
d="M766 1065h336v-1065h-94q-283 -73 -283 -217q0 -39 22 -56.5t59 -15t85 22.5v-137q-44 -25 -105.5 -41.5t-126.5 -17t-121 14.5t-92 58t-36 110q0 60 34 112.5t88 86.5t115 55t119 25v94q-15 -36 -78.5 -72t-175.5 -36q-56 0 -115 17t-121.5 58.5t-111 101.5t-80 156
t-31.5 213q0 114 31 208.5t79.5 155t111 102t122 59.5t115.5 18q50 0 91 -9t66.5 -21.5t46.5 -31t30.5 -31.5t19.5 -30v113zM584 256q93 0 144.5 67.5t51.5 208.5q0 136 -52 204.5t-144 68.5q-195 0 -195 -273q0 -276 195 -276z" />
    <glyph glyph-name="aring.ss02" 
d="M612 1186q-87 0 -150 62t-63 151t63 151t150 62q86 0 149.5 -62.5t63.5 -150.5t-63.5 -150.5t-149.5 -62.5zM612 1470q-29 0 -49 -19t-20 -52t20 -52.5t49 -19.5q28 0 49 20t21 52t-21 51.5t-49 19.5zM766 1065h336v-1065h-336v94q-15 -36 -78.5 -72t-175.5 -36
q-56 0 -115 17t-121.5 58.5t-111 101.5t-80 156t-31.5 213q0 114 31 208.5t79.5 155t111 102t122 59.5t115.5 18q50 0 91 -9t66.5 -21.5t46.5 -31t30.5 -31.5t19.5 -30v113zM584 256q93 0 144.5 67.5t51.5 208.5q0 136 -52 204.5t-144 68.5q-195 0 -195 -273
q0 -276 195 -276z" />
    <glyph glyph-name="atilde.ss02" 
d="M391 1313q-29 0 -54 -15t-24 -41h-127q0 123 67 203t196 80q55 0 112.5 -25.5t98.5 -55.5t96 -55.5t106 -25.5q30 0 54.5 15t23.5 41h127q0 -123 -66.5 -203t-195.5 -80q-55 0 -113 25.5t-98.5 55.5t-96 55.5t-106.5 25.5zM766 1065h336v-1065h-336v94q-15 -36 -78.5 -72
t-175.5 -36q-56 0 -115 17t-121.5 58.5t-111 101.5t-80 156t-31.5 213q0 114 31 208.5t79.5 155t111 102t122 59.5t115.5 18q50 0 91 -9t66.5 -21.5t46.5 -31t30.5 -31.5t19.5 -30v113zM584 256q93 0 144.5 67.5t51.5 208.5q0 136 -52 204.5t-144 68.5q-195 0 -195 -273
q0 -276 195 -276z" />
    <glyph glyph-name="g.ss03" horiz-adv-x="1177" 
d="M567 289q78 0 149 -10.5t142 -37t122.5 -67t83.5 -106.5t32 -150q0 -68 -22 -124.5t-61 -96t-89 -69t-110.5 -46.5t-120.5 -25t-124 -8q-94 0 -180 19t-164 59.5t-125 115.5t-47 175q0 177 205 264q-76 12 -137.5 57.5t-61.5 114.5q0 58 38 97t100 55q-66 87 -66 209
q0 165 116.5 263.5t305.5 98.5q176 0 293 -90q80 80 207 78v-242q-43 0 -88 -18q10 -48 10 -90q0 -165 -116 -262t-306 -97q-116 0 -211 39q-20 -13 -20 -39q0 -16 5.5 -28t19.5 -19t27 -11t38.5 -6t44 -2.5t53.5 -0.5h57zM553 844q-43 0 -72.5 -13t-42.5 -35t-17.5 -41
t-4.5 -40q0 -125 137 -125t137 125q0 129 -137 129zM575 -213q195 0 195 131q0 27 -7 48t-25.5 41.5t-60 32t-102.5 11.5q-63 0 -104.5 -11t-60 -32.5t-25 -41.5t-6.5 -48q0 -25 6.5 -44.5t25 -41t60.5 -33.5t104 -12z" />
    <glyph glyph-name="l.ss04" horiz-adv-x="610" 
d="M549 0q-115 -13 -199 -7t-138.5 40t-81 107t-26.5 196v1114h336v-1135q0 -36 24.5 -54t84.5 -17v-244z" />
    <glyph glyph-name="f_t" horiz-adv-x="1548" 
d="M1389 248q39 0 106 12v-240q-80 -32 -201 -32q-66 0 -116 8t-98 30t-78.5 58.5t-49 97t-18.5 142.5v481h-404v-805h-335v805h-154v260h154v25q0 75 13 134.5t33 98.5t52 67t61.5 42.5t70.5 22.5t69.5 9.5t68.5 1.5q42 0 90 -7t70 -15v-244q-36 8 -76 8q-69 0 -93 -29
t-24 -98v-16h404v266h336v-266h219v-260h-219v-445q0 -54 27.5 -83t91.5 -29z" />
    <glyph glyph-name="r_t" horiz-adv-x="1572" 
d="M1415 248q39 0 107 12v-240q-80 -32 -201 -32q-66 0 -116 8t-98 30t-78.5 58.5t-49 97t-18.5 142.5v481h-132q-98 0 -170 -20t-115.5 -58t-67.5 -82t-36 -102v-543h-336v1065h336v-242q30 103 132 171.5t210 70.5h179v266h335v-266h220v-260h-220v-445q0 -54 27.5 -83
t91.5 -29z" />
    <glyph glyph-name="zero.dnom" horiz-adv-x="589" 
d="M295 -4q100 0 161.5 70.5t61.5 187.5v27q0 117 -61.5 187.5t-161.5 70.5t-161.5 -70.5t-61.5 -187.5v-27q0 -117 61.5 -187.5t161.5 -70.5zM295 418q44 0 69 -38t25 -99v-27q0 -59 -25 -98t-69 -39t-69 39t-25 98v27q0 61 25 99t69 38z" />
    <glyph glyph-name="one.dnom" horiz-adv-x="413" 
d="M322 535v-535h-121v375q-13 -24 -47.5 -34t-71.5 -1v121q37 -6 72 18.5t47 55.5h121z" />
    <glyph glyph-name="two.dnom" horiz-adv-x="550" 
d="M82 0v14q0 46 4 75.5t18 63.5t44.5 63.5t78.5 57.5l26 13t25 13t19.5 12.5t17 16t9 19t4.5 25.5q0 27 -19 41t-41 14q-21 0 -40 -16.5t-19 -49.5v-16h-127v16q0 81 46 131t140 50q95 0 145 -49t50 -121q0 -22 -4.5 -41t-16 -36t-20 -28t-30.5 -26.5t-31.5 -22t-38 -23
t-37.5 -22.5q-33 -20 -45.5 -32.5t-12.5 -24.5v-6h232v-111h-377z" />
    <glyph glyph-name="three.dnom" horiz-adv-x="569" 
d="M375 285q39 0 75.5 -33t36.5 -100q0 -73 -53.5 -116.5t-152.5 -43.5q-92 0 -145.5 48.5t-53.5 125.5h125q3 -66 80 -66q33 0 54 17.5t21 52.5q0 66 -92 66h-22v88h22q23 0 38 6.5t20 19t6.5 19.5t1.5 18q0 20 -14.5 33.5t-40.5 13.5q-25 0 -43.5 -14.5t-18.5 -44.5h-119
q0 79 48 123.5t128 44.5q87 0 137 -41.5t50 -104.5q0 -47 -26 -75t-62 -37z" />
    <glyph glyph-name="four.dnom" horiz-adv-x="583" 
d="M502 135h-62v-135h-121v135h-237v98l237 302h121v-302h62v-98zM319 233v166l-131 -166h131z" />
    <glyph glyph-name="five.dnom" horiz-adv-x="536" 
d="M289 373q81 0 133.5 -51.5t52.5 -135.5q0 -94 -58 -145t-155 -51q-96 0 -148.5 48.5t-52.5 125.5h125q1 -31 25 -44.5t51 -13.5q16 0 30.5 4t30 23.5t15.5 52.5q0 49 -22.5 71t-53.5 22q-45 0 -69 -31h-117l41 287h299v-113h-207l-12 -76q34 27 92 27z" />
    <glyph glyph-name="six.dnom" horiz-adv-x="595" 
d="M332 358q180 0 180 -174q0 -97 -62.5 -145.5t-148.5 -48.5q-97 0 -158 72.5t-61 203.5q0 124 57.5 199.5t167.5 75.5q85 0 135 -45.5t52 -102.5h-117q-3 16 -21.5 28.5t-48.5 12.5q-39 0 -64 -23t-32.5 -52t-5.5 -60q9 21 48 40t79 19zM299 106q36 0 59 22t23 60t-24 59
t-60 21q-31 0 -56.5 -21t-25.5 -61q0 -45 26 -62.5t58 -17.5z" />
    <glyph glyph-name="seven.dnom" horiz-adv-x="477" 
d="M416 535v-113l-201 -422h-117l199 422h-256v113h375z" />
    <glyph glyph-name="eight.dnom" horiz-adv-x="491" 
d="M358 295q38 -21 60 -57.5t22 -73.5q0 -78 -54 -123t-140 -45q-84 0 -139.5 45.5t-55.5 122.5q0 37 23 74t59 57q-25 14 -38 43t-13 59q0 59 45.5 100.5t118.5 41.5q75 0 119.5 -41t44.5 -101q0 -31 -13 -59.5t-39 -42.5zM188 393q0 -22 16 -36.5t42 -14.5q24 0 38.5 14.5
t14.5 36.5q0 51 -53 51q-26 0 -42 -13.5t-16 -37.5zM246 90q36 0 56 20t20 52q0 35 -20 57.5t-56 22.5q-35 0 -56.5 -23t-21.5 -57q0 -30 21 -51t57 -21z" />
    <glyph glyph-name="nine.dnom" horiz-adv-x="595" 
d="M264 172q-182 0 -182 174q0 97 62.5 146t148.5 49q98 0 158.5 -72.5t60.5 -204.5q0 -124 -57.5 -199t-167.5 -75q-85 0 -135 45.5t-50 101.5h115q3 -16 21.5 -28.5t48.5 -12.5q58 0 82 42t20 93q-9 -21 -48 -40t-77 -19zM295 424q-35 0 -57.5 -22.5t-22.5 -59.5
q0 -38 23.5 -59t60.5 -21q30 0 55 21t25 61q0 45 -26 62.5t-58 17.5z" />
    <glyph glyph-name="zero.numr" horiz-adv-x="589" 
d="M295 897q100 0 161.5 70.5t61.5 187.5v27q0 117 -61.5 187.5t-161.5 70.5t-161.5 -70.5t-61.5 -187.5v-27q0 -117 61.5 -187.5t161.5 -70.5zM295 1319q44 0 69 -38t25 -99v-27q0 -59 -25 -98t-69 -39t-69 39t-25 98v27q0 61 25 99t69 38z" />
    <glyph glyph-name="one.numr" horiz-adv-x="423" 
d="M322 1436v-535h-121v375q-13 -24 -47.5 -34t-71.5 -1v121q37 -6 72 18.5t47 55.5h121z" />
    <glyph glyph-name="two.numr" horiz-adv-x="550" 
d="M82 901v14q0 46 4 76t18 64t44.5 63.5t78.5 57.5q7 4 30.5 15.5t30 16t19.5 15t17 23t4 28.5q0 27 -19 41t-41 14t-40.5 -16t-18.5 -49v-17h-127v17q0 81 46 130.5t140 49.5q95 0 145 -49t50 -121q0 -22 -4.5 -41t-16 -36t-20 -28t-30.5 -26.5t-31.5 -22t-38 -23
t-37.5 -22.5q-33 -20 -45.5 -32.5t-12.5 -24.5v-6h232v-111h-377z" />
    <glyph glyph-name="three.numr" horiz-adv-x="530" 
d="M346 1186q40 0 76.5 -33t36.5 -100q0 -72 -54 -116t-153 -44q-92 0 -145.5 48.5t-53.5 125.5h125q3 -66 80 -66q33 0 54.5 17.5t21.5 52.5q0 66 -92 66h-23v88h23q23 0 37.5 6.5t20 19t6.5 19.5t1 18q0 20 -14.5 33.5t-40.5 13.5q-25 0 -43.5 -14.5t-18.5 -44.5h-118
q0 79 48 123.5t128 44.5q87 0 136.5 -41t49.5 -105q0 -47 -26 -75t-62 -37z" />
    <glyph glyph-name="four.numr" horiz-adv-x="583" 
d="M502 1036h-62v-135h-121v135h-237v99l237 301h121v-301h62v-99zM319 1135v165l-131 -165h131z" />
    <glyph glyph-name="five.numr" horiz-adv-x="536" 
d="M289 1274q81 0 133.5 -51.5t52.5 -135.5q0 -94 -58 -145t-155 -51q-96 0 -148.5 48.5t-52.5 125.5h125q1 -31 25 -44t51 -13q11 0 22 2.5t24.5 9.5t21.5 24.5t8 42.5q0 49 -22.5 71t-53.5 22q-45 0 -69 -31h-117l41 287h299v-113h-207l-12 -76q34 27 92 27z" />
    <glyph glyph-name="six.numr" horiz-adv-x="595" 
d="M332 1257q180 0 180 -174q0 -97 -62.5 -145.5t-148.5 -48.5q-97 0 -158 72.5t-61 203.5q0 124 57.5 199.5t167.5 75.5q85 0 135 -45.5t52 -102.5h-117q-3 16 -21.5 28.5t-48.5 12.5q-39 0 -64 -23t-32.5 -52t-5.5 -60q9 21 48 40t79 19zM299 1006q36 0 59 22t23 59
q0 38 -24 59t-60 21q-31 0 -56.5 -21t-25.5 -61q0 -45 26 -62t58 -17z" />
    <glyph glyph-name="seven.numr" horiz-adv-x="477" 
d="M416 1436v-113l-201 -422h-117l199 422h-256v113h375z" />
    <glyph glyph-name="eight.numr" horiz-adv-x="491" 
d="M358 1196q38 -21 60 -57.5t22 -73.5q0 -78 -54 -123t-140 -45q-84 0 -139.5 45.5t-55.5 122.5q0 37 23 74t59 57q-25 14 -38 43t-13 59q0 59 45.5 100.5t118.5 41.5q75 0 119.5 -41t44.5 -101q0 -31 -13 -59.5t-39 -42.5zM188 1294q0 -22 16 -36.5t42 -14.5
q24 0 38.5 14.5t14.5 36.5q0 52 -53 52q-25 0 -41.5 -14t-16.5 -38zM246 991q36 0 56 20t20 52q0 35 -20 57.5t-56 22.5q-35 0 -56.5 -23t-21.5 -57q0 -30 21 -51t57 -21z" />
    <glyph glyph-name="nine.numr" horiz-adv-x="595" 
d="M264 1073q-182 0 -182 174q0 97 62.5 146t148.5 49q98 0 158.5 -72.5t60.5 -204.5q0 -124 -57.5 -199t-167.5 -75q-85 0 -135 45.5t-50 101.5h115q3 -16 21.5 -28.5t48.5 -12.5q58 0 82 42.5t20 93.5q-9 -21 -48 -40.5t-77 -19.5zM295 1325q-35 0 -57.5 -22.5
t-22.5 -59.5q0 -38 23.5 -59t60.5 -21q30 0 55 21t25 61q0 45 -26 62.5t-58 17.5z" />
    <glyph glyph-name="ampersand.001" horiz-adv-x="1509" 
d="M1456 0h-366l-78 84q-164 -109 -377 -109q-108 0 -206 27.5t-178.5 80t-128.5 139.5t-48 196q0 62 20.5 116t48.5 89t73 68t76.5 50t76.5 37q-71 91 -105.5 167.5t-34.5 156.5q0 72 23 134.5t70 114t130 81.5t193 30q107 0 188.5 -30t129 -81.5t71 -115t23.5 -135.5
q0 -121 -71 -215t-200 -156l-8 -4l209 -223q57 118 60 256h303q-26 -291 -150 -484zM645 1217q-67 0 -102 -38t-35 -89q0 -41 21 -77.5t87 -111.5q160 89 160 184q0 56 -32.5 94t-98.5 38zM639 262q85 0 164 43l-268 287q-99 -68 -99 -166q0 -70 56 -117t147 -47z" />
    <glyph glyph-name="Aacutecy" horiz-adv-x="1501" 
d="M1118 1821l-244 -262h-282l160 262h366zM1079 0l-80 240h-499l-78 -240h-379l549 1434h315l551 -1434h-379zM586 498h329l-165 503z" />
    <glyph glyph-name="Ieacutecy" horiz-adv-x="1212" 
d="M1001 1821l-243 -262h-283l160 262h366zM455 303h696v-303h-1047v1434h1026v-304h-675v-266h573v-280h-573v-281z" />
    <glyph glyph-name="Iiacutecy" horiz-adv-x="1441" 
d="M565 1559h283l244 262h-367zM102 1434h353v-869h8l522 869h352v-1434h-350v844h-8l-510 -844h-367v1434z" />
    <glyph glyph-name="Oacutecy" horiz-adv-x="1527" 
d="M606 1559h283l244 262h-367zM764 1452q317 0 503.5 -196.5t186.5 -538.5q0 -340 -187 -537.5t-503 -197.5q-317 0 -503.5 197.5t-186.5 537.5q0 343 186 539t504 196zM764 285q155 0 238 117t83 315q0 201 -83 316.5t-238 115.5t-238.5 -116t-83.5 -316q0 -198 83.5 -315
t238.5 -117z" />
    <glyph glyph-name="Uacutecy" horiz-adv-x="1265" 
d="M475 1559h283l243 262h-366zM836 1434h389l-451 -1041q-60 -137 -113.5 -219.5t-122.5 -136.5t-153 -70t-203 -4v309q37 -4 68.5 -4.5t55 4t41 8.5t31 14.5t21.5 16.5t16 19.5t10.5 18t8.5 18.5q30 73 -33 221l-358 846h387l199 -570z" />
    <glyph glyph-name="Yeruacutecy" horiz-adv-x="1859" 
d="M772 1559l160 262h366l-243 -262h-283zM694 967q285 0 424 -129t139 -355t-139 -354.5t-424 -128.5h-590v1434h351v-467h239zM1405 1434h350v-1434h-350v1434zM690 297q95 0 144 48.5t49 137.5t-49 138t-144 49h-235v-373h235z" />
    <glyph glyph-name="Ereversedacutecy" horiz-adv-x="1421" 
d="M1081 1821l-243 -262h-283l160 262h366zM680 1452q150 0 273 -49t210.5 -141.5t136 -231.5t48.5 -313t-48.5 -313t-136 -231.5t-210.5 -141.5t-273 -49q-116 0 -219 31t-187 91.5t-137 158.5t-63 222h346q40 -110 94 -155t158 -45q123 0 198 79t99 220h-357v280h355
q-25 135 -100 210t-195 75q-102 0 -155 -45t-93 -152h-348q11 123 64.5 220t136.5 157.5t185.5 91.5t217.5 31z" />
    <glyph glyph-name="Iuacutecy" horiz-adv-x="2078" 
d="M1411 1821l-244 -262h-282l159 262h367zM1317 1452q317 0 503.5 -196.5t186.5 -538.5q0 -340 -187 -537.5t-503 -197.5q-283 0 -463.5 158t-218.5 438h-180v-578h-351v1434h351v-572h182q38 278 218 434t462 156zM1317 285q155 0 238 117t83 315q0 201 -83 316.5
t-238 115.5t-238.5 -116t-83.5 -316q0 -198 83.5 -315t238.5 -117z" />
    <glyph glyph-name="Iaacutecy" horiz-adv-x="1394" 
d="M1065 1821l-244 -262h-282l159 262h367zM1290 1434v-1434h-350v502h-313q-86 0 -134.5 -48t-48.5 -122v-92q0 -92 -8 -141.5t-33 -98.5h-350q24 50 32.5 100.5t8.5 139.5v104q0 107 46 181t159 134q-40 30 -67.5 56t-58 67t-46.5 94.5t-16 118.5q0 93 31.5 171t95.5 139
t171 95t248 34h633zM940 778v350h-274q-92 0 -142.5 -40.5t-50.5 -122.5q0 -98 44.5 -142.5t160.5 -44.5h262z" />
    <glyph glyph-name="aacutecy" horiz-adv-x="1161" 
d="M954 1452l-243 -262h-283l160 262h366zM1053 301q0 -46 20 -71t55 -27v-191q-43 -20 -118 -20q-111 0 -183.5 45.5t-72.5 128.5v-10l-8 -12q-7 -11 -14.5 -21.5t-23.5 -27t-33.5 -30.5t-44.5 -29t-56.5 -25.5t-70 -17.5t-85.5 -7q-72 0 -135 18.5t-116 56t-83.5 103.5
t-30.5 153q0 70 24.5 123t53.5 82.5t91 53.5t95.5 32t108.5 22q6 1 9 2t7.5 1.5t8.5 1.5q29 6 80 15t77.5 14t58 14.5t50.5 21.5q-2 131 -144 131q-131 0 -147 -110h-315q27 354 464 354q259 0 368.5 -108t109.5 -349v-317zM717 334v172q-28 -14 -56.5 -24t-47.5 -15
t-52.5 -13t-56.5 -14q-62 -17 -88.5 -42.5t-26.5 -67.5q0 -43 30 -75t93 -32q54 0 101 22.5t69 44.5t35 44z" />
    <glyph glyph-name="ieacutecy" horiz-adv-x="1155" 
d="M952 1452l-243 -262h-283l160 262h366zM1104 483q0 -37 -2 -53h-725q15 -104 69.5 -150.5t155.5 -46.5q150 0 184 91h289q-80 -338 -493 -338q-74 0 -146 17.5t-142 58.5t-123 101.5t-85.5 154t-32.5 208.5q0 116 32 210.5t85 156.5t123.5 104t144 60t150.5 18
q83 0 156 -18.5t140 -62.5t115 -110.5t76.5 -169t28.5 -231.5zM379 633h403q-3 89 -52 141.5t-142 52.5q-174 0 -209 -194z" />
    <glyph glyph-name="iiacutecy" horiz-adv-x="1271" 
d="M479 1190h283l244 262h-367zM104 1065h336v-590h6l385 590h338v-1065h-335v567h-9l-370 -567h-351v1065z" />
    <glyph glyph-name="oacutecy" horiz-adv-x="1179" 
d="M432 1190h283l243 262h-366zM590 1075q70 0 141 -17.5t143.5 -59.5t128 -103t90.5 -156t35 -211q0 -114 -35 -208t-90.5 -154.5t-128 -102.5t-143.5 -59.5t-141 -17.5t-141 17.5t-143 59.5t-127.5 102.5t-90.5 154.5t-35 208q0 116 35 211t90.5 156t127.5 103t143 59.5
t141 17.5zM805 528q0 142 -60.5 210.5t-154.5 68.5t-154.5 -68.5t-60.5 -210.5q0 -135 61 -204.5t154 -69.5t154 69.5t61 204.5z" />
    <glyph glyph-name="uacutecy" horiz-adv-x="1204" 
d="M444 1190h283l244 262h-367zM834 1065h340l-431 -1040q-55 -136 -108.5 -220.5t-123 -137.5t-155 -69t-204.5 -4v283q33 -6 62.5 -3t51.5 3.5t42.5 9.5t33.5 14t26.5 17.5t21 19.5t16 21t12.5 22t10 21q9 18 8.5 38t-6 38t-20.5 59l-377 928h346l219 -635z" />
    <glyph glyph-name="yeruacutecy" horiz-adv-x="1720" 
d="M702 1190l160 262h367l-244 -262h-283zM705 719q202 0 323 -99.5t121 -261.5q0 -165 -120.5 -261.5t-323.5 -96.5h-601v1065h336v-346h265zM1282 1065h336v-1065h-336v1065zM700 260q59 0 90 26t31 72q0 47 -31 73t-90 26h-260v-197h260z" />
    <glyph glyph-name="ereversedacutecy" horiz-adv-x="1116" 
d="M926 1452l-244 -262h-283l160 262h367zM537 1075q76 0 148 -17.5t141.5 -59t121.5 -102.5t83.5 -155.5t31.5 -210.5q0 -118 -32 -213t-84 -155.5t-122 -101t-142 -57.5t-148 -17q-60 0 -116.5 10t-118 38t-110 72t-86 118.5t-51.5 170.5h303q16 -66 54 -102.5t120 -36.5
q163 0 201 176h-266v203h264q-39 170 -197 170q-80 0 -115.5 -34t-47.5 -95h-306q15 95 51.5 167.5t82.5 115.5t105.5 70t115.5 36.5t119 9.5z" />
    <glyph glyph-name="iuacutecy" horiz-adv-x="1685" 
d="M1212 1452l-243 -262h-283l160 262h366zM1096 1075q70 0 141 -17.5t143.5 -59.5t128 -103t90.5 -156t35 -211q0 -114 -35 -208t-90.5 -154.5t-128 -102.5t-143.5 -59.5t-141 -17.5q-78 0 -157.5 23.5t-155.5 70.5t-133.5 130t-78.5 191h-131v-403h-336v1065h336v-399h131
q23 108 80.5 190.5t133.5 128.5t154.5 69t156.5 23zM1096 254q93 0 154 69.5t61 204.5q0 142 -60.5 210.5t-154.5 68.5t-154.5 -68.5t-60.5 -210.5q0 -135 61 -204.5t154 -69.5z" />
    <glyph glyph-name="iaacutecy" horiz-adv-x="1232" 
d="M985 1452l-244 -262h-282l159 262h367zM1128 1065v-1065h-335v346h-265q-100 0 -100 -100v-84q0 -65 -6 -93.5t-25 -68.5h-336q19 40 25 68.5t6 93.5v84q0 69 24.5 117.5t90.5 78.5q-123 99 -123 265q0 165 120.5 261.5t323.5 96.5h600zM793 608v197h-261
q-59 0 -89.5 -25.5t-30.5 -72.5t30.5 -73t89.5 -26h261z" />
    </font>
</defs>
</svg>
