<?xml version="1.0" standalone="no"?>
<!DOCTYPE svg PUBLIC "-//W3C//DTD SVG 1.1//EN" "http://www.w3.org/Graphics/SVG/1.1/DTD/svg11.dtd" >
<svg xmlns="http://www.w3.org/2000/svg" xmlns:xlink="http://www.w3.org/1999/xlink" version="1.1">
<metadata>
Created by FontForge 20170731 at Mon Aug  7 16:11:15 2023
 By Aleksey,,,
(c) 2017 Connary Fagen
</metadata>
<defs>
<font id="ArticulatCF-ExtraBoldOblique" horiz-adv-x="1196" >
  <font-face 
    font-family="Articulat CF Extra Bold"
    font-weight="800"
    font-style="oblique"
    font-stretch="normal"
    units-per-em="2048"
    panose-1="0 0 9 0 0 0 0 0 0 0"
    ascent="1638"
    descent="-410"
    x-height="1065"
    cap-height="1434"
    bbox="-571 -831 2261 1980"
    underline-thickness="102"
    underline-position="-307"
    slope="-9"
    unicode-range="U+0020-FB02"
  />
<missing-glyph horiz-adv-x="1044" 
d="M856 1638v-2089h-661v2089h661zM696 1499h-346v-69h137v-78h-139v-68h348v68h-139v78h139v69zM557 1229h-209v-217h348v71h-139v146zM487 1157v-74h-69v74h69zM696 954h-348v-67h139v-78h-139v-70h209v148h139v67zM696 829h-69v-137h-279v-71h348v208zM696 575h-209v-116
h70v47h70v-98h-209v167h-70v-235h348v235zM696 213h-348v-236h348v236zM627 145v-98h-209v98h209zM696 -70h-348v-69h148l-148 -99v-69h348v69h-213l146 99h67v69z" />
    <glyph glyph-name="fi" unicode="fi" horiz-adv-x="1325" 
d="M598 1081l-2 -16h184l-39 -260h-186l-127 -805h-336l129 805h-176l39 260h178l4 29q11 72 33 130t48.5 96.5t63 66t69.5 42.5t77.5 24t78 11t77.5 2q85 0 135 -12l-41 -252q-40 6 -76 6q-65 0 -94 -31t-39 -96zM1028 1452h338l-39 -248h-338zM801 0l168 1065h338
l-168 -1065h-338z" />
    <glyph glyph-name="fl" unicode="fl" horiz-adv-x="1361" 
d="M731 1208q-65 0 -94 -31t-39 -96l-2 -16h184l-39 -260h-186l-127 -805h-336l129 805h-176l39 260h178l4 29q11 72 33 130t48.5 96.5t63 66t69.5 42.5t77.5 24t78 11t77.5 2q85 0 135 -12l-41 -252q-40 6 -76 6zM1042 1434h338l-225 -1434h-338z" />
    <glyph glyph-name=".notdef" horiz-adv-x="1044" 
d="M856 1638v-2089h-661v2089h661zM696 1499h-346v-69h137v-78h-139v-68h348v68h-139v78h139v69zM557 1229h-209v-217h348v71h-139v146zM487 1157v-74h-69v74h69zM696 954h-348v-67h139v-78h-139v-70h209v148h139v67zM696 829h-69v-137h-279v-71h348v208zM696 575h-209v-116
h70v47h70v-98h-209v167h-70v-235h348v235zM696 213h-348v-236h348v236zM627 145v-98h-209v98h209zM696 -70h-348v-69h148l-148 -99v-69h348v69h-213l146 99h67v69z" />
    <glyph glyph-name=".null" horiz-adv-x="0" 
 />
    <glyph glyph-name="nonmarkingreturn" horiz-adv-x="682" 
 />
    <glyph glyph-name="space" unicode=" " horiz-adv-x="544" 
 />
    <glyph glyph-name="exclam" unicode="!" horiz-adv-x="616" 
d="M461 485h-359l138 949h378zM78 373h368l-57 -373h-369z" />
    <glyph glyph-name="quotedbl" unicode="&#x22;" horiz-adv-x="1028" 
d="M162 1016h336l63 418h-336zM688 1016h336l63 418h-335z" />
    <glyph glyph-name="numbersign" unicode="#" horiz-adv-x="1226" 
d="M1171 831h-186l-57 -229h151l-43 -262h-176l-88 -340h-252l88 340h-162l-88 -340h-254l89 340h-160l43 262h184l57 229h-149l43 263h174l88 340h254l-88 -340h162l88 340h252l-88 -340h161zM676 602l57 229h-162l-57 -229h162z" />
    <glyph glyph-name="dollar" unicode="$" horiz-adv-x="1380" 
d="M1319 997h-363q6 114 -86 150l-45 -293l45 -8q212 -40 307 -126t95 -247q0 -151 -75.5 -260t-205.5 -165t-305 -64l-27 -168h-174l27 172q-142 18 -246 78.5t-159 168t-41 248.5h364q3 -161 129 -202l51 319l-53 8q-82 16 -147.5 44.5t-118.5 72.5t-82 109t-29 147
q0 144 75 249.5t200.5 159t289.5 60.5l27 168h174l-26 -174q205 -25 311 -138t88 -309zM549 1010q0 -38 24 -72.5t82 -50.5l43 270q-69 -11 -109 -48t-40 -99zM895 440q0 94 -117 127l-45 -293q80 13 121 56.5t41 109.5z" />
    <glyph glyph-name="percent" unicode="%" horiz-adv-x="1509" 
d="M418 748q-124 0 -196 70t-72 210q0 179 92 297.5t252 118.5q121 0 191.5 -69.5t70.5 -209.5q0 -180 -89.5 -298.5t-248.5 -118.5zM106 0l1074 1440l245 -6l-1065 -1434h-254zM432 961q41 0 66.5 32.5t33 70.5t7.5 81q0 88 -64 88q-56 0 -83 -55.5t-27 -126.5
q0 -90 67 -90zM1044 -10q-122 0 -195 70.5t-73 209.5q0 179 92 297.5t252 118.5q122 0 192 -69t70 -209q0 -117 -38 -210.5t-116 -150.5t-184 -57zM1061 203q31 0 53 18t32.5 47t15.5 58.5t5 60.5q0 86 -63 86q-39 0 -65.5 -29.5t-36 -68.5t-9.5 -84q0 -88 68 -88z" />
    <glyph glyph-name="ampersand" unicode="&#x26;" horiz-adv-x="1505" 
d="M1352 758q-56 -303 -219 -496l206 -262h-364l-60 78q-181 -103 -393 -103q-100 0 -189.5 24t-160.5 70.5t-112.5 121.5t-41.5 169q0 67 21 126t53.5 102t83 83t98 67.5t109.5 56.5q-49 73 -73.5 137t-24.5 139q0 57 16 111.5t52.5 105.5t88.5 89.5t130.5 61.5t172.5 23
q98 0 172 -25.5t117.5 -70.5t64.5 -101.5t21 -123.5q0 -80 -26 -147.5t-74.5 -119t-107 -89.5t-134.5 -72l176 -224q86 128 97 269h301zM721 1212q-71 0 -117.5 -40t-46.5 -103q0 -35 15 -69.5t53 -88.5q109 47 164 94.5t55 112.5q0 42 -29.5 68t-93.5 26zM569 258
q87 0 179 47l-216 285q-149 -78 -149 -197q0 -58 48.5 -96.5t137.5 -38.5z" />
    <glyph glyph-name="quotesingle" unicode="'" horiz-adv-x="501" 
d="M162 1016h336l63 418h-336z" />
    <glyph glyph-name="parenleft" unicode="(" horiz-adv-x="710" 
d="M434 1526h332q-134 -195 -220.5 -410.5t-129.5 -482.5q-82 -528 63 -899h-321q-78 204 -96.5 428.5t24.5 515.5q83 507 348 848z" />
    <glyph glyph-name="parenright" unicode=")" horiz-adv-x="708" 
d="M539 1526q82 -193 103 -403.5t-21 -489.5q-81 -522 -357 -899h-330q277 423 357 944q79 486 -68 848h316z" />
    <glyph glyph-name="asterisk" unicode="*" horiz-adv-x="1122" 
d="M1030 1102l-192 -51l108 -174l-258 -146l-94 166l-141 -166l-222 146l156 176l-174 49l109 276l204 -63l31 227h266l-39 -225l222 61z" />
    <glyph glyph-name="plus" unicode="+" horiz-adv-x="1187" 
d="M1157 723l-45 -289h-381l-61 -379h-308l60 379h-377l47 289h377l59 375h310l-60 -375h379z" />
    <glyph glyph-name="comma" unicode="," horiz-adv-x="544" 
d="M-35 -354l17 100q70 13 111.5 65t53.5 123l13 66h-137l57 375h358l-53 -340q-15 -103 -48.5 -177t-72.5 -114t-94 -63t-100 -29t-105 -6z" />
    <glyph glyph-name="hyphen" unicode="-" horiz-adv-x="937" 
d="M88 680h754l-41 -234h-754z" />
    <glyph glyph-name="period" unicode="." horiz-adv-x="555" 
d="M78 373h368l-57 -373h-369z" />
    <glyph glyph-name="slash" unicode="/" horiz-adv-x="1056" 
d="M1098 1434l-785 -1430h-346l785 1430h346z" />
    <glyph glyph-name="zero" unicode="0" horiz-adv-x="1300" 
d="M758 1448q78 0 149 -18t137 -60t113.5 -104.5t76 -158t28.5 -214.5q0 -138 -29 -269t-88 -246.5t-141.5 -203t-197 -138t-247.5 -50.5q-76 0 -145.5 17t-135.5 57.5t-113.5 101.5t-76.5 155.5t-29 212.5q0 140 28 272.5t86 250t140 205.5t196.5 139t248.5 51zM926 899
q0 262 -189 262q-86 0 -153.5 -54.5t-108 -145t-61.5 -198.5t-21 -224q0 -267 187 -267q87 0 155.5 55t109 147t61 200.5t20.5 224.5z" />
    <glyph glyph-name="one" unicode="1" horiz-adv-x="860" 
d="M868 1434l-225 -1434h-336l168 1018q-72 -61 -154 -77.5t-194 -12.5l39 272q129 14 218 69t146 165h338z" />
    <glyph glyph-name="two" unicode="2" horiz-adv-x="1185" 
d="M-8 0l4 39q10 85 21.5 144t33.5 126t55 117.5t83.5 103.5t123 101t168.5 94q147 67 189 91q133 78 152 183q3 19 3 39q0 45 -25 73.5t-56 38t-66 9.5q-32 0 -61 -7.5t-61.5 -26t-56.5 -60t-34 -100.5h-324q30 225 173.5 354t394.5 129q116 0 205 -29.5t143.5 -82.5
t82 -121t27.5 -150q0 -50 -8 -94t-20 -80t-34.5 -70t-43.5 -59.5t-55.5 -53.5t-62 -47t-71.5 -44.5t-75.5 -42.5t-82 -44t-83.5 -45q-57 -30 -94.5 -52.5t-73 -50.5t-49 -56t-4.5 -56l2 -4h630l-43 -266h-1007z" />
    <glyph glyph-name="three" unicode="3" horiz-adv-x="1261" 
d="M915 756q31 -2 70.5 -19.5t80.5 -51t69 -93.5t28 -135q0 -146 -83 -257t-221.5 -168t-309.5 -57q-169 0 -291.5 68t-173.5 184.5t-21 257.5h304q-13 -100 44.5 -161.5t163.5 -61.5q102 0 180.5 57t78.5 152q0 68 -54 113t-186 45h-84l35 219h67q72 0 125 19t78 43.5
t40 56.5t17 47.5t2 27.5q0 61 -45 92t-110 31q-78 0 -145 -45.5t-87 -148.5h-309q37 232 182.5 356.5t378.5 124.5q210 0 336.5 -102.5t126.5 -255.5q0 -129 -87 -222.5t-200 -115.5z" />
    <glyph glyph-name="four" unicode="4" horiz-adv-x="1261" 
d="M1122 324h-164l-47 -324h-336l48 324h-609l47 266l738 844h338l-129 -844h163zM672 590l65 436l-391 -436h326z" />
    <glyph glyph-name="five" unicode="5" horiz-adv-x="1249" 
d="M721 997q194 0 314 -112t120 -307q0 -272 -174.5 -435t-458.5 -163q-146 0 -259 56t-172.5 168t-39.5 261h307q-14 -79 37 -139t148 -60q117 0 197.5 81.5t80.5 209.5q0 43 -15.5 76t-36.5 50t-48 27t-44.5 12.5t-31.5 2.5q-145 0 -229 -98h-307l237 807h819l-47 -275
h-586l-75 -258q-1 -1 3 3q102 93 261 93z" />
    <glyph glyph-name="six" unicode="6" horiz-adv-x="1257" 
d="M737 930q47 0 97 -8.5t110.5 -34.5t107 -66.5t78 -111.5t31.5 -162q0 -161 -77.5 -290.5t-215 -203t-309.5 -73.5q-120 0 -210.5 36.5t-145 103t-85.5 159.5t-31.5 207t17.5 245q56 342 225 529.5t433 187.5q105 0 187.5 -27t132.5 -69.5t81 -97.5t41 -107.5t6 -102.5
h-286q0 39 -13.5 69t-32 45.5t-43 25t-41.5 12t-32 2.5q-44 0 -82.5 -11t-66.5 -26.5t-54 -43t-42 -49t-31.5 -57.5t-23 -54t-16 -54t-10 -43t-6.5 -33q3 5 16.5 15.5t41 26t61.5 29t84.5 23t103.5 9.5zM588 256q108 0 177 79t69 189q0 88 -54 131t-116 43
q-108 0 -182 -73.5t-74 -188.5q0 -44 14 -77.5t34.5 -52.5t46.5 -31t46.5 -15.5t38.5 -3.5z" />
    <glyph glyph-name="seven" unicode="7" horiz-adv-x="1073" 
d="M1108 1434l-41 -287q-471 -572 -633 -1147h-348q197 654 659 1155h-604l43 279h924z" />
    <glyph glyph-name="eight" unicode="8" horiz-adv-x="1288" 
d="M975 805q92 -39 146.5 -117t54.5 -178q0 -157 -85 -279t-226 -186.5t-310 -64.5q-140 0 -254 45.5t-185 141t-71 226.5q0 145 78.5 256t224.5 174q-96 88 -96 219q0 94 42 172.5t112 128.5t156.5 77.5t178.5 27.5q197 0 308.5 -92t111.5 -240q0 -200 -186 -311zM721 1188
q-74 0 -125 -45t-51 -123q0 -46 33.5 -83.5t101.5 -37.5q77 0 128.5 51t51.5 123q0 55 -36.5 85t-102.5 30zM573 270q121 0 191 77.5t70 182.5q0 82 -55.5 123t-133.5 41q-105 0 -179.5 -72.5t-74.5 -177.5q0 -31 9.5 -60t29 -55.5t56.5 -42.5t87 -16z" />
    <glyph glyph-name="nine" unicode="9" horiz-adv-x="1257" 
d="M557 498q-47 0 -97 8.5t-110.5 34.5t-107 66.5t-78 111.5t-31.5 162q0 161 77.5 290.5t215 203t309.5 73.5q120 0 210.5 -36.5t145 -103t85.5 -160t31.5 -207.5t-17.5 -245q-56 -342 -225 -529t-433 -187q-105 0 -187.5 27t-132.5 69t-81 97t-41 107.5t-6 102.5h287
q0 -39 13.5 -69t32 -45.5t42.5 -25t41 -12t32 -2.5q44 0 82.5 11t66.5 26.5t54 43t42 49t31.5 57.5t23 54t16 54t10 43t6.5 33q-3 -5 -16.5 -15.5t-41 -25.5t-61.5 -28.5t-84.5 -23t-103.5 -9.5zM707 1171q-108 0 -177 -79t-69 -189q0 -88 54 -131t116 -43q108 0 182 73.5
t74 188.5q0 44 -14 77.5t-34.5 52.5t-46.5 31t-46.5 15.5t-38.5 3.5z" />
    <glyph glyph-name="colon" unicode=":" horiz-adv-x="555" 
d="M188 1065h369l-59 -373h-369zM78 373h368l-57 -373h-369z" />
    <glyph glyph-name="semicolon" unicode=";" horiz-adv-x="544" 
d="M188 1065h369l-59 -373h-369zM-35 -354l17 100q70 13 111.5 65t53.5 123l13 66h-137l57 375h358l-53 -340q-15 -103 -48.5 -177t-72.5 -114t-94 -63t-100 -29t-105 -6z" />
    <glyph glyph-name="less" unicode="&#x3c;" horiz-adv-x="1019" 
d="M881 309l-519 187l576 184l51 309l-911 -352l-43 -283l799 -354z" />
    <glyph glyph-name="equal" unicode="=" horiz-adv-x="937" 
d="M111 844h813l-37 -234h-813zM61 516h813l-36 -233h-813z" />
    <glyph glyph-name="greater" unicode="&#x3e;" horiz-adv-x="1021" 
d="M29 309l-47 -309l909 354l43 283l-797 352l-51 -309l522 -184z" />
    <glyph glyph-name="question" unicode="?" horiz-adv-x="1169" 
d="M707 1448q-252 0 -398.5 -118.5t-183.5 -385.5h328q9 40 17 67t24 58t37 49.5t54 30.5t77 12q39 0 65.5 -10.5t39.5 -25t18.5 -35.5t5 -37.5t-4.5 -34.5q-5 -30 -27 -56.5t-53 -48.5t-67.5 -46t-74.5 -56t-71 -71t-58.5 -98.5t-35.5 -131.5l-4 -25h363l4 25
q9 58 31.5 103.5t52 75.5t63.5 55.5t68.5 52.5t64.5 59t53 81.5t33 113.5q29 191 -86 294t-335 103zM379 373h369l-58 -373h-368z" />
    <glyph glyph-name="at" unicode="@" horiz-adv-x="1540" 
d="M936 1032h217q-59 -379 -59 -389q0 -63 45 -63t77 38t46 96t14 128q0 172 -109 278.5t-297 106.5q-171 0 -306 -81t-207 -216t-72 -297q0 -184 120 -305t300 -121q177 0 301 100l262 -78q-204 -243 -557 -243q-184 0 -331 81t-230.5 228t-83.5 334q0 167 62 318t168 261
t256 175t318 65q175 0 317.5 -76.5t225 -218t82.5 -322.5q0 -126 -41 -231.5t-122 -171.5t-187 -66q-41 0 -74 8t-53 17t-39 28.5t-25.5 29t-19 33t-14.5 26.5q-11 -35 -77.5 -89.5t-156.5 -54.5q-48 0 -93.5 17.5t-84.5 51t-62.5 89.5t-23.5 127q0 166 100 285t246 119
q101 0 160 -80zM727 578q68 0 103.5 47t35.5 110q0 15 -3 29t-11 30t-26.5 25.5t-45.5 9.5q-56 0 -96.5 -44t-40.5 -113q0 -18 5 -37t25.5 -38t53.5 -19z" />
    <glyph glyph-name="A" unicode="A" horiz-adv-x="1519" 
d="M993 0l-41 240h-503l-117 -240h-375l764 1434h330l323 -1434h-381zM575 498h332l-86 503z" />
    <glyph glyph-name="B" unicode="B" horiz-adv-x="1380" 
d="M1071 782q96 -32 153.5 -118.5t57.5 -196.5q0 -150 -82.5 -257t-220.5 -158.5t-317 -51.5h-644l228 1434h600q214 0 327 -88t113 -242q0 -110 -58.5 -195t-156.5 -127zM743 883q77 0 123.5 43t46.5 123q0 51 -31 73.5t-73 22.5h-256l-43 -262h233zM674 289q111 0 173 48
t62 148q0 57 -33 95t-114 38h-293l-53 -329h258z" />
    <glyph glyph-name="C" unicode="C" horiz-adv-x="1396" 
d="M682 285q108 0 173.5 46.5t111.5 153.5h338q-40 -165 -146 -281t-242 -169t-292 -53q-264 0 -415 147.5t-151 421.5q0 146 34.5 280.5t103 247t163.5 196t223.5 130.5t276.5 47q115 0 212 -31t169 -91.5t108.5 -157.5t26.5 -220h-342q-12 102 -65.5 149.5t-149.5 47.5
q-95 0 -171.5 -51.5t-122.5 -134t-70.5 -179t-24.5 -194.5q0 -148 62.5 -226.5t189.5 -78.5z" />
    <glyph glyph-name="D" unicode="D" horiz-adv-x="1429" 
d="M811 1434q281 0 431.5 -148.5t150.5 -437.5q0 -254 -90 -444t-269.5 -297t-429.5 -107h-584l226 1434h565zM606 319q113 0 199.5 42t138 115.5t77.5 166.5t26 203q0 147 -69.5 207.5t-227.5 60.5h-199l-127 -795h182z" />
    <glyph glyph-name="E" unicode="E" horiz-adv-x="1220" 
d="M1225 1130h-676l-43 -266h573l-45 -280h-573l-41 -281h694l-47 -303h-1049l228 1434h1028z" />
    <glyph glyph-name="F" unicode="F" horiz-adv-x="1150" 
d="M1174 1130h-625l-43 -284h522l-45 -281h-522l-90 -565h-353l228 1434h977z" />
    <glyph glyph-name="G" unicode="G" horiz-adv-x="1437" 
d="M807 801h588l-17 -101q-29 -179 -83.5 -310t-142 -223.5t-214 -138.5t-293.5 -46q-277 0 -431.5 145.5t-154.5 415.5q0 147 35 283t103.5 249.5t164 198t223.5 131.5t275 47q115 0 212 -31t169 -91.5t108.5 -157.5t26.5 -220h-342q-12 102 -65.5 149.5t-149.5 47.5
q-92 0 -168 -51t-123 -134t-72.5 -182t-25.5 -200q0 -142 64.5 -219.5t197.5 -77.5q141 0 225.5 54.5t122.5 186.5h-280z" />
    <glyph glyph-name="H" unicode="H" horiz-adv-x="1431" 
d="M1092 1434h350l-228 -1434h-350l92 578h-493l-92 -578h-353l228 1434h352l-90 -572h493z" />
    <glyph glyph-name="I" unicode="I" horiz-adv-x="589" 
d="M373 0h-353l226 1434h352z" />
    <glyph glyph-name="J" unicode="J" horiz-adv-x="1132" 
d="M193 397q21 -22 34.5 -34t43 -32t67.5 -30t84 -10q41 0 72 8t63 29.5t54.5 67.5t33.5 114l146 924h352l-150 -942q-20 -131 -73 -229.5t-131 -158t-171.5 -89t-203.5 -29.5q-296 0 -439 194z" />
    <glyph glyph-name="K" unicode="K" horiz-adv-x="1488" 
d="M1526 1434l-641 -641l469 -793h-385l-318 555v4l-229 -231l-51 -328h-353l228 1434h352l-102 -643l634 643h396z" />
    <glyph glyph-name="L" unicode="L" 
d="M418 303h631l-48 -303h-983l228 1434h352z" />
    <glyph glyph-name="M" unicode="M" horiz-adv-x="1777" 
d="M246 1434h409l207 -965l490 965h436l-227 -1434h-351l133 850h-12l-403 -850h-252l-160 850h-12l-133 -850h-353z" />
    <glyph glyph-name="N" unicode="N" horiz-adv-x="1470" 
d="M1481 1434l-228 -1434h-360l-383 844h-6l-133 -844h-353l228 1434h346l393 -869h8l135 869h353z" />
    <glyph glyph-name="O" unicode="O" horiz-adv-x="1507" 
d="M881 1452q274 0 429.5 -151.5t155.5 -421.5q0 -184 -59 -347.5t-164 -285.5t-260.5 -193t-337.5 -71q-271 0 -428.5 152t-157.5 419q0 187 58.5 351.5t163.5 285.5t260.5 191.5t339.5 70.5zM692 283q79 0 146 32t114.5 86.5t81.5 127t50 153.5t16 166q0 144 -67.5 223.5
t-198.5 79.5q-99 0 -178.5 -49t-128 -130.5t-74 -180.5t-25.5 -205q0 -142 68 -222.5t196 -80.5z" />
    <glyph glyph-name="P" unicode="P" horiz-adv-x="1361" 
d="M836 1434q252 0 372.5 -108.5t120.5 -303.5q0 -274 -178.5 -438t-474.5 -164h-240l-65 -420h-353l228 1434h590zM725 723q104 0 163.5 70.5t59.5 177.5q0 73 -41 116t-123 43h-235l-64 -407h240z" />
    <glyph glyph-name="Q" unicode="Q" horiz-adv-x="1507" 
d="M1466 879q0 -182 -57 -344.5t-162 -284.5l99 -117l-230 -192l-104 125q-173 -84 -367 -84q-271 0 -428.5 152t-157.5 419q0 187 58.5 351.5t163.5 285.5t260.5 191.5t339.5 70.5q274 0 429.5 -151.5t155.5 -421.5zM692 283q57 0 119 20l-152 180l228 191l139 -164
q74 148 74 338q0 144 -67.5 223.5t-198.5 79.5q-99 0 -178.5 -49t-128 -130.5t-74 -180.5t-25.5 -205q0 -142 68 -222.5t196 -80.5z" />
    <glyph glyph-name="R" unicode="R" horiz-adv-x="1413" 
d="M1096 659q103 -49 141.5 -103.5t38.5 -135.5q0 -30 -16.5 -155.5t-16.5 -162.5q0 -61 14 -102h-348q-16 35 -16 106q0 45 14.5 146t14.5 117q0 58 -42.5 95.5t-117.5 37.5h-311l-80 -502h-353l228 1434h635q246 0 365.5 -98.5t119.5 -262.5q0 -148 -63.5 -246
t-206.5 -168zM764 778q118 0 174.5 57t56.5 160q0 67 -43.5 101t-124.5 34h-278l-55 -352h270z" />
    <glyph glyph-name="S" unicode="S" horiz-adv-x="1378" 
d="M870 846q212 -40 307 -126t95 -247q0 -160 -84 -272t-227 -165.5t-334 -53.5q-128 0 -235 32.5t-184.5 94t-115.5 157.5t-26 217h364q4 -215 225 -215q117 0 178.5 46t61.5 126q0 53 -36 87.5t-124 50.5l-178 30q-82 16 -147.5 44.5t-118.5 72.5t-82 109t-29 147
q0 151 82.5 259t219.5 160t313 52q263 0 404 -115.5t120 -339.5h-363q4 87 -44.5 126.5t-143.5 39.5q-98 0 -158.5 -38.5t-60.5 -114.5q0 -41 28 -78t95 -49z" />
    <glyph glyph-name="T" unicode="T" horiz-adv-x="1267" 
d="M1341 1434l-49 -304h-403l-178 -1130h-351l179 1130h-404l49 304h1157z" />
    <glyph glyph-name="U" unicode="U" horiz-adv-x="1437" 
d="M1448 1434l-137 -869q-29 -183 -126 -314.5t-241.5 -197t-322.5 -65.5q-274 0 -416 151.5t-99 425.5l140 869h352l-135 -856q-24 -145 30.5 -216t172.5 -71q249 0 297 287l135 856h350z" />
    <glyph glyph-name="V" unicode="V" horiz-adv-x="1538" 
d="M1223 1434h376l-749 -1434h-356l-310 1430l363 4l186 -1006z" />
    <glyph glyph-name="W" unicode="W" horiz-adv-x="2162" 
d="M1845 1434h379l-635 -1434h-321l-148 891l-428 -891h-323l-185 1434h365l78 -899l401 899h336l119 -899z" />
    <glyph glyph-name="X" unicode="X" horiz-adv-x="1404" 
d="M1481 1434l-557 -695l356 -739h-397l-207 430l-346 -430h-393l589 735l-336 699h398l188 -390l311 390h394z" />
    <glyph glyph-name="Y" unicode="Y" horiz-adv-x="1511" 
d="M944 518l-80 -518h-362l80 518l-398 916h398l206 -578l396 578h389z" />
    <glyph glyph-name="Z" unicode="Z" horiz-adv-x="1259" 
d="M1143 303l-47 -303h-1119l41 266l832 864h-690l51 304h1104l-41 -267l-838 -864h707z" />
    <glyph glyph-name="bracketleft" unicode="[" horiz-adv-x="716" 
d="M553 1239l-197 -1219h146l-45 -286h-482l285 1792h481l-43 -287h-145z" />
    <glyph glyph-name="backslash" unicode="\" horiz-adv-x="1044" 
d="M195 1434h329l334 -1430h-330z" />
    <glyph glyph-name="bracketright" unicode="]" horiz-adv-x="714" 
d="M360 1239h-145l43 287h481l-284 -1792h-482l45 286h146z" />
    <glyph glyph-name="asciicircum" unicode="^" horiz-adv-x="1040" 
d="M735 952l-129 260l-223 -260h-256l408 482h192l256 -482h-248z" />
    <glyph glyph-name="underscore" unicode="_" horiz-adv-x="1208" 
d="M-20 0h1024l-43 -287h-1024z" />
    <glyph glyph-name="grave" unicode="`" horiz-adv-x="579" 
d="M684 1190l-68 262h-471l238 -262h301z" />
    <glyph glyph-name="a" unicode="a" horiz-adv-x="1189" 
d="M1008 274q-6 -42 10 -62.5t55 -23.5l-33 -180q-56 -16 -125 -16q-104 0 -171.5 45.5t-57.5 112.5l-10 -13q-11 -13 -17.5 -20t-21.5 -22t-29.5 -25.5t-34.5 -24.5t-42.5 -23t-49 -18t-58 -13.5t-65.5 -4.5q-73 0 -134 16t-111 49t-78.5 90.5t-28.5 134.5q0 87 30.5 152
t87.5 106t129 64t165 33q18 2 57.5 6.5t56 6.5t48 6t48 7t39.5 8t40.5 10.5t33.5 12.5q4 45 -6.5 75t-32.5 42.5t-41.5 17t-44.5 4.5q-129 0 -167 -106h-316q38 178 157 266t347 88q266 0 361 -110t61 -340zM463 225q65 0 124 37t91 74l31 166q-62 -18 -97.5 -25t-134.5 -22
q-67 -10 -101 -43.5t-34 -81.5q0 -105 121 -105z" />
    <glyph glyph-name="b" unicode="b" horiz-adv-x="1239" 
d="M791 1075q70 0 134 -24.5t119 -75t88 -138.5t33 -204q0 -98 -25 -193.5t-73.5 -177t-113.5 -143.5t-150.5 -97.5t-179.5 -35.5q-66 0 -118 17.5t-78.5 43t-40 48t-15.5 40.5l-25 -135h-336l226 1434h335l-75 -496q19 23 35.5 38.5t53.5 42.5t89.5 41.5t116.5 14.5z
M565 256q52 0 96.5 20t76 55t54 81.5t33.5 99.5t11 109q0 92 -46.5 138t-119.5 46q-51 0 -95 -22.5t-73.5 -60t-51 -86t-31 -99.5t-9.5 -101q0 -88 40 -134t115 -46z" />
    <glyph glyph-name="c" unicode="c" horiz-adv-x="1110" 
d="M514 256q148 0 197 131h303q-124 -401 -529 -401q-67 0 -130 14.5t-122 47t-103 81t-70.5 122t-26.5 163.5q0 188 74.5 338.5t212.5 236.5t315 86q64 0 120 -10.5t111 -39t95 -72.5t65 -116t27 -165h-295q-2 66 -32.5 99.5t-107.5 33.5q-81 0 -141.5 -59t-88.5 -144.5
t-28 -181.5q0 -75 41 -119.5t113 -44.5z" />
    <glyph glyph-name="d" unicode="d" horiz-adv-x="1224" 
d="M907 1434h338l-229 -1434h-336l16 121q-1 -1 -12 -15t-16.5 -20.5t-21 -21.5t-28 -23.5t-33.5 -20.5t-42.5 -18t-50.5 -11t-60 -5q-73 0 -141 25t-127.5 75.5t-95 139.5t-35.5 204q0 99 25.5 194.5t74 176.5t113.5 142.5t149.5 96.5t177.5 35q63 0 113.5 -16.5t78.5 -41
t42.5 -46.5t17.5 -39zM528 256q63 0 114.5 34.5t82 89.5t47 118.5t16.5 126.5q0 86 -38.5 133t-116.5 47q-124 0 -197.5 -105.5t-73.5 -257.5q0 -91 48 -138.5t118 -47.5z" />
    <glyph glyph-name="e" unicode="e" horiz-adv-x="1165" 
d="M1090 627q0 -41 -7.5 -104t-17.5 -97h-719q6 -193 195 -193q116 0 174 78h307q-133 -325 -524 -325q-84 0 -164 25.5t-148.5 77t-110.5 140.5t-42 203q0 181 78.5 328.5t218 231t311.5 83.5q92 0 170.5 -25t142 -76t100 -140t36.5 -207zM776 627q6 18 6 53
q0 62 -44.5 104.5t-119.5 42.5q-182 0 -245 -200h403z" />
    <glyph glyph-name="f" unicode="f" horiz-adv-x="776" 
d="M731 1208q-65 0 -94 -31t-39 -96l-2 -16h184l-39 -260h-186l-127 -805h-336l129 805h-176l39 260h178l4 29q11 72 33 130t48.5 96.5t63 66t69.5 42.5t77.5 24t78 11t77.5 2q85 0 135 -12l-41 -252q-40 6 -76 6z" />
    <glyph glyph-name="g" unicode="g" horiz-adv-x="1222" 
d="M850 1065h334l-164 -1026q-13 -88 -43.5 -160.5t-69.5 -122.5t-90.5 -88t-101.5 -60t-107.5 -36t-103.5 -18.5t-94 -4.5q-174 0 -288 72t-155 184l217 109q54 -92 228 -92q126 0 187.5 56.5t86.5 184.5l12 58q-1 -1 -14 -17t-21.5 -24t-26 -24.5t-36 -26t-44 -20.5
t-57 -16t-67.5 -5q-58 0 -113 14.5t-107.5 48.5t-91.5 84t-63 126t-24 169q0 119 40.5 235t110 207t172 147t217.5 56q65 0 117 -17t80.5 -42t43 -47t17.5 -39zM528 258q63 0 114.5 35t82 90.5t47 118.5t16.5 125q0 84 -38 131t-115 47q-83 0 -147 -57.5t-95 -140
t-31 -169.5q0 -88 48 -134t118 -46z" />
    <glyph glyph-name="h" unicode="h" horiz-adv-x="1265" 
d="M842 1075q85 0 148.5 -23t110 -75.5t59.5 -137t-3 -206.5l-98 -633h-336l102 635q11 84 -24 124t-105 40q-94 0 -165 -63t-87 -120l-98 -616h-336l226 1434h335l-90 -557q19 31 49.5 62t75.5 63.5t107 52.5t129 20z" />
    <glyph glyph-name="i" unicode="i" horiz-adv-x="534" 
d="M199 1204l39 248h337l-38 -248h-338zM178 1065h338l-168 -1065h-338z" />
    <glyph glyph-name="j" unicode="j" horiz-adv-x="546" 
d="M190 1204l39 248h336l-37 -248h-338zM-244 -131q53 -27 125 -27q61 0 85.5 39t39.5 129l164 1055h336l-189 -1188q-27 -165 -121.5 -246.5t-240.5 -81.5q-156 0 -248 52z" />
    <glyph glyph-name="k" unicode="k" horiz-adv-x="1232" 
d="M1241 1065l-512 -457l399 -608h-358l-268 403l-107 -96l-49 -307h-336l226 1434h335l-110 -709l375 340h405z" />
    <glyph glyph-name="l" unicode="l" horiz-adv-x="555" 
d="M236 1434h337l-225 -1434h-338z" />
    <glyph glyph-name="m" unicode="m" horiz-adv-x="1898" 
d="M1481 1075q80 0 142 -25.5t107 -82t59 -145t-3 -214.5l-94 -608h-336l98 618q17 97 -12 139t-99 42q-94 0 -157 -59t-74 -109l-98 -631h-336l98 618q14 97 -14 139t-96 42q-50 0 -94 -20.5t-72 -50.5t-45.5 -60.5t-22.5 -55.5l-98 -612h-336l168 1065h336l-33 -193
q19 32 46.5 63.5t68.5 65t99 54t122 20.5q122 0 203 -55t104 -162q55 91 155 154t214 63z" />
    <glyph glyph-name="n" unicode="n" horiz-adv-x="1253" 
d="M829 1075q85 0 149 -24t110.5 -77t59.5 -138t-3 -207l-98 -629h-336l102 631q14 86 -22 127t-107 41q-94 0 -165 -64.5t-87 -122.5l-98 -612h-336l168 1065h336l-33 -195q19 32 49.5 64t75 65.5t106.5 54.5t129 21z" />
    <glyph glyph-name="o" unicode="o" horiz-adv-x="1200" 
d="M653 1075q65 0 129 -15.5t126 -50.5t109 -86t76 -128.5t29 -171.5q0 -178 -75.5 -323t-216 -229.5t-320.5 -84.5q-67 0 -131.5 14.5t-127 49.5t-109.5 85.5t-76 129.5t-29 175q0 132 46 249t126.5 202t196 134.5t247.5 49.5zM801 602q0 99 -49.5 151t-126.5 52
q-84 0 -147 -56t-91.5 -134t-28.5 -160q0 -95 49.5 -147t127.5 -52q86 0 148.5 55.5t90 132t27.5 158.5z" />
    <glyph glyph-name="p" unicode="p" horiz-adv-x="1236" 
d="M788 1075q70 0 134 -24.5t119.5 -75t88.5 -138.5t33 -204q0 -122 -40 -238.5t-109.5 -207t-172.5 -146t-220 -55.5q-66 0 -117.5 17t-78.5 42.5t-40.5 48t-15.5 39.5l-86 -522h-336l229 1454h338l-20 -119l10.5 10.5l14 14t17 16t22 18t26 17t31 17t35 14t41 12t45.5 7.5
t52 3zM563 256q84 0 147.5 54t93.5 135.5t30 175.5q0 92 -46.5 138t-117.5 46q-65 0 -116.5 -32.5t-82.5 -85.5t-47 -116t-16 -129q0 -92 40 -139t115 -47z" />
    <glyph glyph-name="q" unicode="q" horiz-adv-x="1222" 
d="M848 1065h336l-230 -1454h-336l82 510q-1 -1 -14.5 -17.5t-21.5 -24.5t-26 -24.5t-37 -26t-44.5 -21t-57 -16.5t-67.5 -5q-58 0 -113 15t-107.5 49t-91.5 84t-63 125t-24 167q0 125 39.5 242.5t109 207.5t172 144.5t219.5 54.5q65 0 117 -17.5t79.5 -43.5t42 -48
t17.5 -38zM528 256q63 0 114.5 35.5t82 91.5t47 119t16.5 125q0 84 -38 131t-115 47q-124 0 -198.5 -107.5t-74.5 -259.5q0 -89 48 -135.5t118 -46.5z" />
    <glyph glyph-name="r" unicode="r" horiz-adv-x="876" 
d="M797 1075q58 0 110 -12l-51 -293q-37 2 -70 2q-111 1 -187 -32t-116.5 -87.5t-66.5 -138.5l-82 -514h-336l168 1065h336l-39 -248q40 121 124 189.5t210 68.5z" />
    <glyph glyph-name="s" unicode="s" horiz-adv-x="1071" 
d="M705 721q-4 58 -41.5 82t-106.5 24q-61 0 -104 -25t-43 -73q0 -57 73 -76l176 -43q45 -11 69.5 -17t61 -18t56.5 -23.5t44.5 -30t36.5 -40t20.5 -52t8.5 -67.5q0 -179 -141.5 -277.5t-380.5 -98.5q-220 0 -332.5 90.5t-109.5 267.5h303q20 -115 164 -115q76 0 117.5 32
t41.5 73q0 27 -15.5 45.5t-57.5 26.5l-154 34q-163 37 -234 108.5t-71 178.5q0 159 135 253.5t352 94.5q112 0 195 -26t132 -74.5t72.5 -111.5t22.5 -142h-290z" />
    <glyph glyph-name="t" unicode="t" horiz-adv-x="833" 
d="M569 805l-71 -438q-10 -54 6 -79.5t69 -25.5q67 0 140 17l-41 -261q-71 -32 -211 -32q-52 0 -93.5 6.5t-82 23t-66 45t-45 72t-20 104.5t9.5 142l67 426h-165l38 260h168l43 266h338l-43 -266h213l-43 -260h-211z" />
    <glyph glyph-name="u" unicode="u" horiz-adv-x="1257" 
d="M881 1065h338l-168 -1065h-336l28 182q-22 -31 -52.5 -62t-74 -62t-101.5 -50.5t-120 -19.5q-88 0 -154 24t-113.5 76.5t-61.5 137t2 206.5l102 633h336l-103 -633q-13 -87 19.5 -122.5t99.5 -35.5q77 0 155 59t107 113z" />
    <glyph glyph-name="v" unicode="v" horiz-adv-x="1226" 
d="M692 0h-366l-232 1065h332l127 -725l362 725h345z" />
    <glyph glyph-name="w" unicode="w" horiz-adv-x="1671" 
d="M1704 1065l-467 -1065h-283l-118 670l-322 -670h-289l-131 1065h332l43 -639l295 639h262l86 -639l248 639h344z" />
    <glyph glyph-name="x" unicode="x" horiz-adv-x="1191" 
d="M1214 1065l-442 -514l305 -551h-358l-166 309l-254 -309h-373l490 559l-283 506h356l136 -260l219 260h370z" />
    <glyph glyph-name="y" unicode="y" horiz-adv-x="1202" 
d="M889 1065h346l-619 -1081q-95 -166 -179.5 -252.5t-195 -120t-270.5 -14.5l43 276q58 -6 105.5 0.5t77.5 19.5t55.5 36.5t38.5 43t28 47.5q16 34 18.5 53t-5.5 68l-238 924h332l131 -635z" />
    <glyph glyph-name="z" unicode="z" horiz-adv-x="1038" 
d="M410 281h491l-41 -281h-887l39 281l576 503h-471l45 281h866l-43 -281z" />
    <glyph glyph-name="braceleft" unicode="{" horiz-adv-x="755" 
d="M530 766l-137 -139l90 -135l-63 -420q-7 -31 5 -41.5t46 -10.5h82l-45 -286h-223q-32 0 -61.5 5.5t-63.5 22t-56.5 43t-33 74t-0.5 109.5l80 493l-72 146l115 149l79 510q43 240 279 240h242l-43 -287h-62q-34 0 -63 -18.5t-33 -49.5z" />
    <glyph glyph-name="bar" unicode="|" horiz-adv-x="593" 
d="M299 1638h287l-322 -2027h-287z" />
    <glyph glyph-name="braceright" unicode="}" horiz-adv-x="755" 
d="M246 766l65 422q3 32 -7.5 41.5t-45.5 9.5h-80l43 287h223q25 0 49.5 -3.5t54.5 -14t51 -28t40 -46t22 -68.5t-4 -94l-77 -496l69 -149l-112 -146l-84 -508q-10 -63 -33.5 -109t-50.5 -70t-64 -38.5t-65 -18t-62 -3.5h-241l45 286h61q33 0 60 18.5t34 49.5l62 404
l135 135z" />
    <glyph glyph-name="asciitilde" unicode="~" horiz-adv-x="1044" 
d="M874 678l130 -16q-20 -127 -99 -208t-207 -81q-50 0 -104.5 26.5t-95 58.5t-95 58.5t-104.5 26.5q-37 0 -74.5 -19.5t-40.5 -46.5l-131 17q22 128 99.5 208t205.5 80q50 0 105 -26.5t96 -58.5t96 -58.5t105 -26.5q35 0 71.5 19t42.5 47z" />
    <glyph glyph-name="exclamdown" unicode="&#xa1;" horiz-adv-x="614" 
d="M127 692l59 373h369l-59 -373h-369zM485 580l-151 -949h-381l153 949h379z" />
    <glyph glyph-name="cent" unicode="&#xa2;" horiz-adv-x="1110" 
d="M616 399q80 28 115 119h303q-115 -368 -463 -399l-32 -201h-146l33 205q-74 10 -139 39t-118.5 78.5t-84.5 128t-31 176.5q0 270 150.5 453.5t396.5 205.5l37 230h145l-37 -234q67 -10 122 -35t102 -70t74.5 -119.5t29.5 -172.5h-295q-3 105 -78 125zM381 551
q0 -116 90 -154l82 521q-81 -40 -126.5 -143.5t-45.5 -223.5z" />
    <glyph glyph-name="sterling" unicode="&#xa3;" horiz-adv-x="1193" 
d="M1163 983h-303q11 92 -37 135t-129 43q-59 0 -102.5 -18t-66.5 -48t-33.5 -62.5t-10.5 -69.5q0 -74 45 -197h244l-31 -178h-178q-3 -118 -53 -191.5t-166 -134.5q83 33 166 33q50 0 157.5 -14.5t174.5 -14.5q92 0 198 25l-24 -295q-78 -19 -178 -19q-92 0 -242 30
t-219 30q-105 0 -225 -60l-146 205q266 179 266 383q0 15 -2 23h-194l28 178h107q-43 103 -43 192q0 151 76.5 264t200 169.5t274.5 56.5q230 0 356 -126t90 -339z" />
    <glyph glyph-name="currency" unicode="&#xa4;" horiz-adv-x="1277" 
d="M1153 975q0 -81 -29 -160l103 -100l-213 -209l-78 78q-111 -68 -242 -68q-126 0 -235 64l-74 -74l-211 209l92 92q-30 79 -30 168q0 98 34 176l-96 98l211 209l84 -84q102 60 225 60q126 0 232 -64l88 88l213 -209l-107 -106q33 -84 33 -168zM694 788q48 0 84.5 16.5
t55.5 38.5t31 50.5t15 47.5t3 34q0 14 -3 33t-15 47.5t-31 50.5t-55.5 38.5t-84.5 16.5q-49 0 -85.5 -16.5t-55 -38.5t-29.5 -51t-13.5 -47t-2.5 -33q0 -16 2.5 -34t13.5 -47t29.5 -51t55 -38.5t85.5 -16.5z" />
    <glyph glyph-name="yen" unicode="&#xa5;" horiz-adv-x="1511" 
d="M1573 1434l-612 -893h227l-31 -195h-239l-11 -61h240l-37 -193h-231l-15 -92h-362l14 92h-233l36 193h226l10 61h-225l30 195h211l-387 893h398l206 -578l396 578h389z" />
    <glyph glyph-name="brokenbar" unicode="&#xa6;" horiz-adv-x="593" 
d="M299 1638h287l-90 -573h-287zM70 184h286l-92 -573h-287z" />
    <glyph glyph-name="section" unicode="&#xa7;" horiz-adv-x="1421" 
d="M1380 1008h-368q2 36 -9 61.5t-27 38.5t-43 20.5t-46.5 9t-48.5 1.5q-58 0 -101.5 -12t-66 -28t-36 -38t-17 -37.5t-3.5 -30.5q0 -25 19 -45t76 -37l217 -51q216 -52 311.5 -140.5t95.5 -234.5q0 -194 -123 -323q29 -59 29 -144q0 -103 -35 -187t-96.5 -141.5t-146 -97
t-182.5 -57.5t-208 -18q-134 0 -230.5 23t-170 77.5t-111 150.5t-39.5 236h371q-1 -92 53 -134t162 -42q118 0 190 45t72 129q0 43 -33.5 66t-123.5 45l-174 43q-71 16 -122.5 33t-105 46t-87 65t-54.5 90.5t-21 123.5q0 195 125 317q-30 68 -30 150q0 114 48 204.5
t132 147.5t194 87t238 30q161 0 280 -47t186.5 -148.5t59.5 -246.5zM958 469q0 41 -33.5 65t-119.5 46l-174 43q-10 2 -30 7t-30 7q-51 -45 -51 -109q0 -25 18.5 -46t75.5 -38l217 -51q58 -13 95 -26q32 40 32 102z" />
    <glyph glyph-name="dieresis" unicode="&#xa8;" horiz-adv-x="833" 
d="M145 1452h340l-36 -235h-340zM637 1452h340l-35 -235h-342z" />
    <glyph glyph-name="copyright" unicode="&#xa9;" horiz-adv-x="1595" 
d="M752 -14q-193 0 -348.5 86t-244.5 241.5t-89 350.5q0 163 64 309.5t171.5 249.5t252 163t300.5 60q194 0 349 -85.5t243 -240.5t88 -350q0 -162 -64 -308.5t-170.5 -250t-251 -164.5t-300.5 -61zM737 176q184 0 325.5 85.5t214.5 225.5t73 308q0 203 -135.5 331.5
t-342.5 128.5q-168 0 -306.5 -74.5t-221 -213.5t-82.5 -316q0 -210 133.5 -342.5t341.5 -132.5zM772 516q66 0 110 27.5t64 72.5h213q-30 -89 -78.5 -152.5t-105.5 -94.5t-107 -43.5t-102 -12.5q-146 0 -249 96t-103 263q0 185 129 315.5t313 130.5q55 0 106.5 -15
t99.5 -47.5t80 -93t38 -143.5h-207q-8 96 -137 96q-70 0 -118.5 -36.5t-68.5 -88.5t-20 -114q0 -73 41 -116.5t102 -43.5z" />
    <glyph glyph-name="ordfeminine" unicode="&#xaa;" horiz-adv-x="794" 
d="M745 874q0 -71 25 -112h-166q-18 19 -26.5 40.5t-10 35t-2.5 45.5q-97 -121 -227 -121q-42 0 -80 9.5t-71 30.5t-52.5 59.5t-19.5 90.5q0 62 18 104.5t58 69.5t94 41.5t137 24.5l160 18q11 50 -13.5 68t-81.5 18q-55 0 -82.5 -18.5t-29.5 -40.5h-189q52 233 314 233
q156 0 224.5 -59t68.5 -178q0 -44 -24 -185t-24 -174zM379 934q33 0 59.5 7t42 14.5t32 26t22 27.5t20.5 33l10 15l-147 -15q-49 -5 -70.5 -23.5t-21.5 -39.5q0 -45 53 -45z" />
    <glyph glyph-name="guillemotleft" unicode="&#xab;" horiz-adv-x="991" 
d="M479 725l-188 -131l149 -133l-47 -281l-321 295l45 273l413 294zM936 725l-188 -131l149 -133l-47 -281l-322 295l45 273l414 294z" />
    <glyph glyph-name="logicalnot" unicode="&#xac;" horiz-adv-x="1089" 
d="M985 639l-74 -453h-336l33 197h-569l41 256h905z" />
    <glyph glyph-name="uni00AD" unicode="&#xad;" horiz-adv-x="937" 
d="M88 680h754l-41 -234h-754z" />
    <glyph glyph-name="registered" unicode="&#xae;" horiz-adv-x="1595" 
d="M752 -14q-193 0 -348.5 86t-244.5 241.5t-89 350.5q0 163 64 309.5t171.5 249.5t252 163t300.5 60q194 0 349 -85.5t243 -240.5t88 -350q0 -162 -64 -308.5t-170.5 -250t-251 -164.5t-300.5 -61zM737 176q184 0 325.5 85.5t214.5 225.5t73 308q0 203 -135.5 331.5
t-342.5 128.5q-168 0 -306.5 -74.5t-221 -213.5t-82.5 -316q0 -210 133.5 -342.5t341.5 -132.5zM1055 317h-193q-6 34 -2.5 76.5t10.5 93.5t7 52q0 30 -14.5 45.5t-31.5 18.5t-47 3h-90l-45 -289h-186l125 799h295q118 0 180.5 -53t62.5 -148q0 -89 -44.5 -145t-163.5 -88
q76 -12 109.5 -45.5t33.5 -93.5q0 -23 -4.5 -61t-8.5 -67t-3 -57.5t10 -40.5zM795 756q71 0 111 40t40 95q0 34 -17 55t-50 21h-127l-31 -211h74z" />
    <glyph glyph-name="macron" unicode="&#xaf;" horiz-adv-x="772" 
d="M145 1452h773l-31 -192h-770z" />
    <glyph glyph-name="degree" unicode="&#xb0;" horiz-adv-x="802" 
d="M473 862q-125 0 -201.5 77.5t-76.5 197.5q0 142 96.5 241t240.5 99q125 0 202 -77.5t77 -197.5q0 -142 -98 -241t-240 -99zM489 1098q35 0 57.5 20t28 36.5t5.5 25.5q0 11 -3 22.5t-18.5 26t-42.5 14.5t-47 -11.5t-28.5 -27.5t-12.5 -27.5t-4 -17.5q0 -10 3 -21.5
t19 -25.5t43 -14z" />
    <glyph glyph-name="plusminus" unicode="&#xb1;" horiz-adv-x="1187" 
d="M815 977h381l-45 -289h-381l-59 -379h-310l60 379h-375l45 289h375l59 375h309zM94 -23l39 234h813l-39 -234h-813z" />
    <glyph glyph-name="uni00B2" unicode="&#xb2;" horiz-adv-x="538" 
d="M121 901q12 103 53 163t131 110q8 4 32 14.5t36.5 17t29 18t24 25.5t7.5 31q0 25 -16.5 37t-34.5 12q-28 0 -50.5 -16t-25.5 -49h-129q11 81 65.5 130.5t149.5 49.5q86 0 128 -40t42 -104q0 -22 -5.5 -42.5t-13.5 -35.5t-22.5 -30.5t-27 -26t-33.5 -23t-34.5 -19.5
t-37 -19t-35.5 -19q-33 -17 -51 -37.5t-20 -35.5h231l-16 -111h-377z" />
    <glyph glyph-name="uni00B3" unicode="&#xb3;" horiz-adv-x="557" 
d="M457 1184q38 -4 70 -30t32 -77q0 -78 -61.5 -131t-171.5 -53q-84 0 -133 52t-37 122h118q-3 -37 18.5 -51.5t51.5 -14.5q33 0 59.5 18t26.5 58q0 29 -16 44.5t-66 15.5h-22l16 90h23q75 0 75 61q0 47 -57 47q-25 0 -44.5 -14.5t-25.5 -44.5h-114q14 81 66.5 124.5
t140.5 43.5q73 0 117 -35t44 -88q0 -57 -33 -91.5t-77 -45.5z" />
    <glyph glyph-name="acute" unicode="&#xb4;" horiz-adv-x="534" 
d="M104 1190h299l277 262h-467z" />
    <glyph glyph-name="uni00B5" unicode="&#xb5;" horiz-adv-x="1255" 
d="M881 1065h336l-168 -1065h-336l28 182q-21 -31 -51.5 -61t-74 -61t-102 -50.5t-120.5 -19.5q-41 0 -59 2l-62 -381h-335l122 768q0 9 3 28.5t4 24.5l102 633h336l-107 -664q-3 -69 29.5 -97t93.5 -28q81 0 159 63.5t101 115.5l-20 -154z" />
    <glyph glyph-name="paragraph" unicode="&#xb6;" horiz-adv-x="1495" 
d="M1513 1434l-28 -195h-2l-266 -1690h-273l266 1690h-194l-266 -1690h-299l163 1039h-73q-115 0 -204 38.5t-139.5 101.5t-70.5 142t-6 162q11 74 51.5 144.5t105.5 128.5t163 93.5t212 35.5h860z" />
    <glyph glyph-name="periodcentered" unicode="&#xb7;" horiz-adv-x="591" 
d="M111 766h366l-59 -373h-369z" />
    <glyph glyph-name="cedilla" unicode="&#xb8;" horiz-adv-x="483" 
d="M143 -125q88 -3 147.5 -52t59.5 -136q0 -57 -24 -97.5t-61.5 -64t-98.5 -36.5t-119.5 -17t-140.5 -4v133q97 0 143.5 17t46.5 60q0 39 -40.5 49t-78.5 -24l-8 -10l-80 129l101 180h274z" />
    <glyph glyph-name="uni00B9" unicode="&#xb9;" horiz-adv-x="413" 
d="M434 1434l-84 -533h-125l70 387q-42 -52 -141 -43l18 117q42 -4 80.5 19.5t56.5 52.5h125z" />
    <glyph glyph-name="ordmasculine" unicode="&#xba;" horiz-adv-x="802" 
d="M510 1450q124 0 213.5 -82.5t89.5 -216.5q0 -162 -113 -276.5t-266 -114.5q-128 0 -216.5 80.5t-88.5 222.5q0 162 112.5 274.5t268.5 112.5zM608 1145q0 45 -28 75.5t-78 30.5q-74 0 -119 -54.5t-45 -119.5q0 -51 28 -82.5t80 -31.5q77 0 119.5 55.5t42.5 126.5z" />
    <glyph glyph-name="guillemotright" unicode="&#xbb;" horiz-adv-x="991" 
d="M80 498l188 131l-149 133l47 280l321 -294l-45 -273l-413 -295zM537 498l188 131l-150 133l48 280l321 -294l-45 -273l-414 -295z" />
    <glyph glyph-name="onequarter" unicode="&#xbc;" horiz-adv-x="1400" 
d="M199 0h-164l1118 1434h164zM434 1434l-84 -533h-125l70 387q-42 -52 -141 -43l18 117q42 -4 80.5 19.5t56.5 52.5h125zM1255 135h-61l-23 -135h-120l22 135h-237l14 98l287 302h120l-49 -302h62zM1087 233l27 166l-160 -166h133z" />
    <glyph glyph-name="onehalf" unicode="&#xbd;" horiz-adv-x="1376" 
d="M199 0h-164l1118 1434h164zM434 1434l-84 -533h-125l70 387q-42 -52 -141 -43l18 117q42 -4 80.5 19.5t56.5 52.5h125zM823 0q12 103 53 162.5t132 109.5q8 4 32 14.5t36.5 17.5t29 18.5t24 25.5t7.5 31q0 25 -17 37t-35 12q-27 0 -49.5 -16t-25.5 -50h-129
q11 81 65.5 131t149.5 50q86 0 128 -40t42 -104q0 -22 -5.5 -42.5t-13.5 -35.5t-22.5 -30.5t-27 -26t-33.5 -23t-34.5 -19.5t-37 -19t-35.5 -19q-33 -17 -51.5 -38t-20.5 -35h232l-17 -111h-377z" />
    <glyph glyph-name="threequarters" unicode="&#xbe;" horiz-adv-x="1490" 
d="M467 1184q38 -4 70 -30t32 -77q0 -78 -61.5 -131t-171.5 -53q-84 0 -133 52t-37 122h119q-3 -37 18 -51.5t51 -14.5q33 0 59.5 18t26.5 58q0 29 -16 44.5t-66 15.5h-22l16 90h23q76 0 76 61q0 22 -15 34.5t-43 12.5q-24 0 -43.5 -14.5t-25.5 -44.5h-115q14 81 66.5 124.5
t140.5 43.5q73 0 117.5 -35.5t44.5 -87.5q0 -57 -33.5 -91.5t-77.5 -45.5zM289 0h-164l1118 1434h164zM1346 135h-62l-22 -135h-121l22 135h-237l14 98l287 302h121l-50 -302h62zM1178 233l26 166l-160 -166h134z" />
    <glyph glyph-name="questiondown" unicode="&#xbf;" horiz-adv-x="1169" 
d="M729 692h-369l58 373h368zM401 -383q252 0 398.5 118.5t183.5 385.5h-328q-9 -40 -17 -67t-24 -58t-37 -49.5t-54 -30.5t-77 -12q-39 0 -65.5 10.5t-39.5 25t-18.5 35.5t-5 37.5t4.5 34.5q5 30 27 56.5t53 48.5t67.5 46t74.5 56t71 71t58.5 98.5t35.5 131.5l4 25h-363
l-4 -25q-9 -58 -31.5 -103.5t-52 -75.5t-63.5 -55.5t-68.5 -52.5t-64.5 -59t-53 -81.5t-33 -113.5q-29 -191 86 -294t335 -103z" />
    <glyph glyph-name="Agrave" unicode="&#xc0;" horiz-adv-x="1519" 
d="M1040 1559h-301l-237 262h471zM993 0l-41 240h-503l-117 -240h-375l764 1434h330l323 -1434h-381zM575 498h332l-86 503z" />
    <glyph glyph-name="Aacute" unicode="&#xc1;" horiz-adv-x="1519" 
d="M1325 1821l-276 -262h-299l108 262h467zM993 0l-41 240h-503l-117 -240h-375l764 1434h330l323 -1434h-381zM575 498h332l-86 503z" />
    <glyph glyph-name="Acircumflex" unicode="&#xc2;" horiz-adv-x="1519" 
d="M905 1679l-209 -153h-266l176 295h625l82 -295h-254zM993 0l-41 240h-503l-117 -240h-375l764 1434h330l323 -1434h-381zM575 498h332l-86 503z" />
    <glyph glyph-name="Atilde" unicode="&#xc3;" horiz-adv-x="1519" 
d="M655 1681q-29 0 -53.5 -15t-23.5 -40h-127q0 123 66.5 203t195.5 80q55 0 112.5 -25.5t98.5 -55.5t96 -55.5t106 -25.5q30 0 54.5 14.5t23.5 40.5h129q0 -123 -67.5 -202.5t-194.5 -79.5q-46 0 -92 16.5t-83.5 40t-75 47.5t-80.5 40.5t-85 16.5zM993 0l-41 240h-503
l-117 -240h-375l764 1434h330l323 -1434h-381zM575 498h332l-86 503z" />
    <glyph glyph-name="Adieresis" unicode="&#xc4;" horiz-adv-x="1519" 
d="M844 1821l-37 -236h-340l37 236h340zM1335 1821l-35 -236h-342l37 236h340zM993 0l-41 240h-503l-117 -240h-375l764 1434h330l323 -1434h-381zM575 498h332l-86 503z" />
    <glyph glyph-name="Aring" unicode="&#xc5;" horiz-adv-x="1519" 
d="M913 1559q-87 0 -142.5 54.5t-55.5 137.5q0 91 68 160t161 69q80 0 135.5 -55.5t55.5 -138.5q0 -89 -69.5 -158t-152.5 -69zM932 1843q-35 0 -59.5 -24.5t-24.5 -55.5q0 -30 20.5 -49.5t53.5 -19.5q32 0 54.5 24t22.5 54q0 31 -19 51t-48 20zM993 0l-41 240h-503
l-117 -240h-375l764 1434h330l323 -1434h-381zM575 498h332l-86 503z" />
    <glyph glyph-name="AE" unicode="&#xc6;" horiz-adv-x="2129" 
d="M2134 1130h-676l-43 -266h574l-45 -280h-574l-41 -281h694l-47 -303h-1048l37 238h-437l-198 -238h-373l1196 1419l2 15h1028zM754 506h254l59 373z" />
    <glyph glyph-name="Ccedilla" unicode="&#xc7;" horiz-adv-x="1396" 
d="M819 1149q-95 0 -171.5 -51.5t-122.5 -134t-70.5 -179t-24.5 -194.5q0 -148 62.5 -226.5t189.5 -78.5q108 0 173.5 46.5t111.5 153.5h338q-53 -213 -205 -338.5t-357 -156.5l-108 -115q88 -3 147.5 -52t59.5 -136q0 -48 -15.5 -84t-47 -59.5t-69 -39t-91.5 -23
t-104.5 -10.5t-117.5 -3v133q97 0 144 17t47 60q0 39 -40.5 49t-78.5 -24l-8 -10l-80 129l96 174q-198 37 -308 179.5t-110 375.5q0 146 34.5 280.5t103 247t163.5 196t223.5 130.5t276.5 47q115 0 212 -31t169 -91.5t108.5 -157.5t26.5 -220h-342q-12 102 -65.5 149.5
t-149.5 47.5z" />
    <glyph glyph-name="Egrave" unicode="&#xc8;" horiz-adv-x="1220" 
d="M932 1559l-68 262h-471l238 -262h301zM1225 1130h-676l-43 -266h573l-45 -280h-573l-41 -281h694l-47 -303h-1049l228 1434h1028z" />
    <glyph glyph-name="Eacute" unicode="&#xc9;" horiz-adv-x="1220" 
d="M641 1559h299l277 262h-467zM1225 1130h-676l-43 -266h573l-45 -280h-573l-41 -281h694l-47 -303h-1049l228 1434h1028z" />
    <glyph glyph-name="Ecircumflex" unicode="&#xca;" horiz-adv-x="1220" 
d="M950 1526l-153 153l-209 -153h-266l176 295h624l82 -295h-254zM1225 1130h-676l-43 -266h573l-45 -280h-573l-41 -281h694l-47 -303h-1049l228 1434h1028z" />
    <glyph glyph-name="Edieresis" unicode="&#xcb;" horiz-adv-x="1220" 
d="M395 1821h340l-37 -236h-340zM887 1821h340l-35 -236h-342zM1225 1130h-676l-43 -266h573l-45 -280h-573l-41 -281h694l-47 -303h-1049l228 1434h1028z" />
    <glyph glyph-name="Igrave" unicode="&#xcc;" horiz-adv-x="589" 
d="M590 1559l-68 262h-471l238 -262h301zM373 0h-353l226 1434h352z" />
    <glyph glyph-name="Iacute" unicode="&#xcd;" horiz-adv-x="589" 
d="M299 1559h299l276 262h-466zM373 0h-353l226 1434h352z" />
    <glyph glyph-name="Icircumflex" unicode="&#xce;" horiz-adv-x="589" 
d="M608 1526l-153 153l-209 -153h-266l176 295h624l82 -295h-254zM373 0h-353l226 1434h352z" />
    <glyph glyph-name="Idieresis" unicode="&#xcf;" horiz-adv-x="589" 
d="M53 1821h340l-37 -236h-340zM545 1821h340l-35 -236h-342zM373 0h-353l226 1434h352z" />
    <glyph glyph-name="Eth" unicode="&#xd0;" horiz-adv-x="1501" 
d="M883 1434q281 0 431 -148.5t150 -437.5q0 -190 -52 -346t-150.5 -267.5t-248 -173t-337.5 -61.5h-584l92 586h-127l41 233h123l96 615h566zM678 319q113 0 199.5 42t138 115.5t77 166.5t25.5 203q0 147 -69.5 207.5t-227.5 60.5h-198l-48 -295h277l-41 -233h-272
l-43 -267h182z" />
    <glyph glyph-name="Ntilde" unicode="&#xd1;" horiz-adv-x="1470" 
d="M1210 1802h129q0 -123 -67.5 -202.5t-194.5 -79.5q-46 0 -92 16.5t-83.5 40t-74.5 47.5t-80 40.5t-85 16.5q-29 0 -54 -15t-24 -40h-127q0 123 66.5 203t195.5 80q55 0 113 -25.5t99 -55.5t96 -55.5t106 -25.5q30 0 54 14.5t23 40.5zM1481 1434l-228 -1434h-360l-383 844
h-6l-133 -844h-353l228 1434h346l393 -869h8l135 869h353z" />
    <glyph glyph-name="Ograve" unicode="&#xd2;" horiz-adv-x="1507" 
d="M1067 1559l-68 262h-471l238 -262h301zM881 1452q274 0 429.5 -151.5t155.5 -421.5q0 -184 -59 -347.5t-164 -285.5t-260.5 -193t-337.5 -71q-271 0 -428.5 152t-157.5 419q0 187 58.5 351.5t163.5 285.5t260.5 191.5t339.5 70.5zM692 283q79 0 146 32t114.5 86.5
t81.5 127t50 153.5t16 166q0 144 -67.5 223.5t-198.5 79.5q-99 0 -178.5 -49t-128 -130.5t-74 -180.5t-25.5 -205q0 -142 68 -222.5t196 -80.5z" />
    <glyph glyph-name="Oacute" unicode="&#xd3;" horiz-adv-x="1507" 
d="M776 1559h299l277 262h-467zM881 1452q274 0 429.5 -151.5t155.5 -421.5q0 -184 -59 -347.5t-164 -285.5t-260.5 -193t-337.5 -71q-271 0 -428.5 152t-157.5 419q0 187 58.5 351.5t163.5 285.5t260.5 191.5t339.5 70.5zM692 283q79 0 146 32t114.5 86.5t81.5 127
t50 153.5t16 166q0 144 -67.5 223.5t-198.5 79.5q-99 0 -178.5 -49t-128 -130.5t-74 -180.5t-25.5 -205q0 -142 68 -222.5t196 -80.5z" />
    <glyph glyph-name="Ocircumflex" unicode="&#xd4;" horiz-adv-x="1507" 
d="M1085 1526l-153 153l-209 -153h-266l176 295h624l82 -295h-254zM881 1452q274 0 429.5 -151.5t155.5 -421.5q0 -184 -59 -347.5t-164 -285.5t-260.5 -193t-337.5 -71q-271 0 -428.5 152t-157.5 419q0 187 58.5 351.5t163.5 285.5t260.5 191.5t339.5 70.5zM692 283
q79 0 146 32t114.5 86.5t81.5 127t50 153.5t16 166q0 144 -67.5 223.5t-198.5 79.5q-99 0 -178.5 -49t-128 -130.5t-74 -180.5t-25.5 -205q0 -142 68 -222.5t196 -80.5z" />
    <glyph glyph-name="Otilde" unicode="&#xd5;" horiz-adv-x="1507" 
d="M1231 1802h129q0 -123 -67.5 -202.5t-194.5 -79.5q-46 0 -92 16.5t-83.5 40t-75 47.5t-80.5 40.5t-85 16.5q-29 0 -54 -15t-24 -40h-127q0 123 66.5 203t195.5 80q55 0 113 -25.5t99 -55.5t96 -55.5t106 -25.5q30 0 54.5 14.5t23.5 40.5zM881 1452q274 0 429.5 -151.5
t155.5 -421.5q0 -184 -59 -347.5t-164 -285.5t-260.5 -193t-337.5 -71q-271 0 -428.5 152t-157.5 419q0 187 58.5 351.5t163.5 285.5t260.5 191.5t339.5 70.5zM692 283q79 0 146 32t114.5 86.5t81.5 127t50 153.5t16 166q0 144 -67.5 223.5t-198.5 79.5q-99 0 -178.5 -49
t-128 -130.5t-74 -180.5t-25.5 -205q0 -142 68 -222.5t196 -80.5z" />
    <glyph glyph-name="Odieresis" unicode="&#xd6;" horiz-adv-x="1507" 
d="M530 1821h340l-36 -236h-340zM1022 1821h340l-35 -236h-342zM881 1452q274 0 429.5 -151.5t155.5 -421.5q0 -184 -59 -347.5t-164 -285.5t-260.5 -193t-337.5 -71q-271 0 -428.5 152t-157.5 419q0 187 58.5 351.5t163.5 285.5t260.5 191.5t339.5 70.5zM692 283
q79 0 146 32t114.5 86.5t81.5 127t50 153.5t16 166q0 144 -67.5 223.5t-198.5 79.5q-99 0 -178.5 -49t-128 -130.5t-74 -180.5t-25.5 -205q0 -142 68 -222.5t196 -80.5z" />
    <glyph glyph-name="multiply" unicode="&#xd7;" horiz-adv-x="1079" 
d="M1051 776l-306 -266l226 -264l-230 -203l-227 266l-305 -266l-191 219l310 268l-228 267l230 198l227 -266l303 264z" />
    <glyph glyph-name="Oslash" unicode="&#xd8;" horiz-adv-x="1507" 
d="M1483 1526l-156 -244q139 -148 139 -403q0 -184 -59 -347.5t-164 -285.5t-260.5 -193t-337.5 -71q-73 0 -137 12l-62 -96h-387l154 239q-154 154 -154 416q0 187 58.5 351.5t163.5 285.5t260.5 191.5t339.5 70.5q88 0 157 -14l58 88h387zM428 586q0 -55 8 -94l420 659
h-22q-99 0 -178.5 -49t-128 -130.5t-74 -180.5t-25.5 -205zM1100 848q0 24 -4 70l-404 -635q79 0 146 32t114.5 86.5t81.5 127t50 153.5t16 166z" />
    <glyph glyph-name="Ugrave" unicode="&#xd9;" horiz-adv-x="1437" 
d="M1030 1559l-67 262h-471l237 -262h301zM1448 1434l-137 -869q-29 -183 -126 -314.5t-241.5 -197t-322.5 -65.5q-274 0 -416 151.5t-99 425.5l140 869h352l-135 -856q-24 -145 30.5 -216t172.5 -71q249 0 297 287l135 856h350z" />
    <glyph glyph-name="Uacute" unicode="&#xda;" horiz-adv-x="1437" 
d="M739 1559h299l277 262h-467zM1448 1434l-137 -869q-29 -183 -126 -314.5t-241.5 -197t-322.5 -65.5q-274 0 -416 151.5t-99 425.5l140 869h352l-135 -856q-24 -145 30.5 -216t172.5 -71q249 0 297 287l135 856h350z" />
    <glyph glyph-name="Ucircumflex" unicode="&#xdb;" horiz-adv-x="1437" 
d="M1049 1526l-154 153l-209 -153h-266l176 295h625l82 -295h-254zM1448 1434l-137 -869q-29 -183 -126 -314.5t-241.5 -197t-322.5 -65.5q-274 0 -416 151.5t-99 425.5l140 869h352l-135 -856q-24 -145 30.5 -216t172.5 -71q249 0 297 287l135 856h350z" />
    <glyph glyph-name="Udieresis" unicode="&#xdc;" horiz-adv-x="1437" 
d="M494 1821h340l-37 -236h-340zM985 1821h340l-35 -236h-342zM1448 1434l-137 -869q-29 -183 -126 -314.5t-241.5 -197t-322.5 -65.5q-274 0 -416 151.5t-99 425.5l140 869h352l-135 -856q-24 -145 30.5 -216t172.5 -71q249 0 297 287l135 856h350z" />
    <glyph glyph-name="Yacute" unicode="&#xdd;" horiz-adv-x="1511" 
d="M776 1559h299l277 262h-467zM944 518l-80 -518h-362l80 518l-398 916h398l206 -578l396 578h389z" />
    <glyph glyph-name="Thorn" unicode="&#xde;" horiz-adv-x="1388" 
d="M356 0h-336l226 1434h336zM780 1157q177 0 306 -57.5t188 -162.5t37 -239q-30 -196 -203 -304.5t-444 -108.5h-263l45 286h246q17 0 48 -2.5t51.5 -3t49 2t48 13.5t39.5 29.5t33 52t20 80.5q7 26 4 46t-5.5 34t-13 24t-19.5 16t-25 9t-29 3.5t-31.5 0t-33.5 -2
t-34.5 -2.5t-33.5 -1h-266l45 287h241z" />
    <glyph glyph-name="germandbls" unicode="&#xdf;" horiz-adv-x="1325" 
d="M985 780q89 -3 164.5 -89.5t75.5 -209.5q0 -126 -45 -219t-130 -150t-199.5 -84.5t-260.5 -27.5h-66l45 287h56q62 0 109 9.5t87 32t61 66t21 105.5q0 31 -10 53.5t-30 36.5t-40 22t-52 11.5t-52 4.5t-53 1h-43l41 252h26q93 0 150 44.5t57 112.5q0 35 -14.5 58.5
t-41 33.5t-50.5 13.5t-56 3.5q-201 0 -235 -225l-146 -922h-336l150 936q78 498 577 498q112 0 197 -18t152 -58.5t102 -111.5t35 -171q0 -69 -32 -136.5t-89.5 -112.5t-124.5 -46z" />
    <glyph glyph-name="agrave" unicode="&#xe0;" horiz-adv-x="1189" 
d="M825 1190h-301l-237 262h471zM1008 274q-6 -42 10 -62.5t55 -23.5l-33 -180q-56 -16 -125 -16q-104 0 -171.5 45.5t-57.5 112.5l-10 -13q-11 -13 -17.5 -20t-21.5 -22t-29.5 -25.5t-34.5 -24.5t-42.5 -23t-49 -18t-58 -13.5t-65.5 -4.5q-73 0 -134 16t-111 49t-78.5 90.5
t-28.5 134.5q0 87 30.5 152t87.5 106t129 64t165 33q18 2 57.5 6.5t56 6.5t48 6t48 7t39.5 8t40.5 10.5t33.5 12.5q4 45 -6.5 75t-32.5 42.5t-41.5 17t-44.5 4.5q-129 0 -167 -106h-316q38 178 157 266t347 88q266 0 361 -110t61 -340zM463 225q65 0 124 37t91 74l31 166
q-62 -18 -97.5 -25t-134.5 -22q-67 -10 -101 -43.5t-34 -81.5q0 -105 121 -105z" />
    <glyph glyph-name="aacute" unicode="&#xe1;" horiz-adv-x="1189" 
d="M1110 1452l-276 -262h-299l108 262h467zM1008 274q-6 -42 10 -62.5t55 -23.5l-33 -180q-56 -16 -125 -16q-104 0 -171.5 45.5t-57.5 112.5l-10 -13q-11 -13 -17.5 -20t-21.5 -22t-29.5 -25.5t-34.5 -24.5t-42.5 -23t-49 -18t-58 -13.5t-65.5 -4.5q-73 0 -134 16t-111 49
t-78.5 90.5t-28.5 134.5q0 87 30.5 152t87.5 106t129 64t165 33q18 2 57.5 6.5t56 6.5t48 6t48 7t39.5 8t40.5 10.5t33.5 12.5q4 45 -6.5 75t-32.5 42.5t-41.5 17t-44.5 4.5q-129 0 -167 -106h-316q38 178 157 266t347 88q266 0 361 -110t61 -340zM463 225q65 0 124 37
t91 74l31 166q-62 -18 -97.5 -25t-134.5 -22q-67 -10 -101 -43.5t-34 -81.5q0 -105 121 -105z" />
    <glyph glyph-name="acircumflex" unicode="&#xe2;" horiz-adv-x="1189" 
d="M690 1311l-209 -154h-266l176 295h625l82 -295h-254zM1008 274q-6 -42 10 -62.5t55 -23.5l-33 -180q-56 -16 -125 -16q-104 0 -171.5 45.5t-57.5 112.5l-10 -13q-11 -13 -17.5 -20t-21.5 -22t-29.5 -25.5t-34.5 -24.5t-42.5 -23t-49 -18t-58 -13.5t-65.5 -4.5
q-73 0 -134 16t-111 49t-78.5 90.5t-28.5 134.5q0 87 30.5 152t87.5 106t129 64t165 33q18 2 57.5 6.5t56 6.5t48 6t48 7t39.5 8t40.5 10.5t33.5 12.5q4 45 -6.5 75t-32.5 42.5t-41.5 17t-44.5 4.5q-129 0 -167 -106h-316q38 178 157 266t347 88q266 0 361 -110t61 -340z
M463 225q65 0 124 37t91 74l31 166q-62 -18 -97.5 -25t-134.5 -22q-67 -10 -101 -43.5t-34 -81.5q0 -105 121 -105z" />
    <glyph glyph-name="atilde" unicode="&#xe3;" horiz-adv-x="1189" 
d="M440 1313q-29 0 -54 -15t-24 -41h-126q0 123 66.5 203t195.5 80q55 0 112.5 -25.5t98.5 -55.5t96 -55.5t106 -25.5q30 0 54.5 15t23.5 41h129q0 -123 -67.5 -203t-194.5 -80q-56 0 -114 25.5t-99 55.5t-96.5 55.5t-106.5 25.5zM1008 274q-6 -42 10 -62.5t55 -23.5
l-33 -180q-56 -16 -125 -16q-104 0 -171.5 45.5t-57.5 112.5l-10 -13q-11 -13 -17.5 -20t-21.5 -22t-29.5 -25.5t-34.5 -24.5t-42.5 -23t-49 -18t-58 -13.5t-65.5 -4.5q-73 0 -134 16t-111 49t-78.5 90.5t-28.5 134.5q0 87 30.5 152t87.5 106t129 64t165 33q18 2 57.5 6.5
t56 6.5t48 6t48 7t39.5 8t40.5 10.5t33.5 12.5q4 45 -6.5 75t-32.5 42.5t-41.5 17t-44.5 4.5q-129 0 -167 -106h-316q38 178 157 266t347 88q266 0 361 -110t61 -340zM463 225q65 0 124 37t91 74l31 166q-62 -18 -97.5 -25t-134.5 -22q-67 -10 -101 -43.5t-34 -81.5
q0 -105 121 -105z" />
    <glyph glyph-name="adieresis" unicode="&#xe4;" horiz-adv-x="1189" 
d="M629 1452l-37 -235h-340l37 235h340zM780 1452h340l-35 -235h-342zM1008 274q-6 -42 10 -62.5t55 -23.5l-33 -180q-56 -16 -125 -16q-104 0 -171.5 45.5t-57.5 112.5l-10 -13q-11 -13 -17.5 -20t-21.5 -22t-29.5 -25.5t-34.5 -24.5t-42.5 -23t-49 -18t-58 -13.5
t-65.5 -4.5q-73 0 -134 16t-111 49t-78.5 90.5t-28.5 134.5q0 87 30.5 152t87.5 106t129 64t165 33q18 2 57.5 6.5t56 6.5t48 6t48 7t39.5 8t40.5 10.5t33.5 12.5q4 45 -6.5 75t-32.5 42.5t-41.5 17t-44.5 4.5q-129 0 -167 -106h-316q38 178 157 266t347 88q266 0 361 -110
t61 -340zM463 225q65 0 124 37t91 74l31 166q-62 -18 -97.5 -25t-134.5 -22q-67 -10 -101 -43.5t-34 -81.5q0 -105 121 -105z" />
    <glyph glyph-name="aring" unicode="&#xe5;" horiz-adv-x="1189" 
d="M698 1190q-87 0 -142.5 54.5t-55.5 137.5q0 92 68 161t161 69q80 0 135.5 -56t55.5 -139q0 -89 -69.5 -158t-152.5 -69zM717 1475q-35 0 -59.5 -24.5t-24.5 -55.5q0 -30 20.5 -50t53.5 -20q31 0 54 24t23 54q0 31 -19 51.5t-48 20.5zM1008 274q-6 -42 10 -62.5t55 -23.5
l-33 -180q-56 -16 -125 -16q-104 0 -171.5 45.5t-57.5 112.5l-10 -13q-11 -13 -17.5 -20t-21.5 -22t-29.5 -25.5t-34.5 -24.5t-42.5 -23t-49 -18t-58 -13.5t-65.5 -4.5q-73 0 -134 16t-111 49t-78.5 90.5t-28.5 134.5q0 87 30.5 152t87.5 106t129 64t165 33q18 2 57.5 6.5
t56 6.5t48 6t48 7t39.5 8t40.5 10.5t33.5 12.5q4 45 -6.5 75t-32.5 42.5t-41.5 17t-44.5 4.5q-129 0 -167 -106h-316q38 178 157 266t347 88q266 0 361 -110t61 -340zM463 225q65 0 124 37t91 74l31 166q-62 -18 -97.5 -25t-134.5 -22q-67 -10 -101 -43.5t-34 -81.5
q0 -105 121 -105z" />
    <glyph glyph-name="ae" unicode="&#xe6;" horiz-adv-x="1845" 
d="M1769 627q0 -42 -7 -105t-17 -96h-719q6 -193 195 -193q116 0 174 78h307q-133 -325 -524 -325q-125 0 -238 55.5t-174 165.5q-169 -219 -404 -219q-59 0 -110 9.5t-96.5 31.5t-78 54.5t-51 82.5t-18.5 113q0 73 21.5 129.5t56.5 94t89.5 64t112 41t132.5 23.5
q31 4 97 11.5t93.5 11t66 13t64.5 21.5q4 133 -131 133q-60 0 -98.5 -18.5t-58.5 -69.5h-316q36 174 153.5 258t346.5 84q248 0 352 -98q146 98 332 98q73 0 137.5 -15t122 -49t99 -85t65.5 -127.5t24 -171.5zM1456 627q6 18 6 53q0 62 -44.5 104.5t-119.5 42.5
q-161 0 -229 -157l-6 -43h393zM680 334l27 147q-28 -10 -51 -16t-39 -9t-60.5 -10t-83.5 -14q-123 -17 -123 -106q0 -86 105 -86q72 0 136 32.5t89 61.5z" />
    <glyph glyph-name="ccedilla" unicode="&#xe7;" horiz-adv-x="1110" 
d="M514 256q148 0 197 131h303q-106 -342 -420 -393l-113 -119q88 -3 147.5 -52t59.5 -136q0 -57 -24 -97.5t-61.5 -64t-98.5 -36.5t-119.5 -17t-140.5 -4v133q97 0 143.5 17t46.5 60q0 39 -40.5 49t-78.5 -24l-8 -10l-80 129l101 180h20q-138 34 -226.5 136.5t-88.5 275.5
q0 188 74.5 338.5t212.5 236.5t315 86q64 0 120 -10.5t111 -39t95 -72.5t65 -116t27 -165h-295q-2 66 -32.5 99.5t-107.5 33.5q-81 0 -141.5 -59t-88.5 -144.5t-28 -181.5q0 -75 41 -119.5t113 -44.5z" />
    <glyph glyph-name="egrave" unicode="&#xe8;" horiz-adv-x="1165" 
d="M829 1190h-301l-237 262h471zM1090 627q0 -41 -7.5 -104t-17.5 -97h-719q6 -193 195 -193q116 0 174 78h307q-133 -325 -524 -325q-84 0 -164 25.5t-148.5 77t-110.5 140.5t-42 203q0 181 78.5 328.5t218 231t311.5 83.5q92 0 170.5 -25t142 -76t100 -140t36.5 -207z
M776 627q6 18 6 53q0 62 -44.5 104.5t-119.5 42.5q-182 0 -245 -200h403z" />
    <glyph glyph-name="eacute" unicode="&#xe9;" horiz-adv-x="1165" 
d="M1114 1452l-276 -262h-299l108 262h467zM641 1075q92 0 170.5 -25t142 -76t100 -140t36.5 -207q0 -41 -7.5 -104t-17.5 -97h-719q6 -193 195 -193q116 0 174 78h307q-133 -325 -524 -325q-84 0 -164 25.5t-148.5 77t-110.5 140.5t-42 203q0 181 78.5 328.5t218 231
t311.5 83.5zM776 627q6 18 6 53q0 62 -44.5 104.5t-119.5 42.5q-182 0 -245 -200h403z" />
    <glyph glyph-name="ecircumflex" unicode="&#xea;" horiz-adv-x="1165" 
d="M694 1311l-209 -154h-266l176 295h625l82 -295h-254zM641 1075q92 0 170.5 -25t142 -76t100 -140t36.5 -207q0 -41 -7.5 -104t-17.5 -97h-719q6 -193 195 -193q116 0 174 78h307q-133 -325 -524 -325q-84 0 -164 25.5t-148.5 77t-110.5 140.5t-42 203q0 181 78.5 328.5
t218 231t311.5 83.5zM776 627q6 18 6 53q0 62 -44.5 104.5t-119.5 42.5q-182 0 -245 -200h403z" />
    <glyph glyph-name="edieresis" unicode="&#xeb;" horiz-adv-x="1165" 
d="M633 1452l-37 -235h-340l37 235h340zM784 1452h340l-34 -235h-342zM641 1075q92 0 170.5 -25t142 -76t100 -140t36.5 -207q0 -41 -7.5 -104t-17.5 -97h-719q6 -193 195 -193q116 0 174 78h307q-133 -325 -524 -325q-84 0 -164 25.5t-148.5 77t-110.5 140.5t-42 203
q0 181 78.5 328.5t218 231t311.5 83.5zM776 627q6 18 6 53q0 62 -44.5 104.5t-119.5 42.5q-182 0 -245 -200h403z" />
    <glyph glyph-name="igrave" unicode="&#xec;" horiz-adv-x="532" 
d="M506 1190l-68 262h-471l238 -262h301zM176 1065h336l-168 -1065h-336z" />
    <glyph glyph-name="iacute" unicode="&#xed;" horiz-adv-x="532" 
d="M215 1190h299l277 262h-467zM176 1065h336l-168 -1065h-336z" />
    <glyph glyph-name="icircumflex" unicode="&#xee;" horiz-adv-x="532" 
d="M524 1157l-153 154l-209 -154h-266l176 295h624l82 -295h-254zM176 1065h336l-168 -1065h-336z" />
    <glyph glyph-name="idieresis" unicode="&#xef;" horiz-adv-x="532" 
d="M-31 1452h340l-37 -235h-340zM461 1452h340l-35 -235h-342zM176 1065h336l-168 -1065h-336z" />
    <glyph glyph-name="eth" unicode="&#xf0;" horiz-adv-x="1230" 
d="M1112 1188l-92 -10q59 -115 84.5 -209.5t25.5 -200.5q0 -173 -40 -316t-117 -249t-199.5 -164.5t-279.5 -58.5q-92 0 -173.5 27t-146.5 80t-103 140.5t-38 198.5q0 169 68.5 314t198 235t292.5 90q99 0 186 -43q-14 61 -37 123l-200 -25l22 148l111 12q-43 72 -125 154
h319l74 -121l191 22zM512 266q117 0 194.5 98.5t77.5 237.5q0 95 -43.5 135.5t-109.5 40.5q-85 0 -147 -54t-90.5 -131.5t-28.5 -164.5q0 -82 41 -122t106 -40z" />
    <glyph glyph-name="ntilde" unicode="&#xf1;" horiz-adv-x="1253" 
d="M1042 1434h129q0 -123 -67.5 -203t-194.5 -80q-56 0 -114 25.5t-99 55.5t-96 55.5t-106 25.5q-29 0 -54 -15t-24 -41h-127q0 123 66.5 203t195.5 80q55 0 113 -25.5t99 -55.5t96 -55.5t106 -25.5q30 0 54 15t23 41zM829 1075q85 0 149 -24t110.5 -77t59.5 -138t-3 -207
l-98 -629h-336l102 631q14 86 -22 127t-107 41q-94 0 -165 -64.5t-87 -122.5l-98 -612h-336l168 1065h336l-33 -195q19 32 49.5 64t75 65.5t106.5 54.5t129 21z" />
    <glyph glyph-name="ograve" unicode="&#xf2;" horiz-adv-x="1200" 
d="M827 1190l-67 262h-471l237 -262h301zM653 1075q65 0 129 -15.5t126 -50.5t109 -86t76 -128.5t29 -171.5q0 -178 -75.5 -323t-216 -229.5t-320.5 -84.5q-67 0 -131.5 14.5t-127 49.5t-109.5 85.5t-76 129.5t-29 175q0 132 46 249t126.5 202t196 134.5t247.5 49.5z
M801 602q0 99 -49.5 151t-126.5 52q-84 0 -147 -56t-91.5 -134t-28.5 -160q0 -95 49.5 -147t127.5 -52q86 0 148.5 55.5t90 132t27.5 158.5z" />
    <glyph glyph-name="oacute" unicode="&#xf3;" horiz-adv-x="1200" 
d="M537 1190h299l276 262h-467zM653 1075q65 0 129 -15.5t126 -50.5t109 -86t76 -128.5t29 -171.5q0 -178 -75.5 -323t-216 -229.5t-320.5 -84.5q-67 0 -131.5 14.5t-127 49.5t-109.5 85.5t-76 129.5t-29 175q0 132 46 249t126.5 202t196 134.5t247.5 49.5zM801 602
q0 99 -49.5 151t-126.5 52q-84 0 -147 -56t-91.5 -134t-28.5 -160q0 -95 49.5 -147t127.5 -52q86 0 148.5 55.5t90 132t27.5 158.5z" />
    <glyph glyph-name="ocircumflex" unicode="&#xf4;" horiz-adv-x="1200" 
d="M846 1157l-154 154l-209 -154h-266l176 295h625l82 -295h-254zM653 1075q65 0 129 -15.5t126 -50.5t109 -86t76 -128.5t29 -171.5q0 -178 -75.5 -323t-216 -229.5t-320.5 -84.5q-67 0 -131.5 14.5t-127 49.5t-109.5 85.5t-76 129.5t-29 175q0 132 46 249t126.5 202
t196 134.5t247.5 49.5zM801 602q0 99 -49.5 151t-126.5 52q-84 0 -147 -56t-91.5 -134t-28.5 -160q0 -95 49.5 -147t127.5 -52q86 0 148.5 55.5t90 132t27.5 158.5z" />
    <glyph glyph-name="otilde" unicode="&#xf5;" horiz-adv-x="1200" 
d="M991 1434h129q0 -123 -67.5 -203t-194.5 -80q-56 0 -114 25.5t-99 55.5t-96.5 55.5t-106.5 25.5q-28 0 -53 -15t-24 -41h-127q0 123 66.5 203t195.5 80q55 0 112.5 -25.5t98.5 -55.5t96 -55.5t106 -25.5q30 0 54.5 15t23.5 41zM653 1075q65 0 129 -15.5t126 -50.5
t109 -86t76 -128.5t29 -171.5q0 -178 -75.5 -323t-216 -229.5t-320.5 -84.5q-67 0 -131.5 14.5t-127 49.5t-109.5 85.5t-76 129.5t-29 175q0 132 46 249t126.5 202t196 134.5t247.5 49.5zM801 602q0 99 -49.5 151t-126.5 52q-84 0 -147 -56t-91.5 -134t-28.5 -160
q0 -95 49.5 -147t127.5 -52q86 0 148.5 55.5t90 132t27.5 158.5z" />
    <glyph glyph-name="odieresis" unicode="&#xf6;" horiz-adv-x="1200" 
d="M291 1452h340l-37 -235h-340zM782 1452h340l-35 -235h-342zM653 1075q65 0 129 -15.5t126 -50.5t109 -86t76 -128.5t29 -171.5q0 -178 -75.5 -323t-216 -229.5t-320.5 -84.5q-67 0 -131.5 14.5t-127 49.5t-109.5 85.5t-76 129.5t-29 175q0 132 46 249t126.5 202
t196 134.5t247.5 49.5zM801 602q0 99 -49.5 151t-126.5 52q-84 0 -147 -56t-91.5 -134t-28.5 -160q0 -95 49.5 -147t127.5 -52q86 0 148.5 55.5t90 132t27.5 158.5z" />
    <glyph glyph-name="divide" unicode="&#xf7;" horiz-adv-x="940" 
d="M535 778q-68 0 -107 47t-29 119q6 48 46.5 82.5t95.5 34.5q64 0 102.5 -46.5t28.5 -113.5q-5 -51 -45 -87t-92 -36zM90 680h811l-39 -234h-813zM420 68q-68 0 -106.5 46.5t-26.5 116.5q8 48 49.5 82.5t95.5 34.5q65 0 103 -46.5t26 -113.5q-8 -51 -48.5 -85.5
t-92.5 -34.5z" />
    <glyph glyph-name="oslash" unicode="&#xf8;" horiz-adv-x="1200" 
d="M979 961q143 -123 143 -338q0 -178 -75.5 -323t-216 -229.5t-320.5 -84.5q-70 0 -141 18l-68 -106h-276l137 217q-125 122 -125 325q0 132 46 249t126.5 202t196 134.5t247.5 49.5q54 0 113 -12l76 121h278zM358 455q0 -21 2 -29l240 377q-77 -8 -134 -65t-82.5 -131.5
t-25.5 -151.5zM535 256q86 0 148.5 55.5t90 132t27.5 158.5q0 41 -8 68l-265 -414h7z" />
    <glyph glyph-name="ugrave" unicode="&#xf9;" horiz-adv-x="1257" 
d="M874 1190h-301l-237 262h471zM881 1065h338l-168 -1065h-336l28 182q-22 -31 -52.5 -62t-74 -62t-101.5 -50.5t-120 -19.5q-88 0 -154 24t-113.5 76.5t-61.5 137t2 206.5l102 633h336l-103 -633q-13 -87 19.5 -122.5t99.5 -35.5q77 0 155 59t107 113z" />
    <glyph glyph-name="uacute" unicode="&#xfa;" horiz-adv-x="1257" 
d="M1159 1452l-276 -262h-299l108 262h467zM881 1065h338l-168 -1065h-336l28 182q-22 -31 -52.5 -62t-74 -62t-101.5 -50.5t-120 -19.5q-88 0 -154 24t-113.5 76.5t-61.5 137t2 206.5l102 633h336l-103 -633q-13 -87 19.5 -122.5t99.5 -35.5q77 0 155 59t107 113z" />
    <glyph glyph-name="ucircumflex" unicode="&#xfb;" horiz-adv-x="1257" 
d="M739 1311l-209 -154h-266l176 295h625l82 -295h-254zM881 1065h338l-168 -1065h-336l28 182q-22 -31 -52.5 -62t-74 -62t-101.5 -50.5t-120 -19.5q-88 0 -154 24t-113.5 76.5t-61.5 137t2 206.5l102 633h336l-103 -633q-13 -87 19.5 -122.5t99.5 -35.5q77 0 155 59
t107 113z" />
    <glyph glyph-name="udieresis" unicode="&#xfc;" horiz-adv-x="1257" 
d="M678 1452l-37 -235h-340l37 235h340zM1169 1452l-34 -235h-342l36 235h340zM881 1065h338l-168 -1065h-336l28 182q-22 -31 -52.5 -62t-74 -62t-101.5 -50.5t-120 -19.5q-88 0 -154 24t-113.5 76.5t-61.5 137t2 206.5l102 633h336l-103 -633q-13 -87 19.5 -122.5
t99.5 -35.5q77 0 155 59t107 113z" />
    <glyph glyph-name="yacute" unicode="&#xfd;" horiz-adv-x="1202" 
d="M557 1190h299l277 262h-467zM889 1065h346l-619 -1081q-95 -166 -179.5 -252.5t-195 -120t-270.5 -14.5l43 276q58 -6 105.5 0.5t77.5 19.5t55.5 36.5t38.5 43t28 47.5q16 34 18.5 53t-5.5 68l-238 924h332l131 -635z" />
    <glyph glyph-name="thorn" unicode="&#xfe;" horiz-adv-x="1210" 
d="M762 1077q70 0 134 -24.5t119.5 -73.5t88.5 -136t33 -200q0 -124 -38.5 -243t-106 -212t-167 -149.5t-213.5 -56.5q-62 0 -111 14.5t-76 37t-41 41t-19 34.5l-84 -498h-336l291 1823h335l-73 -467q85 110 264 110zM555 252q63 0 113 34.5t78.5 92t43.5 124t15 136.5
q0 168 -141 168q-64 0 -115 -35.5t-81 -93t-46 -122.5t-16 -130q0 -174 149 -174z" />
    <glyph glyph-name="ydieresis" unicode="&#xff;" horiz-adv-x="1202" 
d="M311 1452h340l-37 -235h-340zM803 1452h340l-35 -235h-342zM889 1065h346l-619 -1081q-95 -166 -179.5 -252.5t-195 -120t-270.5 -14.5l43 276q58 -6 105.5 0.5t77.5 19.5t55.5 36.5t38.5 43t28 47.5q16 34 18.5 53t-5.5 68l-238 924h332l131 -635z" />
    <glyph glyph-name="Amacron" unicode="&#x100;" horiz-adv-x="1519" 
d="M1341 1821l-30 -193h-770l28 193h772zM993 0l-41 240h-503l-117 -240h-375l764 1434h330l323 -1434h-381zM575 498h332l-86 503z" />
    <glyph glyph-name="amacron" unicode="&#x101;" horiz-adv-x="1189" 
d="M354 1452h772l-30 -192h-770zM1008 274q-6 -42 10 -62.5t55 -23.5l-33 -180q-56 -16 -125 -16q-104 0 -171.5 45.5t-57.5 112.5l-10 -13q-11 -13 -17.5 -20t-21.5 -22t-29.5 -25.5t-34.5 -24.5t-42.5 -23t-49 -18t-58 -13.5t-65.5 -4.5q-73 0 -134 16t-111 49t-78.5 90.5
t-28.5 134.5q0 87 30.5 152t87.5 106t129 64t165 33q18 2 57.5 6.5t56 6.5t48 6t48 7t39.5 8t40.5 10.5t33.5 12.5q4 45 -6.5 75t-32.5 42.5t-41.5 17t-44.5 4.5q-129 0 -167 -106h-316q38 178 157 266t347 88q266 0 361 -110t61 -340zM463 225q65 0 124 37t91 74l31 166
q-62 -18 -97.5 -25t-134.5 -22q-67 -10 -101 -43.5t-34 -81.5q0 -105 121 -105z" />
    <glyph glyph-name="Abreve" unicode="&#x102;" horiz-adv-x="1519" 
d="M893 1491q-174 0 -257.5 88.5t-57.5 241.5h210q-10 -61 24 -91t103 -30q154 0 175 121h217q-50 -330 -414 -330zM993 0l-41 240h-503l-117 -240h-375l764 1434h330l323 -1434h-381zM575 498h332l-86 503z" />
    <glyph glyph-name="abreve" unicode="&#x103;" horiz-adv-x="1189" 
d="M678 1122q-174 0 -258 88.5t-58 241.5h211q-10 -61 24 -91t103 -30q153 0 174 121h218q-50 -330 -414 -330zM1008 274q-6 -42 10 -62.5t55 -23.5l-33 -180q-56 -16 -125 -16q-104 0 -171.5 45.5t-57.5 112.5l-10 -13q-11 -13 -17.5 -20t-21.5 -22t-29.5 -25.5
t-34.5 -24.5t-42.5 -23t-49 -18t-58 -13.5t-65.5 -4.5q-73 0 -134 16t-111 49t-78.5 90.5t-28.5 134.5q0 87 30.5 152t87.5 106t129 64t165 33q18 2 57.5 6.5t56 6.5t48 6t48 7t39.5 8t40.5 10.5t33.5 12.5q4 45 -6.5 75t-32.5 42.5t-41.5 17t-44.5 4.5q-129 0 -167 -106
h-316q38 178 157 266t347 88q266 0 361 -110t61 -340zM463 225q65 0 124 37t91 74l31 166q-62 -18 -97.5 -25t-134.5 -22q-67 -10 -101 -43.5t-34 -81.5q0 -105 121 -105z" />
    <glyph glyph-name="Aogonek" unicode="&#x104;" horiz-adv-x="1519" 
d="M1253 0q-308 -77 -327 -238q-9 -48 33.5 -52t117.5 28l-2 -148q-41 -21 -94 -34t-109 -17.5t-107.5 5t-90.5 32t-57.5 66t-8.5 102.5q12 73 77.5 131.5t147 89t160.5 35.5l-41 240h-503l-117 -240h-375l764 1434h330l323 -1434h-121zM575 498h332l-86 503z" />
    <glyph glyph-name="aogonek" unicode="&#x105;" horiz-adv-x="1175" 
d="M1073 188l-33 -180q-1 0 -3.5 -1t-4.5 -1h6q-91 -23 -151.5 -52.5t-86.5 -60.5t-35 -54.5t-9 -49.5q0 -58 48 -69.5t120 20.5v-137q-57 -32 -138 -47t-159 -9t-132.5 52.5t-54.5 128.5q0 50 23 94t59.5 75t84 55t95.5 37t95 17h14q-64 19 -98 57t-27 87l-10 -13
q-11 -13 -17.5 -20t-21.5 -22t-29.5 -25.5t-34.5 -24.5t-42.5 -23t-49 -18t-58 -13.5t-65.5 -4.5q-73 0 -134 16t-111 49t-78.5 90.5t-28.5 134.5q0 87 30.5 152t87.5 106t129 64t165 33q18 2 57.5 6.5t56 6.5t48 6t48 7t39.5 8t40.5 10.5t33.5 12.5q4 45 -6.5 75
t-32.5 42.5t-41.5 17t-44.5 4.5q-129 0 -167 -106h-316q38 178 157 266t347 88q266 0 361 -110t61 -340l-51 -351q-6 -42 10 -62.5t55 -23.5zM463 225q65 0 124 37t91 74l31 166q-62 -18 -97.5 -25t-134.5 -22q-67 -10 -101 -43.5t-34 -81.5q0 -105 121 -105z" />
    <glyph glyph-name="Cacute" unicode="&#x106;" horiz-adv-x="1396" 
d="M715 1559h299l276 262h-467zM682 285q108 0 173.5 46.5t111.5 153.5h338q-40 -165 -146 -281t-242 -169t-292 -53q-264 0 -415 147.5t-151 421.5q0 146 34.5 280.5t103 247t163.5 196t223.5 130.5t276.5 47q115 0 212 -31t169 -91.5t108.5 -157.5t26.5 -220h-342
q-12 102 -65.5 149.5t-149.5 47.5q-95 0 -171.5 -51.5t-122.5 -134t-70.5 -179t-24.5 -194.5q0 -148 62.5 -226.5t189.5 -78.5z" />
    <glyph glyph-name="cacute" unicode="&#x107;" horiz-adv-x="1110" 
d="M483 1190h299l277 262h-467zM514 256q148 0 197 131h303q-124 -401 -529 -401q-67 0 -130 14.5t-122 47t-103 81t-70.5 122t-26.5 163.5q0 188 74.5 338.5t212.5 236.5t315 86q64 0 120 -10.5t111 -39t95 -72.5t65 -116t27 -165h-295q-2 66 -32.5 99.5t-107.5 33.5
q-81 0 -141.5 -59t-88.5 -144.5t-28 -181.5q0 -75 41 -119.5t113 -44.5z" />
    <glyph glyph-name="Cdotaccent" unicode="&#x10a;" horiz-adv-x="1396" 
d="M737 1821h340l-37 -236h-340zM682 285q108 0 173.5 46.5t111.5 153.5h338q-40 -165 -146 -281t-242 -169t-292 -53q-264 0 -415 147.5t-151 421.5q0 146 34.5 280.5t103 247t163.5 196t223.5 130.5t276.5 47q115 0 212 -31t169 -91.5t108.5 -157.5t26.5 -220h-342
q-12 102 -65.5 149.5t-149.5 47.5q-95 0 -171.5 -51.5t-122.5 -134t-70.5 -179t-24.5 -194.5q0 -148 62.5 -226.5t189.5 -78.5z" />
    <glyph glyph-name="cdotaccent" unicode="&#x10b;" horiz-adv-x="1110" 
d="M506 1452h340l-37 -235h-340zM514 256q148 0 197 131h303q-124 -401 -529 -401q-67 0 -130 14.5t-122 47t-103 81t-70.5 122t-26.5 163.5q0 188 74.5 338.5t212.5 236.5t315 86q64 0 120 -10.5t111 -39t95 -72.5t65 -116t27 -165h-295q-2 66 -32.5 99.5t-107.5 33.5
q-81 0 -141.5 -59t-88.5 -144.5t-28 -181.5q0 -75 41 -119.5t113 -44.5z" />
    <glyph glyph-name="Ccaron" unicode="&#x10c;" horiz-adv-x="1396" 
d="M1069 1821h266l-174 -295h-624l-84 295h256l155 -154zM682 285q108 0 173.5 46.5t111.5 153.5h338q-40 -165 -146 -281t-242 -169t-292 -53q-264 0 -415 147.5t-151 421.5q0 146 34.5 280.5t103 247t163.5 196t223.5 130.5t276.5 47q115 0 212 -31t169 -91.5
t108.5 -157.5t26.5 -220h-342q-12 102 -65.5 149.5t-149.5 47.5q-95 0 -171.5 -51.5t-122.5 -134t-70.5 -179t-24.5 -194.5q0 -148 62.5 -226.5t189.5 -78.5z" />
    <glyph glyph-name="ccaron" unicode="&#x10d;" horiz-adv-x="1110" 
d="M838 1452h266l-174 -295h-625l-84 295h256l156 -154zM514 256q148 0 197 131h303q-124 -401 -529 -401q-67 0 -130 14.5t-122 47t-103 81t-70.5 122t-26.5 163.5q0 188 74.5 338.5t212.5 236.5t315 86q64 0 120 -10.5t111 -39t95 -72.5t65 -116t27 -165h-295
q-2 66 -32.5 99.5t-107.5 33.5q-81 0 -141.5 -59t-88.5 -144.5t-28 -181.5q0 -75 41 -119.5t113 -44.5z" />
    <glyph glyph-name="Dcaron" unicode="&#x10e;" horiz-adv-x="1429" 
d="M1042 1821h267l-174 -295h-625l-84 295h256l156 -154zM811 1434q281 0 431.5 -148.5t150.5 -437.5q0 -254 -90 -444t-269.5 -297t-429.5 -107h-584l226 1434h565zM606 319q113 0 199.5 42t138 115.5t77.5 166.5t26 203q0 147 -69.5 207.5t-227.5 60.5h-199l-127 -795h182
z" />
    <glyph glyph-name="dcaron" unicode="&#x10f;" horiz-adv-x="1599" 
d="M907 1434h338l-229 -1434h-336l16 121q-1 -1 -12 -15t-16.5 -20.5t-21 -21.5t-28 -23.5t-33.5 -20.5t-42.5 -18t-50.5 -11t-60 -5q-73 0 -141 25t-127.5 75.5t-95 139.5t-35.5 204q0 99 25.5 194.5t74 176.5t113.5 142.5t149.5 96.5t177.5 35q63 0 113.5 -16.5t78.5 -41
t42.5 -46.5t17.5 -39zM1378 1434h377l-270 -304h-254zM528 256q63 0 114.5 34.5t82 89.5t47 118.5t16.5 126.5q0 86 -38.5 133t-116.5 47q-124 0 -197.5 -105.5t-73.5 -257.5q0 -91 48 -138.5t118 -47.5z" />
    <glyph glyph-name="Dcroat" unicode="&#x110;" horiz-adv-x="1501" 
d="M883 1434q281 0 431 -148.5t150 -437.5q0 -190 -52 -346t-150.5 -267.5t-248 -173t-337.5 -61.5h-584l92 586h-127l41 233h123l96 615h566zM678 319q113 0 199.5 42t138 115.5t77 166.5t25.5 203q0 147 -69.5 207.5t-227.5 60.5h-198l-48 -295h277l-41 -233h-272
l-43 -267h182z" />
    <glyph glyph-name="dcroat" unicode="&#x111;" horiz-adv-x="1253" 
d="M1358 1321l-31 -193h-131l-180 -1128h-336l16 121q-1 -1 -12 -15t-16.5 -20.5t-21 -21.5t-28 -23.5t-33.5 -20.5t-42.5 -18t-50.5 -11t-60 -5q-73 0 -141 25t-127.5 75.5t-95 139.5t-35.5 204q0 99 25.5 194.5t74 176.5t113.5 142.5t149.5 96.5t177.5 35
q63 0 113.5 -16.5t78.5 -41t42.5 -46.5t17.5 -39l33 196h-264l31 193h264l18 113h338l-18 -113h131zM528 256q63 0 114.5 34.5t82 89.5t47 118.5t16.5 126.5q0 86 -38.5 133t-116.5 47q-124 0 -197.5 -105.5t-73.5 -257.5q0 -91 48 -138.5t118 -47.5z" />
    <glyph glyph-name="Emacron" unicode="&#x112;" horiz-adv-x="1220" 
d="M461 1821h772l-31 -193h-770zM1225 1130h-676l-43 -266h573l-45 -280h-573l-41 -281h694l-47 -303h-1049l228 1434h1028z" />
    <glyph glyph-name="emacron" unicode="&#x113;" horiz-adv-x="1165" 
d="M358 1452h772l-30 -192h-770zM641 1075q92 0 170.5 -25t142 -76t100 -140t36.5 -207q0 -41 -7.5 -104t-17.5 -97h-719q6 -193 195 -193q116 0 174 78h307q-133 -325 -524 -325q-84 0 -164 25.5t-148.5 77t-110.5 140.5t-42 203q0 181 78.5 328.5t218 231t311.5 83.5z
M776 627q6 18 6 53q0 62 -44.5 104.5t-119.5 42.5q-182 0 -245 -200h403z" />
    <glyph glyph-name="Edotaccent" unicode="&#x116;" horiz-adv-x="1220" 
d="M664 1821h340l-37 -236h-340zM1225 1130h-676l-43 -266h573l-45 -280h-573l-41 -281h694l-47 -303h-1049l228 1434h1028z" />
    <glyph glyph-name="edotaccent" unicode="&#x117;" horiz-adv-x="1165" 
d="M901 1452l-37 -235h-340l37 235h340zM1090 627q0 -41 -7.5 -104t-17.5 -97h-719q6 -193 195 -193q116 0 174 78h307q-133 -325 -524 -325q-84 0 -164 25.5t-148.5 77t-110.5 140.5t-42 203q0 181 78.5 328.5t218 231t311.5 83.5q92 0 170.5 -25t142 -76t100 -140
t36.5 -207zM776 627q6 18 6 53q0 62 -44.5 104.5t-119.5 42.5q-182 0 -245 -200h403z" />
    <glyph glyph-name="Eogonek" unicode="&#x118;" horiz-adv-x="1232" 
d="M1225 1130h-676l-43 -266h573l-45 -280h-573l-41 -281h694l-47 -303h10q-76 -18 -134 -42.5t-91 -48.5t-55.5 -52.5t-31 -49.5t-13.5 -45q-10 -48 32.5 -52t116.5 28l-2 -148q-34 -18 -78.5 -30.5t-92 -18t-94 -3.5t-87 15.5t-69.5 37t-42 63t-4 90.5q10 54 52 102.5
t97.5 80t111.5 50.5t100 23h-775l228 1434h1028z" />
    <glyph glyph-name="eogonek" unicode="&#x119;" horiz-adv-x="1153" 
d="M637 1077q96 0 174.5 -26.5t139 -80t93.5 -141.5t33 -204q0 -81 -14 -152l-8 -45h-699q1 -94 44 -135t130 -41q55 0 108 23.5t75 56.5h319q-61 -136 -144.5 -215t-199.5 -111h12q-76 -18 -134.5 -42t-92.5 -48t-56.5 -51t-31 -49t-10.5 -45q-9 -47 33 -51t116 26l-2 -147
q-49 -25 -114 -40t-131.5 -13t-121 21t-83.5 66.5t-17 118.5q16 89 102.5 154t196.5 92q-65 17 -120.5 50t-101.5 84.5t-72.5 128t-26.5 169.5q0 182 77.5 330t216 232.5t310.5 84.5zM621 807q-160 0 -226 -158h363q-2 88 -29 123t-108 35z" />
    <glyph glyph-name="Ecaron" unicode="&#x11a;" horiz-adv-x="1220" 
d="M995 1821h267l-175 -295h-624l-84 295h256l156 -154zM1225 1130h-676l-43 -266h573l-45 -280h-573l-41 -281h694l-47 -303h-1049l228 1434h1028z" />
    <glyph glyph-name="ecaron" unicode="&#x11b;" horiz-adv-x="1153" 
d="M973 1139h-625l-82 295h254l156 -154l205 154h268zM637 1077q96 0 174.5 -26.5t139 -80t93.5 -141.5t33 -204q0 -81 -14 -152l-8 -45h-699q1 -94 44 -135t130 -41q55 0 108 23.5t75 56.5h319q-85 -187 -215 -268.5t-332 -81.5q-64 0 -126 15t-121.5 49.5t-104.5 84.5
t-72.5 127.5t-27.5 171.5q0 182 77.5 330t216 232.5t310.5 84.5zM621 807q-160 0 -226 -158h363q-2 88 -29 123t-108 35z" />
    <glyph glyph-name="Gbreve" unicode="&#x11e;" horiz-adv-x="1437" 
d="M1079 1821h217q-50 -330 -413 -330q-174 0 -258 88.5t-58 241.5h211q-10 -61 24 -91t103 -30q153 0 174 121zM807 801h588l-17 -101q-29 -179 -83.5 -310t-142 -223.5t-214 -138.5t-293.5 -46q-277 0 -431.5 145.5t-154.5 415.5q0 147 35 283t103.5 249.5t164 198
t223.5 131.5t275 47q115 0 212 -31t169 -91.5t108.5 -157.5t26.5 -220h-342q-12 102 -65.5 149.5t-149.5 47.5q-92 0 -168 -51t-123 -134t-72.5 -182t-25.5 -200q0 -142 64.5 -219.5t197.5 -77.5q141 0 225.5 54.5t122.5 186.5h-280z" />
    <glyph glyph-name="gbreve" unicode="&#x11f;" horiz-adv-x="1222" 
d="M733 1122q-174 0 -257.5 88.5t-57.5 241.5h211q-10 -61 24 -91t103 -30q153 0 174 121h217q-50 -330 -414 -330zM850 1065h334l-164 -1026q-13 -88 -43.5 -160.5t-69.5 -122.5t-90.5 -88t-101.5 -60t-107.5 -36t-103.5 -18.5t-94 -4.5q-174 0 -288 72t-155 184l217 109
q54 -92 228 -92q126 0 187.5 56.5t86.5 184.5l12 58q-1 -1 -14 -17t-21.5 -24t-26 -24.5t-36 -26t-44 -20.5t-57 -16t-67.5 -5q-58 0 -113 14.5t-107.5 48.5t-91.5 84t-63 126t-24 169q0 119 40.5 235t110 207t172 147t217.5 56q65 0 117 -17t80.5 -42t43 -47t17.5 -39z
M528 258q63 0 114.5 35t82 90.5t47 118.5t16.5 125q0 84 -38 131t-115 47q-83 0 -147 -57.5t-95 -140t-31 -169.5q0 -88 48 -134t118 -46z" />
    <glyph glyph-name="Gdotaccent" unicode="&#x120;" horiz-adv-x="1437" 
d="M762 1821h340l-37 -236h-340zM807 801h588l-17 -101q-29 -179 -83.5 -310t-142 -223.5t-214 -138.5t-293.5 -46q-277 0 -431.5 145.5t-154.5 415.5q0 147 35 283t103.5 249.5t164 198t223.5 131.5t275 47q115 0 212 -31t169 -91.5t108.5 -157.5t26.5 -220h-342
q-12 102 -65.5 149.5t-149.5 47.5q-92 0 -168 -51t-123 -134t-72.5 -182t-25.5 -200q0 -142 64.5 -219.5t197.5 -77.5q141 0 225.5 54.5t122.5 186.5h-280z" />
    <glyph glyph-name="gdotaccent" unicode="&#x121;" horiz-adv-x="1222" 
d="M952 1452l-37 -235h-340l37 235h340zM850 1065h334l-164 -1026q-13 -88 -43.5 -160.5t-69.5 -122.5t-90.5 -88t-101.5 -60t-107.5 -36t-103.5 -18.5t-94 -4.5q-174 0 -288 72t-155 184l217 109q54 -92 228 -92q126 0 187.5 56.5t86.5 184.5l12 58q-1 -1 -14 -17
t-21.5 -24t-26 -24.5t-36 -26t-44 -20.5t-57 -16t-67.5 -5q-58 0 -113 14.5t-107.5 48.5t-91.5 84t-63 126t-24 169q0 119 40.5 235t110 207t172 147t217.5 56q65 0 117 -17t80.5 -42t43 -47t17.5 -39zM528 258q63 0 114.5 35t82 90.5t47 118.5t16.5 125q0 84 -38 131
t-115 47q-83 0 -147 -57.5t-95 -140t-31 -169.5q0 -88 48 -134t118 -46z" />
    <glyph glyph-name="Gcommaaccent" unicode="&#x122;" horiz-adv-x="1437" 
d="M807 801h588l-17 -101q-29 -179 -83.5 -310t-142 -223.5t-214 -138.5t-293.5 -46q-277 0 -431.5 145.5t-154.5 415.5q0 147 35 283t103.5 249.5t164 198t223.5 131.5t275 47q115 0 212 -31t169 -91.5t108.5 -157.5t26.5 -220h-342q-12 102 -65.5 149.5t-149.5 47.5
q-92 0 -168 -51t-123 -134t-72.5 -182t-25.5 -200q0 -142 64.5 -219.5t197.5 -77.5q141 0 225.5 54.5t122.5 186.5h-280zM336 -831l16 100q71 13 113 65.5t53 122.5l12 66h-137l58 375h358l-53 -340q-15 -103 -48.5 -177t-72.5 -114t-94 -63t-100 -29t-105 -6z" />
    <glyph glyph-name="gcommaaccent" unicode="&#x123;" horiz-adv-x="1222" 
d="M776 1604l-57 -375h-359l54 340q15 103 48.5 177t72.5 114t94 63t100 29t105 6l-17 -100q-70 -13 -112 -65.5t-54 -123.5l-12 -65h137zM850 1065h334l-164 -1026q-13 -88 -43.5 -160.5t-69.5 -122.5t-90.5 -88t-101.5 -60t-107.5 -36t-103.5 -18.5t-94 -4.5
q-174 0 -288 72t-155 184l217 109q54 -92 228 -92q126 0 187.5 56.5t86.5 184.5l12 58q-1 -1 -14 -17t-21.5 -24t-26 -24.5t-36 -26t-44 -20.5t-57 -16t-67.5 -5q-58 0 -113 14.5t-107.5 48.5t-91.5 84t-63 126t-24 169q0 119 40.5 235t110 207t172 147t217.5 56
q65 0 117 -17t80.5 -42t43 -47t17.5 -39zM528 258q63 0 114.5 35t82 90.5t47 118.5t16.5 125q0 84 -38 131t-115 47q-83 0 -147 -57.5t-95 -140t-31 -169.5q0 -88 48 -134t118 -46z" />
    <glyph glyph-name="Hbar" unicode="&#x126;" horiz-adv-x="1431" 
d="M1092 1434h350l-228 -1434h-350l92 578h-493l-92 -578h-353l228 1434h352l-33 -213h494zM508 862h493l13 82h-494z" />
    <glyph glyph-name="hbar" unicode="&#x127;" horiz-adv-x="1363" 
d="M942 1075q85 0 148.5 -23t110 -75.5t59.5 -137t-3 -206.5l-98 -633h-336l103 635q11 84 -24 124t-105 40q-94 0 -165 -63t-87 -120l-99 -616h-335l170 1077h-164l28 180h162l29 177h336l-29 -177h150l-29 -180h-150l-32 -200q19 31 49.5 62t75 63.5t106.5 52.5t129 20z
" />
    <glyph glyph-name="Imacron" unicode="&#x12a;" horiz-adv-x="589" 
d="M119 1821h772l-31 -193h-770zM373 0h-353l226 1434h352z" />
    <glyph glyph-name="imacron" unicode="&#x12b;" horiz-adv-x="532" 
d="M35 1452h772l-31 -192h-770zM176 1065h336l-168 -1065h-336z" />
    <glyph glyph-name="Iogonek" unicode="&#x12e;" horiz-adv-x="643" 
d="M287 1434h364l-225 -1434h-104q-94 -23 -160.5 -54.5t-100.5 -64.5t-49 -61.5t-18 -57.5q-9 -48 33.5 -52t117.5 28l-2 -148q-63 -32 -147.5 -44.5t-163 -2.5t-125.5 61.5t-33 139.5q13 73 79 131.5t147.5 89t160.5 35.5z" />
    <glyph glyph-name="iogonek" unicode="&#x12f;" horiz-adv-x="753" 
d="M457 1452h340l-39 -235h-340zM150 0l167 1065h336l-168 -1065h-77q-304 -76 -328 -238q-9 -48 34 -52t117 28l-2 -148q-41 -21 -94 -34t-109 -17.5t-107.5 5t-90.5 32t-57.5 66t-8.5 102.5q13 73 78.5 131.5t147.5 89t162 35.5z" />
    <glyph glyph-name="Idotaccent" unicode="&#x130;" horiz-adv-x="589" 
d="M322 1821h340l-37 -236h-340zM373 0h-353l226 1434h352z" />
    <glyph glyph-name="dotlessi" unicode="&#x131;" horiz-adv-x="532" 
d="M176 1065h336l-168 -1065h-336z" />
    <glyph glyph-name="IJ" unicode="&#x132;" horiz-adv-x="1671" 
d="M373 0h-353l226 1434h352zM731 397q21 -22 35 -34.5t43 -32t67.5 -29.5t84.5 -10q41 0 72 8t63 29.5t54.5 67.5t33.5 114l145 924h352l-149 -942q-20 -131 -73 -229.5t-131 -158t-172 -89t-204 -29.5q-295 0 -438 194z" />
    <glyph glyph-name="Kcommaaccent" unicode="&#x136;" horiz-adv-x="1488" 
d="M1526 1434l-641 -641l469 -793h-385l-318 555v4l-229 -231l-51 -328h-353l228 1434h352l-102 -643l634 643h396zM442 -459l64 393h414l-58 -366q-16 -103 -55.5 -177.5t-85 -113.5t-108 -61t-111.5 -26.5t-109 -2.5l-2 102q66 10 108 66t54 129l10 57h-121z" />
    <glyph glyph-name="kcommaaccent" unicode="&#x137;" horiz-adv-x="1232" 
d="M1241 1065l-512 -457l399 -608h-358l-268 403l-107 -96l-49 -307h-336l226 1434h335l-110 -709l375 340h405zM301 -477l57 375h359l-53 -340q-15 -103 -48.5 -177t-72.5 -114t-94 -63t-100 -29t-105 -6l16 100q71 13 113 65.5t53 122.5l12 66h-137z" />
    <glyph glyph-name="Lacute" unicode="&#x139;" 
d="M279 1559h299l276 262h-467zM418 303h631l-48 -303h-983l228 1434h352z" />
    <glyph glyph-name="lacute" unicode="&#x13a;" horiz-adv-x="542" 
d="M250 1559h299l276 262h-465zM217 1434h336l-225 -1434h-338z" />
    <glyph glyph-name="Lcommaaccent" unicode="&#x13b;" 
d="M418 303h631l-48 -303h-983l228 1434h352zM219 -831l17 100q70 13 111.5 65t53.5 123l13 66h-138l58 375h358l-53 -340q-15 -103 -48.5 -177t-72.5 -114t-94 -63t-100 -29t-105 -6z" />
    <glyph glyph-name="lcommaaccent" unicode="&#x13c;" horiz-adv-x="638" 
d="M283 1434h335l-225 -1434h-336zM-102 -813l-4 102q67 10 109 66t54 129l11 57h-123l63 393h414l-57 -366q-16 -103 -55.5 -177.5t-85 -113.5t-107.5 -61t-111 -26.5t-108 -2.5z" />
    <glyph glyph-name="Lcaron" unicode="&#x13d;" 
d="M418 303h631l-48 -303h-983l228 1434h352zM659 686l-6 102q67 11 111 67.5t55 127.5l8 57h-120l61 394h414l-56 -367q-12 -74 -36 -134t-53 -99.5t-67 -68.5t-74.5 -44.5t-81 -24t-79.5 -10t-76 -0.5z" />
    <glyph glyph-name="lcaron" unicode="&#x13e;" horiz-adv-x="1009" 
d="M236 1434h335l-225 -1434h-336zM600 686l-4 102q66 11 110 68t54 127l6 57h-121l62 394h413l-57 -367q-16 -103 -55 -177.5t-84 -113.5t-106.5 -61t-110 -26.5t-107.5 -2.5z" />
    <glyph glyph-name="Lslash" unicode="&#x141;" horiz-adv-x="1232" 
d="M453 303h630l-47 -303h-983l58 365l-144 -119l49 340l150 125l115 723h352l-62 -385l201 168h4l-45 -336l-215 -179z" />
    <glyph glyph-name="lslash" unicode="&#x142;" horiz-adv-x="624" 
d="M670 1174l-45 -316l-127 -115l-117 -743h-336l61 389l-104 -94l43 321l113 101l112 717h336l-57 -369z" />
    <glyph glyph-name="Nacute" unicode="&#x143;" horiz-adv-x="1470" 
d="M756 1559h299l276 262h-467zM1481 1434l-228 -1434h-360l-383 844h-6l-133 -844h-353l228 1434h346l393 -869h8l135 869h353z" />
    <glyph glyph-name="nacute" unicode="&#x144;" horiz-adv-x="1253" 
d="M588 1190h299l276 262h-467zM829 1075q85 0 149 -24t110.5 -77t59.5 -138t-3 -207l-98 -629h-336l102 631q14 86 -22 127t-107 41q-94 0 -165 -64.5t-87 -122.5l-98 -612h-336l168 1065h336l-33 -195q19 32 49.5 64t75 65.5t106.5 54.5t129 21z" />
    <glyph glyph-name="Ncommaaccent" unicode="&#x145;" horiz-adv-x="1470" 
d="M1481 1434l-228 -1434h-360l-383 844h-6l-133 -844h-353l228 1434h346l393 -869h8l135 869h353zM352 -831l17 100q71 13 113 65.5t53 122.5l12 66h-137l57 375h358l-53 -340q-15 -103 -48.5 -177t-72.5 -114t-94 -63t-100 -29t-105 -6z" />
    <glyph glyph-name="ncommaaccent" unicode="&#x146;" horiz-adv-x="1253" 
d="M829 1075q85 0 149 -24t110.5 -77t59.5 -138t-3 -207l-98 -629h-336l102 631q14 86 -22 127t-107 41q-94 0 -165 -64.5t-87 -122.5l-98 -612h-336l168 1065h336l-33 -195q19 32 49.5 64t75 65.5t106.5 54.5t129 21zM244 -831l16 100q71 13 113 65.5t53 122.5l12 66h-137
l57 375h359l-53 -340q-15 -103 -48.5 -177t-72.5 -114t-94 -63t-100 -29t-105 -6z" />
    <glyph glyph-name="Ncaron" unicode="&#x147;" horiz-adv-x="1470" 
d="M1110 1821h266l-174 -295h-624l-84 295h256l155 -154zM1481 1434l-228 -1434h-360l-383 844h-6l-133 -844h-353l228 1434h346l393 -869h8l135 869h353z" />
    <glyph glyph-name="ncaron" unicode="&#x148;" horiz-adv-x="1253" 
d="M942 1452h266l-174 -295h-624l-84 295h256l155 -154zM829 1075q85 0 149 -24t110.5 -77t59.5 -138t-3 -207l-98 -629h-336l102 631q14 86 -22 127t-107 41q-94 0 -165 -64.5t-87 -122.5l-98 -612h-336l168 1065h336l-33 -195q19 32 49.5 64t75 65.5t106.5 54.5t129 21z
" />
    <glyph glyph-name="Eng" unicode="&#x14a;" horiz-adv-x="1470" 
d="M1128 1434h353l-219 -1379q-41 -256 -197 -381t-383 -125q-295 0 -438 195l219 217q26 -29 46.5 -47t71 -38.5t111.5 -20.5q73 0 124 28t79 109l-385 852h-6l-133 -844h-353l228 1434h346l393 -869h10l64 432z" />
    <glyph glyph-name="eng" unicode="&#x14b;" horiz-adv-x="1253" 
d="M829 1079q85 0 149 -24t110.5 -77t59.5 -138t-3 -207l-121 -756q-25 -165 -120.5 -246.5t-241.5 -81.5q-157 0 -246 52l47 268q53 -27 127 -27q32 0 53.5 10.5t34.5 35t20 50.5t15 72l100 625q14 86 -22 127t-107 41q-94 0 -165 -64.5t-87 -122.5l-98 -616h-336l168 1065
h336l-33 -188q19 31 49.5 62.5t75 64.5t106.5 54t129 21z" />
    <glyph glyph-name="Omacron" unicode="&#x14c;" horiz-adv-x="1507" 
d="M596 1821h772l-31 -193h-770zM881 1452q274 0 429.5 -151.5t155.5 -421.5q0 -184 -59 -347.5t-164 -285.5t-260.5 -193t-337.5 -71q-271 0 -428.5 152t-157.5 419q0 187 58.5 351.5t163.5 285.5t260.5 191.5t339.5 70.5zM692 283q79 0 146 32t114.5 86.5t81.5 127
t50 153.5t16 166q0 144 -67.5 223.5t-198.5 79.5q-99 0 -178.5 -49t-128 -130.5t-74 -180.5t-25.5 -205q0 -142 68 -222.5t196 -80.5z" />
    <glyph glyph-name="omacron" unicode="&#x14d;" horiz-adv-x="1200" 
d="M356 1452h772l-30 -192h-770zM653 1075q65 0 129 -15.5t126 -50.5t109 -86t76 -128.5t29 -171.5q0 -178 -75.5 -323t-216 -229.5t-320.5 -84.5q-67 0 -131.5 14.5t-127 49.5t-109.5 85.5t-76 129.5t-29 175q0 132 46 249t126.5 202t196 134.5t247.5 49.5zM801 602
q0 99 -49.5 151t-126.5 52q-84 0 -147 -56t-91.5 -134t-28.5 -160q0 -95 49.5 -147t127.5 -52q86 0 148.5 55.5t90 132t27.5 158.5z" />
    <glyph glyph-name="Ohungarumlaut" unicode="&#x150;" horiz-adv-x="1507" 
d="M1157 1792l-211 -233h-301l68 262h923l-235 -262h-303zM881 1452q274 0 429.5 -151.5t155.5 -421.5q0 -184 -59 -347.5t-164 -285.5t-260.5 -193t-337.5 -71q-271 0 -428.5 152t-157.5 419q0 187 58.5 351.5t163.5 285.5t260.5 191.5t339.5 70.5zM692 283q79 0 146 32
t114.5 86.5t81.5 127t50 153.5t16 166q0 144 -67.5 223.5t-198.5 79.5q-99 0 -178.5 -49t-128 -130.5t-74 -180.5t-25.5 -205q0 -142 68 -222.5t196 -80.5z" />
    <glyph glyph-name="ohungarumlaut" unicode="&#x151;" horiz-adv-x="1200" 
d="M1397 1452l-236 -262h-303l60 233l-211 -233h-301l67 262h924zM653 1075q65 0 129 -15.5t126 -50.5t109 -86t76 -128.5t29 -171.5q0 -178 -75.5 -323t-216 -229.5t-320.5 -84.5q-67 0 -131.5 14.5t-127 49.5t-109.5 85.5t-76 129.5t-29 175q0 132 46 249t126.5 202
t196 134.5t247.5 49.5zM535 256q86 0 148.5 55.5t90 132t27.5 158.5q0 99 -49.5 151t-126.5 52q-84 0 -147 -56t-91.5 -134t-28.5 -160q0 -95 49.5 -147t127.5 -52z" />
    <glyph glyph-name="OE" unicode="&#x152;" horiz-adv-x="2189" 
d="M2193 1130h-675l-43 -266h573l-45 -280h-573l-41 -281h694l-47 -303h-1049l10 59q-157 -77 -352 -77q-271 0 -428.5 152t-157.5 419q0 187 58.5 351.5t163.5 285.5t260.5 191.5t339.5 70.5q183 0 325 -74l8 56h1029zM692 283q79 0 146 32t114.5 86.5t81.5 127t50 153.5
t16 166q0 144 -67.5 223.5t-198.5 79.5q-99 0 -178.5 -49t-128 -130.5t-74 -180.5t-25.5 -205q0 -142 68 -222.5t196 -80.5z" />
    <glyph glyph-name="oe" unicode="&#x153;" horiz-adv-x="1912" 
d="M1812 426h-716q0 -1 -1 -3t-1 -3q8 -187 194 -187q116 0 174 78h307q-133 -325 -524 -325q-96 0 -188 33.5t-158 99.5q-161 -133 -389 -133q-67 0 -131.5 14.5t-127 49.5t-109.5 85.5t-76 129.5t-29 175q0 132 46 249t126.5 202t196 134.5t247.5 49.5q95 0 188.5 -34
t162.5 -103q162 137 385 137q73 0 137.5 -15t122 -49t99 -85t65.5 -127.5t24 -171.5q0 -41 -7.5 -104t-17.5 -97zM1366 827q-181 0 -244 -196v-4h402q6 18 6 53q0 62 -44.5 104.5t-119.5 42.5zM535 256q93 0 155.5 60.5t89.5 154.5q6 71 21 135q-1 97 -50 148t-126 51
q-84 0 -147 -56t-91.5 -134t-28.5 -160q0 -95 49.5 -147t127.5 -52z" />
    <glyph glyph-name="Racute" unicode="&#x154;" horiz-adv-x="1413" 
d="M1317 1821l-277 -262h-299l109 262h467zM1096 659q103 -49 141.5 -103.5t38.5 -135.5q0 -30 -16.5 -155.5t-16.5 -162.5q0 -61 14 -102h-348q-16 35 -16 106q0 45 14.5 146t14.5 117q0 58 -42.5 95.5t-117.5 37.5h-311l-80 -502h-353l228 1434h635q246 0 365.5 -98.5
t119.5 -262.5q0 -148 -63.5 -246t-206.5 -168zM764 778q118 0 174.5 57t56.5 160q0 67 -43.5 101t-124.5 34h-278l-55 -352h270z" />
    <glyph glyph-name="racute" unicode="&#x155;" horiz-adv-x="876" 
d="M983 1452l-276 -262h-299l108 262h467zM463 817q40 121 124 189.5t210 68.5q58 0 110 -12l-51 -293q-37 2 -70 2q-111 1 -187 -32t-116.5 -87.5t-66.5 -138.5l-82 -514h-336l168 1065h336z" />
    <glyph glyph-name="Rcommaaccent" unicode="&#x156;" horiz-adv-x="1413" 
d="M1096 659q103 -49 141.5 -103.5t38.5 -135.5q0 -30 -16.5 -155.5t-16.5 -162.5q0 -61 14 -102h-348q-16 35 -16 106q0 45 14.5 146t14.5 117q0 58 -42.5 95.5t-117.5 37.5h-311l-80 -502h-353l228 1434h635q246 0 365.5 -98.5t119.5 -262.5q0 -148 -63.5 -246
t-206.5 -168zM764 778q118 0 174.5 57t56.5 160q0 67 -43.5 101t-124.5 34h-278l-55 -352h270zM395 -477l58 375h358l-53 -340q-15 -103 -48.5 -177t-72.5 -114t-94 -63t-100 -29t-105 -6l16 100q71 13 113 65.5t53 122.5l12 66h-137z" />
    <glyph glyph-name="rcommaaccent" unicode="&#x157;" horiz-adv-x="876" 
d="M797 1075q58 0 110 -12l-51 -293q-37 2 -70 2q-111 1 -187 -32t-116.5 -87.5t-66.5 -138.5l-82 -514h-336l168 1065h336l-39 -248q40 121 124 189.5t210 68.5zM-86 -477l57 375h359l-54 -340q-15 -103 -48.5 -177t-72 -114t-93.5 -63t-100 -29t-105 -6l16 100
q71 13 113 65.5t53 122.5l12 66h-137z" />
    <glyph glyph-name="Rcaron" unicode="&#x158;" horiz-adv-x="1413" 
d="M1188 1526h-625l-84 295h256l156 -154l205 154h266zM1096 659q103 -49 141.5 -103.5t38.5 -135.5q0 -30 -16.5 -155.5t-16.5 -162.5q0 -61 14 -102h-348q-16 35 -16 106q0 45 14.5 146t14.5 117q0 58 -42.5 95.5t-117.5 37.5h-311l-80 -502h-353l228 1434h635
q246 0 365.5 -98.5t119.5 -262.5q0 -148 -63.5 -246t-206.5 -168zM764 778q118 0 174.5 57t56.5 160q0 67 -43.5 101t-124.5 34h-278l-55 -352h270z" />
    <glyph glyph-name="rcaron" unicode="&#x159;" horiz-adv-x="876" 
d="M854 1157h-625l-84 295h256l156 -154l205 154h266zM463 817q40 121 124 189.5t210 68.5q58 0 110 -12l-51 -293q-37 2 -70 2q-111 1 -187 -32t-116.5 -87.5t-66.5 -138.5l-82 -514h-336l168 1065h336z" />
    <glyph glyph-name="Sacute" unicode="&#x15a;" horiz-adv-x="1378" 
d="M692 1559h299l277 262h-467zM870 846q212 -40 307 -126t95 -247q0 -160 -84 -272t-227 -165.5t-334 -53.5q-128 0 -235 32.5t-184.5 94t-115.5 157.5t-26 217h364q4 -215 225 -215q117 0 178.5 46t61.5 126q0 53 -36 87.5t-124 50.5l-178 30q-82 16 -147.5 44.5
t-118.5 72.5t-82 109t-29 147q0 151 82.5 259t219.5 160t313 52q263 0 404 -115.5t120 -339.5h-363q4 87 -44.5 126.5t-143.5 39.5q-98 0 -158.5 -38.5t-60.5 -114.5q0 -41 28 -78t95 -49z" />
    <glyph glyph-name="sacute" unicode="&#x15b;" horiz-adv-x="1071" 
d="M483 1190h299l277 262h-467zM705 721q-4 58 -41.5 82t-106.5 24q-61 0 -104 -25t-43 -73q0 -57 73 -76l176 -43q45 -11 69.5 -17t61 -18t56.5 -23.5t44.5 -30t36.5 -40t20.5 -52t8.5 -67.5q0 -179 -141.5 -277.5t-380.5 -98.5q-220 0 -332.5 90.5t-109.5 267.5h303
q20 -115 164 -115q76 0 117.5 32t41.5 73q0 27 -15.5 45.5t-57.5 26.5l-154 34q-163 37 -234 108.5t-71 178.5q0 159 135 253.5t352 94.5q112 0 195 -26t132 -74.5t72.5 -111.5t22.5 -142h-290z" />
    <glyph glyph-name="Scedilla" unicode="&#x15e;" horiz-adv-x="1378" 
d="M1319 997h-363q4 87 -44.5 126.5t-143.5 39.5q-98 0 -158.5 -38.5t-60.5 -114.5q0 -41 28 -78t95 -49l198 -37q212 -40 307 -126t95 -247q0 -215 -144 -338.5t-389 -146.5l-106 -113q88 -3 147.5 -52t59.5 -136q0 -48 -15.5 -84t-47 -59.5t-69 -39t-91.5 -23
t-104.5 -10.5t-117.5 -3v133q97 0 144 17t47 60q0 39 -40.5 49t-78.5 -24l-8 -10l-80 129l96 172q-203 35 -316 161t-93 328h364q4 -215 225 -215q117 0 178.5 46t61.5 126q0 53 -36 87.5t-124 50.5l-178 30q-82 16 -147.5 44.5t-118.5 72.5t-82 109t-29 147q0 151 82.5 259
t219.5 160t313 52q263 0 404 -115.5t120 -339.5z" />
    <glyph glyph-name="scedilla" unicode="&#x15f;" horiz-adv-x="1071" 
d="M557 827q-61 0 -104 -25t-43 -73q0 -57 73 -76l176 -43q45 -11 69.5 -17t61 -18t56.5 -23.5t44.5 -30t36.5 -40t20.5 -52t8.5 -67.5q0 -149 -100.5 -243.5t-277.5 -122.5l-115 -121q88 -3 147.5 -52t59.5 -136q0 -48 -15.5 -84t-47 -59.5t-69 -39t-91.5 -23t-104.5 -10.5
t-117.5 -3v133q97 0 144 17t47 60q0 39 -40.5 49t-78.5 -24l-8 -10l-80 129l96 174q-156 23 -236 111.5t-77 236.5h303q20 -115 164 -115q76 0 117.5 32t41.5 73q0 27 -15.5 45.5t-57.5 26.5l-154 34q-163 37 -234 108.5t-71 178.5q0 159 135 253.5t352 94.5q112 0 195 -26
t132 -74.5t72.5 -111.5t22.5 -142h-290q-4 58 -41.5 82t-106.5 24z" />
    <glyph glyph-name="Scaron" unicode="&#x160;" horiz-adv-x="1378" 
d="M1047 1821h266l-174 -295h-625l-84 295h256l156 -154zM870 846q212 -40 307 -126t95 -247q0 -160 -84 -272t-227 -165.5t-334 -53.5q-128 0 -235 32.5t-184.5 94t-115.5 157.5t-26 217h364q4 -215 225 -215q117 0 178.5 46t61.5 126q0 53 -36 87.5t-124 50.5l-178 30
q-82 16 -147.5 44.5t-118.5 72.5t-82 109t-29 147q0 151 82.5 259t219.5 160t313 52q263 0 404 -115.5t120 -339.5h-363q4 87 -44.5 126.5t-143.5 39.5q-98 0 -158.5 -38.5t-60.5 -114.5q0 -41 28 -78t95 -49z" />
    <glyph glyph-name="scaron" unicode="&#x161;" horiz-adv-x="1071" 
d="M838 1452h266l-174 -295h-625l-84 295h256l156 -154zM705 721q-4 58 -41.5 82t-106.5 24q-61 0 -104 -25t-43 -73q0 -57 73 -76l176 -43q45 -11 69.5 -17t61 -18t56.5 -23.5t44.5 -30t36.5 -40t20.5 -52t8.5 -67.5q0 -179 -141.5 -277.5t-380.5 -98.5q-220 0 -332.5 90.5
t-109.5 267.5h303q20 -115 164 -115q76 0 117.5 32t41.5 73q0 27 -15.5 45.5t-57.5 26.5l-154 34q-163 37 -234 108.5t-71 178.5q0 159 135 253.5t352 94.5q112 0 195 -26t132 -74.5t72.5 -111.5t22.5 -142h-290z" />
    <glyph glyph-name="uni0162" unicode="&#x162;" horiz-adv-x="1267" 
d="M184 1434h1157l-49 -304h-403l-178 -1130h10l-166 -125q85 -15 134.5 -69t33.5 -144q-8 -44 -28.5 -77t-54.5 -54t-72 -34.5t-92.5 -20.5t-103 -9t-116.5 -2l2 134q197 0 213 98q4 28 -26 32q-41 5 -86 -39l-5 -5l-69 135l86 180h-11l179 1130h-404z" />
    <glyph glyph-name="uni0163" unicode="&#x163;" horiz-adv-x="833" 
d="M569 805l-71 -438q-10 -54 6 -79.5t69 -25.5q67 0 140 17l-41 -261q-40 -16 -105 -26l-110 -117q88 -3 147.5 -52t59.5 -136q0 -48 -15.5 -84t-47 -59.5t-69 -39t-91.5 -23t-104.5 -10.5t-117.5 -3v133q97 0 144 17t47 60q0 39 -40.5 49t-78.5 -24l-8 -10l-80 129
l100 180h19q-209 60 -158 377l67 426h-165l38 260h168l43 266h338l-43 -266h213l-43 -260h-211z" />
    <glyph glyph-name="Tcaron" unicode="&#x164;" horiz-adv-x="1267" 
d="M989 1821h266l-174 -295h-624l-84 295h256l155 -154zM1341 1434l-49 -304h-403l-178 -1130h-351l179 1130h-404l49 304h1157z" />
    <glyph glyph-name="tcaron" unicode="&#x165;" horiz-adv-x="833" 
d="M827 1434h398l-287 -304h-258zM653 1331l-43 -266h213l-43 -260h-211l-71 -438q-10 -54 6 -79.5t69 -25.5q67 0 140 17l-41 -261q-71 -32 -211 -32q-52 0 -93.5 6.5t-82 23t-66 45t-45 72t-20 104.5t9.5 142l67 426h-165l38 260h168l43 266h338z" />
    <glyph glyph-name="Tbar" unicode="&#x166;" horiz-adv-x="1267" 
d="M1292 1130h-403l-21 -135h215l-28 -192h-217l-127 -803h-351l127 803h-215l31 192h215l21 135h-404l49 304h1157z" />
    <glyph glyph-name="tbar" unicode="&#x167;" horiz-adv-x="837" 
d="M784 805h-211l-14 -82h211l-43 -260h-209l-16 -96q-10 -54 6.5 -79.5t69.5 -25.5q66 0 139 17l-41 -261q-71 -32 -211 -32q-52 0 -93.5 6.5t-82 23t-66 45t-45 72t-20 104.5t9.5 142l14 84h-170l39 260h172l13 82h-166l39 260h167l43 266h338l-43 -266h213z" />
    <glyph glyph-name="Utilde" unicode="&#x168;" horiz-adv-x="1437" 
d="M1194 1802h129q0 -123 -67.5 -202.5t-194.5 -79.5q-46 0 -92 16.5t-83.5 40t-75 47.5t-80.5 40.5t-85 16.5q-29 0 -54 -15t-24 -40h-127q0 123 66.5 203t195.5 80q55 0 113 -25.5t98.5 -55.5t96 -55.5t106.5 -25.5q30 0 54.5 14.5t23.5 40.5zM1448 1434l-137 -869
q-29 -183 -126 -314.5t-241.5 -197t-322.5 -65.5q-274 0 -416 151.5t-99 425.5l140 869h352l-135 -856q-24 -145 30.5 -216t172.5 -71q249 0 297 287l135 856h350z" />
    <glyph glyph-name="utilde" unicode="&#x169;" horiz-adv-x="1257" 
d="M489 1313q-28 0 -53 -15t-24 -41h-127q0 123 66.5 203t195.5 80q55 0 113 -25.5t99 -55.5t96 -55.5t106 -25.5q30 0 54 15t23 41h129q0 -123 -67.5 -203t-194.5 -80q-56 0 -114 25.5t-99 55.5t-96.5 55.5t-106.5 25.5zM881 1065h338l-168 -1065h-336l28 182
q-22 -31 -52.5 -62t-74 -62t-101.5 -50.5t-120 -19.5q-88 0 -154 24t-113.5 76.5t-61.5 137t2 206.5l102 633h336l-103 -633q-13 -87 19.5 -122.5t99.5 -35.5q77 0 155 59t107 113z" />
    <glyph glyph-name="Umacron" unicode="&#x16a;" horiz-adv-x="1437" 
d="M559 1821h772l-31 -193h-770zM1448 1434l-137 -869q-29 -183 -126 -314.5t-241.5 -197t-322.5 -65.5q-274 0 -416 151.5t-99 425.5l140 869h352l-135 -856q-24 -145 30.5 -216t172.5 -71q249 0 297 287l135 856h350z" />
    <glyph glyph-name="umacron" unicode="&#x16b;" horiz-adv-x="1257" 
d="M1176 1452l-31 -192h-770l28 192h773zM881 1065h338l-168 -1065h-336l28 182q-22 -31 -52.5 -62t-74 -62t-101.5 -50.5t-120 -19.5q-88 0 -154 24t-113.5 76.5t-61.5 137t2 206.5l102 633h336l-103 -633q-13 -87 19.5 -122.5t99.5 -35.5q77 0 155 59t107 113z" />
    <glyph glyph-name="Ubreve" unicode="&#x16c;" horiz-adv-x="1437" 
d="M1079 1821h217q-50 -330 -413 -330q-174 0 -258 88.5t-58 241.5h211q-10 -61 24 -91t103 -30q153 0 174 121zM1448 1434l-137 -869q-29 -183 -126 -314.5t-241.5 -197t-322.5 -65.5q-274 0 -416 151.5t-99 425.5l140 869h352l-135 -856q-24 -145 30.5 -216t172.5 -71
q249 0 297 287l135 856h350z" />
    <glyph glyph-name="ubreve" unicode="&#x16d;" horiz-adv-x="1257" 
d="M727 1122q-174 0 -257.5 88.5t-57.5 241.5h211q-10 -61 24 -91t103 -30q153 0 174 121h217q-50 -330 -414 -330zM881 1065h338l-168 -1065h-336l28 182q-22 -31 -52.5 -62t-74 -62t-101.5 -50.5t-120 -19.5q-88 0 -154 24t-113.5 76.5t-61.5 137t2 206.5l102 633h336
l-103 -633q-13 -87 19.5 -122.5t99.5 -35.5q77 0 155 59t107 113z" />
    <glyph glyph-name="Uring" unicode="&#x16e;" horiz-adv-x="1437" 
d="M903 1559q-87 0 -142.5 54.5t-55.5 137.5q0 91 68 160t161 69q80 0 135 -55.5t55 -138.5q0 -89 -69 -158t-152 -69zM911 1694q32 0 55 24t23 54q0 31 -19 51t-48 20q-35 0 -59.5 -24.5t-24.5 -55.5q0 -30 20 -49.5t53 -19.5zM1448 1434l-137 -869q-29 -183 -126 -314.5
t-241.5 -197t-322.5 -65.5q-274 0 -416 151.5t-99 425.5l140 869h352l-135 -856q-24 -145 30.5 -216t172.5 -71q249 0 297 287l135 856h350z" />
    <glyph glyph-name="uring" unicode="&#x16f;" horiz-adv-x="1257" 
d="M748 1190q-87 0 -143 55t-56 137q0 92 68 161t161 69q80 0 135.5 -56t55.5 -139q0 -89 -69 -158t-152 -69zM766 1475q-35 0 -59.5 -24.5t-24.5 -55.5q0 -30 20.5 -50t53.5 -20q32 0 55 24t23 54q0 31 -19.5 51.5t-48.5 20.5zM881 1065h338l-168 -1065h-336l28 182
q-22 -31 -52.5 -62t-74 -62t-101.5 -50.5t-120 -19.5q-88 0 -154 24t-113.5 76.5t-61.5 137t2 206.5l102 633h336l-103 -633q-13 -87 19.5 -122.5t99.5 -35.5q77 0 155 59t107 113z" />
    <glyph glyph-name="Uhungarumlaut" unicode="&#x170;" horiz-adv-x="1437" 
d="M1120 1792l-211 -233h-301l68 262h923l-235 -262h-303zM963 578l135 856h350l-137 -869q-29 -183 -126 -314.5t-241.5 -197t-322.5 -65.5q-274 0 -416 151.5t-99 425.5l140 869h352l-135 -856q-24 -145 30.5 -216t172.5 -71q249 0 297 287z" />
    <glyph glyph-name="uhungarumlaut" unicode="&#x171;" horiz-adv-x="1257" 
d="M965 1423l-211 -233h-301l67 262h924l-236 -262h-303zM784 446l97 619h338l-168 -1065h-336l28 182q-22 -31 -52.5 -62t-74 -62t-101.5 -50.5t-120 -19.5q-88 0 -154 24t-113.5 76.5t-61.5 137t2 206.5l102 633h336l-103 -633q-13 -87 19.5 -122.5t99.5 -35.5
q77 0 155 59t107 113z" />
    <glyph glyph-name="Uogonek" unicode="&#x172;" horiz-adv-x="1437" 
d="M1098 1434h350l-137 -869q-37 -238 -185 -384.5t-370 -182.5h18q-304 -76 -328 -236q-9 -48 34.5 -52t117.5 28l-2 -148q-34 -18 -78.5 -30.5t-92 -18t-94 -3.5t-87 15.5t-69.5 37t-42 63t-4 90.5q18 100 125 169.5t231 84.5q-210 36 -313 183.5t-66 383.5l140 869h352
l-135 -856q-24 -145 30.5 -216t172.5 -71q249 0 297 287z" />
    <glyph glyph-name="uogonek" unicode="&#x173;" horiz-adv-x="1257" 
d="M1219 1065l-168 -1065h-217l129 -2q-304 -76 -328 -236q-9 -48 33.5 -52t117.5 28l-2 -148q-41 -21 -94 -34t-109 -17.5t-107.5 5t-90.5 32t-57.5 66t-8.5 102.5q13 73 78.5 132t147.5 90t162 36h10l28 180q-50 -72 -141 -132t-207 -60q-88 0 -154 23.5t-113.5 76
t-61.5 136.5t2 206l102 633h336l-103 -633q-13 -86 19 -121t100 -35q81 0 159 63.5t101 115.5l-16 -129l115 739h338z" />
    <glyph glyph-name="Wcircumflex" unicode="&#x174;" horiz-adv-x="2162" 
d="M1380 1526l-153 153l-209 -153h-266l176 295h624l82 -295h-254zM1845 1434h379l-635 -1434h-321l-148 891l-428 -891h-323l-185 1434h365l78 -899l401 899h336l119 -899z" />
    <glyph glyph-name="wcircumflex" unicode="&#x175;" horiz-adv-x="1671" 
d="M1100 1157l-154 154l-209 -154h-266l176 295h625l82 -295h-254zM1704 1065l-467 -1065h-283l-118 670l-322 -670h-289l-131 1065h332l43 -639l295 639h262l86 -639l248 639h344z" />
    <glyph glyph-name="Ycircumflex" unicode="&#x176;" horiz-adv-x="1511" 
d="M1085 1526l-153 153l-209 -153h-266l176 295h624l82 -295h-254zM944 518l-80 -518h-362l80 518l-398 916h398l206 -578l396 578h389z" />
    <glyph glyph-name="ycircumflex" unicode="&#x177;" horiz-adv-x="1202" 
d="M866 1157l-153 154l-209 -154h-266l176 295h624l82 -295h-254zM889 1065h346l-619 -1081q-95 -166 -179.5 -252.5t-195 -120t-270.5 -14.5l43 276q58 -6 105.5 0.5t77.5 19.5t55.5 36.5t38.5 43t28 47.5q16 34 18.5 53t-5.5 68l-238 924h332l131 -635z" />
    <glyph glyph-name="Ydieresis" unicode="&#x178;" horiz-adv-x="1511" 
d="M530 1821h340l-36 -236h-340zM1022 1821h340l-35 -236h-342zM944 518l-80 -518h-362l80 518l-398 916h398l206 -578l396 578h389z" />
    <glyph glyph-name="Zacute" unicode="&#x179;" horiz-adv-x="1259" 
d="M635 1559h299l276 262h-467zM1143 303l-47 -303h-1119l41 266l832 864h-690l51 304h1104l-41 -267l-838 -864h707z" />
    <glyph glyph-name="zacute" unicode="&#x17a;" horiz-adv-x="1038" 
d="M440 1190h299l277 262h-467zM410 281h491l-41 -281h-887l39 281l576 503h-471l45 281h866l-43 -281z" />
    <glyph glyph-name="Zdotaccent" unicode="&#x17b;" horiz-adv-x="1259" 
d="M657 1821h340l-36 -236h-340zM1143 303l-47 -303h-1119l41 266l832 864h-690l51 304h1104l-41 -267l-838 -864h707z" />
    <glyph glyph-name="zdotaccent" unicode="&#x17c;" horiz-adv-x="1038" 
d="M463 1452h340l-37 -235h-340zM410 281h491l-41 -281h-887l39 281l576 503h-471l45 281h866l-43 -281z" />
    <glyph glyph-name="Zcaron" unicode="&#x17d;" horiz-adv-x="1259" 
d="M989 1821h266l-174 -295h-624l-84 295h256l155 -154zM1143 303l-47 -303h-1119l41 266l832 864h-690l51 304h1104l-41 -267l-838 -864h707z" />
    <glyph glyph-name="zcaron" unicode="&#x17e;" horiz-adv-x="1038" 
d="M795 1452h266l-174 -295h-625l-84 295h256l156 -154zM410 281h491l-41 -281h-887l39 281l576 503h-471l45 281h866l-43 -281z" />
    <glyph glyph-name="florin" unicode="&#x192;" horiz-adv-x="659" 
d="M684 1135q-129 0 -160 -195l-12 -78h117l-45 -287h-117l-90 -583q-14 -82 -36 -141.5t-60.5 -109t-94 -78.5t-138 -43t-191.5 -9l43 287q42 0 71 15.5t45 46.5t23.5 59.5t13.5 72.5l78 483h-133l45 287h133l29 178q13 88 47 158t94.5 125t157.5 81t225 17z" />
    <glyph glyph-name="uni01CD" unicode="&#x1cd;" horiz-adv-x="1519" 
d="M1196 1526h-625l-84 295h256l156 -154l205 154h266zM993 0l-41 240h-503l-117 -240h-375l764 1434h330l323 -1434h-381zM575 498h332l-86 503z" />
    <glyph glyph-name="uni01CE" unicode="&#x1ce;" horiz-adv-x="1189" 
d="M981 1157h-625l-84 295h256l156 -154l205 154h266zM1008 274q-6 -42 10 -62.5t55 -23.5l-33 -180q-56 -16 -125 -16q-104 0 -171.5 45.5t-57.5 112.5l-10 -13q-11 -13 -17.5 -20t-21.5 -22t-29.5 -25.5t-34.5 -24.5t-42.5 -23t-49 -18t-58 -13.5t-65.5 -4.5
q-73 0 -134 16t-111 49t-78.5 90.5t-28.5 134.5q0 87 30.5 152t87.5 106t129 64t165 33q18 2 57.5 6.5t56 6.5t48 6t48 7t39.5 8t40.5 10.5t33.5 12.5q4 45 -6.5 75t-32.5 42.5t-41.5 17t-44.5 4.5q-129 0 -167 -106h-316q38 178 157 266t347 88q266 0 361 -110t61 -340z
M463 225q65 0 124 37t91 74l31 166q-62 -18 -97.5 -25t-134.5 -22q-67 -10 -101 -43.5t-34 -81.5q0 -105 121 -105z" />
    <glyph glyph-name="uni01CF" unicode="&#x1cf;" horiz-adv-x="589" 
d="M653 1821h267l-175 -295h-624l-84 295h256l156 -154zM373 0h-353l226 1434h352z" />
    <glyph glyph-name="uni01D0" unicode="&#x1d0;" horiz-adv-x="532" 
d="M569 1452h267l-174 -295h-625l-84 295h256l156 -154zM176 1065h336l-168 -1065h-336z" />
    <glyph glyph-name="uni01D1" unicode="&#x1d1;" horiz-adv-x="1507" 
d="M1130 1821h267l-174 -295h-625l-84 295h256l156 -154zM881 1452q274 0 429.5 -151.5t155.5 -421.5q0 -184 -59 -347.5t-164 -285.5t-260.5 -193t-337.5 -71q-271 0 -428.5 152t-157.5 419q0 187 58.5 351.5t163.5 285.5t260.5 191.5t339.5 70.5zM692 283q79 0 146 32
t114.5 86.5t81.5 127t50 153.5t16 166q0 144 -67.5 223.5t-198.5 79.5q-99 0 -178.5 -49t-128 -130.5t-74 -180.5t-25.5 -205q0 -142 68 -222.5t196 -80.5z" />
    <glyph glyph-name="uni01D2" unicode="&#x1d2;" horiz-adv-x="1200" 
d="M891 1452h266l-174 -295h-625l-84 295h256l156 -154zM653 1075q65 0 129 -15.5t126 -50.5t109 -86t76 -128.5t29 -171.5q0 -178 -75.5 -323t-216 -229.5t-320.5 -84.5q-67 0 -131.5 14.5t-127 49.5t-109.5 85.5t-76 129.5t-29 175q0 132 46 249t126.5 202t196 134.5
t247.5 49.5zM801 602q0 99 -49.5 151t-126.5 52q-84 0 -147 -56t-91.5 -134t-28.5 -160q0 -95 49.5 -147t127.5 -52q86 0 148.5 55.5t90 132t27.5 158.5z" />
    <glyph glyph-name="uni01D3" unicode="&#x1d3;" horiz-adv-x="1437" 
d="M1094 1821h266l-174 -295h-625l-84 295h256l156 -154zM1448 1434l-137 -869q-29 -183 -126 -314.5t-241.5 -197t-322.5 -65.5q-274 0 -416 151.5t-99 425.5l140 869h352l-135 -856q-24 -145 30.5 -216t172.5 -71q249 0 297 287l135 856h350z" />
    <glyph glyph-name="uni01D4" unicode="&#x1d4;" horiz-adv-x="1257" 
d="M1030 1157h-624l-84 295h256l155 -154l205 154h266zM881 1065h338l-168 -1065h-336l28 182q-22 -31 -52.5 -62t-74 -62t-101.5 -50.5t-120 -19.5q-88 0 -154 24t-113.5 76.5t-61.5 137t2 206.5l102 633h336l-103 -633q-13 -87 19.5 -122.5t99.5 -35.5q77 0 155 59
t107 113z" />
    <glyph glyph-name="uni01EA" unicode="&#x1ea;" horiz-adv-x="1507" 
d="M1466 879q0 -215 -77.5 -399t-224.5 -311.5t-341 -168.5h21q-317 -77 -336 -238q-9 -48 33.5 -52t117.5 28l-2 -148q-41 -21 -94 -34t-109 -17.5t-107.5 5t-90.5 32t-57.5 66t-8.5 102.5q16 90 113 156t217 92q-217 32 -339 179t-122 382q0 187 58.5 351.5t163.5 285.5
t260.5 191.5t339.5 70.5q274 0 429.5 -151.5t155.5 -421.5zM692 283q79 0 146 32t114.5 86.5t81.5 127t50 153.5t16 166q0 144 -67.5 223.5t-198.5 79.5q-99 0 -178.5 -49t-128 -130.5t-74 -180.5t-25.5 -205q0 -142 68 -222.5t196 -80.5z" />
    <glyph glyph-name="uni01EB" unicode="&#x1eb;" horiz-adv-x="1175" 
d="M637 1077q72 0 142 -19.5t137 -61.5t111.5 -108.5t65.5 -161.5t-1 -220q-18 -118 -67.5 -212.5t-118.5 -154t-142.5 -95.5t-153.5 -52q-284 -76 -307 -230q-7 -48 35.5 -52t116.5 28l-2 -148q-34 -18 -78.5 -30.5t-92 -18t-94 -3.5t-87 15.5t-69.5 37t-42 63t-4 90.5
q13 70 75 128t140 89.5t155 38.5q-60 17 -110.5 45.5t-96 74.5t-72.5 107t-38.5 142t6.5 180q17 112 64 204.5t108.5 151t136.5 98.5t145.5 57t137.5 17zM768 549q21 134 -17 196t-120 62q-95 0 -165.5 -74t-96.5 -227q-21 -132 16.5 -193t118.5 -61q95 0 166.5 73t97.5 224
z" />
    <glyph glyph-name="Scommaaccent" unicode="&#x218;" horiz-adv-x="1378" 
d="M870 846q212 -40 307 -126t95 -247q0 -160 -84 -272t-227 -165.5t-334 -53.5q-128 0 -235 32.5t-184.5 94t-115.5 157.5t-26 217h364q4 -215 225 -215q117 0 178.5 46t61.5 126q0 53 -36 87.5t-124 50.5l-178 30q-82 16 -147.5 44.5t-118.5 72.5t-82 109t-29 147
q0 151 82.5 259t219.5 160t313 52q263 0 404 -115.5t120 -339.5h-363q4 87 -44.5 126.5t-143.5 39.5q-98 0 -158.5 -38.5t-60.5 -114.5q0 -41 28 -78t95 -49zM309 -831l17 100q71 13 113 65.5t53 122.5l12 66h-137l57 375h358l-53 -340q-15 -103 -48.5 -177t-72.5 -114
t-94 -63t-100 -29t-105 -6z" />
    <glyph glyph-name="scommaaccent" unicode="&#x219;" horiz-adv-x="1071" 
d="M705 721q-4 58 -41.5 82t-106.5 24q-61 0 -104 -25t-43 -73q0 -57 73 -76l176 -43q45 -11 69.5 -17t61 -18t56.5 -23.5t44.5 -30t36.5 -40t20.5 -52t8.5 -67.5q0 -179 -141.5 -277.5t-380.5 -98.5q-220 0 -332.5 90.5t-109.5 267.5h303q20 -115 164 -115q76 0 117.5 32
t41.5 73q0 27 -15.5 45.5t-57.5 26.5l-154 34q-163 37 -234 108.5t-71 178.5q0 159 135 253.5t352 94.5q112 0 195 -26t132 -74.5t72.5 -111.5t22.5 -142h-290zM139 -831l17 100q71 13 113 65.5t53 122.5l12 66h-137l57 375h358l-53 -340q-15 -103 -48.5 -177t-72.5 -114
t-94 -63t-100 -29t-105 -6z" />
    <glyph glyph-name="uni021A" unicode="&#x21a;" horiz-adv-x="1267" 
d="M1341 1434l-49 -304h-403l-178 -1130h-351l179 1130h-404l49 304h1157zM229 -813l-2 102q66 10 108 66t54 129l10 57h-120l63 393h414l-58 -366q-16 -103 -55.5 -177.5t-85 -113.5t-108 -61t-111.5 -26.5t-109 -2.5z" />
    <glyph glyph-name="uni021B" unicode="&#x21b;" horiz-adv-x="833" 
d="M569 805l-71 -438q-10 -54 6 -79.5t69 -25.5q67 0 140 17l-41 -261q-71 -32 -211 -32q-52 0 -93.5 6.5t-82 23t-66 45t-45 72t-20 104.5t9.5 142l67 426h-165l38 260h168l43 266h338l-43 -266h213l-43 -260h-211zM190 -477l58 375h358l-53 -340q-15 -103 -48.5 -177
t-72.5 -114t-94 -63t-100 -29t-105 -6l17 100q70 13 111.5 65t53.5 123l13 66h-138z" />
    <glyph glyph-name="uni0237" unicode="&#x237;" horiz-adv-x="546" 
d="M-244 -131q53 -27 125 -27q61 0 85.5 39t39.5 129l164 1055h336l-189 -1188q-27 -165 -121.5 -246.5t-240.5 -81.5q-156 0 -248 52z" />
    <glyph glyph-name="circumflex" unicode="&#x2c6;" horiz-adv-x="882" 
d="M729 1157l-154 154l-208 -154h-267l176 295h625l82 -295h-254z" />
    <glyph glyph-name="caron" unicode="&#x2c7;" horiz-adv-x="882" 
d="M762 1452h266l-174 -295h-625l-84 295h256l156 -154z" />
    <glyph glyph-name="breve" unicode="&#x2d8;" horiz-adv-x="729" 
d="M657 1452h217q-50 -330 -413 -330q-174 0 -258 88.5t-58 241.5h211q-10 -61 24 -91t103 -30q153 0 174 121z" />
    <glyph glyph-name="dotaccent" unicode="&#x2d9;" horiz-adv-x="342" 
d="M145 1452h340l-36 -235h-340z" />
    <glyph glyph-name="ring" unicode="&#x2da;" horiz-adv-x="417" 
d="M336 1190q-87 0 -143 55t-56 137q0 91 68.5 160.5t161.5 69.5q80 0 135 -56t55 -139q0 -89 -69 -158t-152 -69zM344 1325q32 0 55 24t23 54q0 31 -19.5 51.5t-48.5 20.5q-35 0 -59.5 -24.5t-24.5 -55.5q0 -30 20.5 -50t53.5 -20z" />
    <glyph glyph-name="ogonek" unicode="&#x2db;" horiz-adv-x="532" 
d="M356 -403q-45 -25 -106.5 -41.5t-127 -17t-121.5 14.5t-92 58t-36 110q0 62 34 114.5t88 85.5t114.5 53t119.5 26h242q-91 -23 -151.5 -52.5t-87 -60.5t-35.5 -54.5t-9 -49.5q0 -58 48 -69.5t120 20.5v-137z" />
    <glyph glyph-name="tilde" unicode="&#x2dc;" horiz-adv-x="864" 
d="M874 1434h130q0 -123 -67.5 -203t-195.5 -80q-56 0 -114 25.5t-99 55.5t-96 55.5t-106 25.5q-29 0 -54 -15t-24 -41h-127q0 123 66.5 203t195.5 80q55 0 113 -25.5t99 -55.5t96 -55.5t106 -25.5q30 0 54 15t23 41z" />
    <glyph glyph-name="hungarumlaut" unicode="&#x2dd;" horiz-adv-x="950" 
d="M1096 1452l-236 -262h-303l59 233l-210 -233h-302l68 262h924z" />
    <glyph glyph-name="uni0326" unicode="&#x326;" horiz-adv-x="0" 
d="M-571 -831l16 100q71 13 113 65.5t53 122.5l12 66h-137l57 375h359l-54 -340q-15 -103 -48.5 -177t-72 -114t-93.5 -63t-100 -29t-105 -6z" />
    <glyph glyph-name="uni0394" unicode="&#x394;" horiz-adv-x="1462" 
d="M1264 0h-1297l838 1434h69zM901 287l-133 612l-332 -612h465z" />
    <glyph glyph-name="uni03A9" unicode="&#x3a9;" horiz-adv-x="1552" 
d="M1507 821q0 -129 -51.5 -258.5t-146.5 -243.5h73l-49 -319h-502l54 362q141 109 209.5 217t68.5 234q0 148 -81.5 224.5t-215.5 76.5q-95 0 -180 -38.5t-143 -101t-91.5 -142.5t-33.5 -162q0 -60 6.5 -99.5t26.5 -75.5t45 -62.5t73 -70.5l-51 -362h-504l52 319h92
q-86 144 -86 336q0 153 64 298t171.5 254t260 175t319.5 66q174 0 314.5 -76.5t223 -220.5t82.5 -330z" />
    <glyph glyph-name="uni03BC" unicode="&#x3bc;" horiz-adv-x="1255" 
d="M881 1065h336l-168 -1065h-336l28 186q-20 -31 -50 -62t-73.5 -62.5t-102.5 -51.5t-122 -20q-41 0 -59 2l-62 -381h-335l122 768q0 9 3 28.5t4 24.5l102 633h336l-107 -664q-3 -69 29.5 -97t93.5 -28q79 0 156.5 59t107.5 114z" />
    <glyph glyph-name="pi" unicode="&#x3c0;" horiz-adv-x="1513" 
d="M1223 778l-64 -399q-10 -64 2.5 -84.5t55.5 -20.5q27 0 50.5 4.5t53.5 14t43 12.5l-29 -282q-33 -18 -115 -26.5t-137 -8.5q-45 0 -86.5 7t-82 25.5t-68.5 46.5t-41 72.5t-4 100.5l86 538h-254l-125 -778h-334l123 778h-207l47 287h1333l-47 -287h-200z" />
    <glyph glyph-name="uni0401" unicode="&#x401;" horiz-adv-x="1220" 
d="M395 1821h340l-37 -236h-340zM887 1821h340l-35 -236h-342zM1225 1130h-676l-43 -266h573l-45 -280h-573l-41 -281h694l-47 -303h-1049l228 1434h1028z" />
    <glyph glyph-name="uni0403" unicode="&#x403;" horiz-adv-x="1120" 
d="M569 1559h299l277 262h-467zM1192 1434l-49 -304h-592l-180 -1130h-353l228 1434h946z" />
    <glyph glyph-name="uni0404" unicode="&#x404;" horiz-adv-x="1396" 
d="M819 1149q-121 0 -207.5 -78.5t-132.5 -206.5h350l-43 -280h-356q2 -144 64.5 -221.5t187.5 -77.5q108 0 173.5 46.5t111.5 153.5h338q-40 -165 -146 -281t-242 -169t-292 -53q-264 0 -415 147.5t-151 421.5q0 146 34.5 280.5t103 247t163.5 196t223.5 130.5t276.5 47
q115 0 212 -31t169 -91.5t108.5 -157.5t26.5 -220h-342q-12 102 -65.5 149.5t-149.5 47.5z" />
    <glyph glyph-name="uni0407" unicode="&#x407;" horiz-adv-x="589" 
d="M53 1821h340l-37 -236h-340zM545 1821h340l-35 -236h-342zM373 0h-353l226 1434h352z" />
    <glyph glyph-name="uni040C" unicode="&#x40c;" horiz-adv-x="1488" 
d="M1333 1821l-276 -262h-299l108 262h467zM1526 1434l-641 -641l469 -793h-385l-318 555v4l-229 -231l-51 -328h-353l228 1434h352l-102 -643l634 643h396z" />
    <glyph glyph-name="uni040E" unicode="&#x40e;" horiz-adv-x="1306" 
d="M1008 1821h217q-50 -330 -414 -330q-174 0 -257.5 88.5t-57.5 241.5h211q-10 -61 24 -91t103 -30q153 0 174 121zM975 1434h393l-588 -1031q-106 -188 -204 -286.5t-213 -134t-279 -19.5l47 309q32 -4 60.5 -4t50 2t41.5 8.5t33 11.5t26 16t20 17.5t16 19t12.5 18
t10.5 18.5q49 96 13 223l-230 832h385l140 -564z" />
    <glyph glyph-name="uni0410" unicode="&#x410;" horiz-adv-x="1519" 
d="M993 0l-41 240h-503l-117 -240h-375l764 1434h330l323 -1434h-381zM575 498h332l-86 503z" />
    <glyph glyph-name="uni0411" unicode="&#x411;" horiz-adv-x="1353" 
d="M766 967q253 0 376.5 -106.5t123.5 -297.5q0 -271 -168.5 -417t-466.5 -146h-613l228 1434h946l-49 -304h-592l-27 -163h242zM657 297q108 0 171 71t63 175q0 127 -160 127h-254l-59 -373h239z" />
    <glyph glyph-name="uni0412" unicode="&#x412;" horiz-adv-x="1380" 
d="M1071 782q96 -32 153.5 -118.5t57.5 -196.5q0 -150 -82.5 -257t-220.5 -158.5t-317 -51.5h-644l228 1434h600q214 0 327 -88t113 -242q0 -110 -58.5 -195t-156.5 -127zM743 883q77 0 123.5 43t46.5 123q0 51 -31 73.5t-73 22.5h-256l-43 -262h233zM674 289q111 0 173 48
t62 148q0 57 -33 95t-114 38h-293l-53 -329h258z" />
    <glyph glyph-name="uni0413" unicode="&#x413;" horiz-adv-x="1120" 
d="M1192 1434l-49 -304h-592l-180 -1130h-353l228 1434h946z" />
    <glyph glyph-name="uni0414" unicode="&#x414;" horiz-adv-x="1775" 
d="M1395 287h270l-68 -428h-335l22 141h-991l-23 -141h-336l68 428h191q38 40 61 67.5t62 90t66 130t57.5 178.5t52.5 246l67 435h1018zM569 287h473l136 843h-314l-24 -147q-27 -167 -60.5 -292t-71 -202.5t-69 -121.5t-70.5 -80z" />
    <glyph glyph-name="uni0415" unicode="&#x415;" horiz-adv-x="1220" 
d="M1225 1130h-676l-43 -266h573l-45 -280h-573l-41 -281h694l-47 -303h-1049l228 1434h1028z" />
    <glyph glyph-name="uni0416" unicode="&#x416;" horiz-adv-x="2164" 
d="M2261 1434l-705 -715l474 -719h-394l-383 563l-90 -563h-352l90 569l-559 -569h-405l704 719l-469 715h393l383 -568l90 568h353l-88 -560l552 560h406z" />
    <glyph glyph-name="uni0417" unicode="&#x417;" horiz-adv-x="1261" 
d="M915 756q31 -2 70.5 -19.5t80.5 -51t69 -93.5t28 -135q0 -146 -83 -257t-221.5 -168t-309.5 -57q-169 0 -291.5 68t-173.5 184.5t-21 257.5h304q-13 -100 44.5 -161.5t163.5 -61.5q102 0 180.5 57t78.5 152q0 68 -54 113t-186 45h-84l35 219h67q72 0 125 19t78 43.5
t40 56.5t17 47.5t2 27.5q0 61 -45 92t-110 31q-78 0 -145 -45.5t-87 -148.5h-309q37 232 182.5 356.5t378.5 124.5q210 0 336.5 -102.5t126.5 -255.5q0 -129 -87 -222.5t-200 -115.5z" />
    <glyph glyph-name="uni0418" unicode="&#x418;" horiz-adv-x="1470" 
d="M246 1434h352l-141 -869h6l663 869h355l-228 -1434h-352l133 844h-4l-641 -844h-371z" />
    <glyph glyph-name="uni0419" unicode="&#x419;" horiz-adv-x="1470" 
d="M1085 1821h218q-50 -330 -414 -330q-174 0 -258 88.5t-58 241.5h211q-10 -61 24 -91t103 -30q153 0 174 121zM246 1434h352l-141 -869h6l663 869h355l-228 -1434h-352l133 844h-4l-641 -844h-371z" />
    <glyph glyph-name="uni041A" unicode="&#x41a;" horiz-adv-x="1488" 
d="M1526 1434l-641 -641l469 -793h-385l-318 555v4l-229 -231l-51 -328h-353l228 1434h352l-102 -643l634 643h396z" />
    <glyph glyph-name="uni041B" unicode="&#x41b;" horiz-adv-x="1447" 
d="M1458 1434l-227 -1434h-352l180 1130h-375l-109 -688q-39 -252 -202 -367t-408 -89l29 303q35 -1 62 2.5t57 15t51 31.5t39 55t26 84l152 957h1077z" />
    <glyph glyph-name="uni041C" unicode="&#x41c;" horiz-adv-x="1777" 
d="M246 1434h409l207 -965l490 965h436l-227 -1434h-351l133 850h-12l-403 -850h-252l-160 850h-12l-133 -850h-353z" />
    <glyph glyph-name="uni041D" unicode="&#x41d;" horiz-adv-x="1431" 
d="M1092 1434h350l-228 -1434h-350l92 578h-493l-92 -578h-353l228 1434h352l-90 -572h493z" />
    <glyph glyph-name="uni041E" unicode="&#x41e;" horiz-adv-x="1507" 
d="M881 1452q274 0 429.5 -151.5t155.5 -421.5q0 -184 -59 -347.5t-164 -285.5t-260.5 -193t-337.5 -71q-271 0 -428.5 152t-157.5 419q0 187 58.5 351.5t163.5 285.5t260.5 191.5t339.5 70.5zM692 283q79 0 146 32t114.5 86.5t81.5 127t50 153.5t16 166q0 144 -67.5 223.5
t-198.5 79.5q-99 0 -178.5 -49t-128 -130.5t-74 -180.5t-25.5 -205q0 -142 68 -222.5t196 -80.5z" />
    <glyph glyph-name="uni041F" unicode="&#x41f;" horiz-adv-x="1431" 
d="M1442 1434l-228 -1434h-350l178 1130h-491l-180 -1130h-353l228 1434h1196z" />
    <glyph glyph-name="uni0420" unicode="&#x420;" horiz-adv-x="1361" 
d="M836 1434q252 0 372.5 -108.5t120.5 -303.5q0 -274 -178.5 -438t-474.5 -164h-240l-65 -420h-353l228 1434h590zM725 723q104 0 163.5 70.5t59.5 177.5q0 73 -41 116t-123 43h-235l-64 -407h240z" />
    <glyph glyph-name="uni0421" unicode="&#x421;" horiz-adv-x="1396" 
d="M682 285q108 0 173.5 46.5t111.5 153.5h338q-40 -165 -146 -281t-242 -169t-292 -53q-264 0 -415 147.5t-151 421.5q0 146 34.5 280.5t103 247t163.5 196t223.5 130.5t276.5 47q115 0 212 -31t169 -91.5t108.5 -157.5t26.5 -220h-342q-12 102 -65.5 149.5t-149.5 47.5
q-95 0 -171.5 -51.5t-122.5 -134t-70.5 -179t-24.5 -194.5q0 -148 62.5 -226.5t189.5 -78.5z" />
    <glyph glyph-name="uni0422" unicode="&#x422;" horiz-adv-x="1267" 
d="M1341 1434l-49 -304h-403l-178 -1130h-351l179 1130h-404l49 304h1157z" />
    <glyph glyph-name="uni0423" unicode="&#x423;" horiz-adv-x="1306" 
d="M975 1434h393l-588 -1031q-106 -188 -204 -286.5t-213 -134t-279 -19.5l47 309q32 -4 60.5 -4t50 2t41.5 8.5t33 11.5t26 16t20 17.5t16 19t12.5 18t10.5 18.5q49 96 13 223l-230 832h385l140 -564z" />
    <glyph glyph-name="uni0424" unicode="&#x424;" horiz-adv-x="1507" 
d="M1458 807q0 -271 -168 -450.5t-442 -223.5l-27 -164h-350l27 168q-205 41 -318.5 170t-113.5 322q0 271 169.5 450t446.5 221l27 164h350l-27 -170q203 -40 314.5 -166.5t111.5 -320.5zM895 428q108 50 168.5 149.5t60.5 231.5q0 157 -135 213zM399 629q0 -160 142 -217
l96 598q-113 -47 -175.5 -147.5t-62.5 -233.5z" />
    <glyph glyph-name="uni0425" unicode="&#x425;" horiz-adv-x="1404" 
d="M1481 1434l-557 -695l356 -739h-397l-207 430l-346 -430h-393l589 735l-336 699h398l188 -390l311 390h394z" />
    <glyph glyph-name="uni0426" unicode="&#x426;" horiz-adv-x="1515" 
d="M1442 1434l-180 -1131h157l-96 -592h-336l47 289h-1016l228 1434h352l-178 -1131h493l179 1131h350z" />
    <glyph glyph-name="uni0427" unicode="&#x427;" horiz-adv-x="1366" 
d="M1024 1434h352l-227 -1434h-352l84 526q-23 -33 -59.5 -67.5t-91 -71t-130.5 -59.5t-158 -23q-205 0 -301.5 121.5t-56.5 374.5l102 633h351l-101 -633q-30 -185 156 -185q117 0 208 59.5t124 123.5z" />
    <glyph glyph-name="uni0428" unicode="&#x428;" horiz-adv-x="1773" 
d="M1432 1434h350l-226 -1434h-1538l228 1434h352l-178 -1131h239l179 1131h352l-178 -1131h241z" />
    <glyph glyph-name="uni0429" unicode="&#x429;" horiz-adv-x="1859" 
d="M1782 1434l-178 -1131h159l-96 -592h-334l47 289h-1362l228 1434h352l-178 -1131h239l179 1131h352l-178 -1131h241l179 1131h350z" />
    <glyph glyph-name="uni042A" unicode="&#x42a;" horiz-adv-x="1433" 
d="M846 967q255 0 378.5 -106.5t123.5 -297.5q0 -271 -169.5 -417t-467.5 -146h-600l180 1130h-174l49 304h524l-76 -467h232zM737 297q108 0 171 71t63 175q0 127 -160 127h-244l-55 -373h225z" />
    <glyph glyph-name="uni042B" unicode="&#x42b;" horiz-adv-x="1888" 
d="M754 967q254 0 377.5 -106.5t123.5 -297.5q0 -271 -169.5 -417t-467.5 -146h-600l228 1434h352l-76 -467h232zM1671 0h-352l225 1434h352zM645 297q108 0 171 71t63 175q0 127 -160 127h-244l-55 -373h225z" />
    <glyph glyph-name="uni042C" unicode="&#x42c;" horiz-adv-x="1341" 
d="M754 967q254 0 377.5 -106.5t123.5 -297.5q0 -271 -169.5 -417t-467.5 -146h-600l228 1434h352l-76 -467h232zM645 297q108 0 171 71t63 175q0 127 -160 127h-244l-55 -373h225z" />
    <glyph glyph-name="uni042D" unicode="&#x42d;" horiz-adv-x="1439" 
d="M815 1452q270 0 426 -150t156 -423q0 -149 -33.5 -284t-100 -246.5t-159.5 -193.5t-218 -127.5t-270 -45.5q-119 0 -220.5 32t-177.5 93.5t-115 158.5t-29 219h340q21 -116 61.5 -158t140.5 -42q129 0 221.5 82t141.5 217h-363l46 280h364v8q0 130 -57 203.5t-174 73.5
q-107 0 -171 -46.5t-124 -150.5h-350q31 126 98.5 223.5t157.5 157t193.5 89.5t215.5 30z" />
    <glyph glyph-name="uni042E" unicode="&#x42e;" horiz-adv-x="2058" 
d="M1434 1452q274 0 429.5 -151.5t155.5 -421.5q0 -184 -59 -347.5t-164 -285.5t-260.5 -193t-337.5 -71q-271 0 -428.5 152t-157.5 419v25h-149l-90 -578h-353l226 1434h352l-90 -572h149q79 267 284 428.5t493 161.5zM1245 283q79 0 146 32t114.5 86.5t81.5 127t50 153.5
t16 166q0 144 -68 223.5t-199 79.5q-80 0 -147 -32.5t-114 -87t-80 -127.5t-48.5 -153.5t-15.5 -164.5q0 -142 68 -222.5t196 -80.5z" />
    <glyph glyph-name="uni042F" unicode="&#x42f;" horiz-adv-x="1425" 
d="M1436 1434l-228 -1434h-352l80 502h-287q-102 0 -164 -58.5t-77 -167.5l-7 -45q-12 -86 -27.5 -133t-49.5 -98h-357q38 55 58.5 110t29.5 138l6 57q17 136 84 224.5t189 140.5q-64 35 -108 106t-44 182q0 146 77.5 254.5t213.5 165t313 56.5h650zM711 778h268l55 350
h-264q-112 0 -173.5 -59.5t-61.5 -144.5q0 -146 176 -146z" />
    <glyph glyph-name="uni0430" unicode="&#x430;" horiz-adv-x="1189" 
d="M1008 274q-6 -42 10 -62.5t55 -23.5l-33 -180q-56 -16 -125 -16q-104 0 -171.5 45.5t-57.5 112.5l-10 -13q-11 -13 -17.5 -20t-21.5 -22t-29.5 -25.5t-34.5 -24.5t-42.5 -23t-49 -18t-58 -13.5t-65.5 -4.5q-73 0 -134 16t-111 49t-78.5 90.5t-28.5 134.5q0 87 30.5 152
t87.5 106t129 64t165 33q18 2 57.5 6.5t56 6.5t48 6t48 7t39.5 8t40.5 10.5t33.5 12.5q4 45 -6.5 75t-32.5 42.5t-41.5 17t-44.5 4.5q-129 0 -167 -106h-316q38 178 157 266t347 88q266 0 361 -110t61 -340zM463 225q65 0 124 37t91 74l31 166q-62 -18 -97.5 -25t-134.5 -22
q-67 -10 -101 -43.5t-34 -81.5q0 -105 121 -105z" />
    <glyph glyph-name="uni0431" unicode="&#x431;" horiz-adv-x="1214" 
d="M737 1061q51 0 104 -13.5t107 -46.5t95.5 -81.5t67.5 -125.5t26 -171q0 -182 -80.5 -329t-221.5 -229.5t-315 -82.5q-110 0 -195.5 34t-139 95t-85.5 146t-35 187.5t13 219.5l28 208q43 295 185.5 428.5t386.5 133.5h47q112 0 168 49h303q-31 -93 -68 -152t-90.5 -94.5
t-118.5 -49t-159 -13.5h-98q-176 0 -220 -197l-6 -16q16 34 102 67t199 33zM539 250q55 0 102 20.5t79 55t55 79.5t33.5 93.5t10.5 97.5q0 109 -49.5 162t-128.5 53q-68 0 -123 -31t-88 -82t-50.5 -112t-17.5 -125q0 -109 50.5 -160t126.5 -51z" />
    <glyph glyph-name="uni0432" unicode="&#x432;" horiz-adv-x="1198" 
d="M940 588q82 -29 132 -93t50 -157q0 -338 -538 -338h-586l168 1065h336l-66 -412h228q35 0 61.5 7t39.5 16t21 21t9.5 19t1.5 13q0 12 -2 20t-9 21.5t-27.5 21t-51.5 7.5h-246l41 266h231q170 0 275.5 -62.5t105.5 -179.5q0 -175 -174 -235zM618 268q86 0 132.5 28
t46.5 83q0 74 -135 74h-256l10 65l-39 -250h241z" />
    <glyph glyph-name="uni0433" unicode="&#x433;" horiz-adv-x="935" 
d="M969 1065l-45 -260h-465l-125 -805h-336l168 1065h803z" />
    <glyph glyph-name="uni0434" unicode="&#x434;" horiz-adv-x="1421" 
d="M1335 1065l-127 -805h111l-62 -362h-305l19 102h-709l-18 -102h-305l61 362h78q85 72 128 188.5t73 303.5l51 313h1005zM414 260h458l84 545h-333l-11 -70q-23 -181 -75 -304t-123 -171z" />
    <glyph glyph-name="uni0435" unicode="&#x435;" horiz-adv-x="1165" 
d="M1090 627q0 -41 -7.5 -104t-17.5 -97h-719q6 -193 195 -193q116 0 174 78h307q-133 -325 -524 -325q-84 0 -164 25.5t-148.5 77t-110.5 140.5t-42 203q0 181 78.5 328.5t218 231t311.5 83.5q92 0 170.5 -25t142 -76t100 -140t36.5 -207zM776 627q6 18 6 53
q0 62 -44.5 104.5t-119.5 42.5q-182 0 -245 -200h403z" />
    <glyph glyph-name="uni0436" unicode="&#x436;" horiz-adv-x="1894" 
d="M1950 1065l-584 -541l424 -524h-412l-297 379l-59 -379h-336l59 381l-415 -381h-412l588 524l-412 541h412l287 -389l61 389h336l-62 -389l408 389h414z" />
    <glyph glyph-name="uni0437" unicode="&#x437;" horiz-adv-x="1165" 
d="M852 559q1 0 16.5 -5t31 -12t37.5 -18.5t40.5 -28.5t35.5 -39t26.5 -53t9.5 -67q0 -108 -76 -189.5t-203 -123t-285 -41.5q-248 0 -368.5 110.5t-83.5 325.5h299q-8 -100 33.5 -148.5t156.5 -48.5q83 0 143 39.5t60 104.5q0 102 -215 102l10 168q97 0 156 32.5t59 88.5
q0 42 -37 62t-98 20q-70 0 -124.5 -40.5t-67.5 -111.5h-299q30 193 167 293t347 100q193 0 312.5 -73.5t119.5 -198.5q0 -92 -54 -158.5t-149 -89.5z" />
    <glyph glyph-name="uni0438" unicode="&#x438;" horiz-adv-x="1269" 
d="M166 1065h336l-90 -590h4l477 590h338l-168 -1065h-336l88 567h-4l-461 -567h-352z" />
    <glyph glyph-name="uni0439" unicode="&#x439;" horiz-adv-x="1269" 
d="M932 1452h217q-50 -330 -414 -330q-174 0 -257.5 88.5t-57.5 241.5h211q-10 -61 24 -91t103 -30q153 0 174 121zM166 1065h336l-90 -590h4l477 590h338l-168 -1065h-336l88 567h-4l-461 -567h-352z" />
    <glyph glyph-name="uni043A" unicode="&#x43a;" horiz-adv-x="1241" 
d="M1294 1065l-542 -541l383 -524h-404l-317 438l-70 -438h-336l168 1065h336l-72 -449l449 449h405z" />
    <glyph glyph-name="uni043B" unicode="&#x43b;" horiz-adv-x="1310" 
d="M1272 1065l-168 -1065h-320l113 805h-289l-57 -369q-19 -127 -74 -219.5t-137 -145t-184 -71.5t-222 -6l43 260q91 -3 158.5 46t87.5 169l94 596h955z" />
    <glyph glyph-name="uni043C" unicode="&#x43c;" horiz-adv-x="1558" 
d="M176 1065h395l168 -676l381 676h400l-168 -1065h-336l88 547h-10l-287 -547h-248l-115 537h-14l-86 -537h-336z" />
    <glyph glyph-name="uni043D" unicode="&#x43d;" horiz-adv-x="1198" 
d="M166 1065h336l-58 -379h322l57 379h336l-168 -1065h-336l68 424h-322l-67 -424h-336z" />
    <glyph glyph-name="uni043E" unicode="&#x43e;" horiz-adv-x="1200" 
d="M653 1075q65 0 129 -15.5t126 -50.5t109 -86t76 -128.5t29 -171.5q0 -178 -75.5 -323t-216 -229.5t-320.5 -84.5q-67 0 -131.5 14.5t-127 49.5t-109.5 85.5t-76 129.5t-29 175q0 132 46 249t126.5 202t196 134.5t247.5 49.5zM801 602q0 99 -49.5 151t-126.5 52
q-84 0 -147 -56t-91.5 -134t-28.5 -160q0 -95 49.5 -147t127.5 -52q86 0 148.5 55.5t90 132t27.5 158.5z" />
    <glyph glyph-name="uni043F" unicode="&#x43f;" horiz-adv-x="1179" 
d="M1141 1065l-168 -1065h-336l125 805h-303l-125 -805h-336l168 1065h975z" />
    <glyph glyph-name="uni0440" unicode="&#x440;" horiz-adv-x="1236" 
d="M788 1075q70 0 134 -24.5t119.5 -75t88.5 -138.5t33 -204q0 -122 -40 -238.5t-109.5 -207t-172.5 -146t-220 -55.5q-66 0 -117.5 17t-78.5 42.5t-40.5 48t-15.5 39.5l-86 -522h-336l229 1454h338l-20 -119l10.5 10.5l14 14t17 16t22 18t26 17t31 17t35 14t41 12t45.5 7.5
t52 3zM563 256q84 0 147.5 54t93.5 135.5t30 175.5q0 92 -46.5 138t-117.5 46q-65 0 -116.5 -32.5t-82.5 -85.5t-47 -116t-16 -129q0 -92 40 -139t115 -47z" />
    <glyph glyph-name="uni0441" unicode="&#x441;" horiz-adv-x="1110" 
d="M514 256q148 0 197 131h303q-124 -401 -529 -401q-67 0 -130 14.5t-122 47t-103 81t-70.5 122t-26.5 163.5q0 188 74.5 338.5t212.5 236.5t315 86q64 0 120 -10.5t111 -39t95 -72.5t65 -116t27 -165h-295q-2 66 -32.5 99.5t-107.5 33.5q-81 0 -141.5 -59t-88.5 -144.5
t-28 -181.5q0 -75 41 -119.5t113 -44.5z" />
    <glyph glyph-name="uni0442" unicode="&#x442;" horiz-adv-x="1095" 
d="M1108 1065l-43 -260h-326l-127 -805h-338l129 805h-331l43 260h993z" />
    <glyph glyph-name="uni0443" unicode="&#x443;" horiz-adv-x="1202" 
d="M889 1065h346l-619 -1081q-95 -166 -179.5 -252.5t-195 -120t-270.5 -14.5l43 276q58 -6 105.5 0.5t77.5 19.5t55.5 36.5t38.5 43t28 47.5q16 34 18.5 53t-5.5 68l-238 924h332l131 -635z" />
    <glyph glyph-name="uni0444" unicode="&#x444;" horiz-adv-x="1294" 
d="M1217 608q0 -122 -39.5 -228.5t-109.5 -184t-163.5 -129.5t-202.5 -72l-59 -373h-315l61 383q-154 41 -253 149.5t-99 286.5q0 248 146.5 416t373.5 211l61 383h316l-64 -393q152 -42 249.5 -155t97.5 -294zM745 264q100 45 152.5 138.5t52.5 215.5q0 146 -119 193z
M305 434q0 -139 123 -184l86 547q-100 -44 -154.5 -140t-54.5 -223z" />
    <glyph glyph-name="uni0445" unicode="&#x445;" horiz-adv-x="1191" 
d="M1214 1065l-442 -514l305 -551h-358l-166 309l-254 -309h-373l490 559l-283 506h356l136 -260l219 260h370z" />
    <glyph glyph-name="uni0446" unicode="&#x446;" horiz-adv-x="1265" 
d="M1014 260h149l-88 -547h-319l47 287h-805l168 1065h336l-125 -805h303l125 805h336z" />
    <glyph glyph-name="uni0447" unicode="&#x447;" horiz-adv-x="1212" 
d="M838 1065h336l-168 -1065h-336l73 465q-30 -43 -74.5 -83.5t-119.5 -75t-154 -34.5q-181 0 -270 104.5t-55 321.5l55 367h336l-60 -365q-12 -73 23 -112t106 -39q92 0 159 55.5t93 116.5z" />
    <glyph glyph-name="uni0448" unicode="&#x448;" horiz-adv-x="1662" 
d="M1288 1065h336l-168 -1065h-1448l168 1065h336l-125 -805h231l125 805h316l-125 -805h231z" />
    <glyph glyph-name="uni0449" unicode="&#x449;" horiz-adv-x="1710" 
d="M1614 1065l-127 -805h121l-88 -547h-322l47 287h-1247l168 1065h336l-125 -805h231l125 805h316l-125 -805h231l123 805h336z" />
    <glyph glyph-name="uni044A" unicode="&#x44a;" horiz-adv-x="1380" 
d="M877 719q182 0 289.5 -86t107.5 -232q0 -186 -138 -293.5t-354 -107.5h-610l127 805h-217l43 260h551l-55 -346h256zM803 260q69 0 110 31t41 84q0 82 -106 82h-266l-33 -197h254z" />
    <glyph glyph-name="uni044B" unicode="&#x44b;" horiz-adv-x="1728" 
d="M713 719q182 0 289.5 -86t107.5 -232q0 -186 -138 -293.5t-354 -107.5h-610l168 1065h336l-55 -346h256zM1354 1065h336l-168 -1065h-336zM639 260q69 0 110.5 31.5t41.5 83.5q0 82 -107 82h-266l-33 -197h254z" />
    <glyph glyph-name="uni044C" unicode="&#x44c;" horiz-adv-x="1216" 
d="M713 719q182 0 289.5 -86t107.5 -232q0 -186 -138 -293.5t-354 -107.5h-610l168 1065h336l-55 -346h256zM639 260q69 0 110.5 31.5t41.5 83.5q0 82 -107 82h-266l-33 -197h254z" />
    <glyph glyph-name="uni044D" unicode="&#x44d;" horiz-adv-x="1120" 
d="M594 1075q67 0 130 -14.5t122.5 -47t103.5 -81t70.5 -122t26.5 -163.5q0 -188 -75 -338.5t-213 -236.5t-315 -86q-64 0 -119.5 10.5t-111 39t-95 72.5t-64.5 116t-27 165h295q2 -67 32 -100t107 -33q74 0 130 48t89 128h-260l29 203h270v6q0 75 -41 119.5t-113 44.5
q-147 0 -196 -131h-303q124 401 528 401z" />
    <glyph glyph-name="uni044E" unicode="&#x44e;" horiz-adv-x="1705" 
d="M1159 1075q65 0 129 -15.5t126 -50.5t109 -86t76 -128.5t29 -171.5q0 -178 -75.5 -323t-216 -229.5t-320.5 -84.5q-64 0 -126 13.5t-123 45t-107.5 78t-78 118.5t-36.5 160h-137l-64 -403h-336l168 1065h336l-63 -399h131q63 186 217.5 298.5t361.5 112.5zM1040 256
q53 0 97.5 21t75 56t52.5 80.5t32 93.5t10 95q0 98 -49.5 150.5t-127.5 52.5q-64 0 -116.5 -32.5t-84 -84.5t-48.5 -112.5t-17 -120.5q0 -95 49 -147t127 -52z" />
    <glyph glyph-name="uni044F" unicode="&#x44f;" horiz-adv-x="1204" 
d="M555 1065h610l-168 -1065h-335l55 346h-223q-102 0 -115 -100l-12 -84q-6 -43 -15 -73t-15 -42t-26 -47h-331q17 32 23.5 46.5t15 43.5t16.5 72l12 84q17 132 123 186q-107 87 -107 232q0 186 138 293.5t354 107.5zM756 608l32 197h-253q-69 0 -110.5 -31.5t-41.5 -83.5
q0 -82 106 -82h267z" />
    <glyph glyph-name="uni0451" unicode="&#x451;" horiz-adv-x="1165" 
d="M633 1452l-37 -235h-340l37 235h340zM784 1452h340l-34 -235h-342zM641 1075q92 0 170.5 -25t142 -76t100 -140t36.5 -207q0 -41 -7.5 -104t-17.5 -97h-719q6 -193 195 -193q116 0 174 78h307q-133 -325 -524 -325q-84 0 -164 25.5t-148.5 77t-110.5 140.5t-42 203
q0 181 78.5 328.5t218 231t311.5 83.5zM776 627q6 18 6 53q0 62 -44.5 104.5t-119.5 42.5q-182 0 -245 -200h403z" />
    <glyph glyph-name="uni0453" unicode="&#x453;" horiz-adv-x="935" 
d="M424 1190h299l276 262h-467zM969 1065l-45 -260h-465l-125 -805h-336l168 1065h803z" />
    <glyph glyph-name="uni0454" unicode="&#x454;" horiz-adv-x="1110" 
d="M514 256q148 0 197 131h303q-124 -401 -529 -401q-67 0 -130 14.5t-122 47t-103 81t-70.5 122t-26.5 163.5q0 188 74.5 338.5t212.5 236.5t315 86q64 0 120 -10.5t111 -39t95 -72.5t65 -116t27 -165h-295q-2 66 -32.5 99.5t-107.5 33.5q-142 0 -217 -170h263l-29 -203
h-275v-12q0 -75 41 -119.5t113 -44.5z" />
    <glyph glyph-name="uni0457" unicode="&#x457;" horiz-adv-x="532" 
d="M-31 1452h340l-37 -235h-340zM461 1452h340l-35 -235h-342zM176 1065h336l-168 -1065h-336z" />
    <glyph glyph-name="uni045C" unicode="&#x45c;" horiz-adv-x="1241" 
d="M1153 1452l-276 -262h-299l108 262h467zM1294 1065l-542 -541l383 -524h-404l-317 438l-70 -438h-336l168 1065h336l-72 -449l449 449h405z" />
    <glyph glyph-name="uni045E" unicode="&#x45e;" horiz-adv-x="1202" 
d="M897 1452h217q-50 -330 -414 -330q-174 0 -257.5 88.5t-57.5 241.5h211q-10 -61 24 -91t103 -30q153 0 174 121zM889 1065h346l-619 -1081q-95 -166 -179.5 -252.5t-195 -120t-270.5 -14.5l43 276q58 -6 105.5 0.5t77.5 19.5t55.5 36.5t38.5 43t28 47.5q16 34 18.5 53
t-5.5 68l-238 924h332l131 -635z" />
    <glyph glyph-name="uni0490" unicode="&#x490;" horiz-adv-x="1120" 
d="M872 1638h353l-82 -508h-592l-180 -1130h-353l228 1434h594z" />
    <glyph glyph-name="uni0491" unicode="&#x491;" horiz-adv-x="935" 
d="M705 1200h286l-67 -395h-465l-125 -805h-336l168 1065h516z" />
    <glyph glyph-name="Wgrave" unicode="&#x1e80;" horiz-adv-x="2162" 
d="M1362 1559l-68 262h-471l238 -262h301zM1845 1434h379l-635 -1434h-321l-148 891l-428 -891h-323l-185 1434h365l78 -899l401 899h336l119 -899z" />
    <glyph glyph-name="wgrave" unicode="&#x1e81;" horiz-adv-x="1671" 
d="M1081 1190l-67 262h-471l237 -262h301zM1704 1065l-467 -1065h-283l-118 670l-322 -670h-289l-131 1065h332l43 -639l295 639h262l86 -639l248 639h344z" />
    <glyph glyph-name="Wacute" unicode="&#x1e82;" horiz-adv-x="2162" 
d="M1071 1559h299l277 262h-467zM1845 1434h379l-635 -1434h-321l-148 891l-428 -891h-323l-185 1434h365l78 -899l401 899h336l119 -899z" />
    <glyph glyph-name="wacute" unicode="&#x1e83;" horiz-adv-x="1671" 
d="M791 1190h299l276 262h-467zM1704 1065l-467 -1065h-283l-118 670l-322 -670h-289l-131 1065h332l43 -639l295 639h262l86 -639l248 639h344z" />
    <glyph glyph-name="Wdieresis" unicode="&#x1e84;" horiz-adv-x="2162" 
d="M825 1821h340l-37 -236h-340zM1317 1821h340l-35 -236h-342zM1845 1434h379l-635 -1434h-321l-148 891l-428 -891h-323l-185 1434h365l78 -899l401 899h336l119 -899z" />
    <glyph glyph-name="wdieresis" unicode="&#x1e85;" horiz-adv-x="1671" 
d="M545 1452h340l-37 -235h-340zM1036 1452h340l-35 -235h-342zM1704 1065l-467 -1065h-283l-118 670l-322 -670h-289l-131 1065h332l43 -639l295 639h262l86 -639l248 639h344z" />
    <glyph glyph-name="uni1E9E" unicode="&#x1e9e;" horiz-adv-x="1552" 
d="M1092 913q75 -14 139.5 -44t118.5 -78.5t85 -122.5t31 -166q0 -238 -151.5 -380t-401.5 -142q-219 0 -316.5 105.5t-88.5 315.5h332q0 -118 112 -118q64 0 103 46t39 105q0 107 -132.5 161t-359.5 42l342 516h-242q-152 0 -180 -170l-153 -983h-353l166 1038
q34 219 157 318.5t355 99.5h803z" />
    <glyph glyph-name="Ygrave" unicode="&#x1ef2;" horiz-adv-x="1511" 
d="M1067 1559l-68 262h-471l238 -262h301zM944 518l-80 -518h-362l80 518l-398 916h398l206 -578l396 578h389z" />
    <glyph glyph-name="ygrave" unicode="&#x1ef3;" horiz-adv-x="1202" 
d="M848 1190l-68 262h-471l238 -262h301zM889 1065h346l-619 -1081q-95 -166 -179.5 -252.5t-195 -120t-270.5 -14.5l43 276q58 -6 105.5 0.5t77.5 19.5t55.5 36.5t38.5 43t28 47.5q16 34 18.5 53t-5.5 68l-238 924h332l131 -635z" />
    <glyph glyph-name="endash" unicode="&#x2013;" horiz-adv-x="1228" 
d="M92 696h1045l-47 -276h-1045z" />
    <glyph glyph-name="emdash" unicode="&#x2014;" horiz-adv-x="1351" 
d="M92 696h1168l-50 -276h-1165z" />
    <glyph glyph-name="quoteleft" unicode="&#x2018;" horiz-adv-x="520" 
d="M584 1436l-17 -101q-71 -13 -113 -65.5t-53 -122.5l-12 -66h137l-57 -374h-358l53 340q15 103 48.5 177t72.5 114t94 63t100 29t105 6z" />
    <glyph glyph-name="quoteright" unicode="&#x2019;" horiz-adv-x="583" 
d="M125 686l-4 102q66 11 110 68t54 127l6 57h-121l63 394h414l-59 -367q-11 -74 -34 -134t-51.5 -99.5t-66.5 -68.5t-74.5 -44.5t-81 -24t-79.5 -10t-76 -0.5z" />
    <glyph glyph-name="quotesinglbase" unicode="&#x201a;" horiz-adv-x="587" 
d="M-43 -369l-2 103q66 11 109 67.5t53 126.5l12 58h-123l62 393h413l-57 -367q-12 -74 -35.5 -133.5t-52.5 -99t-67.5 -68.5t-75.5 -45t-81 -24.5t-79.5 -10t-75.5 -0.5z" />
    <glyph glyph-name="quotedblleft" unicode="&#x201c;" horiz-adv-x="1079" 
d="M584 1436l-17 -101q-71 -13 -113 -65.5t-53 -122.5l-12 -66h137l-57 -374h-358l53 340q15 103 48.5 177t72.5 114t94 63t100 29t105 6zM1141 1436l-17 -101q-71 -13 -113 -65.5t-53 -122.5l-12 -66h137l-57 -374h-358l53 340q15 103 48.5 177t72.5 114t94 63t100 29
t105 6z" />
    <glyph glyph-name="quotedblright" unicode="&#x201d;" horiz-adv-x="1083" 
d="M113 702l16 101q71 13 113 65.5t53 122.5l12 66h-137l57 375h359l-54 -340q-15 -103 -48.5 -177t-72 -114.5t-93.5 -63.5t-100 -29t-105 -6zM670 702l16 101q71 13 113 65.5t53 122.5l12 66h-137l57 375h359l-53 -340q-15 -103 -48.5 -177t-72.5 -114.5t-94 -63.5
t-100 -29t-105 -6z" />
    <glyph glyph-name="quotedblbase" unicode="&#x201e;" horiz-adv-x="1081" 
d="M-55 -354l16 100q71 13 113 65.5t53 122.5l12 66h-137l57 375h359l-53 -340q-15 -103 -48.5 -177t-72.5 -114t-94 -63t-100 -29t-105 -6zM502 -354l16 100q71 13 113 65.5t53 122.5l12 66h-137l57 375h359l-53 -340q-15 -103 -48.5 -177t-72.5 -114t-94 -63t-100 -29
t-105 -6z" />
    <glyph glyph-name="dagger" unicode="&#x2020;" horiz-adv-x="923" 
d="M883 1118l-39 -252h-226l-79 -501h-267l80 501h-227l39 252h229l49 316h267l-50 -316h224z" />
    <glyph glyph-name="daggerdbl" unicode="&#x2021;" horiz-adv-x="923" 
d="M850 920h-221l-66 -406h230l-45 -252h-224l-41 -262h-266l41 262h-229l45 252h223l65 406h-229l43 251h225l41 263h267l-41 -263h227z" />
    <glyph glyph-name="bullet" unicode="&#x2022;" horiz-adv-x="579" 
d="M252 352q-84 0 -136.5 61.5t-39.5 149.5q12 65 71 114.5t129 49.5q83 0 132 -60.5t36 -148.5q-11 -68 -66.5 -117t-125.5 -49z" />
    <glyph glyph-name="ellipsis" unicode="&#x2026;" horiz-adv-x="1566" 
d="M78 373h368l-57 -373h-369zM584 373h368l-57 -373h-369zM1090 373h368l-57 -373h-369z" />
    <glyph glyph-name="perthousand" unicode="&#x2030;" horiz-adv-x="2162" 
d="M418 748q-124 0 -196 70t-72 210q0 179 92 297.5t252 118.5q121 0 191.5 -69.5t70.5 -209.5q0 -180 -89.5 -298.5t-248.5 -118.5zM106 0l1074 1440l245 -6l-1065 -1434h-254zM432 961q41 0 66.5 32.5t33 70.5t7.5 81q0 88 -64 88q-56 0 -83 -55.5t-27 -126.5
q0 -90 67 -90zM1044 -10q-122 0 -195 70.5t-73 209.5q0 179 92 297.5t252 118.5q122 0 192 -69t70 -209q0 -117 -38 -210.5t-116 -150.5t-184 -57zM1696 -10q-122 0 -194 70t-72 210q0 179 91 297.5t251 118.5q122 0 192 -69t70 -209q0 -117 -38 -210.5t-116 -150.5
t-184 -57zM1061 203q31 0 53 18t32.5 47t15.5 58.5t5 60.5q0 86 -63 86q-39 0 -65.5 -29.5t-36 -68.5t-9.5 -84q0 -88 68 -88zM1712 203q40 0 65.5 32t33.5 70.5t8 81.5q0 86 -64 86q-57 0 -83.5 -54.5t-26.5 -127.5q0 -88 67 -88z" />
    <glyph glyph-name="guilsinglleft" unicode="&#x2039;" horiz-adv-x="534" 
d="M479 725l-188 -131l149 -133l-47 -281l-321 295l45 273l413 294z" />
    <glyph glyph-name="guilsinglright" unicode="&#x203a;" horiz-adv-x="532" 
d="M115 739l47 303l321 -294l-43 -273l-413 -295l49 293l186 133z" />
    <glyph glyph-name="fraction" unicode="&#x2044;" horiz-adv-x="337" 
d="M-279 0h-163l1118 1434h164z" />
    <glyph glyph-name="Euro" unicode="&#x20ac;" horiz-adv-x="1484" 
d="M907 1149q-102 0 -180.5 -58.5t-128.5 -156.5h236l-29 -201h-275q-8 -57 -10 -88h271l-33 -201h-219q51 -159 231 -159q108 0 173.5 46.5t111.5 153.5h338q-40 -165 -146 -281t-242 -169t-292 -53q-236 0 -383 119t-176 343h-125l32 201h91q2 29 10 88h-86l28 201h111
q90 236 280 377t453 141q115 0 212 -31t169 -91.5t108.5 -157.5t26.5 -220h-342q-12 102 -65.5 149.5t-149.5 47.5z" />
    <glyph glyph-name="trademark" unicode="&#x2122;" horiz-adv-x="1179" 
d="M598 1329h-121l-41 -264h-127l43 264h-123l17 105h368zM1159 1434l-57 -369h-127l31 172l-84 -172h-113l-33 172l-28 -172h-127l57 369h123l69 -273l160 273h129z" />
    <glyph glyph-name="partialdiff" unicode="&#x2202;" horiz-adv-x="1255" 
d="M590 930q43 0 82.5 -6t68.5 -15.5t53 -21.5t41 -24t28 -21.5t17 -15.5l7 -7q60 373 -182 373q-25 0 -53.5 -7t-61 -22.5t-61.5 -46.5t-46 -72h-297q11 55 36.5 109t71 108t105 95t144.5 66.5t184 25.5q121 0 212 -36.5t146 -103.5t86 -161.5t33 -210t-14 -248.5
q-27 -162 -78.5 -287.5t-114.5 -203.5t-142.5 -128t-156 -69.5t-161.5 -19.5q-65 0 -127.5 11.5t-127.5 41t-113 75t-79 120t-31 169.5q0 159 71 281.5t191 187t269 64.5zM535 256q115 0 196.5 86.5t81.5 204.5q0 45 -17 77t-44 47t-51 21t-48 6q-110 0 -187 -82t-77 -206
q0 -44 15.5 -76.5t39.5 -48t47 -22.5t44 -7z" />
    <glyph glyph-name="product" unicode="&#x220f;" horiz-adv-x="1560" 
d="M238 1638h1376l-322 -2027h-323l272 1722h-729l-272 -1722h-324z" />
    <glyph glyph-name="summation" unicode="&#x2211;" horiz-adv-x="1443" 
d="M1448 1335h-727l285 -710l-504 -711h721l-47 -303h-1262l727 1014l-401 1013h1257z" />
    <glyph glyph-name="minus" unicode="&#x2212;" horiz-adv-x="940" 
d="M80 629h813l-37 -234h-813z" />
    <glyph glyph-name="radical" unicode="&#x221a;" horiz-adv-x="1722" 
d="M1780 1638l-844 -2027h-397l-222 862h-264l56 361h481l186 -795l664 1599h340z" />
    <glyph glyph-name="infinity" unicode="&#x221e;" horiz-adv-x="1699" 
d="M1260 895q158 0 259 -84.5t101 -228.5q0 -173 -126 -291.5t-312 -118.5q-187 0 -367 195q-226 -195 -409 -195q-162 0 -264.5 85.5t-102.5 231.5q0 173 128 289.5t316 116.5q180 0 365 -193q228 193 412 193zM428 422q113 0 248 115q-62 116 -176 116q-75 0 -120.5 -43
t-45.5 -100q0 -34 22.5 -61t71.5 -27zM1167 422q73 0 116.5 37.5t43.5 99.5q0 38 -20.5 66t-69.5 28q-111 0 -254 -116q63 -115 184 -115z" />
    <glyph glyph-name="integral" unicode="&#x222b;" horiz-adv-x="659" 
d="M205 1040q13 88 47 158t94.5 125t157.5 81t225 17l-45 -286q-129 0 -160 -195l-147 -948q-14 -82 -36 -141.5t-60.5 -109t-94 -78.5t-138 -43t-191.5 -9l43 287q42 0 71 15.5t45 46.5t23.5 59.5t13.5 72.5z" />
    <glyph glyph-name="approxequal" unicode="&#x2248;" horiz-adv-x="1044" 
d="M897 817l129 -16q-20 -127 -98.5 -208t-206.5 -81q-50 0 -104.5 26.5t-95 58.5t-95 58.5t-104.5 26.5q-37 0 -74.5 -19.5t-40.5 -46.5l-131 17q22 128 99.5 208.5t205.5 80.5q41 0 84 -17.5t80 -42.5t73.5 -50t79.5 -42.5t84 -17.5q35 0 72 19t43 46zM842 489l131 -16
q-22 -128 -98 -208.5t-203 -80.5q-50 0 -105.5 26.5t-97.5 58.5t-97.5 58.5t-105.5 26.5q-37 0 -72 -18.5t-38 -46.5l-129 16q20 128 98 208.5t207 80.5q50 0 104.5 -26.5t95 -58.5t95 -58.5t104.5 -26.5q36 0 72 19t39 46z" />
    <glyph glyph-name="notequal" unicode="&#x2260;" horiz-adv-x="899" 
d="M868 610h-284l-54 -94h324l-35 -233h-416l-153 -283h-225l153 283h-172l35 233h264l53 94h-303l35 234h395l166 305h226l-166 -305h192z" />
    <glyph glyph-name="lessequal" unicode="&#x2264;" horiz-adv-x="829" 
d="M776 600l-424 172l477 168l50 279l-756 -320l-45 -256l651 -321zM27 213h690l-39 -233h-690z" />
    <glyph glyph-name="greaterequal" unicode="&#x2265;" horiz-adv-x="839" 
d="M84 600l-47 -278l754 321l43 256l-648 320l-49 -279l422 -168zM711 213l-39 -233h-697l39 233h697z" />
    <glyph glyph-name="lozenge" unicode="&#x25ca;" horiz-adv-x="1296" 
d="M995 1434l209 -717l-426 -717h-477l-209 717l426 717h477zM569 229l295 488l-137 487l-295 -487z" />
    <glyph glyph-name="G.ss01" horiz-adv-x="1431" 
d="M827 770h562l-123 -770h-324l23 115q-80 -82 -159.5 -113t-211.5 -31q-237 0 -385 158t-148 438q0 186 54.5 349t153.5 284.5t248 191.5t327 70q152 0 274 -53t196 -160.5t72 -253.5h-339q-28 90 -74 127t-133 37q-97 0 -177 -51t-130 -135.5t-76.5 -187.5t-26.5 -212
q0 -141 62 -220t194 -79q125 0 209.5 55.5t118.5 159.5h-232zM1026 535q0 2 1 6t1 6z" />
    <glyph glyph-name="R.ss01" horiz-adv-x="1335" 
d="M1329 1022q0 -193 -92 -335t-256 -210l197 -477h-353l-163 420h-226l-65 -420h-353l228 1434h590q252 0 372.5 -108.5t120.5 -303.5zM549 1130l-64 -407h240q104 0 163.5 70.5t59.5 177.5q0 73 -41 116t-123 43h-235z" />
    <glyph glyph-name="G.ss05" horiz-adv-x="1431" 
d="M827 770h562l-123 -770h-324l23 115q-80 -82 -159.5 -113t-211.5 -31q-237 0 -385 158t-148 438q0 186 54.5 349t153.5 284.5t248 191.5t327 70q152 0 274 -53t196 -160.5t72 -253.5h-339q-28 90 -74 127t-133 37q-97 0 -177 -51t-130 -135.5t-76.5 -187.5t-26.5 -212
q0 -141 62 -220t194 -79q125 0 209.5 55.5t118.5 159.5h-232zM1026 535q0 2 1 6t1 6z" />
    <glyph glyph-name="i.loclTRK" horiz-adv-x="532" 
d="M238 1452h340l-37 -235h-340zM176 1065h336l-168 -1065h-336z" />
    <glyph glyph-name="a.ss01" 
d="M819 1069h338l-168 -1069h-336l15 90q-20 -36 -86 -72t-170 -36q-48 0 -98 14.5t-101 48.5t-90.5 83.5t-64.5 126t-25 169.5q0 124 35.5 240.5t100 209t164 148t218.5 55.5q190 0 252 -135zM512 252q63 0 113 34.5t78.5 90.5t43.5 119.5t15 128.5q0 182 -152 182
q-66 0 -116.5 -35t-78 -92.5t-40.5 -120t-13 -127.5q0 -180 150 -180z" />
    <glyph glyph-name="aacute.ss01" 
d="M1141 1452l-277 -262h-299l109 262h467zM819 1069h338l-168 -1069h-336l15 90q-20 -36 -86 -72t-170 -36q-48 0 -98 14.5t-101 48.5t-90.5 83.5t-64.5 126t-25 169.5q0 124 35.5 240.5t100 209t164 148t218.5 55.5q190 0 252 -135zM512 252q63 0 113 34.5t78.5 90.5
t43.5 119.5t15 128.5q0 182 -152 182q-66 0 -116.5 -35t-78 -92.5t-40.5 -120t-13 -127.5q0 -180 150 -180z" />
    <glyph glyph-name="abreve.ss01" 
d="M709 1122q-174 0 -258 88.5t-58 241.5h211q-10 -61 24 -91t103 -30q153 0 174 121h217q-50 -330 -413 -330zM819 1069h338l-168 -1069h-336l15 90q-20 -36 -86 -72t-170 -36q-48 0 -98 14.5t-101 48.5t-90.5 83.5t-64.5 126t-25 169.5q0 124 35.5 240.5t100 209t164 148
t218.5 55.5q190 0 252 -135zM512 252q63 0 113 34.5t78.5 90.5t43.5 119.5t15 128.5q0 182 -152 182q-66 0 -116.5 -35t-78 -92.5t-40.5 -120t-13 -127.5q0 -180 150 -180z" />
    <glyph glyph-name="uni01CE.ss01" 
d="M1012 1157h-625l-84 295h256l156 -154l205 154h266zM803 942l16 127h338l-168 -1069h-336l15 90q-20 -36 -86 -72t-170 -36q-48 0 -98 14.5t-101 48.5t-90.5 83.5t-64.5 126t-25 169.5q0 124 35.5 240.5t100 209t164 148t218.5 55.5q190 0 252 -135zM512 252
q63 0 113 34.5t78.5 90.5t43.5 119.5t15 128.5q0 182 -152 182q-66 0 -116.5 -35t-78 -92.5t-40.5 -120t-13 -127.5q0 -180 150 -180z" />
    <glyph glyph-name="acircumflex.ss01" 
d="M721 1311l-209 -154h-266l176 295h625l81 -295h-254zM819 1069h338l-168 -1069h-336l15 90q-20 -36 -86 -72t-170 -36q-48 0 -98 14.5t-101 48.5t-90.5 83.5t-64.5 126t-25 169.5q0 124 35.5 240.5t100 209t164 148t218.5 55.5q190 0 252 -135zM512 252q63 0 113 34.5
t78.5 90.5t43.5 119.5t15 128.5q0 182 -152 182q-66 0 -116.5 -35t-78 -92.5t-40.5 -120t-13 -127.5q0 -180 150 -180z" />
    <glyph glyph-name="adieresis.ss01" 
d="M659 1452l-36 -235h-340l36 235h340zM1151 1452l-35 -235h-342l37 235h340zM819 1069h338l-168 -1069h-336l15 90q-20 -36 -86 -72t-170 -36q-48 0 -98 14.5t-101 48.5t-90.5 83.5t-64.5 126t-25 169.5q0 124 35.5 240.5t100 209t164 148t218.5 55.5q190 0 252 -135z
M512 252q63 0 113 34.5t78.5 90.5t43.5 119.5t15 128.5q0 182 -152 182q-66 0 -116.5 -35t-78 -92.5t-40.5 -120t-13 -127.5q0 -180 150 -180z" />
    <glyph glyph-name="agrave.ss01" 
d="M856 1190h-301l-238 262h471zM819 1069h338l-168 -1069h-336l15 90q-20 -36 -86 -72t-170 -36q-48 0 -98 14.5t-101 48.5t-90.5 83.5t-64.5 126t-25 169.5q0 124 35.5 240.5t100 209t164 148t218.5 55.5q190 0 252 -135zM512 252q63 0 113 34.5t78.5 90.5t43.5 119.5
t15 128.5q0 182 -152 182q-66 0 -116.5 -35t-78 -92.5t-40.5 -120t-13 -127.5q0 -180 150 -180z" />
    <glyph glyph-name="amacron.ss01" 
d="M1157 1452l-31 -192h-770l29 192h772zM803 942l16 127h338l-168 -1069h-336l15 90q-20 -36 -86 -72t-170 -36q-48 0 -98 14.5t-101 48.5t-90.5 83.5t-64.5 126t-25 169.5q0 124 35.5 240.5t100 209t164 148t218.5 55.5q190 0 252 -135zM512 252q63 0 113 34.5t78.5 90.5
t43.5 119.5t15 128.5q0 182 -152 182q-66 0 -116.5 -35t-78 -92.5t-40.5 -120t-13 -127.5q0 -180 150 -180z" />
    <glyph glyph-name="aogonek.ss01" 
d="M819 1069h338l-168 -1069h-94q-91 -23 -151.5 -52.5t-87 -60.5t-35.5 -54.5t-9 -49.5q0 -58 48 -69.5t120 20.5v-137q-45 -25 -106.5 -41.5t-127 -17t-121.5 14.5t-92 58t-36 110q0 62 34 114.5t88 85.5t114.5 53t119.5 26l15 90q-20 -36 -86 -72t-170 -36
q-48 0 -98 14.5t-101 48.5t-90.5 83.5t-64.5 126t-25 169.5q0 124 35.5 240.5t100 209t164 148t218.5 55.5q190 0 252 -135zM512 252q63 0 113 34.5t78.5 90.5t43.5 119.5t15 128.5q0 182 -152 182q-66 0 -116.5 -35t-78 -92.5t-40.5 -120t-13 -127.5q0 -180 150 -180z" />
    <glyph glyph-name="aring.ss01" 
d="M729 1190q-87 0 -143 55t-56 137q0 91 68.5 160.5t161.5 69.5q80 0 135 -56t55 -139q0 -89 -69 -158t-152 -69zM748 1475q-35 0 -59.5 -24.5t-24.5 -55.5q0 -30 20 -50t53 -20q32 0 55 24t23 54q0 31 -19 51.5t-48 20.5zM819 1069h338l-168 -1069h-336l15 90
q-20 -36 -86 -72t-170 -36q-48 0 -98 14.5t-101 48.5t-90.5 83.5t-64.5 126t-25 169.5q0 124 35.5 240.5t100 209t164 148t218.5 55.5q190 0 252 -135zM512 252q63 0 113 34.5t78.5 90.5t43.5 119.5t15 128.5q0 182 -152 182q-66 0 -116.5 -35t-78 -92.5t-40.5 -120
t-13 -127.5q0 -180 150 -180z" />
    <glyph glyph-name="atilde.ss01" 
d="M471 1313q-29 0 -54 -15t-24 -41h-127q0 123 66.5 203t195.5 80q55 0 113 -25.5t98.5 -55.5t96 -55.5t106.5 -25.5q30 0 54.5 15t23.5 41h129q0 -123 -67.5 -203t-194.5 -80q-56 0 -114 25.5t-99 55.5t-96.5 55.5t-106.5 25.5zM819 1069h338l-168 -1069h-336l15 90
q-20 -36 -86 -72t-170 -36q-48 0 -98 14.5t-101 48.5t-90.5 83.5t-64.5 126t-25 169.5q0 124 35.5 240.5t100 209t164 148t218.5 55.5q190 0 252 -135zM512 252q63 0 113 34.5t78.5 90.5t43.5 119.5t15 128.5q0 182 -152 182q-66 0 -116.5 -35t-78 -92.5t-40.5 -120
t-13 -127.5q0 -180 150 -180z" />
    <glyph glyph-name="g.ss01" horiz-adv-x="1165" 
d="M1130 1065l-40 -242q-53 0 -99 -24q2 -12 2 -39q0 -183 -130 -293.5t-331 -110.5q-123 0 -213 41q-1 0 -6.5 -2.5t-10 -6t-10 -9t-8.5 -14t-3 -19.5q0 -38 36 -47.5t136 -9.5h57q71 0 136.5 -9.5t129 -33t110 -60t75 -94.5t28.5 -131q0 -87 -32 -158t-86 -117.5t-128 -78
t-154.5 -45t-168.5 -13.5q-89 0 -169.5 17.5t-151.5 54.5t-113.5 103.5t-42.5 154.5q0 119 65 191.5t187 117.5q-64 9 -119.5 53t-55.5 111q0 66 44.5 107t121.5 55q-39 67 -39 154q0 185 131.5 297t331.5 112q178 0 285 -90q85 80 235 78zM557 590q71 0 113.5 40t42.5 99
q0 23 -3.5 39t-14.5 35.5t-38.5 30t-70.5 10.5q-80 0 -119 -42t-39 -104q0 -20 3 -34t14 -33.5t39.5 -30t72.5 -10.5zM485 51q-104 0 -161.5 -36.5t-57.5 -106.5q0 -121 176 -121q104 0 163 37t59 106q0 121 -179 121z" />
    <glyph glyph-name="l.ss01" horiz-adv-x="614" 
d="M449 0q-61 -6 -108 -7.5t-91 2t-75 14t-56.5 28.5t-40.5 45t-23 64.5t-7 86.5t11 111l177 1090h335l-178 -1127q-6 -34 17 -49t84 -14z" />
    <glyph glyph-name="a.ss02" 
d="M819 1069h338l-168 -1069h-336l15 90q-20 -36 -86 -72t-170 -36q-48 0 -98 14.5t-101 48.5t-90.5 83.5t-64.5 126t-25 169.5q0 124 35.5 240.5t100 209t164 148t218.5 55.5q190 0 252 -135zM512 252q63 0 113 34.5t78.5 90.5t43.5 119.5t15 128.5q0 182 -152 182
q-66 0 -116.5 -35t-78 -92.5t-40.5 -120t-13 -127.5q0 -180 150 -180z" />
    <glyph glyph-name="aacute.ss02" 
d="M1141 1452l-277 -262h-299l109 262h467zM819 1069h338l-168 -1069h-336l15 90q-20 -36 -86 -72t-170 -36q-48 0 -98 14.5t-101 48.5t-90.5 83.5t-64.5 126t-25 169.5q0 124 35.5 240.5t100 209t164 148t218.5 55.5q190 0 252 -135zM512 252q63 0 113 34.5t78.5 90.5
t43.5 119.5t15 128.5q0 182 -152 182q-66 0 -116.5 -35t-78 -92.5t-40.5 -120t-13 -127.5q0 -180 150 -180z" />
    <glyph glyph-name="abreve.ss02" 
d="M709 1122q-174 0 -258 88.5t-58 241.5h211q-10 -61 24 -91t103 -30q153 0 174 121h217q-50 -330 -413 -330zM819 1069h338l-168 -1069h-336l15 90q-20 -36 -86 -72t-170 -36q-48 0 -98 14.5t-101 48.5t-90.5 83.5t-64.5 126t-25 169.5q0 124 35.5 240.5t100 209t164 148
t218.5 55.5q190 0 252 -135zM512 252q63 0 113 34.5t78.5 90.5t43.5 119.5t15 128.5q0 182 -152 182q-66 0 -116.5 -35t-78 -92.5t-40.5 -120t-13 -127.5q0 -180 150 -180z" />
    <glyph glyph-name="uni01CE.ss02" 
d="M1012 1157h-625l-84 295h256l156 -154l205 154h266zM803 942l16 127h338l-168 -1069h-336l15 90q-20 -36 -86 -72t-170 -36q-48 0 -98 14.5t-101 48.5t-90.5 83.5t-64.5 126t-25 169.5q0 124 35.5 240.5t100 209t164 148t218.5 55.5q190 0 252 -135zM512 252
q63 0 113 34.5t78.5 90.5t43.5 119.5t15 128.5q0 182 -152 182q-66 0 -116.5 -35t-78 -92.5t-40.5 -120t-13 -127.5q0 -180 150 -180z" />
    <glyph glyph-name="acircumflex.ss02" 
d="M721 1311l-209 -154h-266l176 295h625l81 -295h-254zM819 1069h338l-168 -1069h-336l15 90q-20 -36 -86 -72t-170 -36q-48 0 -98 14.5t-101 48.5t-90.5 83.5t-64.5 126t-25 169.5q0 124 35.5 240.5t100 209t164 148t218.5 55.5q190 0 252 -135zM512 252q63 0 113 34.5
t78.5 90.5t43.5 119.5t15 128.5q0 182 -152 182q-66 0 -116.5 -35t-78 -92.5t-40.5 -120t-13 -127.5q0 -180 150 -180z" />
    <glyph glyph-name="adieresis.ss02" 
d="M659 1452l-36 -235h-340l36 235h340zM1151 1452l-35 -235h-342l37 235h340zM819 1069h338l-168 -1069h-336l15 90q-20 -36 -86 -72t-170 -36q-48 0 -98 14.5t-101 48.5t-90.5 83.5t-64.5 126t-25 169.5q0 124 35.5 240.5t100 209t164 148t218.5 55.5q190 0 252 -135z
M512 252q63 0 113 34.5t78.5 90.5t43.5 119.5t15 128.5q0 182 -152 182q-66 0 -116.5 -35t-78 -92.5t-40.5 -120t-13 -127.5q0 -180 150 -180z" />
    <glyph glyph-name="agrave.ss02" 
d="M856 1190h-301l-238 262h471zM819 1069h338l-168 -1069h-336l15 90q-20 -36 -86 -72t-170 -36q-48 0 -98 14.5t-101 48.5t-90.5 83.5t-64.5 126t-25 169.5q0 124 35.5 240.5t100 209t164 148t218.5 55.5q190 0 252 -135zM512 252q63 0 113 34.5t78.5 90.5t43.5 119.5
t15 128.5q0 182 -152 182q-66 0 -116.5 -35t-78 -92.5t-40.5 -120t-13 -127.5q0 -180 150 -180z" />
    <glyph glyph-name="amacron.ss02" 
d="M1157 1452l-31 -192h-770l29 192h772zM803 942l16 127h338l-168 -1069h-336l15 90q-20 -36 -86 -72t-170 -36q-48 0 -98 14.5t-101 48.5t-90.5 83.5t-64.5 126t-25 169.5q0 124 35.5 240.5t100 209t164 148t218.5 55.5q190 0 252 -135zM512 252q63 0 113 34.5t78.5 90.5
t43.5 119.5t15 128.5q0 182 -152 182q-66 0 -116.5 -35t-78 -92.5t-40.5 -120t-13 -127.5q0 -180 150 -180z" />
    <glyph glyph-name="aogonek.ss02" 
d="M819 1069h338l-168 -1069h-94q-91 -23 -151.5 -52.5t-87 -60.5t-35.5 -54.5t-9 -49.5q0 -58 48 -69.5t120 20.5v-137q-45 -25 -106.5 -41.5t-127 -17t-121.5 14.5t-92 58t-36 110q0 62 34 114.5t88 85.5t114.5 53t119.5 26l15 90q-20 -36 -86 -72t-170 -36
q-48 0 -98 14.5t-101 48.5t-90.5 83.5t-64.5 126t-25 169.5q0 124 35.5 240.5t100 209t164 148t218.5 55.5q190 0 252 -135zM512 252q63 0 113 34.5t78.5 90.5t43.5 119.5t15 128.5q0 182 -152 182q-66 0 -116.5 -35t-78 -92.5t-40.5 -120t-13 -127.5q0 -180 150 -180z" />
    <glyph glyph-name="aring.ss02" 
d="M729 1190q-87 0 -143 55t-56 137q0 91 68.5 160.5t161.5 69.5q80 0 135 -56t55 -139q0 -89 -69 -158t-152 -69zM748 1475q-35 0 -59.5 -24.5t-24.5 -55.5q0 -30 20 -50t53 -20q32 0 55 24t23 54q0 31 -19 51.5t-48 20.5zM819 1069h338l-168 -1069h-336l15 90
q-20 -36 -86 -72t-170 -36q-48 0 -98 14.5t-101 48.5t-90.5 83.5t-64.5 126t-25 169.5q0 124 35.5 240.5t100 209t164 148t218.5 55.5q190 0 252 -135zM512 252q63 0 113 34.5t78.5 90.5t43.5 119.5t15 128.5q0 182 -152 182q-66 0 -116.5 -35t-78 -92.5t-40.5 -120
t-13 -127.5q0 -180 150 -180z" />
    <glyph glyph-name="atilde.ss02" 
d="M471 1313q-29 0 -54 -15t-24 -41h-127q0 123 66.5 203t195.5 80q55 0 113 -25.5t98.5 -55.5t96 -55.5t106.5 -25.5q30 0 54.5 15t23.5 41h129q0 -123 -67.5 -203t-194.5 -80q-56 0 -114 25.5t-99 55.5t-96.5 55.5t-106.5 25.5zM819 1069h338l-168 -1069h-336l15 90
q-20 -36 -86 -72t-170 -36q-48 0 -98 14.5t-101 48.5t-90.5 83.5t-64.5 126t-25 169.5q0 124 35.5 240.5t100 209t164 148t218.5 55.5q190 0 252 -135zM512 252q63 0 113 34.5t78.5 90.5t43.5 119.5t15 128.5q0 182 -152 182q-66 0 -116.5 -35t-78 -92.5t-40.5 -120
t-13 -127.5q0 -180 150 -180z" />
    <glyph glyph-name="g.ss03" horiz-adv-x="1165" 
d="M1130 1065l-40 -242q-53 0 -99 -24q2 -12 2 -39q0 -183 -130 -293.5t-331 -110.5q-123 0 -213 41q-1 0 -6.5 -2.5t-10 -6t-10 -9t-8.5 -14t-3 -19.5q0 -38 36 -47.5t136 -9.5h57q71 0 136.5 -9.5t129 -33t110 -60t75 -94.5t28.5 -131q0 -87 -32 -158t-86 -117.5t-128 -78
t-154.5 -45t-168.5 -13.5q-89 0 -169.5 17.5t-151.5 54.5t-113.5 103.5t-42.5 154.5q0 119 65 191.5t187 117.5q-64 9 -119.5 53t-55.5 111q0 66 44.5 107t121.5 55q-39 67 -39 154q0 185 131.5 297t331.5 112q178 0 285 -90q85 80 235 78zM557 590q71 0 113.5 40t42.5 99
q0 23 -3.5 39t-14.5 35.5t-38.5 30t-70.5 10.5q-80 0 -119 -42t-39 -104q0 -20 3 -34t14 -33.5t39.5 -30t72.5 -10.5zM485 51q-104 0 -161.5 -36.5t-57.5 -106.5q0 -121 176 -121q104 0 163 37t59 106q0 121 -179 121z" />
    <glyph glyph-name="l.ss04" horiz-adv-x="614" 
d="M449 0q-61 -6 -108 -7.5t-91 2t-75 14t-56.5 28.5t-40.5 45t-23 64.5t-7 86.5t11 111l177 1090h335l-178 -1127q-6 -34 17 -49t84 -14z" />
    <glyph glyph-name="f_t" horiz-adv-x="1603" 
d="M1339 805l-71 -438q-10 -54 6 -79.5t69 -25.5q67 0 140 17l-41 -261q-71 -32 -211 -32q-52 0 -93.5 6.5t-82 23t-66 45t-45 72t-20 104.5t9.5 142l67 426h-446l-127 -805h-336l129 805h-176l39 260h178l4 29q11 72 33 130t48.5 96.5t63 66t69.5 42.5t77.5 24t78 11
t77.5 2q85 0 135 -12l-41 -252q-40 6 -76 6q-65 0 -94 -31t-39 -96l-2 -16h446l43 266h338l-43 -266h213l-43 -260h-211z" />
    <glyph glyph-name="r_t" horiz-adv-x="1579" 
d="M1315 805l-72 -438q-10 -54 6.5 -79.5t69.5 -25.5q66 0 139 17l-41 -261q-71 -32 -211 -32q-52 0 -93.5 6.5t-82 23t-66 45t-45 72t-20 104.5t9.5 142l68 426h-166l39 260h168l43 266h338l-43 -266h213l-43 -260h-211zM465 834q32 68 100 122.5t143 81.5t142 27l-41 -260
q-152 0 -252.5 -78.5t-138.5 -198.5l-84 -528h-336l168 1065h336z" />
    <glyph glyph-name="zero.dnom" horiz-adv-x="593" 
d="M217 -4q116 0 190 88.5t74 241.5q0 101 -51.5 157t-140.5 56q-124 0 -193 -96.5t-69 -235.5q0 -100 49.5 -155.5t140.5 -55.5zM274 422q38 0 58 -30.5t20 -80.5q0 -92 -36 -145t-91 -53q-34 0 -51.5 29.5t-17.5 78.5q0 93 32.5 147t85.5 54z" />
    <glyph glyph-name="one.dnom" horiz-adv-x="434" 
d="M291 532l-84 -532h-125l70 387q-42 -52 -142 -43l19 117q42 -4 80.5 19t56.5 52h125z" />
    <glyph glyph-name="two.dnom" horiz-adv-x="561" 
d="M8 0q12 103 53 162.5t132 109.5q8 4 32 14.5t36.5 17.5t29 18.5t24 25.5t7.5 31q0 25 -17 37t-35 12q-27 0 -49.5 -16t-25.5 -50h-129q11 81 65.5 131t149.5 50q86 0 128 -40t42 -104q0 -22 -5.5 -42.5t-13.5 -35.5t-22.5 -30.5t-27 -26t-33.5 -23t-34.5 -19.5t-37 -19
t-35.5 -19q-33 -17 -51.5 -38t-20.5 -35h231l-16 -111h-377z" />
    <glyph glyph-name="three.dnom" horiz-adv-x="569" 
d="M326 283q38 -4 70 -30t32 -77q0 -78 -61.5 -131t-171.5 -53q-84 0 -133 52t-37 122h118q-3 -37 18.5 -51.5t51.5 -14.5q33 0 59.5 18t26.5 58q0 29 -16 44.5t-66 15.5h-22l16 90h22q76 0 76 61q0 47 -57 47q-25 0 -44.5 -14.5t-25.5 -44.5h-114q14 81 66 124.5t140 43.5
q73 0 117.5 -35.5t44.5 -87.5q0 -57 -33 -91.5t-77 -45.5z" />
    <glyph glyph-name="four.dnom" horiz-adv-x="585" 
d="M440 135h-61l-23 -135h-120l22 135h-238l15 98l287 302h120l-49 -302h62zM272 233l27 166l-160 -166h133z" />
    <glyph glyph-name="five.dnom" horiz-adv-x="542" 
d="M268 375q79 0 125.5 -53t34.5 -136q-18 -96 -84 -146t-166 -50q-95 0 -141 48t-35 126h131q-3 -31 18 -45.5t46 -14.5q81 0 94 82q5 49 -15.5 69.5t-52.5 20.5q-41 0 -73 -28h-113l86 287h299l-16 -113h-211l-21 -76q44 29 94 29z" />
    <glyph glyph-name="six.dnom" horiz-adv-x="600" 
d="M303 365q77 0 118.5 -38.5t41.5 -115.5q0 -61 -24 -106.5t-62 -69t-76.5 -34.5t-75.5 -11q-116 0 -158.5 77t-27.5 203q20 121 89 196t179 75q85 0 126 -44.5t38 -99.5h-129q-1 17 -19 26t-34 9q-105 0 -127 -133q15 26 54 46t87 20zM240 102q6 0 14.5 1.5t23 7.5t26 16
t20 29.5t8.5 44.5q0 35 -20.5 51t-49.5 16q-36 0 -64 -25t-28 -69q0 -39 21.5 -55.5t48.5 -16.5z" />
    <glyph glyph-name="seven.dnom" horiz-adv-x="473" 
d="M412 535l-21 -113l-282 -422h-125l286 422h-247l22 113h367z" />
    <glyph glyph-name="eight.dnom" horiz-adv-x="501" 
d="M324 297q71 -41 71 -111q0 -85 -59.5 -137.5t-165.5 -52.5q-77 0 -126.5 39t-49.5 108q0 107 102 152q-41 30 -41 88q0 60 50 108t135 48q71 0 112 -36t41 -89q0 -82 -69 -117zM166 389q0 -22 15.5 -34.5t41.5 -12.5q60 3 60 59q0 19 -14.5 31t-37.5 12
q-30 0 -47.5 -16.5t-17.5 -38.5zM182 92q48 0 69 25.5t21 54.5q0 31 -21.5 48.5t-53.5 17.5q-37 0 -62.5 -22.5t-25.5 -59.5q0 -30 21 -47t52 -17z" />
    <glyph glyph-name="nine.dnom" horiz-adv-x="602" 
d="M213 166q-78 0 -120 38t-42 115q0 61 24 106.5t62 69.5t76.5 35t75.5 11q60 0 102 -22.5t61 -61t26 -89.5t-3 -108q-20 -121 -89 -195.5t-179 -74.5q-83 0 -124 44t-38 99h129q1 -17 18 -26t33 -9q105 0 127 133q-15 -25 -53.5 -45t-85.5 -20zM276 428q-9 0 -21 -3
t-29.5 -11.5t-29.5 -30.5t-12 -53q0 -34 20.5 -51t49.5 -17q35 0 63.5 25t28.5 69q0 39 -21.5 55.5t-48.5 16.5z" />
    <glyph glyph-name="zero.numr" horiz-adv-x="591" 
d="M358 897q116 0 190.5 88.5t74.5 241.5q0 101 -52 157t-141 56q-124 0 -193 -96.5t-69 -235.5q0 -100 49.5 -155.5t140.5 -55.5zM416 1323q38 0 58 -30.5t20 -80.5q0 -92 -36 -145t-91 -53q-34 0 -52 29.5t-18 78.5q0 93 33 147t86 54z" />
    <glyph glyph-name="one.numr" horiz-adv-x="434" 
d="M434 1434l-84 -533h-125l70 387q-42 -52 -141 -43l18 117q42 -4 80.5 19.5t56.5 52.5h125z" />
    <glyph glyph-name="two.numr" horiz-adv-x="561" 
d="M152 901q12 103 53 163t131 110q8 4 32 14.5t36.5 17t29 18t24 25.5t7.5 31q0 25 -16.5 37t-34.5 12q-28 0 -50.5 -16t-25.5 -49h-129q11 81 65.5 130.5t149.5 49.5q86 0 128 -40t42 -104q0 -22 -5.5 -42.5t-13.5 -35.5t-22.5 -30.5t-27 -26t-33.5 -23t-34.5 -19.5
t-37 -19t-35.5 -19q-33 -17 -51.5 -38t-20.5 -35h232l-17 -111h-376z" />
    <glyph glyph-name="three.numr" horiz-adv-x="567" 
d="M467 1184q38 -4 70 -30t32 -77q0 -78 -61.5 -131t-171.5 -53q-84 0 -133 52t-37 122h119q-3 -37 18 -51.5t51 -14.5q33 0 59.5 18t26.5 58q0 29 -16 44.5t-66 15.5h-22l16 90h23q76 0 76 61q0 22 -15 34.5t-43 12.5q-24 0 -43.5 -14.5t-25.5 -44.5h-115q14 81 66.5 124.5
t140.5 43.5q73 0 117.5 -35.5t44.5 -87.5q0 -57 -33.5 -91.5t-77.5 -45.5z" />
    <glyph glyph-name="four.numr" horiz-adv-x="585" 
d="M584 1036h-62l-22 -135h-121l22 135h-237l14 99l287 301h121l-49 -301h61zM416 1135l26 165l-159 -165h133z" />
    <glyph glyph-name="five.numr" horiz-adv-x="546" 
d="M412 1276q79 0 125 -52.5t34 -136.5q-18 -97 -83.5 -146.5t-165.5 -49.5q-96 0 -142 48.5t-35 125.5h131q-3 -31 18 -45t46 -14q81 0 94 81q5 49 -15 70t-52 21q-41 0 -74 -29h-113l86 287h299l-16 -113h-211l-21 -76q43 29 95 29z" />
    <glyph glyph-name="six.numr" horiz-adv-x="600" 
d="M446 1264q77 0 118.5 -38.5t41.5 -115.5q0 -61 -24 -106.5t-61.5 -69t-76 -34.5t-75.5 -11q-60 0 -101.5 22.5t-61 60.5t-26.5 89t2 108q20 121 89.5 196t179.5 75q85 0 125.5 -44.5t37.5 -99.5h-129q-1 17 -19 26t-34 9q-105 0 -127 -133q15 26 54 46t87 20zM383 1001
q6 0 14.5 1.5t23 7.5t26 16t20 29.5t8.5 44.5q0 35 -20 51t-49 16q-36 0 -64.5 -25t-28.5 -69q0 -39 21.5 -55.5t48.5 -16.5z" />
    <glyph glyph-name="seven.numr" horiz-adv-x="473" 
d="M555 1436l-20 -113l-283 -422h-125l287 422h-248l22 113h367z" />
    <glyph glyph-name="eight.numr" horiz-adv-x="501" 
d="M467 1198q72 -42 72 -111q0 -85 -60 -137.5t-166 -52.5q-77 0 -126.5 39t-49.5 108q0 51 27 90.5t76 61.5q-41 30 -41 88q0 60 49.5 108t134.5 48q71 0 112.5 -36t41.5 -89q0 -81 -70 -117zM309 1290q0 -22 16 -34.5t42 -12.5q59 3 59 60q0 19 -14 31t-37 12
q-30 0 -48 -17t-18 -39zM326 993q48 0 69 25.5t21 54.5q0 31 -22 48.5t-54 17.5q-37 0 -62.5 -22.5t-25.5 -59.5q0 -30 21.5 -47t52.5 -17z" />
    <glyph glyph-name="nine.numr" horiz-adv-x="602" 
d="M356 1067q-78 0 -119.5 38.5t-41.5 115.5q0 61 24 106.5t61.5 69t76 34.5t75.5 11q60 0 102 -22.5t61 -61t26 -89.5t-3 -108q-20 -121 -89 -195.5t-179 -74.5q-83 0 -124 44t-38 99h129q1 -17 18.5 -26t33.5 -9q105 0 127 134q-15 -25 -54 -45.5t-86 -20.5zM420 1329
q-9 0 -21 -3t-29.5 -11.5t-29.5 -30.5t-12 -53q0 -34 20 -51t49 -17q35 0 63.5 25t28.5 69q0 39 -21 55.5t-48 16.5z" />
    <glyph glyph-name="Aacutecy" horiz-adv-x="1519" 
d="M1325 1821l-276 -262h-299l108 262h467zM993 0l-41 240h-503l-117 -240h-375l764 1434h330l323 -1434h-381zM575 498h332l-86 503z" />
    <glyph glyph-name="Ieacutecy" horiz-adv-x="1220" 
d="M641 1559h299l277 262h-467zM1225 1130h-676l-43 -266h573l-45 -280h-573l-41 -281h694l-47 -303h-1049l228 1434h1028z" />
    <glyph glyph-name="Iiacutecy" horiz-adv-x="1470" 
d="M745 1559h299l277 262h-467zM246 1434h352l-141 -869h6l663 869h355l-228 -1434h-352l133 844h-4l-641 -844h-371z" />
    <glyph glyph-name="Oacutecy" horiz-adv-x="1507" 
d="M776 1559h299l277 262h-467zM881 1452q274 0 429.5 -151.5t155.5 -421.5q0 -184 -59 -347.5t-164 -285.5t-260.5 -193t-337.5 -71q-271 0 -428.5 152t-157.5 419q0 187 58.5 351.5t163.5 285.5t260.5 191.5t339.5 70.5zM692 283q79 0 146 32t114.5 86.5t81.5 127
t50 153.5t16 166q0 144 -67.5 223.5t-198.5 79.5q-99 0 -178.5 -49t-128 -130.5t-74 -180.5t-25.5 -205q0 -142 68 -222.5t196 -80.5z" />
    <glyph glyph-name="Uacutecy" horiz-adv-x="1306" 
d="M668 1559h299l276 262h-467zM975 1434h393l-588 -1031q-106 -188 -204 -286.5t-213 -134t-279 -19.5l47 309q32 -4 60.5 -4t50 2t41.5 8.5t33 11.5t26 16t20 17.5t16 19t12.5 18t10.5 18.5q49 96 13 223l-230 832h385l140 -564z" />
    <glyph glyph-name="Yeruacutecy" horiz-adv-x="1888" 
d="M961 1559h299l276 262h-467zM754 967q254 0 377.5 -106.5t123.5 -297.5q0 -271 -169.5 -417t-467.5 -146h-600l228 1434h352l-76 -467h232zM1671 0h-352l225 1434h352zM645 297q108 0 171 71t63 175q0 127 -160 127h-244l-55 -373h225z" />
    <glyph glyph-name="Ereversedacutecy" horiz-adv-x="1439" 
d="M1311 1821l-277 -262h-299l109 262h467zM815 1452q270 0 426 -150t156 -423q0 -149 -33.5 -284t-100 -246.5t-159.5 -193.5t-218 -127.5t-270 -45.5q-119 0 -220.5 32t-177.5 93.5t-115 158.5t-29 219h340q21 -116 61.5 -158t140.5 -42q129 0 221.5 82t141.5 217h-363
l46 280h364v8q0 130 -57 203.5t-174 73.5q-107 0 -171 -46.5t-124 -150.5h-350q31 126 98.5 223.5t157.5 157t193.5 89.5t215.5 30z" />
    <glyph glyph-name="Iuacutecy" horiz-adv-x="2058" 
d="M1620 1821l-277 -262h-299l109 262h467zM1434 1452q274 0 429.5 -151.5t155.5 -421.5q0 -184 -59 -347.5t-164 -285.5t-260.5 -193t-337.5 -71q-271 0 -428.5 152t-157.5 419v25h-149l-90 -578h-353l226 1434h352l-90 -572h149q79 267 284 428.5t493 161.5zM1245 283
q79 0 146 32t114.5 86.5t81.5 127t50 153.5t16 166q0 144 -68 223.5t-199 79.5q-80 0 -147 -32.5t-114 -87t-80 -127.5t-48.5 -153.5t-15.5 -164.5q0 -142 68 -222.5t196 -80.5z" />
    <glyph glyph-name="Iaacutecy" horiz-adv-x="1425" 
d="M1303 1821l-277 -262h-299l109 262h467zM1436 1434l-228 -1434h-352l80 502h-287q-102 0 -164 -58.5t-77 -167.5l-7 -45q-12 -86 -27.5 -133t-49.5 -98h-357q38 55 58.5 110t29.5 138l6 57q17 136 84 224.5t189 140.5q-64 35 -108 106t-44 182q0 146 77.5 254.5
t213.5 165t313 56.5h650zM711 778h268l55 350h-264q-112 0 -173.5 -59.5t-61.5 -144.5q0 -146 176 -146z" />
    <glyph glyph-name="aacutecy" horiz-adv-x="1189" 
d="M1110 1452l-276 -262h-299l108 262h467zM1008 274q-6 -42 10 -62.5t55 -23.5l-33 -180q-56 -16 -125 -16q-104 0 -171.5 45.5t-57.5 112.5l-10 -13q-11 -13 -17.5 -20t-21.5 -22t-29.5 -25.5t-34.5 -24.5t-42.5 -23t-49 -18t-58 -13.5t-65.5 -4.5q-73 0 -134 16t-111 49
t-78.5 90.5t-28.5 134.5q0 87 30.5 152t87.5 106t129 64t165 33q18 2 57.5 6.5t56 6.5t48 6t48 7t39.5 8t40.5 10.5t33.5 12.5q4 45 -6.5 75t-32.5 42.5t-41.5 17t-44.5 4.5q-129 0 -167 -106h-316q38 178 157 266t347 88q266 0 361 -110t61 -340zM463 225q65 0 124 37
t91 74l31 166q-62 -18 -97.5 -25t-134.5 -22q-67 -10 -101 -43.5t-34 -81.5q0 -105 121 -105z" />
    <glyph glyph-name="ieacutecy" horiz-adv-x="1165" 
d="M1114 1452l-276 -262h-299l108 262h467zM641 1075q92 0 170.5 -25t142 -76t100 -140t36.5 -207q0 -41 -7.5 -104t-17.5 -97h-719q6 -193 195 -193q116 0 174 78h307q-133 -325 -524 -325q-84 0 -164 25.5t-148.5 77t-110.5 140.5t-42 203q0 181 78.5 328.5t218 231
t311.5 83.5zM776 627q6 18 6 53q0 62 -44.5 104.5t-119.5 42.5q-182 0 -245 -200h403z" />
    <glyph glyph-name="iiacutecy" horiz-adv-x="1269" 
d="M592 1190h299l276 262h-467zM166 1065h336l-90 -590h4l477 590h338l-168 -1065h-336l88 567h-4l-461 -567h-352z" />
    <glyph glyph-name="oacutecy" horiz-adv-x="1200" 
d="M537 1190h299l276 262h-467zM653 1075q65 0 129 -15.5t126 -50.5t109 -86t76 -128.5t29 -171.5q0 -178 -75.5 -323t-216 -229.5t-320.5 -84.5q-67 0 -131.5 14.5t-127 49.5t-109.5 85.5t-76 129.5t-29 175q0 132 46 249t126.5 202t196 134.5t247.5 49.5zM801 602
q0 99 -49.5 151t-126.5 52q-84 0 -147 -56t-91.5 -134t-28.5 -160q0 -95 49.5 -147t127.5 -52q86 0 148.5 55.5t90 132t27.5 158.5z" />
    <glyph glyph-name="uacutecy" horiz-adv-x="1202" 
d="M557 1190h299l277 262h-467zM889 1065h346l-619 -1081q-95 -166 -179.5 -252.5t-195 -120t-270.5 -14.5l43 276q58 -6 105.5 0.5t77.5 19.5t55.5 36.5t38.5 43t28 47.5q16 34 18.5 53t-5.5 68l-238 924h332l131 -635z" />
    <glyph glyph-name="yeruacutecy" horiz-adv-x="1728" 
d="M819 1190h299l277 262h-467zM713 719q182 0 289.5 -86t107.5 -232q0 -186 -138 -293.5t-354 -107.5h-610l168 1065h336l-55 -346h256zM1354 1065h336l-168 -1065h-336zM639 260q69 0 110.5 31.5t41.5 83.5q0 82 -107 82h-266l-33 -197h254z" />
    <glyph glyph-name="ereversedacutecy" horiz-adv-x="1120" 
d="M1092 1452l-277 -262h-299l109 262h467zM594 1075q67 0 130 -14.5t122.5 -47t103.5 -81t70.5 -122t26.5 -163.5q0 -188 -75 -338.5t-213 -236.5t-315 -86q-64 0 -119.5 10.5t-111 39t-95 72.5t-64.5 116t-27 165h295q2 -67 32 -100t107 -33q74 0 130 48t89 128h-260
l29 203h270v6q0 75 -41 119.5t-113 44.5q-147 0 -196 -131h-303q124 401 528 401z" />
    <glyph glyph-name="iuacutecy" horiz-adv-x="1705" 
d="M1384 1452l-276 -262h-299l109 262h466zM1159 1075q65 0 129 -15.5t126 -50.5t109 -86t76 -128.5t29 -171.5q0 -178 -75.5 -323t-216 -229.5t-320.5 -84.5q-64 0 -126 13.5t-123 45t-107.5 78t-78 118.5t-36.5 160h-137l-64 -403h-336l168 1065h336l-63 -399h131
q63 186 217.5 298.5t361.5 112.5zM1040 256q53 0 97.5 21t75 56t52.5 80.5t32 93.5t10 95q0 98 -49.5 150.5t-127.5 52.5q-64 0 -116.5 -32.5t-84 -84.5t-48.5 -112.5t-17 -120.5q0 -95 49 -147t127 -52z" />
    <glyph glyph-name="iaacutecy" horiz-adv-x="1204" 
d="M1133 1452l-277 -262h-299l109 262h467zM555 1065h610l-168 -1065h-335l55 346h-223q-102 0 -115 -100l-12 -84q-6 -43 -15 -73t-15 -42t-26 -47h-331q17 32 23.5 46.5t15 43.5t16.5 72l12 84q17 132 123 186q-107 87 -107 232q0 186 138 293.5t354 107.5zM756 608
l32 197h-253q-69 0 -110.5 -31.5t-41.5 -83.5q0 -82 106 -82h267z" />
    </font>
</defs>
</svg>
