<?xml version="1.0" standalone="no"?>
<!DOCTYPE svg PUBLIC "-//W3C//DTD SVG 1.1//EN" "http://www.w3.org/Graphics/SVG/1.1/DTD/svg11.dtd" >
<svg xmlns="http://www.w3.org/2000/svg" xmlns:xlink="http://www.w3.org/1999/xlink" version="1.1">
<metadata>
Created by FontForge 20170731 at Mon Aug  7 16:11:16 2023
 By Aleksey,,,
(c) 2018 Connary Fagen
</metadata>
<defs>
<font id="ArticulatCF-ExtraLight" horiz-adv-x="1155" >
  <font-face 
    font-family="Articulat CF Extra Light"
    font-weight="250"
    font-stretch="normal"
    units-per-em="2048"
    panose-1="0 0 3 0 0 0 0 0 0 0"
    ascent="1638"
    descent="-410"
    x-height="1065"
    cap-height="1434"
    bbox="-326 -483 2161 1874"
    underline-thickness="102"
    underline-position="-307"
    unicode-range="U+0020-FB02"
  />
<missing-glyph horiz-adv-x="1044" 
d="M856 1638v-2089h-661v2089h661zM696 1499h-346v-69h137v-78h-139v-68h348v68h-139v78h139v69zM557 1229h-209v-217h348v71h-139v146zM487 1157v-74h-69v74h69zM696 954h-348v-67h139v-78h-139v-70h209v148h139v67zM696 829h-69v-137h-279v-71h348v208zM696 575h-209v-116
h70v47h70v-98h-209v167h-70v-235h348v235zM696 213h-348v-236h348v236zM627 145v-98h-209v98h209zM696 -70h-348v-69h148l-148 -99v-69h348v69h-213l146 99h67v69z" />
    <glyph glyph-name="fi" unicode="fi" horiz-adv-x="933" 
d="M186 1217q0 72 18.5 122.5t53 77t75 38t91.5 11.5q82 0 156 -22v-68q-93 19 -148 19q-81 0 -121.5 -41t-40.5 -137v-152h295v-72h-295v-993h-84v993h-145v72h145v152zM725 1452h84v-109h-84v109zM725 0v1065h84v-1065h-84z" />
    <glyph glyph-name="fl" unicode="fl" horiz-adv-x="933" 
d="M186 1217q0 72 18.5 122.5t53 77t75 38t91.5 11.5q82 0 156 -22v-68q-93 19 -148 19q-81 0 -121.5 -41t-40.5 -137v-152h295v-72h-295v-993h-84v993h-145v72h145v152zM725 1446h84v-1446h-84v1446z" />
    <glyph glyph-name=".notdef" horiz-adv-x="1044" 
d="M856 1638v-2089h-661v2089h661zM696 1499h-346v-69h137v-78h-139v-68h348v68h-139v78h139v69zM557 1229h-209v-217h348v71h-139v146zM487 1157v-74h-69v74h69zM696 954h-348v-67h139v-78h-139v-70h209v148h139v67zM696 829h-69v-137h-279v-71h348v208zM696 575h-209v-116
h70v47h70v-98h-209v167h-70v-235h348v235zM696 213h-348v-236h348v236zM627 145v-98h-209v98h209zM696 -70h-348v-69h148l-148 -99v-69h348v69h-213l146 99h67v69z" />
    <glyph glyph-name=".null" horiz-adv-x="0" 
 />
    <glyph glyph-name="nonmarkingreturn" horiz-adv-x="682" 
 />
    <glyph glyph-name="space" unicode=" " horiz-adv-x="565" 
 />
    <glyph glyph-name="exclam" unicode="!" horiz-adv-x="368" 
d="M225 352h-80l-4 1082h88zM125 131h119v-131h-119v131z" />
    <glyph glyph-name="quotedbl" unicode="&#x22;" horiz-adv-x="432" 
d="M82 993h78v441h-78v-441zM272 993h78v441h-78v-441z" />
    <glyph glyph-name="numbersign" unicode="#" horiz-adv-x="1196" 
d="M1104 948h-236l-45 -463h232v-69h-240l-41 -416h-67l41 416h-365l-41 -416h-68l41 416h-223v69h232l45 463h-226v70h234l41 416h67l-41 -416h365l41 416h68l-41 -416h227v-70zM756 485l45 463h-365l-45 -463h365z" />
    <glyph glyph-name="dollar" unicode="$" horiz-adv-x="1159" 
d="M1065 379q0 -175 -118 -282.5t-337 -114.5v-166h-59v166q-109 4 -193 37.5t-137.5 90t-84.5 125.5t-42 152h86q11 -65 35.5 -119t67 -100.5t111 -74.5t157.5 -32v648l-82 18q-346 73 -346 352q0 156 109.5 261t318.5 112v166h59v-166q185 -9 289 -103t129 -243h-88
q-9 51 -31 94.5t-60 82t-99 63t-140 28.5v-598l54 -12q92 -19 160 -46t125 -71t86.5 -111.5t29.5 -156.5zM492 801l59 -13v586q-171 -6 -256.5 -89.5t-85.5 -205.5q0 -216 283 -278zM610 61q180 6 273.5 91.5t93.5 224.5q0 72 -23.5 126t-68 88.5t-93 55.5t-112.5 35l-70 14
v-635z" />
    <glyph glyph-name="percent" unicode="%" horiz-adv-x="1464" 
d="M340 850q-108 0 -178 81t-70 216t70.5 216t177.5 81q108 0 180 -81t72 -216t-72 -216t-180 -81zM276 0l842 1436l72 -2l-840 -1434h-74zM340 913q84 0 134 60.5t50 173.5q0 112 -50 171.5t-134 59.5q-81 0 -131.5 -59.5t-50.5 -171.5t50.5 -173t131.5 -61zM1120 -10
q-108 0 -178 81t-70 216t71 216t177 81q108 0 180 -81t72 -216t-72 -216t-180 -81zM1120 55q85 0 136 60t51 172t-51.5 172.5t-135.5 60.5q-81 0 -131.5 -60.5t-50.5 -172.5t50.5 -172t131.5 -60z" />
    <glyph glyph-name="ampersand" unicode="&#x26;" horiz-adv-x="1341" 
d="M1268 0h-99l-168 190q-87 -111 -203 -163t-239 -52q-111 0 -201 32.5t-146.5 87t-87 123.5t-30.5 144q0 140 80.5 238t271.5 213q-43 46 -70.5 80t-62 84t-52 101t-17.5 100q0 128 80.5 206t230.5 78q138 0 220.5 -78.5t82.5 -199.5q0 -75 -22.5 -129.5t-88 -116.5
t-190.5 -139l432 -486q97 170 105 416h80q-14 -286 -130 -477zM555 1393q-111 0 -175.5 -57.5t-64.5 -161.5q0 -40 16 -82t51.5 -90t58.5 -74.5t69 -77.5l10 6q139 81 201.5 152t62.5 170q0 100 -63 157.5t-166 57.5zM559 53q112 0 213 50t176 147l-452 510l-4 -2
q-153 -89 -232.5 -179.5t-79.5 -211.5q0 -137 106 -225.5t273 -88.5z" />
    <glyph glyph-name="quotesingle" unicode="'" horiz-adv-x="241" 
d="M82 993h78v441h-78v-441z" />
    <glyph glyph-name="parenleft" unicode="(" horiz-adv-x="452" 
d="M309 1526h74q-207 -377 -207 -871q0 -523 207 -921h-74q-217 388 -217 921q0 507 217 871z" />
    <glyph glyph-name="parenright" unicode=")" horiz-adv-x="452" 
d="M166 1526q217 -364 217 -871q0 -533 -217 -921h-74q207 398 207 921q0 494 -207 871h74z" />
    <glyph glyph-name="asterisk" unicode="*" horiz-adv-x="888" 
d="M403 1425h80l-4 -227h-69zM154 1182l18 71l223 -69l-16 -62zM735 1182l-225 -60l-16 62l221 69zM305 870l-63 43l141 189l51 -45zM584 870l-129 187l49 45l141 -189z" />
    <glyph glyph-name="plus" unicode="+" horiz-adv-x="972" 
d="M881 616v-77h-355v-357h-82v357h-352v77h352v357h82v-357h355z" />
    <glyph glyph-name="comma" unicode="," horiz-adv-x="323" 
d="M102 -270v34q31 25 42.5 62t11.5 113v61h-54v131h119v-223q0 -86 -33 -130.5t-86 -47.5z" />
    <glyph glyph-name="hyphen" unicode="-" horiz-adv-x="688" 
d="M82 612h524v-69h-524v69z" />
    <glyph glyph-name="period" unicode="." horiz-adv-x="323" 
d="M102 131h119v-131h-119v131z" />
    <glyph glyph-name="slash" unicode="/" horiz-adv-x="759" 
d="M698 1434l-555 -1434h-82l555 1434h82z" />
    <glyph glyph-name="zero" unicode="0" horiz-adv-x="1275" 
d="M637 1452q247 0 396 -196.5t149 -538.5q0 -343 -148.5 -539t-396.5 -196q-247 0 -395 196t-148 539q0 342 148 538.5t395 196.5zM1098 717q0 313 -127 486t-334 173t-333 -173t-126 -486t126 -485.5t333 -172.5t334 172.5t127 485.5z" />
    <glyph glyph-name="one" unicode="1" horiz-adv-x="555" 
d="M399 1434v-1434h-84v1298q-32 -44 -91.5 -80.5t-139.5 -39.5v73q84 4 151 61.5t80 121.5h84z" />
    <glyph glyph-name="two" unicode="2" horiz-adv-x="1075" 
d="M82 0v53q0 122 47 217.5t135 175t248 181.5l1 1h1l1 1l1 1h1l1 1h1l1 1l2 1q167 107 228 162q120 107 132 237l1 29q0 135 -96.5 223t-254.5 88q-160 0 -254 -92.5t-94 -259.5v-33h-86v33q0 194 118 311t316 117q195 0 315 -110t120 -277q-1 -65 -21 -123t-50.5 -102
t-85 -91.5t-104.5 -82t-128 -82.5q-100 -61 -166.5 -110.5t-125.5 -109.5t-87.5 -126.5t-28.5 -141.5v-16h813v-76h-901z" />
    <glyph glyph-name="three" unicode="3" horiz-adv-x="1142" 
d="M727 782q146 -28 240 -126.5t94 -256.5q0 -191 -136.5 -307.5t-361.5 -116.5q-229 0 -359 129.5t-132 344.5h82q2 -181 110.5 -288.5t296.5 -107.5q186 0 301 94.5t115 251.5q0 163 -118 252.5t-322 89.5h-39v70h39q94 0 165.5 24t111.5 65.5t59.5 91t19.5 106.5
q0 123 -92.5 200.5t-245.5 77.5q-157 0 -252.5 -97.5t-95.5 -285.5h-82q0 223 115.5 341t314.5 118q193 0 307.5 -102t114.5 -256q0 -107 -62 -190.5t-188 -121.5z" />
    <glyph glyph-name="four" unicode="4" horiz-adv-x="1079" 
d="M1008 408h-164v-408h-84v408h-688v73l688 953h84v-953h164v-73zM760 481v836l-602 -836h602z" />
    <glyph glyph-name="five" unicode="5" horiz-adv-x="1138" 
d="M594 963q94 0 177.5 -34t146.5 -95.5t100 -155.5t37 -207q0 -226 -130.5 -358.5t-351.5 -132.5q-218 0 -347 124t-134 314h78q5 -160 111.5 -262.5t291.5 -102.5q184 0 292 112.5t108 305.5q0 192 -107.5 307t-281.5 115q-116 0 -202.5 -44t-160.5 -134h-88l111 719h694
v-70h-633l-88 -573q62 84 161 128t216 44z" />
    <glyph glyph-name="six" unicode="6" horiz-adv-x="1163" 
d="M614 961q208 0 331.5 -136t123.5 -348q0 -143 -54 -254t-162.5 -176t-256.5 -65q-244 0 -368 181t-124 519q0 770 508 770q93 0 170 -28t127.5 -76t80 -109t34.5 -129h-74q-7 52 -30 98.5t-62.5 86t-102.5 62.5t-143 23q-99 0 -174.5 -36t-124 -98.5t-79 -153.5
t-42 -193.5t-10.5 -226.5q49 143 161 216t271 73zM594 55q186 0 290.5 116.5t104.5 305.5q0 188 -101.5 303t-287.5 115q-170 0 -283.5 -111t-113.5 -266q0 -128 41.5 -230.5t132 -167.5t217.5 -65z" />
    <glyph glyph-name="seven" unicode="7" horiz-adv-x="962" 
d="M891 1434v-74q-430 -677 -529 -1360h-86q110 703 535 1360h-750v74h830z" />
    <glyph glyph-name="eight" unicode="8" horiz-adv-x="1138" 
d="M752 797q139 -45 222 -145t83 -249q0 -193 -136.5 -308t-351.5 -115q-213 0 -349 115t-136 308q0 149 82 249t221 145q-99 39 -161 121t-62 192q0 143 108 240.5t297 97.5t297.5 -97.5t108.5 -240.5q0 -110 -62 -192t-161 -121zM569 1380q-156 0 -242.5 -75.5
t-86.5 -198.5q0 -126 90 -203.5t239 -77.5t239.5 77.5t90.5 203.5q0 123 -87 198.5t-243 75.5zM569 53q181 0 293.5 93t112.5 257q0 161 -109.5 257t-296.5 96q-186 0 -295.5 -96t-109.5 -257q0 -163 113 -256.5t292 -93.5z" />
    <glyph glyph-name="nine" unicode="9" horiz-adv-x="1153" 
d="M539 473q-208 0 -331.5 136t-123.5 347q0 143 54.5 254t163 176.5t257.5 65.5q243 0 366.5 -181t123.5 -519q0 -770 -508 -770q-182 0 -290.5 99.5t-121.5 242.5h74q15 -112 100.5 -191.5t237.5 -79.5q99 0 175 36t124.5 98.5t78.5 154t41.5 193.5t10.5 227
q-49 -143 -161 -216t-271 -73zM559 1378q-186 0 -290.5 -116.5t-104.5 -305.5q0 -188 102 -302.5t289 -114.5q169 0 283 110.5t114 265.5q0 95 -25 177.5t-72 147t-123.5 101.5t-172.5 37z" />
    <glyph glyph-name="colon" unicode=":" horiz-adv-x="405" 
d="M143 1063h119v-131h-119v131zM143 131h119v-131h-119v131z" />
    <glyph glyph-name="semicolon" unicode=";" horiz-adv-x="405" 
d="M143 1063h119v-131h-119v131zM143 -270v34q31 25 42.5 62t11.5 113v61h-54v131h119v-223q0 -86 -33 -130.5t-86 -47.5z" />
    <glyph glyph-name="less" unicode="&#x3c;" horiz-adv-x="1038" 
d="M946 90l-782 402l782 403v90l-854 -444v-99l854 -442v90z" />
    <glyph glyph-name="equal" unicode="=" horiz-adv-x="911" 
d="M82 776h567v-69h-567v69zM82 449h567v-70h-567v70z" />
    <glyph glyph-name="greater" unicode="&#x3e;" horiz-adv-x="1038" 
d="M92 90v-90l854 442v99l-854 444v-90l782 -403z" />
    <glyph glyph-name="question" unicode="?" horiz-adv-x="1021" 
d="M512 1448q-194 0 -307.5 -117t-112.5 -321h84q0 93 26.5 164t73.5 113.5t106.5 63.5t129.5 21q149 0 241.5 -76t92.5 -225q0 -60 -21 -108.5t-54.5 -81.5t-73.5 -63.5t-80.5 -62.5t-74 -69t-54.5 -93t-21 -126v-107h86v107q0 62 21 111.5t54 83t73.5 64t80.5 62.5
t73 68.5t54 91.5t21 123q0 177 -116.5 277t-301.5 100zM451 131h118v-131h-118v131z" />
    <glyph glyph-name="at" unicode="@" horiz-adv-x="1589" 
d="M1239 147q-187 -161 -442 -161q-137 0 -264 51t-224.5 142.5t-156 230t-58.5 301.5q0 168 58.5 309t156.5 233.5t224 143.5t264 51q136 0 262 -53t223 -146.5t155 -234t58 -303.5q0 -183 -71.5 -284t-176.5 -101q-91 0 -145 60t-62 167q-33 -119 -110 -174t-168 -55
q-62 0 -118.5 23t-104.5 68t-76.5 121.5t-28.5 174.5q0 93 29 166t77 116.5t104.5 65.5t117.5 22q84 0 159.5 -49t106.5 -139v168h66v-459q0 -100 40 -157.5t117 -57.5q78 0 129.5 85t51.5 239q0 122 -34 229.5t-94.5 187t-140.5 137.5t-173.5 87.5t-192.5 29.5
q-98 0 -191 -27.5t-174 -84t-141.5 -135.5t-95.5 -188t-35 -236q0 -123 35.5 -230t97 -185t142.5 -134t173.5 -83.5t188.5 -27.5q213 0 370 125zM760 387q105 0 182.5 86.5t77.5 237.5q0 147 -77 227t-183 80q-46 0 -89.5 -17.5t-82.5 -52t-62.5 -96t-23.5 -141.5
q0 -69 16 -125t41.5 -92t60 -61t69.5 -35.5t71 -10.5z" />
    <glyph glyph-name="A" unicode="A" horiz-adv-x="1357" 
d="M1200 0l-170 426h-702l-170 -426h-95l580 1434h72l579 -1434h-94zM356 498h645l-323 811z" />
    <glyph glyph-name="B" unicode="B" horiz-adv-x="1232" 
d="M799 784q329 -81 329 -389q0 -188 -124 -291.5t-373 -103.5h-506v1434h506q208 0 308.5 -92t100.5 -248q0 -113 -58.5 -194.5t-182.5 -115.5zM211 1356v-539h440q140 0 220.5 75.5t80.5 205.5q0 53 -16 97t-50.5 81.5t-98 58.5t-150.5 21h-426zM639 80q206 0 302.5 83.5
t96.5 235.5q0 157 -108.5 248.5t-311.5 91.5h-407v-659h428z" />
    <glyph glyph-name="C" unicode="C" horiz-adv-x="1300" 
d="M709 61q168 0 281 67.5t157 180.5h92q-50 -153 -189.5 -240t-340.5 -87q-132 0 -242.5 45.5t-194.5 134t-131 230.5t-47 325t47 325t131 230.5t194.5 134t242.5 45.5q200 0 338 -87.5t186 -240.5h-92q-43 113 -154.5 180.5t-277.5 67.5q-114 0 -208 -39.5t-166.5 -117.5
t-112.5 -205.5t-40 -292.5t40 -292t112 -205.5t167 -118.5t208 -40z" />
    <glyph glyph-name="D" unicode="D" horiz-adv-x="1308" 
d="M526 1434q345 0 522 -185.5t177 -531.5t-177 -531.5t-522 -185.5h-401v1434h401zM522 80q312 0 464.5 159.5t152.5 477.5q0 319 -152.5 478t-464.5 159h-311v-1274h311z" />
    <glyph glyph-name="E" unicode="E" horiz-adv-x="1091" 
d="M211 80h819v-80h-905v1434h885v-80h-799v-574h696v-75h-696v-625z" />
    <glyph glyph-name="F" unicode="F" horiz-adv-x="1075" 
d="M1014 1354h-803v-596h657v-76h-657v-682h-86v1434h889v-80z" />
    <glyph glyph-name="G" unicode="G" horiz-adv-x="1386" 
d="M1282 705v-76q0 -317 -147.5 -482t-425.5 -165q-133 0 -244 45t-194.5 133.5t-130 230.5t-46.5 326q0 183 46 325t129 231t194 134t246 45q193 0 321 -81t180 -224h-92q-45 105 -147 165t-262 60q-116 0 -210.5 -39.5t-166 -117.5t-111 -205t-39.5 -293t40 -293.5
t112 -206t166.5 -117.5t208.5 -39q244 0 369 143.5t124 424.5h-411v76h491z" />
    <glyph glyph-name="H" unicode="H" horiz-adv-x="1294" 
d="M1083 1434h86v-1434h-86v657h-872v-657h-86v1434h86v-703h872v703z" />
    <glyph glyph-name="I" unicode="I" horiz-adv-x="335" 
d="M211 0h-86v1434h86v-1434z" />
    <glyph glyph-name="J" unicode="J" horiz-adv-x="991" 
d="M104 217q119 -151 332 -151q72 0 132.5 21.5t112.5 68.5t81 132.5t29 203.5v942h88v-942q0 -109 -24.5 -196t-66 -144.5t-99 -95t-121 -54t-134.5 -16.5q-248 0 -381 176z" />
    <glyph glyph-name="K" unicode="K" horiz-adv-x="1234" 
d="M1085 0l-639 698l-235 -247v-451h-86v1434h86v-865l819 865h109l-635 -674l690 -760h-109z" />
    <glyph glyph-name="L" unicode="L" horiz-adv-x="1062" 
d="M211 80h780v-80h-866v1434h86v-1354z" />
    <glyph glyph-name="M" unicode="M" horiz-adv-x="1673" 
d="M125 1434h86l627 -1334l624 1334h88v-1434h-88v1241h-4l-577 -1241h-86l-580 1241h-4v-1241h-86v1434z" />
    <glyph glyph-name="N" unicode="N" horiz-adv-x="1316" 
d="M1192 1434v-1434h-111l-866 1315h-4v-1315h-86v1434h108l867 -1313h4v1313h88z" />
    <glyph glyph-name="O" unicode="O" horiz-adv-x="1435" 
d="M717 1452q136 0 249 -46t197 -135t131 -230.5t47 -323.5t-47 -323.5t-131 -230.5t-197 -135t-249 -46q-135 0 -247.5 46t-197 135t-131.5 230.5t-47 323.5t47 323.5t131.5 230.5t197 135t247.5 46zM717 61q119 0 216 39t169 117.5t111.5 205.5t39.5 294q0 328 -145 491.5
t-391 163.5q-119 0 -215.5 -39t-168.5 -117t-111.5 -205t-39.5 -294t39.5 -294t111.5 -205.5t168.5 -117.5t215.5 -39z" />
    <glyph glyph-name="P" unicode="P" horiz-adv-x="1167" 
d="M606 1434q235 0 361.5 -115.5t126.5 -329.5q0 -210 -127 -324t-361 -114h-395v-551h-86v1434h481zM610 631q192 0 293 91.5t101 266.5q0 178 -101 271.5t-293 93.5h-399v-723h399z" />
    <glyph glyph-name="Q" unicode="Q" horiz-adv-x="1472" 
d="M1380 35l-51 -53l-172 174q-165 -174 -440 -174q-135 0 -247.5 46t-197 135t-131.5 230.5t-47 323.5t47 323.5t131.5 230.5t197 135t247.5 46q136 0 249 -46t197 -135t131 -230.5t47 -323.5q0 -311 -137 -504zM717 61q241 0 383 154l-291 293l51 53l285 -287
q108 160 108 443q0 328 -145 491.5t-391 163.5q-119 0 -215.5 -39t-168.5 -117t-111.5 -205t-39.5 -294t39.5 -294t111.5 -205.5t168.5 -117.5t215.5 -39z" />
    <glyph glyph-name="R" unicode="R" horiz-adv-x="1222" 
d="M1108 240q0 -199 41 -240h-86q-41 41 -41 240v125q0 64 -17 111.5t-43.5 75t-66.5 44t-78.5 22t-85.5 5.5h-520v-623h-86v1434h528q228 0 345.5 -103t117.5 -293q0 -133 -63 -229t-185 -141q125 -23 182.5 -95.5t57.5 -207.5v-125zM698 698q144 0 238 88.5t94 243.5
q0 326 -377 326h-442v-658h487z" />
    <glyph glyph-name="S" unicode="S" horiz-adv-x="1196" 
d="M686 764q97 -19 168 -46t130 -71t89.5 -111.5t30.5 -156.5q0 -180 -130 -288.5t-370 -108.5q-122 0 -216.5 31.5t-154 88.5t-94 128t-45.5 157h90q12 -68 39 -123.5t75 -102.5t126 -73.5t180 -26.5q200 0 304 86t104 230q0 72 -25 126t-71 88.5t-97 55t-117 35.5l-219 45
q-360 73 -360 352q0 77 29 143.5t85 118t148 81.5t209 30q210 0 327.5 -95t143.5 -251h-90q-11 53 -36 98.5t-68.5 85t-114.5 62t-162 22.5q-190 0 -285.5 -84.5t-95.5 -210.5q0 -217 295 -278z" />
    <glyph glyph-name="T" unicode="T" horiz-adv-x="1161" 
d="M1098 1434v-80h-473v-1354h-88v1354h-474v80h1035z" />
    <glyph glyph-name="U" unicode="U" horiz-adv-x="1304" 
d="M1182 537q0 -259 -142 -407t-389 -148q-246 0 -386 147.5t-140 407.5v897h86v-891q0 -226 117 -354t323 -128t324.5 128.5t118.5 353.5v891h88v-897z" />
    <glyph glyph-name="V" unicode="V" horiz-adv-x="1337" 
d="M1190 1434h94l-579 -1434h-72l-580 1434h94l521 -1309z" />
    <glyph glyph-name="W" unicode="W" horiz-adv-x="2007" 
d="M1853 1434h91l-418 -1434h-88l-434 1323l-435 -1323h-88l-418 1434h91l374 -1311l424 1311h103l424 -1311z" />
    <glyph glyph-name="X" unicode="X" horiz-adv-x="1275" 
d="M1225 0h-101l-485 674l-487 -674h-99l537 741l-502 693h100l451 -623l451 623h98l-500 -693z" />
    <glyph glyph-name="Y" unicode="Y" horiz-adv-x="1271" 
d="M678 580v-580h-86v580l-529 854h97l475 -768l477 768h96z" />
    <glyph glyph-name="Z" unicode="Z" horiz-adv-x="1230" 
d="M1149 80v-80h-1067v80l960 1274h-919v80h1018l-2 -80l-959 -1274h969z" />
    <glyph glyph-name="bracketleft" unicode="[" horiz-adv-x="520" 
d="M209 1450v-1640h186v-76h-270v1792h270v-76h-186z" />
    <glyph glyph-name="backslash" unicode="\" horiz-adv-x="759" 
d="M61 1434h82l555 -1434h-82z" />
    <glyph glyph-name="bracketright" unicode="]" horiz-adv-x="520" 
d="M311 1450h-186v76h270v-1792h-270v76h186v1640z" />
    <glyph glyph-name="asciicircum" unicode="^" horiz-adv-x="956" 
d="M784 952l-305 424l-307 -424h-80l352 482h68l352 -482h-80z" />
    <glyph glyph-name="underscore" unicode="_" horiz-adv-x="1208" 
d="M92 0h1024v-78h-1024v78z" />
    <glyph glyph-name="grave" unicode="`" horiz-adv-x="284" 
d="M285 1190l-189 262h-94l205 -262h78z" />
    <glyph glyph-name="a" unicode="a" horiz-adv-x="1064" 
d="M932 129q0 -42 17 -57.5t63 -12.5v-59q-19 -8 -43 -8q-64 0 -91.5 30t-27.5 111v115q-15 -34 -46.5 -74t-83.5 -84.5t-132.5 -74t-173.5 -29.5q-155 0 -247.5 82t-92.5 227q0 128 82.5 205.5t281.5 105.5q108 15 155 22t132 25.5t123 38.5v23q0 158 -71.5 223.5
t-239.5 65.5q-281 0 -312 -181h-82q17 124 121 188t275 64q197 0 295 -87.5t98 -293.5v-565zM848 342v285q-57 -32 -404 -84q-159 -24 -222.5 -82t-63.5 -164q0 -113 71 -177.5t195 -64.5q75 0 143 24t112.5 57t82.5 77t55.5 73t30.5 56z" />
    <glyph glyph-name="b" unicode="b" horiz-adv-x="1153" 
d="M606 1075q74 0 143 -20.5t129 -64.5t104.5 -107t70.5 -153t26 -198q0 -135 -38.5 -241t-105.5 -171.5t-151 -99.5t-180 -34q-129 0 -231.5 65t-163.5 197v-248h-84v1446h84v-617q60 121 164.5 183.5t232.5 62.5zM600 61q79 0 149 28.5t126 84t89 148t33 210.5
q0 117 -33 209t-89 147t-126 83t-149 28t-148 -27.5t-126 -81.5t-90 -146.5t-33 -211.5q0 -116 33 -207.5t89.5 -148t126.5 -86t148 -29.5z" />
    <glyph glyph-name="c" unicode="c" horiz-adv-x="1044" 
d="M557 59q131 0 216.5 55t129.5 173h80q-92 -301 -426 -301q-95 0 -180 33.5t-153.5 98.5t-109 171.5t-40.5 240.5t40 240.5t108.5 171.5t153.5 99t179 34q153 0 263.5 -72.5t158.5 -222.5h-80q-86 221 -342 221q-78 0 -148 -28t-127.5 -83.5t-91.5 -148.5t-34 -211
q0 -120 34.5 -213t92.5 -148t128 -82.5t148 -27.5z" />
    <glyph glyph-name="d" unicode="d" horiz-adv-x="1153" 
d="M547 1075q128 0 232.5 -62.5t164.5 -183.5v617h84v-1446h-84v248q-61 -132 -163.5 -197t-231.5 -65q-96 0 -180 34t-151 99.5t-105.5 171.5t-38.5 241q0 108 26 198t70.5 153t104.5 107t129 64.5t143 20.5zM553 61q78 0 148 29.5t126.5 86t89.5 148t33 207.5
q0 119 -33 211.5t-90 146.5t-126 81.5t-148 27.5t-149 -28t-126 -83t-89 -147t-33 -209q0 -118 33 -210.5t89 -148t126 -84t149 -28.5z" />
    <glyph glyph-name="e" unicode="e" horiz-adv-x="1079" 
d="M1008 543q0 -33 -2 -51h-850q10 -218 120 -326.5t285 -108.5q111 0 184 31t134 111h88q-74 -115 -171 -164t-239 -49q-215 0 -349 142t-134 402q0 133 38.5 238.5t104.5 171.5t151 100.5t183 34.5q96 0 178 -34t144.5 -99t98.5 -167.5t36 -231.5zM156 561h770
q-3 215 -106 329t-269 114q-164 0 -275 -113t-120 -330z" />
    <glyph glyph-name="f" unicode="f" horiz-adv-x="620" 
d="M432 1395q-81 0 -121.5 -41t-40.5 -137v-152h295v-72h-295v-993h-84v993h-145v72h145v152q0 72 18.5 122.5t53 77t75 38t91.5 11.5q82 0 156 -22v-68q-93 19 -148 19z" />
    <glyph glyph-name="g" unicode="g" 
d="M946 1065h84v-1073q0 -101 -27.5 -179.5t-72 -127t-107 -80t-126.5 -44t-136 -12.5q-139 0 -251.5 50.5t-166.5 138.5l58 39q53 -75 146 -113.5t210 -38.5q181 0 285 87.5t104 279.5v256q-123 -260 -397 -260q-95 0 -179 34t-151 99t-106 171t-39 240q0 108 26 198
t70.5 153t104.5 107t129 64.5t143 20.5q130 0 234.5 -62.5t164.5 -183.5v236zM555 61q78 0 148 29.5t126.5 86t89.5 148t33 207.5q0 119 -33 211.5t-89.5 147.5t-126 82.5t-148.5 27.5t-149 -28t-127 -83.5t-90 -147.5t-33 -210t33 -210.5t90 -148t127 -84t149 -28.5z" />
    <glyph glyph-name="h" unicode="h" horiz-adv-x="1112" 
d="M608 1075q83 0 149 -22t119 -70t82 -134t29 -204v-645h-84v647q0 192 -79 272t-234 80q-66 0 -125 -22t-100.5 -56.5t-75 -78.5t-52.5 -85t-28 -79v-678h-84v1446h84v-653q7 34 35.5 79t76 92t124 79t163.5 32z" />
    <glyph glyph-name="i" unicode="i" horiz-adv-x="333" 
d="M125 1452h84v-109h-84v109zM125 1065h84v-1065h-84v1065z" />
    <glyph glyph-name="j" unicode="j" horiz-adv-x="372" 
d="M166 1452h84v-109h-84v109zM-145 -326q75 -45 172 -45q67 0 103 44t36 126v1266h84v-1258q0 -139 -58 -198.5t-161 -59.5q-110 0 -176 48v77z" />
    <glyph glyph-name="k" unicode="k" horiz-adv-x="1050" 
d="M915 0l-479 539l-227 -232v-307h-84v1446h84v-1034l635 653h104l-459 -471l529 -594h-103z" />
    <glyph glyph-name="l" unicode="l" horiz-adv-x="333" 
d="M125 1446h84v-1446h-84v1446z" />
    <glyph glyph-name="m" unicode="m" horiz-adv-x="1824" 
d="M1339 1075q79 0 142 -22t114 -69.5t79 -132t28 -200.5v-651h-84v645q0 190 -75 272t-216 82q-83 0 -155.5 -34.5t-118.5 -87t-72.5 -113t-26.5 -115.5v-649h-84v645q0 190 -75 272t-215 82q-80 0 -148.5 -33.5t-113 -85t-72 -104.5t-37.5 -102v-674h-84v1065h84v-272
q5 26 23.5 60.5t52.5 74t77 72t103.5 54t126.5 21.5q86 0 154 -26t120.5 -90t73.5 -164q16 48 49.5 95t82.5 89.5t119 69t148 26.5z" />
    <glyph glyph-name="n" unicode="n" horiz-adv-x="1112" 
d="M608 1075q83 0 149 -22t119 -70t82 -134t29 -204v-645h-84v647q0 192 -79 272t-234 80q-66 0 -125 -22t-100.5 -56.5t-75 -78.5t-52.5 -85t-28 -79v-678h-84v1065h84v-272q7 34 35.5 79t76 92t124 79t163.5 32z" />
    <glyph glyph-name="o" unicode="o" horiz-adv-x="1095" 
d="M549 1075q72 0 140.5 -21.5t129 -66t105.5 -107.5t71.5 -153t26.5 -195q0 -107 -26.5 -198t-71.5 -154t-105.5 -107.5t-128.5 -65.5t-141 -21t-141.5 21t-129.5 65.5t-106 107.5t-71.5 154t-26.5 198q0 105 26.5 195t71.5 153t106 107.5t129.5 66t141.5 21.5zM940 532
q0 115 -33 206t-88.5 147t-124.5 85t-145 29t-145.5 -29t-125.5 -85t-89 -147t-33 -206q0 -118 33 -210.5t89 -148t125 -84t146 -28.5t145.5 28.5t124 84t88.5 148t33 210.5z" />
    <glyph glyph-name="p" unicode="p" horiz-adv-x="1153" 
d="M606 1075q94 0 178 -33.5t150.5 -98.5t105.5 -171t39 -240q0 -135 -38.5 -241t-105.5 -171.5t-151 -99.5t-180 -34q-129 0 -231.5 66.5t-163.5 203.5v-645h-84v1454h84v-240q60 124 164 187t233 63zM600 61q79 0 149 28t126 83.5t89 148t33 211.5q0 118 -33 210
t-89 146.5t-126 82.5t-149 28t-148 -27.5t-126 -81.5t-90 -146.5t-33 -211.5q0 -116 33 -207.5t89.5 -148t126.5 -86t148 -29.5z" />
    <glyph glyph-name="q" unicode="q" horiz-adv-x="1153" 
d="M547 1075q129 0 233 -63t164 -187v240h84v-1454h-84v645q-61 -137 -163.5 -203.5t-231.5 -66.5q-96 0 -180 34t-151 99.5t-105.5 171.5t-38.5 241q0 134 39 240t105.5 171t150.5 98.5t178 33.5zM553 61q78 0 148 29.5t126.5 86t89.5 148t33 207.5q0 119 -33 211.5
t-90 146.5t-126 81.5t-148 27.5t-149 -28t-126 -82.5t-89 -146.5t-33 -210q0 -119 33 -211.5t89 -148t126 -83.5t149 -28z" />
    <glyph glyph-name="r" unicode="r" horiz-adv-x="731" 
d="M602 1075q43 0 66 -4v-76q-23 2 -62 2q-158 0 -261 -90t-136 -250v-657h-84v1065h84v-272q27 116 132.5 199t260.5 83z" />
    <glyph glyph-name="s" unicode="s" horiz-adv-x="952" 
d="M784 825q-65 179 -311 179q-137 0 -213 -58t-76 -147q0 -80 52.5 -127t173.5 -76l161 -39q67 -16 111.5 -30t87 -35.5t66.5 -49t38.5 -68t14.5 -93.5q0 -77 -34 -136t-92.5 -92.5t-128 -50t-147.5 -16.5q-112 0 -200 30.5t-149.5 101t-74.5 175.5h82q13 -65 46 -112
t80.5 -73t100.5 -37.5t115 -11.5q85 0 154 21t116.5 72.5t47.5 126.5q0 41 -12 71.5t-29.5 50t-51.5 36t-62.5 25t-78.5 21.5l-196 47q-134 34 -203.5 97.5t-69.5 171.5q0 127 103 201.5t268 74.5q147 0 252 -62.5t139 -187.5h-80z" />
    <glyph glyph-name="t" unicode="t" horiz-adv-x="579" 
d="M385 61q60 0 121 19v-72q-64 -20 -150 -20q-155 0 -155 145v860h-158v72h158v266h84v-266h200v-72h-200v-852q0 -41 22.5 -60.5t77.5 -19.5z" />
    <glyph glyph-name="u" unicode="u" horiz-adv-x="1101" 
d="M893 1065h84v-1065h-84v270q-5 -27 -23.5 -61.5t-53 -74t-79 -72.5t-108.5 -54.5t-135 -21.5q-83 0 -149 22.5t-119 71t-82 134.5t-29 204v647h84v-649q0 -192 79 -273.5t234 -81.5q66 0 125 22.5t100.5 57t75 79t52.5 86t28 79.5v680z" />
    <glyph glyph-name="v" unicode="v" horiz-adv-x="1069" 
d="M584 0h-99l-432 1065h84l398 -987l397 987h84z" />
    <glyph glyph-name="w" unicode="w" horiz-adv-x="1632" 
d="M1579 1065l-326 -1065h-90l-348 954l-348 -954h-88l-326 1065h86l289 -967l352 967h72l352 -967l289 967h86z" />
    <glyph glyph-name="x" unicode="x" horiz-adv-x="1009" 
d="M946 0h-100l-342 479l-342 -479h-99l396 545l-381 520h96l330 -455l330 455h98l-383 -520z" />
    <glyph glyph-name="y" unicode="y" horiz-adv-x="1044" 
d="M905 1065h88l-473 -1190q-115 -288 -356 -252v78q202 -30 287 193q3 7 7 19t6 17t5 14t4 13t2.5 10.5t1.5 10t0.5 8.5t-0.5 8.5t-2.5 8t-3.5 9.5l-418 1053h86l383 -989z" />
    <glyph glyph-name="z" unicode="z" horiz-adv-x="1003" 
d="M180 76h742v-76h-840v76l741 913h-721v76h820v-76z" />
    <glyph glyph-name="braceleft" unicode="{" horiz-adv-x="503" 
d="M268 766l-78 -139l78 -135v-609q0 -32 20 -52.5t52 -20.5h72v-76h-86q-62 0 -102 42t-40 103v602l-92 146l92 149v604q0 62 39.5 104t102.5 42h86v-76h-72q-32 0 -52 -21t-20 -53v-610z" />
    <glyph glyph-name="bar" unicode="|" horiz-adv-x="385" 
d="M154 1638h77v-2027h-77v2027z" />
    <glyph glyph-name="braceright" unicode="}" horiz-adv-x="503" 
d="M236 766v610q0 32 -20 53t-52 21h-72v76h86q63 0 102 -42t39 -104v-604l93 -149l-93 -146v-602q0 -61 -39.5 -103t-101.5 -42h-86v76h72q32 0 52 20.5t20 52.5v609l77 135z" />
    <glyph glyph-name="asciitilde" unicode="~" horiz-adv-x="882" 
d="M723 670h57q0 -87 -55 -134t-131 -47q-39 0 -74.5 15.5t-62 37.5t-52 44t-56 37.5t-62.5 15.5q-65 0 -97 -34t-30 -73h-58q0 85 56 132t131 47q40 0 75.5 -15.5t62 -37.5t52 -44t55.5 -37.5t62 -15.5q66 0 97.5 34.5t29.5 74.5z" />
    <glyph glyph-name="exclamdown" unicode="&#xa1;" horiz-adv-x="299" 
d="M125 934v131h119v-131h-119zM225 713l4 -1082h-88l4 1082h80z" />
    <glyph glyph-name="cent" unicode="&#xa2;" horiz-adv-x="1044" 
d="M983 434q-88 -292 -416 -295v-221h-57v223q-87 8 -164 44.5t-138.5 100.5t-97.5 164t-36 224q0 123 35.5 223t97 164t138.5 100.5t165 44.5v228h57v-226q148 -3 256.5 -75t153.5 -215h-80q-83 211 -330 217v-924q254 3 336 223h80zM154 674q0 -109 29.5 -195.5t80 -141
t113 -85.5t133.5 -39v920q-71 -8 -133.5 -39t-113 -85.5t-80 -141t-29.5 -193.5z" />
    <glyph glyph-name="sterling" unicode="&#xa3;" horiz-adv-x="1056" 
d="M965 983h-78v37q0 89 -28.5 158t-78 110.5t-110 62.5t-129.5 21q-146 0 -243 -82t-97 -231q0 -63 16.5 -121.5t58 -151.5t48.5 -112h309v-66h-285q21 -72 21 -129q0 -202 -185 -422q78 28 159.5 33t153.5 -5t142.5 -21t151.5 -9.5t155 23.5v-78q-92 -25 -167.5 -22.5
t-160.5 13.5t-157 23t-157.5 5t-160.5 -39l-49 71q196 225 193 436q0 53 -21 121h-174v66h148q-9 20 -38 83t-42.5 97t-27 93t-13.5 116q0 176 116.5 280.5t305.5 104.5q186 0 305 -115.5t119 -312.5v-37z" />
    <glyph glyph-name="currency" unicode="&#xa4;" horiz-adv-x="1112" 
d="M1016 975q0 -170 -107 -293l97 -98l-62 -58l-94 95q-127 -105 -293 -105q-170 0 -293 107l-96 -97l-62 58l99 98q-107 123 -107 293t107 293l-99 98l62 59l96 -96q127 105 293 105q167 0 291 -105l96 96l62 -59l-97 -96q107 -130 107 -295zM174 975q0 -104 53.5 -193
t142 -139.5t187.5 -50.5q74 0 144.5 30t123.5 81t85 122.5t32 149.5q0 156 -116 269.5t-269 113.5q-152 0 -267.5 -113t-115.5 -270z" />
    <glyph glyph-name="yen" unicode="&#xa5;" horiz-adv-x="1271" 
d="M678 580v-7h287v-61h-287v-133h287v-60h-287v-319h-86v319h-287v60h287v133h-287v61h287v7l-529 854h97l475 -768l477 768h96z" />
    <glyph glyph-name="brokenbar" unicode="&#xa6;" horiz-adv-x="385" 
d="M154 1638h77v-573h-77v573zM154 184h77v-573h-77v573z" />
    <glyph glyph-name="section" unicode="&#xa7;" horiz-adv-x="1230" 
d="M1128 369q0 -154 -88 -248q68 -90 68 -221q0 -179 -126.5 -281t-373.5 -102q-123 0 -217 30t-152.5 84.5t-92 123.5t-44.5 155h88q12 -69 37 -122t71.5 -99t124.5 -70.5t185 -24.5q211 0 311.5 80.5t100.5 225.5q0 253 -309 315l-222 45q-175 36 -263.5 129.5
t-88.5 233.5q0 153 99 245q-78 90 -78 222q0 161 114 260.5t342 99.5q413 0 463 -334h-86q-7 44 -21 79t-41.5 69t-67.5 57t-103 37t-144 14q-192 0 -281 -77.5t-89 -204.5q0 -235 293 -291l176 -37q94 -18 165.5 -46.5t129.5 -74t89 -114.5t31 -158zM692 295
q189 -38 289 -115q59 73 59 187q0 253 -309 315l-221 45q-133 27 -213 86q-74 -74 -74 -190q0 -235 293 -291z" />
    <glyph glyph-name="dieresis" unicode="&#xa8;" horiz-adv-x="503" 
d="M0 1452h92v-160h-92v160zM412 1452h92v-160h-92v160z" />
    <glyph glyph-name="copyright" unicode="&#xa9;" horiz-adv-x="1650" 
d="M825 -14q-200 0 -367 93.5t-265.5 261.5t-98.5 376q0 155 58 291.5t156.5 232t233 150.5t283.5 55t283.5 -55t233 -150.5t156.5 -232t58 -291.5q0 -208 -98.5 -376t-265.5 -261.5t-367 -93.5zM825 51q182 0 334.5 85t242 238.5t89.5 342.5q0 141 -52.5 265.5
t-142.5 211.5t-212.5 137.5t-258.5 50.5q-137 0 -259.5 -50t-212.5 -137.5t-142.5 -211.5t-52.5 -266q0 -189 89.5 -342.5t242 -238.5t335.5 -85zM823 338q219 0 293 170h72q-46 -120 -140.5 -178t-224.5 -58q-82 0 -157 30t-133 85t-92.5 140.5t-34.5 189.5q0 137 59.5 240
t153 153.5t204.5 50.5q128 0 221.5 -57.5t137.5 -175.5h-70q-75 166 -289 166q-145 0 -247.5 -100t-102.5 -277t102.5 -278t247.5 -101z" />
    <glyph glyph-name="ordfeminine" unicode="&#xaa;" horiz-adv-x="700" 
d="M606 975q0 -121 43 -180h-78q-31 51 -36 116q-40 -55 -96 -87.5t-150 -32.5q-91 0 -153 51.5t-62 144.5q0 87 60 130.5t159 51.5l237 21q-2 92 -42 137t-132 45q-87 0 -130.5 -24t-55.5 -76h-70q31 170 258 170q134 0 191 -70.5t57 -226.5v-170zM309 862q47 0 88 14.5
t67 37.5t42 42.5t24 36.5v133q-20 -4 -57 -8t-90 -7.5t-82 -6.5q-151 -13 -151 -117q0 -61 41.5 -93t117.5 -32z" />
    <glyph glyph-name="guillemotleft" unicode="&#xab;" horiz-adv-x="751" 
d="M354 791l-202 -179l202 -180v-92l-272 240v63l272 240v-92zM670 791l-201 -179l201 -180v-92l-273 240v65l273 238v-92z" />
    <glyph glyph-name="logicalnot" unicode="&#xac;" horiz-adv-x="964" 
d="M872 639v-326h-84v250h-696v76h780z" />
    <glyph glyph-name="uni00AD" unicode="&#xad;" horiz-adv-x="688" 
d="M82 612h524v-69h-524v69z" />
    <glyph glyph-name="registered" unicode="&#xae;" horiz-adv-x="1650" 
d="M825 -14q-200 0 -367 93.5t-265.5 261.5t-98.5 376q0 155 58 291.5t156.5 232t233 150.5t283.5 55t283.5 -55t233 -150.5t156.5 -232t58 -291.5q0 -208 -98.5 -376t-265.5 -261.5t-367 -93.5zM825 51q182 0 334.5 85t242 238.5t89.5 342.5q0 141 -52.5 265.5
t-142.5 211.5t-212.5 137.5t-258.5 50.5q-137 0 -259.5 -50t-212.5 -137.5t-142.5 -211.5t-52.5 -266q0 -189 89.5 -342.5t242 -238.5t335.5 -85zM1116 449q0 -112 25 -140h-66q-24 32 -24 137v68q0 45 -12.5 74.5t-36 43t-47 18.5t-56.5 5h-293v-346h-63v815h307
q268 0 268 -229q0 -74 -34.5 -127.5t-100.5 -79.5q69 -15 101 -56.5t32 -117.5v-65zM877 711q82 0 129 47.5t47 138.5q0 88 -49 130t-154 42h-244v-358h271z" />
    <glyph glyph-name="macron" unicode="&#xaf;" horiz-adv-x="563" 
d="M0 1452h563v-61h-563v61z" />
    <glyph glyph-name="degree" unicode="&#xb0;" horiz-adv-x="780" 
d="M391 874q-124 0 -211.5 87.5t-87.5 212.5q0 124 87 211.5t212 87.5q123 0 210 -87.5t87 -211.5t-87 -212t-210 -88zM391 950q94 0 158.5 63t64.5 161t-64.5 161.5t-158.5 63.5t-159.5 -63.5t-65.5 -161.5t65.5 -161t159.5 -63z" />
    <glyph glyph-name="plusminus" unicode="&#xb1;" horiz-adv-x="972" 
d="M526 676h355v-78h-355v-356h-82v356h-352v78h352v356h82v-356zM180 -37v70h568v-70h-568z" />
    <glyph glyph-name="uni00B2" unicode="&#xb2;" horiz-adv-x="503" 
d="M82 901v19q0 72 37 126.5t117 106.5q39 25 54 35.5t34.5 29t25.5 36.5t6 44q0 45 -29.5 74t-82.5 29q-55 0 -85 -31t-30 -86v-12h-47v12q0 71 44.5 115.5t117.5 44.5q72 0 115.5 -41t43.5 -105q0 -56 -36 -98t-107 -82q-62 -38 -95.5 -81.5t-33.5 -84.5v-6h281v-45h-330z
" />
    <glyph glyph-name="uni00B3" unicode="&#xb3;" horiz-adv-x="530" 
d="M328 1186q48 -11 84.5 -46t36.5 -91q0 -68 -49 -112t-138 -44t-139.5 47.5t-50.5 126.5h45q3 -131 147 -131q62 0 100.5 28.5t38.5 84.5t-41.5 84t-109.5 28h-23v39h23q60 0 94.5 28.5t34.5 71.5q0 47 -31.5 74t-87.5 27q-129 0 -129 -125h-43q0 79 46 123.5t126 44.5
q76 0 119 -40t43 -101q0 -43 -27 -74.5t-69 -42.5z" />
    <glyph glyph-name="acute" unicode="&#xb4;" horiz-adv-x="282" 
d="M0 1190h78l205 262h-95z" />
    <glyph glyph-name="uni00B5" unicode="&#xb5;" horiz-adv-x="1101" 
d="M893 1065h84v-1065h-84v270q-5 -27 -23.5 -61.5t-53 -74t-79 -72.5t-108.5 -54.5t-135 -21.5q-197 0 -295 123v-498h-84v1454h84v-649q0 -192 79 -273.5t234 -81.5q66 0 125 22.5t100.5 57t75 79t52.5 86t28 79.5v680z" />
    <glyph glyph-name="paragraph" unicode="&#xb6;" horiz-adv-x="1087" 
d="M963 1434v-1885h-74v1817h-170v-1817h-76v1094h-168q-187 0 -294 107t-107 286q0 182 107 290t294 108h488z" />
    <glyph glyph-name="periodcentered" unicode="&#xb7;" horiz-adv-x="323" 
d="M102 651h119v-131h-119v131z" />
    <glyph glyph-name="cedilla" unicode="&#xb8;" horiz-adv-x="266" 
d="M78 -111q67 20 127.5 -18.5t60.5 -112.5q0 -92 -72 -135t-186 -43v49q187 6 187 125q0 61 -49.5 83.5t-120.5 -5.5l-25 37l92 133h88z" />
    <glyph glyph-name="uni00B9" unicode="&#xb9;" horiz-adv-x="315" 
d="M233 1436v-535h-45v467q-29 -53 -106 -47v41q35 0 65 22.5t41 51.5h45z" />
    <glyph glyph-name="ordmasculine" unicode="&#xba;" horiz-adv-x="768" 
d="M385 1450q57 0 112 -22t99.5 -62.5t72 -105.5t27.5 -144q0 -78 -27.5 -142.5t-72 -105t-99.5 -62.5t-112 -22q-78 0 -148 37t-116.5 114.5t-46.5 180.5q0 79 27 144t71.5 105.5t99.5 62.5t113 22zM614 1116q0 126 -67.5 194t-161.5 68t-162.5 -68t-68.5 -194
q0 -123 68.5 -191.5t162.5 -68.5q93 0 161 68.5t68 191.5z" />
    <glyph glyph-name="guillemotright" unicode="&#xbb;" horiz-adv-x="702" 
d="M43 791v92l272 -238v-65l-272 -240v92l201 180zM358 791v92l273 -240v-63l-273 -240v92l203 180z" />
    <glyph glyph-name="onequarter" unicode="&#xbc;" horiz-adv-x="1193" 
d="M233 1436v-535h-45v467q-29 -53 -106 -47v41q35 0 65 22.5t41 51.5h45zM166 0h-57l895 1434h55zM1092 135h-62v-135h-47v135h-246v39l246 361h47v-361h62v-39zM983 174v291l-199 -291h199z" />
    <glyph glyph-name="onehalf" unicode="&#xbd;" horiz-adv-x="1177" 
d="M236 1436v-535h-46v467q-29 -53 -106 -47v41q35 0 65 22.5t41 51.5h46zM184 0h-57l895 1434h55zM754 0v18q0 72 36.5 127t116.5 107q40 25 54.5 35.5t34.5 29t26 36.5t6 44q0 45 -29.5 74t-83.5 29q-55 0 -84.5 -31t-29.5 -86v-12h-47v12q0 71 44 115.5t117 44.5
q72 0 116 -41t44 -105q0 -56 -36 -98t-107 -82q-62 -38 -95.5 -81.5t-33.5 -84.5v-6h280v-45h-329z" />
    <glyph glyph-name="threequarters" unicode="&#xbe;" horiz-adv-x="1310" 
d="M352 1186q48 -11 84.5 -46t36.5 -91q0 -68 -48.5 -112t-137.5 -44q-90 0 -140.5 47.5t-50.5 126.5h45q3 -131 148 -131q62 0 100.5 28.5t38.5 84.5t-42 84t-110 28h-22v39h22q60 0 95 28.5t35 71.5q0 47 -31.5 74t-87.5 27q-129 0 -129 -125h-43q0 79 46 123.5t126 44.5
q76 0 119 -40t43 -101q0 -43 -27 -74.5t-70 -42.5zM303 0h-57l895 1434h55zM1135 135h-62v-135h-47v135h-246v39l246 361h47v-361h62v-39zM1026 174v291l-199 -291h199z" />
    <glyph glyph-name="questiondown" unicode="&#xbf;" horiz-adv-x="1021" 
d="M571 934h-118v131h118v-131zM510 -383q194 0 307.5 117t112.5 321h-84q0 -93 -26.5 -164t-73.5 -113.5t-106.5 -63.5t-129.5 -21q-149 0 -241.5 76t-92.5 225q0 60 21 108.5t54.5 81.5t73.5 63.5t80.5 62.5t74 69t54.5 93t21 126v107h-86v-107q0 -62 -21 -111.5t-54 -83
t-73 -64t-80.5 -62.5t-73.5 -68.5t-54 -91.5t-21 -123q0 -177 116.5 -277t301.5 -100z" />
    <glyph glyph-name="Agrave" unicode="&#xc0;" horiz-adv-x="1357" 
d="M762 1559h-78l-205 262h94zM1200 0l-170 426h-702l-170 -426h-95l580 1434h72l579 -1434h-94zM356 498h645l-323 811z" />
    <glyph glyph-name="Aacute" unicode="&#xc1;" horiz-adv-x="1357" 
d="M874 1821l-204 -262h-78l188 262h94zM1200 0l-170 426h-702l-170 -426h-95l580 1434h72l579 -1434h-94zM356 498h645l-323 811z" />
    <glyph glyph-name="Acircumflex" unicode="&#xc2;" horiz-adv-x="1357" 
d="M678 1763l-203 -194h-72l209 252h129l209 -252h-71zM1200 0l-170 426h-702l-170 -426h-95l580 1434h72l579 -1434h-94zM356 498h645l-323 811z" />
    <glyph glyph-name="Atilde" unicode="&#xc3;" horiz-adv-x="1357" 
d="M522 1774q-63 0 -93 -32t-28 -69h-55q0 81 53 125.5t125 44.5q46 0 87.5 -22.5t68 -49t63.5 -49t74 -22.5q62 0 91.5 32t27.5 70h57q0 -82 -53.5 -126t-124.5 -44q-38 0 -72 14.5t-59 35.5t-49.5 42t-53.5 35.5t-59 14.5zM1200 0l-170 426h-702l-170 -426h-95l580 1434
h72l579 -1434h-94zM356 498h645l-323 811z" />
    <glyph glyph-name="Adieresis" unicode="&#xc4;" horiz-adv-x="1357" 
d="M518 1821v-160h-92v160h92zM930 1821v-160h-92v160h92zM1200 0l-170 426h-702l-170 -426h-95l580 1434h72l579 -1434h-94zM356 498h645l-323 811z" />
    <glyph glyph-name="Aring" unicode="&#xc5;" horiz-adv-x="1357" 
d="M680 1559q-68 0 -115 46t-47 111t47 111.5t115 46.5t115 -46.5t47 -111.5t-47 -111t-115 -46zM680 1821q-46 0 -76.5 -30.5t-30.5 -74.5q0 -43 31 -73.5t76 -30.5t76.5 30.5t31.5 73.5q0 44 -31 74.5t-77 30.5zM1200 0l-170 426h-702l-170 -426h-95l580 1434h72
l579 -1434h-94zM356 498h645l-323 811z" />
    <glyph glyph-name="AE" unicode="&#xc6;" horiz-adv-x="2011" 
d="M1130 80h820v-80h-906v426h-598l-290 -426h-93l981 1434h885v-80h-799v-574h697v-75h-697v-625zM498 502h546v801z" />
    <glyph glyph-name="Ccedilla" unicode="&#xc7;" horiz-adv-x="1300" 
d="M1239 309q-48 -149 -182 -236t-328 -91l-84 -93q68 20 128.5 -18.5t60.5 -112.5q0 -92 -72.5 -135t-186.5 -43v49q187 6 187 125q0 61 -50 83.5t-120 -5.5l-25 37l80 115q-120 10 -219.5 60.5t-174.5 139.5t-117 225t-42 308q0 183 47 325t131 230.5t194.5 134
t242.5 45.5q200 0 338 -87.5t186 -240.5h-92q-43 113 -154.5 180.5t-277.5 67.5q-114 0 -208 -39.5t-166.5 -117.5t-112.5 -205.5t-40 -292.5t40 -292t112 -205.5t167 -118.5t208 -40q168 0 281 67.5t157 180.5h92z" />
    <glyph glyph-name="Egrave" unicode="&#xc8;" horiz-adv-x="1091" 
d="M633 1559h-78l-205 262h94zM211 80h819v-80h-905v1434h885v-80h-799v-574h696v-75h-696v-625z" />
    <glyph glyph-name="Eacute" unicode="&#xc9;" horiz-adv-x="1091" 
d="M745 1821l-204 -262h-78l188 262h94zM211 80h819v-80h-905v1434h885v-80h-799v-574h696v-75h-696v-625z" />
    <glyph glyph-name="Ecircumflex" unicode="&#xca;" horiz-adv-x="1091" 
d="M549 1763l-203 -194h-72l209 252h129l209 -252h-71zM211 80h819v-80h-905v1434h885v-80h-799v-574h696v-75h-696v-625z" />
    <glyph glyph-name="Edieresis" unicode="&#xcb;" horiz-adv-x="1091" 
d="M389 1821v-160h-92v160h92zM801 1821v-160h-92v160h92zM211 80h819v-80h-905v1434h885v-80h-799v-574h696v-75h-696v-625z" />
    <glyph glyph-name="Igrave" unicode="&#xcc;" horiz-adv-x="335" 
d="M252 1559l-189 262h-94l205 -262h78zM211 0h-86v1434h86v-1434z" />
    <glyph glyph-name="Iacute" unicode="&#xcd;" horiz-adv-x="335" 
d="M82 1559h78l205 262h-95zM211 0h-86v1434h86v-1434z" />
    <glyph glyph-name="Icircumflex" unicode="&#xce;" horiz-adv-x="335" 
d="M369 1569l-201 194l-203 -194h-71l208 252h129l209 -252h-71zM211 0h-86v1434h86v-1434z" />
    <glyph glyph-name="Idieresis" unicode="&#xcf;" horiz-adv-x="335" 
d="M-84 1821h92v-160h-92v160zM328 1821h92v-160h-92v160zM211 0h-86v1434h86v-1434z" />
    <glyph glyph-name="Eth" unicode="&#xd0;" horiz-adv-x="1341" 
d="M561 1434q345 0 522 -185.5t177 -531.5t-177 -531.5t-522 -185.5h-401v682h-119v70h119v682h401zM557 80q312 0 464.5 159.5t152.5 477.5q0 319 -152.5 478t-464.5 159h-311v-602h319v-70h-319v-602h311z" />
    <glyph glyph-name="Ntilde" unicode="&#xd1;" horiz-adv-x="1316" 
d="M918 1802h57q0 -82 -53.5 -126t-124.5 -44q-38 0 -72 14.5t-59 35.5t-49.5 42t-53.5 35.5t-59 14.5q-63 0 -93 -32t-28 -69h-55q0 81 53 125.5t125 44.5q46 0 87.5 -22.5t68 -49t63.5 -49t74 -22.5q62 0 91.5 32t27.5 70zM1192 1434v-1434h-111l-866 1315h-4v-1315h-86
v1434h108l867 -1313h4v1313h88z" />
    <glyph glyph-name="Ograve" unicode="&#xd2;" horiz-adv-x="1435" 
d="M801 1559l-189 262h-94l205 -262h78zM717 1452q136 0 249 -46t197 -135t131 -230.5t47 -323.5t-47 -323.5t-131 -230.5t-197 -135t-249 -46q-135 0 -247.5 46t-197 135t-131.5 230.5t-47 323.5t47 323.5t131.5 230.5t197 135t247.5 46zM717 61q119 0 216 39t169 117.5
t111.5 205.5t39.5 294q0 328 -145 491.5t-391 163.5q-119 0 -215.5 -39t-168.5 -117t-111.5 -205t-39.5 -294t39.5 -294t111.5 -205.5t168.5 -117.5t215.5 -39z" />
    <glyph glyph-name="Oacute" unicode="&#xd3;" horiz-adv-x="1435" 
d="M631 1559h78l204 262h-94zM717 1452q136 0 249 -46t197 -135t131 -230.5t47 -323.5t-47 -323.5t-131 -230.5t-197 -135t-249 -46q-135 0 -247.5 46t-197 135t-131.5 230.5t-47 323.5t47 323.5t131.5 230.5t197 135t247.5 46zM717 61q119 0 216 39t169 117.5t111.5 205.5
t39.5 294q0 328 -145 491.5t-391 163.5q-119 0 -215.5 -39t-168.5 -117t-111.5 -205t-39.5 -294t39.5 -294t111.5 -205.5t168.5 -117.5t215.5 -39z" />
    <glyph glyph-name="Ocircumflex" unicode="&#xd4;" horiz-adv-x="1435" 
d="M918 1569l-201 194l-203 -194h-72l209 252h129l209 -252h-71zM717 1452q136 0 249 -46t197 -135t131 -230.5t47 -323.5t-47 -323.5t-131 -230.5t-197 -135t-249 -46q-135 0 -247.5 46t-197 135t-131.5 230.5t-47 323.5t47 323.5t131.5 230.5t197 135t247.5 46zM717 61
q119 0 216 39t169 117.5t111.5 205.5t39.5 294q0 328 -145 491.5t-391 163.5q-119 0 -215.5 -39t-168.5 -117t-111.5 -205t-39.5 -294t39.5 -294t111.5 -205.5t168.5 -117.5t215.5 -39z" />
    <glyph glyph-name="Otilde" unicode="&#xd5;" horiz-adv-x="1435" 
d="M975 1802h57q0 -82 -53.5 -126t-124.5 -44q-38 0 -72 14.5t-59 35.5t-49.5 42t-53.5 35.5t-59 14.5q-63 0 -93 -32t-28 -69h-55q0 81 53 125.5t125 44.5q46 0 87.5 -22.5t68 -49t63.5 -49t74 -22.5q62 0 91.5 32t27.5 70zM717 1452q136 0 249 -46t197 -135t131 -230.5
t47 -323.5t-47 -323.5t-131 -230.5t-197 -135t-249 -46q-135 0 -247.5 46t-197 135t-131.5 230.5t-47 323.5t47 323.5t131.5 230.5t197 135t247.5 46zM717 61q119 0 216 39t169 117.5t111.5 205.5t39.5 294q0 328 -145 491.5t-391 163.5q-119 0 -215.5 -39t-168.5 -117
t-111.5 -205t-39.5 -294t39.5 -294t111.5 -205.5t168.5 -117.5t215.5 -39z" />
    <glyph glyph-name="Odieresis" unicode="&#xd6;" horiz-adv-x="1435" 
d="M465 1821h92v-160h-92v160zM877 1821h92v-160h-92v160zM717 1452q136 0 249 -46t197 -135t131 -230.5t47 -323.5t-47 -323.5t-131 -230.5t-197 -135t-249 -46q-135 0 -247.5 46t-197 135t-131.5 230.5t-47 323.5t47 323.5t131.5 230.5t197 135t247.5 46zM717 61
q119 0 216 39t169 117.5t111.5 205.5t39.5 294q0 328 -145 491.5t-391 163.5q-119 0 -215.5 -39t-168.5 -117t-111.5 -205t-39.5 -294t39.5 -294t111.5 -205.5t168.5 -117.5t215.5 -39z" />
    <glyph glyph-name="multiply" unicode="&#xd7;" horiz-adv-x="800" 
d="M709 788l-252 -251l250 -250l-56 -56l-250 250l-251 -252l-60 60l252 252l-248 247l56 56l247 -248l252 250z" />
    <glyph glyph-name="Oslash" unicode="&#xd8;" horiz-adv-x="1435" 
d="M1047 1366q139 -84 216.5 -247.5t77.5 -401.5q0 -182 -47 -323.5t-131 -230.5t-197 -135t-249 -46q-170 0 -299 69l-74 -153h-84l92 192q-123 91 -190.5 248.5t-67.5 378.5q0 182 47 323.5t131.5 230.5t197 135t247.5 46q148 0 262 -51l59 125h84zM182 717
q0 -387 207 -551l555 1163q-101 43 -227 43q-119 0 -215.5 -39t-168.5 -117t-111.5 -205t-39.5 -294zM717 61q119 0 216 39t169 117.5t111.5 205.5t39.5 294q0 420 -241 577l-559 -1171q115 -62 264 -62z" />
    <glyph glyph-name="Ugrave" unicode="&#xd9;" horiz-adv-x="1304" 
d="M739 1559l-188 262h-94l205 -262h77zM1182 537q0 -259 -142 -407t-389 -148q-246 0 -386 147.5t-140 407.5v897h86v-891q0 -226 117 -354t323 -128t324.5 128.5t118.5 353.5v891h88v-897z" />
    <glyph glyph-name="Uacute" unicode="&#xda;" horiz-adv-x="1304" 
d="M569 1559h78l205 262h-94zM1182 537q0 -259 -142 -407t-389 -148q-246 0 -386 147.5t-140 407.5v897h86v-891q0 -226 117 -354t323 -128t324.5 128.5t118.5 353.5v891h88v-897z" />
    <glyph glyph-name="Ucircumflex" unicode="&#xdb;" horiz-adv-x="1304" 
d="M856 1569l-201 194l-202 -194h-72l209 252h129l209 -252h-72zM1182 537q0 -259 -142 -407t-389 -148q-246 0 -386 147.5t-140 407.5v897h86v-891q0 -226 117 -354t323 -128t324.5 128.5t118.5 353.5v891h88v-897z" />
    <glyph glyph-name="Udieresis" unicode="&#xdc;" horiz-adv-x="1304" 
d="M403 1821h93v-160h-93v160zM815 1821h92v-160h-92v160zM1182 537q0 -259 -142 -407t-389 -148q-246 0 -386 147.5t-140 407.5v897h86v-891q0 -226 117 -354t323 -128t324.5 128.5t118.5 353.5v891h88v-897z" />
    <glyph glyph-name="Yacute" unicode="&#xdd;" horiz-adv-x="1271" 
d="M549 1559h78l204 262h-94zM678 580v-580h-86v580l-529 854h97l475 -768l477 768h96z" />
    <glyph glyph-name="Thorn" unicode="&#xde;" horiz-adv-x="1169" 
d="M584 1157q238 0 375 -118.5t137 -317.5q0 -211 -135 -323.5t-377 -112.5h-375v-285h-84v1434h84v-277h375zM588 362q207 0 315.5 92t108.5 267q0 164 -110.5 262t-313.5 98h-379v-719h379z" />
    <glyph glyph-name="germandbls" unicode="&#xdf;" horiz-adv-x="1163" 
d="M739 786q161 -35 241.5 -135t80.5 -241q0 -205 -134 -307.5t-392 -102.5h-156v78h156q442 0 442 332q0 158 -114.5 246.5t-321.5 88.5h-162v76h162q175 0 261.5 63.5t86.5 211.5q0 123 -88.5 192.5t-253.5 69.5q-181 0 -259.5 -66.5t-78.5 -216.5v-1075h-84v1075
q0 177 100.5 268t319.5 91q201 0 314.5 -89.5t113.5 -250.5q0 -121 -55 -198t-179 -110z" />
    <glyph glyph-name="agrave" unicode="&#xe0;" horiz-adv-x="1064" 
d="M610 1190h-78l-204 262h94zM932 129q0 -42 17 -57.5t63 -12.5v-59q-19 -8 -43 -8q-64 0 -91.5 30t-27.5 111v115q-15 -34 -46.5 -74t-83.5 -84.5t-132.5 -74t-173.5 -29.5q-155 0 -247.5 82t-92.5 227q0 128 82.5 205.5t281.5 105.5q108 15 155 22t132 25.5t123 38.5v23
q0 158 -71.5 223.5t-239.5 65.5q-281 0 -312 -181h-82q17 124 121 188t275 64q197 0 295 -87.5t98 -293.5v-565zM848 342v285q-57 -32 -404 -84q-159 -24 -222.5 -82t-63.5 -164q0 -113 71 -177.5t195 -64.5q75 0 143 24t112.5 57t82.5 77t55.5 73t30.5 56z" />
    <glyph glyph-name="aacute" unicode="&#xe1;" horiz-adv-x="1064" 
d="M723 1452l-205 -262h-78l189 262h94zM932 129q0 -42 17 -57.5t63 -12.5v-59q-19 -8 -43 -8q-64 0 -91.5 30t-27.5 111v115q-15 -34 -46.5 -74t-83.5 -84.5t-132.5 -74t-173.5 -29.5q-155 0 -247.5 82t-92.5 227q0 128 82.5 205.5t281.5 105.5q108 15 155 22t132 25.5
t123 38.5v23q0 158 -71.5 223.5t-239.5 65.5q-281 0 -312 -181h-82q17 124 121 188t275 64q197 0 295 -87.5t98 -293.5v-565zM848 342v285q-57 -32 -404 -84q-159 -24 -222.5 -82t-63.5 -164q0 -113 71 -177.5t195 -64.5q75 0 143 24t112.5 57t82.5 77t55.5 73t30.5 56z" />
    <glyph glyph-name="acircumflex" unicode="&#xe2;" horiz-adv-x="1064" 
d="M526 1395l-202 -195h-72l209 252h129l209 -252h-72zM932 129q0 -42 17 -57.5t63 -12.5v-59q-19 -8 -43 -8q-64 0 -91.5 30t-27.5 111v115q-15 -34 -46.5 -74t-83.5 -84.5t-132.5 -74t-173.5 -29.5q-155 0 -247.5 82t-92.5 227q0 128 82.5 205.5t281.5 105.5
q108 15 155 22t132 25.5t123 38.5v23q0 158 -71.5 223.5t-239.5 65.5q-281 0 -312 -181h-82q17 124 121 188t275 64q197 0 295 -87.5t98 -293.5v-565zM848 342v285q-57 -32 -404 -84q-159 -24 -222.5 -82t-63.5 -164q0 -113 71 -177.5t195 -64.5q75 0 143 24t112.5 57
t82.5 77t55.5 73t30.5 56z" />
    <glyph glyph-name="atilde" unicode="&#xe3;" horiz-adv-x="1064" 
d="M371 1405q-63 0 -93 -31.5t-28 -68.5h-55q0 81 53 125.5t125 44.5q46 0 87.5 -22.5t68 -49.5t63.5 -49.5t74 -22.5q62 0 91 32.5t27 70.5h58q0 -82 -53.5 -126t-124.5 -44q-38 0 -72 14.5t-59 35t-49.5 41.5t-53.5 35.5t-59 14.5zM932 129q0 -42 17 -57.5t63 -12.5v-59
q-19 -8 -43 -8q-64 0 -91.5 30t-27.5 111v115q-15 -34 -46.5 -74t-83.5 -84.5t-132.5 -74t-173.5 -29.5q-155 0 -247.5 82t-92.5 227q0 128 82.5 205.5t281.5 105.5q108 15 155 22t132 25.5t123 38.5v23q0 158 -71.5 223.5t-239.5 65.5q-281 0 -312 -181h-82q17 124 121 188
t275 64q197 0 295 -87.5t98 -293.5v-565zM848 342v285q-57 -32 -404 -84q-159 -24 -222.5 -82t-63.5 -164q0 -113 71 -177.5t195 -64.5q75 0 143 24t112.5 57t82.5 77t55.5 73t30.5 56z" />
    <glyph glyph-name="adieresis" unicode="&#xe4;" horiz-adv-x="1064" 
d="M367 1452v-160h-93v160h93zM778 1452v-160h-92v160h92zM932 129q0 -42 17 -57.5t63 -12.5v-59q-19 -8 -43 -8q-64 0 -91.5 30t-27.5 111v115q-15 -34 -46.5 -74t-83.5 -84.5t-132.5 -74t-173.5 -29.5q-155 0 -247.5 82t-92.5 227q0 128 82.5 205.5t281.5 105.5
q108 15 155 22t132 25.5t123 38.5v23q0 158 -71.5 223.5t-239.5 65.5q-281 0 -312 -181h-82q17 124 121 188t275 64q197 0 295 -87.5t98 -293.5v-565zM848 342v285q-57 -32 -404 -84q-159 -24 -222.5 -82t-63.5 -164q0 -113 71 -177.5t195 -64.5q75 0 143 24t112.5 57
t82.5 77t55.5 73t30.5 56z" />
    <glyph glyph-name="aring" unicode="&#xe5;" horiz-adv-x="1064" 
d="M528 1190q-68 0 -114.5 46.5t-46.5 111.5t46.5 111t114.5 46t115 -46t47 -111t-47 -111.5t-115 -46.5zM528 1452q-46 0 -76 -30t-30 -74q0 -43 30.5 -74t75.5 -31t77 31t32 74q0 44 -31.5 74t-77.5 30zM932 129q0 -42 17 -57.5t63 -12.5v-59q-19 -8 -43 -8
q-64 0 -91.5 30t-27.5 111v115q-15 -34 -46.5 -74t-83.5 -84.5t-132.5 -74t-173.5 -29.5q-155 0 -247.5 82t-92.5 227q0 128 82.5 205.5t281.5 105.5q108 15 155 22t132 25.5t123 38.5v23q0 158 -71.5 223.5t-239.5 65.5q-281 0 -312 -181h-82q17 124 121 188t275 64
q197 0 295 -87.5t98 -293.5v-565zM848 342v285q-57 -32 -404 -84q-159 -24 -222.5 -82t-63.5 -164q0 -113 71 -177.5t195 -64.5q75 0 143 24t112.5 57t82.5 77t55.5 73t30.5 56z" />
    <glyph glyph-name="ae" unicode="&#xe6;" horiz-adv-x="1855" 
d="M1784 543q0 -33 -2 -51h-850q10 -218 120 -326.5t285 -108.5q111 0 184 31t134 111h88q-74 -115 -171 -164t-239 -49q-158 0 -274.5 77.5t-169.5 225.5q-28 -58 -71.5 -110t-102 -96.5t-137 -70.5t-164.5 -26q-155 0 -247.5 81t-92.5 220q0 132 83 209.5t285 105.5
q6 1 53 7.5t65 9t62.5 9.5t69.5 12t58.5 12.5t57 15.5t40.5 16v31q0 155 -72 222t-241 67q-144 0 -220 -48.5t-90 -130.5h-82q17 122 121.5 186t272.5 64q161 0 255.5 -55.5t125.5 -183.5q61 117 169.5 178t239.5 61q96 0 178 -34t144.5 -99t98.5 -167.5t36 -231.5zM932 561
h770q-3 215 -106 329t-269 114q-164 0 -275 -113t-120 -330zM848 336v280q-11 -6 -29.5 -12.5t-48 -13.5t-54.5 -12t-68.5 -12.5t-69 -12t-76.5 -12.5t-72 -11q-147 -21 -209.5 -78t-62.5 -163q0 -107 72 -170.5t194 -63.5q75 0 143 23.5t112.5 56t82.5 75t56 71.5t30 55z
" />
    <glyph glyph-name="ccedilla" unicode="&#xe7;" horiz-adv-x="1044" 
d="M983 287q-85 -282 -387 -299l-88 -99q67 20 127.5 -18.5t60.5 -112.5q0 -92 -72 -135t-186 -43v49q187 6 187 125q0 61 -49.5 83.5t-120.5 -5.5l-25 37l82 119q-88 8 -165.5 45t-139 102t-97.5 167t-36 228q0 134 40 240.5t108.5 171.5t153.5 99t179 34
q153 0 263.5 -72.5t158.5 -222.5h-80q-86 221 -342 221q-78 0 -148 -28t-127.5 -83.5t-91.5 -148.5t-34 -211q0 -120 34.5 -213t92.5 -148t128 -82.5t148 -27.5q131 0 216.5 55t129.5 173h80z" />
    <glyph glyph-name="egrave" unicode="&#xe8;" horiz-adv-x="1079" 
d="M631 1190h-78l-205 262h94zM1008 543q0 -33 -2 -51h-850q10 -218 120 -326.5t285 -108.5q111 0 184 31t134 111h88q-74 -115 -171 -164t-239 -49q-215 0 -349 142t-134 402q0 133 38.5 238.5t104.5 171.5t151 100.5t183 34.5q96 0 178 -34t144.5 -99t98.5 -167.5
t36 -231.5zM156 561h770q-3 215 -106 329t-269 114q-164 0 -275 -113t-120 -330z" />
    <glyph glyph-name="eacute" unicode="&#xe9;" horiz-adv-x="1079" 
d="M743 1452l-204 -262h-78l188 262h94zM1008 543q0 -33 -2 -51h-850q10 -218 120 -326.5t285 -108.5q111 0 184 31t134 111h88q-74 -115 -171 -164t-239 -49q-215 0 -349 142t-134 402q0 133 38.5 238.5t104.5 171.5t151 100.5t183 34.5q96 0 178 -34t144.5 -99
t98.5 -167.5t36 -231.5zM156 561h770q-3 215 -106 329t-269 114q-164 0 -275 -113t-120 -330z" />
    <glyph glyph-name="ecircumflex" unicode="&#xea;" horiz-adv-x="1079" 
d="M547 1395l-203 -195h-72l209 252h129l209 -252h-71zM1008 543q0 -33 -2 -51h-850q10 -218 120 -326.5t285 -108.5q111 0 184 31t134 111h88q-74 -115 -171 -164t-239 -49q-215 0 -349 142t-134 402q0 133 38.5 238.5t104.5 171.5t151 100.5t183 34.5q96 0 178 -34
t144.5 -99t98.5 -167.5t36 -231.5zM156 561h770q-3 215 -106 329t-269 114q-164 0 -275 -113t-120 -330z" />
    <glyph glyph-name="edieresis" unicode="&#xeb;" horiz-adv-x="1079" 
d="M387 1452v-160h-92v160h92zM799 1452v-160h-92v160h92zM1008 543q0 -33 -2 -51h-850q10 -218 120 -326.5t285 -108.5q111 0 184 31t134 111h88q-74 -115 -171 -164t-239 -49q-215 0 -349 142t-134 402q0 133 38.5 238.5t104.5 171.5t151 100.5t183 34.5q96 0 178 -34
t144.5 -99t98.5 -167.5t36 -231.5zM156 561h770q-3 215 -106 329t-269 114q-164 0 -275 -113t-120 -330z" />
    <glyph glyph-name="igrave" unicode="&#xec;" horiz-adv-x="333" 
d="M250 1190l-189 262h-94l205 -262h78zM125 1065h84v-1065h-84v1065z" />
    <glyph glyph-name="iacute" unicode="&#xed;" horiz-adv-x="333" 
d="M80 1190h78l204 262h-94zM125 1065h84v-1065h-84v1065z" />
    <glyph glyph-name="icircumflex" unicode="&#xee;" horiz-adv-x="333" 
d="M367 1200l-201 195l-203 -195h-72l209 252h129l209 -252h-71zM125 1065h84v-1065h-84v1065z" />
    <glyph glyph-name="idieresis" unicode="&#xef;" horiz-adv-x="333" 
d="M-86 1452h92v-160h-92v160zM326 1452h92v-160h-92v160zM125 1065h84v-1065h-84v1065z" />
    <glyph glyph-name="eth" unicode="&#xf0;" horiz-adv-x="1148" 
d="M756 1202q157 -209 213.5 -352.5t56.5 -329.5q0 -255 -135 -397.5t-352 -142.5q-97 0 -181.5 36t-147.5 102.5t-99.5 169t-36.5 228.5q0 264 118 406.5t345 142.5q201 0 311 -119q-69 107 -176 246l-232 -29v54l195 24q-49 64 -158 193h96q127 -158 144 -181l209 27v-55z
M539 57q178 0 289.5 117t111.5 342q0 242 -100.5 357.5t-300.5 115.5q-381 0 -381 -473q0 -114 31.5 -203.5t85 -144t121 -83t143.5 -28.5z" />
    <glyph glyph-name="ntilde" unicode="&#xf1;" horiz-adv-x="1112" 
d="M399 1405q-63 0 -92.5 -31.5t-27.5 -68.5h-56q0 81 53 125.5t125 44.5q46 0 87.5 -22.5t68 -49.5t63.5 -49.5t74 -22.5q62 0 91.5 32.5t27.5 70.5h57q0 -82 -53.5 -126t-124.5 -44q-38 0 -72 14.5t-59 35t-49.5 41.5t-53.5 35.5t-59 14.5zM608 1075q83 0 149 -22t119 -70
t82 -134t29 -204v-645h-84v647q0 192 -79 272t-234 80q-66 0 -125 -22t-100.5 -56.5t-75 -78.5t-52.5 -85t-28 -79v-678h-84v1065h84v-272q7 34 35.5 79t76 92t124 79t163.5 32z" />
    <glyph glyph-name="ograve" unicode="&#xf2;" horiz-adv-x="1095" 
d="M633 1190l-189 262h-94l205 -262h78zM549 1075q72 0 140.5 -21.5t129 -66t105.5 -107.5t71.5 -153t26.5 -195q0 -107 -26.5 -198t-71.5 -154t-105.5 -107.5t-128.5 -65.5t-141 -21t-141.5 21t-129.5 65.5t-106 107.5t-71.5 154t-26.5 198q0 105 26.5 195t71.5 153
t106 107.5t129.5 66t141.5 21.5zM940 532q0 115 -33 206t-88.5 147t-124.5 85t-145 29t-145.5 -29t-125.5 -85t-89 -147t-33 -206q0 -118 33 -210.5t89 -148t125 -84t146 -28.5t145.5 28.5t124 84t88.5 148t33 210.5z" />
    <glyph glyph-name="oacute" unicode="&#xf3;" horiz-adv-x="1095" 
d="M463 1190h78l204 262h-94zM549 1075q72 0 140.5 -21.5t129 -66t105.5 -107.5t71.5 -153t26.5 -195q0 -107 -26.5 -198t-71.5 -154t-105.5 -107.5t-128.5 -65.5t-141 -21t-141.5 21t-129.5 65.5t-106 107.5t-71.5 154t-26.5 198q0 105 26.5 195t71.5 153t106 107.5
t129.5 66t141.5 21.5zM940 532q0 115 -33 206t-88.5 147t-124.5 85t-145 29t-145.5 -29t-125.5 -85t-89 -147t-33 -206q0 -118 33 -210.5t89 -148t125 -84t146 -28.5t145.5 28.5t124 84t88.5 148t33 210.5z" />
    <glyph glyph-name="ocircumflex" unicode="&#xf4;" horiz-adv-x="1095" 
d="M750 1200l-201 195l-203 -195h-72l209 252h129l209 -252h-71zM549 1075q72 0 140.5 -21.5t129 -66t105.5 -107.5t71.5 -153t26.5 -195q0 -107 -26.5 -198t-71.5 -154t-105.5 -107.5t-128.5 -65.5t-141 -21t-141.5 21t-129.5 65.5t-106 107.5t-71.5 154t-26.5 198
q0 105 26.5 195t71.5 153t106 107.5t129.5 66t141.5 21.5zM940 532q0 115 -33 206t-88.5 147t-124.5 85t-145 29t-145.5 -29t-125.5 -85t-89 -147t-33 -206q0 -118 33 -210.5t89 -148t125 -84t146 -28.5t145.5 28.5t124 84t88.5 148t33 210.5z" />
    <glyph glyph-name="otilde" unicode="&#xf5;" horiz-adv-x="1095" 
d="M807 1434h57q0 -82 -53.5 -126t-124.5 -44q-38 0 -72 14.5t-59 35t-49.5 41.5t-53.5 35.5t-59 14.5q-63 0 -93 -31.5t-28 -68.5h-55q0 81 53 125.5t125 44.5q46 0 87.5 -22.5t68 -49.5t63.5 -49.5t74 -22.5q62 0 91.5 32.5t27.5 70.5zM549 1075q72 0 140.5 -21.5t129 -66
t105.5 -107.5t71.5 -153t26.5 -195q0 -107 -26.5 -198t-71.5 -154t-105.5 -107.5t-128.5 -65.5t-141 -21t-141.5 21t-129.5 65.5t-106 107.5t-71.5 154t-26.5 198q0 105 26.5 195t71.5 153t106 107.5t129.5 66t141.5 21.5zM940 532q0 115 -33 206t-88.5 147t-124.5 85
t-145 29t-145.5 -29t-125.5 -85t-89 -147t-33 -206q0 -118 33 -210.5t89 -148t125 -84t146 -28.5t145.5 28.5t124 84t88.5 148t33 210.5z" />
    <glyph glyph-name="odieresis" unicode="&#xf6;" horiz-adv-x="1095" 
d="M297 1452h92v-160h-92v160zM709 1452h92v-160h-92v160zM549 1075q72 0 140.5 -21.5t129 -66t105.5 -107.5t71.5 -153t26.5 -195q0 -107 -26.5 -198t-71.5 -154t-105.5 -107.5t-128.5 -65.5t-141 -21t-141.5 21t-129.5 65.5t-106 107.5t-71.5 154t-26.5 198
q0 105 26.5 195t71.5 153t106 107.5t129.5 66t141.5 21.5zM940 532q0 115 -33 206t-88.5 147t-124.5 85t-145 29t-145.5 -29t-125.5 -85t-89 -147t-33 -206q0 -118 33 -210.5t89 -148t125 -84t146 -28.5t145.5 28.5t124 84t88.5 148t33 210.5z" />
    <glyph glyph-name="divide" unicode="&#xf7;" horiz-adv-x="921" 
d="M465 834q-20 0 -35.5 15.5t-15.5 35.5t15.5 35.5t35.5 15.5t35.5 -15.5t15.5 -35.5t-15.5 -35.5t-35.5 -15.5zM92 612h567v-69h-567v69zM465 217q-20 0 -35.5 15.5t-15.5 35.5t15.5 35.5t35.5 15.5t35.5 -15.5t15.5 -35.5t-15.5 -35.5t-35.5 -15.5z" />
    <glyph glyph-name="oslash" unicode="&#xf8;" horiz-adv-x="1095" 
d="M799 1001q102 -67 162.5 -186t60.5 -283q0 -107 -26.5 -198t-71.5 -154t-105.5 -107.5t-128.5 -65.5t-141 -21q-114 0 -213 51l-66 -139h-84l86 178q-92 69 -145 184.5t-53 271.5q0 105 26.5 195t71.5 153t106 107.5t129.5 66t141.5 21.5q97 0 184 -37l70 146h84z
M156 532q0 -257 151 -385l393 822q-73 30 -151 30q-76 0 -145.5 -29t-125.5 -85t-89 -147t-33 -206zM549 61q77 0 145.5 28.5t124 84t88.5 148t33 210.5q0 140 -46.5 240.5t-127.5 159.5l-395 -828q82 -43 178 -43z" />
    <glyph glyph-name="ugrave" unicode="&#xf9;" horiz-adv-x="1101" 
d="M625 1190h-78l-205 262h94zM893 1065h84v-1065h-84v270q-5 -27 -23.5 -61.5t-53 -74t-79 -72.5t-108.5 -54.5t-135 -21.5q-83 0 -149 22.5t-119 71t-82 134.5t-29 204v647h84v-649q0 -192 79 -273.5t234 -81.5q66 0 125 22.5t100.5 57t75 79t52.5 86t28 79.5v680z" />
    <glyph glyph-name="uacute" unicode="&#xfa;" horiz-adv-x="1101" 
d="M737 1452l-205 -262h-77l188 262h94zM893 1065h84v-1065h-84v270q-5 -27 -23.5 -61.5t-53 -74t-79 -72.5t-108.5 -54.5t-135 -21.5q-83 0 -149 22.5t-119 71t-82 134.5t-29 204v647h84v-649q0 -192 79 -273.5t234 -81.5q66 0 125 22.5t100.5 57t75 79t52.5 86t28 79.5
v680z" />
    <glyph glyph-name="ucircumflex" unicode="&#xfb;" horiz-adv-x="1101" 
d="M541 1395l-203 -195h-72l209 252h129l209 -252h-72zM893 1065h84v-1065h-84v270q-5 -27 -23.5 -61.5t-53 -74t-79 -72.5t-108.5 -54.5t-135 -21.5q-83 0 -149 22.5t-119 71t-82 134.5t-29 204v647h84v-649q0 -192 79 -273.5t234 -81.5q66 0 125 22.5t100.5 57t75 79
t52.5 86t28 79.5v680z" />
    <glyph glyph-name="udieresis" unicode="&#xfc;" horiz-adv-x="1101" 
d="M381 1452v-160h-92v160h92zM793 1452v-160h-93v160h93zM893 1065h84v-1065h-84v270q-5 -27 -23.5 -61.5t-53 -74t-79 -72.5t-108.5 -54.5t-135 -21.5q-83 0 -149 22.5t-119 71t-82 134.5t-29 204v647h84v-649q0 -192 79 -273.5t234 -81.5q66 0 125 22.5t100.5 57t75 79
t52.5 86t28 79.5v680z" />
    <glyph glyph-name="yacute" unicode="&#xfd;" horiz-adv-x="1044" 
d="M444 1190h78l205 262h-94zM905 1065h88l-473 -1190q-115 -288 -356 -252v78q202 -30 287 193q3 7 7 19t6 17t5 14t4 13t2.5 10.5t1.5 10t0.5 8.5t-0.5 8.5t-2.5 8t-3.5 9.5l-418 1053h86l383 -989z" />
    <glyph glyph-name="thorn" unicode="&#xfe;" horiz-adv-x="1153" 
d="M606 1075q94 0 178 -33.5t150.5 -98.5t105.5 -171t39 -240q0 -135 -38.5 -241t-105.5 -171.5t-151 -99.5t-180 -34q-129 0 -231.5 65t-163.5 197v-637h-84v1835h84v-617q60 120 163 182t230 64h4zM602 61q78 0 147.5 28.5t125.5 84t89 148t33 210.5q0 117 -33 209
t-89 147t-126 83t-149 28t-148 -27.5t-126 -81.5t-90 -146.5t-33 -211.5q0 -116 33 -207.5t89.5 -148t126.5 -86t148 -29.5h2z" />
    <glyph glyph-name="ydieresis" unicode="&#xff;" horiz-adv-x="1044" 
d="M279 1452h92v-160h-92v160zM690 1452h92v-160h-92v160zM905 1065h88l-473 -1190q-115 -288 -356 -252v78q202 -30 287 193q3 7 7 19t6 17t5 14t4 13t2.5 10.5t1.5 10t0.5 8.5t-0.5 8.5t-2.5 8t-3.5 9.5l-418 1053h86l383 -989z" />
    <glyph glyph-name="Amacron" unicode="&#x100;" horiz-adv-x="1357" 
d="M961 1821v-62h-564v62h564zM1200 0l-170 426h-702l-170 -426h-95l580 1434h72l579 -1434h-94zM356 498h645l-323 811z" />
    <glyph glyph-name="amacron" unicode="&#x101;" horiz-adv-x="1064" 
d="M809 1452v-61h-563v61h563zM932 129q0 -42 17 -57.5t63 -12.5v-59q-19 -8 -43 -8q-64 0 -91.5 30t-27.5 111v115q-15 -34 -46.5 -74t-83.5 -84.5t-132.5 -74t-173.5 -29.5q-155 0 -247.5 82t-92.5 227q0 128 82.5 205.5t281.5 105.5q108 15 155 22t132 25.5t123 38.5v23
q0 158 -71.5 223.5t-239.5 65.5q-281 0 -312 -181h-82q17 124 121 188t275 64q197 0 295 -87.5t98 -293.5v-565zM848 342v285q-57 -32 -404 -84q-159 -24 -222.5 -82t-63.5 -164q0 -113 71 -177.5t195 -64.5q75 0 143 24t112.5 57t82.5 77t55.5 73t30.5 56z" />
    <glyph glyph-name="Abreve" unicode="&#x102;" horiz-adv-x="1357" 
d="M678 1587q-71 0 -124 21t-82.5 55.5t-43.5 74.5t-14 83h65q14 -166 199 -166q183 0 201 166h65q0 -43 -14 -83t-43.5 -74.5t-83.5 -55.5t-125 -21zM1200 0l-170 426h-702l-170 -426h-95l580 1434h72l579 -1434h-94zM356 498h645l-323 811z" />
    <glyph glyph-name="abreve" unicode="&#x103;" horiz-adv-x="1064" 
d="M526 1219q-71 0 -124 20.5t-82.5 55.5t-43.5 74.5t-14 82.5h66q14 -166 198 -166q183 0 201 166h66q0 -43 -14.5 -82.5t-44 -74.5t-83.5 -55.5t-125 -20.5zM932 129q0 -42 17 -57.5t63 -12.5v-59q-19 -8 -43 -8q-64 0 -91.5 30t-27.5 111v115q-15 -34 -46.5 -74
t-83.5 -84.5t-132.5 -74t-173.5 -29.5q-155 0 -247.5 82t-92.5 227q0 128 82.5 205.5t281.5 105.5q108 15 155 22t132 25.5t123 38.5v23q0 158 -71.5 223.5t-239.5 65.5q-281 0 -312 -181h-82q17 124 121 188t275 64q197 0 295 -87.5t98 -293.5v-565zM848 342v285
q-57 -32 -404 -84q-159 -24 -222.5 -82t-63.5 -164q0 -113 71 -177.5t195 -64.5q75 0 143 24t112.5 57t82.5 77t55.5 73t30.5 56z" />
    <glyph glyph-name="Aogonek" unicode="&#x104;" horiz-adv-x="1357" 
d="M1270 0q-106 -44 -173 -106.5t-67 -139.5q0 -67 54.5 -96t150.5 -12v-54q-39 -16 -87.5 -17t-94 13.5t-76.5 54t-31 97.5q0 84 76 153.5t178 106.5l-170 426h-702l-170 -426h-95l580 1434h72l579 -1434h-24zM356 498h645l-323 811z" />
    <glyph glyph-name="aogonek" unicode="&#x105;" horiz-adv-x="1064" 
d="M1012 59v-59q-2 -1 -6 -2t-5 -2h9q-106 -44 -173 -106.5t-67 -139.5q0 -67 54.5 -96t150.5 -12v-54q-39 -16 -87.5 -17t-94 13.5t-76.5 54t-31 97.5q0 83 74.5 152.5t175.5 105.5q-45 6 -65.5 38t-20.5 101v115q-15 -34 -46.5 -74t-83.5 -84.5t-132.5 -74t-173.5 -29.5
q-155 0 -247.5 82t-92.5 227q0 128 82.5 205.5t281.5 105.5q108 15 155 22t132 25.5t123 38.5v23q0 158 -71.5 223.5t-239.5 65.5q-281 0 -312 -181h-82q17 124 121 188t275 64q197 0 295 -87.5t98 -293.5v-565q0 -42 17 -57.5t63 -12.5zM848 342v285q-57 -32 -404 -84
q-159 -24 -222.5 -82t-63.5 -164q0 -113 71 -177.5t195 -64.5q75 0 143 24t112.5 57t82.5 77t55.5 73t30.5 56z" />
    <glyph glyph-name="Cacute" unicode="&#x106;" horiz-adv-x="1300" 
d="M610 1559h78l205 262h-94zM709 61q168 0 281 67.5t157 180.5h92q-50 -153 -189.5 -240t-340.5 -87q-132 0 -242.5 45.5t-194.5 134t-131 230.5t-47 325t47 325t131 230.5t194.5 134t242.5 45.5q200 0 338 -87.5t186 -240.5h-92q-43 113 -154.5 180.5t-277.5 67.5
q-114 0 -208 -39.5t-166.5 -117.5t-112.5 -205.5t-40 -292.5t40 -292t112 -205.5t167 -118.5t208 -40z" />
    <glyph glyph-name="cacute" unicode="&#x107;" horiz-adv-x="1044" 
d="M467 1190h78l205 262h-95zM557 59q131 0 216.5 55t129.5 173h80q-92 -301 -426 -301q-95 0 -180 33.5t-153.5 98.5t-109 171.5t-40.5 240.5t40 240.5t108.5 171.5t153.5 99t179 34q153 0 263.5 -72.5t158.5 -222.5h-80q-86 221 -342 221q-78 0 -148 -28t-127.5 -83.5
t-91.5 -148.5t-34 -211q0 -120 34.5 -213t92.5 -148t128 -82.5t148 -27.5z" />
    <glyph glyph-name="Cdotaccent" unicode="&#x10a;" horiz-adv-x="1300" 
d="M649 1821h92v-160h-92v160zM709 61q168 0 281 67.5t157 180.5h92q-50 -153 -189.5 -240t-340.5 -87q-132 0 -242.5 45.5t-194.5 134t-131 230.5t-47 325t47 325t131 230.5t194.5 134t242.5 45.5q200 0 338 -87.5t186 -240.5h-92q-43 113 -154.5 180.5t-277.5 67.5
q-114 0 -208 -39.5t-166.5 -117.5t-112.5 -205.5t-40 -292.5t40 -292t112 -205.5t167 -118.5t208 -40z" />
    <glyph glyph-name="cdotaccent" unicode="&#x10b;" horiz-adv-x="1044" 
d="M506 1452h92v-160h-92v160zM557 59q131 0 216.5 55t129.5 173h80q-92 -301 -426 -301q-95 0 -180 33.5t-153.5 98.5t-109 171.5t-40.5 240.5t40 240.5t108.5 171.5t153.5 99t179 34q153 0 263.5 -72.5t158.5 -222.5h-80q-86 221 -342 221q-78 0 -148 -28t-127.5 -83.5
t-91.5 -148.5t-34 -211q0 -120 34.5 -213t92.5 -148t128 -82.5t148 -27.5z" />
    <glyph glyph-name="Ccaron" unicode="&#x10c;" horiz-adv-x="1300" 
d="M895 1802h72l-209 -252h-129l-209 252h72l202 -194zM709 61q168 0 281 67.5t157 180.5h92q-50 -153 -189.5 -240t-340.5 -87q-132 0 -242.5 45.5t-194.5 134t-131 230.5t-47 325t47 325t131 230.5t194.5 134t242.5 45.5q200 0 338 -87.5t186 -240.5h-92
q-43 113 -154.5 180.5t-277.5 67.5q-114 0 -208 -39.5t-166.5 -117.5t-112.5 -205.5t-40 -292.5t40 -292t112 -205.5t167 -118.5t208 -40z" />
    <glyph glyph-name="ccaron" unicode="&#x10d;" horiz-adv-x="1044" 
d="M752 1434h71l-209 -252h-129l-209 252h72l203 -195zM557 59q131 0 216.5 55t129.5 173h80q-92 -301 -426 -301q-95 0 -180 33.5t-153.5 98.5t-109 171.5t-40.5 240.5t40 240.5t108.5 171.5t153.5 99t179 34q153 0 263.5 -72.5t158.5 -222.5h-80q-86 221 -342 221
q-78 0 -148 -28t-127.5 -83.5t-91.5 -148.5t-34 -211q0 -120 34.5 -213t92.5 -148t128 -82.5t148 -27.5z" />
    <glyph glyph-name="Dcaron" unicode="&#x10e;" horiz-adv-x="1308" 
d="M735 1550h-129l-209 252h72l203 -194l200 194h72zM526 1434q345 0 522 -185.5t177 -531.5t-177 -531.5t-522 -185.5h-401v1434h401zM522 80q312 0 464.5 159.5t152.5 477.5q0 319 -152.5 478t-464.5 159h-311v-1274h311z" />
    <glyph glyph-name="dcaron" unicode="&#x10f;" horiz-adv-x="1325" 
d="M547 1075q128 0 232.5 -62.5t164.5 -183.5v617h84v-1446h-84v248q-61 -132 -163.5 -197t-231.5 -65q-96 0 -180 34t-151 99.5t-105.5 171.5t-38.5 241q0 108 26 198t70.5 153t104.5 107t129 64.5t143 20.5zM1083 1184h78l205 262h-94zM553 61q78 0 148 29.5t126.5 86
t89.5 148t33 207.5q0 119 -33 211.5t-90 146.5t-126 81.5t-148 27.5t-149 -28t-126 -83t-89 -147t-33 -209q0 -118 33 -210.5t89 -148t126 -84t149 -28.5z" />
    <glyph glyph-name="Dcroat" unicode="&#x110;" horiz-adv-x="1341" 
d="M561 1434q345 0 522 -185.5t177 -531.5t-177 -531.5t-522 -185.5h-401v682h-119v70h119v682h401zM557 80q312 0 464.5 159.5t152.5 477.5q0 319 -152.5 478t-464.5 159h-311v-602h319v-70h-319v-602h311z" />
    <glyph glyph-name="dcroat" unicode="&#x111;" horiz-adv-x="1263" 
d="M1221 1321v-61h-193v-1260h-84v248q-61 -132 -163.5 -197t-231.5 -65q-96 0 -180 34t-151 99.5t-105.5 171.5t-38.5 241q0 108 26 198t70.5 153t104.5 107t129 64.5t143 20.5q128 0 232.5 -62.5t164.5 -183.5v431h-287v61h287v125h84v-125h193zM553 61q78 0 148 29.5
t126.5 86t89.5 148t33 207.5q0 119 -33 211.5t-90 146.5t-126 81.5t-148 27.5t-149 -28t-126 -83t-89 -147t-33 -209q0 -118 33 -210.5t89 -148t126 -84t149 -28.5z" />
    <glyph glyph-name="Emacron" unicode="&#x112;" horiz-adv-x="1091" 
d="M831 1821v-62h-563v62h563zM211 80h819v-80h-905v1434h885v-80h-799v-574h696v-75h-696v-625z" />
    <glyph glyph-name="emacron" unicode="&#x113;" horiz-adv-x="1079" 
d="M829 1452v-61h-563v61h563zM1008 543q0 -33 -2 -51h-850q10 -218 120 -326.5t285 -108.5q111 0 184 31t134 111h88q-74 -115 -171 -164t-239 -49q-215 0 -349 142t-134 402q0 133 38.5 238.5t104.5 171.5t151 100.5t183 34.5q96 0 178 -34t144.5 -99t98.5 -167.5
t36 -231.5zM156 561h770q-3 215 -106 329t-269 114q-164 0 -275 -113t-120 -330z" />
    <glyph glyph-name="Edotaccent" unicode="&#x116;" horiz-adv-x="1091" 
d="M594 1821v-160h-92v160h92zM211 80h819v-80h-905v1434h885v-80h-799v-574h696v-75h-696v-625z" />
    <glyph glyph-name="edotaccent" unicode="&#x117;" horiz-adv-x="1079" 
d="M592 1452v-160h-92v160h92zM1008 543q0 -33 -2 -51h-850q10 -218 120 -326.5t285 -108.5q111 0 184 31t134 111h88q-74 -115 -171 -164t-239 -49q-215 0 -349 142t-134 402q0 133 38.5 238.5t104.5 171.5t151 100.5t183 34.5q96 0 178 -34t144.5 -99t98.5 -167.5
t36 -231.5zM156 561h770q-3 215 -106 329t-269 114q-164 0 -275 -113t-120 -330z" />
    <glyph glyph-name="Eogonek" unicode="&#x118;" horiz-adv-x="1091" 
d="M1030 0q-106 -44 -172.5 -106.5t-66.5 -139.5q0 -67 54 -96t150 -12v-54q-39 -16 -87.5 -17t-94 13.5t-76 54t-30.5 97.5q0 84 76 153.5t178 106.5h-836v1434h885v-80h-799v-574h696v-75h-696v-625h819v-80z" />
    <glyph glyph-name="eogonek" unicode="&#x119;" horiz-adv-x="1079" 
d="M1008 543q0 -33 -2 -51h-850q10 -218 120 -326.5t285 -108.5q111 0 184 31t134 111h88q-64 -98 -143 -147.5t-187 -61.5h27q-106 -44 -173 -106.5t-67 -139.5q0 -67 54.5 -96.5t150.5 -12.5v-53q-39 -16 -87.5 -17t-94 13.5t-76.5 54t-31 97.5q0 81 72.5 149.5
t171.5 106.5h-27q-215 0 -349 142t-134 402q0 133 38.5 238.5t104.5 171.5t151 100.5t183 34.5q96 0 178 -34t144.5 -99t98.5 -167.5t36 -231.5zM156 561h770q-3 215 -106 329t-269 114q-164 0 -275 -113t-120 -330z" />
    <glyph glyph-name="Ecaron" unicode="&#x11a;" horiz-adv-x="1091" 
d="M610 1550h-129l-209 252h72l203 -194l201 194h71zM211 80h819v-80h-905v1434h885v-80h-799v-574h696v-75h-696v-625z" />
    <glyph glyph-name="ecaron" unicode="&#x11b;" horiz-adv-x="1079" 
d="M608 1182h-129l-209 252h72l203 -195l200 195h72zM1008 543q0 -33 -2 -51h-850q10 -218 120 -326.5t285 -108.5q111 0 184 31t134 111h88q-74 -115 -171 -164t-239 -49q-215 0 -349 142t-134 402q0 133 38.5 238.5t104.5 171.5t151 100.5t183 34.5q96 0 178 -34
t144.5 -99t98.5 -167.5t36 -231.5zM156 561h770q-3 215 -106 329t-269 114q-164 0 -275 -113t-120 -330z" />
    <glyph glyph-name="Gbreve" unicode="&#x11e;" horiz-adv-x="1386" 
d="M909 1821h66q0 -43 -14 -83t-43.5 -74.5t-83.5 -55.5t-125 -21t-124 21t-83 55.5t-44 74.5t-14 83h66q14 -166 199 -166q182 0 200 166zM1282 705v-76q0 -317 -147.5 -482t-425.5 -165q-133 0 -244 45t-194.5 133.5t-130 230.5t-46.5 326q0 183 46 325t129 231t194 134
t246 45q193 0 321 -81t180 -224h-92q-45 105 -147 165t-262 60q-116 0 -210.5 -39.5t-166 -117.5t-111 -205t-39.5 -293t40 -293.5t112 -206t166.5 -117.5t208.5 -39q244 0 369 143.5t124 424.5h-411v76h491z" />
    <glyph glyph-name="gbreve" unicode="&#x11f;" 
d="M559 1219q-71 0 -124 20.5t-82.5 55.5t-43.5 74.5t-14 82.5h65q14 -166 199 -166q183 0 201 166h65q0 -43 -14 -82.5t-43.5 -74.5t-83.5 -55.5t-125 -20.5zM946 1065h84v-1073q0 -101 -27.5 -179.5t-72 -127t-107 -80t-126.5 -44t-136 -12.5q-139 0 -251.5 50.5
t-166.5 138.5l58 39q53 -75 146 -113.5t210 -38.5q181 0 285 87.5t104 279.5v256q-123 -260 -397 -260q-95 0 -179 34t-151 99t-106 171t-39 240q0 108 26 198t70.5 153t104.5 107t129 64.5t143 20.5q130 0 234.5 -62.5t164.5 -183.5v236zM555 61q78 0 148 29.5t126.5 86
t89.5 148t33 207.5q0 119 -33 211.5t-89.5 147.5t-126 82.5t-148.5 27.5t-149 -28t-127 -83.5t-90 -147.5t-33 -210t33 -210.5t90 -148t127 -84t149 -28.5z" />
    <glyph glyph-name="Gdotaccent" unicode="&#x120;" horiz-adv-x="1386" 
d="M662 1821h92v-160h-92v160zM1282 705v-76q0 -317 -147.5 -482t-425.5 -165q-133 0 -244 45t-194.5 133.5t-130 230.5t-46.5 326q0 183 46 325t129 231t194 134t246 45q193 0 321 -81t180 -224h-92q-45 105 -147 165t-262 60q-116 0 -210.5 -39.5t-166 -117.5t-111 -205
t-39.5 -293t40 -293.5t112 -206t166.5 -117.5t208.5 -39q244 0 369 143.5t124 424.5h-411v76h491z" />
    <glyph glyph-name="gdotaccent" unicode="&#x121;" 
d="M604 1452v-160h-92v160h92zM946 1065h84v-1073q0 -101 -27.5 -179.5t-72 -127t-107 -80t-126.5 -44t-136 -12.5q-139 0 -251.5 50.5t-166.5 138.5l58 39q53 -75 146 -113.5t210 -38.5q181 0 285 87.5t104 279.5v256q-123 -260 -397 -260q-95 0 -179 34t-151 99t-106 171
t-39 240q0 108 26 198t70.5 153t104.5 107t129 64.5t143 20.5q130 0 234.5 -62.5t164.5 -183.5v236zM555 61q78 0 148 29.5t126.5 86t89.5 148t33 207.5q0 119 -33 211.5t-89.5 147.5t-126 82.5t-148.5 27.5t-149 -28t-127 -83.5t-90 -147.5t-33 -210t33 -210.5t90 -148
t127 -84t149 -28.5z" />
    <glyph glyph-name="Gcommaaccent" unicode="&#x122;" horiz-adv-x="1386" 
d="M1282 705v-76q0 -317 -147.5 -482t-425.5 -165q-133 0 -244 45t-194.5 133.5t-130 230.5t-46.5 326q0 183 46 325t129 231t194 134t246 45q193 0 321 -81t180 -224h-92q-45 105 -147 165t-262 60q-116 0 -210.5 -39.5t-166 -117.5t-111 -205t-39.5 -293t40 -293.5
t112 -206t166.5 -117.5t208.5 -39q244 0 369 143.5t124 424.5h-411v76h491zM645 -438v35q31 25 42 61.5t11 112.5v61h-53v131h119v-223q0 -86 -33 -130.5t-86 -47.5z" />
    <glyph glyph-name="gcommaaccent" unicode="&#x123;" 
d="M614 1298v-131h-118v224q0 86 32.5 130.5t85.5 47.5v-35q-31 -25 -42 -61.5t-11 -112.5v-62h53zM946 1065h84v-1073q0 -101 -27.5 -179.5t-72 -127t-107 -80t-126.5 -44t-136 -12.5q-139 0 -251.5 50.5t-166.5 138.5l58 39q53 -75 146 -113.5t210 -38.5q181 0 285 87.5
t104 279.5v256q-123 -260 -397 -260q-95 0 -179 34t-151 99t-106 171t-39 240q0 108 26 198t70.5 153t104.5 107t129 64.5t143 20.5q130 0 234.5 -62.5t164.5 -183.5v236zM555 61q78 0 148 29.5t126.5 86t89.5 148t33 207.5q0 119 -33 211.5t-89.5 147.5t-126 82.5
t-148.5 27.5t-149 -28t-127 -83.5t-90 -147.5t-33 -210t33 -210.5t90 -148t127 -84t149 -28.5z" />
    <glyph glyph-name="Hbar" unicode="&#x126;" horiz-adv-x="1294" 
d="M1083 1434h86v-1434h-86v657h-872v-657h-86v1434h86v-381h872v381zM211 731h872v256h-872v-256z" />
    <glyph glyph-name="hbar" unicode="&#x127;" horiz-adv-x="1163" 
d="M659 1075q83 0 149 -22t119 -70t82 -134t29 -204v-645h-84v647q0 192 -79 272t-234 80q-66 0 -125 -22t-100.5 -56.5t-75 -78.5t-52.5 -85t-28 -79v-678h-84v1194h-133v63h133v189h84v-189h262v-63h-262v-401q7 34 35.5 79t76 92t124 79t163.5 32z" />
    <glyph glyph-name="Imacron" unicode="&#x12a;" horiz-adv-x="335" 
d="M-113 1821h564v-62h-564v62zM211 0h-86v1434h86v-1434z" />
    <glyph glyph-name="imacron" unicode="&#x12b;" horiz-adv-x="333" 
d="M-115 1452h564v-61h-564v61zM125 1065h84v-1065h-84v1065z" />
    <glyph glyph-name="Iogonek" unicode="&#x12e;" horiz-adv-x="335" 
d="M125 1434h86v-1434h-2q-106 -44 -173 -106.5t-67 -139.5q0 -67 54.5 -96t150.5 -12v-54q-39 -16 -87.5 -17t-94 13.5t-76.5 54t-31 97.5q0 84 76 153.5t178 106.5h-14v1434z" />
    <glyph glyph-name="iogonek" unicode="&#x12f;" horiz-adv-x="333" 
d="M119 1452h92v-160h-92v160zM125 0v1065h84v-1065h-14q-106 -44 -173 -106.5t-67 -139.5q0 -67 54.5 -96t150.5 -12v-54q-39 -16 -87.5 -17t-94 13.5t-76.5 54t-31 97.5q0 84 76 153.5t178 106.5z" />
    <glyph glyph-name="Idotaccent" unicode="&#x130;" horiz-adv-x="335" 
d="M121 1821h92v-160h-92v160zM211 0h-86v1434h86v-1434z" />
    <glyph glyph-name="dotlessi" unicode="&#x131;" horiz-adv-x="333" 
d="M125 1065h84v-1065h-84v1065z" />
    <glyph glyph-name="IJ" unicode="&#x132;" horiz-adv-x="1327" 
d="M211 0h-86v1434h86v-1434zM440 217q119 -151 332 -151q72 0 132.5 21.5t112 68.5t80.5 132.5t29 203.5v942h88v-942q0 -135 -36.5 -236t-100.5 -158.5t-140.5 -84.5t-166.5 -27q-248 0 -381 176z" />
    <glyph glyph-name="ij" unicode="&#x133;" horiz-adv-x="686" 
d="M125 1452h84v-109h-84v109zM479 1452h84v-109h-84v109zM125 1065h84v-1065h-84v1065zM168 -326q75 -45 172 -45q67 0 103 44t36 126v1266h84v-1258q0 -139 -58 -198.5t-161 -59.5q-110 0 -176 48v77z" />
    <glyph glyph-name="Kcommaaccent" unicode="&#x136;" horiz-adv-x="1234" 
d="M504 760l690 -760h-109l-639 698l-235 -247v-451h-86v1434h86v-865l819 865h109zM565 -168v131h119v-223q0 -86 -33 -130.5t-86 -47.5v35q31 25 42 61.5t11 112.5v61h-53z" />
    <glyph glyph-name="kcommaaccent" unicode="&#x137;" horiz-adv-x="1050" 
d="M489 594l529 -594h-103l-479 539l-227 -232v-307h-84v1446h84v-1034l635 653h104zM469 -168v131h119v-223q0 -86 -33 -130.5t-86 -47.5v35q31 25 42 61.5t11 112.5v61h-53z" />
    <glyph glyph-name="Lacute" unicode="&#x139;" horiz-adv-x="1062" 
d="M135 1554h78l205 263h-94zM211 80h780v-80h-866v1434h86v-1354z" />
    <glyph glyph-name="lacute" unicode="&#x13a;" horiz-adv-x="333" 
d="M80 1571h78l204 262h-94zM125 1446h84v-1446h-84v1446z" />
    <glyph glyph-name="Lcommaaccent" unicode="&#x13b;" horiz-adv-x="1062" 
d="M211 80h780v-80h-866v1434h86v-1354zM469 -449v35q31 25 42 61.5t11 112.5v62h-53v131h119v-223q0 -86 -33 -131t-86 -48z" />
    <glyph glyph-name="lcommaaccent" unicode="&#x13c;" horiz-adv-x="333" 
d="M125 1446h84v-1446h-84v1446zM102 -438v35q31 25 42.5 61.5t11.5 112.5v61h-54v131h119v-223q0 -86 -33 -130.5t-86 -47.5z" />
    <glyph glyph-name="Lcaron" unicode="&#x13d;" horiz-adv-x="1062" 
d="M211 80h780v-80h-866v1434h86v-1354zM494 1032v35q31 25 42 61.5t11 112.5v62h-53v131h118v-224q0 -86 -32.5 -130.5t-85.5 -47.5z" />
    <glyph glyph-name="lcaron" unicode="&#x13e;" horiz-adv-x="614" 
d="M125 1446h84v-1446h-84v1446zM414 1032v35q31 25 42 61.5t11 112.5v62h-53v131h118v-224q0 -86 -32.5 -130.5t-85.5 -47.5z" />
    <glyph glyph-name="Lslash" unicode="&#x141;" horiz-adv-x="1140" 
d="M289 80h780v-80h-866v553l-160 -168v94l160 170v785h86v-695l280 297h2v-94l-282 -297v-565z" />
    <glyph glyph-name="lslash" unicode="&#x142;" horiz-adv-x="661" 
d="M598 1057v-119l-258 -272v-666h-84v578l-193 -203v121l193 202v748h84v-660l256 271h2z" />
    <glyph glyph-name="Nacute" unicode="&#x143;" horiz-adv-x="1316" 
d="M573 1559h78l205 262h-94zM1192 1434v-1434h-111l-866 1315h-4v-1315h-86v1434h108l867 -1313h4v1313h88z" />
    <glyph glyph-name="nacute" unicode="&#x144;" horiz-adv-x="1112" 
d="M752 1452l-205 -262h-78l188 262h95zM608 1075q83 0 149 -22t119 -70t82 -134t29 -204v-645h-84v647q0 192 -79 272t-234 80q-66 0 -125 -22t-100.5 -56.5t-75 -78.5t-52.5 -85t-28 -79v-678h-84v1065h84v-272q7 34 35.5 79t76 92t124 79t163.5 32z" />
    <glyph glyph-name="Ncommaaccent" unicode="&#x145;" horiz-adv-x="1316" 
d="M1192 1434v-1434h-111l-866 1315h-4v-1315h-86v1434h108l867 -1313h4v1313h88zM596 -438v35q31 25 42 61.5t11 112.5v61h-53v131h119v-223q0 -86 -33 -130.5t-86 -47.5z" />
    <glyph glyph-name="ncommaaccent" unicode="&#x146;" horiz-adv-x="1112" 
d="M608 1075q83 0 149 -22t119 -70t82 -134t29 -204v-645h-84v647q0 192 -79 272t-234 80q-66 0 -125 -22t-100.5 -56.5t-75 -78.5t-52.5 -85t-28 -79v-678h-84v1065h84v-272q7 34 35.5 79t76 92t124 79t163.5 32zM492 -168v131h118v-223q0 -86 -32.5 -130.5t-85.5 -47.5v35
q31 25 42 61.5t11 112.5v61h-53z" />
    <glyph glyph-name="Ncaron" unicode="&#x147;" horiz-adv-x="1316" 
d="M858 1802h72l-209 -252h-129l-209 252h72l202 -194zM1192 1434v-1434h-111l-866 1315h-4v-1315h-86v1434h108l867 -1313h4v1313h88z" />
    <glyph glyph-name="ncaron" unicode="&#x148;" horiz-adv-x="1112" 
d="M616 1182h-129l-208 252h71l203 -195l201 195h71zM608 1075q83 0 149 -22t119 -70t82 -134t29 -204v-645h-84v647q0 192 -79 272t-234 80q-66 0 -125 -22t-100.5 -56.5t-75 -78.5t-52.5 -85t-28 -79v-678h-84v1065h84v-272q7 34 35.5 79t76 92t124 79t163.5 32z" />
    <glyph glyph-name="Eng" unicode="&#x14a;" horiz-adv-x="1316" 
d="M1104 1434h88v-1379q0 -135 -36.5 -236t-100.5 -158.5t-140.5 -84.5t-166.5 -27q-247 0 -381 177l51 55q120 -152 332 -152q66 0 121.5 17.5t105 55.5t81.5 106.5t42 162.5l-885 1344h-4v-1315h-86v1434h108l867 -1315h4v1315z" />
    <glyph glyph-name="eng" unicode="&#x14b;" horiz-adv-x="1112" 
d="M608 1075q83 0 149 -22t119 -70t82 -134t29 -204v-838q0 -140 -57 -199t-160 -59q-110 0 -176 48v77q75 -45 170 -45q68 0 103.5 44t35.5 126v848q0 192 -79 272t-234 80q-66 0 -125 -22t-100.5 -56.5t-75 -78.5t-52.5 -85t-28 -79v-678h-84v1065h84v-272q7 34 35.5 79
t76 92t124 79t163.5 32z" />
    <glyph glyph-name="Omacron" unicode="&#x14c;" horiz-adv-x="1435" 
d="M436 1821h563v-62h-563v62zM717 1452q136 0 249 -46t197 -135t131 -230.5t47 -323.5t-47 -323.5t-131 -230.5t-197 -135t-249 -46q-135 0 -247.5 46t-197 135t-131.5 230.5t-47 323.5t47 323.5t131.5 230.5t197 135t247.5 46zM717 61q119 0 216 39t169 117.5t111.5 205.5
t39.5 294q0 328 -145 491.5t-391 163.5q-119 0 -215.5 -39t-168.5 -117t-111.5 -205t-39.5 -294t39.5 -294t111.5 -205.5t168.5 -117.5t215.5 -39z" />
    <glyph glyph-name="omacron" unicode="&#x14d;" horiz-adv-x="1095" 
d="M268 1452h563v-61h-563v61zM549 1075q72 0 140.5 -21.5t129 -66t105.5 -107.5t71.5 -153t26.5 -195q0 -107 -26.5 -198t-71.5 -154t-105.5 -107.5t-128.5 -65.5t-141 -21t-141.5 21t-129.5 65.5t-106 107.5t-71.5 154t-26.5 198q0 105 26.5 195t71.5 153t106 107.5
t129.5 66t141.5 21.5zM940 532q0 115 -33 206t-88.5 147t-124.5 85t-145 29t-145.5 -29t-125.5 -85t-89 -147t-33 -206q0 -118 33 -210.5t89 -148t125 -84t146 -28.5t145.5 28.5t124 84t88.5 148t33 210.5z" />
    <glyph glyph-name="Ohungarumlaut" unicode="&#x150;" horiz-adv-x="1435" 
d="M457 1559h78l204 262h-94zM741 1559h78l205 262h-94zM717 1452q136 0 249 -46t197 -135t131 -230.5t47 -323.5t-47 -323.5t-131 -230.5t-197 -135t-249 -46q-135 0 -247.5 46t-197 135t-131.5 230.5t-47 323.5t47 323.5t131.5 230.5t197 135t247.5 46zM717 61
q119 0 216 39t169 117.5t111.5 205.5t39.5 294q0 328 -145 491.5t-391 163.5q-119 0 -215.5 -39t-168.5 -117t-111.5 -205t-39.5 -294t39.5 -294t111.5 -205.5t168.5 -117.5t215.5 -39z" />
    <glyph glyph-name="ohungarumlaut" unicode="&#x151;" horiz-adv-x="1095" 
d="M289 1190h78l204 262h-94zM573 1190h78l205 262h-94zM549 1075q72 0 140.5 -21.5t129 -66t105.5 -107.5t71.5 -153t26.5 -195q0 -107 -26.5 -198t-71.5 -154t-105.5 -107.5t-128.5 -65.5t-141 -21t-141.5 21t-129.5 65.5t-106 107.5t-71.5 154t-26.5 198q0 105 26.5 195
t71.5 153t106 107.5t129.5 66t141.5 21.5zM940 532q0 115 -33 206t-88.5 147t-124.5 85t-145 29t-145.5 -29t-125.5 -85t-89 -147t-33 -206q0 -118 33 -210.5t89 -148t125 -84t146 -28.5t145.5 28.5t124 84t88.5 148t33 210.5z" />
    <glyph glyph-name="OE" unicode="&#x152;" horiz-adv-x="2220" 
d="M1341 80h820v-80h-906v299q-78 -157 -217.5 -237t-320.5 -80q-135 0 -247.5 46t-197 135t-131.5 230.5t-47 323.5t47 323.5t131.5 230.5t197 135t247.5 46q181 0 320.5 -80t217.5 -237v299h885v-80h-799v-574h697v-75h-697v-625zM717 61q119 0 216 39t169 117.5
t111.5 205.5t39.5 294q0 328 -145 491.5t-391 163.5q-119 0 -215.5 -39t-168.5 -117t-111.5 -205t-39.5 -294t39.5 -294t111.5 -205.5t168.5 -117.5t215.5 -39z" />
    <glyph glyph-name="oe" unicode="&#x153;" horiz-adv-x="1945" 
d="M1874 543q0 -33 -2 -51h-850q10 -218 120 -326.5t285 -108.5q111 0 184 31t134 111h88q-74 -115 -171 -164t-239 -49q-156 0 -272.5 77t-171.5 224q-56 -146 -173.5 -223.5t-256.5 -77.5q-73 0 -141.5 21t-129.5 65.5t-106 107.5t-71.5 154t-26.5 198q0 105 26.5 195
t71.5 153t106 107.5t129.5 66t141.5 21.5q139 0 256.5 -77.5t175.5 -223.5q54 146 171 223.5t265 77.5q96 0 178 -34t144.5 -99t98.5 -167.5t36 -231.5zM1022 561h770q-3 215 -106 329t-269 114q-164 0 -275 -113t-120 -330zM549 61q77 0 145.5 28.5t124 84t88.5 148
t33 210.5q0 115 -33 206t-88.5 147t-124.5 85t-145 29t-145.5 -29t-125.5 -85t-89 -147t-33 -206q0 -118 33 -210.5t89 -148t125 -84t146 -28.5z" />
    <glyph glyph-name="Racute" unicode="&#x154;" horiz-adv-x="1222" 
d="M831 1821l-204 -262h-78l188 262h94zM1108 240q0 -199 41 -240h-86q-41 41 -41 240v125q0 64 -17 111.5t-43.5 75t-66.5 44t-78.5 22t-85.5 5.5h-520v-623h-86v1434h528q228 0 345.5 -103t117.5 -293q0 -133 -63 -229t-185 -141q125 -23 182.5 -95.5t57.5 -207.5v-125z
M698 698q144 0 238 88.5t94 243.5q0 326 -377 326h-442v-658h487z" />
    <glyph glyph-name="racute" unicode="&#x155;" horiz-adv-x="731" 
d="M557 1452l-205 -262h-78l189 262h94zM602 1075q43 0 66 -4v-76q-23 2 -62 2q-158 0 -261 -90t-136 -250v-657h-84v1065h84v-272q27 116 132.5 199t260.5 83z" />
    <glyph glyph-name="Rcommaaccent" unicode="&#x156;" horiz-adv-x="1222" 
d="M1108 240q0 -199 41 -240h-86q-41 41 -41 240v125q0 64 -17 111.5t-43.5 75t-66.5 44t-78.5 22t-85.5 5.5h-520v-623h-86v1434h528q228 0 345.5 -103t117.5 -293q0 -133 -63 -229t-185 -141q125 -23 182.5 -95.5t57.5 -207.5v-125zM698 698q144 0 238 88.5t94 243.5
q0 326 -377 326h-442v-658h487zM571 -168v131h119v-223q0 -86 -33 -130.5t-86 -47.5v35q31 25 42.5 61.5t11.5 112.5v61h-54z" />
    <glyph glyph-name="rcommaaccent" unicode="&#x157;" horiz-adv-x="731" 
d="M602 1075q43 0 66 -4v-76q-23 2 -62 2q-158 0 -261 -90t-136 -250v-657h-84v1065h84v-272q27 116 132.5 199t260.5 83zM102 -168v131h119v-223q0 -86 -33 -130.5t-86 -47.5v35q31 25 42.5 61.5t11.5 112.5v61h-54z" />
    <glyph glyph-name="Rcaron" unicode="&#x158;" horiz-adv-x="1222" 
d="M696 1550h-129l-209 252h72l203 -194l201 194h71zM1108 240q0 -199 41 -240h-86q-41 41 -41 240v125q0 64 -17 111.5t-43.5 75t-66.5 44t-78.5 22t-85.5 5.5h-520v-623h-86v1434h528q228 0 345.5 -103t117.5 -293q0 -133 -63 -229t-185 -141q125 -23 182.5 -95.5
t57.5 -207.5v-125zM698 698q144 0 238 88.5t94 243.5q0 326 -377 326h-442v-658h487z" />
    <glyph glyph-name="rcaron" unicode="&#x159;" horiz-adv-x="731" 
d="M422 1182h-129l-209 252h72l202 -195l201 195h72zM602 1075q43 0 66 -4v-76q-23 2 -62 2q-158 0 -261 -90t-136 -250v-657h-84v1065h84v-272q27 116 132.5 199t260.5 83z" />
    <glyph glyph-name="Sacute" unicode="&#x15a;" horiz-adv-x="1196" 
d="M498 1559h77l205 262h-94zM686 764q97 -19 168 -46t130 -71t89.5 -111.5t30.5 -156.5q0 -180 -130 -288.5t-370 -108.5q-122 0 -216.5 31.5t-154 88.5t-94 128t-45.5 157h90q12 -68 39 -123.5t75 -102.5t126 -73.5t180 -26.5q200 0 304 86t104 230q0 72 -25 126t-71 88.5
t-97 55t-117 35.5l-219 45q-360 73 -360 352q0 77 29 143.5t85 118t148 81.5t209 30q210 0 327.5 -95t143.5 -251h-90q-11 53 -36 98.5t-68.5 85t-114.5 62t-162 22.5q-190 0 -285.5 -84.5t-95.5 -210.5q0 -217 295 -278z" />
    <glyph glyph-name="sacute" unicode="&#x15b;" horiz-adv-x="952" 
d="M389 1190h78l205 262h-94zM784 825q-65 179 -311 179q-137 0 -213 -58t-76 -147q0 -80 52.5 -127t173.5 -76l161 -39q67 -16 111.5 -30t87 -35.5t66.5 -49t38.5 -68t14.5 -93.5q0 -77 -34 -136t-92.5 -92.5t-128 -50t-147.5 -16.5q-112 0 -200 30.5t-149.5 101
t-74.5 175.5h82q13 -65 46 -112t80.5 -73t100.5 -37.5t115 -11.5q85 0 154 21t116.5 72.5t47.5 126.5q0 41 -12 71.5t-29.5 50t-51.5 36t-62.5 25t-78.5 21.5l-196 47q-134 34 -203.5 97.5t-69.5 171.5q0 127 103 201.5t268 74.5q147 0 252 -62.5t139 -187.5h-80z" />
    <glyph glyph-name="Scedilla" unicode="&#x15e;" horiz-adv-x="1196" 
d="M1104 379q0 -175 -123.5 -283t-351.5 -114l-84 -93q67 20 127.5 -18.5t60.5 -112.5q0 -92 -72 -135t-186 -43v49q187 6 187 125q0 61 -50 83.5t-120 -5.5l-25 37l80 115q-107 7 -190.5 41.5t-137 89.5t-84.5 123t-41 149h90q12 -68 39 -123.5t75 -102.5t126 -73.5
t180 -26.5q200 0 304 86t104 230q0 72 -25 126t-71 88.5t-97 55t-117 35.5l-219 45q-360 73 -360 352q0 77 29 143.5t85 118t148 81.5t209 30q210 0 327.5 -95t143.5 -251h-90q-11 53 -36 98.5t-68.5 85t-114.5 62t-162 22.5q-190 0 -285.5 -84.5t-95.5 -210.5
q0 -217 295 -278l178 -37q97 -19 168 -46t130 -71t89.5 -111.5t30.5 -156.5z" />
    <glyph glyph-name="scedilla" unicode="&#x15f;" horiz-adv-x="952" 
d="M889 281q0 -73 -30 -129t-82 -90t-115 -52.5t-136 -21.5l-90 -101q68 20 128.5 -18.5t60.5 -112.5q0 -92 -72 -135t-186 -43v49q186 6 186 125q0 61 -49.5 83.5t-120.5 -5.5l-25 37l84 121q-156 10 -258.5 85.5t-120.5 219.5h82q13 -65 46 -112t80.5 -73t100.5 -37.5
t115 -11.5q85 0 154 21t116.5 72.5t47.5 126.5q0 41 -12 71.5t-29.5 50t-51.5 36t-62.5 25t-78.5 21.5l-196 47q-134 34 -203.5 97.5t-69.5 171.5q0 127 103 201.5t268 74.5q147 0 252 -62.5t139 -187.5h-80q-65 179 -311 179q-137 0 -213 -58t-76 -147q0 -80 52.5 -127
t173.5 -76l161 -39q67 -16 111.5 -30t87 -35.5t66.5 -49t38.5 -68t14.5 -93.5z" />
    <glyph glyph-name="Scaron" unicode="&#x160;" horiz-adv-x="1196" 
d="M782 1802h72l-209 -252h-129l-209 252h72l203 -194zM686 764q97 -19 168 -46t130 -71t89.5 -111.5t30.5 -156.5q0 -180 -130 -288.5t-370 -108.5q-122 0 -216.5 31.5t-154 88.5t-94 128t-45.5 157h90q12 -68 39 -123.5t75 -102.5t126 -73.5t180 -26.5q200 0 304 86
t104 230q0 72 -25 126t-71 88.5t-97 55t-117 35.5l-219 45q-360 73 -360 352q0 77 29 143.5t85 118t148 81.5t209 30q210 0 327.5 -95t143.5 -251h-90q-11 53 -36 98.5t-68.5 85t-114.5 62t-162 22.5q-190 0 -285.5 -84.5t-95.5 -210.5q0 -217 295 -278z" />
    <glyph glyph-name="scaron" unicode="&#x161;" horiz-adv-x="952" 
d="M674 1434h71l-208 -252h-129l-209 252h71l203 -195zM784 825q-65 179 -311 179q-137 0 -213 -58t-76 -147q0 -80 52.5 -127t173.5 -76l161 -39q67 -16 111.5 -30t87 -35.5t66.5 -49t38.5 -68t14.5 -93.5q0 -77 -34 -136t-92.5 -92.5t-128 -50t-147.5 -16.5
q-112 0 -200 30.5t-149.5 101t-74.5 175.5h82q13 -65 46 -112t80.5 -73t100.5 -37.5t115 -11.5q85 0 154 21t116.5 72.5t47.5 126.5q0 41 -12 71.5t-29.5 50t-51.5 36t-62.5 25t-78.5 21.5l-196 47q-134 34 -203.5 97.5t-69.5 171.5q0 127 103 201.5t268 74.5
q147 0 252 -62.5t139 -187.5h-80z" />
    <glyph glyph-name="uni0162" unicode="&#x162;" horiz-adv-x="1161" 
d="M1098 1354h-473v-1354h2l-103 -113q68 20 128.5 -18.5t60.5 -112.5q0 -92 -72 -135t-186 -43v49q186 6 186 125q0 61 -49.5 83.5t-120.5 -5.5l-25 37l93 133h-2v1354h-474v80h1035v-80z" />
    <glyph glyph-name="uni0163" unicode="&#x163;" horiz-adv-x="579" 
d="M506 8q-49 -15 -109 -18l-90 -101q68 20 128.5 -18.5t60.5 -112.5q0 -92 -72 -135t-186 -43v49q186 6 186 125q0 61 -50 83.5t-120 -5.5l-25 37l84 123q-112 17 -112 141v860h-158v72h158v266h84v-266h200v-72h-200v-852q0 -41 22.5 -60.5t77.5 -19.5q60 0 121 19v-72z
" />
    <glyph glyph-name="Tcaron" unicode="&#x164;" horiz-adv-x="1161" 
d="M641 1550h-129l-209 252h72l203 -194l200 194h72zM1098 1434v-80h-473v-1354h-88v1354h-474v80h1035z" />
    <glyph glyph-name="tcaron" unicode="&#x165;" horiz-adv-x="540" 
d="M639 1446l-205 -262h-78l189 262h94zM285 141q0 -41 22.5 -60.5t77.5 -19.5q60 0 121 19v-72q-64 -20 -150 -20q-155 0 -155 145v860h-158v72h158v266h84v-266h200v-72h-200v-852z" />
    <glyph glyph-name="Tbar" unicode="&#x166;" horiz-adv-x="1161" 
d="M1098 1354h-473v-283h237v-61h-237v-1010h-88v1010h-238v61h238v283h-474v80h1035v-80z" />
    <glyph glyph-name="tbar" unicode="&#x167;" horiz-adv-x="579" 
d="M385 61q60 0 121 19v-72q-64 -20 -150 -20q-155 0 -155 145v612h-158v72h158v176h-158v72h158v266h84v-266h200v-72h-200v-176h200v-72h-200v-604q0 -41 22.5 -60.5t77.5 -19.5z" />
    <glyph glyph-name="Utilde" unicode="&#x168;" horiz-adv-x="1304" 
d="M913 1802h58q0 -82 -53.5 -126t-124.5 -44q-38 0 -72 14.5t-59 35.5t-49.5 42t-53.5 35.5t-59 14.5q-63 0 -93 -32t-28 -69h-55q0 81 53 125.5t125 44.5q46 0 87.5 -22.5t68 -49t63.5 -49t74 -22.5q62 0 91 32t27 70zM1182 537q0 -259 -142 -407t-389 -148
q-246 0 -386 147.5t-140 407.5v897h86v-891q0 -226 117 -354t323 -128t324.5 128.5t118.5 353.5v891h88v-897z" />
    <glyph glyph-name="utilde" unicode="&#x169;" horiz-adv-x="1101" 
d="M385 1405q-63 0 -93 -31.5t-28 -68.5h-55q0 81 53 125.5t125 44.5q46 0 87.5 -22.5t68 -49.5t63.5 -49.5t74 -22.5q62 0 91.5 32.5t27.5 70.5h57q0 -82 -53.5 -126t-124.5 -44q-38 0 -72 14.5t-59 35t-49.5 41.5t-53.5 35.5t-59 14.5zM893 1065h84v-1065h-84v270
q-5 -27 -23.5 -61.5t-53 -74t-79 -72.5t-108.5 -54.5t-135 -21.5q-83 0 -149 22.5t-119 71t-82 134.5t-29 204v647h84v-649q0 -192 79 -273.5t234 -81.5q66 0 125 22.5t100.5 57t75 79t52.5 86t28 79.5v680z" />
    <glyph glyph-name="Umacron" unicode="&#x16a;" horiz-adv-x="1304" 
d="M375 1821h563v-62h-563v62zM1182 537q0 -259 -142 -407t-389 -148q-246 0 -386 147.5t-140 407.5v897h86v-891q0 -226 117 -354t323 -128t324.5 128.5t118.5 353.5v891h88v-897z" />
    <glyph glyph-name="umacron" unicode="&#x16b;" horiz-adv-x="1101" 
d="M823 1452v-61h-563v61h563zM893 1065h84v-1065h-84v270q-5 -27 -23.5 -61.5t-53 -74t-79 -72.5t-108.5 -54.5t-135 -21.5q-83 0 -149 22.5t-119 71t-82 134.5t-29 204v647h84v-649q0 -192 79 -273.5t234 -81.5q66 0 125 22.5t100.5 57t75 79t52.5 86t28 79.5v680z" />
    <glyph glyph-name="Ubreve" unicode="&#x16c;" horiz-adv-x="1304" 
d="M856 1821h66q0 -43 -14.5 -83t-44 -74.5t-83.5 -55.5t-125 -21t-124 21t-82.5 55.5t-43.5 74.5t-14 83h66q14 -166 198 -166q183 0 201 166zM1182 537q0 -259 -142 -407t-389 -148q-246 0 -386 147.5t-140 407.5v897h86v-891q0 -226 117 -354t323 -128t324.5 128.5
t118.5 353.5v891h88v-897z" />
    <glyph glyph-name="ubreve" unicode="&#x16d;" horiz-adv-x="1101" 
d="M541 1219q-71 0 -124 20.5t-83 55.5t-44 74.5t-14 82.5h66q14 -166 199 -166q182 0 200 166h66q0 -43 -14 -82.5t-43.5 -74.5t-83.5 -55.5t-125 -20.5zM893 1065h84v-1065h-84v270q-5 -27 -23.5 -61.5t-53 -74t-79 -72.5t-108.5 -54.5t-135 -21.5q-83 0 -149 22.5
t-119 71t-82 134.5t-29 204v647h84v-649q0 -192 79 -273.5t234 -81.5q66 0 125 22.5t100.5 57t75 79t52.5 86t28 79.5v680z" />
    <glyph glyph-name="Uring" unicode="&#x16e;" horiz-adv-x="1304" 
d="M657 1559q-68 0 -114.5 46t-46.5 111t46.5 111.5t114.5 46.5t115 -46.5t47 -111.5t-47 -111t-115 -46zM657 1612q46 0 77.5 30.5t31.5 73.5q0 44 -31.5 74.5t-77.5 30.5q-45 0 -75.5 -30.5t-30.5 -74.5q0 -43 30.5 -73.5t75.5 -30.5zM1182 537q0 -259 -142 -407
t-389 -148q-246 0 -386 147.5t-140 407.5v897h86v-891q0 -226 117 -354t323 -128t324.5 128.5t118.5 353.5v891h88v-897z" />
    <glyph glyph-name="uring" unicode="&#x16f;" horiz-adv-x="1101" 
d="M543 1190q-68 0 -115 46.5t-47 111.5t47 111t115 46t115 -46t47 -111t-47 -111.5t-115 -46.5zM543 1452q-46 0 -76.5 -30t-30.5 -74q0 -43 31 -74t76 -31t76.5 31t31.5 74q0 44 -31 74t-77 30zM893 1065h84v-1065h-84v270q-5 -27 -23.5 -61.5t-53 -74t-79 -72.5
t-108.5 -54.5t-135 -21.5q-83 0 -149 22.5t-119 71t-82 134.5t-29 204v647h84v-649q0 -192 79 -273.5t234 -81.5q66 0 125 22.5t100.5 57t75 79t52.5 86t28 79.5v680z" />
    <glyph glyph-name="Uhungarumlaut" unicode="&#x170;" horiz-adv-x="1304" 
d="M395 1559h78l205 262h-94zM680 1559h78l205 262h-95zM1182 537q0 -259 -142 -407t-389 -148q-246 0 -386 147.5t-140 407.5v897h86v-891q0 -226 117 -354t323 -128t324.5 128.5t118.5 353.5v891h88v-897z" />
    <glyph glyph-name="uhungarumlaut" unicode="&#x171;" horiz-adv-x="1101" 
d="M563 1452l-205 -262h-77l188 262h94zM848 1452l-205 -262h-78l189 262h94zM893 1065h84v-1065h-84v270q-5 -27 -23.5 -61.5t-53 -74t-79 -72.5t-108.5 -54.5t-135 -21.5q-83 0 -149 22.5t-119 71t-82 134.5t-29 204v647h84v-649q0 -192 79 -273.5t234 -81.5
q66 0 125 22.5t100.5 57t75 79t52.5 86t28 79.5v680z" />
    <glyph glyph-name="Uogonek" unicode="&#x172;" horiz-adv-x="1304" 
d="M1094 1434h88v-897q0 -214 -98.5 -354t-274.5 -183h6q-106 -44 -173 -106.5t-67 -139.5q0 -67 54.5 -96t150.5 -12v-54q-39 -16 -87.5 -17t-94 13.5t-76 54t-30.5 97.5q0 74 62 138.5t151 105.5q-16 -2 -54 -2q-246 0 -386 147.5t-140 407.5v897h86v-891q0 -226 117 -354
t323 -128t324.5 128.5t118.5 353.5v891z" />
    <glyph glyph-name="uogonek" unicode="&#x173;" horiz-adv-x="1101" 
d="M893 1065h84v-1065h-14q-106 -44 -173 -106.5t-67 -139.5q0 -67 54.5 -96t150.5 -12v-54q-39 -16 -87.5 -17t-94 13.5t-76.5 54t-31 97.5q0 84 76 153.5t178 106.5v270q-5 -27 -23.5 -61.5t-53 -74t-79 -72.5t-108.5 -54.5t-135 -21.5q-83 0 -149 22.5t-119 71t-82 134.5
t-29 204v647h84v-649q0 -192 79 -273.5t234 -81.5q66 0 125 22.5t100.5 57t75 79t52.5 86t28 79.5v680z" />
    <glyph glyph-name="Wcircumflex" unicode="&#x174;" horiz-adv-x="2007" 
d="M1204 1569l-200 194l-203 -194h-72l209 252h129l209 -252h-72zM1853 1434h91l-418 -1434h-88l-434 1323l-435 -1323h-88l-418 1434h91l374 -1311l424 1311h103l424 -1311z" />
    <glyph glyph-name="wcircumflex" unicode="&#x175;" horiz-adv-x="1632" 
d="M1018 1200l-201 195l-203 -195h-71l209 252h129l209 -252h-72zM1579 1065l-326 -1065h-90l-348 954l-348 -954h-88l-326 1065h86l289 -967l352 967h72l352 -967l289 967h86z" />
    <glyph glyph-name="Ycircumflex" unicode="&#x176;" horiz-adv-x="1271" 
d="M836 1569l-201 194l-203 -194h-72l209 252h129l209 -252h-71zM678 580v-580h-86v580l-529 854h97l475 -768l477 768h96z" />
    <glyph glyph-name="ycircumflex" unicode="&#x177;" horiz-adv-x="1044" 
d="M731 1200l-201 195l-202 -195h-72l209 252h129l209 -252h-72zM905 1065h88l-473 -1190q-115 -288 -356 -252v78q202 -30 287 193q3 7 7 19t6 17t5 14t4 13t2.5 10.5t1.5 10t0.5 8.5t-0.5 8.5t-2.5 8t-3.5 9.5l-418 1053h86l383 -989z" />
    <glyph glyph-name="Ydieresis" unicode="&#x178;" horiz-adv-x="1271" 
d="M383 1821h92v-160h-92v160zM795 1821h92v-160h-92v160zM678 580v-580h-86v580l-529 854h97l475 -768l477 768h96z" />
    <glyph glyph-name="Zacute" unicode="&#x179;" horiz-adv-x="1230" 
d="M532 1559h78l205 262h-94zM1149 80v-80h-1067v80l960 1274h-919v80h1018l-2 -80l-959 -1274h969z" />
    <glyph glyph-name="zacute" unicode="&#x17a;" horiz-adv-x="1003" 
d="M416 1190h78l204 262h-94zM180 76h742v-76h-840v76l741 913h-721v76h820v-76z" />
    <glyph glyph-name="Zdotaccent" unicode="&#x17b;" horiz-adv-x="1230" 
d="M571 1821h93v-160h-93v160zM1149 80v-80h-1067v80l960 1274h-919v80h1018l-2 -80l-959 -1274h969z" />
    <glyph glyph-name="zdotaccent" unicode="&#x17c;" horiz-adv-x="1003" 
d="M455 1452h92v-160h-92v160zM180 76h742v-76h-840v76l741 913h-721v76h820v-76z" />
    <glyph glyph-name="Zcaron" unicode="&#x17d;" horiz-adv-x="1230" 
d="M817 1802h72l-209 -252h-129l-209 252h72l202 -194zM1149 80v-80h-1067v80l960 1274h-919v80h1018l-2 -80l-959 -1274h969z" />
    <glyph glyph-name="zcaron" unicode="&#x17e;" horiz-adv-x="1003" 
d="M700 1434h72l-209 -252h-129l-209 252h72l203 -195zM180 76h742v-76h-840v76l741 913h-721v76h820v-76z" />
    <glyph glyph-name="florin" unicode="&#x192;" horiz-adv-x="567" 
d="M526 1374q-99 0 -149.5 -49t-50.5 -180v-262h200v-78h-200v-885q0 -309 -285 -309v76q94 0 147.5 51t53.5 178v889h-174v78h174v258q0 76 15 132.5t40 90t63 53t77 26.5t89 7v-76z" />
    <glyph glyph-name="uni01CD" unicode="&#x1cd;" horiz-adv-x="1357" 
d="M739 1550h-129l-209 252h72l203 -194l201 194h71zM1200 0l-170 426h-702l-170 -426h-95l580 1434h72l579 -1434h-94zM356 498h645l-323 811z" />
    <glyph glyph-name="uni01CE" unicode="&#x1ce;" horiz-adv-x="1064" 
d="M588 1182h-129l-209 252h72l202 -195l201 195h72zM932 129q0 -42 17 -57.5t63 -12.5v-59q-19 -8 -43 -8q-64 0 -91.5 30t-27.5 111v115q-15 -34 -46.5 -74t-83.5 -84.5t-132.5 -74t-173.5 -29.5q-155 0 -247.5 82t-92.5 227q0 128 82.5 205.5t281.5 105.5q108 15 155 22
t132 25.5t123 38.5v23q0 158 -71.5 223.5t-239.5 65.5q-281 0 -312 -181h-82q17 124 121 188t275 64q197 0 295 -87.5t98 -293.5v-565zM848 342v285q-57 -32 -404 -84q-159 -24 -222.5 -82t-63.5 -164q0 -113 71 -177.5t195 -64.5q75 0 143 24t112.5 57t82.5 77t55.5 73
t30.5 56z" />
    <glyph glyph-name="uni01CF" unicode="&#x1cf;" horiz-adv-x="335" 
d="M367 1802h71l-209 -252h-129l-209 252h72l203 -194zM211 0h-86v1434h86v-1434z" />
    <glyph glyph-name="uni01D0" unicode="&#x1d0;" horiz-adv-x="333" 
d="M365 1434h71l-209 -252h-129l-209 252h72l203 -195zM125 1065h84v-1065h-84v1065z" />
    <glyph glyph-name="uni01D1" unicode="&#x1d1;" horiz-adv-x="1435" 
d="M915 1802h72l-209 -252h-129l-209 252h72l203 -194zM717 1452q136 0 249 -46t197 -135t131 -230.5t47 -323.5t-47 -323.5t-131 -230.5t-197 -135t-249 -46q-135 0 -247.5 46t-197 135t-131.5 230.5t-47 323.5t47 323.5t131.5 230.5t197 135t247.5 46zM717 61
q119 0 216 39t169 117.5t111.5 205.5t39.5 294q0 328 -145 491.5t-391 163.5q-119 0 -215.5 -39t-168.5 -117t-111.5 -205t-39.5 -294t39.5 -294t111.5 -205.5t168.5 -117.5t215.5 -39z" />
    <glyph glyph-name="uni01D2" unicode="&#x1d2;" horiz-adv-x="1095" 
d="M748 1434h71l-209 -252h-129l-209 252h72l203 -195zM549 1075q72 0 140.5 -21.5t129 -66t105.5 -107.5t71.5 -153t26.5 -195q0 -107 -26.5 -198t-71.5 -154t-105.5 -107.5t-128.5 -65.5t-141 -21t-141.5 21t-129.5 65.5t-106 107.5t-71.5 154t-26.5 198q0 105 26.5 195
t71.5 153t106 107.5t129.5 66t141.5 21.5zM940 532q0 115 -33 206t-88.5 147t-124.5 85t-145 29t-145.5 -29t-125.5 -85t-89 -147t-33 -206q0 -118 33 -210.5t89 -148t125 -84t146 -28.5t145.5 28.5t124 84t88.5 148t33 210.5z" />
    <glyph glyph-name="uni01D3" unicode="&#x1d3;" horiz-adv-x="1304" 
d="M854 1802h72l-209 -252h-129l-209 252h72l202 -194zM1182 537q0 -259 -142 -407t-389 -148q-246 0 -386 147.5t-140 407.5v897h86v-891q0 -226 117 -354t323 -128t324.5 128.5t118.5 353.5v891h88v-897z" />
    <glyph glyph-name="uni01D4" unicode="&#x1d4;" horiz-adv-x="1101" 
d="M602 1182h-129l-209 252h72l203 -195l200 195h72zM893 1065h84v-1065h-84v270q-5 -27 -23.5 -61.5t-53 -74t-79 -72.5t-108.5 -54.5t-135 -21.5q-83 0 -149 22.5t-119 71t-82 134.5t-29 204v647h84v-649q0 -192 79 -273.5t234 -81.5q66 0 125 22.5t100.5 57t75 79
t52.5 86t28 79.5v680z" />
    <glyph glyph-name="uni01EA" unicode="&#x1ea;" horiz-adv-x="1435" 
d="M856 -6q-101 -43 -164 -104.5t-63 -135.5q0 -67 54.5 -96t150.5 -12v-54q-39 -16 -87.5 -17t-94 13.5t-76.5 54t-31 97.5q0 74 61.5 138.5t149.5 103.5h-39q-135 0 -247.5 46t-197 135t-131.5 230.5t-47 323.5t47 323.5t131.5 230.5t197 135t247.5 46q136 0 249 -46
t197 -135t131 -230.5t47 -323.5q0 -312 -131 -495t-354 -228zM182 717q0 -167 39.5 -294t111.5 -205.5t168.5 -117.5t215.5 -39t216 39t169 117.5t111.5 205.5t39.5 294q0 328 -145 491.5t-391 163.5q-119 0 -215.5 -39t-168.5 -117t-111.5 -205t-39.5 -294z" />
    <glyph glyph-name="uni01EB" unicode="&#x1eb;" horiz-adv-x="1095" 
d="M1022 532q0 -220 -100.5 -356.5t-257.5 -175.5h16q-106 -44 -173 -106.5t-67 -139.5q0 -67 54.5 -96t150.5 -12v-54q-39 -16 -87.5 -17t-94 13.5t-76.5 54t-31 97.5q0 76 64 141.5t155 104.5h-26q-73 0 -141.5 21t-129.5 65.5t-106 107.5t-71.5 154t-26.5 198
q0 105 26.5 195t71.5 153t106 107.5t129.5 66t141.5 21.5q72 0 140.5 -21.5t129 -66t105.5 -107.5t71.5 -153t26.5 -195zM549 61q77 0 145.5 28.5t124 84t88.5 148t33 210.5q0 115 -33 206t-88.5 147t-124.5 85t-145 29t-145.5 -29t-125.5 -85t-89 -147t-33 -206
q0 -118 33 -210.5t89 -148t125 -84t146 -28.5z" />
    <glyph glyph-name="Scommaaccent" unicode="&#x218;" horiz-adv-x="1196" 
d="M686 764q97 -19 168 -46t130 -71t89.5 -111.5t30.5 -156.5q0 -180 -130 -288.5t-370 -108.5q-122 0 -216.5 31.5t-154 88.5t-94 128t-45.5 157h90q12 -68 39 -123.5t75 -102.5t126 -73.5t180 -26.5q200 0 304 86t104 230q0 72 -25 126t-71 88.5t-97 55t-117 35.5l-219 45
q-360 73 -360 352q0 77 29 143.5t85 118t148 81.5t209 30q210 0 327.5 -95t143.5 -251h-90q-11 53 -36 98.5t-68.5 85t-114.5 62t-162 22.5q-190 0 -285.5 -84.5t-95.5 -210.5q0 -217 295 -278zM532 -438v35q31 25 42.5 61.5t11.5 112.5v61h-54v131h119v-223
q0 -86 -33 -130.5t-86 -47.5z" />
    <glyph glyph-name="scommaaccent" unicode="&#x219;" horiz-adv-x="952" 
d="M784 825q-65 179 -311 179q-137 0 -213 -58t-76 -147q0 -80 52.5 -127t173.5 -76l161 -39q67 -16 111.5 -30t87 -35.5t66.5 -49t38.5 -68t14.5 -93.5q0 -77 -34 -136t-92.5 -92.5t-128 -50t-147.5 -16.5q-112 0 -200 30.5t-149.5 101t-74.5 175.5h82q13 -65 46 -112
t80.5 -73t100.5 -37.5t115 -11.5q85 0 154 21t116.5 72.5t47.5 126.5q0 41 -12 71.5t-29.5 50t-51.5 36t-62.5 25t-78.5 21.5l-196 47q-134 34 -203.5 97.5t-69.5 171.5q0 127 103 201.5t268 74.5q147 0 252 -62.5t139 -187.5h-80zM424 -461v35q31 25 42 61.5t11 112.5v62
h-53v131h119v-224q0 -86 -33 -130.5t-86 -47.5z" />
    <glyph glyph-name="uni021A" unicode="&#x21a;" horiz-adv-x="1161" 
d="M63 1434h1035v-80h-473v-1354h-88v1354h-474v80zM512 -170v131h119v-223q0 -86 -33 -130.5t-86 -47.5v34q31 25 42 61.5t11 113.5v61h-53z" />
    <glyph glyph-name="uni021B" unicode="&#x21b;" horiz-adv-x="579" 
d="M385 61q60 0 121 19v-72q-64 -20 -150 -20q-155 0 -155 145v860h-158v72h158v266h84v-266h200v-72h-200v-852q0 -41 22.5 -60.5t77.5 -19.5zM295 -168v131h119v-223q0 -86 -33 -130.5t-86 -47.5v35q31 25 42 61.5t11 112.5v61h-53z" />
    <glyph glyph-name="uni0237" unicode="&#x237;" horiz-adv-x="372" 
d="M-145 -326q75 -45 172 -45q67 0 103 44t36 126v1266h84v-1258q0 -139 -58 -198.5t-161 -59.5q-110 0 -176 48v77z" />
    <glyph glyph-name="circumflex" unicode="&#x2c6;" horiz-adv-x="546" 
d="M475 1200l-201 195l-202 -195h-72l209 252h129l209 -252h-72z" />
    <glyph glyph-name="caron" unicode="&#x2c7;" horiz-adv-x="546" 
d="M475 1434h72l-209 -252h-129l-209 252h72l202 -195z" />
    <glyph glyph-name="breve" unicode="&#x2d8;" horiz-adv-x="530" 
d="M465 1452h65q0 -43 -14 -82.5t-43.5 -74.5t-83.5 -55.5t-125 -20.5t-124 20.5t-82.5 55.5t-43.5 74.5t-14 82.5h66q14 -166 198 -166q183 0 201 166z" />
    <glyph glyph-name="dotaccent" unicode="&#x2d9;" horiz-adv-x="92" 
d="M0 1452h92v-160h-92v160z" />
    <glyph glyph-name="ring" unicode="&#x2da;" horiz-adv-x="323" 
d="M162 1190q-68 0 -115 46.5t-47 111.5t47 111t115 46t115 -46t47 -111t-47 -111.5t-115 -46.5zM162 1243q45 0 76.5 31t31.5 74q0 44 -31 74t-77 30t-76.5 -30t-30.5 -74q0 -43 31 -74t76 -31z" />
    <glyph glyph-name="ogonek" unicode="&#x2db;" horiz-adv-x="323" 
d="M289 -408q-39 -16 -87.5 -17t-94 13.5t-76.5 54t-31 97.5q0 84 76 153.5t178 106.5h70q-106 -44 -173 -106.5t-67 -139.5q0 -67 54.5 -96t150.5 -12v-54z" />
    <glyph glyph-name="tilde" unicode="&#x2dc;" horiz-adv-x="647" 
d="M590 1434h57q0 -82 -53.5 -126t-124.5 -44q-38 0 -72 14.5t-59 35t-49.5 41.5t-53.5 35.5t-59 14.5q-63 0 -93 -31.5t-28 -68.5h-55q0 81 53 125.5t125 44.5q46 0 87.5 -22.5t68 -49.5t63.5 -49.5t74 -22.5q62 0 91.5 32.5t27.5 70.5z" />
    <glyph glyph-name="hungarumlaut" unicode="&#x2dd;" horiz-adv-x="571" 
d="M0 1190h78l205 262h-95zM285 1190h77l205 262h-94z" />
    <glyph glyph-name="uni0326" unicode="&#x326;" horiz-adv-x="0" 
d="M-119 -438v35q31 25 42 61.5t11 112.5v61h-53v131h119v-223q0 -86 -33 -130.5t-86 -47.5z" />
    <glyph glyph-name="uni0394" unicode="&#x394;" horiz-adv-x="1505" 
d="M1401 0h-1297l629 1434h37zM1278 78l-524 1200l-529 -1200h1053z" />
    <glyph glyph-name="uni03A9" unicode="&#x3a9;" horiz-adv-x="1609" 
d="M1153 80h311v-80h-387v170l94 72q261 196 261 489q0 136 -54.5 257.5t-143 204.5t-201 131t-228.5 48t-229 -48t-201.5 -131t-143.5 -204.5t-55 -257.5q0 -291 260 -489l96 -72v-170h-387v80h310v53q-361 239 -361 598q0 152 60.5 287.5t160 228.5t228 147t262.5 54
t262 -54t227.5 -147t160.5 -228.5t61 -287.5q0 -360 -363 -598v-53z" />
    <glyph glyph-name="uni03BC" unicode="&#x3bc;" horiz-adv-x="1101" 
d="M893 1065h84v-1065h-84v270q-5 -27 -23.5 -61.5t-53 -74t-79 -72.5t-108.5 -54.5t-135 -21.5q-197 0 -295 123v-498h-84v1454h84v-649q0 -192 79 -273.5t234 -81.5q66 0 125 22.5t100.5 57t75 79t52.5 86t28 79.5v680z" />
    <glyph glyph-name="pi" unicode="&#x3c0;" horiz-adv-x="1302" 
d="M1069 66q69 0 139 36v-77q-72 -37 -131 -37q-88 0 -133 46.5t-45 158.5v796h-506v-989h-84v989h-205v76h1082v-76h-203v-811q0 -68 20 -90t66 -22z" />
    <glyph glyph-name="uni0401" unicode="&#x401;" horiz-adv-x="1091" 
d="M389 1821v-160h-92v160h92zM801 1821v-160h-92v160h92zM211 80h819v-80h-905v1434h885v-80h-799v-574h696v-75h-696v-625z" />
    <glyph glyph-name="uni0403" unicode="&#x403;" horiz-adv-x="989" 
d="M399 1559h78l205 262h-94zM928 1434v-80h-717v-1354h-86v1434h803z" />
    <glyph glyph-name="uni0404" unicode="&#x404;" horiz-adv-x="1300" 
d="M1147 309h92q-50 -153 -189.5 -240t-340.5 -87q-132 0 -242.5 45.5t-194.5 134t-131 230.5t-47 325t47 325t131 230.5t194.5 134t242.5 45.5q200 0 338 -87.5t186 -240.5h-92q-43 113 -154.5 180.5t-277.5 67.5q-108 0 -199 -35.5t-162 -106.5t-114 -186t-50 -264h574
v-75h-576q1 -162 42 -286.5t112.5 -202t165.5 -116.5t207 -39q168 0 281 67.5t157 180.5z" />
    <glyph glyph-name="uni0407" unicode="&#x407;" horiz-adv-x="335" 
d="M-84 1821h92v-160h-92v160zM328 1821h92v-160h-92v160zM211 0h-86v1434h86v-1434z" />
    <glyph glyph-name="uni040C" unicode="&#x40c;" horiz-adv-x="1234" 
d="M815 1821l-205 -262h-78l189 262h94zM1085 0l-639 698l-235 -247v-451h-86v1434h86v-865l819 865h109l-635 -674l690 -760h-109z" />
    <glyph glyph-name="uni040E" unicode="&#x40e;" horiz-adv-x="1105" 
d="M754 1821h65q0 -43 -14 -83t-43.5 -74.5t-83.5 -55.5t-125 -21t-124 21t-82.5 55.5t-43.5 74.5t-14 83h65q14 -166 199 -166q183 0 201 166zM952 1434h92l-493 -1190q-116 -288 -356 -252v84q99 -13 166 33.5t110 154.5q23 53 26.5 86.5t-8.5 61.5l-426 1022h91l399 -965
z" />
    <glyph glyph-name="uni0410" unicode="&#x410;" horiz-adv-x="1357" 
d="M1200 0l-170 426h-702l-170 -426h-95l580 1434h72l579 -1434h-94zM356 498h645l-323 811z" />
    <glyph glyph-name="uni0411" unicode="&#x411;" horiz-adv-x="1198" 
d="M606 887q234 0 361 -115.5t127 -325.5q0 -214 -126.5 -330t-361.5 -116h-481v1434h803v-80h-717v-467h395zM610 82q193 0 293.5 92.5t100.5 271.5q0 175 -101 267t-293 92h-399v-723h399z" />
    <glyph glyph-name="uni0412" unicode="&#x412;" horiz-adv-x="1232" 
d="M799 784q329 -81 329 -389q0 -188 -124 -291.5t-373 -103.5h-506v1434h506q208 0 308.5 -92t100.5 -248q0 -113 -58.5 -194.5t-182.5 -115.5zM211 1356v-539h440q140 0 220.5 75.5t80.5 205.5q0 53 -16 97t-50.5 81.5t-98 58.5t-150.5 21h-426zM639 80q206 0 302.5 83.5
t96.5 235.5q0 157 -108.5 248.5t-311.5 91.5h-407v-659h428z" />
    <glyph glyph-name="uni0413" unicode="&#x413;" horiz-adv-x="989" 
d="M928 1434v-80h-717v-1354h-86v1434h803z" />
    <glyph glyph-name="uni0414" unicode="&#x414;" horiz-adv-x="1429" 
d="M1225 78h143v-219h-84v141h-1137v-141h-84v219h91q37 41 63.5 93t44 129t27.5 150.5t15 197.5t6 228.5t1 282.5v275h914v-1356zM252 78h885v1276h-738v-195q0 -157 -0.5 -245t-3.5 -204t-9 -181.5t-16.5 -144.5t-26 -127.5t-38.5 -96t-53 -82.5z" />
    <glyph glyph-name="uni0415" unicode="&#x415;" horiz-adv-x="1091" 
d="M211 80h819v-80h-905v1434h885v-80h-799v-574h696v-75h-696v-625z" />
    <glyph glyph-name="uni0416" unicode="&#x416;" horiz-adv-x="1689" 
d="M1649 0h-107l-653 698v-698h-88v698l-654 -698h-106l686 737l-641 697h104l611 -658v658h88v-658l610 658h105l-646 -697z" />
    <glyph glyph-name="uni0417" unicode="&#x417;" horiz-adv-x="1142" 
d="M727 782q146 -28 240 -126.5t94 -256.5q0 -191 -136.5 -307.5t-361.5 -116.5q-229 0 -359 129.5t-132 344.5h82q2 -181 110.5 -288.5t296.5 -107.5q186 0 301 94.5t115 251.5q0 163 -118 252.5t-322 89.5h-39v70h39q94 0 165.5 24t111.5 65.5t59.5 91t19.5 106.5
q0 123 -92.5 200.5t-245.5 77.5q-157 0 -252.5 -97.5t-95.5 -285.5h-82q0 223 115.5 341t314.5 118q193 0 307.5 -102t114.5 -256q0 -107 -62 -190.5t-188 -121.5z" />
    <glyph glyph-name="uni0418" unicode="&#x418;" horiz-adv-x="1316" 
d="M125 1434h88v-1313h4l866 1313h109v-1434h-86v1315h-4l-866 -1315h-111v1434z" />
    <glyph glyph-name="uni0419" unicode="&#x419;" horiz-adv-x="1316" 
d="M856 1821h66q0 -43 -14.5 -83t-44 -74.5t-83.5 -55.5t-125 -21t-124 21t-82.5 55.5t-43.5 74.5t-14 83h66q14 -166 198 -166q183 0 201 166zM125 1434h88v-1313h4l866 1313h109v-1434h-86v1315h-4l-866 -1315h-111v1434z" />
    <glyph glyph-name="uni041A" unicode="&#x41a;" horiz-adv-x="1234" 
d="M1085 0l-639 698l-235 -247v-451h-86v1434h86v-865l819 865h109l-635 -674l690 -760h-109z" />
    <glyph glyph-name="uni041B" unicode="&#x41b;" horiz-adv-x="1374" 
d="M1249 1434v-1434h-86v1354h-755v-903q0 -130 -29 -224t-81.5 -146.5t-118.5 -75t-148 -19.5v80q51 -1 92.5 9.5t78.5 37.5t62.5 70t40 111t14.5 157v983h930z" />
    <glyph glyph-name="uni041C" unicode="&#x41c;" horiz-adv-x="1673" 
d="M125 1434h86l627 -1334l624 1334h88v-1434h-88v1241h-4l-577 -1241h-86l-580 1241h-4v-1241h-86v1434z" />
    <glyph glyph-name="uni041D" unicode="&#x41d;" horiz-adv-x="1294" 
d="M1083 1434h86v-1434h-86v657h-872v-657h-86v1434h86v-703h872v703z" />
    <glyph glyph-name="uni041E" unicode="&#x41e;" horiz-adv-x="1435" 
d="M717 1452q136 0 249 -46t197 -135t131 -230.5t47 -323.5t-47 -323.5t-131 -230.5t-197 -135t-249 -46q-135 0 -247.5 46t-197 135t-131.5 230.5t-47 323.5t47 323.5t131.5 230.5t197 135t247.5 46zM717 61q119 0 216 39t169 117.5t111.5 205.5t39.5 294q0 328 -145 491.5
t-391 163.5q-119 0 -215.5 -39t-168.5 -117t-111.5 -205t-39.5 -294t39.5 -294t111.5 -205.5t168.5 -117.5t215.5 -39z" />
    <glyph glyph-name="uni041F" unicode="&#x41f;" horiz-adv-x="1294" 
d="M1169 1434v-1434h-86v1354h-872v-1354h-86v1434h1044z" />
    <glyph glyph-name="uni0420" unicode="&#x420;" horiz-adv-x="1167" 
d="M606 1434q235 0 361.5 -115.5t126.5 -329.5q0 -210 -127 -324t-361 -114h-395v-551h-86v1434h481zM610 631q192 0 293 91.5t101 266.5q0 178 -101 271.5t-293 93.5h-399v-723h399z" />
    <glyph glyph-name="uni0421" unicode="&#x421;" horiz-adv-x="1300" 
d="M709 61q168 0 281 67.5t157 180.5h92q-50 -153 -189.5 -240t-340.5 -87q-132 0 -242.5 45.5t-194.5 134t-131 230.5t-47 325t47 325t131 230.5t194.5 134t242.5 45.5q200 0 338 -87.5t186 -240.5h-92q-43 113 -154.5 180.5t-277.5 67.5q-114 0 -208 -39.5t-166.5 -117.5
t-112.5 -205.5t-40 -292.5t40 -292t112 -205.5t167 -118.5t208 -40z" />
    <glyph glyph-name="uni0422" unicode="&#x422;" horiz-adv-x="1161" 
d="M1098 1434v-80h-473v-1354h-88v1354h-474v80h1035z" />
    <glyph glyph-name="uni0423" unicode="&#x423;" horiz-adv-x="1105" 
d="M952 1434h92l-493 -1190q-116 -288 -356 -252v84q99 -13 166 33.5t110 154.5q23 53 26.5 86.5t-8.5 61.5l-426 1022h91l399 -965z" />
    <glyph glyph-name="uni0424" unicode="&#x424;" horiz-adv-x="1435" 
d="M1341 717q0 -189 -75 -323t-203.5 -201.5t-300.5 -75.5v-148h-88v150q-265 11 -422.5 164t-157.5 434t157.5 434t422.5 164v149h88v-147q172 -8 300.5 -75.5t203.5 -201.5t75 -323zM762 188q225 11 360 145t135 384t-135 383.5t-360 144.5v-1057zM178 717
q0 -249 135 -383.5t361 -145.5v1057q-226 -11 -361 -145t-135 -383z" />
    <glyph glyph-name="uni0425" unicode="&#x425;" horiz-adv-x="1275" 
d="M1225 0h-101l-485 674l-487 -674h-99l537 741l-502 693h100l451 -623l451 623h98l-500 -693z" />
    <glyph glyph-name="uni0426" unicode="&#x426;" horiz-adv-x="1296" 
d="M1169 80h64v-369h-84v289h-1024v1434h86v-1354h872v1354h86v-1354z" />
    <glyph glyph-name="uni0427" unicode="&#x427;" horiz-adv-x="1241" 
d="M1028 1434h88v-1434h-88v637q-7 -33 -45 -79.5t-100.5 -94.5t-160.5 -81.5t-206 -33.5q-84 0 -156.5 23.5t-133.5 72t-96.5 135t-35.5 201.5v654h86v-652q0 -98 29 -169t81.5 -111t115.5 -58t141 -18q81 0 155.5 22.5t128.5 58t97 79t67.5 86t32.5 78.5v684z" />
    <glyph glyph-name="uni0428" unicode="&#x428;" horiz-adv-x="1554" 
d="M1343 1434h89v-1434h-1307v1434h86v-1354h522v1354h88v-1354h522v1354z" />
    <glyph glyph-name="uni0429" unicode="&#x429;" horiz-adv-x="1566" 
d="M1432 80h71v-369h-86v289h-1292v1434h86v-1354h522v1354h88v-1354h522v1354h89v-1354z" />
    <glyph glyph-name="uni042A" unicode="&#x42a;" horiz-adv-x="1298" 
d="M707 887q234 0 360.5 -115.5t126.5 -325.5q0 -214 -126.5 -330t-360.5 -116h-482v1354h-162v80h250v-80h-2v-467h396zM711 82q193 0 293 92.5t100 271.5q0 175 -100.5 267t-292.5 92h-400v-723h400z" />
    <glyph glyph-name="uni042B" unicode="&#x42b;" horiz-adv-x="1464" 
d="M606 887q234 0 361 -115.5t127 -325.5q0 -214 -126.5 -330t-361.5 -116h-481v1434h86v-547h395zM1253 1434h86v-1434h-86v1434zM610 82q193 0 293.5 92.5t100.5 271.5q0 175 -101 267t-293 92h-399v-723h399z" />
    <glyph glyph-name="uni042C" unicode="&#x42c;" horiz-adv-x="1198" 
d="M606 887q234 0 361 -115.5t127 -325.5q0 -214 -126.5 -330t-361.5 -116h-481v1434h86v-547h395zM610 82q193 0 293.5 92.5t100.5 271.5q0 175 -101 267t-293 92h-399v-723h399z" />
    <glyph glyph-name="uni042D" unicode="&#x42d;" horiz-adv-x="1333" 
d="M625 1452q132 0 242.5 -45.5t194 -134t130.5 -230.5t47 -325t-47 -325t-130.5 -230.5t-194 -134t-242.5 -45.5q-201 0 -341 87t-190 240h92q44 -113 157.5 -180.5t281.5 -67.5q113 0 206.5 39t165 116.5t112.5 202t42 286.5h-576v75h574q-7 149 -50 264t-113.5 186
t-161.5 106.5t-199 35.5q-166 0 -277.5 -67.5t-154.5 -180.5h-93q48 153 186.5 240.5t338.5 87.5z" />
    <glyph glyph-name="uni042E" unicode="&#x42e;" horiz-adv-x="1798" 
d="M1079 1452q136 0 249 -46t197.5 -135t131.5 -230.5t47 -323.5t-47 -323.5t-131.5 -230.5t-197.5 -135t-249 -46q-267 0 -436 172.5t-184 502.5h-248v-657h-86v1434h86v-703h246q2 178 50 316.5t131.5 226.5t195 133t245.5 45zM1079 61q246 0 391.5 164t145.5 492
t-145.5 491.5t-391.5 163.5q-119 0 -215 -39t-168 -117t-111.5 -205t-39.5 -294t39.5 -294t111.5 -205.5t168 -117.5t215 -39z" />
    <glyph glyph-name="uni042F" unicode="&#x42f;" horiz-adv-x="1222" 
d="M1098 1434v-1434h-86v623h-520q-47 0 -85.5 -5.5t-78.5 -22t-66.5 -44t-43.5 -75t-17 -111.5v-125q0 -199 -41 -240h-86q41 41 41 240v125q0 135 57 207.5t182 95.5q-122 45 -185 141t-63 229q0 190 117.5 293t345.5 103h529zM1012 698v658h-443q-376 0 -376 -326
q0 -155 93.5 -243.5t237.5 -88.5h488z" />
    <glyph glyph-name="uni0430" unicode="&#x430;" horiz-adv-x="1064" 
d="M932 129q0 -42 17 -57.5t63 -12.5v-59q-19 -8 -43 -8q-64 0 -91.5 30t-27.5 111v115q-15 -34 -46.5 -74t-83.5 -84.5t-132.5 -74t-173.5 -29.5q-155 0 -247.5 82t-92.5 227q0 128 82.5 205.5t281.5 105.5q108 15 155 22t132 25.5t123 38.5v23q0 158 -71.5 223.5
t-239.5 65.5q-281 0 -312 -181h-82q17 124 121 188t275 64q197 0 295 -87.5t98 -293.5v-565zM848 342v285q-57 -32 -404 -84q-159 -24 -222.5 -82t-63.5 -164q0 -113 71 -177.5t195 -64.5q75 0 143 24t112.5 57t82.5 77t55.5 73t30.5 56z" />
    <glyph glyph-name="uni0431" unicode="&#x431;" horiz-adv-x="1114" 
d="M573 1079q74 0 141.5 -21.5t127 -66t103.5 -108.5t69.5 -154.5t25.5 -198.5q0 -134 -40 -240.5t-107.5 -172.5t-151.5 -100.5t-176 -34.5q-73 0 -141 21t-129 67.5t-106 113.5t-71 165t-24 216v430q1 214 113 326.5t323 112.5h187q110 0 155 45h89q-41 -68 -98 -92.5
t-173 -24.5h-160q-166 0 -261 -87t-95 -247v-207q30 68 77 120t101.5 81t109.5 43t111 14zM565 57q77 0 146 29t125 84.5t89 148.5t33 211t-32.5 211t-88 149t-125 85t-147.5 29q-77 0 -145.5 -29t-124 -85t-88.5 -148.5t-33 -209.5q0 -116 33.5 -209t89.5 -150t124.5 -86.5
t143.5 -29.5z" />
    <glyph glyph-name="uni0432" unicode="&#x432;" horiz-adv-x="1085" 
d="M782 586q118 -32 174 -107t56 -170q0 -155 -99 -232t-325 -77h-463v1065h463q174 0 260 -67.5t86 -194.5q0 -72 -39 -132t-113 -85zM209 987v-371h383q137 0 200.5 45t63.5 146q0 180 -268 180h-379zM586 78q99 0 168 16.5t106.5 48.5t53.5 71t16 91q0 39 -9 72t-33 64.5
t-61 54t-97 36t-138 13.5h-383v-467h377z" />
    <glyph glyph-name="uni0433" unicode="&#x433;" horiz-adv-x="821" 
d="M760 1065v-72h-551v-993h-84v1065h635z" />
    <glyph glyph-name="uni0434" unicode="&#x434;" horiz-adv-x="1146" 
d="M1026 72h57v-217h-77v145h-865v-145h-78v217h54q20 25 35.5 60.5t25.5 70t17 96t10.5 106t5 136.5t2 149t0.5 180v195h813v-993zM203 72h739v921h-645v-123v-50q0 -132 -0.5 -193.5t-3 -155t-8 -140t-16 -103.5t-27 -92.5t-39.5 -63.5z" />
    <glyph glyph-name="uni0435" unicode="&#x435;" horiz-adv-x="1079" 
d="M1008 543q0 -33 -2 -51h-850q10 -218 120 -326.5t285 -108.5q111 0 184 31t134 111h88q-74 -115 -171 -164t-239 -49q-215 0 -349 142t-134 402q0 133 38.5 238.5t104.5 171.5t151 100.5t183 34.5q96 0 178 -34t144.5 -99t98.5 -167.5t36 -231.5zM156 561h770
q-3 215 -106 329t-269 114q-164 0 -275 -113t-120 -330z" />
    <glyph glyph-name="uni0436" unicode="&#x436;" horiz-adv-x="1359" 
d="M1329 0h-104l-504 500v-500h-84v498l-502 -498h-104l551 545l-531 520h105l481 -473v473h84v-475l481 475h105l-529 -520z" />
    <glyph glyph-name="uni0437" unicode="&#x437;" horiz-adv-x="1005" 
d="M629 565q130 -16 211.5 -86.5t81.5 -185.5q0 -142 -119.5 -226.5t-319.5 -84.5q-187 0 -298 99.5t-111 256.5h80q0 -123 91 -204t238 -81q162 0 259.5 66t97.5 172q0 83 -54.5 138.5t-139 78.5t-193.5 22v64q158 3 242.5 58.5t84.5 160.5q0 83 -81 140t-207 57
q-134 0 -214.5 -69.5t-80.5 -166.5h-80q0 129 101 217t274 88q167 0 266.5 -78t99.5 -192q0 -193 -229 -244z" />
    <glyph glyph-name="uni0438" unicode="&#x438;" horiz-adv-x="1150" 
d="M125 1065h84v-967h4l707 967h106v-1065h-84v969h-4l-707 -969h-106v1065z" />
    <glyph glyph-name="uni0439" unicode="&#x439;" horiz-adv-x="1150" 
d="M776 1452h66q0 -43 -14.5 -82.5t-44 -74.5t-83.5 -55.5t-125 -20.5t-124 20.5t-82.5 55.5t-43.5 74.5t-14 82.5h66q14 -166 198 -166q183 0 201 166zM125 1065h84v-967h4l707 967h106v-1065h-84v969h-4l-707 -969h-106v1065z" />
    <glyph glyph-name="uni043A" unicode="&#x43a;" horiz-adv-x="1050" 
d="M915 0l-479 539l-227 -232v-307h-84v1065h84v-653l635 653h104l-459 -471l529 -594h-103z" />
    <glyph glyph-name="uni043B" unicode="&#x43b;" horiz-adv-x="1183" 
d="M1059 1065v-1065h-84v993h-590v-553q0 -132 -25.5 -223t-74 -140.5t-110.5 -69.5t-144 -17v71q64 -1 111 16t84 58t56 117t19 188v625h758z" />
    <glyph glyph-name="uni043C" unicode="&#x43c;" horiz-adv-x="1380" 
d="M125 1065h84l481 -969l481 969h84v-1065h-84v883h-2l-438 -883h-82l-438 883h-2v-883h-84v1065z" />
    <glyph glyph-name="uni043D" unicode="&#x43d;" horiz-adv-x="1032" 
d="M823 1065h84v-1065h-84v516h-614v-516h-84v1065h84v-475h614v475z" />
    <glyph glyph-name="uni043E" unicode="&#x43e;" horiz-adv-x="1095" 
d="M549 1075q72 0 140.5 -21.5t129 -66t105.5 -107.5t71.5 -153t26.5 -195q0 -107 -26.5 -198t-71.5 -154t-105.5 -107.5t-128.5 -65.5t-141 -21t-141.5 21t-129.5 65.5t-106 107.5t-71.5 154t-26.5 198q0 105 26.5 195t71.5 153t106 107.5t129.5 66t141.5 21.5zM940 532
q0 115 -33 206t-88.5 147t-124.5 85t-145 29t-145.5 -29t-125.5 -85t-89 -147t-33 -206q0 -118 33 -210.5t89 -148t125 -84t146 -28.5t145.5 28.5t124 84t88.5 148t33 210.5z" />
    <glyph glyph-name="uni043F" unicode="&#x43f;" horiz-adv-x="1056" 
d="M932 1065v-1065h-84v993h-639v-993h-84v1065h807z" />
    <glyph glyph-name="uni0440" unicode="&#x440;" horiz-adv-x="1153" 
d="M606 1075q94 0 178 -33.5t150.5 -98.5t105.5 -171t39 -240q0 -135 -38.5 -241t-105.5 -171.5t-151 -99.5t-180 -34q-129 0 -231.5 66.5t-163.5 203.5v-645h-84v1454h84v-240q60 124 164 187t233 63zM600 61q79 0 149 28t126 83.5t89 148t33 211.5q0 118 -33 210
t-89 146.5t-126 82.5t-149 28t-148 -27.5t-126 -81.5t-90 -146.5t-33 -211.5q0 -116 33 -207.5t89.5 -148t126.5 -86t148 -29.5z" />
    <glyph glyph-name="uni0441" unicode="&#x441;" horiz-adv-x="1044" 
d="M557 59q131 0 216.5 55t129.5 173h80q-92 -301 -426 -301q-95 0 -180 33.5t-153.5 98.5t-109 171.5t-40.5 240.5t40 240.5t108.5 171.5t153.5 99t179 34q153 0 263.5 -72.5t158.5 -222.5h-80q-86 221 -342 221q-78 0 -148 -28t-127.5 -83.5t-91.5 -148.5t-34 -211
q0 -120 34.5 -213t92.5 -148t128 -82.5t148 -27.5z" />
    <glyph glyph-name="uni0442" unicode="&#x442;" horiz-adv-x="907" 
d="M846 1065v-72h-350v-993h-84v993h-351v72h785z" />
    <glyph glyph-name="uni0443" unicode="&#x443;" horiz-adv-x="1044" 
d="M905 1065h88l-473 -1190q-115 -288 -356 -252v78q202 -30 287 193q3 7 7 19t6 17t5 14t4 13t2.5 10.5t1.5 10t0.5 8.5t-0.5 8.5t-2.5 8t-3.5 9.5l-418 1053h86l383 -989z" />
    <glyph glyph-name="uni0444" unicode="&#x444;" horiz-adv-x="1171" 
d="M1100 530q0 -129 -37 -232t-102.5 -169t-150.5 -103t-185 -42v-363h-78v363q-99 5 -184 42t-150 103t-102 169t-37 232q0 128 37 231t102 169.5t150 104t184 42.5v365h78v-365q100 -5 185 -42.5t150.5 -104t102.5 -169.5t37 -231zM625 55q85 5 156 36.5t126 88.5
t86 146.5t31 203.5q0 113 -31 203t-86 147t-126 89t-156 37v-951zM150 530q0 -114 31 -203.5t86 -146.5t125.5 -88.5t154.5 -36.5v951q-175 -11 -286 -132.5t-111 -343.5z" />
    <glyph glyph-name="uni0445" unicode="&#x445;" horiz-adv-x="1009" 
d="M946 0h-100l-342 479l-342 -479h-99l396 545l-381 520h96l330 -455l330 455h98l-383 -520z" />
    <glyph glyph-name="uni0446" unicode="&#x446;" horiz-adv-x="1042" 
d="M932 72h59v-359h-82v287h-784v1065h84v-993h639v993h84v-993z" />
    <glyph glyph-name="uni0447" unicode="&#x447;" horiz-adv-x="1060" 
d="M852 1065h84v-1065h-84v555q-5 -26 -23 -60t-52.5 -72t-79 -69.5t-108 -52t-134.5 -20.5q-82 0 -149 21.5t-120 67.5t-82.5 126.5t-29.5 189.5v379h84v-381q0 -328 313 -328q83 0 153.5 31.5t115.5 81t72.5 98t39.5 95.5v403z" />
    <glyph glyph-name="uni0448" unicode="&#x448;" horiz-adv-x="1505" 
d="M1296 1065h84v-1065h-1255v1065h84v-993h504v993h80v-993h503v993z" />
    <glyph glyph-name="uni0449" unicode="&#x449;" horiz-adv-x="1490" 
d="M1380 72h60v-359h-82v287h-1233v1065h84v-993h504v993h80v-993h503v993h84v-993z" />
    <glyph glyph-name="uni044A" unicode="&#x44a;" 
d="M659 659q205 0 313.5 -85t108.5 -244t-108.5 -244.5t-313.5 -85.5h-411v993h-185v72h269v-406h327zM664 72q335 0 335 258t-335 258h-332v-516h332z" />
    <glyph glyph-name="uni044B" unicode="&#x44b;" horiz-adv-x="1300" 
d="M537 659q205 0 313 -85t108 -244t-108 -244.5t-313 -85.5h-412v1065h84v-406h328zM1094 1065h84v-1065h-84v1065zM541 72q336 0 336 258t-336 258h-332v-516h332z" />
    <glyph glyph-name="uni044C" unicode="&#x44c;" horiz-adv-x="1032" 
d="M537 659q205 0 313 -85t108 -244t-108 -244.5t-313 -85.5h-412v1065h84v-406h328zM541 72q336 0 336 258t-336 258h-332v-516h332z" />
    <glyph glyph-name="uni044D" unicode="&#x44d;" horiz-adv-x="1056" 
d="M502 1075q94 0 179 -34t153.5 -99t108.5 -171.5t40 -240.5t-40.5 -240.5t-109 -171.5t-153.5 -98.5t-180 -33.5q-334 0 -426 301h80q44 -118 129.5 -173t216.5 -55q77 0 146.5 27t127.5 81t93 145t36 208h-414v64h412q-7 105 -43.5 187t-92.5 131t-123 74t-140 25
q-256 0 -342 -221h-80q48 150 158.5 222.5t263.5 72.5z" />
    <glyph glyph-name="uni044E" unicode="&#x44e;" horiz-adv-x="1392" 
d="M846 1075q72 0 140.5 -21.5t129 -66t105.5 -107.5t71.5 -153t26.5 -195q0 -107 -26.5 -198t-71.5 -154t-105.5 -107.5t-128.5 -65.5t-141 -21q-88 0 -169.5 32t-148.5 93t-109 160t-48 223h-162v-496h-84v1065h84v-496h162q5 123 47.5 222t109 160t148.5 93.5t170 32.5z
M846 61q77 0 145.5 28.5t124 84t88.5 148t33 210.5q0 115 -33 206t-88.5 147t-124.5 85t-145 29t-145.5 -29t-125.5 -85t-89 -147t-33 -206q0 -118 33 -210.5t89 -148t125 -84t146 -28.5z" />
    <glyph glyph-name="uni044F" unicode="&#x44f;" horiz-adv-x="1036" 
d="M911 1065v-1065h-84v406h-448q-113 0 -158 -36t-45 -116v-96q0 -130 -31 -158h-84q31 28 31 158v96q0 82 35 131t121 68q-170 81 -170 282q0 159 108.5 244.5t313.5 85.5h411zM827 477v516h-331q-336 0 -336 -258t336 -258h331z" />
    <glyph glyph-name="uni0451" unicode="&#x451;" horiz-adv-x="1079" 
d="M387 1452v-160h-92v160h92zM799 1452v-160h-92v160h92zM1008 543q0 -33 -2 -51h-850q10 -218 120 -326.5t285 -108.5q111 0 184 31t134 111h88q-74 -115 -171 -164t-239 -49q-215 0 -349 142t-134 402q0 133 38.5 238.5t104.5 171.5t151 100.5t183 34.5q96 0 178 -34
t144.5 -99t98.5 -167.5t36 -231.5zM156 561h770q-3 215 -106 329t-269 114q-164 0 -275 -113t-120 -330z" />
    <glyph glyph-name="uni0453" unicode="&#x453;" horiz-adv-x="821" 
d="M326 1190h77l205 262h-94zM760 1065v-72h-551v-993h-84v1065h635z" />
    <glyph glyph-name="uni0454" unicode="&#x454;" horiz-adv-x="1044" 
d="M903 287h80q-92 -301 -426 -301q-95 0 -180 33.5t-153.5 98.5t-109 171.5t-40.5 240.5t40 240.5t108.5 171.5t153.5 99t179 34q153 0 263.5 -72.5t158.5 -222.5h-80q-86 221 -342 221q-73 0 -140 -25t-123 -74t-92.5 -131t-43.5 -187h411v-64h-413q1 -117 36 -208
t93 -145t127.5 -81t146.5 -27q131 0 216.5 55t129.5 173z" />
    <glyph glyph-name="uni0457" unicode="&#x457;" horiz-adv-x="333" 
d="M-86 1452h92v-160h-92v160zM326 1452h92v-160h-92v160zM125 1065h84v-1065h-84v1065z" />
    <glyph glyph-name="uni045C" unicode="&#x45c;" horiz-adv-x="1050" 
d="M723 1452l-205 -262h-78l189 262h94zM915 0l-479 539l-227 -232v-307h-84v1065h84v-653l635 653h104l-459 -471l529 -594h-103z" />
    <glyph glyph-name="uni045E" unicode="&#x45e;" horiz-adv-x="1044" 
d="M723 1452h65q0 -43 -14 -82.5t-43.5 -74.5t-83.5 -55.5t-125 -20.5t-124 20.5t-82.5 55.5t-43.5 74.5t-14 82.5h66q14 -166 198 -166q183 0 201 166zM905 1065h88l-473 -1190q-115 -288 -356 -252v78q202 -30 287 193q3 7 7 19t6 17t5 14t4 13t2.5 10.5t1.5 10t0.5 8.5
t-0.5 8.5t-2.5 8t-3.5 9.5l-418 1053h86l383 -989z" />
    <glyph glyph-name="uni0490" unicode="&#x490;" horiz-adv-x="989" 
d="M840 1638h88v-284h-717v-1354h-86v1434h715v204z" />
    <glyph glyph-name="uni0491" unicode="&#x491;" horiz-adv-x="821" 
d="M682 1200h78v-207h-551v-993h-84v1065h557v135z" />
    <glyph glyph-name="Wgrave" unicode="&#x1e80;" horiz-adv-x="2007" 
d="M1087 1559l-188 262h-94l205 -262h77zM1853 1434h91l-418 -1434h-88l-434 1323l-435 -1323h-88l-418 1434h91l374 -1311l424 1311h103l424 -1311z" />
    <glyph glyph-name="wgrave" unicode="&#x1e81;" horiz-adv-x="1632" 
d="M901 1190l-188 262h-95l205 -262h78zM1579 1065l-326 -1065h-90l-348 954l-348 -954h-88l-326 1065h86l289 -967l352 967h72l352 -967l289 967h86z" />
    <glyph glyph-name="Wacute" unicode="&#x1e82;" horiz-adv-x="2007" 
d="M918 1559h77l205 262h-94zM1853 1434h91l-418 -1434h-88l-434 1323l-435 -1323h-88l-418 1434h91l374 -1311l424 1311h103l424 -1311z" />
    <glyph glyph-name="wacute" unicode="&#x1e83;" horiz-adv-x="1632" 
d="M731 1190h78l205 262h-94zM1579 1065l-326 -1065h-90l-348 954l-348 -954h-88l-326 1065h86l289 -967l352 967h72l352 -967l289 967h86z" />
    <glyph glyph-name="Wdieresis" unicode="&#x1e84;" horiz-adv-x="2007" 
d="M752 1821h92v-160h-92v160zM1163 1821h92v-160h-92v160zM1853 1434h91l-418 -1434h-88l-434 1323l-435 -1323h-88l-418 1434h91l374 -1311l424 1311h103l424 -1311z" />
    <glyph glyph-name="wdieresis" unicode="&#x1e85;" horiz-adv-x="1632" 
d="M565 1452h92v-160h-92v160zM977 1452h92v-160h-92v160zM1579 1065l-326 -1065h-90l-348 954l-348 -954h-88l-326 1065h86l289 -967l352 967h72l352 -967l289 967h86z" />
    <glyph glyph-name="uni1E9E" unicode="&#x1e9e;" horiz-adv-x="1253" 
d="M688 862q212 -14 342.5 -136.5t130.5 -309.5q0 -204 -116.5 -320t-309.5 -116q-184 0 -295.5 105t-111.5 288h84q0 -133 85 -223.5t238 -90.5q162 0 250 101t88 256q0 174 -135.5 277.5t-380.5 103.5l373 575h-510q-121 0 -165 -51t-44 -166v-1155h-86v1151
q0 169 69.5 235t227.5 66h653z" />
    <glyph glyph-name="Ygrave" unicode="&#x1ef2;" horiz-adv-x="1271" 
d="M719 1559l-189 262h-94l205 -262h78zM678 580v-580h-86v580l-529 854h97l475 -768l477 768h96z" />
    <glyph glyph-name="ygrave" unicode="&#x1ef3;" horiz-adv-x="1044" 
d="M614 1190l-188 262h-94l205 -262h77zM905 1065h88l-473 -1190q-115 -288 -356 -252v78q202 -30 287 193q3 7 7 19t6 17t5 14t4 13t2.5 10.5t1.5 10t0.5 8.5t-0.5 8.5t-2.5 8t-3.5 9.5l-418 1053h86l383 -989z" />
    <glyph glyph-name="endash" unicode="&#x2013;" horiz-adv-x="1228" 
d="M92 612h1045v-69h-1045v69z" />
    <glyph glyph-name="emdash" unicode="&#x2014;" horiz-adv-x="1351" 
d="M92 612h1168v-69h-1168v69z" />
    <glyph glyph-name="quoteleft" unicode="&#x2018;" horiz-adv-x="282" 
d="M201 1434v-35q-31 -25 -42.5 -61.5t-11.5 -112.5v-62h54v-131h-119v223q0 86 33 131t86 48z" />
    <glyph glyph-name="quoteright" unicode="&#x2019;" horiz-adv-x="282" 
d="M82 1032v35q31 25 42 61.5t11 112.5v62h-53v131h119v-224q0 -86 -33 -130.5t-86 -47.5z" />
    <glyph glyph-name="quotesinglbase" unicode="&#x201a;" horiz-adv-x="282" 
d="M82 -270v34q31 25 42 61.5t11 113.5v61h-53v131h119v-223q0 -86 -33 -130.5t-86 -47.5z" />
    <glyph glyph-name="quotedblleft" unicode="&#x201c;" horiz-adv-x="520" 
d="M201 1436v-35q-31 -25 -42.5 -61.5t-11.5 -112.5v-62h54v-131h-119v223q0 86 33 131t86 48zM438 1436v-35q-31 -25 -42 -61.5t-11 -112.5v-62h53v-131h-119v223q0 86 33 131t86 48z" />
    <glyph glyph-name="quotedblright" unicode="&#x201d;" horiz-adv-x="520" 
d="M82 1032v35q31 25 42 61.5t11 112.5v62h-53v131h119v-224q0 -86 -33 -130.5t-86 -47.5zM319 1032v35q31 25 42.5 61.5t11.5 112.5v62h-54v131h119v-224q0 -86 -33 -130.5t-86 -47.5z" />
    <glyph glyph-name="quotedblbase" unicode="&#x201e;" horiz-adv-x="520" 
d="M82 -270v34q31 25 42 61.5t11 113.5v61h-53v131h119v-223q0 -86 -33 -130.5t-86 -47.5zM319 -270v34q31 25 42.5 62t11.5 113v61h-54v131h119v-223q0 -86 -33 -130.5t-86 -47.5z" />
    <glyph glyph-name="dagger" unicode="&#x2020;" horiz-adv-x="587" 
d="M485 1214v-67h-153v-531h-74v531h-156v67h156v220h74v-220h153z" />
    <glyph glyph-name="daggerdbl" unicode="&#x2021;" horiz-adv-x="587" 
d="M485 1032h-153v-631h153v-67h-153v-334h-74v334h-156v67h156v631h-156v68h156v334h74v-334h153v-68z" />
    <glyph glyph-name="bullet" unicode="&#x2022;" horiz-adv-x="514" 
d="M258 385q-66 0 -111 45.5t-45 110.5q0 63 45 108t111 45q63 0 108.5 -45t45.5 -108q0 -64 -45.5 -110t-108.5 -46z" />
    <glyph glyph-name="ellipsis" unicode="&#x2026;" horiz-adv-x="1335" 
d="M102 131h119v-131h-119v131zM608 131h119v-131h-119v131zM1114 131h119v-131h-119v131z" />
    <glyph glyph-name="perthousand" unicode="&#x2030;" horiz-adv-x="2119" 
d="M340 850q-108 0 -178 81t-70 216t70.5 216t177.5 81q108 0 180 -81t72 -216t-72 -216t-180 -81zM276 0l842 1436l72 -2l-840 -1434h-74zM340 913q84 0 134 60.5t50 173.5q0 112 -50 171.5t-134 59.5q-81 0 -131.5 -59.5t-50.5 -171.5t50.5 -173t131.5 -61zM1120 -10
q-108 0 -178 81t-70 216t71 216t177 81q108 0 180 -81t72 -216t-72 -216t-180 -81zM1778 -10q-108 0 -178 81t-70 216t70.5 216t177.5 81q108 0 179 -81t71 -216t-71 -216t-179 -81zM1120 55q85 0 136 60t51 172t-51.5 172.5t-135.5 60.5q-81 0 -131.5 -60.5t-50.5 -172.5
t50.5 -172t131.5 -60zM1778 53q82 0 133 61t51 173t-50.5 171.5t-133.5 59.5q-82 0 -132.5 -59.5t-50.5 -171.5t50.5 -173t132.5 -61z" />
    <glyph glyph-name="guilsinglleft" unicode="&#x2039;" horiz-adv-x="436" 
d="M354 791l-202 -179l202 -180v-92l-272 240v63l272 240v-92z" />
    <glyph glyph-name="guilsinglright" unicode="&#x203a;" horiz-adv-x="385" 
d="M41 791v92l272 -240v-63l-272 -240v92l203 180z" />
    <glyph glyph-name="fraction" unicode="&#x2044;" horiz-adv-x="299" 
d="M-268 0h-58l895 1434h56z" />
    <glyph glyph-name="Euro" unicode="&#x20ac;" horiz-adv-x="1392" 
d="M1239 309h92q-50 -153 -189.5 -240t-340.5 -87q-117 0 -217.5 36t-181 106t-134 181.5t-71.5 255.5h-125v62h118q-4 62 -4 94q0 41 2 59h-116v62h121q14 153 66.5 271.5t133.5 192.5t184 112t224 38q200 0 338 -87.5t186 -240.5h-92q-43 113 -154.5 180.5t-277.5 67.5
q-211 0 -352 -134t-168 -400h436v-62h-441q-2 -18 -2 -59q0 -17 5 -94h438v-62h-432q34 -247 173 -373.5t343 -126.5q168 0 281 67.5t157 180.5z" />
    <glyph glyph-name="trademark" unicode="&#x2122;" horiz-adv-x="980" 
d="M410 1380h-136v-315h-59v315h-133v54h328v-54zM899 1434v-369h-59v260l-125 -260h-45l-125 260v-260h-60v369h60l147 -301l148 301h59z" />
    <glyph glyph-name="partialdiff" unicode="&#x2202;" horiz-adv-x="1163" 
d="M559 961q159 0 271 -73t161 -216q1 124 -10.5 226.5t-42 193.5t-79 153.5t-124 98.5t-174.5 36q-80 0 -143 -23t-102.5 -62.5t-62.5 -86t-30 -98.5h-73q5 68 34.5 129t79.5 109t127 76t170 28q508 0 508 -770q0 -338 -123.5 -519t-367.5 -181q-222 0 -348 138.5
t-126 356.5q0 212 123.5 348t331.5 136zM580 55q127 0 217.5 65t132 167.5t41.5 230.5q0 155 -114 266t-284 111q-186 0 -287.5 -115t-101.5 -303q0 -189 105 -305.5t291 -116.5z" />
    <glyph glyph-name="product" unicode="&#x220f;" horiz-adv-x="1308" 
d="M92 1638h1125v-2027h-76v1952h-973v-1952h-76v2027z" />
    <glyph glyph-name="summation" unicode="&#x2211;" horiz-adv-x="1318" 
d="M1227 1559h-998l521 -934l-521 -934h998v-80h-1135l563 1014l-563 1013h1135v-79z" />
    <glyph glyph-name="minus" unicode="&#x2212;" horiz-adv-x="870" 
d="M80 578h567v-70h-567v70z" />
    <glyph glyph-name="radical" unicode="&#x221a;" horiz-adv-x="1419" 
d="M1327 1638l-573 -2027h-76l-373 975h-213v84h266l353 -930l536 1898h80z" />
    <glyph glyph-name="infinity" unicode="&#x221e;" horiz-adv-x="1624" 
d="M1200 866q138 0 234 -95t96 -234q0 -144 -95.5 -240t-234.5 -96q-113 0 -205.5 69t-181.5 199q-91 -130 -183.5 -199t-205.5 -69q-139 0 -234.5 96t-95.5 240q0 139 96 234t234 95q112 0 204.5 -67.5t184.5 -194.5q59 82 113.5 136.5t125.5 90t148 35.5zM430 279
q51 0 98.5 21t90 60t76 80.5t69.5 96.5q-77 115 -157.5 183t-176.5 68q-110 0 -181 -70.5t-71 -180.5q0 -113 71 -185.5t181 -72.5zM1194 279q110 0 180 72.5t70 185.5q0 110 -70 180.5t-180 70.5q-51 0 -99 -20t-90 -58t-75.5 -78.5t-69.5 -94.5q78 -119 157.5 -188.5
t176.5 -69.5z" />
    <glyph glyph-name="integral" unicode="&#x222b;" horiz-adv-x="567" 
d="M242 1141q0 76 15 132.5t40 90t63 53t77 26.5t89 7v-76q-99 0 -149.5 -49t-50.5 -180v-1225q0 -309 -285 -309v76q94 0 147.5 51t53.5 178v1225z" />
    <glyph glyph-name="approxequal" unicode="&#x2248;" horiz-adv-x="862" 
d="M713 809h57q0 -87 -55 -133.5t-131 -46.5q-48 0 -92 23.5t-72 51t-66.5 51t-77.5 23.5q-65 0 -96.5 -33.5t-29.5 -72.5h-58q0 85 55.5 131.5t131.5 46.5q40 0 75.5 -15.5t62 -37.5t52 -44t55.5 -37.5t62 -15.5q66 0 97.5 34.5t29.5 74.5zM713 481h57q0 -87 -55 -133.5
t-131 -46.5q-39 0 -75 15.5t-62.5 37.5t-52 44t-56 37.5t-62.5 15.5q-65 0 -96.5 -34t-29.5 -73h-58q0 85 55.5 131.5t131.5 46.5q40 0 75.5 -15.5t62 -37t52 -43.5t55.5 -37.5t62 -15.5q66 0 97.5 34t29.5 74z" />
    <glyph glyph-name="notequal" unicode="&#x2260;" horiz-adv-x="870" 
d="M690 1149l-145 -373h102v-69h-129l-100 -258h229v-70h-256l-147 -379h-64l148 379h-248v70h274l101 258h-375v69h401l146 373h63z" />
    <glyph glyph-name="lessequal" unicode="&#x2264;" horiz-adv-x="909" 
d="M805 403l-643 365l643 365v81l-703 -403v-88l703 -401v81zM102 72h705v-72h-705v72z" />
    <glyph glyph-name="greaterequal" unicode="&#x2265;" horiz-adv-x="909" 
d="M104 403v-81l703 401v88l-703 403v-81l644 -365zM807 72v-72h-705v72h705z" />
    <glyph glyph-name="lozenge" unicode="&#x25ca;" horiz-adv-x="919" 
d="M510 1434l317 -717l-317 -717h-100l-318 717l318 717h100zM461 86l278 631l-278 631l-281 -631z" />
    <glyph glyph-name="G.ss01" horiz-adv-x="1363" 
d="M817 698h453v-698h-80v272q-139 -290 -481 -290q-135 0 -246 44.5t-194 132.5t-129 230.5t-46 327.5q0 183 46 325t129 231t194 134t246 45q193 0 321 -81t180 -224h-92q-45 105 -147 165t-262 60q-116 0 -210.5 -39.5t-166 -117.5t-111 -205t-39.5 -293q0 -168 40 -296
t112 -205.5t166 -116t209 -38.5q215 0 347 125t132 320v119h-371v73z" />
    <glyph glyph-name="R.ss01" horiz-adv-x="1177" 
d="M1104 0h-94l-326 555q-50 -4 -78 -4h-395v-551h-86v1434h481q235 0 361.5 -115.5t126.5 -329.5q0 -168 -83.5 -276.5t-240.5 -145.5zM211 631h399q192 0 293 91.5t101 266.5q0 178 -101 271.5t-293 93.5h-399v-723z" />
    <glyph glyph-name="G.ss05" horiz-adv-x="1363" 
d="M817 698h453v-698h-80v272q-139 -290 -481 -290q-135 0 -246 44.5t-194 132.5t-129 230.5t-46 327.5q0 183 46 325t129 231t194 134t246 45q193 0 321 -81t180 -224h-92q-45 105 -147 165t-262 60q-116 0 -210.5 -39.5t-166 -117.5t-111 -205t-39.5 -293q0 -168 40 -296
t112 -205.5t166 -116t209 -38.5q215 0 347 125t132 320v119h-371v73z" />
    <glyph glyph-name="i.loclTRK" horiz-adv-x="333" 
d="M119 1452h92v-160h-92v160zM125 1065h84v-1065h-84v1065z" />
    <glyph glyph-name="a.ss01" 
d="M549 1075q131 0 233.5 -60.5t163.5 -183.5v234h84v-1065h-84v250q-61 -135 -163.5 -199.5t-233.5 -64.5q-95 0 -179 33.5t-151 98t-106 171.5t-39 243q0 109 26 199.5t70.5 153t105 106t129.5 64t144 20.5zM555 59q78 0 148 29t126.5 85t89.5 148.5t33 210.5
q0 121 -33 213.5t-90 147t-126 81.5t-148 27t-149 -27.5t-126 -82.5t-89 -147.5t-33 -211.5q0 -120 33 -213t89 -148.5t126 -83.5t149 -28z" />
    <glyph glyph-name="aacute.ss01" 
d="M492 1190h77l205 262h-94zM549 1075q131 0 233.5 -60.5t163.5 -183.5v234h84v-1065h-84v250q-61 -135 -163.5 -199.5t-233.5 -64.5q-95 0 -179 33.5t-151 98t-106 171.5t-39 243q0 109 26 199.5t70.5 153t105 106t129.5 64t144 20.5zM555 59q78 0 148 29t126.5 85
t89.5 148.5t33 210.5q0 121 -33 213.5t-90 147t-126 81.5t-148 27t-149 -27.5t-126 -82.5t-89 -147.5t-33 -211.5q0 -120 33 -213t89 -148.5t126 -83.5t149 -28z" />
    <glyph glyph-name="abreve.ss01" 
d="M778 1452h66q0 -43 -14 -82.5t-43.5 -74.5t-83.5 -55.5t-125 -20.5t-124 20.5t-83 55.5t-44 74.5t-14 82.5h66q14 -166 199 -166q182 0 200 166zM549 1075q131 0 233.5 -60.5t163.5 -183.5v234h84v-1065h-84v250q-61 -135 -163.5 -199.5t-233.5 -64.5q-95 0 -179 33.5
t-151 98t-106 171.5t-39 243q0 109 26 199.5t70.5 153t105 106t129.5 64t144 20.5zM555 59q78 0 148 29t126.5 85t89.5 148.5t33 210.5q0 121 -33 213.5t-90 147t-126 81.5t-148 27t-149 -27.5t-126 -82.5t-89 -147.5t-33 -211.5q0 -120 33 -213t89 -148.5t126 -83.5
t149 -28z" />
    <glyph glyph-name="uni01CE.ss01" 
d="M776 1434h72l-209 -252h-129l-209 252h72l202 -195zM549 1075q131 0 233.5 -60.5t163.5 -183.5v234h84v-1065h-84v250q-61 -135 -163.5 -199.5t-233.5 -64.5q-95 0 -179 33.5t-151 98t-106 171.5t-39 243q0 109 26 199.5t70.5 153t105 106t129.5 64t144 20.5zM555 59
q78 0 148 29t126.5 85t89.5 148.5t33 210.5q0 121 -33 213.5t-90 147t-126 81.5t-148 27t-149 -27.5t-126 -82.5t-89 -147.5t-33 -211.5q0 -120 33 -213t89 -148.5t126 -83.5t149 -28z" />
    <glyph glyph-name="acircumflex.ss01" 
d="M778 1200l-200 195l-203 -195h-72l209 252h129l209 -252h-72zM549 1075q131 0 233.5 -60.5t163.5 -183.5v234h84v-1065h-84v250q-61 -135 -163.5 -199.5t-233.5 -64.5q-95 0 -179 33.5t-151 98t-106 171.5t-39 243q0 109 26 199.5t70.5 153t105 106t129.5 64t144 20.5z
M555 59q78 0 148 29t126.5 85t89.5 148.5t33 210.5q0 121 -33 213.5t-90 147t-126 81.5t-148 27t-149 -27.5t-126 -82.5t-89 -147.5t-33 -211.5q0 -120 33 -213t89 -148.5t126 -83.5t149 -28z" />
    <glyph glyph-name="adieresis.ss01" 
d="M326 1452h92v-160h-92v160zM737 1452h92v-160h-92v160zM549 1075q131 0 233.5 -60.5t163.5 -183.5v234h84v-1065h-84v250q-61 -135 -163.5 -199.5t-233.5 -64.5q-95 0 -179 33.5t-151 98t-106 171.5t-39 243q0 109 26 199.5t70.5 153t105 106t129.5 64t144 20.5zM555 59
q78 0 148 29t126.5 85t89.5 148.5t33 210.5q0 121 -33 213.5t-90 147t-126 81.5t-148 27t-149 -27.5t-126 -82.5t-89 -147.5t-33 -211.5q0 -120 33 -213t89 -148.5t126 -83.5t149 -28z" />
    <glyph glyph-name="agrave.ss01" 
d="M662 1190l-189 262h-94l205 -262h78zM549 1075q131 0 233.5 -60.5t163.5 -183.5v234h84v-1065h-84v250q-61 -135 -163.5 -199.5t-233.5 -64.5q-95 0 -179 33.5t-151 98t-106 171.5t-39 243q0 109 26 199.5t70.5 153t105 106t129.5 64t144 20.5zM555 59q78 0 148 29
t126.5 85t89.5 148.5t33 210.5q0 121 -33 213.5t-90 147t-126 81.5t-148 27t-149 -27.5t-126 -82.5t-89 -147.5t-33 -211.5q0 -120 33 -213t89 -148.5t126 -83.5t149 -28z" />
    <glyph glyph-name="amacron.ss01" 
d="M297 1452h563v-61h-563v61zM549 1075q131 0 233.5 -60.5t163.5 -183.5v234h84v-1065h-84v250q-61 -135 -163.5 -199.5t-233.5 -64.5q-95 0 -179 33.5t-151 98t-106 171.5t-39 243q0 109 26 199.5t70.5 153t105 106t129.5 64t144 20.5zM555 59q78 0 148 29t126.5 85
t89.5 148.5t33 210.5q0 121 -33 213.5t-90 147t-126 81.5t-148 27t-149 -27.5t-126 -82.5t-89 -147.5t-33 -211.5q0 -120 33 -213t89 -148.5t126 -83.5t149 -28z" />
    <glyph glyph-name="aogonek.ss01" 
d="M946 1065h84v-1065h-14q-106 -44 -173 -106.5t-67 -139.5q0 -67 54.5 -96t150.5 -12v-54q-39 -16 -87.5 -17t-94 13.5t-76.5 54t-31 97.5q0 84 76 153.5t178 106.5v250q-61 -135 -163.5 -199.5t-233.5 -64.5q-95 0 -179 33.5t-151 98t-106 171.5t-39 243q0 109 26 199.5
t70.5 153t105 106t129.5 64t144 20.5q131 0 233.5 -60.5t163.5 -183.5v234zM555 59q78 0 148 29t126.5 85t89.5 148.5t33 210.5q0 121 -33 213.5t-90 147t-126 81.5t-148 27t-149 -27.5t-126 -82.5t-89 -147.5t-33 -211.5q0 -120 33 -213t89 -148.5t126 -83.5t149 -28z" />
    <glyph glyph-name="aring.ss01" 
d="M580 1190q-68 0 -115 46.5t-47 111.5t47 111t115 46t114.5 -46t46.5 -111t-46.5 -111.5t-114.5 -46.5zM580 1243q45 0 76.5 31t31.5 74q0 44 -31 74t-77 30t-76.5 -30t-30.5 -74q0 -43 31 -74t76 -31zM549 1075q131 0 233.5 -60.5t163.5 -183.5v234h84v-1065h-84v250
q-61 -135 -163.5 -199.5t-233.5 -64.5q-95 0 -179 33.5t-151 98t-106 171.5t-39 243q0 109 26 199.5t70.5 153t105 106t129.5 64t144 20.5zM555 59q78 0 148 29t126.5 85t89.5 148.5t33 210.5q0 121 -33 213.5t-90 147t-126 81.5t-148 27t-149 -27.5t-126 -82.5t-89 -147.5
t-33 -211.5q0 -120 33 -213t89 -148.5t126 -83.5t149 -28z" />
    <glyph glyph-name="atilde.ss01" 
d="M836 1434h57q0 -82 -53.5 -126t-124.5 -44q-38 0 -72 14.5t-59 35t-49.5 41.5t-53.5 35.5t-59 14.5q-63 0 -93 -31.5t-28 -68.5h-55q0 81 53 125.5t125 44.5q46 0 87.5 -22.5t68 -49.5t63.5 -49.5t74 -22.5q62 0 91.5 32.5t27.5 70.5zM549 1075q131 0 233.5 -60.5
t163.5 -183.5v234h84v-1065h-84v250q-61 -135 -163.5 -199.5t-233.5 -64.5q-95 0 -179 33.5t-151 98t-106 171.5t-39 243q0 109 26 199.5t70.5 153t105 106t129.5 64t144 20.5zM555 59q78 0 148 29t126.5 85t89.5 148.5t33 210.5q0 121 -33 213.5t-90 147t-126 81.5t-148 27
t-149 -27.5t-126 -82.5t-89 -147.5t-33 -211.5q0 -120 33 -213t89 -148.5t126 -83.5t149 -28z" />
    <glyph glyph-name="g.ss01" horiz-adv-x="1056" 
d="M520 242q89 0 168 -19.5t144.5 -59.5t104 -108t38.5 -157q0 -73 -25.5 -132.5t-68.5 -99.5t-102 -66.5t-124 -38.5t-137 -12q-68 0 -130.5 12t-120 38.5t-100 66.5t-68 99.5t-25.5 132.5q0 222 235 297q-95 8 -151 46t-56 105q0 51 35.5 86.5t102.5 44.5q-97 97 -97 250
q0 165 105.5 257.5t271.5 92.5q176 0 279 -100q41 91 162 88v-70q-98 0 -125 -63q59 -85 59 -205q0 -165 -105.5 -257.5t-269.5 -92.5q-141 0 -233 63q-57 -6 -83 -31.5t-26 -60.5q0 -50 47.5 -78t141.5 -28h153zM219 727q0 -132 80.5 -206.5t220.5 -74.5t220.5 74.5
t80.5 206.5t-80.5 206.5t-220.5 74.5t-220.5 -74.5t-80.5 -206.5zM520 -381q75 0 138.5 14.5t117.5 45.5t84.5 87t30.5 132q0 60 -20.5 107t-55 78t-83 51.5t-101 29t-111.5 8.5q-56 0 -107 -8.5t-98.5 -29t-82 -51t-55.5 -78.5t-21 -107q0 -76 31 -132t84.5 -87t115 -45.5
t133.5 -14.5z" />
    <glyph glyph-name="l.ss01" horiz-adv-x="335" 
d="M297 -4q-172 -22 -172 139v1307h84v-1299q0 -42 20 -61.5t68 -18.5v-67z" />
    <glyph glyph-name="a.ss02" 
d="M549 1075q131 0 233.5 -60.5t163.5 -183.5v234h84v-1065h-84v250q-61 -135 -163.5 -199.5t-233.5 -64.5q-95 0 -179 33.5t-151 98t-106 171.5t-39 243q0 109 26 199.5t70.5 153t105 106t129.5 64t144 20.5zM555 59q78 0 148 29t126.5 85t89.5 148.5t33 210.5
q0 121 -33 213.5t-90 147t-126 81.5t-148 27t-149 -27.5t-126 -82.5t-89 -147.5t-33 -211.5q0 -120 33 -213t89 -148.5t126 -83.5t149 -28z" />
    <glyph glyph-name="aacute.ss02" 
d="M492 1190h77l205 262h-94zM549 1075q131 0 233.5 -60.5t163.5 -183.5v234h84v-1065h-84v250q-61 -135 -163.5 -199.5t-233.5 -64.5q-95 0 -179 33.5t-151 98t-106 171.5t-39 243q0 109 26 199.5t70.5 153t105 106t129.5 64t144 20.5zM555 59q78 0 148 29t126.5 85
t89.5 148.5t33 210.5q0 121 -33 213.5t-90 147t-126 81.5t-148 27t-149 -27.5t-126 -82.5t-89 -147.5t-33 -211.5q0 -120 33 -213t89 -148.5t126 -83.5t149 -28z" />
    <glyph glyph-name="abreve.ss02" 
d="M778 1452h66q0 -43 -14 -82.5t-43.5 -74.5t-83.5 -55.5t-125 -20.5t-124 20.5t-83 55.5t-44 74.5t-14 82.5h66q14 -166 199 -166q182 0 200 166zM549 1075q131 0 233.5 -60.5t163.5 -183.5v234h84v-1065h-84v250q-61 -135 -163.5 -199.5t-233.5 -64.5q-95 0 -179 33.5
t-151 98t-106 171.5t-39 243q0 109 26 199.5t70.5 153t105 106t129.5 64t144 20.5zM555 59q78 0 148 29t126.5 85t89.5 148.5t33 210.5q0 121 -33 213.5t-90 147t-126 81.5t-148 27t-149 -27.5t-126 -82.5t-89 -147.5t-33 -211.5q0 -120 33 -213t89 -148.5t126 -83.5
t149 -28z" />
    <glyph glyph-name="uni01CE.ss02" 
d="M776 1434h72l-209 -252h-129l-209 252h72l202 -195zM549 1075q131 0 233.5 -60.5t163.5 -183.5v234h84v-1065h-84v250q-61 -135 -163.5 -199.5t-233.5 -64.5q-95 0 -179 33.5t-151 98t-106 171.5t-39 243q0 109 26 199.5t70.5 153t105 106t129.5 64t144 20.5zM555 59
q78 0 148 29t126.5 85t89.5 148.5t33 210.5q0 121 -33 213.5t-90 147t-126 81.5t-148 27t-149 -27.5t-126 -82.5t-89 -147.5t-33 -211.5q0 -120 33 -213t89 -148.5t126 -83.5t149 -28z" />
    <glyph glyph-name="acircumflex.ss02" 
d="M778 1200l-200 195l-203 -195h-72l209 252h129l209 -252h-72zM549 1075q131 0 233.5 -60.5t163.5 -183.5v234h84v-1065h-84v250q-61 -135 -163.5 -199.5t-233.5 -64.5q-95 0 -179 33.5t-151 98t-106 171.5t-39 243q0 109 26 199.5t70.5 153t105 106t129.5 64t144 20.5z
M555 59q78 0 148 29t126.5 85t89.5 148.5t33 210.5q0 121 -33 213.5t-90 147t-126 81.5t-148 27t-149 -27.5t-126 -82.5t-89 -147.5t-33 -211.5q0 -120 33 -213t89 -148.5t126 -83.5t149 -28z" />
    <glyph glyph-name="adieresis.ss02" 
d="M326 1452h92v-160h-92v160zM737 1452h92v-160h-92v160zM549 1075q131 0 233.5 -60.5t163.5 -183.5v234h84v-1065h-84v250q-61 -135 -163.5 -199.5t-233.5 -64.5q-95 0 -179 33.5t-151 98t-106 171.5t-39 243q0 109 26 199.5t70.5 153t105 106t129.5 64t144 20.5zM555 59
q78 0 148 29t126.5 85t89.5 148.5t33 210.5q0 121 -33 213.5t-90 147t-126 81.5t-148 27t-149 -27.5t-126 -82.5t-89 -147.5t-33 -211.5q0 -120 33 -213t89 -148.5t126 -83.5t149 -28z" />
    <glyph glyph-name="agrave.ss02" 
d="M662 1190l-189 262h-94l205 -262h78zM549 1075q131 0 233.5 -60.5t163.5 -183.5v234h84v-1065h-84v250q-61 -135 -163.5 -199.5t-233.5 -64.5q-95 0 -179 33.5t-151 98t-106 171.5t-39 243q0 109 26 199.5t70.5 153t105 106t129.5 64t144 20.5zM555 59q78 0 148 29
t126.5 85t89.5 148.5t33 210.5q0 121 -33 213.5t-90 147t-126 81.5t-148 27t-149 -27.5t-126 -82.5t-89 -147.5t-33 -211.5q0 -120 33 -213t89 -148.5t126 -83.5t149 -28z" />
    <glyph glyph-name="amacron.ss02" 
d="M297 1452h563v-61h-563v61zM549 1075q131 0 233.5 -60.5t163.5 -183.5v234h84v-1065h-84v250q-61 -135 -163.5 -199.5t-233.5 -64.5q-95 0 -179 33.5t-151 98t-106 171.5t-39 243q0 109 26 199.5t70.5 153t105 106t129.5 64t144 20.5zM555 59q78 0 148 29t126.5 85
t89.5 148.5t33 210.5q0 121 -33 213.5t-90 147t-126 81.5t-148 27t-149 -27.5t-126 -82.5t-89 -147.5t-33 -211.5q0 -120 33 -213t89 -148.5t126 -83.5t149 -28z" />
    <glyph glyph-name="aogonek.ss02" 
d="M946 1065h84v-1065h-14q-106 -44 -173 -106.5t-67 -139.5q0 -67 54.5 -96t150.5 -12v-54q-39 -16 -87.5 -17t-94 13.5t-76.5 54t-31 97.5q0 84 76 153.5t178 106.5v250q-61 -135 -163.5 -199.5t-233.5 -64.5q-95 0 -179 33.5t-151 98t-106 171.5t-39 243q0 109 26 199.5
t70.5 153t105 106t129.5 64t144 20.5q131 0 233.5 -60.5t163.5 -183.5v234zM555 59q78 0 148 29t126.5 85t89.5 148.5t33 210.5q0 121 -33 213.5t-90 147t-126 81.5t-148 27t-149 -27.5t-126 -82.5t-89 -147.5t-33 -211.5q0 -120 33 -213t89 -148.5t126 -83.5t149 -28z" />
    <glyph glyph-name="aring.ss02" 
d="M580 1190q-68 0 -115 46.5t-47 111.5t47 111t115 46t114.5 -46t46.5 -111t-46.5 -111.5t-114.5 -46.5zM580 1243q45 0 76.5 31t31.5 74q0 44 -31 74t-77 30t-76.5 -30t-30.5 -74q0 -43 31 -74t76 -31zM549 1075q131 0 233.5 -60.5t163.5 -183.5v234h84v-1065h-84v250
q-61 -135 -163.5 -199.5t-233.5 -64.5q-95 0 -179 33.5t-151 98t-106 171.5t-39 243q0 109 26 199.5t70.5 153t105 106t129.5 64t144 20.5zM555 59q78 0 148 29t126.5 85t89.5 148.5t33 210.5q0 121 -33 213.5t-90 147t-126 81.5t-148 27t-149 -27.5t-126 -82.5t-89 -147.5
t-33 -211.5q0 -120 33 -213t89 -148.5t126 -83.5t149 -28z" />
    <glyph glyph-name="atilde.ss02" 
d="M836 1434h57q0 -82 -53.5 -126t-124.5 -44q-38 0 -72 14.5t-59 35t-49.5 41.5t-53.5 35.5t-59 14.5q-63 0 -93 -31.5t-28 -68.5h-55q0 81 53 125.5t125 44.5q46 0 87.5 -22.5t68 -49.5t63.5 -49.5t74 -22.5q62 0 91.5 32.5t27.5 70.5zM549 1075q131 0 233.5 -60.5
t163.5 -183.5v234h84v-1065h-84v250q-61 -135 -163.5 -199.5t-233.5 -64.5q-95 0 -179 33.5t-151 98t-106 171.5t-39 243q0 109 26 199.5t70.5 153t105 106t129.5 64t144 20.5zM555 59q78 0 148 29t126.5 85t89.5 148.5t33 210.5q0 121 -33 213.5t-90 147t-126 81.5t-148 27
t-149 -27.5t-126 -82.5t-89 -147.5t-33 -211.5q0 -120 33 -213t89 -148.5t126 -83.5t149 -28z" />
    <glyph glyph-name="g.ss03" horiz-adv-x="1056" 
d="M520 242q89 0 168 -19.5t144.5 -59.5t104 -108t38.5 -157q0 -73 -25.5 -132.5t-68.5 -99.5t-102 -66.5t-124 -38.5t-137 -12q-68 0 -130.5 12t-120 38.5t-100 66.5t-68 99.5t-25.5 132.5q0 222 235 297q-95 8 -151 46t-56 105q0 51 35.5 86.5t102.5 44.5q-97 97 -97 250
q0 165 105.5 257.5t271.5 92.5q176 0 279 -100q41 91 162 88v-70q-98 0 -125 -63q59 -85 59 -205q0 -165 -105.5 -257.5t-269.5 -92.5q-141 0 -233 63q-57 -6 -83 -31.5t-26 -60.5q0 -50 47.5 -78t141.5 -28h153zM219 727q0 -132 80.5 -206.5t220.5 -74.5t220.5 74.5
t80.5 206.5t-80.5 206.5t-220.5 74.5t-220.5 -74.5t-80.5 -206.5zM520 -381q75 0 138.5 14.5t117.5 45.5t84.5 87t30.5 132q0 60 -20.5 107t-55 78t-83 51.5t-101 29t-111.5 8.5q-56 0 -107 -8.5t-98.5 -29t-82 -51t-55.5 -78.5t-21 -107q0 -76 31 -132t84.5 -87t115 -45.5
t133.5 -14.5z" />
    <glyph glyph-name="l.ss04" horiz-adv-x="335" 
d="M297 -4q-172 -22 -172 139v1307h84v-1299q0 -42 20 -61.5t68 -18.5v-67z" />
    <glyph glyph-name="f_t" horiz-adv-x="1200" 
d="M1006 61q59 0 120 19v-72q-64 -20 -149 -20q-156 0 -156 145v860h-551v-993h-84v993h-145v72h145v152q0 72 18.5 122.5t53 77t75 38t91.5 11.5q82 0 156 -22v-68q-93 19 -148 19q-81 0 -121.5 -41t-40.5 -137v-152h551v266h84v-266h201v-72h-201v-852q0 -41 23 -60.5
t78 -19.5z" />
    <glyph glyph-name="r_t" horiz-adv-x="1200" 
d="M1006 61q59 0 120 19v-72q-64 -20 -149 -20q-156 0 -156 145v860h-151q-205 0 -316 -86.5t-145 -251.5v-655h-84v1065h84v-272q13 55 44.5 101t84.5 85t136.5 62t189.5 24h157v266h84v-266h201v-72h-201v-852q0 -41 23 -60.5t78 -19.5z" />
    <glyph glyph-name="zero.dnom" horiz-adv-x="571" 
d="M287 -4q96 0 154.5 71.5t58.5 186.5v27q0 115 -58.5 186.5t-154.5 71.5t-155.5 -71.5t-59.5 -186.5v-27q0 -114 59.5 -186t155.5 -72zM287 498q73 0 120.5 -58t47.5 -159v-27q0 -101 -47.5 -159t-120.5 -58t-121.5 58t-48.5 159v27q0 101 48.5 159t121.5 58z" />
    <glyph glyph-name="one.dnom" horiz-adv-x="325" 
d="M233 535v-535h-45v467q-29 -53 -106 -47v41q35 0 65 22.5t41 51.5h45z" />
    <glyph glyph-name="two.dnom" horiz-adv-x="503" 
d="M82 0v18q0 72 37 127t117 107q39 25 54 35.5t34.5 29t25.5 36.5t6 44q0 45 -29.5 74t-82.5 29q-55 0 -85 -31t-30 -86v-12h-47v12q0 71 44.5 115.5t117.5 44.5q72 0 115.5 -41t43.5 -105q0 -56 -36 -98t-107 -82q-62 -38 -95.5 -81.5t-33.5 -84.5v-6h281v-45h-330z" />
    <glyph glyph-name="three.dnom" horiz-adv-x="540" 
d="M338 285q48 -10 84.5 -46t36.5 -92q0 -67 -49 -111t-138 -44t-139.5 47.5t-50.5 126.5h45q3 -131 147 -131q62 0 101 28t39 84t-42 84.5t-110 28.5h-22v39h22q60 0 94.5 28.5t34.5 71.5q0 47 -31.5 74t-87.5 27q-129 0 -129 -125h-43q0 79 46 123.5t126 44.5
q75 0 118.5 -40.5t43.5 -101.5q0 -43 -26.5 -74t-69.5 -42z" />
    <glyph glyph-name="four.dnom" horiz-adv-x="518" 
d="M436 135h-61v-135h-47v135h-246v39l246 361h47v-361h61v-39zM328 174v291l-199 -291h199z" />
    <glyph glyph-name="five.dnom" horiz-adv-x="485" 
d="M256 350q68 0 118 -46.5t50 -129.5q0 -85 -49 -134.5t-135 -49.5q-81 0 -130 49t-49 125h41q2 -55 36.5 -94t101.5 -39q70 0 105.5 38.5t35.5 104.5q0 71 -40.5 104t-90.5 33q-82 0 -133 -63h-45l45 287h266v-41h-233l-33 -203q13 22 49.5 40.5t89.5 18.5z" />
    <glyph glyph-name="six.dnom" horiz-adv-x="532" 
d="M276 346q69 0 122 -42.5t53 -127.5q0 -93 -51 -139.5t-128 -46.5q-84 0 -137 62t-53 202q0 60 9.5 109.5t30.5 90.5t58.5 64t89.5 23q80 0 120 -44t44 -100h-39q-20 103 -125 103q-31 0 -55.5 -10.5t-39.5 -31.5t-25 -42t-15 -52t-7 -51.5t-3 -50.5q17 34 56.5 59
t94.5 25zM274 31q58 0 95 35.5t37 109.5q0 64 -37 96.5t-95 32.5q-59 0 -99 -35.5t-40 -91.5q0 -64 38 -105.5t101 -41.5z" />
    <glyph glyph-name="seven.dnom" horiz-adv-x="454" 
d="M393 535v-41l-219 -494h-47l225 494h-311v41h352z" />
    <glyph glyph-name="eight.dnom" horiz-adv-x="466" 
d="M317 291q49 -23 74 -55.5t25 -83.5q0 -69 -52.5 -112.5t-130.5 -43.5q-77 0 -129.5 43.5t-52.5 112.5q0 96 101 139q-70 47 -70 115q0 55 40 94t111 39q74 0 113 -39t39 -94q0 -69 -68 -115zM123 406q0 -43 33.5 -72t76.5 -29q48 0 80.5 28.5t32.5 72.5q0 41 -27.5 67.5
t-85.5 26.5q-54 0 -82 -27t-28 -67zM233 35q65 0 102.5 30.5t37.5 88.5q0 56 -38 84t-102 28q-59 0 -100 -28.5t-41 -83.5q0 -56 41 -87.5t100 -31.5z" />
    <glyph glyph-name="nine.dnom" horiz-adv-x="532" 
d="M256 184q-69 0 -121.5 42.5t-52.5 127.5q0 93 51 140t127 47q84 0 137.5 -62.5t53.5 -202.5q0 -81 -16.5 -142.5t-60.5 -102.5t-112 -41q-80 0 -120 43.5t-44 99.5h39q7 -44 37 -73t88 -29q27 0 49 9t36.5 21.5t25.5 34.5t16.5 39.5t10 46t5.5 43.5t3 43
q-50 -84 -152 -84zM258 500q-58 0 -94.5 -36t-36.5 -110q0 -64 36.5 -96.5t94.5 -32.5q59 0 99 35.5t40 91.5q0 64 -38 106t-101 42z" />
    <glyph glyph-name="zero.numr" horiz-adv-x="571" 
d="M287 897q96 0 154.5 71.5t58.5 186.5v27q0 115 -58.5 186.5t-154.5 71.5t-155.5 -72t-59.5 -186v-27q0 -115 59.5 -186.5t155.5 -71.5zM287 1399q73 0 120.5 -58t47.5 -159v-27q0 -101 -47.5 -159t-120.5 -58t-121.5 58t-48.5 159v27q0 101 48.5 159t121.5 58z" />
    <glyph glyph-name="one.numr" horiz-adv-x="335" 
d="M233 1436v-535h-45v467q-29 -53 -106 -47v41q35 0 65 22.5t41 51.5h45z" />
    <glyph glyph-name="two.numr" horiz-adv-x="503" 
d="M82 901v19q0 72 37 126.5t117 106.5q39 25 54 35.5t34.5 29t25.5 36.5t6 44q0 45 -29.5 74t-82.5 29q-55 0 -85 -31t-30 -86v-12h-47v12q0 71 44.5 115.5t117.5 44.5q72 0 115.5 -41t43.5 -105q0 -56 -36 -98t-107 -82q-62 -38 -95.5 -81.5t-33.5 -84.5v-6h281v-45h-330z
" />
    <glyph glyph-name="three.numr" horiz-adv-x="591" 
d="M352 1186q48 -11 84.5 -46t36.5 -91q0 -68 -48.5 -112t-137.5 -44q-90 0 -140.5 47.5t-50.5 126.5h45q3 -131 148 -131q62 0 100.5 28.5t38.5 84.5t-42 84t-110 28h-22v39h22q60 0 95 28.5t35 71.5q0 47 -31.5 74t-87.5 27q-129 0 -129 -125h-43q0 79 46 123.5t126 44.5
q76 0 119 -40t43 -101q0 -43 -27 -74.5t-70 -42.5z" />
    <glyph glyph-name="four.numr" horiz-adv-x="518" 
d="M436 1036h-61v-135h-47v135h-246v39l246 361h47v-361h61v-39zM328 1075v291l-199 -291h199z" />
    <glyph glyph-name="five.numr" horiz-adv-x="485" 
d="M256 1251q68 0 118 -46.5t50 -129.5q0 -85 -49 -134.5t-135 -49.5q-81 0 -130 49t-49 125h41q2 -55 36.5 -94t101.5 -39q70 0 105.5 38.5t35.5 104.5q0 71 -40.5 104t-90.5 33q-82 0 -133 -63h-45l45 287h266v-41h-233l-33 -203q13 22 49.5 40.5t89.5 18.5z" />
    <glyph glyph-name="six.numr" horiz-adv-x="532" 
d="M276 1245q69 0 122 -42.5t53 -127.5q0 -93 -51 -139.5t-128 -46.5q-84 0 -137 62t-53 202q0 60 9.5 109.5t30.5 90.5t58.5 64t89.5 23q80 0 120 -44t44 -100h-39q-20 103 -125 103q-31 0 -55.5 -10.5t-39.5 -31.5t-25 -42t-15 -52t-7 -51.5t-3 -50.5q17 34 56.5 59
t94.5 25zM274 930q58 0 95 35.5t37 109.5q0 64 -37 96.5t-95 32.5q-59 0 -99 -35.5t-40 -91.5q0 -64 38 -105.5t101 -41.5z" />
    <glyph glyph-name="seven.numr" horiz-adv-x="454" 
d="M393 1436v-41l-219 -494h-47l225 494h-311v41h352z" />
    <glyph glyph-name="eight.numr" horiz-adv-x="466" 
d="M317 1192q49 -23 74 -55.5t25 -83.5q0 -69 -52.5 -112.5t-130.5 -43.5q-77 0 -129.5 43.5t-52.5 112.5q0 96 101 139q-70 47 -70 115q0 55 40 94t111 39q74 0 113 -39t39 -94q0 -69 -68 -115zM123 1307q0 -43 33.5 -72t76.5 -29q48 0 80.5 28.5t32.5 72.5
q0 41 -27.5 67.5t-85.5 26.5q-54 0 -82 -27t-28 -67zM233 936q65 0 102.5 30.5t37.5 88.5q0 56 -38 84t-102 28q-59 0 -100 -28.5t-41 -83.5q0 -56 41 -87.5t100 -31.5z" />
    <glyph glyph-name="nine.numr" horiz-adv-x="532" 
d="M256 1085q-69 0 -121.5 42.5t-52.5 127.5q0 93 51 140t127 47q84 0 137.5 -62t53.5 -202q0 -60 -9.5 -109.5t-31 -90.5t-59 -64t-89.5 -23q-80 0 -120 43.5t-44 99.5h39q7 -44 37 -73t88 -29q27 0 49 9t36.5 21.5t25.5 34.5t16.5 39.5t10 46t5.5 43.5t3 43
q-50 -84 -152 -84zM258 1401q-58 0 -94.5 -36t-36.5 -110q0 -64 36.5 -96.5t94.5 -32.5q59 0 99 35.5t40 91.5q0 64 -38 106t-101 42z" />
    <glyph glyph-name="ampersand.001" horiz-adv-x="1341" 
d="M1268 0h-99l-168 190q-87 -111 -203 -163t-239 -52q-111 0 -201 32.5t-146.5 87t-87 123.5t-30.5 144q0 138 81 238t271 213q-43 46 -71.5 80t-63 83.5t-52 100.5t-17.5 101q0 127 83.5 205.5t235.5 78.5q140 0 222.5 -78.5t82.5 -199.5q0 -116 -60.5 -194t-246.5 -191
l430 -486q96 170 105 416h80q-14 -286 -130 -477zM561 1393q-112 0 -179 -57.5t-67 -161.5q0 -41 16 -83t51.5 -89t58.5 -74t69 -76l10 6q73 44 116.5 74.5t83.5 69.5t57.5 82t17.5 94q0 100 -64.5 157.5t-169.5 57.5zM559 53q112 0 213 50t176 147l-452 510l-4 -2
q-153 -89 -232.5 -179.5t-79.5 -211.5q0 -137 106 -225.5t273 -88.5z" />
    <glyph glyph-name="Aacutecy" horiz-adv-x="1357" 
d="M874 1821l-204 -262h-78l188 262h94zM1200 0l-170 426h-702l-170 -426h-95l580 1434h72l579 -1434h-94zM356 498h645l-323 811z" />
    <glyph glyph-name="Ieacutecy" horiz-adv-x="1091" 
d="M745 1821l-204 -262h-78l188 262h94zM211 80h819v-80h-905v1434h885v-80h-799v-574h696v-75h-696v-625z" />
    <glyph glyph-name="Iiacutecy" horiz-adv-x="1316" 
d="M573 1559h78l205 262h-94zM125 1434h88v-1313h4l866 1313h109v-1434h-86v1315h-4l-866 -1315h-111v1434z" />
    <glyph glyph-name="Oacutecy" horiz-adv-x="1435" 
d="M631 1559h78l204 262h-94zM717 1452q136 0 249 -46t197 -135t131 -230.5t47 -323.5t-47 -323.5t-131 -230.5t-197 -135t-249 -46q-135 0 -247.5 46t-197 135t-131.5 230.5t-47 323.5t47 323.5t131.5 230.5t197 135t247.5 46zM717 61q119 0 216 39t169 117.5t111.5 205.5
t39.5 294q0 328 -145 491.5t-391 163.5q-119 0 -215.5 -39t-168.5 -117t-111.5 -205t-39.5 -294t39.5 -294t111.5 -205.5t168.5 -117.5t215.5 -39z" />
    <glyph glyph-name="Uacutecy" horiz-adv-x="1105" 
d="M467 1559h78l205 262h-95zM952 1434h92l-493 -1190q-116 -288 -356 -252v84q99 -13 166 33.5t110 154.5q23 53 26.5 86.5t-8.5 61.5l-426 1022h91l399 -965z" />
    <glyph glyph-name="Yeruacutecy" horiz-adv-x="1464" 
d="M930 1821l-205 -262h-78l189 262h94zM606 887q234 0 361 -115.5t127 -325.5q0 -214 -126.5 -330t-361.5 -116h-481v1434h86v-547h395zM1253 1434h86v-1434h-86v1434zM610 82q193 0 293.5 92.5t100.5 271.5q0 175 -101 267t-293 92h-399v-723h399z" />
    <glyph glyph-name="Ereversedacutecy" horiz-adv-x="1333" 
d="M862 1821l-205 -262h-77l188 262h94zM625 1452q132 0 242.5 -45.5t194 -134t130.5 -230.5t47 -325t-47 -325t-130.5 -230.5t-194 -134t-242.5 -45.5q-201 0 -341 87t-190 240h92q44 -113 157.5 -180.5t281.5 -67.5q113 0 206.5 39t165 116.5t112.5 202t42 286.5h-576v75
h574q-7 149 -50 264t-113.5 186t-161.5 106.5t-199 35.5q-166 0 -277.5 -67.5t-154.5 -180.5h-93q48 153 186.5 240.5t338.5 87.5z" />
    <glyph glyph-name="Iuacutecy" horiz-adv-x="1798" 
d="M1096 1821l-205 -262h-78l188 262h95zM1079 1452q136 0 249 -46t197.5 -135t131.5 -230.5t47 -323.5t-47 -323.5t-131.5 -230.5t-197.5 -135t-249 -46q-267 0 -436 172.5t-184 502.5h-248v-657h-86v1434h86v-703h246q2 178 50 316.5t131.5 226.5t195 133t245.5 45z
M1079 61q246 0 391.5 164t145.5 492t-145.5 491.5t-391.5 163.5q-119 0 -215 -39t-168 -117t-111.5 -205t-39.5 -294t39.5 -294t111.5 -205.5t168 -117.5t215 -39z" />
    <glyph glyph-name="Iaacutecy" horiz-adv-x="1222" 
d="M809 1821l-205 -262h-78l189 262h94zM1098 1434v-1434h-86v623h-520q-47 0 -85.5 -5.5t-78.5 -22t-66.5 -44t-43.5 -75t-17 -111.5v-125q0 -199 -41 -240h-86q41 41 41 240v125q0 135 57 207.5t182 95.5q-122 45 -185 141t-63 229q0 190 117.5 293t345.5 103h529z
M1012 698v658h-443q-376 0 -376 -326q0 -155 93.5 -243.5t237.5 -88.5h488z" />
    <glyph glyph-name="aacutecy" horiz-adv-x="1064" 
d="M723 1452l-205 -262h-78l189 262h94zM932 129q0 -42 17 -57.5t63 -12.5v-59q-19 -8 -43 -8q-64 0 -91.5 30t-27.5 111v115q-15 -34 -46.5 -74t-83.5 -84.5t-132.5 -74t-173.5 -29.5q-155 0 -247.5 82t-92.5 227q0 128 82.5 205.5t281.5 105.5q108 15 155 22t132 25.5
t123 38.5v23q0 158 -71.5 223.5t-239.5 65.5q-281 0 -312 -181h-82q17 124 121 188t275 64q197 0 295 -87.5t98 -293.5v-565zM848 342v285q-57 -32 -404 -84q-159 -24 -222.5 -82t-63.5 -164q0 -113 71 -177.5t195 -64.5q75 0 143 24t112.5 57t82.5 77t55.5 73t30.5 56z" />
    <glyph glyph-name="ieacutecy" horiz-adv-x="1079" 
d="M743 1452l-204 -262h-78l188 262h94zM1008 543q0 -33 -2 -51h-850q10 -218 120 -326.5t285 -108.5q111 0 184 31t134 111h88q-74 -115 -171 -164t-239 -49q-215 0 -349 142t-134 402q0 133 38.5 238.5t104.5 171.5t151 100.5t183 34.5q96 0 178 -34t144.5 -99
t98.5 -167.5t36 -231.5zM156 561h770q-3 215 -106 329t-269 114q-164 0 -275 -113t-120 -330z" />
    <glyph glyph-name="iiacutecy" horiz-adv-x="1150" 
d="M489 1190h78l205 262h-94zM125 1065h84v-967h4l707 967h106v-1065h-84v969h-4l-707 -969h-106v1065z" />
    <glyph glyph-name="oacutecy" horiz-adv-x="1095" 
d="M463 1190h78l204 262h-94zM549 1075q72 0 140.5 -21.5t129 -66t105.5 -107.5t71.5 -153t26.5 -195q0 -107 -26.5 -198t-71.5 -154t-105.5 -107.5t-128.5 -65.5t-141 -21t-141.5 21t-129.5 65.5t-106 107.5t-71.5 154t-26.5 198q0 105 26.5 195t71.5 153t106 107.5
t129.5 66t141.5 21.5zM940 532q0 115 -33 206t-88.5 147t-124.5 85t-145 29t-145.5 -29t-125.5 -85t-89 -147t-33 -206q0 -118 33 -210.5t89 -148t125 -84t146 -28.5t145.5 28.5t124 84t88.5 148t33 210.5z" />
    <glyph glyph-name="uacutecy" horiz-adv-x="1044" 
d="M436 1190h78l205 262h-94zM905 1065h88l-473 -1190q-115 -288 -356 -252v78q202 -30 287 193q3 7 7 19t6 17t5 14t4 13t2.5 10.5t1.5 10t0.5 8.5t-0.5 8.5t-2.5 8t-3.5 9.5l-418 1053h86l383 -989z" />
    <glyph glyph-name="yeruacutecy" horiz-adv-x="1300" 
d="M848 1452l-205 -262h-78l189 262h94zM537 659q205 0 313 -85t108 -244t-108 -244.5t-313 -85.5h-412v1065h84v-406h328zM1094 1065h84v-1065h-84v1065zM541 72q336 0 336 258t-336 258h-332v-516h332z" />
    <glyph glyph-name="ereversedacutecy" horiz-adv-x="1056" 
d="M725 1452l-205 -262h-78l189 262h94zM502 1075q94 0 179 -34t153.5 -99t108.5 -171.5t40 -240.5t-40.5 -240.5t-109 -171.5t-153.5 -98.5t-180 -33.5q-334 0 -426 301h80q44 -118 129.5 -173t216.5 -55q77 0 146.5 27t127.5 81t93 145t36 208h-414v64h412
q-7 105 -43.5 187t-92.5 131t-123 74t-140 25q-256 0 -342 -221h-80q48 150 158.5 222.5t263.5 72.5z" />
    <glyph glyph-name="iuacutecy" horiz-adv-x="1392" 
d="M893 1452l-205 -262h-78l189 262h94zM846 1075q72 0 140.5 -21.5t129 -66t105.5 -107.5t71.5 -153t26.5 -195q0 -107 -26.5 -198t-71.5 -154t-105.5 -107.5t-128.5 -65.5t-141 -21q-88 0 -169.5 32t-148.5 93t-109 160t-48 223h-162v-496h-84v1065h84v-496h162
q5 123 47.5 222t109 160t148.5 93.5t170 32.5zM846 61q77 0 145.5 28.5t124 84t88.5 148t33 210.5q0 115 -33 206t-88.5 147t-124.5 85t-145 29t-145.5 -29t-125.5 -85t-89 -147t-33 -206q0 -118 33 -210.5t89 -148t125 -84t146 -28.5z" />
    <glyph glyph-name="iaacutecy" horiz-adv-x="1036" 
d="M717 1452l-205 -262h-78l189 262h94zM911 1065v-1065h-84v406h-448q-113 0 -158 -36t-45 -116v-96q0 -130 -31 -158h-84q31 28 31 158v96q0 82 35 131t121 68q-170 81 -170 282q0 159 108.5 244.5t313.5 85.5h411zM827 477v516h-331q-336 0 -336 -258t336 -258h331z" />
    </font>
</defs>
</svg>
