<?xml version="1.0" standalone="no"?>
<!DOCTYPE svg PUBLIC "-//W3C//DTD SVG 1.1//EN" "http://www.w3.org/Graphics/SVG/1.1/DTD/svg11.dtd" >
<svg xmlns="http://www.w3.org/2000/svg" xmlns:xlink="http://www.w3.org/1999/xlink" version="1.1">
<metadata>
Created by FontForge 20170731 at Mon Aug  7 16:11:19 2023
 By Aleksey,,,
(c) 2017 Connary Fagen
</metadata>
<defs>
<font id="ArticulatCF-ExtraLightOblique" horiz-adv-x="1116" >
  <font-face 
    font-family="Articulat CF Extra Light"
    font-weight="250"
    font-style="oblique"
    font-stretch="normal"
    units-per-em="2048"
    panose-1="0 0 3 0 0 0 0 0 0 0"
    ascent="1638"
    descent="-410"
    x-height="1065"
    cap-height="1434"
    bbox="-442 -537 2259 1874"
    underline-thickness="102"
    underline-position="-307"
    slope="-9"
    unicode-range="U+0020-FB02"
  />
<missing-glyph horiz-adv-x="1044" 
d="M856 1638v-2089h-661v2089h661zM696 1499h-346v-69h137v-78h-139v-68h348v68h-139v78h139v69zM557 1229h-209v-217h348v71h-139v146zM487 1157v-74h-69v74h69zM696 954h-348v-67h139v-78h-139v-70h209v148h139v67zM696 829h-69v-137h-279v-71h348v208zM696 575h-209v-116
h70v47h70v-98h-209v167h-70v-235h348v235zM696 213h-348v-236h348v236zM627 145v-98h-209v98h209zM696 -70h-348v-69h148l-148 -99v-69h348v69h-213l146 99h67v69z" />
    <glyph glyph-name="fi" unicode="fi" horiz-adv-x="948" 
d="M346 1217l-24 -152h294l-10 -72h-295l-157 -993h-84l157 993h-153l10 72h154l24 149q38 252 275 252q80 0 155 -20l-10 -68q-87 17 -143 17q-86 0 -132.5 -39.5t-60.5 -138.5zM885 1452h82l-17 -109h-82zM657 0l168 1065h82l-168 -1065h-82z" />
    <glyph glyph-name="fl" unicode="fl" horiz-adv-x="966" 
d="M346 1217l-24 -152h294l-10 -72h-295l-157 -993h-84l157 993h-153l10 72h154l24 149q38 252 275 252q80 0 155 -20l-10 -68q-87 17 -143 17q-86 0 -132.5 -39.5t-60.5 -138.5zM903 1434h82l-225 -1434h-82z" />
    <glyph glyph-name=".notdef" horiz-adv-x="1044" 
d="M856 1638v-2089h-661v2089h661zM696 1499h-346v-69h137v-78h-139v-68h348v68h-139v78h139v69zM557 1229h-209v-217h348v71h-139v146zM487 1157v-74h-69v74h69zM696 954h-348v-67h139v-78h-139v-70h209v148h139v67zM696 829h-69v-137h-279v-71h348v208zM696 575h-209v-116
h70v47h70v-98h-209v167h-70v-235h348v235zM696 213h-348v-236h348v236zM627 145v-98h-209v98h209zM696 -70h-348v-69h148l-148 -99v-69h348v69h-213l146 99h67v69z" />
    <glyph glyph-name=".null" horiz-adv-x="0" 
 />
    <glyph glyph-name="nonmarkingreturn" horiz-adv-x="682" 
 />
    <glyph glyph-name="space" unicode=" " horiz-adv-x="565" 
 />
    <glyph glyph-name="exclam" unicode="!" horiz-adv-x="356" 
d="M168 360h-78l162 1074h90zM41 133h106l-18 -133h-109z" />
    <glyph glyph-name="quotedbl" unicode="&#x22;" horiz-adv-x="460" 
d="M166 1059h84l59 375h-84zM377 1059h84l59 375h-84z" />
    <glyph glyph-name="numbersign" unicode="#" horiz-adv-x="1175" 
d="M1139 948h-236l-119 -463h232l-12 -69h-238l-107 -416h-67l106 416h-364l-107 -416h-67l106 416h-225l12 69h232l118 463h-227l12 70h234l106 416h68l-107 -416h365l107 416h67l-106 -416h229zM717 485l119 463h-365l-119 -463h365z" />
    <glyph glyph-name="dollar" unicode="$" horiz-adv-x="1179" 
d="M707 762q87 -20 149.5 -45t112 -64.5t74 -96.5t24.5 -134q0 -200 -156.5 -319t-404.5 -121l-27 -166h-65l26 168q-108 7 -187 41.5t-123.5 90.5t-64.5 123t-18 148h90q4 -299 316 -321l104 649l-65 14q-308 71 -308 313q0 84 30 155.5t88.5 127.5t153.5 89.5t218 37.5
l26 166h66l-27 -166q191 -9 288 -103.5t99 -242.5h-86q-2 51 -19.5 94t-52 81.5t-96.5 62.5t-145 28l-94 -594zM524 803l45 -10l93 581q-191 -7 -289.5 -97t-98.5 -220q0 -106 59 -165.5t191 -88.5zM518 63q204 2 330.5 97t126.5 256q0 52 -15.5 93t-39 67.5t-61.5 48
t-73 33.5t-84 24l-81 18z" />
    <glyph glyph-name="percent" unicode="%" horiz-adv-x="1443" 
d="M362 850q-96 0 -152 62.5t-56 170.5q0 94 35 176t103 133.5t154 51.5q95 0 154 -64t59 -172q0 -145 -84 -251.5t-213 -106.5zM158 0l1069 1436l73 -2l-1071 -1434h-71zM367 913q105 0 168 85t63 206q0 84 -42.5 129t-113.5 45q-107 0 -167 -89t-60 -206q0 -83 41 -126.5
t111 -43.5zM1008 -10q-96 0 -152.5 62.5t-56.5 170.5q0 147 81.5 254t211.5 107q95 0 153 -64t58 -172q0 -143 -83.5 -250.5t-211.5 -107.5zM1010 55q105 0 169 85.5t64 205.5q0 83 -43.5 128.5t-114.5 45.5t-124.5 -44.5t-78 -110.5t-24.5 -140q0 -82 42 -126t110 -44z" />
    <glyph glyph-name="ampersand" unicode="&#x26;" horiz-adv-x="1318" 
d="M1176 733q-57 -294 -205 -487l182 -246h-94l-139 188q-104 -109 -229 -161t-245 -52q-199 0 -304 100.5t-105 252.5q0 59 13.5 109.5t42.5 94.5t62 79t86.5 72.5t99.5 65t116 66.5q-43 57 -70.5 99.5t-52.5 107t-25 121.5q0 145 102.5 232t258.5 87q128 0 203 -66.5
t75 -174.5q0 -69 -25 -127t-80 -110.5t-117 -94.5t-161 -98l359 -482q130 172 174 424h78zM662 1389q-120 0 -198.5 -68.5t-78.5 -175.5q0 -38 11.5 -77t35 -80t41.5 -68.5t49 -69.5q51 28 79 44.5t71 43.5t67 47t53 48.5t44 54.5t25.5 58.5t10.5 67.5q0 85 -56.5 130
t-153.5 45zM449 53q112 0 222.5 50.5t200.5 148.5l-370 502q-57 -31 -84.5 -47t-75.5 -46.5t-73 -52t-58 -55t-48.5 -64.5t-27.5 -71.5t-12 -85.5q0 -129 87 -204t239 -75z" />
    <glyph glyph-name="quotesingle" unicode="'" horiz-adv-x="249" 
d="M166 1059h84l59 375h-84z" />
    <glyph glyph-name="parenleft" unicode="(" horiz-adv-x="454" 
d="M434 1526h76q-269 -386 -346 -875q-84 -523 59 -917h-69q-157 396 -72 925q80 512 352 867z" />
    <glyph glyph-name="parenright" unicode=")" horiz-adv-x="456" 
d="M291 1526q162 -369 82 -875q-86 -537 -361 -917h-78q274 406 357 925q78 495 -68 867h68z" />
    <glyph glyph-name="asterisk" unicode="*" horiz-adv-x="888" 
d="M516 1425h78l-39 -227h-68zM225 1182l33 71l211 -69l-27 -62zM807 1182l-232 -60l-6 62l232 69zM332 870l-58 43l170 189l43 -45zM608 870l-100 187l57 45l111 -189z" />
    <glyph glyph-name="plus" unicode="+" horiz-adv-x="911" 
d="M864 616l-12 -77h-356l-56 -357h-82l56 357h-351l11 77h352l55 357h82l-55 -357h356z" />
    <glyph glyph-name="comma" unicode="," horiz-adv-x="305" 
d="M-23 -270l5 34q37 25 53.5 61.5t27.5 113.5l9 61h-54l23 131h119l-35 -223q-14 -86 -54.5 -130.5t-93.5 -47.5z" />
    <glyph glyph-name="hyphen" unicode="-" horiz-adv-x="854" 
d="M76 608h669l-10 -65h-669z" />
    <glyph glyph-name="period" unicode="." horiz-adv-x="294" 
d="M41 133h106l-18 -133h-109z" />
    <glyph glyph-name="slash" unicode="/" horiz-adv-x="786" 
d="M827 1434l-778 -1434h-82l781 1434h79z" />
    <glyph glyph-name="zero" unicode="0" horiz-adv-x="1259" 
d="M750 1448q211 0 329.5 -141.5t118.5 -395.5q0 -139 -28.5 -273t-85.5 -252t-136 -207t-188 -141t-234 -52q-212 0 -330 140.5t-118 395.5q0 139 28.5 273t86 252t136.5 207.5t188 141.5t233 52zM1114 907q0 228 -98.5 346.5t-270.5 118.5q-137 0 -250.5 -75
t-184.5 -197.5t-109.5 -271t-38.5 -302.5q0 -229 97.5 -346t268.5 -117q111 0 207 49t164.5 132t117.5 191.5t73 229t24 242.5z" />
    <glyph glyph-name="one" unicode="1" horiz-adv-x="512" 
d="M520 1434l-225 -1434h-84l205 1294q-40 -44 -106 -81t-146 -37l10 75q84 3 160 61t104 122h82z" />
    <glyph glyph-name="two" unicode="2" horiz-adv-x="1064" 
d="M-12 0l8 57q27 180 146 311.5t364 272.5q185 107 254 159q155 118 180 257q6 32 6 65q0 115 -81 183.5t-220 68.5q-162 0 -271.5 -94.5t-135.5 -259.5h-84q34 197 166.5 312.5t328.5 115.5q178 0 278.5 -91t100.5 -237q0 -62 -16 -117.5t-51 -104t-72 -87t-97 -81
t-106 -71t-119 -69.5q-109 -62 -183.5 -113.5t-141 -113t-105 -129t-51.5 -144.5l-2 -16h803l-8 -74h-891z" />
    <glyph glyph-name="three" unicode="3" horiz-adv-x="1140" 
d="M766 780q121 -23 198.5 -104.5t77.5 -210.5q0 -144 -75.5 -257t-204 -173t-285.5 -60q-227 0 -339.5 126.5t-78.5 347.5h80q-29 -184 61.5 -290t278.5 -106q206 0 344 115t138 299q0 135 -103.5 204.5t-288.5 69.5h-39l11 70h34q177 0 294.5 91t117.5 245
q0 104 -80 166.5t-217 62.5q-165 0 -274.5 -97t-136.5 -286h-80q30 225 163 342t330 117q178 0 276.5 -86.5t98.5 -220.5q0 -125 -75.5 -223t-225.5 -142z" />
    <glyph glyph-name="four" unicode="4" horiz-adv-x="1093" 
d="M973 408h-164l-66 -408h-84l66 408h-688l6 73l840 953h86l-152 -953h164zM733 481l139 844l-741 -844h602z" />
    <glyph glyph-name="five" unicode="5" horiz-adv-x="1161" 
d="M645 965q173 0 285 -107.5t112 -292.5q0 -165 -70 -298t-198.5 -210t-292.5 -77q-213 0 -332.5 125.5t-85.5 312.5h76q-20 -168 76.5 -264.5t267.5 -96.5q142 0 252 69t168 183.5t58 251.5q0 152 -90 240t-238 88q-216 0 -393 -174h-88l223 719h694l-10 -74h-635
l-176 -567q73 83 179 127.5t218 44.5z" />
    <glyph glyph-name="six" unicode="6" horiz-adv-x="1181" 
d="M666 958q188 0 293.5 -108.5t105.5 -284.5q0 -162 -71 -295.5t-200 -211.5t-290 -78q-104 0 -182.5 35.5t-124.5 99.5t-72 152.5t-25 193.5t17 223q122 764 620 764q93 0 167 -28.5t118 -76t65.5 -107.5t16.5 -126h-74q2 52 -13 98.5t-49 85t-94.5 61.5t-140.5 23
q-100 0 -183 -39t-141.5 -105t-103.5 -160t-71.5 -195t-43.5 -220q72 150 195.5 224.5t280.5 74.5zM504 55q107 0 197.5 40.5t151.5 109.5t95.5 162.5t34.5 199.5q0 149 -86 236.5t-246 87.5q-131 0 -239 -66t-168 -176t-60 -237q0 -74 19 -137.5t57 -113t100.5 -78
t143.5 -28.5z" />
    <glyph glyph-name="seven" unicode="7" horiz-adv-x="966" 
d="M1006 1434l-11 -76q-527 -665 -741 -1358h-84q228 724 743 1360h-739l10 74h822z" />
    <glyph glyph-name="eight" unicode="8" horiz-adv-x="1140" 
d="M770 797q116 -44 183 -127t67 -207q0 -138 -74.5 -249.5t-200.5 -172.5t-278 -61q-195 0 -312.5 96.5t-117.5 261.5q0 166 99.5 286t271.5 175q-80 34 -130.5 103t-50.5 159q0 77 31.5 147t89 123.5t145.5 85t193 31.5q173 0 268 -82t95 -207q0 -128 -79.5 -224
t-199.5 -138zM688 1374q-174 0 -278.5 -88.5t-104.5 -222.5q0 -107 76.5 -173.5t206.5 -66.5q163 0 272 96.5t109 237.5q0 95 -73.5 156t-207.5 61zM465 55q127 0 234 51.5t172 147.5t65 217q0 129 -94.5 207t-251.5 78q-205 0 -337 -116t-132 -298q0 -133 96 -210t248 -77z
" />
    <glyph glyph-name="nine" unicode="9" horiz-adv-x="1181" 
d="M553 469q-188 0 -293.5 108.5t-105.5 284.5q0 162 71 295.5t200 212t290 78.5q87 0 156 -25t115.5 -71t77.5 -109.5t43.5 -143t11 -168t-16.5 -188.5q-19 -117 -46.5 -217.5t-77.5 -204.5t-115 -176.5t-163.5 -118.5t-218.5 -46q-93 0 -167 28.5t-118 76t-65 107
t-16 125.5h73q-2 -52 13 -98.5t49 -85t94.5 -61.5t140.5 -23q100 0 183 39t141.5 105t103.5 160t71.5 195t43.5 220q-72 -150 -195 -224.5t-280 -74.5zM715 1372q-107 0 -197.5 -40.5t-151.5 -109.5t-95.5 -162.5t-34.5 -199.5q0 -149 85.5 -236t245.5 -87q131 0 239 66
t168 176t60 237q0 74 -19 137t-56.5 113t-100 78t-143.5 28z" />
    <glyph glyph-name="colon" unicode=":" horiz-adv-x="294" 
d="M188 1065h109l-23 -133h-108zM41 133h106l-18 -133h-109z" />
    <glyph glyph-name="semicolon" unicode=";" horiz-adv-x="305" 
d="M188 1065h109l-23 -133h-108zM-23 -270l5 34q37 25 53.5 61.5t27.5 113.5l9 61h-54l23 131h119l-35 -223q-14 -86 -54.5 -130.5t-93.5 -47.5z" />
    <glyph glyph-name="less" unicode="&#x3c;" horiz-adv-x="1019" 
d="M848 90l-719 402l846 403l14 90l-923 -444l-19 -99l787 -442z" />
    <glyph glyph-name="equal" unicode="=" horiz-adv-x="849" 
d="M102 772h725l-12 -65h-723zM49 444h723l-10 -65h-725z" />
    <glyph glyph-name="greater" unicode="&#x3e;" horiz-adv-x="1017" 
d="M-8 90l-15 -90l922 442l16 99l-782 444l-14 -90l719 -403z" />
    <glyph glyph-name="question" unicode="?" horiz-adv-x="1034" 
d="M641 1448q-208 0 -339.5 -116.5t-164.5 -321.5h84q15 94 53.5 165.5t94 113.5t119.5 62.5t137 20.5q156 0 234 -77.5t54 -229.5q-9 -56 -38 -102.5t-67.5 -80t-84 -64.5t-92 -65.5t-86.5 -74.5t-72 -99.5t-45 -132.5l-14 -86h88l12 86q10 63 39.5 114.5t69 88t85.5 69.5
t92.5 67t86 72.5t69.5 94t41 123.5q28 175 -72.5 274t-283.5 99zM379 133h108l-20 -133h-109z" />
    <glyph glyph-name="at" unicode="@" horiz-adv-x="1568" 
d="M1151 145q-213 -159 -465 -159q-124 0 -232.5 40.5t-191 115.5t-130.5 190t-48 256q0 172 66.5 331.5t177.5 275t263 184.5t316 69q165 0 299.5 -73t215.5 -213t81 -322q0 -94 -20.5 -184t-58 -164.5t-98 -120t-134.5 -45.5q-95 0 -145 69t-31 160q-27 -62 -66 -109
t-81 -72.5t-83 -37.5t-81 -12q-55 0 -103.5 18t-88.5 53.5t-63.5 95.5t-23.5 136q0 187 111.5 320.5t277.5 133.5q88 0 157.5 -51t82.5 -143l28 174h66q-80 -498 -80 -526q0 -148 125 -148q59 0 108 43t78 111.5t44.5 146.5t15.5 154q0 165 -71.5 289t-192 187.5
t-269.5 63.5q-155 0 -296 -64.5t-241.5 -172t-160 -254t-59.5 -305.5q0 -126 43 -229t117.5 -169t170.5 -101.5t205 -35.5q212 0 395 125zM702 387q89 0 164.5 58t117.5 149.5t42 191.5q0 113 -60.5 172.5t-152.5 59.5q-93 0 -167.5 -56t-113 -144t-38.5 -187
q0 -122 62 -183t146 -61z" />
    <glyph glyph-name="A" unicode="A" horiz-adv-x="1333" 
d="M1096 0l-101 426h-702l-238 -426h-98l807 1434h72l352 -1434h-92zM332 498h645l-193 811z" />
    <glyph glyph-name="B" unicode="B" horiz-adv-x="1212" 
d="M815 782q135 -32 205 -112t70 -203q0 -227 -152 -347t-412 -120h-508l228 1434h504q184 0 274 -75.5t90 -203.5q0 -137 -78.5 -236t-220.5 -137zM322 1356l-86 -539h436q155 0 254.5 96.5t99.5 237.5q0 92 -64.5 148.5t-211.5 56.5h-428zM543 80q209 0 333.5 103.5
t124.5 283.5q0 128 -93.5 200t-276.5 72h-408l-104 -659h424z" />
    <glyph glyph-name="C" unicode="C" horiz-adv-x="1290" 
d="M602 61q166 0 289.5 67.5t187.5 180.5h95q-72 -153 -226 -240t-356 -87q-235 0 -373.5 138.5t-138.5 411.5q0 144 31 279t94.5 251t151.5 203t209 137t261 50q200 0 324 -87.5t149 -240.5h-90q-26 114 -126 181t-269 67q-121 0 -226 -46.5t-181 -127t-130.5 -187
t-81 -228t-26.5 -248.5q0 -237 117 -355.5t315 -118.5z" />
    <glyph glyph-name="D" unicode="D" horiz-adv-x="1265" 
d="M625 1434q291 0 439 -141t148 -402q0 -263 -94 -463t-278.5 -314t-436.5 -114h-383l226 1434h379zM401 80q176 0 314.5 59.5t228 167.5t136 257.5t46.5 332.5q0 457 -516 457h-291l-198 -1274h280z" />
    <glyph glyph-name="E" unicode="E" horiz-adv-x="1081" 
d="M1118 1354h-796l-93 -574h695l-11 -75h-696l-100 -625h821l-14 -80h-906l228 1434h884z" />
    <glyph glyph-name="F" unicode="F" horiz-adv-x="1087" 
d="M1145 1354h-823l-97 -596h678l-12 -76h-678l-107 -682h-88l228 1434h911z" />
    <glyph glyph-name="G" unicode="G" horiz-adv-x="1335" 
d="M788 705h494l-12 -76q-52 -319 -226 -483t-454 -164q-114 0 -206 33.5t-160.5 99.5t-106 171.5t-37.5 243.5q0 145 30.5 280.5t93 252t150.5 203.5t209.5 136.5t263.5 49.5q200 0 324 -87.5t149 -240.5h-90q-26 114 -126 181t-269 67q-124 0 -229.5 -46.5t-181 -126.5
t-129 -186.5t-79.5 -228t-26 -249.5q0 -237 117.5 -355.5t316.5 -118.5q242 0 391.5 146.5t190.5 421.5h-408z" />
    <glyph glyph-name="H" unicode="H" horiz-adv-x="1282" 
d="M1204 1434h88l-227 -1434h-88l104 657h-870l-105 -657h-88l228 1434h88l-111 -703h871z" />
    <glyph glyph-name="I" unicode="I" horiz-adv-x="325" 
d="M109 0h-89l226 1434h88z" />
    <glyph glyph-name="J" unicode="J" horiz-adv-x="989" 
d="M33 217q87 -149 313 -149q71 0 134.5 22t121 69.5t100 132.5t60.5 200l149 942h88l-149 -942q-22 -139 -73.5 -240t-123 -157.5t-151.5 -82.5t-172 -26q-127 0 -219 46.5t-140 129.5z" />
    <glyph glyph-name="K" unicode="K" horiz-adv-x="1224" 
d="M1262 1434l-744 -674l572 -760h-109l-526 702l-277 -251l-72 -451h-88l228 1434h88l-135 -856l944 856h119z" />
    <glyph glyph-name="L" unicode="L" horiz-adv-x="1083" 
d="M119 80h780l-14 -80h-867l228 1434h88z" />
    <glyph glyph-name="M" unicode="M" horiz-adv-x="1660" 
d="M246 1434h86l418 -1334l825 1334h96l-227 -1434h-88l198 1241h-4l-766 -1241h-88l-389 1241h-4l-197 -1241h-88z" />
    <glyph glyph-name="N" unicode="N" horiz-adv-x="1302" 
d="M1313 1434l-228 -1434h-104l-664 1315h-4l-207 -1315h-88l228 1434h102l666 -1313h4l207 1313h88z" />
    <glyph glyph-name="O" unicode="O" horiz-adv-x="1419" 
d="M834 1452q239 0 381.5 -141t142.5 -404q0 -148 -32 -285t-96.5 -253.5t-154 -202.5t-212.5 -135t-265 -49q-238 0 -379 140t-141 402q0 148 32 285.5t95.5 254t153 203.5t212 136t263.5 49zM608 63q125 0 233 46.5t185.5 126.5t132.5 187t82 229t27 251q0 229 -119 348
t-324 119q-125 0 -233 -46.5t-184.5 -127t-131.5 -188t-81.5 -230t-26.5 -252.5q0 -229 117.5 -346t322.5 -117z" />
    <glyph glyph-name="P" unicode="P" horiz-adv-x="1175" 
d="M727 1434q207 0 316.5 -91t109.5 -262q0 -250 -152 -390t-413 -140h-395l-87 -551h-88l228 1434h481zM600 631q219 0 340 117t121 325q0 281 -340 281h-399l-117 -723h395z" />
    <glyph glyph-name="Q" unicode="Q" horiz-adv-x="1419" 
d="M1358 907q0 -212 -65.5 -397.5t-188.5 -314.5l133 -158l-59 -55l-131 157q-191 -157 -449 -157q-238 0 -379 140t-141 402q0 148 32 285.5t95.5 254t153 203.5t212 136t263.5 49q239 0 381.5 -141t142.5 -404zM608 63q222 0 383 142l-256 307l60 53l254 -305
q107 119 163 287.5t56 355.5q0 229 -119 348t-324 119q-125 0 -233 -46.5t-184.5 -127t-131.5 -188t-81.5 -230t-26.5 -252.5q0 -229 117.5 -346t322.5 -117z" />
    <glyph glyph-name="R" unicode="R" horiz-adv-x="1220" 
d="M868 668q94 -15 146.5 -72t52.5 -152q0 -37 -21.5 -178t-21.5 -184q0 -64 18 -82h-86q-20 20 -20 82q0 40 20.5 173.5t20.5 178.5q0 57 -20.5 96t-58 58.5t-79 27t-94.5 7.5h-520l-99 -623h-88l228 1434h528q203 0 304.5 -80.5t101.5 -233.5q0 -159 -88.5 -283.5
t-223.5 -168.5zM700 698q115 0 206 58.5t138.5 151.5t47.5 200q0 246 -328 246h-442l-105 -656h483z" />
    <glyph glyph-name="S" unicode="S" horiz-adv-x="1181" 
d="M707 762q87 -20 149.5 -45t112 -64.5t74 -96.5t24.5 -134q0 -201 -157.5 -320.5t-407.5 -119.5q-125 0 -216.5 31.5t-143 88.5t-74.5 128t-21 157h90q1 -54 11 -99t36 -88t67 -72.5t107.5 -47t153.5 -17.5q206 0 334.5 95.5t128.5 257.5q0 52 -15.5 93t-39 67.5t-61.5 48
t-73 33.5t-84 24l-210 47q-308 71 -308 313q0 86 31.5 159t93.5 130t162.5 89t230.5 32q210 0 316 -95.5t108 -250.5h-86q-2 53 -21 98.5t-58 85t-109 62t-164 22.5q-104 0 -185 -25.5t-130 -70t-74 -100.5t-25 -121q0 -106 59 -165.5t191 -88.5z" />
    <glyph glyph-name="T" unicode="T" horiz-adv-x="1150" 
d="M1221 1434l-13 -80h-475l-215 -1354h-86l215 1354h-475l12 80h1037z" />
    <glyph glyph-name="U" unicode="U" horiz-adv-x="1294" 
d="M1303 1434l-140 -891q-41 -259 -206.5 -407t-411.5 -148t-363 148t-76 407l140 891h88l-141 -885q-36 -228 57.5 -354.5t306.5 -126.5q209 0 345 127t173 354l139 885h89z" />
    <glyph glyph-name="V" unicode="V" horiz-adv-x="1351" 
d="M1319 1434h94l-803 -1434h-73l-353 1434h86l320 -1313z" />
    <glyph glyph-name="W" unicode="W" horiz-adv-x="2002" 
d="M1976 1434h88l-643 -1434h-88l-221 1323l-647 -1323h-88l-193 1434h90l166 -1311l635 1311h101l215 -1311z" />
    <glyph glyph-name="X" unicode="X" horiz-adv-x="1232" 
d="M1300 1434l-610 -697l418 -737h-94l-383 672l-590 -672h-104l653 743l-391 691h96l354 -623l547 623h104z" />
    <glyph glyph-name="Y" unicode="Y" horiz-adv-x="1267" 
d="M668 580l-93 -580h-86l93 580l-398 854h95l354 -768l594 768h102z" />
    <glyph glyph-name="Z" unicode="Z" horiz-adv-x="1212" 
d="M1059 80l-15 -80h-1067l13 80l1159 1274h-926l13 80h1028l-15 -80l-1153 -1274h963z" />
    <glyph glyph-name="bracketleft" unicode="[" horiz-adv-x="507" 
d="M330 1450l-258 -1640h186l-10 -76h-273l285 1792h272l-14 -76h-188z" />
    <glyph glyph-name="backslash" unicode="\" horiz-adv-x="792" 
d="M195 1434h81l330 -1434h-82z" />
    <glyph glyph-name="bracketright" unicode="]" horiz-adv-x="509" 
d="M436 1450h-188l14 76h273l-285 -1792h-273l13 76h186z" />
    <glyph glyph-name="asciicircum" unicode="^" horiz-adv-x="956" 
d="M823 952l-239 424l-373 -424h-84l428 482h68l276 -482h-76z" />
    <glyph glyph-name="underscore" unicode="_" horiz-adv-x="1208" 
d="M-20 0h1024l-15 -78h-1024z" />
    <glyph glyph-name="grave" unicode="`" horiz-adv-x="327" 
d="M432 1190l-164 262h-123l215 -262h72z" />
    <glyph glyph-name="a" unicode="a" horiz-adv-x="1097" 
d="M950 705l-90 -574q-6 -42 12 -57.5t66 -10.5l-10 -63q-21 -8 -45 -8q-67 0 -92.5 34t-10.5 115l19 97q-20 -34 -57.5 -72.5t-95.5 -81t-142.5 -70.5t-177.5 -28q-139 0 -220 71.5t-81 194.5q0 82 28.5 142t86 99t129 62t171.5 39q7 1 48.5 7t57.5 8.5t56 8.5t61.5 10.5
t56 11t57 12.5t46.5 13.5t41 14.5l4 22q26 164 -34 233t-230 69q-152 0 -228 -48t-108 -139h-84q42 136 145.5 197t278.5 61q201 0 287 -87.5t55 -282.5zM338 53q78 0 151 23.5t123.5 56.5t94 75t66.5 74t36 58l45 272q-19 -8 -52.5 -17t-82 -18t-90.5 -16t-106.5 -18
t-100.5 -17q-164 -27 -238.5 -88t-74.5 -184q0 -94 61 -147.5t168 -53.5z" />
    <glyph glyph-name="b" unicode="b" horiz-adv-x="1130" 
d="M659 1075q174 0 286 -108.5t112 -309.5q0 -134 -40.5 -256t-112 -214t-177.5 -146.5t-229 -54.5q-137 0 -232 66.5t-133 207.5l-39 -260h-84l226 1434h83l-98 -609q79 126 193 188t245 62zM485 59q116 0 210.5 50.5t154.5 134.5t92.5 189.5t32.5 219.5q0 172 -92 260
t-234 88q-149 0 -261.5 -81t-169 -212.5t-56.5 -289.5q0 -174 91.5 -266.5t231.5 -92.5z" />
    <glyph glyph-name="c" unicode="c" horiz-adv-x="1038" 
d="M449 59q129 0 219 54.5t151 171.5h86q-74 -159 -187 -229t-269 -70q-181 0 -298.5 111.5t-117.5 320.5q0 176 71.5 325.5t204 240.5t297.5 91q158 0 254 -72t127 -229h-84q-26 119 -98 173t-199 54q-91 0 -171 -33t-138 -89t-100 -130t-63 -158t-21 -171
q0 -180 95 -270.5t241 -90.5z" />
    <glyph glyph-name="d" unicode="d" horiz-adv-x="1118" 
d="M592 1075q134 0 231 -67t135 -203l99 629h82l-228 -1434h-82l43 242q-81 -129 -194.5 -192.5t-245.5 -63.5q-112 0 -200.5 45.5t-143.5 142.5t-55 232t40 256.5t111.5 213t177.5 145.5t230 54zM440 59q151 0 263.5 81t168.5 212t56 291q0 93 -26.5 163.5t-73 112t-103 62
t-121.5 20.5q-94 0 -174.5 -33t-137.5 -89.5t-97.5 -132t-60 -161t-19.5 -175.5q0 -172 91.5 -261.5t233.5 -89.5z" />
    <glyph glyph-name="e" unicode="e" horiz-adv-x="1073" 
d="M981 487h-862q-4 -50 -4 -73q0 -180 92.5 -268.5t249.5 -88.5q117 0 195 31.5t151 110.5h94q-93 -117 -196.5 -165t-249.5 -48q-191 0 -304.5 111t-113.5 317q0 135 42 256t116.5 210.5t183 142t233.5 52.5q172 0 282.5 -110t110.5 -306q0 -32 -6.5 -88.5t-13.5 -83.5z
M600 1004q-183 0 -308.5 -127t-164.5 -322h784q11 51 11 107q0 166 -89.5 254t-232.5 88z" />
    <glyph glyph-name="f" unicode="f" horiz-adv-x="641" 
d="M539 1395q-86 0 -132.5 -39.5t-60.5 -138.5l-24 -152h294l-10 -72h-295l-157 -993h-84l157 993h-153l10 72h154l24 149q38 252 275 252q80 0 155 -20l-10 -68q-87 17 -143 17z" />
    <glyph glyph-name="g" unicode="g" horiz-adv-x="1120" 
d="M1081 1065l-170 -1081q-17 -103 -56 -181.5t-89.5 -126t-118 -77t-134 -40t-144.5 -10.5q-136 0 -240.5 51t-142.5 140l59 35q39 -73 126.5 -111.5t199.5 -38.5q193 0 309.5 86t148.5 287l41 244q-79 -129 -192 -191.5t-246 -62.5q-112 0 -200.5 45t-143.5 141.5
t-55 231.5q0 133 40 254.5t111.5 213.5t177.5 146.5t230 54.5q134 0 230.5 -67t133.5 -203l39 260h86zM440 61q150 0 263 82t169 213t56 289q0 92 -27 162.5t-73.5 111.5t-103.5 61.5t-122 20.5q-94 0 -174 -32.5t-137 -89t-97 -132t-59.5 -161t-19.5 -176.5
q0 -172 91.5 -260.5t233.5 -88.5z" />
    <glyph glyph-name="h" unicode="h" horiz-adv-x="1079" 
d="M655 1075q67 0 121 -13.5t100 -44t71.5 -79.5t36 -120.5t-6.5 -166.5l-105 -651h-84l103 655q15 80 7.5 138.5t-26.5 98t-55.5 63.5t-80 34t-99.5 10q-69 0 -133.5 -22t-112 -56.5t-87 -78.5t-64 -85t-39.5 -79l-107 -678h-84l226 1434h83l-98 -633q12 34 47 78
t88.5 89.5t133 76t165.5 30.5z" />
    <glyph glyph-name="i" unicode="i" horiz-adv-x="301" 
d="M221 1343l17 109h81l-16 -109h-82zM178 1065h82l-168 -1065h-82z" />
    <glyph glyph-name="j" unicode="j" horiz-adv-x="374" 
d="M274 1343l17 109h82l-17 -109h-82zM-299 -324q76 -49 156 -49q69 0 115 48.5t59 138.5l198 1251h84l-196 -1249q-24 -145 -89 -206t-169 -61q-95 0 -172 56z" />
    <glyph glyph-name="k" unicode="k" horiz-adv-x="1028" 
d="M1001 1065l-561 -494l461 -571h-98l-418 520l-242 -213l-49 -307h-84l226 1434h83l-159 -1018l735 649h106z" />
    <glyph glyph-name="l" unicode="l" horiz-adv-x="299" 
d="M236 1434h81l-225 -1434h-82z" />
    <glyph glyph-name="m" unicode="m" horiz-adv-x="1781" 
d="M1374 1075q80 0 141 -21.5t106.5 -71.5t58.5 -131t-3 -200l-102 -651h-84l102 651q56 348 -231 348q-65 0 -129 -23t-113.5 -60.5t-89.5 -84t-65 -93.5t-33 -89l-105 -649h-84l105 651q54 348 -234 348q-80 0 -155 -34.5t-128 -86.5t-89.5 -105.5t-53.5 -100.5l-106 -672
h-84l168 1065h84l-41 -264q12 33 46.5 77t87 89.5t129.5 76.5t157 31q134 0 217.5 -66t93.5 -210q23 48 63.5 94.5t95 88.5t127 67.5t148.5 25.5z" />
    <glyph glyph-name="n" unicode="n" horiz-adv-x="1067" 
d="M643 1075q84 0 148 -22t112.5 -72.5t63 -132t-1.5 -201.5l-105 -647h-84l103 651q15 80 7.5 139t-26.5 99t-55.5 64.5t-80 35t-99.5 10.5q-69 0 -133.5 -22.5t-112 -57.5t-87.5 -79.5t-64.5 -85.5t-39.5 -80l-106 -674h-84l168 1065h84l-41 -266q9 26 32 59.5t63 72
t88.5 70.5t115 53t135.5 21z" />
    <glyph glyph-name="o" unicode="o" horiz-adv-x="1083" 
d="M602 1075q112 0 203 -47.5t148 -148t57 -238.5q0 -129 -43 -249t-118 -209.5t-182.5 -143t-228.5 -53.5q-172 0 -288.5 113t-116.5 317q0 103 27 201.5t78 181t120 144.5t158 97t186 35zM928 645q0 89 -26.5 158.5t-72.5 111.5t-104 64t-125 22q-142 0 -254.5 -82.5
t-171.5 -215t-59 -285.5q0 -89 26.5 -159t72.5 -112.5t104 -65t124 -22.5q143 0 255.5 83.5t171.5 216t59 286.5z" />
    <glyph glyph-name="p" unicode="p" horiz-adv-x="1128" 
d="M258 1065l-41 -250q160 260 440 260q174 0 286 -108.5t112 -309.5q0 -134 -40 -256t-111.5 -214t-177.5 -146.5t-230 -54.5q-137 0 -232 66.5t-133 207.5l-100 -649h-84l229 1454h82zM483 59q94 0 174.5 33t137.5 90t98 132.5t60.5 161.5t19.5 177q0 172 -92 260t-234 88
q-112 0 -205 -47.5t-154 -127.5t-94.5 -185.5t-33.5 -222.5q0 -174 91.5 -266.5t231.5 -92.5z" />
    <glyph glyph-name="q" unicode="q" horiz-adv-x="1120" 
d="M592 1075q135 0 231.5 -67t134.5 -203l39 260h84l-229 -1454h-84l100 631q-79 -130 -191.5 -193t-244.5 -63q-112 0 -200.5 45.5t-143.5 142.5t-55 232q0 134 40 255.5t111.5 213.5t177.5 146t230 54zM440 59q150 0 263 82.5t169 214t56 289.5q0 92 -27 162.5
t-73.5 111.5t-103.5 61.5t-122 20.5q-95 0 -175.5 -33t-137 -89.5t-96.5 -132t-59 -161t-19 -175.5q0 -172 91.5 -261.5t233.5 -89.5z" />
    <glyph glyph-name="r" unicode="r" horiz-adv-x="704" 
d="M649 1075q28 0 68 -4l-10 -74q-23 2 -66 2q-166 -1 -285.5 -99t-173.5 -263l-100 -637h-84l168 1065h84l-45 -287q39 121 162 209t282 88z" />
    <glyph glyph-name="s" unicode="s" horiz-adv-x="950" 
d="M813 823q-38 181 -285 181q-153 0 -240 -65.5t-87 -162.5q0 -72 44 -114t150 -68l156 -39q72 -18 117.5 -34.5t85.5 -42.5t58.5 -63.5t18.5 -88.5q0 -73 -26 -132t-69.5 -97t-102 -63.5t-121 -36.5t-129.5 -11q-83 0 -151.5 18t-121.5 54.5t-81 96.5t-25 138h82
q0 -66 24 -114t67 -73.5t93.5 -37t112.5 -11.5q72 0 135.5 14.5t116.5 44t84 81t31 118.5q0 40 -14 68t-44.5 47t-62 30t-84.5 25l-191 47q-116 31 -177.5 89t-61.5 153q0 133 119 217t298 84q152 0 249 -63t110 -189h-78z" />
    <glyph glyph-name="t" unicode="t" horiz-adv-x="577" 
d="M344 993l-135 -860q-6 -41 11 -56.5t61 -15.5q63 0 143 17l-12 -72q-67 -20 -148 -20q-161 0 -137 145l135 862h-168l10 72h170l41 266h82l-41 -266h215l-10 -72h-217z" />
    <glyph glyph-name="u" unicode="u" horiz-adv-x="1067" 
d="M944 1065h84l-168 -1065h-84l41 260q-13 -28 -37 -61.5t-64 -71.5t-87.5 -68.5t-112.5 -50.5t-133 -20q-67 0 -121 14t-99.5 45t-71 80.5t-35.5 120.5t7 166l103 651h84l-103 -653q-56 -346 250 -346q86 0 163 32t131 82.5t90.5 103t56.5 103.5z" />
    <glyph glyph-name="v" unicode="v" horiz-adv-x="1017" 
d="M453 0h-99l-260 1065h84l236 -977l549 977h88z" />
    <glyph glyph-name="w" unicode="w" horiz-adv-x="1587" 
d="M1620 1065l-492 -1065h-94l-194 954l-498 -954h-92l-156 1065h84l135 -967l502 967h76l196 -967l445 967h88z" />
    <glyph glyph-name="x" unicode="x" horiz-adv-x="940" 
d="M963 1065l-467 -526l307 -539h-88l-271 477l-419 -477h-99l482 547l-297 518h90l260 -461l403 461h99z" />
    <glyph glyph-name="y" unicode="y" horiz-adv-x="1001" 
d="M944 1065h90l-661 -1190q-158 -289 -402 -250l15 76q95 -15 175.5 37t139.5 162q30 55 38.5 78t4.5 42l-250 1045h84l230 -983z" />
    <glyph glyph-name="z" unicode="z" horiz-adv-x="987" 
d="M78 76h743l-12 -76h-840l11 76l888 913h-723l13 76h819l-10 -76z" />
    <glyph glyph-name="braceleft" unicode="{" horiz-adv-x="503" 
d="M279 766l-113 -139l65 -135l-96 -613q-4 -32 12 -50.5t48 -18.5h73l-12 -76h-84q-63 0 -96.5 43.5t-24.5 105.5l99 598l-72 146l115 149l98 606q9 62 54.5 103t109.5 41h86l-15 -76h-69q-32 0 -55.5 -22.5t-28.5 -55.5z" />
    <glyph glyph-name="bar" unicode="|" horiz-adv-x="385" 
d="M299 1638h78l-322 -2027h-78z" />
    <glyph glyph-name="braceright" unicode="}" horiz-adv-x="503" 
d="M246 766l94 614q6 32 -10.5 51t-48.5 19h-74l14 76h84q63 0 95.5 -44t23.5 -106l-96 -600l69 -149l-112 -146l-97 -604q-11 -62 -56 -102.5t-109 -40.5h-86l12 76h69q32 0 56.5 22.5t29.5 54.5l95 605l110 135z" />
    <glyph glyph-name="asciitilde" unicode="~" horiz-adv-x="800" 
d="M702 674l58 -8q-14 -85 -73.5 -131t-131.5 -46q-40 0 -73.5 15.5t-57.5 37.5t-47 44t-52 37.5t-63 15.5q-65 0 -102 -35.5t-41 -75.5l-58 9q13 85 72.5 129.5t132.5 44.5q40 0 74 -15.5t58 -37.5t47 -44t52 -37.5t62 -15.5q67 0 103 36t40 77z" />
    <glyph glyph-name="exclamdown" unicode="&#xa1;" horiz-adv-x="354" 
d="M164 932l22 133h109l-23 -133h-108zM229 707l-170 -1076h-88l168 1076h90z" />
    <glyph glyph-name="cent" unicode="&#xa2;" horiz-adv-x="1038" 
d="M489 190q122 5 207.5 59.5t143.5 166.5h86q-72 -156 -184 -226.5t-263 -72.5l-33 -199h-61l33 201q-162 16 -263.5 126.5t-101.5 303.5q0 127 39.5 243.5t109 205t171 144t219.5 62.5l37 230h61l-37 -228q147 -6 236 -78.5t119 -222.5h-84q-25 116 -93.5 170.5
t-189.5 57.5zM133 551q0 -168 82.5 -257.5t214.5 -100.5l150 937q-103 -11 -189.5 -64.5t-141.5 -134t-85.5 -179t-30.5 -201.5z" />
    <glyph glyph-name="sterling" unicode="&#xa3;" horiz-adv-x="1038" 
d="M637 1448q211 0 305 -121t66 -344h-76q47 389 -301 389q-169 0 -276 -105.5t-107 -275.5q0 -51 9 -101.5t28 -121.5t24 -94h314l-9 -66h-292q6 -38 6 -73q0 -236 -250 -478q107 41 215 41q64 0 188 -23.5t191 -23.5q88 0 170 25l-8 -76q-88 -23 -175 -23q-72 0 -197 24
t-194 24q-113 0 -239 -48l-43 74q266 257 266 492q0 35 -6 65h-172l8 66h149q-6 22 -20 69.5t-22.5 77t-15.5 76t-7 90.5q0 206 130 333.5t341 127.5z" />
    <glyph glyph-name="currency" unicode="&#xa4;" horiz-adv-x="1165" 
d="M1102 975q0 -170 -107 -293l97 -98l-60 -58l-96 95q-127 -105 -293 -105t-293 105l-96 -95l-59 58l96 98q-107 123 -107 293q0 165 107 295l-96 96l59 59l96 -96q127 105 293 105q167 0 291 -105l98 96l60 -59l-97 -96q107 -130 107 -295zM260 975q0 -104 53.5 -193
t142 -139.5t187.5 -50.5q74 0 144.5 30t123.5 81t85 122.5t32 149.5q0 156 -116 269.5t-269 113.5q-152 0 -267.5 -113t-115.5 -270z" />
    <glyph glyph-name="yen" unicode="&#xa5;" horiz-adv-x="1267" 
d="M668 580v-2h286l-12 -64h-285l-20 -127h287l-11 -65h-286l-52 -322h-86l52 322h-287l10 65h287l20 127h-288l12 64h287v2l-398 854h95l354 -768l594 768h102z" />
    <glyph glyph-name="brokenbar" unicode="&#xa6;" horiz-adv-x="385" 
d="M299 1638h78l-90 -573h-78zM70 184h77l-92 -573h-78z" />
    <glyph glyph-name="section" unicode="&#xa7;" horiz-adv-x="1220" 
d="M750 1372q-190 0 -307 -89t-117 -247q0 -187 247 -237l172 -35q81 -18 143.5 -44t113 -65t77.5 -96t27 -129q0 -91 -35 -173t-100 -140q41 -65 41 -154q0 -143 -73 -245t-198 -151.5t-290 -49.5q-100 0 -178.5 21t-130 56.5t-84.5 86.5t-45.5 108t-10.5 123h86
q1 -71 17 -124.5t54.5 -99.5t112 -70t179.5 -24q217 0 345 94.5t128 270.5q0 202 -265 256l-210 45q-150 30 -228 109.5t-78 195.5q0 86 37.5 168.5t106.5 138.5q-49 67 -49 160q0 192 144.5 305t369.5 113q113 0 195.5 -25t129.5 -71t68.5 -105t19.5 -133h-82q-1 37 -7 67
t-19.5 60t-38 52.5t-60 40.5t-88.5 27t-120 9zM543 727q-122 23 -201 86q-111 -92 -111 -248q0 -183 248 -233l172 -35q179 -41 269 -119q47 47 72.5 113.5t25.5 136.5q0 200 -264 254z" />
    <glyph glyph-name="dieresis" unicode="&#xa8;" horiz-adv-x="505" 
d="M145 1452h93l-23 -160h-94zM557 1452h92l-22 -160h-92z" />
    <glyph glyph-name="copyright" unicode="&#xa9;" horiz-adv-x="1628" 
d="M729 -14q-184 0 -330 79t-228.5 223t-82.5 328q0 167 66.5 320.5t178 265t265 178t320.5 66.5q183 0 329.5 -79t230 -223.5t83.5 -326.5q0 -168 -66 -322t-178 -265.5t-266 -177.5t-322 -66zM729 51q153 0 295 60t245.5 161t165.5 241t62 294q0 256 -161.5 415.5
t-415.5 159.5q-159 0 -303 -63t-245.5 -167.5t-161.5 -245.5t-60 -292q0 -165 75 -294t206.5 -199t297.5 -70zM754 336q219 0 327 172h70q-124 -236 -397 -236q-156 0 -257.5 98.5t-101.5 268.5q0 142 65 262t177.5 190t247.5 70q128 0 211 -58.5t112 -174.5h-63
q-49 168 -262 168q-120 0 -217.5 -63t-151 -168.5t-53.5 -229.5q0 -142 84.5 -220.5t208.5 -78.5z" />
    <glyph glyph-name="ordfeminine" unicode="&#xaa;" horiz-adv-x="718" 
d="M657 883q0 -45 21 -92h-74q-24 75 -18 120q-48 -55 -108 -87.5t-152 -32.5q-83 0 -138 44t-55 121q0 102 68.5 153.5t179.5 59.5l244 23q8 97 -22 138.5t-124 41.5q-158 0 -200 -102h-72q52 172 274 172q116 0 167.5 -48.5t51.5 -152.5q0 -43 -21.5 -182.5t-21.5 -175.5z
M346 862q63 0 119.5 27t83.5 54t43 52l24 133l-231 -24q-176 -17 -176 -143q0 -99 137 -99z" />
    <glyph glyph-name="guillemotleft" unicode="&#xab;" horiz-adv-x="768" 
d="M395 784l-229 -178l172 -178l-16 -88l-232 240l8 63l312 240zM727 784l-229 -178l172 -178l-17 -88l-231 240l8 63l311 240z" />
    <glyph glyph-name="logicalnot" unicode="&#xac;" horiz-adv-x="964" 
d="M860 639l-53 -326h-84l41 250h-696l12 76h780z" />
    <glyph glyph-name="uni00AD" unicode="&#xad;" horiz-adv-x="854" 
d="M76 608h669l-10 -65h-669z" />
    <glyph glyph-name="registered" unicode="&#xae;" horiz-adv-x="1628" 
d="M729 -14q-184 0 -330 79t-228.5 223t-82.5 328q0 167 66.5 320.5t178 265t265 178t320.5 66.5q183 0 329.5 -79t230 -223.5t83.5 -326.5q0 -168 -66 -322t-178 -265.5t-266 -177.5t-322 -66zM729 51q153 0 295 60t245.5 161t165.5 241t62 294q0 256 -161.5 415.5
t-415.5 159.5q-159 0 -303 -63t-245.5 -167.5t-161.5 -245.5t-60 -292q0 -165 75 -294t206.5 -199t297.5 -70zM1083 309h-61q-11 17 -11.5 49t4.5 63.5t11 71.5t6 64q0 32 -10.5 52.5t-30.5 30.5t-40.5 13.5t-49.5 3.5h-295l-53 -348h-66l129 815h304q239 0 239 -188
q0 -90 -44 -154.5t-126 -95.5q105 -24 105 -131q0 -16 -6 -55.5t-11.5 -75t-5 -69.5t11.5 -46zM883 715q95 0 154 63t59 160q0 69 -43.5 100t-137.5 31h-243l-58 -354h269z" />
    <glyph glyph-name="macron" unicode="&#xaf;" horiz-adv-x="563" 
d="M145 1452h564l-11 -61h-561z" />
    <glyph glyph-name="degree" unicode="&#xb0;" horiz-adv-x="784" 
d="M451 874q-112 0 -186.5 75t-74.5 184q0 136 106 238t241 102q113 0 187.5 -74.5t74.5 -184.5q0 -135 -106 -237.5t-242 -102.5zM453 950q107 0 188.5 77.5t81.5 189.5q0 82 -53 132t-133 50q-107 0 -190 -79t-83 -190q0 -80 54 -130t135 -50z" />
    <glyph glyph-name="plusminus" unicode="&#xb1;" horiz-adv-x="913" 
d="M510 618h354l-12 -77h-354l-58 -357h-80l56 357h-353l13 77h354l55 357h82zM6 -35l10 66h725l-10 -66h-725z" />
    <glyph glyph-name="uni00B2" unicode="&#xb2;" horiz-adv-x="497" 
d="M121 901q9 84 51 139.5t145 114.5q38 22 58.5 35.5t44 34t33.5 43t10 49.5q0 37 -27.5 60.5t-75.5 23.5q-54 0 -89 -31.5t-44 -85.5h-45q11 71 62 115.5t125 44.5q61 0 100 -34t39 -85q0 -69 -43.5 -114.5t-132.5 -92.5q-71 -38 -111 -84t-45 -88h283l-8 -45h-330z" />
    <glyph glyph-name="uni00B3" unicode="&#xb3;" horiz-adv-x="532" 
d="M428 1184q44 -7 75.5 -34.5t31.5 -76.5q0 -76 -60.5 -128t-157.5 -52q-92 0 -133 48t-28 126h43q-9 -61 23 -96t100 -35q75 0 121 38.5t46 98.5q0 45 -39 66.5t-102 21.5h-22l8 37h22q65 0 104.5 38t39.5 85q0 38 -27 59t-78 21q-121 0 -147 -125h-45q13 79 65.5 123.5
t132.5 44.5q70 0 107 -33t37 -86q0 -51 -33 -90t-84 -51z" />
    <glyph glyph-name="acute" unicode="&#xb4;" horiz-adv-x="282" 
d="M104 1190h68l256 262h-119z" />
    <glyph glyph-name="uni00B5" unicode="&#xb5;" horiz-adv-x="1069" 
d="M946 1065h84l-168 -1065h-84l41 260q-17 -37 -52 -79.5t-88.5 -87t-131.5 -74t-162 -29.5q-206 0 -285 125l-80 -504h-83l231 1454h84l-102 -653q-56 -344 249 -344q87 0 165 32.5t132 84.5t89.5 104.5t54.5 103.5l-6 -39z" />
    <glyph glyph-name="paragraph" unicode="&#xb6;" horiz-adv-x="1052" 
d="M1071 1434l-10 -68l-287 -1817h-74l287 1817h-170l-287 -1817h-75l172 1094h-166q-186 0 -277 109t-63 288q28 181 151.5 287.5t309.5 106.5h489z" />
    <glyph glyph-name="periodcentered" unicode="&#xb7;" horiz-adv-x="299" 
d="M92 653h109l-23 -133h-106z" />
    <glyph glyph-name="cedilla" unicode="&#xb8;" horiz-adv-x="286" 
d="M-29 -111q68 20 128.5 -18.5t60.5 -112.5q0 -92 -72 -135t-186 -43v49q186 6 186 125q0 61 -50 83.5t-120 -5.5l-24 37l92 133h88z" />
    <glyph glyph-name="uni00B9" unicode="&#xb9;" horiz-adv-x="317" 
d="M338 1434l-84 -533h-47l76 467q-40 -56 -117 -47l6 41q34 -4 68 18.5t51 53.5h47z" />
    <glyph glyph-name="ordmasculine" unicode="&#xba;" horiz-adv-x="747" 
d="M492 1450q111 0 190.5 -73t79.5 -201q0 -161 -108.5 -276.5t-256.5 -115.5q-108 0 -188 74.5t-80 200.5q0 160 108 275.5t255 115.5zM684 1178q0 97 -57 148.5t-138 51.5q-122 0 -202 -95.5t-80 -227.5q0 -96 55.5 -147.5t136.5 -51.5q119 0 202 96.5t83 225.5z" />
    <glyph glyph-name="guillemotright" unicode="&#xbb;" horiz-adv-x="768" 
d="M66 438l229 178l-172 179l16 88l232 -240l-9 -63l-311 -240zM397 438l230 178l-172 179l16 88l231 -240l-8 -63l-311 -240z" />
    <glyph glyph-name="onequarter" unicode="&#xbc;" horiz-adv-x="1173" 
d="M37 0h-55l1118 1434h55zM338 1434l-84 -533h-47l76 467q-40 -56 -117 -47l6 41q34 -4 68 18.5t51 53.5h47zM1028 135h-61l-23 -135h-47l23 135h-246l6 39l303 361h47l-59 -361h61zM926 174l47 291l-246 -291h199z" />
    <glyph glyph-name="onehalf" unicode="&#xbd;" horiz-adv-x="1167" 
d="M37 0h-55l1118 1434h55zM338 1434l-84 -533h-47l76 467q-40 -56 -117 -47l6 41q34 -4 68 18.5t51 53.5h47zM662 0q9 84 51 139.5t145 114.5q38 22 58.5 35.5t44 34t33.5 43t10 49.5q0 37 -27.5 60.5t-75.5 23.5q-54 0 -89 -31.5t-44 -85.5h-45q11 71 61.5 115.5
t124.5 44.5q61 0 100.5 -34t39.5 -85q0 -69 -43.5 -114.5t-133.5 -92.5q-71 -38 -110.5 -84t-44.5 -88h282l-8 -45h-329z" />
    <glyph glyph-name="threequarters" unicode="&#xbe;" horiz-adv-x="1292" 
d="M438 1184q44 -7 75.5 -34.5t31.5 -76.5q0 -76 -60 -128t-157 -52q-92 0 -133 48t-29 126h43q-9 -61 23 -96t100 -35q75 0 121.5 38.5t46.5 98.5q0 45 -39.5 66.5t-102.5 21.5h-22l8 37h23q65 0 104 38t39 85q0 80 -104 80q-122 0 -148 -125h-45q13 79 66 123.5t133 44.5
q70 0 106.5 -33t36.5 -86q0 -51 -33 -90t-84 -51zM156 0h-56l1119 1434h55zM1147 135h-62l-22 -135h-47l22 135h-245l6 39l303 361h47l-59 -361h61zM1044 174l48 291l-246 -291h198z" />
    <glyph glyph-name="questiondown" unicode="&#xbf;" horiz-adv-x="1034" 
d="M594 932h-109l21 133h108zM332 -383q208 0 339.5 116.5t164.5 321.5h-84q-15 -94 -53.5 -165.5t-94 -113.5t-119.5 -62.5t-137 -20.5q-156 0 -234.5 77.5t-54.5 229.5q9 56 38 102.5t67.5 79.5t84.5 64.5t92 65.5t86.5 74t72.5 99.5t45 132.5l14 87h-88l-12 -87
q-10 -63 -39.5 -114.5t-69 -87.5t-85.5 -69t-92.5 -67t-86.5 -72.5t-70 -94t-41 -123.5q-28 -175 73 -274t284 -99z" />
    <glyph glyph-name="Agrave" unicode="&#xc0;" horiz-adv-x="1333" 
d="M840 1559h-72l-215 262h123zM1096 0l-101 426h-702l-238 -426h-98l807 1434h72l352 -1434h-92zM332 498h645l-193 811z" />
    <glyph glyph-name="Aacute" unicode="&#xc1;" horiz-adv-x="1333" 
d="M1102 1821l-256 -262h-68l205 262h119zM1096 0l-101 426h-702l-238 -426h-98l807 1434h72l352 -1434h-92zM332 498h645l-193 811z" />
    <glyph glyph-name="Acircumflex" unicode="&#xc2;" horiz-adv-x="1333" 
d="M829 1763l-233 -194h-74l248 252h129l170 -252h-70zM1096 0l-101 426h-702l-238 -426h-98l807 1434h72l352 -1434h-92zM332 498h645l-193 811z" />
    <glyph glyph-name="Atilde" unicode="&#xc3;" horiz-adv-x="1333" 
d="M643 1774q-62 0 -91.5 -31.5t-27.5 -69.5h-57q0 81 53 125.5t125 44.5q46 0 87.5 -22.5t68 -49t63.5 -49t74 -22.5q62 0 91.5 32t27.5 70h57q0 -82 -53.5 -126t-124.5 -44q-38 0 -71.5 14.5t-59 35.5t-49.5 42t-53 35.5t-60 14.5zM1096 0l-101 426h-702l-238 -426h-98
l807 1434h72l352 -1434h-92zM332 498h645l-193 811z" />
    <glyph glyph-name="Adieresis" unicode="&#xc4;" horiz-adv-x="1333" 
d="M702 1821l-22 -160h-94l24 160h92zM1114 1821l-22 -160h-93l23 160h92zM1096 0l-101 426h-702l-238 -426h-98l807 1434h72l352 -1434h-92zM332 498h645l-193 811z" />
    <glyph glyph-name="Aring" unicode="&#xc5;" horiz-adv-x="1333" 
d="M825 1559q-63 0 -103 39.5t-40 97.5q0 73 53 125.5t129 52.5q61 0 100.5 -40t39.5 -99q0 -71 -53.5 -123.5t-125.5 -52.5zM856 1819q-46 0 -81.5 -34t-35.5 -81q0 -39 25.5 -64.5t66.5 -25.5q44 0 79.5 35.5t35.5 81.5q0 37 -25.5 62.5t-64.5 25.5zM1096 0l-101 426h-702
l-238 -426h-98l807 1434h72l352 -1434h-92zM332 498h645l-193 811z" />
    <glyph glyph-name="AE" unicode="&#xc6;" horiz-adv-x="1990" 
d="M2028 1354h-797l-92 -574h694l-10 -75h-697l-100 -625h821l-14 -80h-905l67 426h-581l-359 -426h-98l1196 1419l2 15h885zM1008 502l122 776l-653 -776h531z" />
    <glyph glyph-name="Ccedilla" unicode="&#xc7;" horiz-adv-x="1290" 
d="M815 1372q-121 0 -226 -46.5t-181 -127t-130.5 -187t-81 -228t-26.5 -248.5q0 -237 117 -355.5t315 -118.5q166 0 289.5 67.5t187.5 180.5h95q-71 -150 -220.5 -237t-345.5 -90l-84 -93q68 20 128.5 -18.5t60.5 -112.5q0 -92 -72 -135t-186 -43v49q186 6 186 125
q0 61 -49.5 83.5t-120.5 -5.5l-25 37l80 115q-207 19 -326.5 157t-119.5 391q0 144 31 279t94.5 251t151.5 203t209 137t261 50q200 0 324 -87.5t149 -240.5h-90q-26 114 -126 181t-269 67z" />
    <glyph glyph-name="Egrave" unicode="&#xc8;" horiz-adv-x="1081" 
d="M739 1559l-164 262h-122l215 -262h71zM1118 1354h-796l-93 -574h695l-11 -75h-696l-100 -625h821l-14 -80h-906l228 1434h884z" />
    <glyph glyph-name="Eacute" unicode="&#xc9;" horiz-adv-x="1081" 
d="M678 1559h67l256 262h-118zM1118 1354h-796l-93 -574h695l-11 -75h-696l-100 -625h821l-14 -80h-906l228 1434h884z" />
    <glyph glyph-name="Ecircumflex" unicode="&#xca;" horiz-adv-x="1081" 
d="M899 1569l-170 194l-233 -194h-74l248 252h129l170 -252h-70zM1118 1354h-796l-93 -574h695l-11 -75h-696l-100 -625h821l-14 -80h-906l228 1434h884z" />
    <glyph glyph-name="Edieresis" unicode="&#xcb;" horiz-adv-x="1081" 
d="M510 1821h92l-22 -160h-95zM922 1821h92l-23 -160h-92zM1118 1354h-796l-93 -574h695l-11 -75h-696l-100 -625h821l-14 -80h-906l228 1434h884z" />
    <glyph glyph-name="Igrave" unicode="&#xcc;" horiz-adv-x="325" 
d="M330 1559l-164 262h-123l215 -262h72zM109 0h-89l226 1434h88z" />
    <glyph glyph-name="Iacute" unicode="&#xcd;" horiz-adv-x="325" 
d="M268 1559h68l256 262h-119zM109 0h-89l226 1434h88z" />
    <glyph glyph-name="Icircumflex" unicode="&#xce;" horiz-adv-x="325" 
d="M489 1569l-170 194l-233 -194h-74l248 252h129l170 -252h-70zM109 0h-89l226 1434h88z" />
    <glyph glyph-name="Idieresis" unicode="&#xcf;" horiz-adv-x="325" 
d="M100 1821h93l-23 -160h-94zM512 1821h92l-22 -160h-93zM109 0h-89l226 1434h88z" />
    <glyph glyph-name="Eth" unicode="&#xd0;" horiz-adv-x="1304" 
d="M664 1434q291 0 439 -141t148 -402q0 -263 -94 -463t-278.5 -314t-436.5 -114h-383l107 682h-90l10 66h90l109 686h379zM440 80q176 0 314.5 59.5t228 167.5t136 257.5t46.5 332.5q0 457 -516 457h-291l-94 -606h492l-11 -66h-491l-94 -602h280z" />
    <glyph glyph-name="Ntilde" unicode="&#xd1;" horiz-adv-x="1302" 
d="M1059 1802h57q0 -82 -53.5 -126t-124.5 -44q-38 0 -71.5 14.5t-59 35.5t-49.5 42t-53 35.5t-60 14.5q-62 0 -91.5 -31.5t-27.5 -69.5h-57q0 81 53 125.5t125 44.5q46 0 87.5 -22.5t68 -49t63.5 -49t74 -22.5q62 0 91.5 32t27.5 70zM1313 1434l-228 -1434h-104l-664 1315
h-4l-207 -1315h-88l228 1434h102l666 -1313h4l207 1313h88z" />
    <glyph glyph-name="Ograve" unicode="&#xd2;" horiz-adv-x="1419" 
d="M899 1559l-164 262h-123l215 -262h72zM834 1452q239 0 381.5 -141t142.5 -404q0 -148 -32 -285t-96.5 -253.5t-154 -202.5t-212.5 -135t-265 -49q-238 0 -379 140t-141 402q0 148 32 285.5t95.5 254t153 203.5t212 136t263.5 49zM608 63q125 0 233 46.5t185.5 126.5
t132.5 187t82 229t27 251q0 229 -119 348t-324 119q-125 0 -233 -46.5t-184.5 -127t-131.5 -188t-81.5 -230t-26.5 -252.5q0 -229 117.5 -346t322.5 -117z" />
    <glyph glyph-name="Oacute" unicode="&#xd3;" horiz-adv-x="1419" 
d="M838 1559h67l256 262h-119zM834 1452q239 0 381.5 -141t142.5 -404q0 -148 -32 -285t-96.5 -253.5t-154 -202.5t-212.5 -135t-265 -49q-238 0 -379 140t-141 402q0 148 32 285.5t95.5 254t153 203.5t212 136t263.5 49zM608 63q125 0 233 46.5t185.5 126.5t132.5 187
t82 229t27 251q0 229 -119 348t-324 119q-125 0 -233 -46.5t-184.5 -127t-131.5 -188t-81.5 -230t-26.5 -252.5q0 -229 117.5 -346t322.5 -117z" />
    <glyph glyph-name="Ocircumflex" unicode="&#xd4;" horiz-adv-x="1419" 
d="M1059 1569l-170 194l-234 -194h-73l247 252h129l170 -252h-69zM834 1452q239 0 381.5 -141t142.5 -404q0 -148 -32 -285t-96.5 -253.5t-154 -202.5t-212.5 -135t-265 -49q-238 0 -379 140t-141 402q0 148 32 285.5t95.5 254t153 203.5t212 136t263.5 49zM608 63
q125 0 233 46.5t185.5 126.5t132.5 187t82 229t27 251q0 229 -119 348t-324 119q-125 0 -233 -46.5t-184.5 -127t-131.5 -188t-81.5 -230t-26.5 -252.5q0 -229 117.5 -346t322.5 -117z" />
    <glyph glyph-name="Otilde" unicode="&#xd5;" horiz-adv-x="1419" 
d="M1116 1802h58q0 -82 -53.5 -126t-125.5 -44q-38 0 -71.5 14.5t-59 35.5t-49.5 42t-53 35.5t-60 14.5q-62 0 -91 -31.5t-27 -69.5h-58q0 81 53.5 125.5t125.5 44.5q46 0 87.5 -22.5t67.5 -49t63 -49t74 -22.5q62 0 91.5 32t27.5 70zM834 1452q239 0 381.5 -141t142.5 -404
q0 -148 -32 -285t-96.5 -253.5t-154 -202.5t-212.5 -135t-265 -49q-238 0 -379 140t-141 402q0 148 32 285.5t95.5 254t153 203.5t212 136t263.5 49zM608 63q125 0 233 46.5t185.5 126.5t132.5 187t82 229t27 251q0 229 -119 348t-324 119q-125 0 -233 -46.5t-184.5 -127
t-131.5 -188t-81.5 -230t-26.5 -252.5q0 -229 117.5 -346t322.5 -117z" />
    <glyph glyph-name="Odieresis" unicode="&#xd6;" horiz-adv-x="1419" 
d="M670 1821h92l-23 -160h-94zM1081 1821h93l-23 -160h-92zM834 1452q239 0 381.5 -141t142.5 -404q0 -148 -32 -285t-96.5 -253.5t-154 -202.5t-212.5 -135t-265 -49q-238 0 -379 140t-141 402q0 148 32 285.5t95.5 254t153 203.5t212 136t263.5 49zM608 63q125 0 233 46.5
t185.5 126.5t132.5 187t82 229t27 251q0 229 -119 348t-324 119q-125 0 -233 -46.5t-184.5 -127t-131.5 -188t-81.5 -230t-26.5 -252.5q0 -229 117.5 -346t322.5 -117z" />
    <glyph glyph-name="multiply" unicode="&#xd7;" horiz-adv-x="739" 
d="M719 788l-291 -249l211 -250l-66 -58l-211 250l-292 -252l-47 58l290 254l-209 247l62 58l213 -250l289 252z" />
    <glyph glyph-name="Oslash" unicode="&#xd8;" horiz-adv-x="1419" 
d="M1161 1358q197 -141 197 -451q0 -148 -32 -285t-96.5 -253.5t-154 -202.5t-212.5 -135t-265 -49q-158 0 -274 61l-93 -145h-84l117 184q-186 140 -186 442q0 148 32 285.5t95.5 254t153 203.5t212 136t263.5 49q155 0 266 -57l84 131h84zM168 526q0 -249 143 -370
l742 1165q-94 49 -228 49q-125 0 -233 -46.5t-184.5 -127t-131.5 -188t-81.5 -230t-26.5 -252.5zM608 63q125 0 233 46.5t185.5 126.5t132.5 187t82 229t27 251q0 256 -154 381l-743 -1167q102 -54 237 -54z" />
    <glyph glyph-name="Ugrave" unicode="&#xd9;" horiz-adv-x="1294" 
d="M838 1559l-164 262h-123l215 -262h72zM1303 1434l-140 -891q-41 -259 -206.5 -407t-411.5 -148t-363 148t-76 407l140 891h88l-141 -885q-36 -228 57.5 -354.5t306.5 -126.5q209 0 345 127t173 354l139 885h89z" />
    <glyph glyph-name="Uacute" unicode="&#xda;" horiz-adv-x="1294" 
d="M776 1559h68l256 262h-119zM1303 1434l-140 -891q-41 -259 -206.5 -407t-411.5 -148t-363 148t-76 407l140 891h88l-141 -885q-36 -228 57.5 -354.5t306.5 -126.5q209 0 345 127t173 354l139 885h89z" />
    <glyph glyph-name="Ucircumflex" unicode="&#xdb;" horiz-adv-x="1294" 
d="M997 1569l-170 194l-233 -194h-74l248 252h129l170 -252h-70zM1303 1434l-140 -891q-41 -259 -206.5 -407t-411.5 -148t-363 148t-76 407l140 891h88l-141 -885q-36 -228 57.5 -354.5t306.5 -126.5q209 0 345 127t173 354l139 885h89z" />
    <glyph glyph-name="Udieresis" unicode="&#xdc;" horiz-adv-x="1294" 
d="M608 1821h92l-22 -160h-94zM1020 1821h92l-22 -160h-93zM1303 1434l-140 -891q-41 -259 -206.5 -407t-411.5 -148t-363 148t-76 407l140 891h88l-141 -885q-36 -228 57.5 -354.5t306.5 -126.5q209 0 345 127t173 354l139 885h89z" />
    <glyph glyph-name="Yacute" unicode="&#xdd;" horiz-adv-x="1267" 
d="M764 1559h67l256 262h-118zM668 580l-93 -580h-86l93 580l-398 854h95l354 -768l594 768h102z" />
    <glyph glyph-name="Thorn" unicode="&#xde;" horiz-adv-x="1179" 
d="M104 0h-84l226 1434h84zM664 1157q234 0 353.5 -122t88.5 -318q-33 -208 -185.5 -320t-392.5 -112h-378l12 77h381q205 0 328.5 94t152.5 269q25 162 -70 259t-297 97h-383l13 76h377z" />
    <glyph glyph-name="germandbls" unicode="&#xdf;" horiz-adv-x="1144" 
d="M758 784q133 -30 199.5 -111.5t66.5 -199.5q0 -121 -42.5 -212.5t-122 -148t-187 -84.5t-242.5 -28h-158l13 78h153q238 0 370 96.5t132 300.5q0 129 -100 199.5t-287 70.5h-162l12 76h156q191 0 295 81.5t104 244.5q0 98 -76 154.5t-223 56.5q-178 0 -271 -69t-116 -218
l-170 -1071h-84l170 1079q29 176 142.5 265.5t331.5 89.5q182 0 281 -76.5t99 -216.5q0 -137 -72.5 -228.5t-211.5 -128.5z" />
    <glyph glyph-name="agrave" unicode="&#xe0;" horiz-adv-x="1097" 
d="M645 1190h-72l-215 262h123zM950 705l-90 -574q-6 -42 12 -57.5t66 -10.5l-10 -63q-21 -8 -45 -8q-67 0 -92.5 34t-10.5 115l19 97q-20 -34 -57.5 -72.5t-95.5 -81t-142.5 -70.5t-177.5 -28q-139 0 -220 71.5t-81 194.5q0 82 28.5 142t86 99t129 62t171.5 39q7 1 48.5 7
t57.5 8.5t56 8.5t61.5 10.5t56 11t57 12.5t46.5 13.5t41 14.5l4 22q26 164 -34 233t-230 69q-152 0 -228 -48t-108 -139h-84q42 136 145.5 197t278.5 61q201 0 287 -87.5t55 -282.5zM338 53q78 0 151 23.5t123.5 56.5t94 75t66.5 74t36 58l45 272q-19 -8 -52.5 -17t-82 -18
t-90.5 -16t-106.5 -18t-100.5 -17q-164 -27 -238.5 -88t-74.5 -184q0 -94 61 -147.5t168 -53.5z" />
    <glyph glyph-name="aacute" unicode="&#xe1;" horiz-adv-x="1097" 
d="M907 1452l-256 -262h-67l204 262h119zM950 705l-90 -574q-6 -42 12 -57.5t66 -10.5l-10 -63q-21 -8 -45 -8q-67 0 -92.5 34t-10.5 115l19 97q-20 -34 -57.5 -72.5t-95.5 -81t-142.5 -70.5t-177.5 -28q-139 0 -220 71.5t-81 194.5q0 82 28.5 142t86 99t129 62t171.5 39
q7 1 48.5 7t57.5 8.5t56 8.5t61.5 10.5t56 11t57 12.5t46.5 13.5t41 14.5l4 22q26 164 -34 233t-230 69q-152 0 -228 -48t-108 -139h-84q42 136 145.5 197t278.5 61q201 0 287 -87.5t55 -282.5zM338 53q78 0 151 23.5t123.5 56.5t94 75t66.5 74t36 58l45 272
q-19 -8 -52.5 -17t-82 -18t-90.5 -16t-106.5 -18t-100.5 -17q-164 -27 -238.5 -88t-74.5 -184q0 -94 61 -147.5t168 -53.5z" />
    <glyph glyph-name="acircumflex" unicode="&#xe2;" horiz-adv-x="1097" 
d="M635 1395l-234 -195h-73l247 252h130l169 -252h-69zM950 705l-90 -574q-6 -42 12 -57.5t66 -10.5l-10 -63q-21 -8 -45 -8q-67 0 -92.5 34t-10.5 115l19 97q-20 -34 -57.5 -72.5t-95.5 -81t-142.5 -70.5t-177.5 -28q-139 0 -220 71.5t-81 194.5q0 82 28.5 142t86 99
t129 62t171.5 39q7 1 48.5 7t57.5 8.5t56 8.5t61.5 10.5t56 11t57 12.5t46.5 13.5t41 14.5l4 22q26 164 -34 233t-230 69q-152 0 -228 -48t-108 -139h-84q42 136 145.5 197t278.5 61q201 0 287 -87.5t55 -282.5zM338 53q78 0 151 23.5t123.5 56.5t94 75t66.5 74t36 58
l45 272q-19 -8 -52.5 -17t-82 -18t-90.5 -16t-106.5 -18t-100.5 -17q-164 -27 -238.5 -88t-74.5 -184q0 -94 61 -147.5t168 -53.5z" />
    <glyph glyph-name="atilde" unicode="&#xe3;" horiz-adv-x="1097" 
d="M449 1405q-63 0 -92 -31.5t-27 -68.5h-58q0 81 53.5 125.5t125.5 44.5q38 0 71.5 -15t58.5 -36t49 -42t53 -36t60 -15q62 0 91.5 32.5t27.5 70.5h58q0 -82 -53.5 -126t-125.5 -44q-38 0 -71.5 14.5t-58.5 35t-49 41.5t-53 35.5t-60 14.5zM950 705l-90 -574
q-6 -42 12 -57.5t66 -10.5l-10 -63q-21 -8 -45 -8q-67 0 -92.5 34t-10.5 115l19 97q-20 -34 -57.5 -72.5t-95.5 -81t-142.5 -70.5t-177.5 -28q-139 0 -220 71.5t-81 194.5q0 82 28.5 142t86 99t129 62t171.5 39q7 1 48.5 7t57.5 8.5t56 8.5t61.5 10.5t56 11t57 12.5
t46.5 13.5t41 14.5l4 22q26 164 -34 233t-230 69q-152 0 -228 -48t-108 -139h-84q42 136 145.5 197t278.5 61q201 0 287 -87.5t55 -282.5zM338 53q78 0 151 23.5t123.5 56.5t94 75t66.5 74t36 58l45 272q-19 -8 -52.5 -17t-82 -18t-90.5 -16t-106.5 -18t-100.5 -17
q-164 -27 -238.5 -88t-74.5 -184q0 -94 61 -147.5t168 -53.5z" />
    <glyph glyph-name="adieresis" unicode="&#xe4;" horiz-adv-x="1097" 
d="M508 1452l-23 -160h-94l25 160h92zM920 1452l-23 -160h-92l22 160h93zM950 705l-90 -574q-6 -42 12 -57.5t66 -10.5l-10 -63q-21 -8 -45 -8q-67 0 -92.5 34t-10.5 115l19 97q-20 -34 -57.5 -72.5t-95.5 -81t-142.5 -70.5t-177.5 -28q-139 0 -220 71.5t-81 194.5
q0 82 28.5 142t86 99t129 62t171.5 39q7 1 48.5 7t57.5 8.5t56 8.5t61.5 10.5t56 11t57 12.5t46.5 13.5t41 14.5l4 22q26 164 -34 233t-230 69q-152 0 -228 -48t-108 -139h-84q42 136 145.5 197t278.5 61q201 0 287 -87.5t55 -282.5zM338 53q78 0 151 23.5t123.5 56.5t94 75
t66.5 74t36 58l45 272q-19 -8 -52.5 -17t-82 -18t-90.5 -16t-106.5 -18t-100.5 -17q-164 -27 -238.5 -88t-74.5 -184q0 -94 61 -147.5t168 -53.5z" />
    <glyph glyph-name="aring" unicode="&#xe5;" horiz-adv-x="1097" 
d="M631 1190q-63 0 -103.5 39.5t-40.5 97.5q0 73 53.5 125.5t129.5 52.5q61 0 100 -40t39 -99q0 -71 -53 -123.5t-125 -52.5zM662 1450q-46 0 -81.5 -34t-35.5 -81q0 -39 25.5 -64.5t66.5 -25.5q44 0 79.5 35.5t35.5 81.5q0 37 -25.5 62.5t-64.5 25.5zM950 705l-90 -574
q-6 -42 12 -57.5t66 -10.5l-10 -63q-21 -8 -45 -8q-67 0 -92.5 34t-10.5 115l19 97q-20 -34 -57.5 -72.5t-95.5 -81t-142.5 -70.5t-177.5 -28q-139 0 -220 71.5t-81 194.5q0 82 28.5 142t86 99t129 62t171.5 39q7 1 48.5 7t57.5 8.5t56 8.5t61.5 10.5t56 11t57 12.5
t46.5 13.5t41 14.5l4 22q26 164 -34 233t-230 69q-152 0 -228 -48t-108 -139h-84q42 136 145.5 197t278.5 61q201 0 287 -87.5t55 -282.5zM338 53q78 0 151 23.5t123.5 56.5t94 75t66.5 74t36 58l45 272q-19 -8 -52.5 -17t-82 -18t-90.5 -16t-106.5 -18t-100.5 -17
q-164 -27 -238.5 -88t-74.5 -184q0 -94 61 -147.5t168 -53.5z" />
    <glyph glyph-name="ae" unicode="&#xe6;" horiz-adv-x="1869" 
d="M1778 487h-863q-4 -50 -4 -73q0 -180 92.5 -268.5t249.5 -88.5q117 0 195 31.5t151 110.5h95q-93 -117 -197 -165t-250 -48q-158 0 -264.5 77t-138.5 222q-45 -61 -91.5 -108t-110.5 -93t-146 -71t-174 -25q-140 0 -221 67.5t-81 186.5q0 164 108 246.5t310 109.5
q332 44 424 82l4 27q26 162 -34 228t-230 66q-147 0 -225.5 -46t-110.5 -130h-82q41 130 145 190t279 60q162 0 250 -56.5t98 -178.5q79 110 194.5 172.5t254.5 62.5q172 0 282.5 -110t110.5 -306q0 -32 -6.5 -88.5t-13.5 -83.5zM1397 1004q-183 0 -308.5 -127t-164.5 -322
h784q10 46 10 107q0 166 -89 254t-232 88zM334 59q78 0 151.5 24.5t122.5 56.5t94.5 76.5t66 71t38.5 54.5l33 195q0 10 2 16l8 57q-65 -32 -436 -86q-151 -21 -229.5 -88t-78.5 -190q0 -89 61 -138t167 -49z" />
    <glyph glyph-name="ccedilla" unicode="&#xe7;" horiz-adv-x="1038" 
d="M449 59q129 0 219 54.5t151 171.5h86q-131 -283 -424 -299l-88 -97q68 20 128.5 -18.5t60.5 -112.5q0 -92 -72 -135t-186 -43v49q186 6 186 125q0 61 -50 83.5t-120 -5.5l-25 37l82 119q-162 16 -263 126.5t-101 303.5q0 176 71.5 325.5t204 240.5t297.5 91
q158 0 254 -72t127 -229h-84q-26 119 -98 173t-199 54q-91 0 -171 -33t-138 -89t-100 -130t-63 -158t-21 -171q0 -180 95 -270.5t241 -90.5z" />
    <glyph glyph-name="egrave" unicode="&#xe8;" horiz-adv-x="1073" 
d="M662 1190h-72l-215 262h123zM981 487h-862q-4 -50 -4 -73q0 -180 92.5 -268.5t249.5 -88.5q117 0 195 31.5t151 110.5h94q-93 -117 -196.5 -165t-249.5 -48q-191 0 -304.5 111t-113.5 317q0 135 42 256t116.5 210.5t183 142t233.5 52.5q172 0 282.5 -110t110.5 -306
q0 -32 -6.5 -88.5t-13.5 -83.5zM600 1004q-183 0 -308.5 -127t-164.5 -322h784q11 51 11 107q0 166 -89.5 254t-232.5 88z" />
    <glyph glyph-name="eacute" unicode="&#xe9;" horiz-adv-x="1073" 
d="M924 1452l-256 -262h-68l205 262h119zM981 487h-862q-4 -50 -4 -73q0 -180 92.5 -268.5t249.5 -88.5q117 0 195 31.5t151 110.5h94q-93 -117 -196.5 -165t-249.5 -48q-191 0 -304.5 111t-113.5 317q0 135 42 256t116.5 210.5t183 142t233.5 52.5q172 0 282.5 -110
t110.5 -306q0 -32 -6.5 -88.5t-13.5 -83.5zM600 1004q-183 0 -308.5 -127t-164.5 -322h784q11 51 11 107q0 166 -89.5 254t-232.5 88z" />
    <glyph glyph-name="ecircumflex" unicode="&#xea;" horiz-adv-x="1073" 
d="M651 1395l-233 -195h-74l248 252h129l170 -252h-70zM981 487h-862q-4 -50 -4 -73q0 -180 92.5 -268.5t249.5 -88.5q117 0 195 31.5t151 110.5h94q-93 -117 -196.5 -165t-249.5 -48q-191 0 -304.5 111t-113.5 317q0 135 42 256t116.5 210.5t183 142t233.5 52.5
q172 0 282.5 -110t110.5 -306q0 -32 -6.5 -88.5t-13.5 -83.5zM600 1004q-183 0 -308.5 -127t-164.5 -322h784q11 51 11 107q0 166 -89.5 254t-232.5 88z" />
    <glyph glyph-name="edieresis" unicode="&#xeb;" horiz-adv-x="1073" 
d="M524 1452l-22 -160h-94l24 160h92zM936 1452l-23 -160h-92l23 160h92zM981 487h-862q-4 -50 -4 -73q0 -180 92.5 -268.5t249.5 -88.5q117 0 195 31.5t151 110.5h94q-93 -117 -196.5 -165t-249.5 -48q-191 0 -304.5 111t-113.5 317q0 135 42 256t116.5 210.5t183 142
t233.5 52.5q172 0 282.5 -110t110.5 -306q0 -32 -6.5 -88.5t-13.5 -83.5zM600 1004q-183 0 -308.5 -127t-164.5 -322h784q11 51 11 107q0 166 -89.5 254t-232.5 88z" />
    <glyph glyph-name="igrave" unicode="&#xec;" horiz-adv-x="301" 
d="M260 1190l-164 262h-123l215 -262h72zM176 1065h84l-168 -1065h-84z" />
    <glyph glyph-name="iacute" unicode="&#xed;" horiz-adv-x="301" 
d="M199 1190h67l256 262h-119zM176 1065h84l-168 -1065h-84z" />
    <glyph glyph-name="icircumflex" unicode="&#xee;" horiz-adv-x="301" 
d="M420 1200l-170 195l-234 -195h-73l247 252h129l170 -252h-69zM176 1065h84l-168 -1065h-84z" />
    <glyph glyph-name="idieresis" unicode="&#xef;" horiz-adv-x="301" 
d="M31 1452h92l-23 -160h-94zM442 1452h93l-23 -160h-92zM176 1065h84l-168 -1065h-84z" />
    <glyph glyph-name="eth" unicode="&#xf0;" horiz-adv-x="1122" 
d="M1006 1225l-175 -23q97 -164 138 -282.5t41 -239.5q0 -199 -69 -357t-202.5 -250.5t-310.5 -92.5q-176 0 -285.5 111.5t-109.5 309.5q0 137 37.5 257.5t106.5 211t175.5 143t235.5 52.5q201 0 297 -119q-52 108 -133 248l-240 -31l10 54l201 26q-97 148 -127 191h92
q81 -124 115 -181l213 27zM432 57q95 0 176 32.5t138.5 89.5t98 133.5t60 165.5t19.5 186q0 325 -334 325q-92 0 -169.5 -30.5t-132.5 -84.5t-94 -128t-58 -160.5t-19 -182.5q0 -170 88.5 -258t226.5 -88z" />
    <glyph glyph-name="ntilde" unicode="&#xf1;" horiz-adv-x="1067" 
d="M883 1434h57q0 -82 -53.5 -126t-124.5 -44q-46 0 -87.5 22t-68 48.5t-63.5 48.5t-74 22q-63 0 -92 -31.5t-27 -68.5h-57q0 81 53 125.5t125 44.5q46 0 87.5 -22.5t68 -49.5t63.5 -49.5t74 -22.5q62 0 91.5 32.5t27.5 70.5zM643 1075q84 0 148 -22t112.5 -72.5t63 -132
t-1.5 -201.5l-105 -647h-84l103 651q15 80 7.5 139t-26.5 99t-55.5 64.5t-80 35t-99.5 10.5q-69 0 -133.5 -22.5t-112 -57.5t-87.5 -79.5t-64.5 -85.5t-39.5 -80l-106 -674h-84l168 1065h84l-41 -266q9 26 32 59.5t63 72t88.5 70.5t115 53t135.5 21z" />
    <glyph glyph-name="ograve" unicode="&#xf2;" horiz-adv-x="1083" 
d="M647 1190l-164 262h-123l215 -262h72zM602 1075q112 0 203 -47.5t148 -148t57 -238.5q0 -129 -43 -249t-118 -209.5t-182.5 -143t-228.5 -53.5q-172 0 -288.5 113t-116.5 317q0 103 27 201.5t78 181t120 144.5t158 97t186 35zM928 645q0 89 -26.5 158.5t-72.5 111.5
t-104 64t-125 22q-142 0 -254.5 -82.5t-171.5 -215t-59 -285.5q0 -89 26.5 -159t72.5 -112.5t104 -65t124 -22.5q143 0 255.5 83.5t171.5 216t59 286.5z" />
    <glyph glyph-name="oacute" unicode="&#xf3;" horiz-adv-x="1083" 
d="M586 1190h67l256 262h-118zM602 1075q112 0 203 -47.5t148 -148t57 -238.5q0 -129 -43 -249t-118 -209.5t-182.5 -143t-228.5 -53.5q-172 0 -288.5 113t-116.5 317q0 103 27 201.5t78 181t120 144.5t158 97t186 35zM928 645q0 89 -26.5 158.5t-72.5 111.5t-104 64
t-125 22q-142 0 -254.5 -82.5t-171.5 -215t-59 -285.5q0 -89 26.5 -159t72.5 -112.5t104 -65t124 -22.5q143 0 255.5 83.5t171.5 216t59 286.5z" />
    <glyph glyph-name="ocircumflex" unicode="&#xf4;" horiz-adv-x="1083" 
d="M807 1200l-170 195l-234 -195h-73l248 252h129l170 -252h-70zM602 1075q112 0 203 -47.5t148 -148t57 -238.5q0 -129 -43 -249t-118 -209.5t-182.5 -143t-228.5 -53.5q-172 0 -288.5 113t-116.5 317q0 103 27 201.5t78 181t120 144.5t158 97t186 35zM928 645
q0 89 -26.5 158.5t-72.5 111.5t-104 64t-125 22q-142 0 -254.5 -82.5t-171.5 -215t-59 -285.5q0 -89 26.5 -159t72.5 -112.5t104 -65t124 -22.5q143 0 255.5 83.5t171.5 216t59 286.5z" />
    <glyph glyph-name="otilde" unicode="&#xf5;" horiz-adv-x="1083" 
d="M864 1434h58q0 -82 -53.5 -126t-125.5 -44q-38 0 -71.5 14.5t-58.5 35t-49 41.5t-53 35.5t-60 14.5q-63 0 -92 -31.5t-27 -68.5h-58q0 81 53.5 125.5t125.5 44.5q38 0 71.5 -15t58.5 -36t49 -42t53 -36t60 -15q62 0 91.5 32.5t27.5 70.5zM602 1075q112 0 203 -47.5
t148 -148t57 -238.5q0 -129 -43 -249t-118 -209.5t-182.5 -143t-228.5 -53.5q-172 0 -288.5 113t-116.5 317q0 103 27 201.5t78 181t120 144.5t158 97t186 35zM928 645q0 89 -26.5 158.5t-72.5 111.5t-104 64t-125 22q-142 0 -254.5 -82.5t-171.5 -215t-59 -285.5
q0 -89 26.5 -159t72.5 -112.5t104 -65t124 -22.5q143 0 255.5 83.5t171.5 216t59 286.5z" />
    <glyph glyph-name="odieresis" unicode="&#xf6;" horiz-adv-x="1083" 
d="M418 1452h92l-23 -160h-94zM829 1452h93l-23 -160h-92zM602 1075q112 0 203 -47.5t148 -148t57 -238.5q0 -129 -43 -249t-118 -209.5t-182.5 -143t-228.5 -53.5q-172 0 -288.5 113t-116.5 317q0 103 27 201.5t78 181t120 144.5t158 97t186 35zM928 645q0 89 -26.5 158.5
t-72.5 111.5t-104 64t-125 22q-142 0 -254.5 -82.5t-171.5 -215t-59 -285.5q0 -89 26.5 -159t72.5 -112.5t104 -65t124 -22.5q143 0 255.5 83.5t171.5 216t59 286.5z" />
    <glyph glyph-name="divide" unicode="&#xf7;" horiz-adv-x="847" 
d="M475 834q-23 0 -37.5 16.5t-9.5 38.5q3 20 19 33.5t34 13.5q22 0 35.5 -17t11.5 -40q-4 -19 -20 -32t-33 -13zM72 608h725l-11 -65h-725zM379 217q-23 0 -37.5 17.5t-11.5 39.5q3 19 18.5 32t32.5 13q23 0 37.5 -17t11.5 -38q-3 -20 -18 -33.5t-33 -13.5z" />
    <glyph glyph-name="oslash" unicode="&#xf8;" horiz-adv-x="1083" 
d="M852 995q158 -119 158 -354q0 -129 -43 -249t-118 -209.5t-182.5 -143t-228.5 -53.5q-111 0 -200 47l-86 -135h-84l110 174q-145 119 -145 344q0 103 27 201.5t78 181t120 144.5t158 97t186 35q106 0 191 -43l96 152h84zM115 418q0 -180 106 -279l531 830q-63 32 -152 32
q-142 0 -254.5 -82.5t-171.5 -215t-59 -285.5zM442 59q143 0 255.5 83.5t171.5 216t59 286.5q0 190 -117 285l-530 -832q71 -39 161 -39z" />
    <glyph glyph-name="ugrave" unicode="&#xf9;" horiz-adv-x="1067" 
d="M633 1190h-72l-215 262h123zM944 1065h84l-168 -1065h-84l41 260q-13 -28 -37 -61.5t-64 -71.5t-87.5 -68.5t-112.5 -50.5t-133 -20q-67 0 -121 14t-99.5 45t-71 80.5t-35.5 120.5t7 166l103 651h84l-103 -653q-56 -346 250 -346q86 0 163 32t131 82.5t90.5 103
t56.5 103.5z" />
    <glyph glyph-name="uacute" unicode="&#xfa;" horiz-adv-x="1067" 
d="M895 1452l-256 -262h-68l205 262h119zM944 1065h84l-168 -1065h-84l41 260q-13 -28 -37 -61.5t-64 -71.5t-87.5 -68.5t-112.5 -50.5t-133 -20q-67 0 -121 14t-99.5 45t-71 80.5t-35.5 120.5t7 166l103 651h84l-103 -653q-56 -346 250 -346q86 0 163 32t131 82.5t90.5 103
t56.5 103.5z" />
    <glyph glyph-name="ucircumflex" unicode="&#xfb;" horiz-adv-x="1067" 
d="M623 1395l-234 -195h-74l248 252h129l170 -252h-69zM944 1065h84l-168 -1065h-84l41 260q-13 -28 -37 -61.5t-64 -71.5t-87.5 -68.5t-112.5 -50.5t-133 -20q-67 0 -121 14t-99.5 45t-71 80.5t-35.5 120.5t7 166l103 651h84l-103 -653q-56 -346 250 -346q86 0 163 32
t131 82.5t90.5 103t56.5 103.5z" />
    <glyph glyph-name="udieresis" unicode="&#xfc;" horiz-adv-x="1067" 
d="M496 1452l-23 -160h-94l24 160h93zM907 1452l-22 -160h-92l22 160h92zM944 1065h84l-168 -1065h-84l41 260q-13 -28 -37 -61.5t-64 -71.5t-87.5 -68.5t-112.5 -50.5t-133 -20q-67 0 -121 14t-99.5 45t-71 80.5t-35.5 120.5t7 166l103 651h84l-103 -653q-56 -346 250 -346
q86 0 163 32t131 82.5t90.5 103t56.5 103.5z" />
    <glyph glyph-name="yacute" unicode="&#xfd;" horiz-adv-x="1001" 
d="M563 1190h68l256 262h-119zM944 1065h90l-661 -1190q-158 -289 -402 -250l15 76q95 -15 175.5 37t139.5 162q30 55 38.5 78t4.5 42l-250 1045h84l230 -983z" />
    <glyph glyph-name="thorn" unicode="&#xfe;" horiz-adv-x="1126" 
d="M655 1077q112 0 200.5 -45t143 -142t54.5 -235q0 -135 -40 -257.5t-111 -214.5t-176.5 -146.5t-229.5 -54.5q-282 0 -361 272l-102 -643h-84l287 1823h83l-98 -607q162 250 434 250zM489 55q88 0 165.5 33.5t135 91t99.5 133t63 162.5t21 176q0 175 -92.5 264t-229.5 89
q-113 0 -206.5 -47.5t-154.5 -128.5t-94.5 -186.5t-33.5 -223.5q0 -177 92.5 -270t234.5 -93z" />
    <glyph glyph-name="ydieresis" unicode="&#xff;" horiz-adv-x="1001" 
d="M395 1452h92l-22 -160h-94zM807 1452h92l-22 -160h-93zM944 1065h90l-661 -1190q-158 -289 -402 -250l15 76q95 -15 175.5 37t139.5 162q30 55 38.5 78t4.5 42l-250 1045h84l230 -983z" />
    <glyph glyph-name="Amacron" unicode="&#x100;" horiz-adv-x="1333" 
d="M1149 1821l-10 -62h-561l8 62h563zM1096 0l-101 426h-702l-238 -426h-98l807 1434h72l352 -1434h-92zM332 498h645l-193 811z" />
    <glyph glyph-name="amacron" unicode="&#x101;" horiz-adv-x="1097" 
d="M954 1452l-10 -61h-561l8 61h563zM950 705l-90 -574q-6 -42 12 -57.5t66 -10.5l-10 -63q-21 -8 -45 -8q-67 0 -92.5 34t-10.5 115l19 97q-20 -34 -57.5 -72.5t-95.5 -81t-142.5 -70.5t-177.5 -28q-139 0 -220 71.5t-81 194.5q0 82 28.5 142t86 99t129 62t171.5 39
q7 1 48.5 7t57.5 8.5t56 8.5t61.5 10.5t56 11t57 12.5t46.5 13.5t41 14.5l4 22q26 164 -34 233t-230 69q-152 0 -228 -48t-108 -139h-84q42 136 145.5 197t278.5 61q201 0 287 -87.5t55 -282.5zM338 53q78 0 151 23.5t123.5 56.5t94 75t66.5 74t36 58l45 272
q-19 -8 -52.5 -17t-82 -18t-90.5 -16t-106.5 -18t-100.5 -17q-164 -27 -238.5 -88t-74.5 -184q0 -94 61 -147.5t168 -53.5z" />
    <glyph glyph-name="Abreve" unicode="&#x102;" horiz-adv-x="1333" 
d="M817 1587q-70 0 -120 21t-74 56.5t-31.5 75t-1.5 81.5h63q-11 -168 168 -168q186 0 234 168h63q-7 -45 -27 -84.5t-54.5 -74.5t-91 -55t-128.5 -20zM1096 0l-101 426h-702l-238 -426h-98l807 1434h72l352 -1434h-92zM332 498h645l-193 811z" />
    <glyph glyph-name="abreve" unicode="&#x103;" horiz-adv-x="1097" 
d="M623 1219q-70 0 -120 21t-74 56t-32 74.5t-2 81.5h64q-11 -168 168 -168q185 0 233 168h64q-7 -45 -27 -84.5t-54.5 -74t-91 -54.5t-128.5 -20zM950 705l-90 -574q-6 -42 12 -57.5t66 -10.5l-10 -63q-21 -8 -45 -8q-67 0 -92.5 34t-10.5 115l19 97q-20 -34 -57.5 -72.5
t-95.5 -81t-142.5 -70.5t-177.5 -28q-139 0 -220 71.5t-81 194.5q0 82 28.5 142t86 99t129 62t171.5 39q7 1 48.5 7t57.5 8.5t56 8.5t61.5 10.5t56 11t57 12.5t46.5 13.5t41 14.5l4 22q26 164 -34 233t-230 69q-152 0 -228 -48t-108 -139h-84q42 136 145.5 197t278.5 61
q201 0 287 -87.5t55 -282.5zM338 53q78 0 151 23.5t123.5 56.5t94 75t66.5 74t36 58l45 272q-19 -8 -52.5 -17t-82 -18t-90.5 -16t-106.5 -18t-100.5 -17q-164 -27 -238.5 -88t-74.5 -184q0 -94 61 -147.5t168 -53.5z" />
    <glyph glyph-name="Aogonek" unicode="&#x104;" horiz-adv-x="1333" 
d="M1165 0q-113 -43 -191 -108t-89 -142q-9 -66 40 -93.5t148 -10.5l-6 -56q-41 -16 -90 -16t-92 15.5t-68 56t-16 98.5q8 57 57 110t109.5 88t128.5 58l-101 426h-702l-238 -426h-98l807 1434h72l352 -1434h-23zM332 498h645l-193 811z" />
    <glyph glyph-name="aogonek" unicode="&#x105;" horiz-adv-x="1062" 
d="M950 705l-90 -574q-6 -42 12 -57.5t66 -10.5l-10 -63q-19 -8 -39 -8q-100 -43 -162.5 -104.5t-62.5 -135.5q0 -67 54 -96t150 -12v-54q-39 -16 -87.5 -17t-94 13.5t-76 54t-30.5 97.5q0 86 77.5 157.5t176.5 102.5q-77 22 -54 143l19 97q-20 -34 -57.5 -72.5t-95.5 -81
t-142.5 -70.5t-177.5 -28q-139 0 -220 71.5t-81 194.5q0 82 28.5 142t86 99t129 62t171.5 39q7 1 48.5 7t57.5 8.5t56 8.5t61.5 10.5t56 11t57 12.5t46.5 13.5t41 14.5l4 22q26 164 -34 233t-230 69q-152 0 -228 -48t-108 -139h-84q42 136 145.5 197t278.5 61
q201 0 287 -87.5t55 -282.5zM338 53q78 0 151 23.5t123.5 56.5t94 75t66.5 74t36 58l45 272q-19 -8 -52.5 -17t-82 -18t-90.5 -16t-106.5 -18t-100.5 -17q-164 -27 -238.5 -88t-74.5 -184q0 -94 61 -147.5t168 -53.5z" />
    <glyph glyph-name="Cacute" unicode="&#x106;" horiz-adv-x="1290" 
d="M782 1559h68l256 262h-119zM602 61q166 0 289.5 67.5t187.5 180.5h95q-72 -153 -226 -240t-356 -87q-235 0 -373.5 138.5t-138.5 411.5q0 144 31 279t94.5 251t151.5 203t209 137t261 50q200 0 324 -87.5t149 -240.5h-90q-26 114 -126 181t-269 67q-121 0 -226 -46.5
t-181 -127t-130.5 -187t-81 -228t-26.5 -248.5q0 -237 117 -355.5t315 -118.5z" />
    <glyph glyph-name="cacute" unicode="&#x107;" horiz-adv-x="1038" 
d="M588 1190h67l256 262h-118zM449 59q129 0 219 54.5t151 171.5h86q-74 -159 -187 -229t-269 -70q-181 0 -298.5 111.5t-117.5 320.5q0 176 71.5 325.5t204 240.5t297.5 91q158 0 254 -72t127 -229h-84q-26 119 -98 173t-199 54q-91 0 -171 -33t-138 -89t-100 -130
t-63 -158t-21 -171q0 -180 95 -270.5t241 -90.5z" />
    <glyph glyph-name="Cdotaccent" unicode="&#x10a;" horiz-adv-x="1290" 
d="M817 1821h92l-22 -160h-94zM602 61q166 0 289.5 67.5t187.5 180.5h95q-72 -153 -226 -240t-356 -87q-235 0 -373.5 138.5t-138.5 411.5q0 144 31 279t94.5 251t151.5 203t209 137t261 50q200 0 324 -87.5t149 -240.5h-90q-26 114 -126 181t-269 67q-121 0 -226 -46.5
t-181 -127t-130.5 -187t-81 -228t-26.5 -248.5q0 -237 117 -355.5t315 -118.5z" />
    <glyph glyph-name="cdotaccent" unicode="&#x10b;" horiz-adv-x="1038" 
d="M623 1452h92l-23 -160h-94zM449 59q129 0 219 54.5t151 171.5h86q-74 -159 -187 -229t-269 -70q-181 0 -298.5 111.5t-117.5 320.5q0 176 71.5 325.5t204 240.5t297.5 91q158 0 254 -72t127 -229h-84q-26 119 -98 173t-199 54q-91 0 -171 -33t-138 -89t-100 -130
t-63 -158t-21 -171q0 -180 95 -270.5t241 -90.5z" />
    <glyph glyph-name="Ccaron" unicode="&#x10c;" horiz-adv-x="1290" 
d="M1061 1821h74l-250 -252h-129l-168 252h69l170 -195zM602 61q166 0 289.5 67.5t187.5 180.5h95q-72 -153 -226 -240t-356 -87q-235 0 -373.5 138.5t-138.5 411.5q0 144 31 279t94.5 251t151.5 203t209 137t261 50q200 0 324 -87.5t149 -240.5h-90q-26 114 -126 181
t-269 67q-121 0 -226 -46.5t-181 -127t-130.5 -187t-81 -228t-26.5 -248.5q0 -237 117 -355.5t315 -118.5z" />
    <glyph glyph-name="ccaron" unicode="&#x10d;" horiz-adv-x="1038" 
d="M866 1452h74l-250 -252h-129l-168 252h70l170 -195zM449 59q129 0 219 54.5t151 171.5h86q-74 -159 -187 -229t-269 -70q-181 0 -298.5 111.5t-117.5 320.5q0 176 71.5 325.5t204 240.5t297.5 91q158 0 254 -72t127 -229h-84q-26 119 -98 173t-199 54q-91 0 -171 -33
t-138 -89t-100 -130t-63 -158t-21 -171q0 -180 95 -270.5t241 -90.5z" />
    <glyph glyph-name="Dcaron" unicode="&#x10e;" horiz-adv-x="1265" 
d="M1020 1821h74l-250 -252h-129l-168 252h69l170 -195zM625 1434q291 0 439 -141t148 -402q0 -263 -94 -463t-278.5 -314t-436.5 -114h-383l226 1434h379zM401 80q176 0 314.5 59.5t228 167.5t136 257.5t46.5 332.5q0 457 -516 457h-291l-198 -1274h280z" />
    <glyph glyph-name="dcaron" unicode="&#x10f;" horiz-adv-x="1275" 
d="M592 1075q134 0 231 -67t135 -203l99 629h82l-228 -1434h-82l43 242q-81 -129 -194.5 -192.5t-245.5 -63.5q-112 0 -200.5 45.5t-143.5 142.5t-55 232t40 256.5t111.5 213t177.5 145.5t230 54zM1147 1130h78l227 304h-115zM440 59q151 0 263.5 81t168.5 212t56 291
q0 93 -26.5 163.5t-73 112t-103 62t-121.5 20.5q-94 0 -174.5 -33t-137.5 -89.5t-97.5 -132t-60 -161t-19.5 -175.5q0 -172 91.5 -261.5t233.5 -89.5z" />
    <glyph glyph-name="Dcroat" unicode="&#x110;" horiz-adv-x="1304" 
d="M664 1434q291 0 439 -141t148 -402q0 -263 -94 -463t-278.5 -314t-436.5 -114h-383l107 682h-90l10 66h90l109 686h379zM440 80q176 0 314.5 59.5t228 167.5t136 257.5t46.5 332.5q0 457 -516 457h-291l-94 -606h492l-11 -66h-491l-94 -602h280z" />
    <glyph glyph-name="dcroat" unicode="&#x111;" horiz-adv-x="1212" 
d="M1317 1321l-12 -61h-193l-201 -1260h-82l43 242q-81 -129 -194.5 -192.5t-245.5 -63.5q-112 0 -200.5 45.5t-143.5 142.5t-55 232t40 256.5t111.5 213t177.5 145.5t230 54q134 0 231 -67t135 -203l72 455h-291l13 61h286l19 113h82l-19 -113h197zM440 59q151 0 263.5 81
t168.5 212t56 291q0 93 -26.5 163.5t-73 112t-103 62t-121.5 20.5q-94 0 -174.5 -33t-137.5 -89.5t-97.5 -132t-60 -161t-19.5 -175.5q0 -172 91.5 -261.5t233.5 -89.5z" />
    <glyph glyph-name="Emacron" unicode="&#x112;" horiz-adv-x="1081" 
d="M485 1821h564l-11 -62h-561zM1118 1354h-796l-93 -574h695l-11 -75h-696l-100 -625h821l-14 -80h-906l228 1434h884z" />
    <glyph glyph-name="emacron" unicode="&#x113;" horiz-adv-x="1073" 
d="M971 1452l-10 -61h-562l9 61h563zM981 487h-862q-4 -50 -4 -73q0 -180 92.5 -268.5t249.5 -88.5q117 0 195 31.5t151 110.5h94q-93 -117 -196.5 -165t-249.5 -48q-191 0 -304.5 111t-113.5 317q0 135 42 256t116.5 210.5t183 142t233.5 52.5q172 0 282.5 -110t110.5 -306
q0 -32 -6.5 -88.5t-13.5 -83.5zM600 1004q-183 0 -308.5 -127t-164.5 -322h784q11 51 11 107q0 166 -89.5 254t-232.5 88z" />
    <glyph glyph-name="Edotaccent" unicode="&#x116;" horiz-adv-x="1081" 
d="M713 1821h92l-23 -160h-94zM1118 1354h-796l-93 -574h695l-11 -75h-696l-100 -625h821l-14 -80h-906l228 1434h884z" />
    <glyph glyph-name="edotaccent" unicode="&#x117;" horiz-adv-x="1073" 
d="M727 1452l-22 -160h-95l25 160h92zM981 487h-862q-4 -50 -4 -73q0 -180 92.5 -268.5t249.5 -88.5q117 0 195 31.5t151 110.5h94q-93 -117 -196.5 -165t-249.5 -48q-191 0 -304.5 111t-113.5 317q0 135 42 256t116.5 210.5t183 142t233.5 52.5q172 0 282.5 -110
t110.5 -306q0 -32 -6.5 -88.5t-13.5 -83.5zM600 1004q-183 0 -308.5 -127t-164.5 -322h784q11 51 11 107q0 166 -89.5 254t-232.5 88z" />
    <glyph glyph-name="Eogonek" unicode="&#x118;" horiz-adv-x="1089" 
d="M1118 1354h-796l-93 -574h695l-11 -75h-696l-100 -625h821l-14 -80h10q-118 -47 -198.5 -110.5t-90.5 -139.5q-9 -66 40.5 -93.5t150.5 -10.5l-9 -56q-41 -16 -89.5 -16t-91.5 15.5t-67.5 56t-15.5 98.5q11 85 92.5 152.5t188.5 103.5h-826l228 1434h884z" />
    <glyph glyph-name="eogonek" unicode="&#x119;" horiz-adv-x="1064" 
d="M600 1077q81 0 151 -25.5t124.5 -75t86 -130t31.5 -184.5q0 -48 -10 -123l-8 -45h-858q-4 -54 -4 -80q0 -90 27.5 -160t75 -113t107.5 -64.5t128 -21.5q109 0 189.5 31t156.5 107h92q-152 -194 -385 -209q-110 -41 -187 -105.5t-90 -140.5q-9 -66 40 -93t149 -12l-6 -55
q-41 -15 -90 -15t-92.5 15.5t-68.5 55.5t-16 98q9 54 53 105.5t100.5 86t121.5 58.5q-169 10 -277 121.5t-108 314.5q0 176 71.5 326t202.5 241.5t293 91.5zM596 1004q-118 0 -217 -61.5t-161.5 -160.5t-88.5 -221h772q12 74 12 105q0 165 -90 251.5t-227 86.5z" />
    <glyph glyph-name="Ecaron" unicode="&#x11a;" horiz-adv-x="1081" 
d="M956 1821h74l-250 -252h-129l-168 252h70l170 -195zM1118 1354h-796l-93 -574h695l-11 -75h-696l-100 -625h821l-14 -80h-906l228 1434h884z" />
    <glyph glyph-name="ecaron" unicode="&#x11b;" horiz-adv-x="1064" 
d="M684 1182h-131l-170 252h72l170 -195l231 195h74zM600 1077q81 0 151 -25.5t124.5 -75t86 -130t31.5 -184.5q0 -48 -10 -123l-8 -45h-858q-4 -54 -4 -80q0 -90 27.5 -160t75 -113t107.5 -64.5t128 -21.5q109 0 189.5 31t156.5 107h92q-88 -113 -195 -162t-245 -49
q-87 0 -161 27t-131.5 79.5t-90.5 137.5t-33 192q0 176 71.5 326t202.5 241.5t293 91.5zM596 1004q-118 0 -217 -61.5t-161.5 -160.5t-88.5 -221h772q12 74 12 105q0 165 -90 251.5t-227 86.5z" />
    <glyph glyph-name="Gbreve" unicode="&#x11e;" horiz-adv-x="1335" 
d="M1077 1821h64q-7 -45 -27 -84.5t-54.5 -74.5t-91 -55t-128.5 -20q-57 0 -101 14t-69 37.5t-41.5 54t-18 63.5t1.5 65h64q-10 -168 168 -168q185 0 233 168zM788 705h494l-12 -76q-52 -319 -226 -483t-454 -164q-114 0 -206 33.5t-160.5 99.5t-106 171.5t-37.5 243.5
q0 145 30.5 280.5t93 252t150.5 203.5t209.5 136.5t263.5 49.5q200 0 324 -87.5t149 -240.5h-90q-26 114 -126 181t-269 67q-124 0 -229.5 -46.5t-181 -126.5t-129 -186.5t-79.5 -228t-26 -249.5q0 -237 117.5 -355.5t316.5 -118.5q242 0 391.5 146.5t190.5 421.5h-408z" />
    <glyph glyph-name="gbreve" unicode="&#x11f;" horiz-adv-x="1120" 
d="M913 1452h64q-7 -45 -27 -84.5t-54.5 -74t-91 -54.5t-128.5 -20q-70 0 -120 21t-74 56t-31.5 74.5t-1.5 81.5h63q-10 -168 168 -168q185 0 233 168zM1081 1065l-170 -1081q-17 -103 -56 -181.5t-89.5 -126t-118 -77t-134 -40t-144.5 -10.5q-136 0 -240.5 51t-142.5 140
l59 35q39 -73 126.5 -111.5t199.5 -38.5q193 0 309.5 86t148.5 287l41 244q-79 -129 -192 -191.5t-246 -62.5q-112 0 -200.5 45t-143.5 141.5t-55 231.5q0 133 40 254.5t111.5 213.5t177.5 146.5t230 54.5q134 0 230.5 -67t133.5 -203l39 260h86zM440 61q150 0 263 82
t169 213t56 289q0 92 -27 162.5t-73.5 111.5t-103.5 61.5t-122 20.5q-94 0 -174 -32.5t-137 -89t-97 -132t-59.5 -161t-19.5 -176.5q0 -172 91.5 -260.5t233.5 -88.5z" />
    <glyph glyph-name="Gdotaccent" unicode="&#x120;" horiz-adv-x="1335" 
d="M836 1821h92l-23 -160h-94zM788 705h494l-12 -76q-52 -319 -226 -483t-454 -164q-114 0 -206 33.5t-160.5 99.5t-106 171.5t-37.5 243.5q0 145 30.5 280.5t93 252t150.5 203.5t209.5 136.5t263.5 49.5q200 0 324 -87.5t149 -240.5h-90q-26 114 -126 181t-269 67
q-124 0 -229.5 -46.5t-181 -126.5t-129 -186.5t-79.5 -228t-26 -249.5q0 -237 117.5 -355.5t316.5 -118.5q242 0 391.5 146.5t190.5 421.5h-408z" />
    <glyph glyph-name="gdotaccent" unicode="&#x121;" horiz-adv-x="1120" 
d="M672 1452h92l-23 -160h-94zM1081 1065l-170 -1081q-17 -103 -56 -181.5t-89.5 -126t-118 -77t-134 -40t-144.5 -10.5q-136 0 -240.5 51t-142.5 140l59 35q39 -73 126.5 -111.5t199.5 -38.5q193 0 309.5 86t148.5 287l41 244q-79 -129 -192 -191.5t-246 -62.5
q-112 0 -200.5 45t-143.5 141.5t-55 231.5q0 133 40 254.5t111.5 213.5t177.5 146.5t230 54.5q134 0 230.5 -67t133.5 -203l39 260h86zM440 61q150 0 263 82t169 213t56 289q0 92 -27 162.5t-73.5 111.5t-103.5 61.5t-122 20.5q-94 0 -174 -32.5t-137 -89t-97 -132
t-59.5 -161t-19.5 -176.5q0 -172 91.5 -260.5t233.5 -88.5z" />
    <glyph glyph-name="Gcommaaccent" unicode="&#x122;" horiz-adv-x="1335" 
d="M788 705h494l-12 -76q-52 -319 -226 -483t-454 -164q-114 0 -206 33.5t-160.5 99.5t-106 171.5t-37.5 243.5q0 145 30.5 280.5t93 252t150.5 203.5t209.5 136.5t263.5 49.5q200 0 324 -87.5t149 -240.5h-90q-26 114 -126 181t-269 67q-124 0 -229.5 -46.5t-181 -126.5
t-129 -186.5t-79.5 -228t-26 -249.5q0 -237 117.5 -355.5t316.5 -118.5q242 0 391.5 146.5t190.5 421.5h-408zM459 -504l4 35q37 25 54.5 61.5t27.5 112.5l8 62h-53l22 131h119l-35 -224q-14 -86 -54 -130.5t-93 -47.5z" />
    <glyph glyph-name="gcommaaccent" unicode="&#x123;" horiz-adv-x="1120" 
d="M784 1630l-4 -35q-37 -25 -54.5 -61.5t-27.5 -112.5l-8 -61h53l-22 -131h-119l35 223q14 86 54 130.5t93 47.5zM1081 1065l-170 -1081q-17 -103 -56 -181.5t-89.5 -126t-118 -77t-134 -40t-144.5 -10.5q-136 0 -240.5 51t-142.5 140l59 35q39 -73 126.5 -111.5
t199.5 -38.5q193 0 309.5 86t148.5 287l41 244q-79 -129 -192 -191.5t-246 -62.5q-112 0 -200.5 45t-143.5 141.5t-55 231.5q0 133 40 254.5t111.5 213.5t177.5 146.5t230 54.5q134 0 230.5 -67t133.5 -203l39 260h86zM440 61q150 0 263 82t169 213t56 289q0 92 -27 162.5
t-73.5 111.5t-103.5 61.5t-122 20.5q-94 0 -174 -32.5t-137 -89t-97 -132t-59.5 -161t-19.5 -176.5q0 -172 91.5 -260.5t233.5 -88.5z" />
    <glyph glyph-name="Hbar" unicode="&#x126;" horiz-adv-x="1282" 
d="M1204 1434h88l-227 -1434h-88l104 657h-870l-105 -657h-88l228 1434h88l-60 -381h871zM223 731h871l39 256h-871z" />
    <glyph glyph-name="hbar" unicode="&#x127;" horiz-adv-x="1159" 
d="M733 1075q67 0 121 -13.5t100 -44t71.5 -79.5t36 -120.5t-6.5 -166.5l-105 -651h-84l103 655q15 80 7.5 138.5t-26.5 98t-55.5 63.5t-80 34t-99.5 10q-69 0 -133.5 -22t-112 -56.5t-87 -78.5t-64 -85t-39.5 -79l-107 -678h-84l188 1194h-139l8 63h140l28 177h84l-26 -177
h254l-9 -63h-256l-61 -393q12 34 47 78t88.5 89.5t133 76t165.5 30.5z" />
    <glyph glyph-name="Imacron" unicode="&#x12a;" horiz-adv-x="325" 
d="M76 1821h563l-10 -62h-561zM109 0h-89l226 1434h88z" />
    <glyph glyph-name="imacron" unicode="&#x12b;" horiz-adv-x="301" 
d="M6 1452h563l-10 -61h-561zM176 1065h84l-168 -1065h-84z" />
    <glyph glyph-name="Iogonek" unicode="&#x12e;" horiz-adv-x="378" 
d="M299 1434h88l-225 -1434h-17q-113 -43 -191 -108t-91 -142q-9 -66 40 -93.5t150 -10.5l-6 -56q-42 -16 -91.5 -16t-92.5 15.5t-67.5 56t-14.5 98.5q11 83 97.5 150.5t195.5 105.5z" />
    <glyph glyph-name="iogonek" unicode="&#x12f;" horiz-adv-x="346" 
d="M276 1452h93l-27 -160h-92zM57 0l168 1065h84l-168 -1065h-14q-114 -43 -192 -108t-89 -142q-9 -66 40.5 -93.5t148.5 -10.5l-6 -56q-41 -16 -90 -16t-92.5 15.5t-68.5 56t-16 98.5q8 57 57 110t109.5 88t128.5 58z" />
    <glyph glyph-name="Idotaccent" unicode="&#x130;" horiz-adv-x="325" 
d="M303 1821h92l-22 -160h-94zM109 0h-89l226 1434h88z" />
    <glyph glyph-name="dotlessi" unicode="&#x131;" horiz-adv-x="301" 
d="M176 1065h84l-168 -1065h-84z" />
    <glyph glyph-name="IJ" unicode="&#x132;" horiz-adv-x="1316" 
d="M109 0h-89l226 1434h88zM362 217q87 -149 314 -149q71 0 134.5 22t121 69.5t100 132.5t60.5 200l149 942h88l-149 -942q-22 -139 -73.5 -240t-123.5 -157.5t-152 -82.5t-172 -26q-127 0 -218.5 46.5t-139.5 129.5z" />
    <glyph glyph-name="Kcommaaccent" unicode="&#x136;" horiz-adv-x="1224" 
d="M1262 1434l-744 -674l572 -760h-109l-526 702l-277 -251l-72 -451h-88l228 1434h88l-135 -856l944 856h119zM406 -266l16 116h121l-35 -210q-13 -88 -49 -128.5t-94 -48.5l4 35q32 26 44 59.5t27 118.5l11 58h-45z" />
    <glyph glyph-name="kcommaaccent" unicode="&#x137;" horiz-adv-x="1028" 
d="M1001 1065l-561 -494l461 -571h-98l-418 520l-242 -213l-49 -307h-84l226 1434h83l-159 -1018l735 649h106zM324 -233l22 131h119l-35 -224q-14 -86 -54 -130.5t-93 -47.5l4 35q37 25 54.5 61.5t27.5 112.5l8 62h-53z" />
    <glyph glyph-name="Lacute" unicode="&#x139;" horiz-adv-x="1083" 
d="M270 1559h68l256 262h-119zM119 80h780l-14 -80h-867l228 1434h88z" />
    <glyph glyph-name="lacute" unicode="&#x13a;" horiz-adv-x="333" 
d="M268 1559h66l258 262h-119zM238 1434h84l-226 -1434h-84z" />
    <glyph glyph-name="Lcommaaccent" unicode="&#x13b;" horiz-adv-x="1083" 
d="M119 80h780l-14 -80h-867l228 1434h88zM324 -504l4 35q37 25 54.5 61.5t27.5 112.5l8 62h-53l22 131h119l-35 -224q-14 -86 -54 -130.5t-93 -47.5z" />
    <glyph glyph-name="lcommaaccent" unicode="&#x13c;" horiz-adv-x="335" 
d="M254 1434h84l-225 -1434h-84zM-74 -537l4 35q33 26 45 59t27 119l10 58h-45l17 116h120l-32 -210q-14 -87 -51 -128t-95 -49z" />
    <glyph glyph-name="Lcaron" unicode="&#x13d;" horiz-adv-x="1083" 
d="M119 80h780l-14 -80h-867l228 1434h88zM543 1047l2 36q34 25 48 60.5t25 116.5l9 57h-45l18 117h121l-37 -211q-13 -87 -48.5 -126.5t-92.5 -49.5z" />
    <glyph glyph-name="lcaron" unicode="&#x13e;" horiz-adv-x="483" 
d="M236 1434h83l-225 -1434h-84zM373 1047l4 36q33 24 45 57t27 120l10 57h-45l16 117h121l-33 -211q-14 -87 -50.5 -126.5t-94.5 -49.5z" />
    <glyph glyph-name="Lslash" unicode="&#x141;" horiz-adv-x="1169" 
d="M205 80h780l-14 -80h-867l89 555l-179 -170l11 94l184 174l123 781h88l-109 -682l301 284h4l-16 -94l-305 -289z" />
    <glyph glyph-name="lslash" unicode="&#x142;" horiz-adv-x="616" 
d="M647 1057l-18 -115l-279 -252l-108 -690h-84l94 602l-246 -223l19 113l245 223l113 719h84l-98 -631z" />
    <glyph glyph-name="Nacute" unicode="&#x143;" horiz-adv-x="1302" 
d="M780 1559h68l256 262h-119zM1313 1434l-228 -1434h-104l-664 1315h-4l-207 -1315h-88l228 1434h102l666 -1313h4l207 1313h88z" />
    <glyph glyph-name="nacute" unicode="&#x144;" horiz-adv-x="1067" 
d="M604 1190h68l256 262h-119zM643 1075q84 0 148 -22t112.5 -72.5t63 -132t-1.5 -201.5l-105 -647h-84l103 651q15 80 7.5 139t-26.5 99t-55.5 64.5t-80 35t-99.5 10.5q-69 0 -133.5 -22.5t-112 -57.5t-87.5 -79.5t-64.5 -85.5t-39.5 -80l-106 -674h-84l168 1065h84
l-41 -266q9 26 32 59.5t63 72t88.5 70.5t115 53t135.5 21z" />
    <glyph glyph-name="Ncommaaccent" unicode="&#x145;" horiz-adv-x="1302" 
d="M1313 1434l-228 -1434h-104l-664 1315h-4l-207 -1315h-88l228 1434h102l666 -1313h4l207 1313h88zM438 -504l4 35q37 25 54.5 61.5t27.5 112.5l8 62h-53l23 131h119l-35 -224q-14 -86 -54.5 -130.5t-93.5 -47.5z" />
    <glyph glyph-name="ncommaaccent" unicode="&#x146;" horiz-adv-x="1067" 
d="M643 1075q84 0 148 -22t112.5 -72.5t63 -132t-1.5 -201.5l-105 -647h-84l103 651q15 80 7.5 139t-26.5 99t-55.5 64.5t-80 35t-99.5 10.5q-69 0 -133.5 -22.5t-112 -57.5t-87.5 -79.5t-64.5 -85.5t-39.5 -80l-106 -674h-84l168 1065h84l-41 -266q9 26 32 59.5t63 72
t88.5 70.5t115 53t135.5 21zM322 -504l4 35q37 25 54.5 61.5t27.5 112.5l8 62h-54l23 131h119l-35 -224q-14 -86 -54 -130.5t-93 -47.5z" />
    <glyph glyph-name="Ncaron" unicode="&#x147;" horiz-adv-x="1302" 
d="M1059 1821h74l-250 -252h-129l-168 252h69l170 -195zM1313 1434l-228 -1434h-104l-664 1315h-4l-207 -1315h-88l228 1434h102l666 -1313h4l207 1313h88z" />
    <glyph glyph-name="ncaron" unicode="&#x148;" horiz-adv-x="1067" 
d="M883 1452h73l-249 -252h-129l-168 252h69l170 -195zM643 1075q84 0 148 -22t112.5 -72.5t63 -132t-1.5 -201.5l-105 -647h-84l103 651q15 80 7.5 139t-26.5 99t-55.5 64.5t-80 35t-99.5 10.5q-69 0 -133.5 -22.5t-112 -57.5t-87.5 -79.5t-64.5 -85.5t-39.5 -80l-106 -674
h-84l168 1065h84l-41 -266q9 26 32 59.5t63 72t88.5 70.5t115 53t135.5 21z" />
    <glyph glyph-name="Eng" unicode="&#x14a;" horiz-adv-x="1302" 
d="M1225 1434h88l-219 -1379q-22 -139 -73.5 -240t-123.5 -157.5t-152 -82.5t-172 -26q-126 0 -218 46.5t-140 130.5l61 55q87 -150 314 -150q65 0 124 18.5t113.5 58t97 110t66.5 166.5l-674 1331h-4l-207 -1315h-88l228 1434h102l666 -1313h2l139 876z" />
    <glyph glyph-name="eng" unicode="&#x14b;" horiz-adv-x="1067" 
d="M643 1079q84 0 148 -22t112.5 -72.5t63 -132t-1.5 -201.5l-134 -835q-24 -145 -88.5 -206t-169.5 -61q-97 0 -170 56l13 71q76 -49 155 -49q71 0 116 48t58 139l134 841q15 80 7.5 139t-26.5 99.5t-55.5 65t-80 35t-99.5 10.5q-86 0 -163 -33.5t-130.5 -86t-89 -104.5
t-54.5 -102l-106 -678h-84l168 1065h84l-41 -264q9 27 32 60.5t63 72.5t88.5 71t115 53t135.5 21z" />
    <glyph glyph-name="Omacron" unicode="&#x14c;" horiz-adv-x="1419" 
d="M645 1821h563l-10 -62h-561zM834 1452q239 0 381.5 -141t142.5 -404q0 -148 -32 -285t-96.5 -253.5t-154 -202.5t-212.5 -135t-265 -49q-238 0 -379 140t-141 402q0 148 32 285.5t95.5 254t153 203.5t212 136t263.5 49zM608 63q125 0 233 46.5t185.5 126.5t132.5 187
t82 229t27 251q0 229 -119 348t-324 119q-125 0 -233 -46.5t-184.5 -127t-131.5 -188t-81.5 -230t-26.5 -252.5q0 -229 117.5 -346t322.5 -117z" />
    <glyph glyph-name="omacron" unicode="&#x14d;" horiz-adv-x="1083" 
d="M393 1452h563l-10 -61h-561zM602 1075q112 0 203 -47.5t148 -148t57 -238.5q0 -129 -43 -249t-118 -209.5t-182.5 -143t-228.5 -53.5q-172 0 -288.5 113t-116.5 317q0 103 27 201.5t78 181t120 144.5t158 97t186 35zM928 645q0 89 -26.5 158.5t-72.5 111.5t-104 64
t-125 22q-142 0 -254.5 -82.5t-171.5 -215t-59 -285.5q0 -89 26.5 -159t72.5 -112.5t104 -65t124 -22.5q143 0 255.5 83.5t171.5 216t59 286.5z" />
    <glyph glyph-name="Ohungarumlaut" unicode="&#x150;" horiz-adv-x="1419" 
d="M598 1559h72l215 262h-123zM883 1559h71l215 262h-122zM834 1452q239 0 381.5 -141t142.5 -404q0 -148 -32 -285t-96.5 -253.5t-154 -202.5t-212.5 -135t-265 -49q-238 0 -379 140t-141 402q0 148 32 285.5t95.5 254t153 203.5t212 136t263.5 49zM608 63q125 0 233 46.5
t185.5 126.5t132.5 187t82 229t27 251q0 229 -119 348t-324 119q-125 0 -233 -46.5t-184.5 -127t-131.5 -188t-81.5 -230t-26.5 -252.5q0 -229 117.5 -346t322.5 -117z" />
    <glyph glyph-name="ohungarumlaut" unicode="&#x151;" horiz-adv-x="1083" 
d="M346 1190h72l215 262h-123zM631 1190h71l216 262h-123zM602 1075q112 0 203 -47.5t148 -148t57 -238.5q0 -129 -43 -249t-118 -209.5t-182.5 -143t-228.5 -53.5q-172 0 -288.5 113t-116.5 317q0 103 27 201.5t78 181t120 144.5t158 97t186 35zM928 645q0 89 -26.5 158.5
t-72.5 111.5t-104 64t-125 22q-142 0 -254.5 -82.5t-171.5 -215t-59 -285.5q0 -89 26.5 -159t72.5 -112.5t104 -65t124 -22.5q143 0 255.5 83.5t171.5 216t59 286.5z" />
    <glyph glyph-name="OE" unicode="&#x152;" horiz-adv-x="2209" 
d="M2247 1354h-797l-92 -574h694l-10 -75h-696l-101 -625h821l-14 -80h-905l49 311q-100 -155 -252 -242t-346 -87q-238 0 -379 140t-141 402q0 148 32 285.5t95.5 254t153 203.5t212 136t263.5 49q181 0 310 -83.5t181 -242.5l49 308h885zM608 63q125 0 233 46.5
t185.5 126.5t132.5 187t82 229t27 251q0 229 -119 348t-324 119q-125 0 -233 -46.5t-184.5 -127t-131.5 -188t-81.5 -230t-26.5 -252.5q0 -229 117.5 -346t322.5 -117z" />
    <glyph glyph-name="oe" unicode="&#x153;" horiz-adv-x="1945" 
d="M993 487q0 -6 -2 -8q-2 -23 -2 -65q0 -180 92.5 -268.5t249.5 -88.5q117 0 195 31.5t151 110.5h95q-93 -117 -197 -165t-250 -48q-158 0 -265 77.5t-140 223.5q-76 -138 -202 -219.5t-280 -81.5q-172 0 -288.5 113t-116.5 317q0 103 27 201.5t78 181t120 144.5t158 97
t186 35q142 0 249.5 -78.5t143.5 -222.5q74 139 201.5 220t286.5 81q172 0 282.5 -110t110.5 -306q0 -31 -7 -88t-14 -84h-862zM1475 1004q-178 0 -302.5 -120.5t-164.5 -305.5q-2 -8 -2 -23h780q10 46 10 107q0 166 -89 254t-232 88zM442 59q177 0 302.5 121t166.5 307
q3 51 15 97q2 20 2 61q0 89 -26.5 158.5t-72.5 111.5t-104 64t-125 22q-142 0 -254.5 -82.5t-171.5 -215t-59 -285.5q0 -89 26.5 -159t72.5 -112.5t104 -65t124 -22.5z" />
    <glyph glyph-name="Racute" unicode="&#x154;" horiz-adv-x="1220" 
d="M1057 1821l-256 -262h-68l205 262h119zM868 668q94 -15 146.5 -72t52.5 -152q0 -37 -21.5 -178t-21.5 -184q0 -64 18 -82h-86q-20 20 -20 82q0 40 20.5 173.5t20.5 178.5q0 57 -20.5 96t-58 58.5t-79 27t-94.5 7.5h-520l-99 -623h-88l228 1434h528q203 0 304.5 -80.5
t101.5 -233.5q0 -159 -88.5 -283.5t-223.5 -168.5zM700 698q115 0 206 58.5t138.5 151.5t47.5 200q0 246 -328 246h-442l-105 -656h483z" />
    <glyph glyph-name="racute" unicode="&#x155;" horiz-adv-x="704" 
d="M705 1452l-256 -262h-68l205 262h119zM649 1075q28 0 68 -4l-10 -74q-23 2 -66 2q-166 -1 -285.5 -99t-173.5 -263l-100 -637h-84l168 1065h84l-45 -287q39 121 162 209t282 88z" />
    <glyph glyph-name="Rcommaaccent" unicode="&#x156;" horiz-adv-x="1220" 
d="M868 668q94 -15 146.5 -72t52.5 -152q0 -37 -21.5 -178t-21.5 -184q0 -64 18 -82h-86q-20 20 -20 82q0 40 20.5 173.5t20.5 178.5q0 57 -20.5 96t-58 58.5t-79 27t-94.5 7.5h-520l-99 -623h-88l228 1434h528q203 0 304.5 -80.5t101.5 -233.5q0 -159 -88.5 -283.5
t-223.5 -168.5zM700 698q115 0 206 58.5t138.5 151.5t47.5 200q0 246 -328 246h-442l-105 -656h483zM432 -233l23 131h118l-34 -224q-14 -86 -54.5 -130.5t-93.5 -47.5l4 35q37 25 54.5 61.5t27.5 112.5l8 62h-53z" />
    <glyph glyph-name="rcommaaccent" unicode="&#x157;" horiz-adv-x="704" 
d="M649 1075q28 0 68 -4l-10 -74q-23 2 -66 2q-166 -1 -285.5 -99t-173.5 -263l-100 -637h-84l168 1065h84l-45 -287q39 121 162 209t282 88zM-53 -233l22 131h119l-35 -224q-14 -86 -54 -130.5t-93 -47.5l4 35q37 25 54.5 61.5t27.5 112.5l8 62h-53z" />
    <glyph glyph-name="Rcaron" unicode="&#x158;" horiz-adv-x="1220" 
d="M836 1569h-129l-168 252h69l170 -195l234 195h73zM868 668q94 -15 146.5 -72t52.5 -152q0 -37 -21.5 -178t-21.5 -184q0 -64 18 -82h-86q-20 20 -20 82q0 40 20.5 173.5t20.5 178.5q0 57 -20.5 96t-58 58.5t-79 27t-94.5 7.5h-520l-99 -623h-88l228 1434h528
q203 0 304.5 -80.5t101.5 -233.5q0 -159 -88.5 -283.5t-223.5 -168.5zM700 698q115 0 206 58.5t138.5 151.5t47.5 200q0 246 -328 246h-442l-105 -656h483z" />
    <glyph glyph-name="rcaron" unicode="&#x159;" horiz-adv-x="704" 
d="M483 1200h-129l-168 252h70l170 -195l233 195h74zM205 778q39 121 162 209t282 88q28 0 68 -4l-10 -74q-23 2 -66 2q-166 -1 -285.5 -99t-173.5 -263l-100 -637h-84l168 1065h84z" />
    <glyph glyph-name="Sacute" unicode="&#x15a;" horiz-adv-x="1181" 
d="M705 1559h67l256 262h-119zM707 762q87 -20 149.5 -45t112 -64.5t74 -96.5t24.5 -134q0 -201 -157.5 -320.5t-407.5 -119.5q-125 0 -216.5 31.5t-143 88.5t-74.5 128t-21 157h90q1 -54 11 -99t36 -88t67 -72.5t107.5 -47t153.5 -17.5q206 0 334.5 95.5t128.5 257.5
q0 52 -15.5 93t-39 67.5t-61.5 48t-73 33.5t-84 24l-210 47q-308 71 -308 313q0 86 31.5 159t93.5 130t162.5 89t230.5 32q210 0 316 -95.5t108 -250.5h-86q-2 53 -21 98.5t-58 85t-109 62t-164 22.5q-104 0 -185 -25.5t-130 -70t-74 -100.5t-25 -121q0 -106 59 -165.5
t191 -88.5z" />
    <glyph glyph-name="sacute" unicode="&#x15b;" horiz-adv-x="950" 
d="M541 1190h67l256 262h-119zM813 823q-38 181 -285 181q-153 0 -240 -65.5t-87 -162.5q0 -72 44 -114t150 -68l156 -39q72 -18 117.5 -34.5t85.5 -42.5t58.5 -63.5t18.5 -88.5q0 -73 -26 -132t-69.5 -97t-102 -63.5t-121 -36.5t-129.5 -11q-83 0 -151.5 18t-121.5 54.5
t-81 96.5t-25 138h82q0 -66 24 -114t67 -73.5t93.5 -37t112.5 -11.5q72 0 135.5 14.5t116.5 44t84 81t31 118.5q0 40 -14 68t-44.5 47t-62 30t-84.5 25l-191 47q-116 31 -177.5 89t-61.5 153q0 133 119 217t298 84q152 0 249 -63t110 -189h-78z" />
    <glyph glyph-name="Scedilla" unicode="&#x15e;" horiz-adv-x="1181" 
d="M707 762q87 -20 149.5 -45t112 -64.5t74 -96.5t24.5 -134q0 -191 -142.5 -308.5t-373.5 -129.5l-84 -95q67 20 127.5 -18.5t60.5 -112.5q0 -92 -72 -135t-186 -43v49q187 6 187 125q0 61 -50 83.5t-120 -5.5l-25 37l78 113q-115 4 -199.5 37.5t-132 90t-69 125.5
t-19.5 152h90q1 -54 11 -99t36 -88t67 -72.5t107.5 -47t153.5 -17.5q206 0 334.5 95.5t128.5 257.5q0 52 -15.5 93t-39 67.5t-61.5 48t-73 33.5t-84 24l-210 47q-308 71 -308 313q0 86 31.5 159t93.5 130t162.5 89t230.5 32q210 0 316 -95.5t108 -250.5h-86q-2 53 -21 98.5
t-58 85t-109 62t-164 22.5q-104 0 -185 -25.5t-130 -70t-74 -100.5t-25 -121q0 -106 59 -165.5t191 -88.5z" />
    <glyph glyph-name="scedilla" unicode="&#x15f;" horiz-adv-x="950" 
d="M551 555q72 -18 117.5 -34.5t85.5 -42.5t58.5 -63.5t18.5 -88.5q0 -68 -22.5 -123.5t-60.5 -93t-90 -64t-108.5 -40t-119.5 -17.5l-88 -99q67 20 127.5 -18.5t60.5 -112.5q0 -92 -72 -135t-186 -43v49q187 6 187 125q0 61 -49.5 83.5t-120.5 -5.5l-25 37l82 117
q-159 8 -253.5 85t-88.5 222h82q0 -66 24 -114t67 -73.5t93.5 -37t112.5 -11.5q72 0 135.5 14.5t116.5 44t84 81t31 118.5q0 40 -14 68t-44.5 47t-62 30t-84.5 25l-191 47q-116 31 -177.5 89t-61.5 153q0 133 119 217t298 84q152 0 249 -63t110 -189h-78q-38 181 -285 181
q-153 0 -240 -65.5t-87 -162.5q0 -72 44 -114t150 -68z" />
    <glyph glyph-name="Scaron" unicode="&#x160;" horiz-adv-x="1181" 
d="M983 1821h74l-250 -252h-129l-168 252h70l170 -195zM707 762q87 -20 149.5 -45t112 -64.5t74 -96.5t24.5 -134q0 -201 -157.5 -320.5t-407.5 -119.5q-125 0 -216.5 31.5t-143 88.5t-74.5 128t-21 157h90q1 -54 11 -99t36 -88t67 -72.5t107.5 -47t153.5 -17.5
q206 0 334.5 95.5t128.5 257.5q0 52 -15.5 93t-39 67.5t-61.5 48t-73 33.5t-84 24l-210 47q-308 71 -308 313q0 86 31.5 159t93.5 130t162.5 89t230.5 32q210 0 316 -95.5t108 -250.5h-86q-2 53 -21 98.5t-58 85t-109 62t-164 22.5q-104 0 -185 -25.5t-130 -70t-74 -100.5
t-25 -121q0 -106 59 -165.5t191 -88.5z" />
    <glyph glyph-name="scaron" unicode="&#x161;" horiz-adv-x="950" 
d="M819 1452h74l-250 -252h-129l-168 252h70l170 -195zM813 823q-38 181 -285 181q-153 0 -240 -65.5t-87 -162.5q0 -72 44 -114t150 -68l156 -39q72 -18 117.5 -34.5t85.5 -42.5t58.5 -63.5t18.5 -88.5q0 -73 -26 -132t-69.5 -97t-102 -63.5t-121 -36.5t-129.5 -11
q-83 0 -151.5 18t-121.5 54.5t-81 96.5t-25 138h82q0 -66 24 -114t67 -73.5t93.5 -37t112.5 -11.5q72 0 135.5 14.5t116.5 44t84 81t31 118.5q0 40 -14 68t-44.5 47t-62 30t-84.5 25l-191 47q-116 31 -177.5 89t-61.5 153q0 133 119 217t298 84q152 0 249 -63t110 -189h-78z
" />
    <glyph glyph-name="uni0162" unicode="&#x162;" horiz-adv-x="1150" 
d="M184 1434h1037l-13 -80h-475l-215 -1354h10l-112 -106q68 11 118.5 -30.5t40.5 -113.5q-10 -62 -52.5 -101.5t-100.5 -55t-133 -15.5l6 49q96 3 148 37.5t61 91.5q12 59 -35 80t-119 -8l-22 39l114 133h-10l215 1354h-475z" />
    <glyph glyph-name="uni0163" unicode="&#x163;" horiz-adv-x="577" 
d="M344 993l-135 -860q-6 -41 11 -56.5t61 -15.5q63 0 143 17l-12 -72q-51 -15 -113 -18l-88 -99q67 20 127.5 -18.5t60.5 -112.5q0 -92 -72 -135t-186 -43v49q187 6 187 125q0 61 -50 83.5t-120 -5.5l-25 37l84 121q-109 20 -90 141l135 862h-168l10 72h170l41 266h82
l-41 -266h215l-10 -72h-217z" />
    <glyph glyph-name="Tcaron" unicode="&#x164;" horiz-adv-x="1150" 
d="M956 1821h74l-250 -252h-129l-168 252h70l170 -195zM1221 1434l-13 -80h-475l-215 -1354h-86l215 1354h-475l12 80h1037z" />
    <glyph glyph-name="tcaron" unicode="&#x165;" horiz-adv-x="540" 
d="M764 1434l-246 -304h-69l202 304h113zM397 1331l-41 -266h215l-10 -72h-217l-135 -860q-6 -41 11 -56.5t61 -15.5q63 0 143 17l-12 -72q-67 -20 -148 -20q-161 0 -137 145l135 862h-168l10 72h170l41 266h82z" />
    <glyph glyph-name="Tbar" unicode="&#x166;" horiz-adv-x="1150" 
d="M1208 1354h-475l-45 -283h236l-9 -63h-237l-160 -1008h-86l160 1008h-236l9 63h237l45 283h-475l12 80h1037z" />
    <glyph glyph-name="tbar" unicode="&#x167;" horiz-adv-x="577" 
d="M561 993h-217l-29 -182h215l-8 -72h-217l-96 -606q-6 -41 11 -56.5t61 -15.5q63 0 143 17l-12 -72q-67 -20 -148 -20q-161 0 -137 145l96 608h-168l8 72h170l29 182h-168l10 72h170l41 266h82l-41 -266h215z" />
    <glyph glyph-name="Utilde" unicode="&#x168;" horiz-adv-x="1294" 
d="M1055 1802h57q0 -82 -53.5 -126t-124.5 -44q-38 0 -71.5 14.5t-59 35.5t-49.5 42t-53 35.5t-60 14.5q-62 0 -91.5 -31.5t-27.5 -69.5h-57q0 81 53 125.5t125 44.5q46 0 87.5 -22.5t68 -49t63.5 -49t74 -22.5q62 0 91.5 32t27.5 70zM1303 1434l-140 -891
q-41 -259 -206.5 -407t-411.5 -148t-363 148t-76 407l140 891h88l-141 -885q-36 -228 57.5 -354.5t306.5 -126.5q209 0 345 127t173 354l139 885h89z" />
    <glyph glyph-name="utilde" unicode="&#x169;" horiz-adv-x="1067" 
d="M436 1405q-63 0 -92 -31.5t-27 -68.5h-57q0 81 53 125.5t125 44.5q46 0 87.5 -22.5t68 -49.5t63.5 -49.5t74 -22.5q62 0 91.5 32.5t27.5 70.5h57q0 -82 -53.5 -126t-124.5 -44q-46 0 -87.5 22t-68 48.5t-63.5 48.5t-74 22zM944 1065h84l-168 -1065h-84l41 260
q-13 -28 -37 -61.5t-64 -71.5t-87.5 -68.5t-112.5 -50.5t-133 -20q-67 0 -121 14t-99.5 45t-71 80.5t-35.5 120.5t7 166l103 651h84l-103 -653q-56 -346 250 -346q86 0 163 32t131 82.5t90.5 103t56.5 103.5z" />
    <glyph glyph-name="Umacron" unicode="&#x16a;" horiz-adv-x="1294" 
d="M584 1821h563l-10 -62h-562zM1303 1434l-140 -891q-41 -259 -206.5 -407t-411.5 -148t-363 148t-76 407l140 891h88l-141 -885q-36 -228 57.5 -354.5t306.5 -126.5q209 0 345 127t173 354l139 885h89z" />
    <glyph glyph-name="umacron" unicode="&#x16b;" horiz-adv-x="1067" 
d="M942 1452l-10 -61h-561l8 61h563zM944 1065h84l-168 -1065h-84l41 260q-13 -28 -37 -61.5t-64 -71.5t-87.5 -68.5t-112.5 -50.5t-133 -20q-67 0 -121 14t-99.5 45t-71 80.5t-35.5 120.5t7 166l103 651h84l-103 -653q-56 -346 250 -346q86 0 163 32t131 82.5t90.5 103
t56.5 103.5z" />
    <glyph glyph-name="Ubreve" unicode="&#x16c;" horiz-adv-x="1294" 
d="M1053 1821h63q-7 -45 -27 -84.5t-54.5 -74.5t-91 -55t-128.5 -20q-70 0 -120 21t-74 56.5t-31.5 75t-1.5 81.5h63q-11 -168 168 -168q186 0 234 168zM1303 1434l-140 -891q-41 -259 -206.5 -407t-411.5 -148t-363 148t-76 407l140 891h88l-141 -885q-36 -228 57.5 -354.5
t306.5 -126.5q209 0 345 127t173 354l139 885h89z" />
    <glyph glyph-name="ubreve" unicode="&#x16d;" horiz-adv-x="1067" 
d="M610 1219q-70 0 -120 21t-74 56t-31.5 74.5t-1.5 81.5h63q-10 -168 168 -168q186 0 234 168h63q-7 -45 -27 -84.5t-54.5 -74t-91 -54.5t-128.5 -20zM944 1065h84l-168 -1065h-84l41 260q-13 -28 -37 -61.5t-64 -71.5t-87.5 -68.5t-112.5 -50.5t-133 -20q-67 0 -121 14
t-99.5 45t-71 80.5t-35.5 120.5t7 166l103 651h84l-103 -653q-56 -346 250 -346q86 0 163 32t131 82.5t90.5 103t56.5 103.5z" />
    <glyph glyph-name="Uring" unicode="&#x16e;" horiz-adv-x="1294" 
d="M823 1559q-63 0 -103 39.5t-40 97.5q0 73 53 125.5t129 52.5q61 0 100 -40t39 -99q0 -71 -53 -123.5t-125 -52.5zM829 1614q44 0 79.5 35.5t35.5 81.5q0 37 -25.5 62.5t-64.5 25.5q-46 0 -81.5 -34t-35.5 -81q0 -39 25.5 -64.5t66.5 -25.5zM1303 1434l-140 -891
q-41 -259 -206.5 -407t-411.5 -148t-363 148t-76 407l140 891h88l-141 -885q-36 -228 57.5 -354.5t306.5 -126.5q209 0 345 127t173 354l139 885h89z" />
    <glyph glyph-name="uring" unicode="&#x16f;" horiz-adv-x="1067" 
d="M618 1190q-63 0 -103 39.5t-40 97.5q0 73 53 125.5t129 52.5q61 0 100.5 -40t39.5 -99q0 -71 -53.5 -123.5t-125.5 -52.5zM649 1450q-46 0 -81.5 -34t-35.5 -81q0 -39 26 -64.5t67 -25.5q43 0 78.5 35.5t35.5 81.5q0 37 -25.5 62.5t-64.5 25.5zM944 1065h84l-168 -1065
h-84l41 260q-13 -28 -37 -61.5t-64 -71.5t-87.5 -68.5t-112.5 -50.5t-133 -20q-67 0 -121 14t-99.5 45t-71 80.5t-35.5 120.5t7 166l103 651h84l-103 -653q-56 -346 250 -346q86 0 163 32t131 82.5t90.5 103t56.5 103.5z" />
    <glyph glyph-name="Uhungarumlaut" unicode="&#x170;" horiz-adv-x="1294" 
d="M537 1559h71l215 262h-123zM821 1559h72l215 262h-123zM1303 1434l-140 -891q-41 -259 -206.5 -407t-411.5 -148t-363 148t-76 407l140 891h88l-141 -885q-36 -228 57.5 -354.5t306.5 -126.5q209 0 345 127t173 354l139 885h89z" />
    <glyph glyph-name="uhungarumlaut" unicode="&#x171;" horiz-adv-x="1067" 
d="M618 1452l-215 -262h-71l164 262h122zM688 1190h-72l164 262h123zM944 1065h84l-168 -1065h-84l41 260q-13 -28 -37 -61.5t-64 -71.5t-87.5 -68.5t-112.5 -50.5t-133 -20q-67 0 -121 14t-99.5 45t-71 80.5t-35.5 120.5t7 166l103 651h84l-103 -653q-56 -346 250 -346
q86 0 163 32t131 82.5t90.5 103t56.5 103.5z" />
    <glyph glyph-name="Uogonek" unicode="&#x172;" horiz-adv-x="1294" 
d="M1214 1434h89l-140 -891q-35 -223 -163.5 -364.5t-323.5 -178.5l26 -2q-113 -44 -191 -107.5t-89 -140.5q-9 -66 40 -93.5t148 -10.5l-6 -56q-41 -16 -90 -16t-92 15.5t-67.5 56t-14.5 98.5q10 77 85 141.5t175 104.5q-18 -2 -55 -2q-246 0 -363 148t-76 407l140 891h88
l-141 -885q-36 -228 57.5 -354.5t306.5 -126.5q209 0 345 127t173 354z" />
    <glyph glyph-name="uogonek" unicode="&#x173;" horiz-adv-x="1067" 
d="M1028 1065l-168 -1065h-49l35 -2q-114 -43 -192 -107t-91 -141q-9 -66 41 -93.5t150 -10.5l-6 -56q-41 -16 -90.5 -16t-93 15.5t-68.5 56t-15 98.5q8 57 56.5 110.5t109.5 89t129 58.5l41 258q-17 -37 -52 -79.5t-88.5 -87t-131.5 -74t-162 -29.5q-67 0 -121 13.5
t-99.5 44.5t-71 80t-35.5 120t7 166l103 651h84l-103 -653q-13 -100 -3.5 -166t48 -105.5t88 -56t117.5 -16.5q87 0 165 32.5t132 84.5t89.5 104.5t54.5 103.5l-7 -39l113 711h84z" />
    <glyph glyph-name="Wcircumflex" unicode="&#x174;" horiz-adv-x="2002" 
d="M1325 1569l-170 194l-233 -194h-74l248 252h129l170 -252h-70zM1976 1434h88l-643 -1434h-88l-221 1323l-647 -1323h-88l-193 1434h90l166 -1311l635 1311h101l215 -1311z" />
    <glyph glyph-name="wcircumflex" unicode="&#x175;" horiz-adv-x="1587" 
d="M1079 1200l-170 195l-233 -195h-74l248 252h129l170 -252h-70zM1620 1065l-492 -1065h-94l-194 954l-498 -954h-92l-156 1065h84l135 -967l502 967h76l196 -967l445 967h88z" />
    <glyph glyph-name="Ycircumflex" unicode="&#x176;" horiz-adv-x="1267" 
d="M985 1569l-170 194l-233 -194h-74l248 252h129l170 -252h-70zM668 580l-93 -580h-86l93 580l-398 854h95l354 -768l594 768h102z" />
    <glyph glyph-name="ycircumflex" unicode="&#x177;" horiz-adv-x="1001" 
d="M784 1200l-170 195l-233 -195h-74l248 252h129l170 -252h-70zM944 1065h90l-661 -1190q-158 -289 -402 -250l15 76q95 -15 175.5 37t139.5 162q30 55 38.5 78t4.5 42l-250 1045h84l230 -983z" />
    <glyph glyph-name="Ydieresis" unicode="&#x178;" horiz-adv-x="1267" 
d="M596 1821h92l-22 -160h-95zM1008 1821h92l-23 -160h-92zM668 580l-93 -580h-86l93 580l-398 854h95l354 -768l594 768h102z" />
    <glyph glyph-name="Zacute" unicode="&#x179;" horiz-adv-x="1212" 
d="M719 1559h67l256 262h-118zM1059 80l-15 -80h-1067l13 80l1159 1274h-926l13 80h1028l-15 -80l-1153 -1274h963z" />
    <glyph glyph-name="zacute" unicode="&#x17a;" horiz-adv-x="987" 
d="M537 1190h67l256 262h-119zM78 76h743l-12 -76h-840l11 76l888 913h-723l13 76h819l-10 -76z" />
    <glyph glyph-name="Zdotaccent" unicode="&#x17b;" horiz-adv-x="1212" 
d="M754 1821h92l-23 -160h-94zM1059 80l-15 -80h-1067l13 80l1159 1274h-926l13 80h1028l-15 -80l-1153 -1274h963z" />
    <glyph glyph-name="zdotaccent" unicode="&#x17c;" horiz-adv-x="987" 
d="M571 1452h93l-23 -160h-94zM78 76h743l-12 -76h-840l11 76l888 913h-723l13 76h819l-10 -76z" />
    <glyph glyph-name="Zcaron" unicode="&#x17d;" horiz-adv-x="1212" 
d="M997 1821h74l-250 -252h-129l-168 252h70l170 -195zM1059 80l-15 -80h-1067l13 80l1159 1274h-926l13 80h1028l-15 -80l-1153 -1274h963z" />
    <glyph glyph-name="zcaron" unicode="&#x17e;" horiz-adv-x="987" 
d="M815 1452h74l-250 -252h-129l-168 252h70l170 -195zM78 76h743l-12 -76h-840l11 76l888 913h-723l13 76h819l-10 -76z" />
    <glyph glyph-name="florin" unicode="&#x192;" horiz-adv-x="583" 
d="M625 1374q-99 0 -158.5 -51t-81.5 -182l-41 -258h201l-13 -78h-200l-142 -889q-47 -313 -333 -305l10 76q207 0 242 233l139 885h-174l12 78h174l41 262q16 94 46.5 156t77 93.5t96 43.5t116.5 12z" />
    <glyph glyph-name="uni01CD" unicode="&#x1cd;" horiz-adv-x="1333" 
d="M881 1569h-129l-168 252h69l170 -195l234 195h73zM1096 0l-101 426h-702l-238 -426h-98l807 1434h72l352 -1434h-92zM332 498h645l-193 811z" />
    <glyph glyph-name="uni01CE" unicode="&#x1ce;" horiz-adv-x="1097" 
d="M686 1200h-129l-168 252h70l170 -195l233 195h74zM950 705l-90 -574q-6 -42 12 -57.5t66 -10.5l-10 -63q-21 -8 -45 -8q-67 0 -92.5 34t-10.5 115l19 97q-20 -34 -57.5 -72.5t-95.5 -81t-142.5 -70.5t-177.5 -28q-139 0 -220 71.5t-81 194.5q0 82 28.5 142t86 99t129 62
t171.5 39q7 1 48.5 7t57.5 8.5t56 8.5t61.5 10.5t56 11t57 12.5t46.5 13.5t41 14.5l4 22q26 164 -34 233t-230 69q-152 0 -228 -48t-108 -139h-84q42 136 145.5 197t278.5 61q201 0 287 -87.5t55 -282.5zM338 53q78 0 151 23.5t123.5 56.5t94 75t66.5 74t36 58l45 272
q-19 -8 -52.5 -17t-82 -18t-90.5 -16t-106.5 -18t-100.5 -17q-164 -27 -238.5 -88t-74.5 -184q0 -94 61 -147.5t168 -53.5z" />
    <glyph glyph-name="uni01CF" unicode="&#x1cf;" horiz-adv-x="325" 
d="M547 1821h74l-250 -252h-129l-168 252h69l170 -195zM109 0h-89l226 1434h88z" />
    <glyph glyph-name="uni01D0" unicode="&#x1d0;" horiz-adv-x="301" 
d="M477 1452h74l-250 -252h-129l-168 252h70l170 -195zM176 1065h84l-168 -1065h-84z" />
    <glyph glyph-name="uni01D1" unicode="&#x1d1;" horiz-adv-x="1419" 
d="M1116 1821h74l-250 -252h-129l-168 252h70l170 -195zM834 1452q239 0 381.5 -141t142.5 -404q0 -148 -32 -285t-96.5 -253.5t-154 -202.5t-212.5 -135t-265 -49q-238 0 -379 140t-141 402q0 148 32 285.5t95.5 254t153 203.5t212 136t263.5 49zM608 63q125 0 233 46.5
t185.5 126.5t132.5 187t82 229t27 251q0 229 -119 348t-324 119q-125 0 -233 -46.5t-184.5 -127t-131.5 -188t-81.5 -230t-26.5 -252.5q0 -229 117.5 -346t322.5 -117z" />
    <glyph glyph-name="uni01D2" unicode="&#x1d2;" horiz-adv-x="1083" 
d="M864 1452h74l-250 -252h-129l-168 252h70l170 -195zM602 1075q112 0 203 -47.5t148 -148t57 -238.5q0 -129 -43 -249t-118 -209.5t-182.5 -143t-228.5 -53.5q-172 0 -288.5 113t-116.5 317q0 103 27 201.5t78 181t120 144.5t158 97t186 35zM928 645q0 89 -26.5 158.5
t-72.5 111.5t-104 64t-125 22q-142 0 -254.5 -82.5t-171.5 -215t-59 -285.5q0 -89 26.5 -159t72.5 -112.5t104 -65t124 -22.5q143 0 255.5 83.5t171.5 216t59 286.5z" />
    <glyph glyph-name="uni01D3" unicode="&#x1d3;" horiz-adv-x="1294" 
d="M1055 1821h73l-249 -252h-129l-168 252h69l170 -195zM1303 1434l-140 -891q-41 -259 -206.5 -407t-411.5 -148t-363 148t-76 407l140 891h88l-141 -885q-36 -228 57.5 -354.5t306.5 -126.5q209 0 345 127t173 354l139 885h89z" />
    <glyph glyph-name="uni01D4" unicode="&#x1d4;" horiz-adv-x="1067" 
d="M674 1200h-129l-168 252h69l170 -195l234 195h74zM944 1065h84l-168 -1065h-84l41 260q-13 -28 -37 -61.5t-64 -71.5t-87.5 -68.5t-112.5 -50.5t-133 -20q-67 0 -121 14t-99.5 45t-71 80.5t-35.5 120.5t7 166l103 651h84l-103 -653q-56 -346 250 -346q86 0 163 32
t131 82.5t90.5 103t56.5 103.5z" />
    <glyph glyph-name="uni01EA" unicode="&#x1ea;" horiz-adv-x="1419" 
d="M743 -4q-110 -43 -185.5 -107t-86.5 -139q-9 -66 40 -93.5t148 -10.5l-6 -56q-41 -16 -90 -16t-92 15.5t-68 56t-16 98.5q11 74 72 136t147 102h-8q-238 0 -379 140t-141 402q0 148 32 285.5t95.5 254t153 203.5t212 136t263.5 49q239 0 381.5 -141t142.5 -404
q0 -223 -70 -413.5t-211.5 -325t-333.5 -172.5zM168 526q0 -229 117.5 -346t322.5 -117q125 0 233 46.5t185.5 126.5t132.5 187t82 229t27 251q0 229 -119 348t-324 119q-125 0 -233 -46.5t-184.5 -127t-131.5 -188t-81.5 -230t-26.5 -252.5z" />
    <glyph glyph-name="uni01EB" unicode="&#x1eb;" horiz-adv-x="1079" 
d="M600 1077q93 0 172 -35t137 -101.5t82.5 -173.5t3.5 -241q-35 -215 -155 -351t-277 -177h2q-114 -43 -191.5 -107t-90.5 -141q-9 -66 40 -93.5t150 -10.5l-8 -56q-41 -16 -90 -16t-92 15.5t-67.5 56t-14.5 98.5q10 72 78 134.5t161 103.5h-4q-93 0 -173 35t-138 101.5
t-81.5 175t-2.5 243.5q21 133 78.5 238.5t135.5 170t166 98t179 33.5zM913 537q18 116 -0.5 208t-65 147t-110.5 83.5t-139 28.5q-78 0 -153 -29.5t-141 -86.5t-115 -150.5t-68 -211.5q-18 -118 0.5 -210.5t65.5 -148t111 -84t140 -28.5q78 0 153 29.5t141 87t114.5 152
t66.5 213.5z" />
    <glyph glyph-name="Scommaaccent" unicode="&#x218;" horiz-adv-x="1181" 
d="M707 762q87 -20 149.5 -45t112 -64.5t74 -96.5t24.5 -134q0 -201 -157.5 -320.5t-407.5 -119.5q-125 0 -216.5 31.5t-143 88.5t-74.5 128t-21 157h90q1 -54 11 -99t36 -88t67 -72.5t107.5 -47t153.5 -17.5q206 0 334.5 95.5t128.5 257.5q0 52 -15.5 93t-39 67.5t-61.5 48
t-73 33.5t-84 24l-210 47q-308 71 -308 313q0 86 31.5 159t93.5 130t162.5 89t230.5 32q210 0 316 -95.5t108 -250.5h-86q-2 53 -21 98.5t-58 85t-109 62t-164 22.5q-104 0 -185 -25.5t-130 -70t-74 -100.5t-25 -121q0 -106 59 -165.5t191 -88.5zM383 -504l4 35
q37 25 54.5 61.5t27.5 112.5l8 62h-53l22 131h119l-35 -224q-14 -86 -54 -130.5t-93 -47.5z" />
    <glyph glyph-name="scommaaccent" unicode="&#x219;" horiz-adv-x="950" 
d="M813 823q-38 181 -285 181q-153 0 -240 -65.5t-87 -162.5q0 -72 44 -114t150 -68l156 -39q72 -18 117.5 -34.5t85.5 -42.5t58.5 -63.5t18.5 -88.5q0 -73 -26 -132t-69.5 -97t-102 -63.5t-121 -36.5t-129.5 -11q-83 0 -151.5 18t-121.5 54.5t-81 96.5t-25 138h82
q0 -66 24 -114t67 -73.5t93.5 -37t112.5 -11.5q72 0 135.5 14.5t116.5 44t84 81t31 118.5q0 40 -14 68t-44.5 47t-62 30t-84.5 25l-191 47q-116 31 -177.5 89t-61.5 153q0 133 119 217t298 84q152 0 249 -63t110 -189h-78zM258 -504l4 35q37 25 54.5 61.5t27.5 112.5l8 62
h-53l23 131h118l-34 -224q-14 -86 -54.5 -130.5t-93.5 -47.5z" />
    <glyph glyph-name="uni021A" unicode="&#x21a;" horiz-adv-x="1150" 
d="M1221 1434l-13 -80h-475l-215 -1354h-86l215 1354h-475l12 80h1037zM373 -537l4 35q34 27 47.5 62t24.5 116l10 58h-45l16 116h121l-33 -210q-14 -88 -50.5 -128.5t-94.5 -48.5z" />
    <glyph glyph-name="uni021B" unicode="&#x21b;" horiz-adv-x="577" 
d="M344 993l-135 -860q-6 -41 11 -56.5t61 -15.5q63 0 143 17l-12 -72q-67 -20 -148 -20q-161 0 -137 145l135 862h-168l10 72h170l41 266h82l-41 -266h215l-10 -72h-217zM168 -233l22 131h119l-35 -224q-14 -86 -54 -130.5t-93 -47.5l4 35q37 25 54.5 61.5t27.5 112.5l8 62
h-53z" />
    <glyph glyph-name="uni0237" unicode="&#x237;" horiz-adv-x="374" 
d="M-299 -324q76 -49 156 -49q69 0 115 48.5t59 138.5l198 1251h84l-196 -1249q-24 -145 -89 -206t-169 -61q-95 0 -172 56z" />
    <glyph glyph-name="circumflex" unicode="&#x2c6;" horiz-adv-x="546" 
d="M582 1200l-170 195l-234 -195h-74l248 252h129l170 -252h-69z" />
    <glyph glyph-name="caron" unicode="&#x2c7;" horiz-adv-x="546" 
d="M618 1452h74l-250 -252h-129l-168 252h70l170 -195z" />
    <glyph glyph-name="breve" unicode="&#x2d8;" horiz-adv-x="528" 
d="M610 1452h64q-7 -45 -27 -84.5t-54.5 -74t-91 -54.5t-128.5 -20q-70 0 -120 21t-74 56t-32 74.5t-2 81.5h64q-11 -168 168 -168q185 0 233 168z" />
    <glyph glyph-name="dotaccent" unicode="&#x2d9;" horiz-adv-x="94" 
d="M145 1452h93l-23 -160h-94z" />
    <glyph glyph-name="ring" unicode="&#x2da;" horiz-adv-x="321" 
d="M272 1190q-63 0 -103 39.5t-40 97.5q0 73 53 125.5t129 52.5q61 0 100.5 -40t39.5 -99q0 -71 -53.5 -123.5t-125.5 -52.5zM279 1245q43 0 78.5 35.5t35.5 81.5q0 37 -25.5 62.5t-64.5 25.5q-46 0 -81.5 -34t-35.5 -81q0 -39 26 -64.5t67 -25.5z" />
    <glyph glyph-name="ogonek" unicode="&#x2db;" horiz-adv-x="313" 
d="M166 -408q-39 -16 -87.5 -17t-94 13.5t-76.5 54t-31 97.5q0 86 78 157.5t178 102.5h68q-106 -44 -173 -106.5t-67 -139.5q0 -67 54.5 -96t150.5 -12v-54z" />
    <glyph glyph-name="tilde" unicode="&#x2dc;" horiz-adv-x="632" 
d="M715 1434h57q0 -82 -53.5 -126t-124.5 -44q-46 0 -87.5 22t-68 48.5t-63.5 48.5t-74 22q-63 0 -92 -31.5t-27 -68.5h-57q0 81 53 125.5t125 44.5q46 0 87.5 -22.5t68 -49.5t63.5 -49.5t74 -22.5q62 0 91.5 32.5t27.5 70.5z" />
    <glyph glyph-name="hungarumlaut" unicode="&#x2dd;" horiz-adv-x="530" 
d="M104 1190h72l215 262h-123zM389 1190h72l215 262h-123z" />
    <glyph glyph-name="uni0326" unicode="&#x326;" horiz-adv-x="0" 
d="M-283 -504l4 35q37 25 54.5 61.5t27.5 112.5l9 62h-54l23 131h119l-35 -224q-14 -86 -54.5 -130.5t-93.5 -47.5z" />
    <glyph glyph-name="uni0394" unicode="&#x394;" horiz-adv-x="1505" 
d="M1288 0h-1296l856 1434h35zM1178 78l-334 1200l-719 -1200h1053z" />
    <glyph glyph-name="uni03A9" unicode="&#x3a9;" horiz-adv-x="1589" 
d="M1051 80h311l-10 -80h-385l26 170q171 117 267 215.5t140 206t44 246.5q0 155 -75 278t-195.5 188.5t-260.5 65.5q-138 0 -273.5 -58.5t-239 -155t-167 -230.5t-63.5 -275q0 -158 55 -252t219 -229l-28 -170h-383l10 80h317l7 49q-277 204 -277 522q0 159 70 307.5
t184.5 255t265 170.5t305.5 64q123 0 235 -45t195 -124t132 -193t49 -244q0 -125 -33.5 -231.5t-99 -193.5t-146 -156t-188.5 -136z" />
    <glyph glyph-name="uni03BC" unicode="&#x3bc;" horiz-adv-x="1069" 
d="M946 1065h84l-168 -1065h-84l39 254q-18 -37 -54 -79t-89.5 -85.5t-130 -71.5t-158.5 -28q-206 0 -285 125l-80 -504h-83l231 1454h84l-102 -653q-56 -344 249 -344q86 0 163 31.5t131 82t90.5 102.5t56.5 103z" />
    <glyph glyph-name="pi" unicode="&#x3c0;" horiz-adv-x="1290" 
d="M1024 989l-129 -815q-10 -60 7.5 -84t58.5 -24q75 0 147 34l-12 -77q-68 -35 -129 -35q-99 0 -135 46t-19 159l127 796h-506l-155 -989h-84l155 989h-205l13 76h1081l-12 -76h-203z" />
    <glyph glyph-name="uni0401" unicode="&#x401;" horiz-adv-x="1081" 
d="M510 1821h92l-22 -160h-95zM922 1821h92l-23 -160h-92zM1118 1354h-796l-93 -574h695l-11 -75h-696l-100 -625h821l-14 -80h-906l228 1434h884z" />
    <glyph glyph-name="uni0403" unicode="&#x403;" horiz-adv-x="976" 
d="M606 1559h68l256 262h-119zM1049 1434l-15 -80h-715l-213 -1354h-88l228 1434h803z" />
    <glyph glyph-name="uni0404" unicode="&#x404;" horiz-adv-x="1290" 
d="M815 1372q-122 0 -227 -46.5t-181 -128.5t-129 -187.5t-81 -229.5h567l-10 -75h-572q-12 -83 -12 -170q0 -237 117 -355.5t315 -118.5q166 0 289.5 67.5t187.5 180.5h95q-72 -153 -226 -240t-356 -87q-235 0 -373.5 138.5t-138.5 411.5q0 144 31 279t94.5 251t151.5 203
t209 137t261 50q200 0 324 -87.5t149 -240.5h-90q-26 114 -126 181t-269 67z" />
    <glyph glyph-name="uni0407" unicode="&#x407;" horiz-adv-x="325" 
d="M100 1821h93l-23 -160h-94zM512 1821h92l-22 -160h-93zM109 0h-89l226 1434h88z" />
    <glyph glyph-name="uni040C" unicode="&#x40c;" horiz-adv-x="1224" 
d="M1059 1821l-256 -262h-68l205 262h119zM1262 1434l-744 -674l572 -760h-109l-526 702l-277 -251l-72 -451h-88l228 1434h88l-135 -856l944 856h119z" />
    <glyph glyph-name="uni040E" unicode="&#x40e;" horiz-adv-x="1101" 
d="M950 1821h64q-7 -45 -27 -84.5t-54.5 -74.5t-91 -55t-128.5 -20q-57 0 -101 14t-69 37.5t-41.5 54t-18 63.5t1.5 65h64q-11 -168 168 -168q185 0 233 168zM1067 1434h96l-682 -1194q-160 -283 -401 -248l14 84q192 -26 312 194q32 57 42 86.5t3 55.5l-267 1022h92
l246 -965z" />
    <glyph glyph-name="uni0410" unicode="&#x410;" horiz-adv-x="1333" 
d="M1096 0l-101 426h-702l-238 -426h-98l807 1434h72l352 -1434h-92zM332 498h645l-193 811z" />
    <glyph glyph-name="uni0411" unicode="&#x411;" horiz-adv-x="1185" 
d="M645 887q206 0 317 -92t111 -260q0 -248 -152.5 -391.5t-410.5 -143.5h-492l228 1434h803l-15 -80h-715l-73 -467h399zM522 82q215 0 338 122t123 326q0 135 -86 205t-254 70h-410l-114 -723h403z" />
    <glyph glyph-name="uni0412" unicode="&#x412;" horiz-adv-x="1212" 
d="M815 782q135 -32 205 -112t70 -203q0 -227 -152 -347t-412 -120h-508l228 1434h504q184 0 274 -75.5t90 -203.5q0 -137 -78.5 -236t-220.5 -137zM322 1356l-86 -539h436q155 0 254.5 96.5t99.5 237.5q0 92 -64.5 148.5t-211.5 56.5h-428zM543 80q209 0 333.5 103.5
t124.5 283.5q0 128 -93.5 200t-276.5 72h-408l-104 -659h424z" />
    <glyph glyph-name="uni0413" unicode="&#x413;" horiz-adv-x="976" 
d="M1049 1434l-15 -80h-715l-213 -1354h-88l228 1434h803z" />
    <glyph glyph-name="uni0414" unicode="&#x414;" horiz-adv-x="1417" 
d="M1346 1434l-216 -1356h144l-35 -219h-84l23 141h-1137l-23 -141h-84l35 219h94q50 50 90.5 122.5t70 154.5t59 216t51.5 259.5t55 332.5l45 271h912zM164 78h878l201 1276h-737l-31 -199q-25 -159 -39 -243.5t-35.5 -202t-37 -181.5t-38 -143.5t-45 -127.5t-52 -95.5
t-64.5 -83.5z" />
    <glyph glyph-name="uni0415" unicode="&#x415;" horiz-adv-x="1081" 
d="M1118 1354h-796l-93 -574h695l-11 -75h-696l-100 -625h821l-14 -80h-906l228 1434h884z" />
    <glyph glyph-name="uni0416" unicode="&#x416;" horiz-adv-x="1679" 
d="M1729 1434l-756 -697l571 -737h-104l-543 698l-111 -698h-88l111 698l-766 -698h-106l806 737l-534 697h104l508 -658l105 658h88l-105 -656l713 656h107z" />
    <glyph glyph-name="uni0417" unicode="&#x417;" horiz-adv-x="1140" 
d="M766 780q121 -23 198.5 -104.5t77.5 -210.5q0 -144 -75.5 -257t-204 -173t-285.5 -60q-227 0 -339.5 126.5t-78.5 347.5h80q-29 -184 61.5 -290t278.5 -106q206 0 344 115t138 299q0 135 -103.5 204.5t-288.5 69.5h-39l11 70h34q177 0 294.5 91t117.5 245
q0 104 -80 166.5t-217 62.5q-165 0 -274.5 -97t-136.5 -286h-80q30 225 163 342t330 117q178 0 276.5 -86.5t98.5 -220.5q0 -125 -75.5 -223t-225.5 -142z" />
    <glyph glyph-name="uni0418" unicode="&#x418;" horiz-adv-x="1302" 
d="M246 1434h88l-209 -1313h2l1075 1313h111l-228 -1434h-88l209 1315h-4l-1073 -1315h-111z" />
    <glyph glyph-name="uni0419" unicode="&#x419;" horiz-adv-x="1302" 
d="M1047 1821h63q-7 -45 -27 -84.5t-54.5 -74.5t-91 -55t-128.5 -20q-70 0 -120 21t-74 56.5t-31.5 75t-1.5 81.5h63q-11 -168 168 -168q186 0 234 168zM246 1434h88l-209 -1313h2l1075 1313h111l-228 -1434h-88l209 1315h-4l-1073 -1315h-111z" />
    <glyph glyph-name="uni041A" unicode="&#x41a;" horiz-adv-x="1224" 
d="M1262 1434l-744 -674l572 -760h-109l-526 702l-277 -251l-72 -451h-88l228 1434h88l-135 -856l944 856h119z" />
    <glyph glyph-name="uni041B" unicode="&#x41b;" horiz-adv-x="1384" 
d="M1395 1434l-228 -1434h-88l213 1354h-753l-144 -908q-21 -130 -64.5 -223t-104 -144.5t-129 -73.5t-150.5 -19l10 80q64 -1 117 17.5t100.5 61.5t82 121t52.5 189l156 979h930z" />
    <glyph glyph-name="uni041C" unicode="&#x41c;" horiz-adv-x="1660" 
d="M246 1434h86l418 -1334l825 1334h96l-227 -1434h-88l198 1241h-4l-766 -1241h-88l-389 1241h-4l-197 -1241h-88z" />
    <glyph glyph-name="uni041D" unicode="&#x41d;" horiz-adv-x="1282" 
d="M1204 1434h88l-227 -1434h-88l104 657h-870l-105 -657h-88l228 1434h88l-111 -703h871z" />
    <glyph glyph-name="uni041E" unicode="&#x41e;" horiz-adv-x="1419" 
d="M834 1452q239 0 381.5 -141t142.5 -404q0 -148 -32 -285t-96.5 -253.5t-154 -202.5t-212.5 -135t-265 -49q-238 0 -379 140t-141 402q0 148 32 285.5t95.5 254t153 203.5t212 136t263.5 49zM608 63q125 0 233 46.5t185.5 126.5t132.5 187t82 229t27 251q0 229 -119 348
t-324 119q-125 0 -233 -46.5t-184.5 -127t-131.5 -188t-81.5 -230t-26.5 -252.5q0 -229 117.5 -346t322.5 -117z" />
    <glyph glyph-name="uni041F" unicode="&#x41f;" horiz-adv-x="1282" 
d="M1292 1434l-227 -1434h-88l213 1354h-871l-213 -1354h-88l228 1434h1046z" />
    <glyph glyph-name="uni0420" unicode="&#x420;" horiz-adv-x="1175" 
d="M727 1434q207 0 316.5 -91t109.5 -262q0 -250 -152 -390t-413 -140h-395l-87 -551h-88l228 1434h481zM600 631q219 0 340 117t121 325q0 281 -340 281h-399l-117 -723h395z" />
    <glyph glyph-name="uni0421" unicode="&#x421;" horiz-adv-x="1290" 
d="M602 61q166 0 289.5 67.5t187.5 180.5h95q-72 -153 -226 -240t-356 -87q-235 0 -373.5 138.5t-138.5 411.5q0 144 31 279t94.5 251t151.5 203t209 137t261 50q200 0 324 -87.5t149 -240.5h-90q-26 114 -126 181t-269 67q-121 0 -226 -46.5t-181 -127t-130.5 -187
t-81 -228t-26.5 -248.5q0 -237 117 -355.5t315 -118.5z" />
    <glyph glyph-name="uni0422" unicode="&#x422;" horiz-adv-x="1150" 
d="M1221 1434l-13 -80h-475l-215 -1354h-86l215 1354h-475l12 80h1037z" />
    <glyph glyph-name="uni0423" unicode="&#x423;" horiz-adv-x="1101" 
d="M1067 1434h96l-682 -1194q-160 -283 -401 -248l14 84q192 -26 312 194q32 57 42 86.5t3 55.5l-267 1022h92l246 -965z" />
    <glyph glyph-name="uni0424" unicode="&#x424;" horiz-adv-x="1372" 
d="M1327 840q0 -207 -83.5 -368t-238.5 -253.5t-360 -101.5l-24 -148h-89l25 150q-230 11 -363 132t-133 341q0 316 186.5 514.5t500.5 210.5l22 147h88l-24 -149q229 -11 361 -132t132 -343zM655 188q179 10 314 97t205.5 230.5t70.5 322.5q0 193 -113.5 295.5
t-308.5 113.5zM143 596q0 -193 114 -297t310 -113l168 1059q-270 -15 -431 -195t-161 -454z" />
    <glyph glyph-name="uni0425" unicode="&#x425;" horiz-adv-x="1232" 
d="M1300 1434l-610 -697l418 -737h-94l-383 672l-590 -672h-104l653 743l-391 691h96l354 -623l547 623h104z" />
    <glyph glyph-name="uni0426" unicode="&#x426;" horiz-adv-x="1271" 
d="M1292 1434l-215 -1354h62l-60 -369h-84l47 289h-1024l228 1434h88l-217 -1354h872l215 1354h88z" />
    <glyph glyph-name="uni0427" unicode="&#x427;" horiz-adv-x="1218" 
d="M1141 1434h88l-228 -1434h-88l99 621q-19 -36 -66.5 -80.5t-117 -88.5t-167.5 -74t-200 -30q-84 0 -154 23.5t-124 73t-76.5 136t-4.5 201.5l105 652h86l-105 -656q-16 -98 1.5 -168.5t63 -109.5t105.5 -56.5t138 -17.5q77 0 153.5 21.5t136 55t110.5 76t84 84t50 78.5z
" />
    <glyph glyph-name="uni0428" unicode="&#x428;" horiz-adv-x="1542" 
d="M1464 1434h88l-227 -1434h-1307l228 1434h88l-217 -1354h522l217 1354h86l-215 -1354h522z" />
    <glyph glyph-name="uni0429" unicode="&#x429;" horiz-adv-x="1552" 
d="M1552 1434l-215 -1354h82l-59 -369h-86l47 289h-1303l228 1434h88l-217 -1354h522l217 1354h86l-215 -1354h522l215 1354h88z" />
    <glyph glyph-name="uni042A" unicode="&#x42a;" horiz-adv-x="1269" 
d="M729 887q206 0 317 -92t111 -260q0 -248 -152.5 -391.5t-410.5 -143.5h-483l215 1354h-154l14 80h240l-88 -547h391zM606 82q215 0 338 122t123 326q0 135 -86 205t-254 70h-403l-115 -723h397z" />
    <glyph glyph-name="uni042B" unicode="&#x42b;" horiz-adv-x="1464" 
d="M637 887q206 0 317 -92t111 -260q0 -248 -152.5 -391.5t-410.5 -143.5h-484l228 1434h88l-88 -547h391zM1247 0h-88l225 1434h89zM514 82q215 0 338 122t123 326q0 135 -86 205t-254 70h-404l-114 -723h397z" />
    <glyph glyph-name="uni042C" unicode="&#x42c;" horiz-adv-x="1177" 
d="M637 887q206 0 317 -92t111 -260q0 -248 -152.5 -391.5t-410.5 -143.5h-484l228 1434h88l-88 -547h391zM514 82q215 0 338 122t123 326q0 135 -86 205t-254 70h-404l-114 -723h397z" />
    <glyph glyph-name="uni042D" unicode="&#x42d;" horiz-adv-x="1355" 
d="M778 1452q234 0 375 -141t141 -410q0 -145 -31 -280t-93.5 -251t-150.5 -202.5t-208.5 -136t-259.5 -49.5q-202 0 -329 88t-152 239h88q27 -114 128.5 -181t268.5 -67q130 0 241 51.5t189.5 141t130 204.5t74.5 247h-586l10 75h586q6 61 6 121q0 235 -116.5 353
t-315.5 118q-168 0 -291 -67.5t-184 -180.5h-94q72 155 223 241.5t350 86.5z" />
    <glyph glyph-name="uni042E" unicode="&#x42e;" horiz-adv-x="1781" 
d="M1196 1452q239 0 381.5 -141t142.5 -404q0 -148 -32 -285t-96 -253.5t-154 -202.5t-212.5 -135t-264.5 -49q-238 0 -379.5 140t-141.5 402q0 68 6 133h-235l-102 -657h-89l226 1434h88l-111 -703h234q25 152 86 282t152.5 228.5t220.5 154.5t280 56zM971 63
q125 0 233 46.5t185 126.5t132 187t82 229t27 251q0 229 -118.5 348t-323.5 119q-125 0 -233 -46.5t-185 -127.5t-132 -188t-81.5 -229.5t-26.5 -252.5q0 -229 117.5 -346t323.5 -117z" />
    <glyph glyph-name="uni042F" unicode="&#x42f;" horiz-adv-x="1210" 
d="M1221 1434l-228 -1434h-86l99 623h-517q-46 0 -86.5 -6t-83 -23t-74.5 -44t-56.5 -72.5t-32.5 -104.5l-19 -137q-31 -193 -78 -236h-92q57 53 84 244l19 137q17 124 87 195t201 94q-98 42 -148 123t-50 190q0 211 144.5 331t385.5 120h531zM524 698h494l104 658h-440
q-206 0 -321 -99t-115 -278q0 -133 77.5 -207t200.5 -74z" />
    <glyph glyph-name="uni0430" unicode="&#x430;" horiz-adv-x="1097" 
d="M950 705l-90 -574q-6 -42 12 -57.5t66 -10.5l-10 -63q-21 -8 -45 -8q-67 0 -92.5 34t-10.5 115l19 97q-20 -34 -57.5 -72.5t-95.5 -81t-142.5 -70.5t-177.5 -28q-139 0 -220 71.5t-81 194.5q0 82 28.5 142t86 99t129 62t171.5 39q7 1 48.5 7t57.5 8.5t56 8.5t61.5 10.5
t56 11t57 12.5t46.5 13.5t41 14.5l4 22q26 164 -34 233t-230 69q-152 0 -228 -48t-108 -139h-84q42 136 145.5 197t278.5 61q201 0 287 -87.5t55 -282.5zM338 53q78 0 151 23.5t123.5 56.5t94 75t66.5 74t36 58l45 272q-19 -8 -52.5 -17t-82 -18t-90.5 -16t-106.5 -18
t-100.5 -17q-164 -27 -238.5 -88t-74.5 -184q0 -94 61 -147.5t168 -53.5z" />
    <glyph glyph-name="uni0431" unicode="&#x431;" horiz-adv-x="1079" 
d="M612 1079q82 0 152.5 -27t125 -79t85.5 -134.5t31 -187.5q0 -180 -70.5 -332.5t-201 -244.5t-294.5 -92q-149 0 -246 79.5t-130.5 210t-8.5 295.5l70 432q34 213 163 324t339 111h186q112 0 164 45h94q-49 -68 -110.5 -92.5t-180.5 -24.5h-159q-167 0 -275.5 -88
t-134.5 -250l-33 -203q53 91 132 151.5t153.5 83.5t148.5 23zM446 57q139 0 250 84t169.5 219t58.5 291q0 173 -91 263t-229 90q-140 0 -251.5 -83t-170.5 -216t-59 -285q0 -177 91 -270t232 -93z" />
    <glyph glyph-name="uni0432" unicode="&#x432;" horiz-adv-x="1038" 
d="M739 584q102 -27 152.5 -89.5t50.5 -144.5q0 -180 -127 -265t-352 -85h-381l12 78h377q185 0 286 68t101 210q0 189 -303 189h-387l-86 -545h-84l168 1065h461q156 0 235.5 -56.5t79.5 -160.5q0 -96 -55 -166t-148 -98zM180 616h387q139 0 216 56.5t77 169.5
q0 145 -242 145h-380l-64 -397z" />
    <glyph glyph-name="uni0433" unicode="&#x433;" horiz-adv-x="811" 
d="M821 1065l-10 -72h-571l-158 -993h-84l168 1065h655z" />
    <glyph glyph-name="uni0434" unicode="&#x434;" horiz-adv-x="1122" 
d="M1087 1065l-155 -993h55l-33 -217h-77l22 145h-864l-23 -145h-78l33 217h37q88 64 133 226.5t109 573.5l28 193h813zM92 72h756l145 921h-645l-20 -127q-9 -51 -23.5 -139.5t-22 -130t-20 -110.5t-21 -103.5t-21.5 -84.5t-25 -77.5t-28 -59.5t-34.5 -52.5t-40.5 -36.5z
" />
    <glyph glyph-name="uni0435" unicode="&#x435;" horiz-adv-x="1073" 
d="M981 487h-862q-4 -50 -4 -73q0 -180 92.5 -268.5t249.5 -88.5q117 0 195 31.5t151 110.5h94q-93 -117 -196.5 -165t-249.5 -48q-191 0 -304.5 111t-113.5 317q0 135 42 256t116.5 210.5t183 142t233.5 52.5q172 0 282.5 -110t110.5 -306q0 -32 -6.5 -88.5t-13.5 -83.5z
M600 1004q-183 0 -308.5 -127t-164.5 -322h784q11 51 11 107q0 166 -89.5 254t-232.5 88z" />
    <glyph glyph-name="uni0436" unicode="&#x436;" horiz-adv-x="1357" 
d="M1386 1065l-616 -522l461 -543h-101l-421 494l-78 -494h-84l78 494l-572 -494h-114l643 545l-445 520h96l408 -471l74 471h84l-74 -469l547 469h114z" />
    <glyph glyph-name="uni0437" unicode="&#x437;" horiz-adv-x="978" 
d="M608 563q113 -12 183.5 -73t70.5 -158q0 -109 -69 -190.5t-177.5 -120.5t-238.5 -39q-184 0 -285 101t-72 255h78q-14 -136 64.5 -210.5t214.5 -74.5q179 0 291 78t112 201q0 69 -48 115t-124.5 65t-177.5 18l6 64q104 2 185 29t130.5 82t49.5 131t-69.5 125t-182.5 49
q-135 0 -229.5 -71t-108.5 -165h-80q21 131 134 218t282 87q155 0 243.5 -67t88.5 -172q0 -110 -72 -180t-199 -97z" />
    <glyph glyph-name="uni0438" unicode="&#x438;" horiz-adv-x="1105" 
d="M166 1065h84l-154 -967h4l858 967h109l-168 -1065h-84l156 969h-4l-861 -969h-108z" />
    <glyph glyph-name="uni0439" unicode="&#x439;" horiz-adv-x="1105" 
d="M893 1452h63q-7 -45 -27 -84.5t-54.5 -74t-91 -54.5t-128.5 -20q-70 0 -120 21t-74 56t-31.5 74.5t-1.5 81.5h64q-5 -79 32.5 -123.5t134.5 -44.5q186 0 234 168zM166 1065h84l-154 -967h4l858 967h109l-168 -1065h-84l156 969h-4l-861 -969h-108z" />
    <glyph glyph-name="uni043A" unicode="&#x43a;" horiz-adv-x="892" 
d="M922 1065l-670 -522l514 -543h-100l-492 518l-82 -518h-84l168 1065h84l-78 -494l623 494h117z" />
    <glyph glyph-name="uni043B" unicode="&#x43b;" horiz-adv-x="1179" 
d="M1141 1065l-168 -1065h-84l158 993h-588l-88 -557q-22 -131 -59.5 -221t-92 -139t-117.5 -68.5t-145 -17.5l12 73q64 -1 111.5 15.5t89 58t70 117.5t45.5 190l98 621h758z" />
    <glyph glyph-name="uni043C" unicode="&#x43c;" horiz-adv-x="1343" 
d="M176 1065h84l324 -969l641 969h80l-168 -1065h-84l139 883h-2l-580 -883h-73l-297 897h-7l-141 -897h-84z" />
    <glyph glyph-name="uni043D" unicode="&#x43d;" horiz-adv-x="989" 
d="M166 1065h84l-76 -475h617l75 475h84l-168 -1065h-84l80 516h-616l-80 -516h-84z" />
    <glyph glyph-name="uni043E" unicode="&#x43e;" horiz-adv-x="1083" 
d="M602 1075q112 0 203 -47.5t148 -148t57 -238.5q0 -129 -43 -249t-118 -209.5t-182.5 -143t-228.5 -53.5q-172 0 -288.5 113t-116.5 317q0 103 27 201.5t78 181t120 144.5t158 97t186 35zM928 645q0 89 -26.5 158.5t-72.5 111.5t-104 64t-125 22q-142 0 -254.5 -82.5
t-171.5 -215t-59 -285.5q0 -89 26.5 -159t72.5 -112.5t104 -65t124 -22.5q143 0 255.5 83.5t171.5 216t59 286.5z" />
    <glyph glyph-name="uni043F" unicode="&#x43f;" horiz-adv-x="1011" 
d="M973 1065l-168 -1065h-84l158 993h-639l-158 -993h-84l168 1065h807z" />
    <glyph glyph-name="uni0440" unicode="&#x440;" horiz-adv-x="1128" 
d="M258 1065l-41 -250q160 260 440 260q174 0 286 -108.5t112 -309.5q0 -134 -40 -256t-111.5 -214t-177.5 -146.5t-230 -54.5q-137 0 -232 66.5t-133 207.5l-100 -649h-84l229 1454h82zM483 59q94 0 174.5 33t137.5 90t98 132.5t60.5 161.5t19.5 177q0 172 -92 260t-234 88
q-112 0 -205 -47.5t-154 -127.5t-94.5 -185.5t-33.5 -222.5q0 -174 91.5 -266.5t231.5 -92.5z" />
    <glyph glyph-name="uni0441" unicode="&#x441;" horiz-adv-x="1038" 
d="M449 59q129 0 219 54.5t151 171.5h86q-74 -159 -187 -229t-269 -70q-181 0 -298.5 111.5t-117.5 320.5q0 176 71.5 325.5t204 240.5t297.5 91q158 0 254 -72t127 -229h-84q-26 119 -98 173t-199 54q-91 0 -171 -33t-138 -89t-100 -130t-63 -158t-21 -171
q0 -180 95 -270.5t241 -90.5z" />
    <glyph glyph-name="uni0442" unicode="&#x442;" horiz-adv-x="886" 
d="M899 1065l-10 -72h-352l-156 -993h-84l156 993h-349l11 72h784z" />
    <glyph glyph-name="uni0443" unicode="&#x443;" horiz-adv-x="1001" 
d="M944 1065h90l-661 -1190q-158 -289 -402 -250l15 76q95 -15 175.5 37t139.5 162q30 55 38.5 78t4.5 42l-250 1045h84l230 -983z" />
    <glyph glyph-name="uni0444" unicode="&#x444;" horiz-adv-x="1150" 
d="M1077 645q0 -176 -68.5 -323t-199.5 -239t-301 -101l-57 -361h-76l57 363q-179 11 -289 122.5t-110 309.5q0 176 68.5 323t200 239t302.5 101l58 363h75l-57 -365q179 -11 288 -122t109 -310zM518 55q219 17 351 183.5t132 408.5q0 170 -91.5 260.5t-239.5 100.5z
M109 416q0 -174 90 -263.5t243 -99.5l150 953q-148 -11 -259 -93.5t-167.5 -211.5t-56.5 -285z" />
    <glyph glyph-name="uni0445" unicode="&#x445;" horiz-adv-x="940" 
d="M963 1065l-467 -526l307 -539h-88l-271 477l-419 -477h-99l482 547l-297 518h90l260 -461l403 461h99z" />
    <glyph glyph-name="uni0446" unicode="&#x446;" horiz-adv-x="1032" 
d="M973 1065l-156 -993h57l-55 -359h-82l45 287h-784l168 1065h84l-158 -993h639l158 993h84z" />
    <glyph glyph-name="uni0447" unicode="&#x447;" horiz-adv-x="1026" 
d="M903 1065h84l-168 -1065h-84l86 539q-18 -36 -54 -77t-89.5 -83.5t-130.5 -70t-160 -27.5t-147 22t-110.5 69t-63.5 128t0 190l59 375h84l-59 -385q-13 -74 -5 -129t27.5 -92.5t56 -60t79.5 -32.5t98 -10q66 0 128.5 20.5t109 52.5t87 73t66.5 79t43 74z" />
    <glyph glyph-name="uni0448" unicode="&#x448;" horiz-adv-x="1470" 
d="M1348 1065h84l-168 -1065h-1256l168 1065h84l-158 -993h504l158 993h80l-158 -993h504z" />
    <glyph glyph-name="uni0449" unicode="&#x449;" horiz-adv-x="1470" 
d="M1421 1065l-155 -993h49l-55 -359h-82l45 287h-1225l168 1065h84l-158 -993h504l158 993h80l-158 -993h504l157 993h84z" />
    <glyph glyph-name="uni044A" unicode="&#x44a;" horiz-adv-x="1153" 
d="M664 659q184 0 281 -71.5t97 -204.5q0 -185 -130.5 -284t-348.5 -99h-413l155 993h-190l10 72h276l-63 -406h326zM575 72q183 0 284.5 79.5t101.5 227.5q0 101 -70 155t-229 54h-336l-80 -516h329z" />
    <glyph glyph-name="uni044B" unicode="&#x44b;" horiz-adv-x="1267" 
d="M522 659q184 0 281.5 -71.5t97.5 -204.5q0 -185 -130.5 -284t-348.5 -99h-414l168 1065h84l-63 -406h325zM1145 1065h84l-168 -1065h-84zM434 72q183 0 284 79.5t101 227.5q0 101 -70 155t-229 54h-336l-80 -516h330z" />
    <glyph glyph-name="uni044C" unicode="&#x44c;" horiz-adv-x="1011" 
d="M522 659q184 0 281.5 -71.5t97.5 -204.5q0 -185 -130.5 -284t-348.5 -99h-414l168 1065h84l-63 -406h325zM434 72q183 0 284 79.5t101 227.5q0 101 -70 155t-229 54h-336l-80 -516h330z" />
    <glyph glyph-name="uni044D" unicode="&#x44d;" horiz-adv-x="1028" 
d="M539 1075q181 0 298 -111.5t117 -320.5q0 -176 -71.5 -325.5t-204 -240.5t-297.5 -91q-158 0 -254 72t-127 229h84q26 -119 98 -173.5t199 -54.5q97 0 181.5 37.5t144.5 102t100.5 146.5t56.5 175h-432l12 64h428q2 18 2 57q0 180 -94.5 270t-240.5 90q-130 0 -220 -54.5
t-151 -170.5h-86q74 158 187.5 228.5t269.5 70.5z" />
    <glyph glyph-name="uni044E" unicode="&#x44e;" horiz-adv-x="1378" 
d="M899 1075q112 0 203 -47.5t148 -148t57 -238.5q0 -129 -43 -249t-118 -209.5t-182.5 -143t-228.5 -53.5q-172 0 -288.5 113t-116.5 317q0 24 4 78h-164l-78 -496h-84l168 1065h84l-78 -496h162q29 142 105 256.5t194 183t256 68.5zM739 59q143 0 255.5 83.5t171.5 216
t59 286.5q0 89 -26.5 158.5t-72.5 111.5t-104 64t-125 22q-142 0 -254.5 -82.5t-171.5 -215t-59 -285.5q0 -89 26.5 -159t72.5 -112.5t104 -65t124 -22.5z" />
    <glyph glyph-name="uni044F" unicode="&#x44f;" horiz-adv-x="1036" 
d="M584 1065h413l-168 -1065h-84l64 406h-428q-111 0 -161 -36t-64 -116l-17 -96q-14 -79 -25 -112t-30 -46h-84q19 13 30 46t25 112l17 96q13 78 53.5 127t122.5 70q-144 69 -144 231q0 185 131 284t349 99zM821 477l80 516h-330q-183 0 -284 -79.5t-101 -227.5
q0 -101 70 -155t229 -54h336z" />
    <glyph glyph-name="uni0451" unicode="&#x451;" horiz-adv-x="1073" 
d="M524 1452l-22 -160h-94l24 160h92zM936 1452l-23 -160h-92l23 160h92zM981 487h-862q-4 -50 -4 -73q0 -180 92.5 -268.5t249.5 -88.5q117 0 195 31.5t151 110.5h94q-93 -117 -196.5 -165t-249.5 -48q-191 0 -304.5 111t-113.5 317q0 135 42 256t116.5 210.5t183 142
t233.5 52.5q172 0 282.5 -110t110.5 -306q0 -32 -6.5 -88.5t-13.5 -83.5zM600 1004q-183 0 -308.5 -127t-164.5 -322h784q11 51 11 107q0 166 -89.5 254t-232.5 88z" />
    <glyph glyph-name="uni0453" unicode="&#x453;" horiz-adv-x="811" 
d="M469 1190h68l256 262h-119zM821 1065l-10 -72h-571l-158 -993h-84l168 1065h655z" />
    <glyph glyph-name="uni0454" unicode="&#x454;" horiz-adv-x="1038" 
d="M449 59q129 0 219 54.5t151 171.5h86q-74 -159 -187 -229t-269 -70q-181 0 -298.5 111.5t-117.5 320.5q0 176 71.5 325.5t204 240.5t297.5 91q158 0 254 -72t127 -229h-84q-26 119 -98 173t-199 54q-92 0 -173 -33.5t-139.5 -91t-99.5 -132t-61 -160.5h424l-10 -64h-426
q-8 -44 -8 -100q0 -180 95 -270.5t241 -90.5z" />
    <glyph glyph-name="uni0457" unicode="&#x457;" horiz-adv-x="301" 
d="M31 1452h92l-23 -160h-94zM442 1452h93l-23 -160h-92zM176 1065h84l-168 -1065h-84z" />
    <glyph glyph-name="uni045C" unicode="&#x45c;" horiz-adv-x="892" 
d="M834 1452l-256 -262h-68l205 262h119zM922 1065l-670 -522l514 -543h-100l-492 518l-82 -518h-84l168 1065h84l-78 -494l623 494h117z" />
    <glyph glyph-name="uni045E" unicode="&#x45e;" horiz-adv-x="1001" 
d="M840 1452h63q-7 -45 -27 -84.5t-54.5 -74t-91 -54.5t-128.5 -20q-70 0 -120 21t-74 56t-31.5 74.5t-1.5 81.5h63q-10 -168 168 -168q186 0 234 168zM944 1065h90l-661 -1190q-158 -289 -402 -250l15 76q95 -15 175.5 37t139.5 162q30 55 38.5 78t4.5 42l-250 1045h84
l230 -983z" />
    <glyph glyph-name="uni0490" unicode="&#x490;" horiz-adv-x="976" 
d="M993 1638h88l-47 -284h-715l-213 -1354h-88l228 1434h715z" />
    <glyph glyph-name="uni0491" unicode="&#x491;" horiz-adv-x="811" 
d="M766 1200h78l-33 -207h-571l-158 -993h-84l168 1065h577z" />
    <glyph glyph-name="Wgrave" unicode="&#x1e80;" horiz-adv-x="2002" 
d="M1165 1559l-164 262h-122l215 -262h71zM1976 1434h88l-643 -1434h-88l-221 1323l-647 -1323h-88l-193 1434h90l166 -1311l635 1311h101l215 -1311z" />
    <glyph glyph-name="wgrave" unicode="&#x1e81;" horiz-adv-x="1587" 
d="M920 1190l-164 262h-123l215 -262h72zM1620 1065l-492 -1065h-94l-194 954l-498 -954h-92l-156 1065h84l135 -967l502 967h76l196 -967l445 967h88z" />
    <glyph glyph-name="Wacute" unicode="&#x1e82;" horiz-adv-x="2002" 
d="M1104 1559h67l256 262h-118zM1976 1434h88l-643 -1434h-88l-221 1323l-647 -1323h-88l-193 1434h90l166 -1311l635 1311h101l215 -1311z" />
    <glyph glyph-name="wacute" unicode="&#x1e83;" horiz-adv-x="1587" 
d="M858 1190h68l256 262h-119zM1620 1065l-492 -1065h-94l-194 954l-498 -954h-92l-156 1065h84l135 -967l502 967h76l196 -967l445 967h88z" />
    <glyph glyph-name="Wdieresis" unicode="&#x1e84;" horiz-adv-x="2002" 
d="M936 1821h92l-22 -160h-95zM1348 1821h92l-23 -160h-92zM1976 1434h88l-643 -1434h-88l-221 1323l-647 -1323h-88l-193 1434h90l166 -1311l635 1311h101l215 -1311z" />
    <glyph glyph-name="wdieresis" unicode="&#x1e85;" horiz-adv-x="1587" 
d="M690 1452h92l-22 -160h-94zM1102 1452h92l-23 -160h-92zM1620 1065l-492 -1065h-94l-194 954l-498 -954h-92l-156 1065h84l135 -967l502 967h76l196 -967l445 967h88z" />
    <glyph glyph-name="uni1E9E" unicode="&#x1e9e;" horiz-adv-x="1234" 
d="M719 862q188 -12 297.5 -115t109.5 -264q0 -214 -139 -358.5t-354 -144.5q-164 0 -259.5 85t-92.5 234h84q0 -104 72 -172t204 -68q116 0 207.5 58t140.5 153.5t49 210.5q0 145 -119 230.5t-341 85.5l464 575h-507q-119 0 -172.5 -53t-71.5 -168l-182 -1151h-89l183 1155
q27 169 105.5 233t238.5 64h657z" />
    <glyph glyph-name="Ygrave" unicode="&#x1ef2;" horiz-adv-x="1267" 
d="M825 1559l-163 262h-123l215 -262h71zM668 580l-93 -580h-86l93 580l-398 854h95l354 -768l594 768h102z" />
    <glyph glyph-name="ygrave" unicode="&#x1ef3;" horiz-adv-x="1001" 
d="M625 1190l-164 262h-123l215 -262h72zM944 1065h90l-661 -1190q-158 -289 -402 -250l15 76q95 -15 175.5 37t139.5 162q30 55 38.5 78t4.5 42l-250 1045h84l230 -983z" />
    <glyph glyph-name="endash" unicode="&#x2013;" horiz-adv-x="1228" 
d="M74 612h1044l-8 -65h-1044z" />
    <glyph glyph-name="emdash" unicode="&#x2014;" horiz-adv-x="1351" 
d="M74 612h1167l-8 -65h-1167z" />
    <glyph glyph-name="quoteleft" unicode="&#x2018;" horiz-adv-x="286" 
d="M344 1436l-4 -35q-37 -25 -54.5 -61.5t-27.5 -112.5l-8 -62h53l-22 -131h-119l35 223q14 86 54 131t93 48z" />
    <glyph glyph-name="quoteright" unicode="&#x2019;" horiz-adv-x="284" 
d="M168 1047l4 36q32 25 44.5 58.5t27.5 118.5l10 57h-47l18 117h119l-33 -211q-14 -87 -50 -126.5t-93 -49.5z" />
    <glyph glyph-name="quotesinglbase" unicode="&#x201a;" horiz-adv-x="284" 
d="M-55 -369l2 37q33 25 45.5 58t27.5 118l7 58h-45l20 116h119l-33 -211q-14 -87 -50 -126.5t-93 -49.5z" />
    <glyph glyph-name="quotedblleft" unicode="&#x201c;" horiz-adv-x="512" 
d="M344 1436l-4 -35q-37 -25 -54.5 -61.5t-27.5 -112.5l-8 -62h53l-22 -131h-119l35 223q14 86 54 131t93 48zM569 1436l-4 -35q-37 -25 -54.5 -61.5t-27.5 -112.5l-8 -62h53l-22 -131h-119l35 223q14 86 54 131t93 48z" />
    <glyph glyph-name="quotedblright" unicode="&#x201d;" horiz-adv-x="507" 
d="M162 1030l4 35q37 25 54.5 61.5t27.5 112.5l8 61h-53l22 132h119l-35 -224q-14 -86 -54 -130.5t-93 -47.5zM387 1030l4 35q37 25 54.5 61.5t27.5 112.5l8 61h-53l23 132h118l-34 -224q-14 -86 -54.5 -130.5t-93.5 -47.5z" />
    <glyph glyph-name="quotedblbase" unicode="&#x201e;" horiz-adv-x="512" 
d="M-43 -270l4 34q37 25 54.5 62t27.5 113l8 61h-53l22 131h119l-35 -223q-14 -86 -54 -130.5t-93 -47.5zM182 -270l4 34q37 25 54.5 62t27.5 113l8 61h-53l23 131h119l-35 -223q-14 -86 -54.5 -130.5t-93.5 -47.5z" />
    <glyph glyph-name="dagger" unicode="&#x2020;" horiz-adv-x="587" 
d="M565 1214l-10 -67h-156l-84 -531h-71l82 531h-154l10 67h154l35 220h73l-34 -220h155z" />
    <glyph glyph-name="daggerdbl" unicode="&#x2021;" horiz-adv-x="587" 
d="M537 1032h-156l-98 -631h151l-10 -67h-152l-53 -334h-74l54 334h-158l10 67h158l98 631h-153l10 68h153l54 334h73l-53 -334h156z" />
    <glyph glyph-name="bullet" unicode="&#x2022;" horiz-adv-x="514" 
d="M211 385q-68 0 -107 46.5t-28 113.5q9 63 59 106t113 43q66 0 106 -46t29 -111q-10 -64 -60.5 -108t-111.5 -44z" />
    <glyph glyph-name="ellipsis" unicode="&#x2026;" horiz-adv-x="1306" 
d="M41 133h106l-18 -133h-109zM547 133h106l-18 -133h-109zM1053 133h106l-18 -133h-109z" />
    <glyph glyph-name="perthousand" unicode="&#x2030;" horiz-adv-x="2099" 
d="M362 850q-96 0 -152 62.5t-56 170.5q0 94 35 176t103 133.5t154 51.5q95 0 154 -64t59 -172q0 -145 -84 -251.5t-213 -106.5zM158 0l1069 1436l73 -2l-1071 -1434h-71zM367 913q105 0 168 85t63 206q0 84 -42.5 129t-113.5 45q-107 0 -167 -89t-60 -206q0 -83 41 -126.5
t111 -43.5zM1008 -10q-96 0 -152.5 62.5t-56.5 170.5q0 147 81.5 254t211.5 107q95 0 153 -64t58 -172q0 -143 -83.5 -250.5t-211.5 -107.5zM1663 -10q-96 0 -152.5 62.5t-56.5 170.5q0 147 82 254t211 107q95 0 153 -64t58 -172q0 -143 -83.5 -250.5t-211.5 -107.5z
M1010 55q105 0 169 85.5t64 205.5q0 83 -43.5 128.5t-114.5 45.5t-124.5 -44.5t-78 -110.5t-24.5 -140q0 -82 42 -126t110 -44zM1665 55q105 0 169 85.5t64 205.5q0 83 -43 128.5t-112 45.5q-107 0 -168.5 -89t-61.5 -206q0 -82 42 -126t110 -44z" />
    <glyph glyph-name="guilsinglleft" unicode="&#x2039;" horiz-adv-x="438" 
d="M395 784l-229 -178l172 -178l-16 -88l-232 240l8 63l312 240z" />
    <glyph glyph-name="guilsinglright" unicode="&#x203a;" horiz-adv-x="436" 
d="M123 795l14 88l234 -240l-11 -63l-309 -240l17 100l227 178z" />
    <glyph glyph-name="fraction" unicode="&#x2044;" horiz-adv-x="229" 
d="M-387 0h-55l1118 1434h55z" />
    <glyph glyph-name="Euro" unicode="&#x20ac;" horiz-adv-x="1378" 
d="M903 1372q-114 0 -214 -41.5t-174.5 -114.5t-129 -168.5t-86.5 -209.5h438l-12 -62h-440q-17 -70 -23 -153h440l-10 -62h-434v-26q0 -237 117 -355.5t315 -118.5q166 0 289.5 67.5t187.5 180.5h95q-72 -153 -226 -240t-356 -87q-235 0 -373.5 138.5t-138.5 411.5v29h-121
l10 62h115q2 62 21 153h-113l12 62h115q34 131 96.5 241.5t150 194.5t206 131t255.5 47q200 0 324.5 -87.5t149.5 -240.5h-91q-26 114 -126 181t-269 67z" />
    <glyph glyph-name="trademark" unicode="&#x2122;" horiz-adv-x="1083" 
d="M565 1380h-135l-49 -315h-59l51 315h-135l8 54h327zM1063 1434l-57 -369h-60l41 260l-168 -260h-43l-84 260l-41 -260h-59l57 369h60l98 -301l194 301h62z" />
    <glyph glyph-name="partialdiff" unicode="&#x2202;" horiz-adv-x="1179" 
d="M618 958q159 0 262.5 -77t127.5 -226q28 155 28 281t-31.5 227.5t-108.5 158t-196 56.5q-152 0 -254 -80t-135 -188h-73q34 144 157 241t307 97q110 0 191.5 -39.5t128.5 -108.5t69.5 -167t20.5 -211.5t-25 -245.5q-52 -326 -201.5 -511t-396.5 -185q-197 0 -304 110
t-107 289q0 159 68 291t192.5 210t279.5 78zM494 55q129 0 238 73.5t170 191t61 247.5q0 147 -90 235.5t-242 88.5q-138 0 -247 -70t-167.5 -185t-58.5 -251q0 -151 88 -240.5t248 -89.5z" />
    <glyph glyph-name="product" unicode="&#x220f;" horiz-adv-x="1308" 
d="M238 1638h1124l-322 -2027h-75l309 1952h-971l-311 -1952h-76z" />
    <glyph glyph-name="summation" unicode="&#x2211;" horiz-adv-x="1318" 
d="M1360 1559h-1000l375 -934l-665 -934h993l-12 -80h-1137l727 1014l-401 1013h1132z" />
    <glyph glyph-name="minus" unicode="&#x2212;" horiz-adv-x="847" 
d="M68 573h723l-11 -65h-725z" />
    <glyph glyph-name="radical" unicode="&#x221a;" horiz-adv-x="1419" 
d="M1473 1638l-895 -2027h-76l-217 975h-213l12 84h266l203 -930l840 1898h80z" />
    <glyph glyph-name="infinity" unicode="&#x221e;" horiz-adv-x="1603" 
d="M1219 866q125 0 204.5 -79t79.5 -201q0 -155 -113.5 -270t-267.5 -115q-114 0 -196.5 70t-153.5 200q-109 -131 -211 -200.5t-215 -69.5q-127 0 -206 79.5t-79 204.5q0 157 114.5 269t266.5 112q78 0 144 -36t112 -91t93 -139q110 129 212.5 197.5t215.5 68.5zM352 279
q53 0 105 21t102 61t89.5 80t86.5 96q-121 251 -291 251q-126 0 -213.5 -86t-87.5 -215q0 -93 57 -150.5t152 -57.5zM1116 279q127 0 215 91.5t88 211.5q0 93 -57.5 149.5t-153.5 56.5q-52 0 -104 -20.5t-101.5 -58.5t-89 -78t-86.5 -94q28 -55 54.5 -96.5t62.5 -80.5
t79.5 -60t92.5 -21z" />
    <glyph glyph-name="integral" unicode="&#x222b;" horiz-adv-x="583" 
d="M301 1145q16 94 46.5 156t77 93.5t96 43.5t116.5 12l-12 -76q-99 0 -158.5 -51t-81.5 -182l-195 -1225q-47 -313 -333 -305l10 76q207 0 242 233z" />
    <glyph glyph-name="approxequal" unicode="&#x2248;" horiz-adv-x="800" 
d="M725 813l57 -8q-14 -85 -73 -130.5t-131 -45.5q-40 0 -73.5 15.5t-57.5 37.5t-47 43.5t-52 37t-63 15.5q-65 0 -102.5 -35.5t-41.5 -74.5l-57 8q13 85 72.5 129.5t132.5 44.5q40 0 74 -15.5t58 -37.5t47 -44t52 -37.5t62 -15.5q67 0 103 36t40 77zM674 485l55 -8
q-11 -85 -72 -130.5t-133 -45.5q-40 0 -73.5 15.5t-57 37.5t-46 44t-51.5 37.5t-63 15.5q-65 0 -102 -35.5t-41 -75.5l-59 8q14 85 73 129.5t132 44.5q39 0 73 -15.5t58 -37t47.5 -43.5t53 -37.5t62.5 -15.5q67 0 103.5 36t40.5 76z" />
    <glyph glyph-name="notequal" unicode="&#x2260;" horiz-adv-x="851" 
d="M817 707h-289l-143 -263h389l-10 -65h-414l-207 -379h-63l207 379h-248l10 65h273l143 263h-373l10 65h400l205 377h63l-205 -377h262z" />
    <glyph glyph-name="lessequal" unicode="&#x2264;" horiz-adv-x="825" 
d="M743 403l-587 365l702 365l12 81l-766 -403l-14 -88l639 -401zM-2 27h686l-10 -66h-686z" />
    <glyph glyph-name="greaterequal" unicode="&#x2265;" horiz-adv-x="827" 
d="M43 403l-14 -81l766 401l14 88l-641 403l-10 -81l587 -365zM670 27l-11 -66h-688l11 66h688z" />
    <glyph glyph-name="lozenge" unicode="&#x25ca;" horiz-adv-x="919" 
d="M623 1434l204 -717l-432 -717h-98l-205 717l430 717h101zM360 86l379 631l-182 629l-377 -629z" />
    <glyph glyph-name="G.ss01" horiz-adv-x="1323" 
d="M815 698h453l-111 -698h-80l43 264q-181 -293 -526 -293q-239 0 -376.5 137.5t-137.5 411.5q0 153 30 292.5t92 258t149 205.5t208 136.5t262 49.5q196 0 313.5 -81.5t145.5 -225.5h-90q-62 227 -373 227q-125 0 -231.5 -46.5t-183 -128t-130.5 -190t-80 -233.5t-26 -258
q0 -241 116 -358t316 -117q219 0 371.5 127.5t185.5 331.5l19 115h-371z" />
    <glyph glyph-name="R.ss01" horiz-adv-x="1187" 
d="M1153 1081q0 -203 -102 -335t-285 -175l244 -571h-92l-240 555q-58 -4 -90 -4h-395l-87 -551h-88l228 1434h481q207 0 316.5 -91t109.5 -262zM600 631q219 0 340 117t121 325q0 281 -340 281h-399l-117 -723h395z" />
    <glyph glyph-name="G.ss05" horiz-adv-x="1323" 
d="M815 698h453l-111 -698h-80l43 264q-181 -293 -526 -293q-239 0 -376.5 137.5t-137.5 411.5q0 153 30 292.5t92 258t149 205.5t208 136.5t262 49.5q196 0 313.5 -81.5t145.5 -225.5h-90q-62 227 -373 227q-125 0 -231.5 -46.5t-183 -128t-130.5 -190t-80 -233.5t-26 -258
q0 -241 116 -358t316 -117q219 0 371.5 127.5t185.5 331.5l19 115h-371z" />
    <glyph glyph-name="i.loclTRK" horiz-adv-x="301" 
d="M233 1452h93l-23 -160h-94zM176 1065h84l-168 -1065h-84z" />
    <glyph glyph-name="a.ss01" 
d="M1077 1065l-168 -1065h-84l41 248q-166 -266 -436 -266q-175 0 -286 110.5t-111 319.5q0 180 68.5 331t198.5 242.5t294 91.5q132 0 225 -61.5t133 -186.5l39 236h86zM436 55q143 0 256.5 85t173.5 221t60 292q0 91 -26.5 160t-73 110t-104 61t-124.5 20
q-109 0 -201 -48.5t-153 -130t-95 -188.5t-34 -225q0 -176 91 -266.5t230 -90.5z" />
    <glyph glyph-name="aacute.ss01" 
d="M633 1190h67l256 262h-118zM1077 1065l-168 -1065h-84l41 248q-166 -266 -436 -266q-175 0 -286 110.5t-111 319.5q0 180 68.5 331t198.5 242.5t294 91.5q132 0 225 -61.5t133 -186.5l39 236h86zM436 55q143 0 256.5 85t173.5 221t60 292q0 91 -26.5 160t-73 110t-104 61
t-124.5 20q-109 0 -201 -48.5t-153 -130t-95 -188.5t-34 -225q0 -176 91 -266.5t230 -90.5z" />
    <glyph glyph-name="abreve.ss01" 
d="M909 1452h64q-7 -45 -27 -84.5t-54.5 -74t-91 -54.5t-128.5 -20q-70 0 -120 21t-74 56t-32 74.5t-2 81.5h64q-10 -168 168 -168q185 0 233 168zM1077 1065l-168 -1065h-84l41 248q-166 -266 -436 -266q-175 0 -286 110.5t-111 319.5q0 180 68.5 331t198.5 242.5t294 91.5
q132 0 225 -61.5t133 -186.5l39 236h86zM436 55q143 0 256.5 85t173.5 221t60 292q0 91 -26.5 160t-73 110t-104 61t-124.5 20q-109 0 -201 -48.5t-153 -130t-95 -188.5t-34 -225q0 -176 91 -266.5t230 -90.5z" />
    <glyph glyph-name="uni01CE.ss01" 
d="M911 1452h74l-250 -252h-129l-168 252h70l170 -195zM1077 1065l-168 -1065h-84l41 248q-166 -266 -436 -266q-175 0 -286 110.5t-111 319.5q0 180 68.5 331t198.5 242.5t294 91.5q132 0 225 -61.5t133 -186.5l39 236h86zM436 55q143 0 256.5 85t173.5 221t60 292
q0 91 -26.5 160t-73 110t-104 61t-124.5 20q-109 0 -201 -48.5t-153 -130t-95 -188.5t-34 -225q0 -176 91 -266.5t230 -90.5z" />
    <glyph glyph-name="acircumflex.ss01" 
d="M854 1200l-170 195l-233 -195h-74l248 252h129l170 -252h-70zM1077 1065l-168 -1065h-84l41 248q-166 -266 -436 -266q-175 0 -286 110.5t-111 319.5q0 180 68.5 331t198.5 242.5t294 91.5q132 0 225 -61.5t133 -186.5l39 236h86zM436 55q143 0 256.5 85t173.5 221
t60 292q0 91 -26.5 160t-73 110t-104 61t-124.5 20q-109 0 -201 -48.5t-153 -130t-95 -188.5t-34 -225q0 -176 91 -266.5t230 -90.5z" />
    <glyph glyph-name="adieresis.ss01" 
d="M465 1452h92l-22 -160h-95zM877 1452h92l-23 -160h-92zM1077 1065l-168 -1065h-84l41 248q-166 -266 -436 -266q-175 0 -286 110.5t-111 319.5q0 180 68.5 331t198.5 242.5t294 91.5q132 0 225 -61.5t133 -186.5l39 236h86zM436 55q143 0 256.5 85t173.5 221t60 292
q0 91 -26.5 160t-73 110t-104 61t-124.5 20q-109 0 -201 -48.5t-153 -130t-95 -188.5t-34 -225q0 -176 91 -266.5t230 -90.5z" />
    <glyph glyph-name="agrave.ss01" 
d="M694 1190l-164 262h-122l215 -262h71zM1077 1065l-168 -1065h-84l41 248q-166 -266 -436 -266q-175 0 -286 110.5t-111 319.5q0 180 68.5 331t198.5 242.5t294 91.5q132 0 225 -61.5t133 -186.5l39 236h86zM436 55q143 0 256.5 85t173.5 221t60 292q0 91 -26.5 160
t-73 110t-104 61t-124.5 20q-109 0 -201 -48.5t-153 -130t-95 -188.5t-34 -225q0 -176 91 -266.5t230 -90.5z" />
    <glyph glyph-name="amacron.ss01" 
d="M440 1452h564l-11 -61h-561zM1077 1065l-168 -1065h-84l41 248q-166 -266 -436 -266q-175 0 -286 110.5t-111 319.5q0 180 68.5 331t198.5 242.5t294 91.5q132 0 225 -61.5t133 -186.5l39 236h86zM436 55q143 0 256.5 85t173.5 221t60 292q0 91 -26.5 160t-73 110
t-104 61t-124.5 20q-109 0 -201 -48.5t-153 -130t-95 -188.5t-34 -225q0 -176 91 -266.5t230 -90.5z" />
    <glyph glyph-name="aogonek.ss01" 
d="M991 1065h86l-168 -1065h-16q-106 -44 -173 -106.5t-67 -139.5q0 -67 54.5 -96t150.5 -12v-54q-39 -16 -87.5 -17t-94 13.5t-76.5 54t-31 97.5q0 86 78 157.5t178 102.5l41 248q-166 -266 -436 -266q-175 0 -286 110.5t-111 319.5q0 180 68.5 331t198.5 242.5t294 91.5
q132 0 225 -61.5t133 -186.5zM436 55q143 0 256.5 85t173.5 221t60 292q0 91 -26.5 160t-73 110t-104 61t-124.5 20q-109 0 -201 -48.5t-153 -130t-95 -188.5t-34 -225q0 -176 91 -266.5t230 -90.5z" />
    <glyph glyph-name="aring.ss01" 
d="M680 1190q-63 0 -103 39.5t-40 97.5q0 73 53 125.5t129 52.5q61 0 100 -40t39 -99q0 -71 -53 -123.5t-125 -52.5zM686 1245q44 0 79.5 35.5t35.5 81.5q0 37 -25.5 62.5t-64.5 25.5q-46 0 -81.5 -34t-35.5 -81q0 -39 25.5 -64.5t66.5 -25.5zM1077 1065l-168 -1065h-84
l41 248q-166 -266 -436 -266q-175 0 -286 110.5t-111 319.5q0 180 68.5 331t198.5 242.5t294 91.5q132 0 225 -61.5t133 -186.5l39 236h86zM436 55q143 0 256.5 85t173.5 221t60 292q0 91 -26.5 160t-73 110t-104 61t-124.5 20q-109 0 -201 -48.5t-153 -130t-95 -188.5
t-34 -225q0 -176 91 -266.5t230 -90.5z" />
    <glyph glyph-name="atilde.ss01" 
d="M911 1434h58q0 -82 -53.5 -126t-124.5 -44q-46 0 -87.5 22t-68 48.5t-63.5 48.5t-74 22q-63 0 -92 -31.5t-27 -68.5h-57q0 81 53 125.5t125 44.5q46 0 87.5 -22.5t68 -49.5t63.5 -49.5t74 -22.5q62 0 91 32.5t27 70.5zM1077 1065l-168 -1065h-84l41 248
q-166 -266 -436 -266q-175 0 -286 110.5t-111 319.5q0 180 68.5 331t198.5 242.5t294 91.5q132 0 225 -61.5t133 -186.5l39 236h86zM436 55q143 0 256.5 85t173.5 221t60 292q0 91 -26.5 160t-73 110t-104 61t-124.5 20q-109 0 -201 -48.5t-153 -130t-95 -188.5t-34 -225
q0 -176 91 -266.5t230 -90.5z" />
    <glyph glyph-name="g.ss01" horiz-adv-x="1026" 
d="M1006 995q-100 0 -138 -65q33 -68 33 -142q0 -179 -122.5 -295t-309.5 -116q-134 0 -217 59q-69 -4 -104 -33t-35 -69q0 -92 172 -92h153q82 0 154 -17t129.5 -51.5t91 -92t33.5 -132.5q0 -96 -40.5 -173.5t-111 -126t-162 -74.5t-196.5 -26q-63 0 -120 10t-108 33
t-88.5 57t-59 84.5t-21.5 112.5q0 128 74.5 218.5t209.5 132.5q-84 5 -134 39.5t-50 93.5q0 55 43.5 97t120.5 52l2 -2q-66 75 -66 191q0 180 120.5 294.5t309.5 114.5q179 0 265 -100q59 91 184 88zM469 446q160 0 258 95.5t98 246.5q0 103 -68 161.5t-190 58.5
q-159 0 -256.5 -94.5t-97.5 -247.5q0 -105 68 -162.5t188 -57.5zM430 172q-179 0 -295.5 -86.5t-116.5 -239.5q0 -61 27 -106.5t73.5 -71t101.5 -37.5t118 -12q193 0 310.5 86t117.5 244q0 61 -27 105.5t-75 69.5t-106 36.5t-128 11.5z" />
    <glyph glyph-name="l.ss01" horiz-adv-x="358" 
d="M178 -4q-86 -11 -123 24t-24 119l205 1295h83l-206 -1295q-6 -41 11 -59t66 -17z" />
    <glyph glyph-name="a.ss02" 
d="M1077 1065l-168 -1065h-84l41 248q-166 -266 -436 -266q-175 0 -286 110.5t-111 319.5q0 180 68.5 331t198.5 242.5t294 91.5q132 0 225 -61.5t133 -186.5l39 236h86zM436 55q143 0 256.5 85t173.5 221t60 292q0 91 -26.5 160t-73 110t-104 61t-124.5 20
q-109 0 -201 -48.5t-153 -130t-95 -188.5t-34 -225q0 -176 91 -266.5t230 -90.5z" />
    <glyph glyph-name="aacute.ss02" 
d="M633 1190h67l256 262h-118zM1077 1065l-168 -1065h-84l41 248q-166 -266 -436 -266q-175 0 -286 110.5t-111 319.5q0 180 68.5 331t198.5 242.5t294 91.5q132 0 225 -61.5t133 -186.5l39 236h86zM436 55q143 0 256.5 85t173.5 221t60 292q0 91 -26.5 160t-73 110t-104 61
t-124.5 20q-109 0 -201 -48.5t-153 -130t-95 -188.5t-34 -225q0 -176 91 -266.5t230 -90.5z" />
    <glyph glyph-name="abreve.ss02" 
d="M909 1452h64q-7 -45 -27 -84.5t-54.5 -74t-91 -54.5t-128.5 -20q-70 0 -120 21t-74 56t-32 74.5t-2 81.5h64q-10 -168 168 -168q185 0 233 168zM1077 1065l-168 -1065h-84l41 248q-166 -266 -436 -266q-175 0 -286 110.5t-111 319.5q0 180 68.5 331t198.5 242.5t294 91.5
q132 0 225 -61.5t133 -186.5l39 236h86zM436 55q143 0 256.5 85t173.5 221t60 292q0 91 -26.5 160t-73 110t-104 61t-124.5 20q-109 0 -201 -48.5t-153 -130t-95 -188.5t-34 -225q0 -176 91 -266.5t230 -90.5z" />
    <glyph glyph-name="uni01CE.ss02" 
d="M911 1452h74l-250 -252h-129l-168 252h70l170 -195zM1077 1065l-168 -1065h-84l41 248q-166 -266 -436 -266q-175 0 -286 110.5t-111 319.5q0 180 68.5 331t198.5 242.5t294 91.5q132 0 225 -61.5t133 -186.5l39 236h86zM436 55q143 0 256.5 85t173.5 221t60 292
q0 91 -26.5 160t-73 110t-104 61t-124.5 20q-109 0 -201 -48.5t-153 -130t-95 -188.5t-34 -225q0 -176 91 -266.5t230 -90.5z" />
    <glyph glyph-name="acircumflex.ss02" 
d="M854 1200l-170 195l-233 -195h-74l248 252h129l170 -252h-70zM1077 1065l-168 -1065h-84l41 248q-166 -266 -436 -266q-175 0 -286 110.5t-111 319.5q0 180 68.5 331t198.5 242.5t294 91.5q132 0 225 -61.5t133 -186.5l39 236h86zM436 55q143 0 256.5 85t173.5 221
t60 292q0 91 -26.5 160t-73 110t-104 61t-124.5 20q-109 0 -201 -48.5t-153 -130t-95 -188.5t-34 -225q0 -176 91 -266.5t230 -90.5z" />
    <glyph glyph-name="adieresis.ss02" 
d="M465 1452h92l-22 -160h-95zM877 1452h92l-23 -160h-92zM1077 1065l-168 -1065h-84l41 248q-166 -266 -436 -266q-175 0 -286 110.5t-111 319.5q0 180 68.5 331t198.5 242.5t294 91.5q132 0 225 -61.5t133 -186.5l39 236h86zM436 55q143 0 256.5 85t173.5 221t60 292
q0 91 -26.5 160t-73 110t-104 61t-124.5 20q-109 0 -201 -48.5t-153 -130t-95 -188.5t-34 -225q0 -176 91 -266.5t230 -90.5z" />
    <glyph glyph-name="agrave.ss02" 
d="M694 1190l-164 262h-122l215 -262h71zM1077 1065l-168 -1065h-84l41 248q-166 -266 -436 -266q-175 0 -286 110.5t-111 319.5q0 180 68.5 331t198.5 242.5t294 91.5q132 0 225 -61.5t133 -186.5l39 236h86zM436 55q143 0 256.5 85t173.5 221t60 292q0 91 -26.5 160
t-73 110t-104 61t-124.5 20q-109 0 -201 -48.5t-153 -130t-95 -188.5t-34 -225q0 -176 91 -266.5t230 -90.5z" />
    <glyph glyph-name="amacron.ss02" 
d="M440 1452h564l-11 -61h-561zM1077 1065l-168 -1065h-84l41 248q-166 -266 -436 -266q-175 0 -286 110.5t-111 319.5q0 180 68.5 331t198.5 242.5t294 91.5q132 0 225 -61.5t133 -186.5l39 236h86zM436 55q143 0 256.5 85t173.5 221t60 292q0 91 -26.5 160t-73 110
t-104 61t-124.5 20q-109 0 -201 -48.5t-153 -130t-95 -188.5t-34 -225q0 -176 91 -266.5t230 -90.5z" />
    <glyph glyph-name="aogonek.ss02" 
d="M991 1065h86l-168 -1065h-16q-106 -44 -173 -106.5t-67 -139.5q0 -67 54.5 -96t150.5 -12v-54q-39 -16 -87.5 -17t-94 13.5t-76.5 54t-31 97.5q0 86 78 157.5t178 102.5l41 248q-166 -266 -436 -266q-175 0 -286 110.5t-111 319.5q0 180 68.5 331t198.5 242.5t294 91.5
q132 0 225 -61.5t133 -186.5zM436 55q143 0 256.5 85t173.5 221t60 292q0 91 -26.5 160t-73 110t-104 61t-124.5 20q-109 0 -201 -48.5t-153 -130t-95 -188.5t-34 -225q0 -176 91 -266.5t230 -90.5z" />
    <glyph glyph-name="aring.ss02" 
d="M680 1190q-63 0 -103 39.5t-40 97.5q0 73 53 125.5t129 52.5q61 0 100 -40t39 -99q0 -71 -53 -123.5t-125 -52.5zM686 1245q44 0 79.5 35.5t35.5 81.5q0 37 -25.5 62.5t-64.5 25.5q-46 0 -81.5 -34t-35.5 -81q0 -39 25.5 -64.5t66.5 -25.5zM1077 1065l-168 -1065h-84
l41 248q-166 -266 -436 -266q-175 0 -286 110.5t-111 319.5q0 180 68.5 331t198.5 242.5t294 91.5q132 0 225 -61.5t133 -186.5l39 236h86zM436 55q143 0 256.5 85t173.5 221t60 292q0 91 -26.5 160t-73 110t-104 61t-124.5 20q-109 0 -201 -48.5t-153 -130t-95 -188.5
t-34 -225q0 -176 91 -266.5t230 -90.5z" />
    <glyph glyph-name="atilde.ss02" 
d="M911 1434h58q0 -82 -53.5 -126t-124.5 -44q-46 0 -87.5 22t-68 48.5t-63.5 48.5t-74 22q-63 0 -92 -31.5t-27 -68.5h-57q0 81 53 125.5t125 44.5q46 0 87.5 -22.5t68 -49.5t63.5 -49.5t74 -22.5q62 0 91 32.5t27 70.5zM1077 1065l-168 -1065h-84l41 248
q-166 -266 -436 -266q-175 0 -286 110.5t-111 319.5q0 180 68.5 331t198.5 242.5t294 91.5q132 0 225 -61.5t133 -186.5l39 236h86zM436 55q143 0 256.5 85t173.5 221t60 292q0 91 -26.5 160t-73 110t-104 61t-124.5 20q-109 0 -201 -48.5t-153 -130t-95 -188.5t-34 -225
q0 -176 91 -266.5t230 -90.5z" />
    <glyph glyph-name="g.ss03" horiz-adv-x="1026" 
d="M1006 995q-100 0 -138 -65q33 -68 33 -142q0 -179 -122.5 -295t-309.5 -116q-134 0 -217 59q-69 -4 -104 -33t-35 -69q0 -92 172 -92h153q82 0 154 -17t129.5 -51.5t91 -92t33.5 -132.5q0 -96 -40.5 -173.5t-111 -126t-162 -74.5t-196.5 -26q-63 0 -120 10t-108 33
t-88.5 57t-59 84.5t-21.5 112.5q0 128 74.5 218.5t209.5 132.5q-84 5 -134 39.5t-50 93.5q0 55 43.5 97t120.5 52l2 -2q-66 75 -66 191q0 180 120.5 294.5t309.5 114.5q179 0 265 -100q59 91 184 88zM469 446q160 0 258 95.5t98 246.5q0 103 -68 161.5t-190 58.5
q-159 0 -256.5 -94.5t-97.5 -247.5q0 -105 68 -162.5t188 -57.5zM430 172q-179 0 -295.5 -86.5t-116.5 -239.5q0 -61 27 -106.5t73.5 -71t101.5 -37.5t118 -12q193 0 310.5 86t117.5 244q0 61 -27 105.5t-75 69.5t-106 36.5t-128 11.5z" />
    <glyph glyph-name="l.ss04" horiz-adv-x="358" 
d="M178 -4q-86 -11 -123 24t-24 119l205 1295h83l-206 -1295q-6 -41 11 -59t66 -17z" />
    <glyph glyph-name="f_t" horiz-adv-x="1171" 
d="M938 993l-135 -860q-6 -42 10.5 -57t60.5 -15q64 0 144 17l-12 -72q-67 -20 -148 -20q-161 0 -137 145l135 862h-545l-157 -993h-84l157 993h-153l10 72h154l24 149q38 252 275 252q80 0 155 -20l-10 -68q-87 17 -143 17q-86 0 -132.5 -39.5t-60.5 -138.5l-24 -152h546
l41 266h82l-41 -266h215l-10 -72h-217z" />
    <glyph glyph-name="r_t" horiz-adv-x="1171" 
d="M940 993l-135 -860q-6 -41 11 -56.5t61 -15.5q63 0 143 17l-12 -72q-67 -20 -148 -20q-161 0 -137 145l135 862h-168l10 72h170l41 266h82l-41 -266h215l-10 -72h-217zM207 795q44 118 167 194t326 76l-12 -72q-205 -1 -323.5 -89t-180.5 -257l-102 -647h-84l168 1065h84
z" />
    <glyph glyph-name="zero.dnom" horiz-adv-x="571" 
d="M199 -4q110 0 187 91.5t77 238.5q0 98 -47 155.5t-131 57.5q-117 0 -187.5 -97.5t-70.5 -234.5q0 -98 45 -154.5t127 -56.5zM279 498q63 0 101 -45t38 -129q0 -127 -65 -207t-148 -80q-63 0 -98 43.5t-35 128.5q0 130 61.5 209.5t145.5 79.5z" />
    <glyph glyph-name="one.dnom" horiz-adv-x="337" 
d="M195 532l-84 -532h-48l76 467q-40 -56 -116 -47l6 41q34 -4 67.5 18t50.5 53h48z" />
    <glyph glyph-name="two.dnom" horiz-adv-x="514" 
d="M8 0q9 84 51.5 139.5t145.5 114.5q75 43 110 76.5t35 85.5q0 37 -27 60.5t-75 23.5q-54 0 -89 -31.5t-44 -85.5h-45q11 71 61.5 115.5t124.5 44.5q61 0 100 -34t39 -85q0 -69 -43.5 -114.5t-132.5 -92.5q-71 -38 -111 -84t-45 -88h283l-8 -45h-330z" />
    <glyph glyph-name="three.dnom" horiz-adv-x="544" 
d="M297 283q43 -7 74.5 -34.5t31.5 -76.5q0 -76 -60 -128t-157 -52q-92 0 -133 48t-28 126h43q-9 -61 22.5 -96t99.5 -35q75 0 121.5 38.5t46.5 98.5q0 45 -39 66.5t-102 21.5h-22l8 37h22q65 0 104.5 38t39.5 85q0 38 -27 59t-78 21q-121 0 -147 -125h-45q13 79 65.5 123.5
t132.5 44.5q70 0 107 -33t37 -86q0 -51 -33 -90t-84 -51z" />
    <glyph glyph-name="four.dnom" horiz-adv-x="520" 
d="M375 135h-62l-22 -135h-47l22 135h-246l7 39l303 361h47l-60 -361h62zM272 174l47 291l-245 -291h198z" />
    <glyph glyph-name="five.dnom" horiz-adv-x="483" 
d="M227 352q68 0 109.5 -47.5t28.5 -130.5q-12 -83 -70.5 -133.5t-140.5 -50.5q-79 0 -121 49t-31 125h43q-7 -55 21 -93t94 -38t108 39t51 102q11 71 -22 105t-82 34q-83 0 -145 -65h-45l90 287h266l-8 -41h-234l-61 -203q15 22 54.5 41.5t94.5 19.5z" />
    <glyph glyph-name="six.dnom" horiz-adv-x="534" 
d="M248 344q61 0 105 -33t44 -100q0 -96 -55.5 -158.5t-148.5 -62.5q-97 0 -136 73t-18 195q46 283 231 283q78 0 114 -44.5t32 -99.5h-41q-4 101 -111 101q-37 0 -67 -17t-47.5 -39t-32.5 -58t-21.5 -60t-13.5 -58q24 31 68 54.5t98 23.5zM193 31q78 0 118.5 51.5
t40.5 122.5q0 49 -31 74.5t-81 25.5q-66 0 -114 -43.5t-48 -109.5q0 -54 31 -87.5t84 -33.5z" />
    <glyph glyph-name="seven.dnom" horiz-adv-x="454" 
d="M393 535l-6 -41l-287 -494h-51l293 494h-307l6 41h352z" />
    <glyph glyph-name="eight.dnom" horiz-adv-x="468" 
d="M276 289q82 -39 82 -115q0 -81 -60.5 -129.5t-152.5 -48.5q-67 0 -111 35t-44 94t34 101t91 65q-56 38 -56 96q0 61 48 106.5t129 45.5q64 0 98.5 -32.5t34.5 -80.5q0 -82 -93 -137zM100 389q0 -37 29.5 -60.5t69.5 -23.5q50 -2 90.5 33t40.5 84q0 34 -24.5 56t-78.5 22
q-57 0 -92 -33.5t-35 -77.5zM150 37q70 0 117.5 35t47.5 100q0 46 -32.5 70t-89.5 24q-62 0 -111 -36.5t-49 -98.5q0 -46 31.5 -70t85.5 -24z" />
    <glyph glyph-name="nine.dnom" horiz-adv-x="530" 
d="M201 186q-61 0 -105.5 33t-44.5 100q0 96 55.5 159t149.5 63q97 0 136 -73.5t18 -195.5q-46 -282 -232 -282q-79 0 -114 43.5t-31 99.5h39q4 -100 112 -100q37 0 66.5 16.5t47.5 39t32.5 58t21 59.5t13.5 58q-24 -31 -67.5 -54.5t-96.5 -23.5zM254 500
q-77 0 -117.5 -51.5t-40.5 -122.5q0 -49 31 -75t80 -26q67 0 115.5 44t48.5 110q0 54 -31.5 87.5t-85.5 33.5z" />
    <glyph glyph-name="zero.numr" horiz-adv-x="569" 
d="M340 897q110 0 187 91.5t77 238.5q0 98 -47 155.5t-131 57.5q-117 0 -187.5 -97.5t-70.5 -234.5q0 -98 45 -154.5t127 -56.5zM420 1399q63 0 101 -45t38 -129q0 -127 -65 -207t-148 -80q-63 0 -98 43.5t-35 128.5q0 130 61.5 209.5t145.5 79.5z" />
    <glyph glyph-name="one.numr" horiz-adv-x="337" 
d="M338 1434l-84 -533h-47l76 467q-40 -56 -117 -47l6 41q34 -4 68 18.5t51 53.5h47z" />
    <glyph glyph-name="two.numr" horiz-adv-x="514" 
d="M152 901q9 84 51 139.5t145 114.5q38 22 58.5 35.5t44 34t33.5 43t10 49.5q0 37 -27.5 60.5t-75.5 23.5q-54 0 -89 -31.5t-44 -85.5h-45q11 71 61.5 115.5t124.5 44.5q61 0 100.5 -34t39.5 -85q0 -69 -43.5 -114.5t-133.5 -92.5q-71 -38 -110.5 -84t-44.5 -88h282l-8 -45
h-329z" />
    <glyph glyph-name="three.numr" horiz-adv-x="542" 
d="M438 1184q44 -7 75.5 -34.5t31.5 -76.5q0 -76 -60 -128t-157 -52q-92 0 -133 48t-29 126h43q-9 -61 23 -96t100 -35q75 0 121.5 38.5t46.5 98.5q0 45 -39.5 66.5t-102.5 21.5h-22l8 37h23q65 0 104 38t39 85q0 80 -104 80q-122 0 -148 -125h-45q13 79 66 123.5t133 44.5
q70 0 106.5 -33t36.5 -86q0 -51 -33 -90t-84 -51z" />
    <glyph glyph-name="four.numr" horiz-adv-x="520" 
d="M518 1036h-61l-23 -135h-47l23 135h-246l6 39l303 361h47l-59 -361h61zM416 1075l47 291l-246 -291h199z" />
    <glyph glyph-name="five.numr" horiz-adv-x="483" 
d="M371 1253q67 0 108.5 -47.5t28.5 -130.5q-12 -83 -70.5 -133.5t-140.5 -50.5q-79 0 -121 49t-31 125h43q-7 -55 21 -93t94 -38t108.5 39t51.5 102q11 71 -22.5 105t-82.5 34q-83 0 -145 -65h-45l90 287h266l-8 -41h-233l-62 -203q15 22 55 41.5t95 19.5z" />
    <glyph glyph-name="six.numr" horiz-adv-x="534" 
d="M391 1243q61 0 105.5 -33t44.5 -100q0 -96 -56 -158.5t-149 -62.5q-97 0 -136 73t-18 195q46 283 232 283q77 0 113 -44t32 -100h-41q-4 101 -110 101q-37 0 -67 -16.5t-48 -39.5t-33 -58.5t-21.5 -59.5t-13.5 -58q24 31 68 54.5t98 23.5zM336 930q78 0 119 51.5
t41 122.5q0 49 -31.5 74.5t-81.5 25.5q-66 0 -114 -43.5t-48 -109.5q0 -54 31 -87.5t84 -33.5z" />
    <glyph glyph-name="seven.numr" horiz-adv-x="454" 
d="M537 1436l-7 -41l-286 -494h-51l292 494h-307l6 41h353z" />
    <glyph glyph-name="eight.numr" horiz-adv-x="468" 
d="M420 1190q82 -39 82 -115q0 -81 -60.5 -129.5t-152.5 -48.5q-68 0 -112 35t-44 94t34 101t91 65q-55 37 -55 96q0 61 47.5 106.5t128.5 45.5q64 0 98.5 -32.5t34.5 -80.5q0 -83 -92 -137zM244 1290q0 -37 29 -60.5t69 -23.5q50 -2 90.5 33t40.5 84q0 78 -102 78
q-57 0 -92 -33.5t-35 -77.5zM293 938q70 0 118 35t48 100q0 46 -33 70t-90 24q-62 0 -111 -36.5t-49 -98.5q0 -46 31.5 -70t85.5 -24z" />
    <glyph glyph-name="nine.numr" horiz-adv-x="530" 
d="M344 1087q-61 0 -105 33.5t-44 100.5q0 96 55 158.5t149 62.5q97 0 136 -73t18 -195q-46 -283 -231 -283q-79 0 -114.5 43.5t-31.5 99.5h39q4 -100 113 -100q37 0 66.5 17t47 38.5t32.5 58t21 59.5t13 58q-24 -31 -67.5 -54.5t-96.5 -23.5zM397 1401q-77 0 -117 -51.5
t-40 -122.5q0 -49 30.5 -75t79.5 -26q67 0 115.5 44t48.5 110q0 54 -31.5 87.5t-85.5 33.5z" />
    <glyph glyph-name="Aacutecy" horiz-adv-x="1333" 
d="M1102 1821l-256 -262h-68l205 262h119zM1096 0l-101 426h-702l-238 -426h-98l807 1434h72l352 -1434h-92zM332 498h645l-193 811z" />
    <glyph glyph-name="Ieacutecy" horiz-adv-x="1081" 
d="M678 1559h67l256 262h-118zM1118 1354h-796l-93 -574h695l-11 -75h-696l-100 -625h821l-14 -80h-906l228 1434h884z" />
    <glyph glyph-name="Iiacutecy" horiz-adv-x="1302" 
d="M770 1559h68l256 262h-119zM246 1434h88l-209 -1313h2l1075 1313h111l-228 -1434h-88l209 1315h-4l-1073 -1315h-111z" />
    <glyph glyph-name="Oacutecy" horiz-adv-x="1419" 
d="M838 1559h67l256 262h-119zM834 1452q239 0 381.5 -141t142.5 -404q0 -148 -32 -285t-96.5 -253.5t-154 -202.5t-212.5 -135t-265 -49q-238 0 -379 140t-141 402q0 148 32 285.5t95.5 254t153 203.5t212 136t263.5 49zM608 63q125 0 233 46.5t185.5 126.5t132.5 187
t82 229t27 251q0 229 -119 348t-324 119q-125 0 -233 -46.5t-184.5 -127t-131.5 -188t-81.5 -230t-26.5 -252.5q0 -229 117.5 -346t322.5 -117z" />
    <glyph glyph-name="Uacutecy" horiz-adv-x="1101" 
d="M674 1559h67l256 262h-118zM1067 1434h96l-682 -1194q-160 -283 -401 -248l14 84q192 -26 312 194q32 57 42 86.5t3 55.5l-267 1022h92l246 -965z" />
    <glyph glyph-name="Yeruacutecy" horiz-adv-x="1464" 
d="M854 1559h68l256 262h-119zM637 887q206 0 317 -92t111 -260q0 -248 -152.5 -391.5t-410.5 -143.5h-484l228 1434h88l-88 -547h391zM1247 0h-88l225 1434h89zM514 82q215 0 338 122t123 326q0 135 -86 205t-254 70h-404l-114 -723h397z" />
    <glyph glyph-name="Ereversedacutecy" horiz-adv-x="1355" 
d="M1126 1821l-256 -262h-67l205 262h118zM778 1452q234 0 375 -141t141 -410q0 -145 -31 -280t-93.5 -251t-150.5 -202.5t-208.5 -136t-259.5 -49.5q-202 0 -329 88t-152 239h88q27 -114 128.5 -181t268.5 -67q130 0 241 51.5t189.5 141t130 204.5t74.5 247h-586l10 75h586
q6 61 6 121q0 235 -116.5 353t-315.5 118q-168 0 -291 -67.5t-184 -180.5h-94q72 155 223 241.5t350 86.5z" />
    <glyph glyph-name="Iuacutecy" horiz-adv-x="1781" 
d="M1337 1821l-256 -262h-67l205 262h118zM1196 1452q239 0 381.5 -141t142.5 -404q0 -148 -32 -285t-96 -253.5t-154 -202.5t-212.5 -135t-264.5 -49q-238 0 -379.5 140t-141.5 402q0 68 6 133h-235l-102 -657h-89l226 1434h88l-111 -703h234q25 152 86 282t152.5 228.5
t220.5 154.5t280 56zM971 63q125 0 233 46.5t185 126.5t132 187t82 229t27 251q0 229 -118.5 348t-323.5 119q-125 0 -233 -46.5t-185 -127.5t-132 -188t-81.5 -229.5t-26.5 -252.5q0 -229 117.5 -346t323.5 -117z" />
    <glyph glyph-name="Iaacutecy" horiz-adv-x="1210" 
d="M1053 1821l-256 -262h-68l205 262h119zM1221 1434l-228 -1434h-86l99 623h-517q-46 0 -86.5 -6t-83 -23t-74.5 -44t-56.5 -72.5t-32.5 -104.5l-19 -137q-31 -193 -78 -236h-92q57 53 84 244l19 137q17 124 87 195t201 94q-98 42 -148 123t-50 190q0 211 144.5 331
t385.5 120h531zM524 698h494l104 658h-440q-206 0 -321 -99t-115 -278q0 -133 77.5 -207t200.5 -74z" />
    <glyph glyph-name="aacutecy" horiz-adv-x="1097" 
d="M907 1452l-256 -262h-67l204 262h119zM950 705l-90 -574q-6 -42 12 -57.5t66 -10.5l-10 -63q-21 -8 -45 -8q-67 0 -92.5 34t-10.5 115l19 97q-20 -34 -57.5 -72.5t-95.5 -81t-142.5 -70.5t-177.5 -28q-139 0 -220 71.5t-81 194.5q0 82 28.5 142t86 99t129 62t171.5 39
q7 1 48.5 7t57.5 8.5t56 8.5t61.5 10.5t56 11t57 12.5t46.5 13.5t41 14.5l4 22q26 164 -34 233t-230 69q-152 0 -228 -48t-108 -139h-84q42 136 145.5 197t278.5 61q201 0 287 -87.5t55 -282.5zM338 53q78 0 151 23.5t123.5 56.5t94 75t66.5 74t36 58l45 272
q-19 -8 -52.5 -17t-82 -18t-90.5 -16t-106.5 -18t-100.5 -17q-164 -27 -238.5 -88t-74.5 -184q0 -94 61 -147.5t168 -53.5z" />
    <glyph glyph-name="ieacutecy" horiz-adv-x="1073" 
d="M924 1452l-256 -262h-68l205 262h119zM981 487h-862q-4 -50 -4 -73q0 -180 92.5 -268.5t249.5 -88.5q117 0 195 31.5t151 110.5h94q-93 -117 -196.5 -165t-249.5 -48q-191 0 -304.5 111t-113.5 317q0 135 42 256t116.5 210.5t183 142t233.5 52.5q172 0 282.5 -110
t110.5 -306q0 -32 -6.5 -88.5t-13.5 -83.5zM600 1004q-183 0 -308.5 -127t-164.5 -322h784q11 51 11 107q0 166 -89.5 254t-232.5 88z" />
    <glyph glyph-name="iiacutecy" horiz-adv-x="1105" 
d="M616 1190h68l256 262h-119zM166 1065h84l-154 -967h4l858 967h109l-168 -1065h-84l156 969h-4l-861 -969h-108z" />
    <glyph glyph-name="oacutecy" horiz-adv-x="1083" 
d="M586 1190h67l256 262h-118zM602 1075q112 0 203 -47.5t148 -148t57 -238.5q0 -129 -43 -249t-118 -209.5t-182.5 -143t-228.5 -53.5q-172 0 -288.5 113t-116.5 317q0 103 27 201.5t78 181t120 144.5t158 97t186 35zM928 645q0 89 -26.5 158.5t-72.5 111.5t-104 64
t-125 22q-142 0 -254.5 -82.5t-171.5 -215t-59 -285.5q0 -89 26.5 -159t72.5 -112.5t104 -65t124 -22.5q143 0 255.5 83.5t171.5 216t59 286.5z" />
    <glyph glyph-name="uacutecy" horiz-adv-x="1001" 
d="M563 1190h68l256 262h-119zM944 1065h90l-661 -1190q-158 -289 -402 -250l15 76q95 -15 175.5 37t139.5 162q30 55 38.5 78t4.5 42l-250 1045h84l230 -983z" />
    <glyph glyph-name="yeruacutecy" horiz-adv-x="1267" 
d="M698 1190h68l256 262h-119zM522 659q184 0 281.5 -71.5t97.5 -204.5q0 -185 -130.5 -284t-348.5 -99h-414l168 1065h84l-63 -406h325zM1145 1065h84l-168 -1065h-84zM434 72q183 0 284 79.5t101 227.5q0 101 -70 155t-229 54h-336l-80 -516h330z" />
    <glyph glyph-name="ereversedacutecy" horiz-adv-x="1028" 
d="M901 1452l-256 -262h-67l204 262h119zM539 1075q181 0 298 -111.5t117 -320.5q0 -176 -71.5 -325.5t-204 -240.5t-297.5 -91q-158 0 -254 72t-127 229h84q26 -119 98 -173.5t199 -54.5q97 0 181.5 37.5t144.5 102t100.5 146.5t56.5 175h-432l12 64h428q2 18 2 57
q0 180 -94.5 270t-240.5 90q-130 0 -220 -54.5t-151 -170.5h-86q74 158 187.5 228.5t269.5 70.5z" />
    <glyph glyph-name="iuacutecy" horiz-adv-x="1378" 
d="M1077 1452l-256 -262h-67l204 262h119zM899 1075q112 0 203 -47.5t148 -148t57 -238.5q0 -129 -43 -249t-118 -209.5t-182.5 -143t-228.5 -53.5q-172 0 -288.5 113t-116.5 317q0 24 4 78h-164l-78 -496h-84l168 1065h84l-78 -496h162q29 142 105 256.5t194 183t256 68.5z
M739 59q143 0 255.5 83.5t171.5 216t59 286.5q0 89 -26.5 158.5t-72.5 111.5t-104 64t-125 22q-142 0 -254.5 -82.5t-171.5 -215t-59 -285.5q0 -89 26.5 -159t72.5 -112.5t104 -65t124 -22.5z" />
    <glyph glyph-name="iaacutecy" horiz-adv-x="1036" 
d="M905 1452l-256 -262h-67l204 262h119zM584 1065h413l-168 -1065h-84l64 406h-428q-111 0 -161 -36t-64 -116l-17 -96q-14 -79 -25 -112t-30 -46h-84q19 13 30 46t25 112l17 96q13 78 53.5 127t122.5 70q-144 69 -144 231q0 185 131 284t349 99zM821 477l80 516h-330
q-183 0 -284 -79.5t-101 -227.5q0 -101 70 -155t229 -54h336z" />
    </font>
</defs>
</svg>
