<?xml version="1.0" standalone="no"?>
<!DOCTYPE svg PUBLIC "-//W3C//DTD SVG 1.1//EN" "http://www.w3.org/Graphics/SVG/1.1/DTD/svg11.dtd" >
<svg xmlns="http://www.w3.org/2000/svg" xmlns:xlink="http://www.w3.org/1999/xlink" version="1.1">
<metadata>
Created by FontForge 20170731 at Mon Aug  7 16:11:14 2023
 By Aleksey,,,
(c) 2018 Connary Fagen
</metadata>
<defs>
<font id="ArticulatCF-Heavy" horiz-adv-x="1232" >
  <font-face 
    font-family="Articulat CF Heavy"
    font-weight="900"
    font-stretch="normal"
    units-per-em="2048"
    panose-1="0 0 10 0 0 0 0 0 0 0"
    ascent="1638"
    descent="-410"
    x-height="1065"
    cap-height="1434"
    bbox="-399 -881 2224 1997"
    underline-thickness="102"
    underline-position="-307"
    unicode-range="U+0020-FB02"
  />
<missing-glyph horiz-adv-x="1044" 
d="M856 1638v-2089h-661v2089h661zM696 1499h-346v-69h137v-78h-139v-68h348v68h-139v78h139v69zM557 1229h-209v-217h348v71h-139v146zM487 1157v-74h-69v74h69zM696 954h-348v-67h139v-78h-139v-70h209v148h139v67zM696 829h-69v-137h-279v-71h348v208zM696 575h-209v-116
h70v47h70v-98h-209v167h-70v-235h348v235zM696 213h-348v-236h348v236zM627 145v-98h-209v98h209zM696 -70h-348v-69h148l-148 -99v-69h348v69h-213l146 99h67v69z" />
    <glyph glyph-name="fi" unicode="fi" horiz-adv-x="1347" 
d="M197 1069q0 81 14.5 144.5t35.5 104.5t56 70.5t65 44t75 22.5t73 9.5t70 1.5q44 0 94 -7t68 -15v-273q-49 7 -64 7q-67 0 -88 -25.5t-21 -87.5h166v-293h-166v-772h-378v772h-156v293h156v4zM868 1452h379v-270h-379v270zM868 0v1065h379v-1065h-379z" />
    <glyph glyph-name="fl" unicode="fl" horiz-adv-x="1347" 
d="M197 1069q0 81 14.5 144.5t35.5 104.5t56 70.5t65 44t75 22.5t73 9.5t70 1.5q44 0 94 -7t68 -15v-273q-49 7 -64 7q-67 0 -88 -25.5t-21 -87.5h166v-293h-166v-772h-378v772h-156v293h156v4zM868 1446h379v-1446h-379v1446z" />
    <glyph glyph-name=".notdef" horiz-adv-x="1044" 
d="M856 1638v-2089h-661v2089h661zM696 1499h-346v-69h137v-78h-139v-68h348v68h-139v78h139v69zM557 1229h-209v-217h348v71h-139v146zM487 1157v-74h-69v74h69zM696 954h-348v-67h139v-78h-139v-70h209v148h139v67zM696 829h-69v-137h-279v-71h348v208zM696 575h-209v-116
h70v47h70v-98h-209v167h-70v-235h348v235zM696 213h-348v-236h348v236zM627 145v-98h-209v98h209zM696 -70h-348v-69h148l-148 -99v-69h348v69h-213l146 99h67v69z" />
    <glyph glyph-name=".null" horiz-adv-x="0" 
 />
    <glyph glyph-name="nonmarkingreturn" horiz-adv-x="682" 
 />
    <glyph glyph-name="space" unicode=" " horiz-adv-x="540" 
 />
    <glyph glyph-name="exclam" unicode="!" horiz-adv-x="600" 
d="M481 528h-364l-11 906h383zM100 418h400v-418h-400v418z" />
    <glyph glyph-name="quotedbl" unicode="&#x22;" horiz-adv-x="1120" 
d="M82 772h364v662h-364v-662zM676 772h364v662h-364v-662z" />
    <glyph glyph-name="numbersign" unicode="#" horiz-adv-x="1251" 
d="M1159 811h-184l-21 -188h150v-295h-178l-33 -328h-285l33 328h-109l-32 -328h-285l33 328h-156v295h184l21 188h-150v297h179l32 326h285l-33 -326h109l33 326h284l-32 -326h155v-297zM670 623l20 188h-108l-21 -188h109z" />
    <glyph glyph-name="dollar" unicode="$" horiz-adv-x="1331" 
d="M1264 428q0 -102 -41 -183.5t-113.5 -135t-165 -85t-201.5 -40.5v-168h-143v168q-234 16 -376.5 147.5t-151.5 368.5h393q24 -152 135 -185v263l-65 12q-76 15 -134 33.5t-116.5 52t-96.5 78.5t-62 114t-24 156q0 187 138 302t360 126v166h143v-172q211 -23 340.5 -139.5
t143.5 -327.5h-393q-11 104 -91 133v-240l72 -14q171 -36 269 -92t139 -136.5t41 -201.5zM586 903l14 -2v223q-51 -12 -79.5 -47.5t-28.5 -64.5q0 -18 2.5 -31t10.5 -30.5t28.5 -29.5t52.5 -18zM743 315q56 15 90.5 47.5t34.5 69.5q0 48 -26.5 74.5t-98.5 44.5v-236z" />
    <glyph glyph-name="percent" unicode="%" horiz-adv-x="1538" 
d="M399 731q-139 0 -223 89t-84 267q0 179 83.5 268t223.5 89q139 0 222.5 -89t83.5 -268q0 -178 -83.5 -267t-222.5 -89zM209 0l846 1440l268 -6l-840 -1434h-274zM399 969q12 0 18.5 2.5t14 13t11 36t3.5 66.5q0 54 -7.5 81.5t-15.5 32.5t-24 5q-17 0 -25.5 -5t-16 -32.5
t-7.5 -81.5q0 -41 3.5 -66.5t11.5 -36t14.5 -13t19.5 -2.5zM1141 -10q-139 0 -223 89t-84 267q0 179 83.5 267.5t223.5 88.5q139 0 222 -88.5t83 -267.5t-83 -267.5t-222 -88.5zM1141 227q16 0 24 5t15.5 32.5t7.5 81.5t-7.5 81.5t-15.5 32.5t-24 5q-17 0 -25.5 -5
t-16 -32.5t-7.5 -81.5t7.5 -81.5t16 -32.5t25.5 -5z" />
    <glyph glyph-name="ampersand" unicode="&#x26;" horiz-adv-x="1538" 
d="M1489 0h-418l-63 68q-162 -93 -359 -93q-85 0 -166 16t-156.5 51.5t-132 86.5t-90.5 128t-34 169q0 230 282 350q-67 88 -98 161.5t-31 152.5q0 74 24 138t73.5 118t136 85t200.5 31q113 0 198 -31t134 -85.5t72.5 -119.5t23.5 -141q0 -121 -72 -214t-188 -150l-8 -4
l168 -182q50 100 53 229h342q-29 -294 -153 -485zM657 1188q-59 0 -89.5 -33.5t-30.5 -75.5q0 -34 18 -65.5t80 -100.5q48 27 78 52.5t41 48t13.5 35t2.5 30.5q0 44 -28 76.5t-85 32.5zM653 299q52 0 113 23l-225 239q-62 -50 -62 -125q0 -58 48 -97.5t126 -39.5z" />
    <glyph glyph-name="quotesingle" unicode="'" horiz-adv-x="528" 
d="M82 772h364v662h-364v-662z" />
    <glyph glyph-name="parenleft" unicode="(" horiz-adv-x="796" 
d="M309 1526h369q-207 -377 -207 -871q0 -523 207 -921h-369q-217 388 -217 921q0 507 217 871z" />
    <glyph glyph-name="parenright" unicode=")" horiz-adv-x="796" 
d="M461 1526q217 -364 217 -871q0 -533 -217 -921h-369q207 398 207 921q0 494 -207 871h369z" />
    <glyph glyph-name="asterisk" unicode="*" horiz-adv-x="1163" 
d="M1010 1087l-172 -47l127 -170l-269 -161l-114 159l-115 -159l-268 161l127 170l-172 47l73 314l209 -60l-8 222h301l-2 -224l209 62z" />
    <glyph glyph-name="plus" unicode="+" horiz-adv-x="1298" 
d="M1206 739v-323h-385v-381h-346v381h-383v323h383v381h346v-381h385z" />
    <glyph glyph-name="comma" unicode="," horiz-adv-x="604" 
d="M102 -369v113q77 10 114.5 64.5t37.5 125.5v66h-152v416h400v-361q0 -83 -13 -148.5t-33 -109.5t-52.5 -75.5t-64.5 -48.5t-76 -27t-79 -12.5t-82 -2.5z" />
    <glyph glyph-name="hyphen" unicode="-" horiz-adv-x="835" 
d="M82 702h672v-282h-672v282z" />
    <glyph glyph-name="period" unicode="." horiz-adv-x="604" 
d="M102 418h400v-418h-400v418z" />
    <glyph glyph-name="slash" unicode="/" horiz-adv-x="1064" 
d="M1004 1434l-562 -1430h-381l560 1430h383z" />
    <glyph glyph-name="zero" unicode="0" horiz-adv-x="1325" 
d="M662 1452q60 0 117 -10.5t116.5 -35.5t111.5 -63t98 -96.5t79 -133t52 -176t19 -220.5q0 -166 -36.5 -296.5t-95 -211t-138.5 -133.5t-159 -73.5t-164 -20.5q-83 0 -161.5 20.5t-158.5 73.5t-139 133.5t-96 211t-37 296.5q0 165 37 295.5t96 211.5t139 134t158.5 73.5
t161.5 20.5zM877 717q0 46 -1.5 81t-6.5 80t-13.5 78.5t-24.5 68t-38.5 56t-55.5 35.5t-75 14q-41 0 -74 -14t-55 -35.5t-38 -56t-25 -68t-13.5 -78.5t-6 -80t-1.5 -81q0 -54 2 -94.5t8.5 -92.5t21.5 -88.5t37.5 -69.5t59 -50t84.5 -17q42 0 75 14t55.5 35.5t38.5 56
t24.5 67.5t13.5 78t6.5 80t1.5 81z" />
    <glyph glyph-name="one" unicode="1" horiz-adv-x="909" 
d="M778 1434v-1434h-379v983q-34 -35 -75.5 -56.5t-92 -30.5t-84.5 -11t-88 -2v309q141 18 220 70t120 172h379z" />
    <glyph glyph-name="two" unicode="2" horiz-adv-x="1212" 
d="M82 0v29q0 101 8 173t32 146.5t67.5 134t114.5 119.5t173 119q21 11 65 33t65.5 34t53.5 35t48 44t28.5 54t12.5 72q0 47 -15 78t-41 44t-46 17.5t-42 4.5q-17 0 -33.5 -2.5t-40 -13.5t-40.5 -29.5t-29 -53.5t-12 -82v-24h-361v24q0 109 29 196.5t89 155t161 104
t237 36.5q133 0 235.5 -36.5t164 -100t92 -144t30.5 -174.5q0 -52 -8.5 -96.5t-25.5 -81t-36.5 -66.5t-50 -57.5t-58 -48t-68 -43.5t-72 -39.5t-78.5 -41t-80 -42.5q-155 -81 -155 -168v-6h624v-303h-1038z" />
    <glyph glyph-name="three" unicode="3" horiz-adv-x="1290" 
d="M915 754q24 -1 57 -10.5t75.5 -34.5t77.5 -60.5t59 -94.5t24 -130q0 -200 -149 -324.5t-422 -124.5q-264 0 -415.5 143.5t-149.5 373.5h352q3 -46 19.5 -82t39 -56.5t51.5 -33t54 -17t51 -4.5q28 0 54.5 4.5t60 18.5t54.5 46.5t21 80.5q0 25 -10.5 50t-35.5 51t-76 42
t-121 16h-84v246h84q53 0 92.5 12.5t59.5 29.5t31.5 41t14 40t2.5 33q0 43 -25.5 71.5t-58 38.5t-69.5 10q-165 0 -170 -161h-352q0 226 138 354.5t380 128.5q114 0 212.5 -32t165.5 -86t104.5 -125.5t37.5 -149.5q0 -73 -25.5 -132t-65 -93.5t-76 -54t-67.5 -25.5z" />
    <glyph glyph-name="four" unicode="4" horiz-adv-x="1280" 
d="M1208 309h-164v-309h-378v309h-594v301l594 824h378v-824h164v-301zM666 610v373l-269 -373h269z" />
    <glyph glyph-name="five" unicode="5" horiz-adv-x="1271" 
d="M723 1001q211 0 350 -135t139 -364q0 -251 -157 -386.5t-426 -135.5q-252 0 -397.5 136t-139.5 357h344q2 -58 23.5 -99t54.5 -59.5t60.5 -26t54.5 -7.5q23 0 40.5 1.5t51.5 13.5t56.5 33.5t40.5 66t18 106.5q0 58 -20.5 101t-45.5 62.5t-58 31t-48 13t-25 1.5
q-125 0 -182 -99h-338l110 822h842v-301h-590l-28 -224q-3 -5 1 -1q75 75 212 90q28 3 57 3z" />
    <glyph glyph-name="six" unicode="6" horiz-adv-x="1257" 
d="M723 926q29 0 62.5 -4t80 -16.5t89 -32t86 -54.5t75.5 -80t52 -113t20 -149q0 -121 -39.5 -213.5t-97.5 -144.5t-135.5 -84.5t-141.5 -42.5t-129 -10q-87 0 -165 21.5t-152.5 74.5t-128.5 134.5t-86.5 211t-32.5 293.5q0 349 143.5 542t423.5 193q109 0 197.5 -27.5
t144.5 -70.5t95 -100t56.5 -112t20.5 -110h-334q-8 36 -27 63t-39 40.5t-44 21.5t-39 10t-27 2q-47 0 -84 -17.5t-58.5 -46t-37 -63t-22 -68.5t-9.5 -62.5t-2 -45.5v-18q-2 -5 3 -3q3 1 14 7q120 74 268 74zM653 287q15 0 31.5 2.5t42 14t44 31t32.5 57.5t14 89q0 50 -16 87
t-37.5 56t-49 30t-43.5 13.5t-28 2.5q-16 0 -32.5 -2.5t-42 -14t-44.5 -30.5t-33 -56.5t-14 -87.5q0 -47 11.5 -83.5t29 -55.5t39 -32.5t41 -15.5t34 -5t19.5 0h2z" />
    <glyph glyph-name="seven" unicode="7" horiz-adv-x="1081" 
d="M1010 1434v-310q-188 -282 -296 -556t-141 -568h-391q79 567 475 1124h-596v310h949z" />
    <glyph glyph-name="eight" unicode="8" horiz-adv-x="1257" 
d="M973 817q110 -55 167.5 -144.5t57.5 -205.5q0 -95 -31 -175.5t-84.5 -137t-126 -96.5t-155 -59t-172.5 -19t-173 19t-155.5 59t-126 96.5t-84.5 137t-31 175.5q0 115 58 204.5t168 145.5q-125 105 -125 258q0 164 125.5 268.5t343.5 104.5t343.5 -104.5t125.5 -268.5
q0 -153 -125 -258zM629 1194q-65 0 -101 -38.5t-36 -98.5q0 -63 33.5 -105.5t103.5 -42.5t103.5 42.5t33.5 105.5q0 60 -36 98.5t-101 38.5zM629 285q44 0 77.5 12.5t53 32.5t32 47.5t17 53.5t4.5 56q0 97 -55 146t-129 49q-75 0 -130 -49t-55 -146q0 -38 8 -70.5t27 -63.5
t57.5 -49.5t92.5 -18.5z" />
    <glyph glyph-name="nine" unicode="9" horiz-adv-x="1247" 
d="M524 508q-29 0 -62.5 4t-80 16t-89 31.5t-86 54.5t-75.5 80t-52 113t-20 149q0 88 20.5 161t54 123t80.5 89t95.5 61.5t103.5 37t100 19.5t89 5q87 0 165 -21t152.5 -74t128.5 -134.5t86.5 -211t32.5 -294.5q0 -347 -143.5 -541t-423.5 -194q-109 0 -197.5 27.5
t-144.5 70.5t-95 99.5t-56.5 111.5t-20.5 110h334q8 -36 27 -63t39 -40.5t44 -21.5t39 -10t27 -2q47 0 84 18t58.5 46t37 62.5t22 69t9.5 62.5t3 46l-1 18q2 5 -3 3q-3 -1 -14 -7q-120 -74 -268 -74zM594 1147q-21 0 -42.5 -5.5t-52 -23t-50 -60.5t-19.5 -106q0 -50 16 -87
t37.5 -55t49 -29t43.5 -13t28 -2q17 0 33 2t42 13t44.5 29.5t32.5 56t14 87.5q0 56 -17 96.5t-38 58.5t-50.5 27.5t-42.5 10.5t-26 0h-2z" />
    <glyph glyph-name="colon" unicode=":" horiz-adv-x="686" 
d="M143 1069h400v-418h-400v418zM143 418h400v-418h-400v418z" />
    <glyph glyph-name="semicolon" unicode=";" horiz-adv-x="686" 
d="M143 1069h400v-418h-400v418zM143 -369v113q77 10 114.5 64.5t37.5 125.5v66h-152v416h400v-361q0 -83 -13 -148.5t-33 -109.5t-52.5 -75.5t-64.5 -48.5t-76 -27t-79 -12.5t-82 -2.5z" />
    <glyph glyph-name="less" unicode="&#x3c;" horiz-adv-x="1038" 
d="M946 346l-508 150l508 147v346l-854 -336v-313l854 -340v346z" />
    <glyph glyph-name="equal" unicode="=" horiz-adv-x="1009" 
d="M78 866h727v-282h-727v282zM78 539h727v-283h-727v283z" />
    <glyph glyph-name="greater" unicode="&#x3e;" horiz-adv-x="1038" 
d="M92 346v-346l854 340v313l-854 336v-346l508 -147z" />
    <glyph glyph-name="question" unicode="?" horiz-adv-x="1210" 
d="M625 1448q-86 0 -161.5 -15.5t-146 -53t-120 -95t-78.5 -147.5t-27 -205h379q0 31 1.5 52.5t10.5 50.5t24.5 47t45.5 31t72 13q32 0 55.5 -9.5t34.5 -21t17 -29t6.5 -25.5t0.5 -19q0 -26 -16 -49t-42 -43t-57 -42.5t-62.5 -53.5t-57.5 -69t-42 -96t-16 -128v-33h406v33
q0 48 14.5 85.5t38 62.5t52 47.5t57 47.5t52 55t38 77t14.5 106q0 202 -136.5 314t-356.5 112zM451 418h399v-418h-399v418z" />
    <glyph glyph-name="at" unicode="@" horiz-adv-x="1550" 
d="M862 1026h242v-295q0 -117 63 -117q16 0 27.5 4.5t18.5 14t11 18.5t5.5 23t2 22t0 22.5t-0.5 16.5q0 203 -125 334t-338 131q-93 0 -175 -33t-143.5 -94.5t-97 -156t-35.5 -209.5q0 -104 36.5 -194t98 -150.5t144 -95t172.5 -34.5q177 0 272 91l293 -68
q-77 -123 -230.5 -196.5t-334.5 -73.5q-105 0 -207 31.5t-190.5 93.5t-155.5 147.5t-106 201.5t-39 247q0 137 39 257t106 207t156 150.5t190.5 95t206.5 31.5q191 0 353.5 -90.5t261 -255t98.5 -367.5q0 -172 -91.5 -269t-220.5 -97q-58 0 -104 17.5t-65.5 36t-40.5 45
t-25 30.5q-1 -4 -9 -16t-26 -32.5t-41.5 -38.5t-60.5 -31t-78 -13q-48 0 -98 20.5t-94.5 59t-72.5 105.5t-28 150q0 85 27.5 153t71 107t92 59.5t96.5 20.5q81 0 149 -61v45zM756 608q82 0 82 94q-1 1 0.5 10t-3 23.5t-11.5 28t-25 23.5t-43 10q-26 0 -44 -12t-24.5 -29
t-8.5 -30t-1 -21q-1 -7 1 -20.5t8.5 -32t24.5 -31.5t44 -13zM678 702v3q0 3 0 -3z" />
    <glyph glyph-name="A" unicode="A" horiz-adv-x="1525" 
d="M1059 0l-66 209h-461l-65 -209h-428l545 1434h358l545 -1434h-428zM621 498h282l-141 452z" />
    <glyph glyph-name="B" unicode="B" horiz-adv-x="1404" 
d="M1073 788q111 -34 181.5 -136.5t70.5 -213.5q0 -209 -142.5 -323.5t-428.5 -114.5h-654v1434h625q244 0 374 -103t130 -280q0 -86 -47 -155t-109 -108zM498 1110v-215h213q50 0 75 35.5t25 79.5q0 30 -11.5 52t-27.5 31.5t-27.5 13t-17.5 3.5h-229zM737 326
q84 0 122 38.5t38 90.5q0 143 -137 143h-262v-272h239z" />
    <glyph glyph-name="C" unicode="C" horiz-adv-x="1429" 
d="M758 322q92 0 136 42t81 152h393q-8 -133 -62.5 -237.5t-141 -168t-192 -96t-224.5 -32.5q-311 0 -494.5 195t-183.5 540t183.5 540t494.5 195q118 0 223 -32.5t191 -95.5t140.5 -166t63.5 -234h-391q-40 107 -83.5 147.5t-133.5 40.5q-138 0 -204.5 -107t-66.5 -288
q0 -116 26.5 -202t89 -139.5t155.5 -53.5z" />
    <glyph glyph-name="D" unicode="D" horiz-adv-x="1445" 
d="M698 1434q339 0 513.5 -184.5t174.5 -532.5t-174.5 -532.5t-513.5 -184.5h-598v1434h598zM659 340q98 0 161.5 20t102 66.5t53.5 115.5t15 175q0 211 -70 294t-262 83h-161v-754h161z" />
    <glyph glyph-name="E" unicode="E" 
d="M498 340h673v-340h-1071v1434h1051v-340h-653v-215h551v-316h-551v-223z" />
    <glyph glyph-name="F" unicode="F" horiz-adv-x="1130" 
d="M1069 1094h-571v-234h473v-315h-473v-545h-398v1434h969v-340z" />
    <glyph glyph-name="G" unicode="G" horiz-adv-x="1484" 
d="M1405 817v-104q0 -183 -34 -316t-108.5 -227.5t-196.5 -141t-294 -46.5q-327 0 -514.5 194.5t-187.5 540.5q0 343 186 539t492 196q113 0 216 -31t188 -91t142.5 -157t73.5 -219h-391q-41 85 -89.5 121.5t-129.5 36.5q-133 0 -202 -108.5t-69 -286.5q0 -84 15.5 -153
t48 -124.5t89 -86.5t132.5 -31q124 0 188.5 39.5t83.5 148.5h-253v307h614z" />
    <glyph glyph-name="H" unicode="H" horiz-adv-x="1423" 
d="M926 1434h397v-1434h-397v563h-428v-563h-398v1434h398v-549h428v549z" />
    <glyph glyph-name="I" unicode="I" horiz-adv-x="595" 
d="M498 0h-398v1434h398v-1434z" />
    <glyph glyph-name="J" unicode="J" horiz-adv-x="1110" 
d="M233 428q56 -49 92 -68q65 -34 142 -34q34 0 58.5 6.5t49 24.5t37.5 57t13 98v922h395v-942q0 -131 -43 -230.5t-119 -158.5t-173 -88t-212 -29q-143 0 -257.5 56.5t-186.5 139.5z" />
    <glyph glyph-name="K" unicode="K" horiz-adv-x="1521" 
d="M901 797l580 -797h-434l-353 506l2 43l-198 -242v-307h-398v1434h398v-592l477 592h450z" />
    <glyph glyph-name="L" unicode="L" horiz-adv-x="1153" 
d="M498 340h606v-340h-1004v1434h398v-1094z" />
    <glyph glyph-name="M" unicode="M" horiz-adv-x="1763" 
d="M100 1434h465l316 -902l317 902h465v-1434h-397v784h-13l-231 -784h-283l-229 784h-12v-784h-398v1434z" />
    <glyph glyph-name="N" unicode="N" horiz-adv-x="1464" 
d="M1364 1434v-1434h-410l-448 764h-8v-764h-398v1434h394l464 -791h9v791h397z" />
    <glyph glyph-name="O" unicode="O" horiz-adv-x="1544" 
d="M772 1452q324 0 513.5 -197.5t189.5 -537.5q0 -336 -190 -535.5t-513 -199.5t-512.5 199.5t-189.5 535.5q0 340 189 537.5t513 197.5zM772 322q140 0 212.5 109.5t72.5 285.5q0 180 -72 287.5t-213 107.5t-213 -107.5t-72 -287.5q0 -176 72.5 -285.5t212.5 -109.5z" />
    <glyph glyph-name="P" unicode="P" horiz-adv-x="1335" 
d="M709 1434q149 0 261.5 -38.5t180.5 -109t101.5 -163.5t33.5 -208t-33.5 -207.5t-101.5 -163t-180.5 -109t-261.5 -38.5h-211v-397h-398v1434h609zM705 739q77 0 117 47.5t40 128.5q0 82 -40 130.5t-117 48.5h-207v-355h207z" />
    <glyph glyph-name="Q" unicode="Q" horiz-adv-x="1503" 
d="M1475 717q0 -284 -140 -475l76 -78l-235 -221l-97 96q-139 -57 -307 -57q-323 0 -512.5 199.5t-189.5 535.5q0 340 189 537.5t513 197.5t513.5 -197.5t189.5 -537.5zM772 322q19 0 29 2l-146 145l236 221l145 -145q21 77 21 172q0 180 -72 287.5t-213 107.5t-213 -107.5
t-72 -287.5q0 -176 72.5 -285.5t212.5 -109.5z" />
    <glyph glyph-name="R" unicode="R" horiz-adv-x="1423" 
d="M1335 240q0 -90 7.5 -138t33.5 -102h-397q-26 54 -33.5 102t-7.5 138v86q0 62 -42 108.5t-122 46.5h-276v-481h-398v1434h652q146 0 256 -35.5t175.5 -97.5t97.5 -140.5t32 -171.5q0 -63 -15 -114.5t-42.5 -89.5t-52 -63.5t-58.5 -54.5q-7 -5 -10 -8q110 -65 155 -140.5
t45 -178.5v-100zM719 793q113 0 148.5 35t35.5 124q0 70 -42.5 105t-117.5 35h-245v-299h221z" />
    <glyph glyph-name="S" unicode="S" horiz-adv-x="1378" 
d="M844 858q262 -53 364.5 -151t102.5 -279q0 -110 -51 -197t-138 -140.5t-197.5 -81t-236.5 -27.5q-133 0 -242.5 32.5t-192 95.5t-130.5 162.5t-53 227.5h409q16 -91 66 -142t149 -51q87 0 146 38t59 87q0 54 -35 81.5t-137 45.5l-174 31q-79 15 -139.5 33.5t-122 52
t-101 78.5t-64 113.5t-24.5 156.5q0 131 72 228.5t199 148.5t291 51q127 0 233 -28.5t187.5 -85.5t130.5 -148t57 -211h-410q-8 83 -59 116t-139 33q-75 0 -115.5 -40t-40.5 -76q0 -18 2.5 -31t11 -30.5t30 -29.5t54.5 -18z" />
    <glyph glyph-name="T" unicode="T" horiz-adv-x="1255" 
d="M1217 1434v-340h-392v-1094h-395v1094h-391v340h1178z" />
    <glyph glyph-name="U" unicode="U" horiz-adv-x="1427" 
d="M1329 561q0 -183 -79.5 -315.5t-216.5 -198t-318 -65.5q-135 0 -248 38t-194.5 110.5t-127 182.5t-45.5 248v873h398v-856q0 -256 217 -256t217 256v856h397v-873z" />
    <glyph glyph-name="V" unicode="V" horiz-adv-x="1505" 
d="M1053 1434h424l-545 -1434h-359l-544 1434h424l299 -951z" />
    <glyph glyph-name="W" unicode="W" horiz-adv-x="2144" 
d="M1692 1434h413l-407 -1434h-363l-262 817l-264 -817h-363l-407 1434h414l198 -828l234 828h377l231 -828z" />
    <glyph glyph-name="X" unicode="X" horiz-adv-x="1429" 
d="M1401 0h-443l-243 385l-244 -385h-442l465 737l-441 697h445l217 -344l217 344h444l-440 -697z" />
    <glyph glyph-name="Y" unicode="Y" horiz-adv-x="1507" 
d="M958 506v-506h-409v506l-510 928h446l269 -547l270 547h444z" />
    <glyph glyph-name="Z" unicode="Z" horiz-adv-x="1290" 
d="M1208 340v-340h-1126v297l657 797h-645v340h1106l2 -297l-663 -797h669z" />
    <glyph glyph-name="bracketleft" unicode="[" horiz-adv-x="716" 
d="M479 1204v-1147h137v-323h-516v1792h516v-322h-137z" />
    <glyph glyph-name="backslash" unicode="\" horiz-adv-x="1064" 
d="M61 1434h383l560 -1430h-381z" />
    <glyph glyph-name="bracketright" unicode="]" horiz-adv-x="716" 
d="M238 1204h-138v322h516v-1792h-516v323h138v1147z" />
    <glyph glyph-name="asciicircum" unicode="^" horiz-adv-x="1054" 
d="M682 952l-154 232l-155 -232h-281l328 482h215l328 -482h-281z" />
    <glyph glyph-name="underscore" unicode="_" horiz-adv-x="1208" 
d="M92 0h1024v-324h-1024v324z" />
    <glyph glyph-name="grave" unicode="`" horiz-adv-x="559" 
d="M559 1190l-153 262h-416l252 -262h317z" />
    <glyph glyph-name="a" unicode="a" horiz-adv-x="1177" 
d="M1073 330q0 -46 21 -73t55 -30v-213q-47 -22 -131 -22q-119 0 -200 48.5t-81 131.5v-31l-7 -11q-7 -10 -17 -23t-27 -30t-42 -32.5t-56 -29t-75.5 -21.5t-94.5 -8q-71 0 -133.5 18t-117 55t-86.5 104t-32 156q0 40 7.5 74.5t18.5 60.5t30.5 48t38 37.5t46.5 29.5t49.5 22
t54.5 16.5t53.5 12.5t54.5 10.5t51 10.5q30 6 76.5 14.5t69.5 13t50 13t45 20.5q-4 101 -114 101q-104 0 -119 -98h-357q27 370 478 370q183 0 291 -51t154 -151.5t46 -266.5v-276zM694 334v151q-30 -15 -55 -24.5t-39 -13.5t-41 -11t-45 -12q-44 -15 -65 -36t-21 -52
q0 -32 23 -58t75 -26q63 0 105.5 26.5t62.5 55.5z" />
    <glyph glyph-name="b" unicode="b" horiz-adv-x="1247" 
d="M729 1075q56 0 116.5 -17.5t124.5 -59.5t114 -102t82 -155t32 -209q0 -118 -32.5 -214t-83 -156t-115 -101t-125.5 -58t-119 -17q-96 0 -157 38t-87 82v-106h-379v1446h379v-479q23 32 91 70t159 38zM643 289q89 0 138.5 59.5t49.5 183.5q0 123 -50 182.5t-138 59.5
q-81 0 -130.5 -63.5t-49.5 -178.5q0 -120 49 -181.5t131 -61.5z" />
    <glyph glyph-name="c" unicode="c" horiz-adv-x="1138" 
d="M592 291q73 0 103.5 33.5t41.5 91.5h340q-14 -102 -52.5 -180.5t-88 -124.5t-113 -75t-120 -39.5t-115.5 -10.5q-77 0 -149.5 16.5t-144.5 56.5t-125.5 100t-86.5 156t-33 215q0 118 33 213.5t86 156t124.5 101t144.5 57.5t149 17q62 0 117.5 -9.5t117 -37.5t109 -72.5
t85 -121t52.5 -177.5h-346q-6 53 -32.5 83t-98.5 30q-176 0 -176 -240q0 -239 178 -239z" />
    <glyph glyph-name="d" unicode="d" horiz-adv-x="1247" 
d="M768 1446h379v-1446h-379v106q-26 -44 -87 -82t-157 -38q-58 0 -119 17t-125.5 58t-115 101t-83 156t-32.5 214q0 114 32 209t82 155t114 102t124.5 59.5t116.5 17.5q91 0 159 -38t91 -70v479zM604 289q82 0 131 61.5t49 181.5q0 115 -49.5 178.5t-130.5 63.5
q-88 0 -138 -59.5t-50 -182.5q0 -124 49.5 -183.5t138.5 -59.5z" />
    <glyph glyph-name="e" unicode="e" horiz-adv-x="1169" 
d="M1120 475q0 -39 -2 -57h-702q15 -82 61 -118t133 -36q70 0 111 23t51 59h324q-35 -179 -164 -269.5t-344 -90.5q-72 0 -144 17t-144.5 57.5t-127 100.5t-89 154.5t-34.5 210.5q0 118 33.5 213.5t88 156.5t126.5 102.5t146 59t151 17.5q84 0 158 -18t142.5 -61.5
t117.5 -110.5t78.5 -172t29.5 -238zM418 645h342q-3 66 -44 110t-122 44q-146 0 -176 -154z" />
    <glyph glyph-name="f" unicode="f" horiz-adv-x="788" 
d="M684 1178q-67 0 -88 -25.5t-21 -87.5h166v-293h-166v-772h-378v772h-156v293h156v4q0 81 14.5 144.5t35.5 104.5t56 70.5t65 44t75 22.5t73 9.5t70 1.5q44 0 94 -7t68 -15v-273q-49 7 -64 7z" />
    <glyph glyph-name="g" unicode="g" 
d="M754 1075h379v-1032q0 -88 -20.5 -161t-53.5 -123t-80 -88.5t-95.5 -61t-104 -36.5t-101.5 -19t-92 -5q-178 0 -307 69t-185 183l230 148q3 -2 17.5 -16.5t23 -21t29 -19t39.5 -18.5t50 -11.5t66 -5.5q117 0 161 43t44 143v63q-26 -43 -87 -80.5t-157 -37.5
q-54 0 -113 17t-122.5 58t-112.5 101t-81 155.5t-32 212.5q0 114 31.5 209t80.5 155t111 102t120.5 59.5t111.5 17.5q93 0 161.5 -38.5t88.5 -69.5v108zM598 293q81 0 126.5 59t45.5 180q0 116 -46 177t-126 61q-79 0 -125.5 -58.5t-46.5 -179.5t46.5 -180t125.5 -59z" />
    <glyph glyph-name="h" unicode="h" horiz-adv-x="1280" 
d="M801 1075q85 0 152 -23t119 -72.5t80 -135t28 -203.5v-641h-379v618q0 71 -43 108.5t-105 37.5q-42 0 -76.5 -17t-54 -42t-30.5 -50t-13 -45v-610h-379v1446h379v-569q16 31 41.5 62t64.5 63.5t95.5 52.5t120.5 20z" />
    <glyph glyph-name="i" unicode="i" horiz-adv-x="579" 
d="M100 1452h379v-270h-379v270zM100 1065h379v-1065h-379v1065z" />
    <glyph glyph-name="j" unicode="j" horiz-adv-x="589" 
d="M111 1452h378v-270h-378v270zM-121 -115q76 -16 127 -16q105 0 105 113v1083h378v-1155q0 -177 -98.5 -269t-275.5 -92q-148 0 -236 33v303z" />
    <glyph glyph-name="k" unicode="k" horiz-adv-x="1243" 
d="M827 0l-305 383l-43 -43v-340h-379v1446h379v-674l277 293h424l-426 -442l481 -623h-408z" />
    <glyph glyph-name="l" unicode="l" horiz-adv-x="579" 
d="M100 1446h379v-1446h-379v1446z" />
    <glyph glyph-name="m" unicode="m" horiz-adv-x="1914" 
d="M1448 1075q163 0 265 -114t102 -353v-608h-379v602q0 80 -38.5 121t-94.5 41q-41 0 -73.5 -17t-49 -40.5t-25 -42.5t-8.5 -29v-635h-379v602q0 79 -39 120.5t-94 41.5q-53 0 -90 -27t-51.5 -60.5t-14.5 -66.5v-610h-379v1065h379v-188q15 32 37 62t58 63t90.5 53
t119.5 20q246 0 328 -211q39 82 131.5 146.5t204.5 64.5z" />
    <glyph glyph-name="n" unicode="n" horiz-adv-x="1280" 
d="M801 1075q85 0 152 -23t119 -72.5t80 -135t28 -203.5v-641h-379v618q0 71 -43 108.5t-105 37.5q-42 0 -76.5 -17t-54 -42t-30.5 -50t-13 -45v-610h-379v1065h379v-188q16 31 41.5 62t64.5 63.5t95.5 52.5t120.5 20z" />
    <glyph glyph-name="o" unicode="o" horiz-adv-x="1193" 
d="M598 1075q57 0 116.5 -12.5t122 -38t117 -69.5t98 -102.5t68.5 -142t25 -182.5q0 -116 -36 -210.5t-93 -155t-131 -101.5t-146 -58t-141 -17t-141 17t-146.5 58t-131.5 101.5t-93.5 155t-36.5 210.5q0 118 36.5 214t93.5 156.5t131.5 101.5t146 58t141.5 17zM782 528
q0 127 -51 186.5t-133 59.5t-134 -59.5t-52 -186.5q0 -119 52.5 -179t133.5 -60t132.5 60t51.5 179z" />
    <glyph glyph-name="p" unicode="p" horiz-adv-x="1247" 
d="M729 1075q53 0 112.5 -17.5t124 -59.5t115.5 -102t84 -155t33 -209q0 -117 -33.5 -213.5t-84.5 -156.5t-116.5 -101t-125.5 -58t-115 -17q-96 0 -156.5 31t-87.5 67v-473h-379v1454h379v-92q17 17 41.5 35.5t84.5 42.5t124 24zM639 289q83 0 137.5 60t54.5 183
q0 122 -54.5 182t-137.5 60q-80 0 -128 -63t-48 -179q0 -121 47.5 -182t128.5 -61z" />
    <glyph glyph-name="q" unicode="q" horiz-adv-x="1247" 
d="M768 1065h379v-1454h-379v473q-27 -36 -87.5 -67t-156.5 -31q-55 0 -115 17t-125.5 58t-116.5 101t-84.5 156.5t-33.5 213.5q0 114 33 209t84 155t115.5 102t124 59.5t112.5 17.5q64 0 124 -24t84.5 -42.5t41.5 -35.5v92zM608 289q81 0 128.5 61t47.5 182q0 116 -48 179
t-128 63q-83 0 -137.5 -60t-54.5 -182q0 -123 54.5 -183t137.5 -60z" />
    <glyph glyph-name="r" unicode="r" horiz-adv-x="907" 
d="M770 1075q51 0 98 -8v-332q-47 2 -69 2q-156 0 -231 -51t-89 -147v-539h-379v1065h379v-217q23 107 95 167t196 60z" />
    <glyph glyph-name="s" unicode="s" horiz-adv-x="1064" 
d="M666 702q-10 54 -42.5 75.5t-91.5 21.5q-108 0 -108 -68q0 -47 70 -61l200 -43q142 -32 186 -51q99 -41 129 -129q17 -49 17 -117q0 -167 -135.5 -255.5t-364.5 -88.5q-219 0 -341.5 94t-145.5 276h346q13 -46 45.5 -71t99.5 -25q117 0 117 74q0 22 -13.5 35.5
t-51.5 19.5l-164 35q-190 39 -267 120t-77 199q0 157 118 244.5t336 87.5q424 0 478 -373h-340z" />
    <glyph glyph-name="t" unicode="t" horiz-adv-x="854" 
d="M700 279q38 0 105 12v-268q-87 -35 -209 -35q-72 0 -127 8t-107.5 32t-86 63.5t-54 106t-20.5 156.5v418h-183v293h183v266h379v-266h221v-293h-221v-375q0 -57 27.5 -87.5t92.5 -30.5z" />
    <glyph glyph-name="u" unicode="u" horiz-adv-x="1269" 
d="M791 1065h378v-1065h-378v186q-16 -31 -42 -62.5t-65 -64t-95.5 -53t-119.5 -20.5q-177 0 -278 104t-101 332v643h379v-619q0 -72 42 -110.5t103 -38.5q43 0 78 17t55 43t31 51.5t13 46.5v610z" />
    <glyph glyph-name="v" unicode="v" horiz-adv-x="1275" 
d="M844 0h-414l-401 1065h379l229 -682l231 682h379z" />
    <glyph glyph-name="w" unicode="w" horiz-adv-x="1681" 
d="M1653 1065l-291 -1065h-318l-204 621l-201 -621h-320l-290 1065h381l120 -582l162 582h297l160 -582l123 582h381z" />
    <glyph glyph-name="x" unicode="x" horiz-adv-x="1255" 
d="M1217 0h-410l-180 287l-178 -287h-410l377 559l-338 506h411l138 -234l139 234h412l-338 -506z" />
    <glyph glyph-name="y" unicode="y" 
d="M821 1065h383l-424 -1014q-59 -147 -114.5 -237t-129.5 -146.5t-165.5 -74t-220.5 -5.5v318q94 -9 155.5 11t78.5 40t37 57q3 6 5 9q13 28 -22 118q-1 4 -2 6.5t-2.5 6t-2.5 6.5l-368 905h391l192 -576z" />
    <glyph glyph-name="z" unicode="z" horiz-adv-x="1058" 
d="M535 315h442v-315h-895v315l442 435h-422v315h875v-315z" />
    <glyph glyph-name="braceleft" unicode="{" horiz-adv-x="798" 
d="M563 766l-127 -139l127 -135v-377q0 -58 72 -58h72v-323h-258q-265 0 -265 264v483l-92 146l92 149v486q0 69 19.5 120t47 78t67 42.5t69 19.5t62.5 4h258v-322h-72q-72 0 -72 -59v-379z" />
    <glyph glyph-name="bar" unicode="|" horiz-adv-x="630" 
d="M154 1638h323v-2027h-323v2027z" />
    <glyph glyph-name="braceright" unicode="}" horiz-adv-x="798" 
d="M236 766v379q0 59 -72 59h-72v322h258q33 0 62.5 -4t68.5 -19.5t66.5 -42.5t47 -78t19.5 -120v-486l93 -149l-93 -146v-483q0 -264 -264 -264h-258v323h72q72 0 72 58v377l126 135z" />
    <glyph glyph-name="asciitilde" unicode="~" horiz-adv-x="1169" 
d="M920 670h147q0 -64 -17 -120t-51 -101t-91.5 -71t-131.5 -26q-49 0 -98 18t-90 43.5l-82 51t-89 43.5t-95 18q-25 0 -49 -11.5t-23 -37.5h-148q0 65 17 121t51 100.5t90.5 70.5t130.5 26q50 0 99.5 -18t91 -43.5t82.5 -51t89 -43.5t95 -18q25 0 49 11.5t23 37.5z" />
    <glyph glyph-name="exclamdown" unicode="&#xa1;" horiz-adv-x="643" 
d="M100 647v418h400v-418h-400zM481 537l8 -906h-383l11 906h364z" />
    <glyph glyph-name="cent" unicode="&#xa2;" horiz-adv-x="1138" 
d="M1077 561q-12 -88 -43.5 -158.5t-72.5 -115.5t-94 -76.5t-104 -46.5t-106 -21v-225h-127v223q-72 6 -138 26.5t-130 62t-110 100t-74.5 147t-28.5 197.5q0 107 28.5 195.5t74.5 147t110 100t130 62.5t138 27v228h127v-230q71 -7 132 -29t119.5 -66.5t100 -123.5
t58.5 -186h-346q-7 76 -64 98v-448q37 13 54 41.5t26 70.5h340zM414 674q0 -193 116 -228v453q-116 -35 -116 -225z" />
    <glyph glyph-name="sterling" unicode="&#xa3;" horiz-adv-x="1245" 
d="M793 1020q0 80 -90 100q-28 6 -60 6q-162 0 -162 -141q0 -37 14.5 -76.5t30 -64t43.5 -62.5h211v-198h-125q-1 -97 -39.5 -148t-164.5 -133q64 25 127.5 28.5t123 -6.5t121.5 -20.5t146 -7.5t174 27v-324q-93 -19 -177.5 -19.5t-150 13t-134 26.5t-128.5 20t-133 -7
t-148 -53l-178 219q100 75 150 143.5t53 155.5q0 46 -12 86h-193v198h84q-61 103 -61 222q0 132 70 234t190 156t268 54q100 0 190.5 -28t162.5 -80.5t114.5 -135.5t42.5 -184v-37h-360v37z" />
    <glyph glyph-name="currency" unicode="&#xa4;" horiz-adv-x="1273" 
d="M1090 975q0 -66 -19 -131l107 -107l-238 -235l-78 78q-106 -64 -231 -64q-121 0 -223 57l-72 -71l-238 235l97 97q-23 74 -23 141q0 79 27 153l-101 101l238 235l82 -82q99 52 213 52q118 0 221 -58l88 88l238 -235l-111 -111q23 -74 23 -143zM631 823q45 0 77 15
t46.5 33t22 43.5t8 36.5t-0.5 23v1v1q1 11 0.5 22.5t-8 36.5t-22 43.5t-46.5 33t-77 14.5q-38 0 -67 -10t-43.5 -25.5t-25.5 -33.5t-12.5 -34.5t-3.5 -29.5t0 -17v-1q0 -152 152 -152z" />
    <glyph glyph-name="yen" unicode="&#xa5;" horiz-adv-x="1507" 
d="M1468 1434l-499 -910h217v-217h-228v-41h228v-217h-228v-49h-409v49h-219v217h219v41h-219v217h209l-500 910h446l269 -547l270 547h444z" />
    <glyph glyph-name="brokenbar" unicode="&#xa6;" horiz-adv-x="630" 
d="M154 1638h323v-573h-323v573zM154 184h323v-573h-323v573z" />
    <glyph glyph-name="section" unicode="&#xa7;" horiz-adv-x="1490" 
d="M1389 418q0 -133 -76 -232q55 -89 55 -227q0 -97 -36 -174t-96 -126.5t-143 -82t-170.5 -46t-185.5 -13.5q-276 0 -446.5 127t-188.5 379h426q12 -82 63.5 -118t149.5 -36q90 0 145.5 24t55.5 70q0 56 -30.5 80t-131.5 49l-172 41q-60 14 -102.5 26t-94 31.5t-87 41
t-71.5 54.5t-57.5 72t-35 92t-13.5 117q0 141 80 240q-59 91 -59 227q0 131 77 226.5t206.5 142.5t296.5 47q118 0 219.5 -27t184.5 -81t135.5 -144t64.5 -209h-424q-3 26 -13 46t-26.5 31.5t-31 18.5t-37 9.5t-34 3t-31.5 0.5h-7q-78 0 -116 -24t-38 -52q0 -14 1.5 -22
t9 -21t27.5 -23.5t52 -19.5l229 -55q265 -63 370.5 -169t105.5 -294zM664 469l229 -55q64 -17 65 -17q5 15 5 25q0 58 -31.5 85.5t-130.5 51.5l-172 41q-6 1 -18.5 4t-18.5 4q-19 -25 -19 -53q0 -14 2 -22t9.5 -21t27.5 -23.5t52 -19.5z" />
    <glyph glyph-name="dieresis" unicode="&#xa8;" horiz-adv-x="888" 
d="M0 1452h383v-248h-383v248zM506 1452h383v-248h-383v248z" />
    <glyph glyph-name="copyright" unicode="&#xa9;" horiz-adv-x="1601" 
d="M801 -14q-200 0 -367 93.5t-265.5 261.5t-98.5 376q0 155 58 291.5t156.5 232t233 150.5t283.5 55t283.5 -55t233 -150.5t156.5 -232t58 -291.5q0 -208 -98.5 -376t-265.5 -261.5t-367 -93.5zM801 199q220 0 369 145t149 373q0 113 -40.5 210t-110 164.5t-165 105.5
t-202.5 38t-203 -38t-165.5 -105.5t-110.5 -164.5t-41 -210q0 -151 69.5 -270t188 -183.5t262.5 -64.5zM803 549q93 0 112 88h252q-15 -73 -46 -130.5t-68.5 -91.5t-83.5 -55.5t-86 -29.5t-80 -8q-101 0 -187.5 44.5t-143 136.5t-56.5 214q0 75 21.5 139.5t58 110.5t86 79.5
t105.5 49.5t116 16q41 0 81 -8t85 -30t82 -55.5t68.5 -89.5t47.5 -128h-256q-6 39 -35.5 60.5t-72.5 21.5q-65 0 -101 -41t-36 -125t36 -126t101 -42z" />
    <glyph glyph-name="ordfeminine" unicode="&#xaa;" horiz-adv-x="790" 
d="M709 932q0 -84 53 -172h-199q-53 42 -53 108q-30 -33 -54.5 -53.5t-69.5 -39.5t-97 -19q-43 0 -82 10t-76.5 33.5t-59.5 69.5t-22 110q0 106 70 155t223 60l129 10q1 52 -22 66t-82 14q-17 0 -31 -1.5t-23.5 -5.5t-15.5 -7t-10.5 -9.5t-6.5 -9.5t-5 -10t-3 -8h-206
q7 56 29.5 100t52 70.5t69 43.5t77.5 23.5t79 6.5q97 0 163 -21t103.5 -65t53.5 -103t16 -143v-213zM344 946q21 0 37 2t28 9t19.5 11t14.5 17t10 18t9.5 22.5t8.5 23.5q-95 -12 -135 -13q-20 -2 -32 -12t-14.5 -18t-2.5 -15q0 -45 57 -45z" />
    <glyph glyph-name="guillemotleft" unicode="&#xab;" horiz-adv-x="1021" 
d="M467 735l-162 -123l162 -125v-333l-385 303v309l385 305v-336zM940 735l-162 -123l162 -125v-333l-385 303v297l385 317v-336z" />
    <glyph glyph-name="logicalnot" unicode="&#xac;" horiz-adv-x="1112" 
d="M1020 639v-473h-379v186h-549v287h928z" />
    <glyph glyph-name="uni00AD" unicode="&#xad;" horiz-adv-x="835" 
d="M82 702h672v-282h-672v282z" />
    <glyph glyph-name="registered" unicode="&#xae;" horiz-adv-x="1601" 
d="M801 -14q-200 0 -367 93.5t-265.5 261.5t-98.5 376q0 155 58 291.5t156.5 232t233 150.5t283.5 55t283.5 -55t233 -150.5t156.5 -232t58 -291.5q0 -208 -98.5 -376t-265.5 -261.5t-367 -93.5zM801 199q220 0 369 145t149 373q0 113 -40.5 210t-110 164.5t-165 105.5
t-202.5 38t-203 -38t-165.5 -105.5t-110.5 -164.5t-41 -210q0 -151 69.5 -270t188 -183.5t262.5 -64.5zM1092 459q0 -113 24 -140h-227q-15 20 -15 152v29q0 58 -27 79t-75 21h-47v-281h-207v797h303q269 0 269 -225q0 -156 -185 -203q104 -15 145.5 -55.5t41.5 -118.5v-55z
M778 766q56 0 84.5 23.5t28.5 78.5q0 35 -21 58.5t-49 23.5h-96v-184h53z" />
    <glyph glyph-name="macron" unicode="&#xaf;" horiz-adv-x="808" 
d="M0 1452h809v-215h-809v215z" />
    <glyph glyph-name="degree" unicode="&#xb0;" horiz-adv-x="800" 
d="M401 1473q129 0 218.5 -89.5t89.5 -214.5t-89 -214t-219 -89q-131 0 -220 88.5t-89 214.5t89 215t220 89zM401 1126q45 0 45 43t-45 43q-27 0 -37 -13.5t-10 -29.5q0 -9 3 -17.5t14 -17t30 -8.5zM358 1169q0 -16 -4 0q4 16 4 0zM442 1169q0 16 4 0q-4 -16 -4 0z" />
    <glyph glyph-name="plusminus" unicode="&#xb1;" horiz-adv-x="1298" 
d="M821 1184h385v-324h-385v-381h-346v381h-383v324h383v381h346v-381zM264 -33v283h727v-283h-727z" />
    <glyph glyph-name="uni00B2" unicode="&#xb2;" horiz-adv-x="559" 
d="M82 901v14q0 38 1.5 61t9.5 54t23 53t42.5 47t68.5 48q6 3 33.5 17t34.5 19.5t17 20.5t10 35q0 24 -16.5 35.5t-31.5 11.5q-16 0 -33.5 -13t-17.5 -44v-17h-141v17q0 83 47 133.5t145 50.5q97 0 148 -50t51 -124q0 -27 -8.5 -50.5t-18 -38.5t-32 -33t-35 -26.5t-44.5 -27
t-44 -25.5q-30 -17 -38.5 -24t-8.5 -15v-6h223v-123h-385z" />
    <glyph glyph-name="uni00B3" unicode="&#xb3;" horiz-adv-x="565" 
d="M371 1186q37 2 74.5 -31.5t37.5 -101.5q0 -72 -55.5 -116t-155.5 -44q-93 0 -146.5 48.5t-53.5 125.5h139q3 -53 68 -53t65 59q0 29 -16.5 44.5t-65.5 15.5h-22v98h22q11 0 20 2t15 5t10 8t6 8.5t3 9.5t1 9v8v5q0 15 -12 26t-33 11q-19 0 -34 -11t-15 -36h-133
q0 79 48 123.5t128 44.5q89 0 141 -41.5t52 -104.5q0 -47 -26.5 -75t-61.5 -37z" />
    <glyph glyph-name="acute" unicode="&#xb4;" horiz-adv-x="569" 
d="M0 1190h317l252 262h-415z" />
    <glyph glyph-name="uni00B5" unicode="&#xb5;" horiz-adv-x="1269" 
d="M791 1065h378v-1065h-378v186q-16 -31 -42 -62.5t-65 -64t-95.5 -53t-119.5 -20.5v-375h-379v1454h379v-619q0 -72 42 -110.5t103 -38.5q43 0 78 17t55 43t31 51.5t13 46.5v610z" />
    <glyph glyph-name="paragraph" unicode="&#xb6;" horiz-adv-x="1554" 
d="M1454 1434v-1885h-305v1670h-199v-1670h-336v1031h-69q-119 0 -216 38t-156.5 100t-91.5 137t-32 153q0 77 32 151.5t91.5 136.5t156.5 100t216 38h909z" />
    <glyph glyph-name="periodcentered" unicode="&#xb7;" horiz-adv-x="604" 
d="M102 791h400v-418h-400v418z" />
    <glyph glyph-name="cedilla" unicode="&#xb8;" horiz-adv-x="493" 
d="M283 -127q90 -6 150.5 -57.5t60.5 -141.5q0 -43 -13.5 -77t-35.5 -57.5t-57.5 -40.5t-73 -27t-89.5 -15.5t-98.5 -7.5t-108.5 -2v147q97 0 144 15.5t47 54.5q0 34 -33 44.5t-67 -15.5l-21 -23l-88 144l102 188h306z" />
    <glyph glyph-name="uni00B9" unicode="&#xb9;" horiz-adv-x="417" 
d="M336 1436v-535h-133v361q-13 -24 -48.5 -34t-72.5 -1v135q37 -6 73 18.5t48 55.5h133z" />
    <glyph glyph-name="ordmasculine" unicode="&#xba;" horiz-adv-x="788" 
d="M395 1450q87 0 164.5 -40t128.5 -119t51 -179q0 -67 -19.5 -125.5t-52.5 -100t-77 -71.5t-94 -44.5t-101 -14.5q-65 0 -126 23.5t-110.5 67t-79.5 113t-30 152.5q0 100 51.5 179t129.5 119t165 40zM508 1112q0 49 -28.5 84t-84.5 35q-57 0 -84.5 -34.5t-27.5 -84.5
q0 -59 27 -96t85 -37q57 0 85 36t28 97z" />
    <glyph glyph-name="guillemotright" unicode="&#xbb;" horiz-adv-x="1046" 
d="M117 735v336l385 -317v-297l-385 -303v333l162 125zM590 735v336l385 -305v-309l-385 -303v333l162 125z" />
    <glyph glyph-name="onequarter" unicode="&#xbc;" horiz-adv-x="1271" 
d="M336 1436v-535h-133v361q-13 -24 -48.5 -34t-72.5 -1v135q37 -6 73 18.5t48 55.5h133zM244 0h-185l895 1434h183zM1169 135h-61v-135h-133v135h-238v109l238 291h133v-291h61v-109zM975 244v143l-121 -143h121z" />
    <glyph glyph-name="onehalf" unicode="&#xbd;" horiz-adv-x="1216" 
d="M313 1436v-535h-133v361q-13 -24 -48.5 -34t-72.5 -1v135q37 -6 73 18.5t48 55.5h133zM238 0h-185l895 1434h182zM739 0v14q0 48 3.5 76.5t17 63.5t44.5 64.5t81 57.5q8 4 27.5 14t27.5 15t19.5 14.5t15.5 21.5t4 28q0 24 -16 35.5t-31 11.5q-16 0 -33.5 -13.5
t-17.5 -44.5v-16h-142v16q0 83 47.5 134t145.5 51q97 0 147.5 -50t50.5 -124q0 -27 -8.5 -50.5t-18 -38.5t-32 -33t-35 -26.5t-44.5 -27t-44 -25.5q-30 -17 -38.5 -24t-8.5 -15v-6h223v-123h-385z" />
    <glyph glyph-name="threequarters" unicode="&#xbe;" horiz-adv-x="1212" 
d="M344 1186q37 2 75 -31.5t38 -101.5q0 -72 -55.5 -116t-155.5 -44q-93 0 -147 48.5t-54 125.5h139q3 -53 68 -53t65 59q0 29 -16 44.5t-65 15.5h-23v98h23q11 0 20 2t15 5t10 8t6 8.5t3 9.5t1 9v8v5q0 15 -12 26t-33 11q-19 0 -34 -11t-15 -36h-134q0 79 48 123.5
t129 44.5q88 0 140 -41.5t52 -104.5q0 -47 -26.5 -75t-61.5 -37zM184 0h-184l895 1434h182zM1212 135h-61v-135h-133v135h-238v109l238 291h133v-291h61v-109zM1018 244v143l-121 -143h121z" />
    <glyph glyph-name="questiondown" unicode="&#xbf;" horiz-adv-x="1210" 
d="M760 647h-400v418h400v-418zM586 -383q86 0 161.5 15.5t145.5 53t119.5 95t78.5 147.5t27 205h-379q0 -31 -1.5 -52.5t-10 -50.5t-24 -47t-45.5 -31t-72 -13q-115 0 -115 104q0 26 16 49t42 43t57 42.5t62.5 53.5t57.5 69t42 96t16 128v33h-406v-33q0 -48 -14.5 -85.5
t-38 -62.5t-52 -47.5t-57 -47.5t-52 -55t-38 -77t-14.5 -106q0 -202 137 -314t357 -112z" />
    <glyph glyph-name="Agrave" unicode="&#xc0;" horiz-adv-x="1525" 
d="M924 1559h-318l-252 262h416zM1059 0l-66 209h-461l-65 -209h-428l545 1434h358l545 -1434h-428zM621 498h282l-141 452z" />
    <glyph glyph-name="Aacute" unicode="&#xc1;" horiz-adv-x="1525" 
d="M1161 1821l-252 -262h-317l153 262h416zM1059 0l-66 209h-461l-65 -209h-428l545 1434h358l545 -1434h-428zM621 498h282l-141 452z" />
    <glyph glyph-name="Acircumflex" unicode="&#xc2;" horiz-adv-x="1525" 
d="M762 1665l-178 -145h-293l115 301h710l115 -301h-293zM1059 0l-66 209h-461l-65 -209h-428l545 1434h358l545 -1434h-428zM621 498h282l-141 452z" />
    <glyph glyph-name="Atilde" unicode="&#xc3;" horiz-adv-x="1525" 
d="M528 1667q-25 0 -48.5 -12t-22.5 -37h-140q0 131 69.5 217t207.5 86q57 0 117.5 -26t104 -57t101.5 -57t111 -26q26 0 49.5 11t22.5 36h139q0 -131 -68.5 -217t-207.5 -86q-57 0 -118 26.5t-104.5 57.5t-101.5 57.5t-111 26.5zM1059 0l-66 209h-461l-65 -209h-428
l545 1434h358l545 -1434h-428zM621 498h282l-141 452z" />
    <glyph glyph-name="Adieresis" unicode="&#xc4;" horiz-adv-x="1525" 
d="M700 1821v-248h-383v248h383zM1206 1821v-248h-383v248h383zM1059 0l-66 209h-461l-65 -209h-428l545 1434h358l545 -1434h-428zM621 498h282l-141 452z" />
    <glyph glyph-name="Aring" unicode="&#xc5;" horiz-adv-x="1525" 
d="M760 1554q-89 0 -155 65t-66 157t66 156.5t155 64.5t155 -64.5t66 -156.5t-66 -157t-155 -65zM760 1841q-25 0 -44.5 -17.5t-19.5 -47.5t19.5 -48t44.5 -18q26 0 44.5 17.5t18.5 48.5t-18.5 48t-44.5 17zM1059 0l-66 209h-461l-65 -209h-428l545 1434h358l545 -1434h-428
zM621 498h282l-141 452z" />
    <glyph glyph-name="AE" unicode="&#xc6;" horiz-adv-x="2158" 
d="M1421 340h674v-340h-1071v205h-430l-139 -205h-416l981 1434h1055v-340h-654v-215h551v-316h-551v-223zM801 506h223v328z" />
    <glyph glyph-name="Ccedilla" unicode="&#xc7;" horiz-adv-x="1429" 
d="M1368 516q-13 -212 -135.5 -343t-312.5 -173l-123 -127q90 -6 150.5 -57.5t60.5 -141.5q0 -43 -13.5 -77t-35.5 -57.5t-57.5 -40.5t-73 -27t-89.5 -15.5t-98.5 -7.5t-108.5 -2v147q97 0 144 15.5t47 54.5q0 34 -33 44.5t-67 -15.5l-21 -23l-88 144l96 178
q-252 42 -396 231t-144 494q0 345 183.5 540t494.5 195q118 0 223 -32.5t191 -95.5t140.5 -166t63.5 -234h-391q-40 107 -83.5 147.5t-133.5 40.5q-138 0 -204.5 -107t-66.5 -288q0 -116 26.5 -202t89 -139.5t155.5 -53.5q92 0 136 42t81 152h393z" />
    <glyph glyph-name="Egrave" unicode="&#xc8;" 
d="M809 1559h-317l-252 262h415zM498 340h673v-340h-1071v1434h1051v-340h-653v-215h551v-316h-551v-223z" />
    <glyph glyph-name="Eacute" unicode="&#xc9;" 
d="M1047 1821l-252 -262h-318l154 262h416zM498 340h673v-340h-1071v1434h1051v-340h-653v-215h551v-316h-551v-223z" />
    <glyph glyph-name="Ecircumflex" unicode="&#xca;" 
d="M647 1665l-178 -145h-293l115 301h710l115 -301h-293zM498 340h673v-340h-1071v1434h1051v-340h-653v-215h551v-316h-551v-223z" />
    <glyph glyph-name="Edieresis" unicode="&#xcb;" 
d="M586 1821v-248h-383v248h383zM1092 1821v-248h-383v248h383zM498 340h673v-340h-1071v1434h1051v-340h-653v-215h551v-316h-551v-223z" />
    <glyph glyph-name="Igrave" unicode="&#xcc;" horiz-adv-x="595" 
d="M459 1559l-154 262h-416l252 -262h318zM498 0h-398v1434h398v-1434z" />
    <glyph glyph-name="Iacute" unicode="&#xcd;" horiz-adv-x="595" 
d="M127 1559h317l252 262h-415zM498 0h-398v1434h398v-1434z" />
    <glyph glyph-name="Icircumflex" unicode="&#xce;" horiz-adv-x="595" 
d="M473 1520l-176 145l-178 -145h-293l115 301h710l115 -301h-293zM498 0h-398v1434h398v-1434z" />
    <glyph glyph-name="Idieresis" unicode="&#xcf;" horiz-adv-x="595" 
d="M-147 1821h383v-248h-383v248zM358 1821h383v-248h-383v248zM498 0h-398v1434h398v-1434z" />
    <glyph glyph-name="Eth" unicode="&#xd0;" horiz-adv-x="1529" 
d="M782 1434q339 0 513.5 -184.5t174.5 -532.5t-174.5 -532.5t-513.5 -184.5h-598v559h-143v283h143v592h598zM743 340q98 0 161.5 20t102 66.5t53.5 115.5t15 175q0 211 -70 294t-262 83h-161v-252h131v-283h-131v-219h161z" />
    <glyph glyph-name="Ntilde" unicode="&#xd1;" horiz-adv-x="1464" 
d="M1071 1802h139q0 -131 -68.5 -217t-207.5 -86q-57 0 -117.5 26.5t-104 57.5t-101.5 57.5t-111 26.5q-25 0 -49 -12t-23 -37h-139q0 132 69 217.5t207 85.5q57 0 117.5 -26t104 -57t101.5 -57t111 -26q26 0 49.5 11t22.5 36zM1364 1434v-1434h-410l-448 764h-8v-764h-398
v1434h394l464 -791h9v791h397z" />
    <glyph glyph-name="Ograve" unicode="&#xd2;" horiz-adv-x="1544" 
d="M934 1559l-154 262h-415l251 -262h318zM772 1452q324 0 513.5 -197.5t189.5 -537.5q0 -336 -190 -535.5t-513 -199.5t-512.5 199.5t-189.5 535.5q0 340 189 537.5t513 197.5zM772 322q140 0 212.5 109.5t72.5 285.5q0 180 -72 287.5t-213 107.5t-213 -107.5t-72 -287.5
q0 -176 72.5 -285.5t212.5 -109.5z" />
    <glyph glyph-name="Oacute" unicode="&#xd3;" horiz-adv-x="1544" 
d="M602 1559h318l251 262h-415zM772 1452q324 0 513.5 -197.5t189.5 -537.5q0 -336 -190 -535.5t-513 -199.5t-512.5 199.5t-189.5 535.5q0 340 189 537.5t513 197.5zM772 322q140 0 212.5 109.5t72.5 285.5q0 180 -72 287.5t-213 107.5t-213 -107.5t-72 -287.5
q0 -176 72.5 -285.5t212.5 -109.5z" />
    <glyph glyph-name="Ocircumflex" unicode="&#xd4;" horiz-adv-x="1544" 
d="M948 1520l-176 145l-178 -145h-293l115 301h710l115 -301h-293zM772 1452q324 0 513.5 -197.5t189.5 -537.5q0 -336 -190 -535.5t-513 -199.5t-512.5 199.5t-189.5 535.5q0 340 189 537.5t513 197.5zM772 322q140 0 212.5 109.5t72.5 285.5q0 180 -72 287.5t-213 107.5
t-213 -107.5t-72 -287.5q0 -176 72.5 -285.5t212.5 -109.5z" />
    <glyph glyph-name="Otilde" unicode="&#xd5;" horiz-adv-x="1544" 
d="M1110 1802h139q0 -131 -68.5 -217t-207.5 -86q-57 0 -117.5 26.5t-104 57.5t-101.5 57.5t-111 26.5q-25 0 -49 -12t-23 -37h-139q0 132 69 217.5t207 85.5q57 0 117.5 -26t104 -57t101.5 -57t111 -26q26 0 49.5 11t22.5 36zM772 1452q324 0 513.5 -197.5t189.5 -537.5
q0 -336 -190 -535.5t-513 -199.5t-512.5 199.5t-189.5 535.5q0 340 189 537.5t513 197.5zM772 322q140 0 212.5 109.5t72.5 285.5q0 180 -72 287.5t-213 107.5t-213 -107.5t-72 -287.5q0 -176 72.5 -285.5t212.5 -109.5z" />
    <glyph glyph-name="Odieresis" unicode="&#xd6;" horiz-adv-x="1544" 
d="M328 1821h383v-248h-383v248zM834 1821h383v-248h-383v248zM772 1452q324 0 513.5 -197.5t189.5 -537.5q0 -336 -190 -535.5t-513 -199.5t-512.5 199.5t-189.5 535.5q0 340 189 537.5t513 197.5zM772 322q140 0 212.5 109.5t72.5 285.5q0 180 -72 287.5t-213 107.5
t-213 -107.5t-72 -287.5q0 -176 72.5 -285.5t212.5 -109.5z" />
    <glyph glyph-name="multiply" unicode="&#xd7;" horiz-adv-x="1198" 
d="M1108 238l-229 -230l-273 273l-268 -269l-246 244l270 270l-272 271l229 227l271 -270l270 270l244 -246l-268 -268z" />
    <glyph glyph-name="Oslash" unicode="&#xd8;" horiz-adv-x="1544" 
d="M1233 1303q117 -96 179.5 -245.5t62.5 -340.5q0 -336 -190 -535.5t-513 -199.5q-93 0 -164 14l-47 -98h-428l133 276q-196 199 -196 543q0 340 189 537.5t513 197.5q52 0 102 -6l37 80h428zM487 717q0 -15 5 -72l219 461q-111 -24 -167.5 -127.5t-56.5 -261.5zM772 322
q140 0 212.5 109.5t72.5 285.5q0 97 -21 174l-272 -569h8z" />
    <glyph glyph-name="Ugrave" unicode="&#xd9;" horiz-adv-x="1427" 
d="M842 1559l-154 262h-416l252 -262h318zM1329 561q0 -183 -79.5 -315.5t-216.5 -198t-318 -65.5q-135 0 -248 38t-194.5 110.5t-127 182.5t-45.5 248v873h398v-856q0 -256 217 -256t217 256v856h397v-873z" />
    <glyph glyph-name="Uacute" unicode="&#xda;" horiz-adv-x="1427" 
d="M510 1559h317l252 262h-415zM1329 561q0 -183 -79.5 -315.5t-216.5 -198t-318 -65.5q-135 0 -248 38t-194.5 110.5t-127 182.5t-45.5 248v873h398v-856q0 -256 217 -256t217 256v856h397v-873z" />
    <glyph glyph-name="Ucircumflex" unicode="&#xdb;" horiz-adv-x="1427" 
d="M856 1520l-176 145l-178 -145h-293l115 301h710l115 -301h-293zM1329 561q0 -183 -79.5 -315.5t-216.5 -198t-318 -65.5q-135 0 -248 38t-194.5 110.5t-127 182.5t-45.5 248v873h398v-856q0 -256 217 -256t217 256v856h397v-873z" />
    <glyph glyph-name="Udieresis" unicode="&#xdc;" horiz-adv-x="1427" 
d="M236 1821h382v-248h-382v248zM741 1821h383v-248h-383v248zM1329 561q0 -183 -79.5 -315.5t-216.5 -198t-318 -65.5q-135 0 -248 38t-194.5 110.5t-127 182.5t-45.5 248v873h398v-856q0 -256 217 -256t217 256v856h397v-873z" />
    <glyph glyph-name="Yacute" unicode="&#xdd;" horiz-adv-x="1507" 
d="M584 1559h317l252 262h-416zM958 506v-506h-409v506l-510 928h446l269 -547l270 547h444z" />
    <glyph glyph-name="Thorn" unicode="&#xde;" horiz-adv-x="1366" 
d="M756 1157q298 0 429.5 -105.5t131.5 -330.5q0 -235 -129.5 -335.5t-431.5 -100.5h-277v-285h-379v1434h379v-277h277zM760 608q15 0 40.5 -2.5t41.5 -4t36.5 3t32 16t19.5 36.5t8 64q0 25 -4.5 44.5t-11.5 32t-19.5 21t-23 12.5t-28.5 5.5t-29.5 1t-31.5 -1t-30 -0.5
h-281v-228h281z" />
    <glyph glyph-name="germandbls" unicode="&#xdf;" horiz-adv-x="1351" 
d="M1006 782q92 -10 179 -106.5t87 -222.5q0 -240 -137 -346.5t-447 -106.5h-39v324h47q38 0 65.5 4t61 16.5t52 43t18.5 77.5q0 30 -9 53.5t-21 38t-34.5 25t-38.5 15.5t-45 8t-42 3h-41h-13v283q49 0 82 12t46.5 31.5t18.5 35t5 31.5q0 38 -14.5 62.5t-41 34t-45 12
t-45.5 2.5q-176 0 -176 -209v-903h-379v903q0 121 29 214.5t78 152.5t119 96.5t145 52.5t164 15q545 0 545 -400q0 -101 -59 -173t-115 -79z" />
    <glyph glyph-name="agrave" unicode="&#xe0;" horiz-adv-x="1177" 
d="M758 1190h-318l-252 262h416zM1073 330q0 -46 21 -73t55 -30v-213q-47 -22 -131 -22q-119 0 -200 48.5t-81 131.5v-31l-7 -11q-7 -10 -17 -23t-27 -30t-42 -32.5t-56 -29t-75.5 -21.5t-94.5 -8q-71 0 -133.5 18t-117 55t-86.5 104t-32 156q0 40 7.5 74.5t18.5 60.5
t30.5 48t38 37.5t46.5 29.5t49.5 22t54.5 16.5t53.5 12.5t54.5 10.5t51 10.5q30 6 76.5 14.5t69.5 13t50 13t45 20.5q-4 101 -114 101q-104 0 -119 -98h-357q27 370 478 370q183 0 291 -51t154 -151.5t46 -266.5v-276zM694 334v151q-30 -15 -55 -24.5t-39 -13.5t-41 -11
t-45 -12q-44 -15 -65 -36t-21 -52q0 -32 23 -58t75 -26q63 0 105.5 26.5t62.5 55.5z" />
    <glyph glyph-name="aacute" unicode="&#xe1;" horiz-adv-x="1177" 
d="M995 1452l-252 -262h-317l154 262h415zM1073 330q0 -46 21 -73t55 -30v-213q-47 -22 -131 -22q-119 0 -200 48.5t-81 131.5v-31l-7 -11q-7 -10 -17 -23t-27 -30t-42 -32.5t-56 -29t-75.5 -21.5t-94.5 -8q-71 0 -133.5 18t-117 55t-86.5 104t-32 156q0 40 7.5 74.5
t18.5 60.5t30.5 48t38 37.5t46.5 29.5t49.5 22t54.5 16.5t53.5 12.5t54.5 10.5t51 10.5q30 6 76.5 14.5t69.5 13t50 13t45 20.5q-4 101 -114 101q-104 0 -119 -98h-357q27 370 478 370q183 0 291 -51t154 -151.5t46 -266.5v-276zM694 334v151q-30 -15 -55 -24.5t-39 -13.5
t-41 -11t-45 -12q-44 -15 -65 -36t-21 -52q0 -32 23 -58t75 -26q63 0 105.5 26.5t62.5 55.5z" />
    <glyph glyph-name="acircumflex" unicode="&#xe2;" horiz-adv-x="1177" 
d="M596 1296l-178 -145h-293l115 301h710l115 -301h-293zM1073 330q0 -46 21 -73t55 -30v-213q-47 -22 -131 -22q-119 0 -200 48.5t-81 131.5v-31l-7 -11q-7 -10 -17 -23t-27 -30t-42 -32.5t-56 -29t-75.5 -21.5t-94.5 -8q-71 0 -133.5 18t-117 55t-86.5 104t-32 156
q0 40 7.5 74.5t18.5 60.5t30.5 48t38 37.5t46.5 29.5t49.5 22t54.5 16.5t53.5 12.5t54.5 10.5t51 10.5q30 6 76.5 14.5t69.5 13t50 13t45 20.5q-4 101 -114 101q-104 0 -119 -98h-357q27 370 478 370q183 0 291 -51t154 -151.5t46 -266.5v-276zM694 334v151
q-30 -15 -55 -24.5t-39 -13.5t-41 -11t-45 -12q-44 -15 -65 -36t-21 -52q0 -32 23 -58t75 -26q63 0 105.5 26.5t62.5 55.5z" />
    <glyph glyph-name="atilde" unicode="&#xe3;" horiz-adv-x="1177" 
d="M362 1298q-25 0 -48.5 -12t-22.5 -37h-139q0 132 69 217.5t207 85.5q57 0 117.5 -26t104 -57t101.5 -57t111 -26q25 0 49 11.5t23 36.5h139q0 -62 -16 -115.5t-48 -96.5t-86.5 -67.5t-125.5 -24.5q-47 0 -95 17.5t-87.5 42l-79 49t-84.5 42t-89 17.5zM1073 330
q0 -46 21 -73t55 -30v-213q-47 -22 -131 -22q-119 0 -200 48.5t-81 131.5v-31l-7 -11q-7 -10 -17 -23t-27 -30t-42 -32.5t-56 -29t-75.5 -21.5t-94.5 -8q-71 0 -133.5 18t-117 55t-86.5 104t-32 156q0 40 7.5 74.5t18.5 60.5t30.5 48t38 37.5t46.5 29.5t49.5 22t54.5 16.5
t53.5 12.5t54.5 10.5t51 10.5q30 6 76.5 14.5t69.5 13t50 13t45 20.5q-4 101 -114 101q-104 0 -119 -98h-357q27 370 478 370q183 0 291 -51t154 -151.5t46 -266.5v-276zM694 334v151q-30 -15 -55 -24.5t-39 -13.5t-41 -11t-45 -12q-44 -15 -65 -36t-21 -52q0 -32 23 -58
t75 -26q63 0 105.5 26.5t62.5 55.5z" />
    <glyph glyph-name="adieresis" unicode="&#xe4;" horiz-adv-x="1177" 
d="M535 1452v-248h-383v248h383zM1040 1452v-248h-383v248h383zM1073 330q0 -46 21 -73t55 -30v-213q-47 -22 -131 -22q-119 0 -200 48.5t-81 131.5v-31l-7 -11q-7 -10 -17 -23t-27 -30t-42 -32.5t-56 -29t-75.5 -21.5t-94.5 -8q-71 0 -133.5 18t-117 55t-86.5 104t-32 156
q0 40 7.5 74.5t18.5 60.5t30.5 48t38 37.5t46.5 29.5t49.5 22t54.5 16.5t53.5 12.5t54.5 10.5t51 10.5q30 6 76.5 14.5t69.5 13t50 13t45 20.5q-4 101 -114 101q-104 0 -119 -98h-357q27 370 478 370q183 0 291 -51t154 -151.5t46 -266.5v-276zM694 334v151
q-30 -15 -55 -24.5t-39 -13.5t-41 -11t-45 -12q-44 -15 -65 -36t-21 -52q0 -32 23 -58t75 -26q63 0 105.5 26.5t62.5 55.5z" />
    <glyph glyph-name="aring" unicode="&#xe5;" horiz-adv-x="1177" 
d="M594 1186q-89 0 -155 64.5t-66 156.5t66 156.5t155 64.5t155 -64.5t66 -156.5t-66 -156.5t-155 -64.5zM594 1473q-25 0 -44.5 -18t-19.5 -48t19.5 -48t44.5 -18q26 0 44.5 17.5t18.5 48.5t-18.5 48.5t-44.5 17.5zM1073 330q0 -46 21 -73t55 -30v-213q-47 -22 -131 -22
q-119 0 -200 48.5t-81 131.5v-31l-7 -11q-7 -10 -17 -23t-27 -30t-42 -32.5t-56 -29t-75.5 -21.5t-94.5 -8q-71 0 -133.5 18t-117 55t-86.5 104t-32 156q0 40 7.5 74.5t18.5 60.5t30.5 48t38 37.5t46.5 29.5t49.5 22t54.5 16.5t53.5 12.5t54.5 10.5t51 10.5q30 6 76.5 14.5
t69.5 13t50 13t45 20.5q-4 101 -114 101q-104 0 -119 -98h-357q27 370 478 370q183 0 291 -51t154 -151.5t46 -266.5v-276zM694 334v151q-30 -15 -55 -24.5t-39 -13.5t-41 -11t-45 -12q-44 -15 -65 -36t-21 -52q0 -32 23 -58t75 -26q63 0 105.5 26.5t62.5 55.5z" />
    <glyph glyph-name="ae" unicode="&#xe6;" horiz-adv-x="1816" 
d="M1769 475q0 -39 -2 -57h-702q15 -82 61.5 -118t133.5 -36q70 0 110.5 23t50.5 59h324q-35 -179 -164 -269.5t-344 -90.5q-116 0 -230 45t-192 139q-152 -184 -397 -184q-70 0 -133 17.5t-117.5 54t-86.5 100.5t-32 149q0 78 30.5 138t71.5 92.5t99 55t94.5 29.5t77.5 11
q36 4 95 9t80 7.5t49 11t48 23.5v10q0 32 -10.5 55t-22 33t-33 15.5t-27.5 5.5h-23q-102 0 -117 -84h-357q14 174 132 265t339 91q239 0 357 -84q137 84 311 84q84 0 158 -18t142.5 -61.5t117.5 -110.5t78.5 -172t29.5 -238zM1073 645h336q-3 66 -44 110t-122 44
q-134 0 -172 -133zM694 328v141q-27 -13 -35.5 -17t-21 -9.5t-23.5 -7t-21 -4t-37.5 -6t-51.5 -7.5q-34 -3 -53 -35t-19 -59q0 -10 3.5 -20t12.5 -23t29 -21t49 -8q64 0 107 24t61 52z" />
    <glyph glyph-name="ccedilla" unicode="&#xe7;" horiz-adv-x="1138" 
d="M1077 416q-13 -98 -48 -173.5t-85 -123t-104 -76t-117 -43.5l-123 -127q90 -6 150.5 -57.5t60.5 -141.5q0 -50 -16.5 -88t-50 -62t-73.5 -40t-98 -24t-111.5 -10.5t-125.5 -2.5v147q97 0 143.5 15.5t46.5 54.5q0 34 -33 44.5t-67 -15.5l-20 -23l-89 144l103 188h22
q-63 15 -118.5 41t-106.5 70t-87.5 101t-58.5 138t-22 178q0 118 33 213.5t86 156t124.5 101t144.5 57.5t149 17q62 0 117.5 -9.5t117 -37.5t109 -72.5t85 -121t52.5 -177.5h-346q-6 53 -32.5 83t-98.5 30q-176 0 -176 -240q0 -239 178 -239q73 0 103.5 33.5t41.5 91.5h340z
" />
    <glyph glyph-name="egrave" unicode="&#xe8;" horiz-adv-x="1169" 
d="M752 1190h-318l-252 262h416zM1120 475q0 -39 -2 -57h-702q15 -82 61 -118t133 -36q70 0 111 23t51 59h324q-35 -179 -164 -269.5t-344 -90.5q-72 0 -144 17t-144.5 57.5t-127 100.5t-89 154.5t-34.5 210.5q0 118 33.5 213.5t88 156.5t126.5 102.5t146 59t151 17.5
q84 0 158 -18t142.5 -61.5t117.5 -110.5t78.5 -172t29.5 -238zM418 645h342q-3 66 -44 110t-122 44q-146 0 -176 -154z" />
    <glyph glyph-name="eacute" unicode="&#xe9;" horiz-adv-x="1169" 
d="M989 1452l-252 -262h-317l153 262h416zM1120 475q0 -39 -2 -57h-702q15 -82 61 -118t133 -36q70 0 111 23t51 59h324q-35 -179 -164 -269.5t-344 -90.5q-72 0 -144 17t-144.5 57.5t-127 100.5t-89 154.5t-34.5 210.5q0 118 33.5 213.5t88 156.5t126.5 102.5t146 59
t151 17.5q84 0 158 -18t142.5 -61.5t117.5 -110.5t78.5 -172t29.5 -238zM418 645h342q-3 66 -44 110t-122 44q-146 0 -176 -154z" />
    <glyph glyph-name="ecircumflex" unicode="&#xea;" horiz-adv-x="1169" 
d="M590 1296l-178 -145h-293l114 301h711l115 -301h-293zM1120 475q0 -39 -2 -57h-702q15 -82 61 -118t133 -36q70 0 111 23t51 59h324q-35 -179 -164 -269.5t-344 -90.5q-72 0 -144 17t-144.5 57.5t-127 100.5t-89 154.5t-34.5 210.5q0 118 33.5 213.5t88 156.5
t126.5 102.5t146 59t151 17.5q84 0 158 -18t142.5 -61.5t117.5 -110.5t78.5 -172t29.5 -238zM418 645h342q-3 66 -44 110t-122 44q-146 0 -176 -154z" />
    <glyph glyph-name="edieresis" unicode="&#xeb;" horiz-adv-x="1169" 
d="M528 1452v-248h-383v248h383zM1034 1452v-248h-383v248h383zM1120 475q0 -39 -2 -57h-702q15 -82 61 -118t133 -36q70 0 111 23t51 59h324q-35 -179 -164 -269.5t-344 -90.5q-72 0 -144 17t-144.5 57.5t-127 100.5t-89 154.5t-34.5 210.5q0 118 33.5 213.5t88 156.5
t126.5 102.5t146 59t151 17.5q84 0 158 -18t142.5 -61.5t117.5 -110.5t78.5 -172t29.5 -238zM418 645h342q-3 66 -44 110t-122 44q-146 0 -176 -154z" />
    <glyph glyph-name="igrave" unicode="&#xec;" horiz-adv-x="579" 
d="M451 1190l-154 262h-416l252 -262h318zM100 1065h379v-1065h-379v1065z" />
    <glyph glyph-name="iacute" unicode="&#xed;" horiz-adv-x="579" 
d="M119 1190h317l252 262h-416zM100 1065h379v-1065h-379v1065z" />
    <glyph glyph-name="icircumflex" unicode="&#xee;" horiz-adv-x="579" 
d="M465 1151l-176 145l-178 -145h-293l114 301h711l115 -301h-293zM100 1065h379v-1065h-379v1065z" />
    <glyph glyph-name="idieresis" unicode="&#xef;" horiz-adv-x="579" 
d="M-156 1452h383v-248h-383v248zM350 1452h383v-248h-383v248zM100 1065h379v-1065h-379v1065z" />
    <glyph glyph-name="eth" unicode="&#xf0;" horiz-adv-x="1239" 
d="M967 1174q101 -153 136.5 -283.5t35.5 -335.5q0 -120 -31 -217.5t-84 -163t-125 -110t-151 -64.5t-166 -20q-79 0 -154.5 19.5t-144.5 62t-120.5 104t-82.5 152t-31 198.5q0 135 41.5 242.5t111 173t155 99.5t180.5 34q91 0 157 -35q-16 39 -49 107l-184 -23v162l86 10
q-54 67 -148 148h375l86 -111l174 20v-161zM594 303q63 0 116.5 52.5t53.5 160.5q0 65 -16.5 112.5t-43.5 71t-54 33.5t-56 10q-21 0 -42 -5.5t-45 -21.5t-41.5 -40.5t-29.5 -65.5t-12 -94q0 -111 48.5 -162t121.5 -51z" />
    <glyph glyph-name="ntilde" unicode="&#xf1;" horiz-adv-x="1280" 
d="M406 1298q-25 0 -49 -12t-23 -37h-139q0 132 69 217.5t207 85.5q57 0 117.5 -26t104 -57t101.5 -57t111 -26q25 0 49 11.5t23 36.5h139q0 -62 -16 -115.5t-48 -96.5t-86.5 -67.5t-125.5 -24.5q-47 0 -94.5 17.5t-87.5 42t-79 49t-84 42t-89 17.5zM801 1075q85 0 152 -23
t119 -72.5t80 -135t28 -203.5v-641h-379v618q0 71 -43 108.5t-105 37.5q-42 0 -76.5 -17t-54 -42t-30.5 -50t-13 -45v-610h-379v1065h379v-188q16 31 41.5 62t64.5 63.5t95.5 52.5t120.5 20z" />
    <glyph glyph-name="ograve" unicode="&#xf2;" horiz-adv-x="1193" 
d="M760 1190l-154 262h-416l252 -262h318zM598 1075q57 0 116.5 -12.5t122 -38t117 -69.5t98 -102.5t68.5 -142t25 -182.5q0 -116 -36 -210.5t-93 -155t-131 -101.5t-146 -58t-141 -17t-141 17t-146.5 58t-131.5 101.5t-93.5 155t-36.5 210.5q0 118 36.5 214t93.5 156.5
t131.5 101.5t146 58t141.5 17zM782 528q0 127 -51 186.5t-133 59.5t-134 -59.5t-52 -186.5q0 -119 52.5 -179t133.5 -60t132.5 60t51.5 179z" />
    <glyph glyph-name="oacute" unicode="&#xf3;" horiz-adv-x="1193" 
d="M428 1190h317l252 262h-415zM598 1075q57 0 116.5 -12.5t122 -38t117 -69.5t98 -102.5t68.5 -142t25 -182.5q0 -116 -36 -210.5t-93 -155t-131 -101.5t-146 -58t-141 -17t-141 17t-146.5 58t-131.5 101.5t-93.5 155t-36.5 210.5q0 118 36.5 214t93.5 156.5t131.5 101.5
t146 58t141.5 17zM782 528q0 127 -51 186.5t-133 59.5t-134 -59.5t-52 -186.5q0 -119 52.5 -179t133.5 -60t132.5 60t51.5 179z" />
    <glyph glyph-name="ocircumflex" unicode="&#xf4;" horiz-adv-x="1193" 
d="M774 1151l-176 145l-178 -145h-293l115 301h710l115 -301h-293zM598 1075q57 0 116.5 -12.5t122 -38t117 -69.5t98 -102.5t68.5 -142t25 -182.5q0 -116 -36 -210.5t-93 -155t-131 -101.5t-146 -58t-141 -17t-141 17t-146.5 58t-131.5 101.5t-93.5 155t-36.5 210.5
q0 118 36.5 214t93.5 156.5t131.5 101.5t146 58t141.5 17zM782 528q0 127 -51 186.5t-133 59.5t-134 -59.5t-52 -186.5q0 -119 52.5 -179t133.5 -60t132.5 60t51.5 179z" />
    <glyph glyph-name="otilde" unicode="&#xf5;" horiz-adv-x="1193" 
d="M936 1434h139q0 -62 -16 -115.5t-48 -96.5t-86.5 -67.5t-125.5 -24.5q-47 0 -94.5 17.5t-87.5 42t-79 49t-84 42t-89 17.5q-25 0 -49 -12t-23 -37h-139q0 132 69 217.5t207 85.5q57 0 117.5 -26t104 -57t101.5 -57t111 -26q25 0 49 11.5t23 36.5zM598 1075
q57 0 116.5 -12.5t122 -38t117 -69.5t98 -102.5t68.5 -142t25 -182.5q0 -116 -36 -210.5t-93 -155t-131 -101.5t-146 -58t-141 -17t-141 17t-146.5 58t-131.5 101.5t-93.5 155t-36.5 210.5q0 118 36.5 214t93.5 156.5t131.5 101.5t146 58t141.5 17zM782 528q0 127 -51 186.5
t-133 59.5t-134 -59.5t-52 -186.5q0 -119 52.5 -179t133.5 -60t132.5 60t51.5 179z" />
    <glyph glyph-name="odieresis" unicode="&#xf6;" horiz-adv-x="1193" 
d="M154 1452h383v-248h-383v248zM659 1452h383v-248h-383v248zM598 1075q57 0 116.5 -12.5t122 -38t117 -69.5t98 -102.5t68.5 -142t25 -182.5q0 -116 -36 -210.5t-93 -155t-131 -101.5t-146 -58t-141 -17t-141 17t-146.5 58t-131.5 101.5t-93.5 155t-36.5 210.5
q0 118 36.5 214t93.5 156.5t131.5 101.5t146 58t141.5 17zM782 528q0 127 -51 186.5t-133 59.5t-134 -59.5t-52 -186.5q0 -119 52.5 -179t133.5 -60t132.5 60t51.5 179z" />
    <glyph glyph-name="divide" unicode="&#xf7;" horiz-adv-x="999" 
d="M500 770q-68 0 -114 45.5t-46 112.5q0 65 46.5 110t113.5 45q64 0 108.5 -45t44.5 -110q0 -67 -44 -112.5t-109 -45.5zM68 702h727v-282h-727v282zM500 41q-68 0 -114 45.5t-46 114.5q0 65 46.5 109t113.5 44q64 0 108.5 -44t44.5 -109q0 -69 -44 -114.5t-109 -45.5z" />
    <glyph glyph-name="oslash" unicode="&#xf8;" horiz-adv-x="1193" 
d="M965 946q180 -149 180 -418q0 -116 -36 -210.5t-93 -155t-131 -101.5t-146 -58t-141 -17q-49 0 -90 8l-45 -96h-320l99 206q-193 152 -193 424q0 118 36.5 214t93.5 156.5t131.5 101.5t146 58t141.5 17q42 0 104 -10l58 119h319zM412 528q0 -25 4 -61l145 305
q-68 -13 -108.5 -72.5t-40.5 -171.5zM655 297q57 18 92 76t35 155q0 23 -2 33z" />
    <glyph glyph-name="ugrave" unicode="&#xf9;" horiz-adv-x="1269" 
d="M793 1190h-318l-252 262h416zM791 1065h378v-1065h-378v186q-16 -31 -42 -62.5t-65 -64t-95.5 -53t-119.5 -20.5q-177 0 -278 104t-101 332v643h379v-619q0 -72 42 -110.5t103 -38.5q43 0 78 17t55 43t31 51.5t13 46.5v610z" />
    <glyph glyph-name="uacute" unicode="&#xfa;" horiz-adv-x="1269" 
d="M1030 1452l-252 -262h-317l153 262h416zM791 1065h378v-1065h-378v186q-16 -31 -42 -62.5t-65 -64t-95.5 -53t-119.5 -20.5q-177 0 -278 104t-101 332v643h379v-619q0 -72 42 -110.5t103 -38.5q43 0 78 17t55 43t31 51.5t13 46.5v610z" />
    <glyph glyph-name="ucircumflex" unicode="&#xfb;" horiz-adv-x="1269" 
d="M631 1296l-178 -145h-293l114 301h711l115 -301h-293zM791 1065h378v-1065h-378v186q-16 -31 -42 -62.5t-65 -64t-95.5 -53t-119.5 -20.5q-177 0 -278 104t-101 332v643h379v-619q0 -72 42 -110.5t103 -38.5q43 0 78 17t55 43t31 51.5t13 46.5v610z" />
    <glyph glyph-name="udieresis" unicode="&#xfc;" horiz-adv-x="1269" 
d="M569 1452v-248h-383v248h383zM1075 1452v-248h-383v248h383zM791 1065h378v-1065h-378v186q-16 -31 -42 -62.5t-65 -64t-95.5 -53t-119.5 -20.5q-177 0 -278 104t-101 332v643h379v-619q0 -72 42 -110.5t103 -38.5q43 0 78 17t55 43t31 51.5t13 46.5v610z" />
    <glyph glyph-name="yacute" unicode="&#xfd;" 
d="M438 1190h318l252 262h-416zM821 1065h383l-424 -1014q-59 -147 -114.5 -237t-129.5 -146.5t-165.5 -74t-220.5 -5.5v318q94 -9 155.5 11t78.5 40t37 57q3 6 5 9q13 28 -22 118q-1 4 -2 6.5t-2.5 6t-2.5 6.5l-368 905h391l192 -576z" />
    <glyph glyph-name="thorn" unicode="&#xfe;" horiz-adv-x="1247" 
d="M729 1075q56 0 116.5 -17.5t124.5 -59.5t114 -102t82 -155t32 -209q0 -118 -32.5 -214t-83 -156t-115 -101t-125.5 -58t-119 -17q-96 0 -156.5 31t-87.5 67v-473h-379v1835h379v-473q11 11 27.5 24t48.5 32.5t77 32t93 13.5h4zM641 289q83 0 136.5 60.5t53.5 182.5
q0 121 -53.5 181.5t-136.5 60.5q-79 -2 -128.5 -64.5t-49.5 -177.5q0 -119 49 -181t129 -62z" />
    <glyph glyph-name="ydieresis" unicode="&#xff;" 
d="M164 1452h383v-248h-383v248zM670 1452h383v-248h-383v248zM821 1065h383l-424 -1014q-59 -147 -114.5 -237t-129.5 -146.5t-165.5 -74t-220.5 -5.5v318q94 -9 155.5 11t78.5 40t37 57q3 6 5 9q13 28 -22 118q-1 4 -2 6.5t-2.5 6t-2.5 6.5l-368 905h391l192 -576z" />
    <glyph glyph-name="Amacron" unicode="&#x100;" horiz-adv-x="1525" 
d="M1167 1821v-215h-809v215h809zM1059 0l-66 209h-461l-65 -209h-428l545 1434h358l545 -1434h-428zM621 498h282l-141 452z" />
    <glyph glyph-name="amacron" unicode="&#x101;" horiz-adv-x="1177" 
d="M1001 1452v-215h-808v215h808zM1073 330q0 -46 21 -73t55 -30v-213q-47 -22 -131 -22q-119 0 -200 48.5t-81 131.5v-31l-7 -11q-7 -10 -17 -23t-27 -30t-42 -32.5t-56 -29t-75.5 -21.5t-94.5 -8q-71 0 -133.5 18t-117 55t-86.5 104t-32 156q0 40 7.5 74.5t18.5 60.5
t30.5 48t38 37.5t46.5 29.5t49.5 22t54.5 16.5t53.5 12.5t54.5 10.5t51 10.5q30 6 76.5 14.5t69.5 13t50 13t45 20.5q-4 101 -114 101q-104 0 -119 -98h-357q27 370 478 370q183 0 291 -51t154 -151.5t46 -266.5v-276zM694 334v151q-30 -15 -55 -24.5t-39 -13.5t-41 -11
t-45 -12q-44 -15 -65 -36t-21 -52q0 -32 23 -58t75 -26q63 0 105.5 26.5t62.5 55.5z" />
    <glyph glyph-name="Abreve" unicode="&#x102;" horiz-adv-x="1525" 
d="M762 1475q-185 0 -284 88.5t-99 257.5h242q10 -58 44 -80.5t97 -22.5t97 22.5t44 80.5h242q0 -170 -98 -258t-285 -88zM1059 0l-66 209h-461l-65 -209h-428l545 1434h358l545 -1434h-428zM621 498h282l-141 452z" />
    <glyph glyph-name="abreve" unicode="&#x103;" horiz-adv-x="1177" 
d="M596 1106q-185 0 -284 88.5t-99 257.5h242q10 -58 44 -80t97 -22t97 22t44 80h242q0 -170 -98 -258t-285 -88zM1073 330q0 -46 21 -73t55 -30v-213q-47 -22 -131 -22q-119 0 -200 48.5t-81 131.5v-31l-7 -11q-7 -10 -17 -23t-27 -30t-42 -32.5t-56 -29t-75.5 -21.5
t-94.5 -8q-71 0 -133.5 18t-117 55t-86.5 104t-32 156q0 40 7.5 74.5t18.5 60.5t30.5 48t38 37.5t46.5 29.5t49.5 22t54.5 16.5t53.5 12.5t54.5 10.5t51 10.5q30 6 76.5 14.5t69.5 13t50 13t45 20.5q-4 101 -114 101q-104 0 -119 -98h-357q27 370 478 370q183 0 291 -51
t154 -151.5t46 -266.5v-276zM694 334v151q-30 -15 -55 -24.5t-39 -13.5t-41 -11t-45 -12q-44 -15 -65 -36t-21 -52q0 -32 23 -58t75 -26q63 0 105.5 26.5t62.5 55.5z" />
    <glyph glyph-name="Aogonek" unicode="&#x104;" horiz-adv-x="1525" 
d="M1329 0q-66 -16 -117 -35.5t-81 -40t-49.5 -39t-28 -38.5t-11 -32t-2.5 -26q0 -57 47 -66t115 25v-151q-48 -27 -113.5 -45t-135.5 -20.5t-130 12.5t-98.5 60t-38.5 115q0 63 36.5 117t92.5 88.5t120 54t124 21.5l-66 209h-461l-65 -209h-428l545 1434h358l545 -1434
h-158zM621 498h282l-141 452z" />
    <glyph glyph-name="aogonek" unicode="&#x105;" horiz-adv-x="1177" 
d="M1149 227v-213q-7 -4 -21 -8h5q-2 0 -6.5 -1t-6.5 -1l-18 -6q-86 -24 -143 -53.5t-79.5 -59.5t-29 -49.5t-6.5 -40.5q0 -57 47 -66t115 25v-151q-48 -27 -113.5 -45t-136 -20t-130.5 13t-98.5 60t-38.5 115q0 63 36.5 117t92.5 88t120 53.5t124 21.5h39
q-75 20 -119.5 62.5t-44.5 103.5v-31l-7 -11q-7 -10 -17 -23t-27 -30t-42 -32.5t-56 -29t-75.5 -21.5t-94.5 -8q-71 0 -133.5 18t-117 55t-86.5 104t-32 156q0 40 7.5 74.5t18.5 60.5t30.5 48t38 37.5t46.5 29.5t49.5 22t54.5 16.5t53.5 12.5t54.5 10.5t51 10.5
q30 6 76.5 14.5t69.5 13t50 13t45 20.5q-4 101 -114 101q-104 0 -119 -98h-357q27 370 478 370q183 0 291 -51t154 -151.5t46 -266.5v-276q0 -46 21 -73t55 -30zM694 334v151q-30 -15 -55 -24.5t-39 -13.5t-41 -11t-45 -12q-44 -15 -65 -36t-21 -52q0 -32 23 -58t75 -26
q63 0 105.5 26.5t62.5 55.5z" />
    <glyph glyph-name="Cacute" unicode="&#x106;" horiz-adv-x="1429" 
d="M596 1559h317l252 262h-415zM758 322q92 0 136 42t81 152h393q-8 -133 -62.5 -237.5t-141 -168t-192 -96t-224.5 -32.5q-311 0 -494.5 195t-183.5 540t183.5 540t494.5 195q118 0 223 -32.5t191 -95.5t140.5 -166t63.5 -234h-391q-40 107 -83.5 147.5t-133.5 40.5
q-138 0 -204.5 -107t-66.5 -288q0 -116 26.5 -202t89 -139.5t155.5 -53.5z" />
    <glyph glyph-name="cacute" unicode="&#x107;" horiz-adv-x="1138" 
d="M379 1190h317l252 262h-416zM592 291q73 0 103.5 33.5t41.5 91.5h340q-14 -102 -52.5 -180.5t-88 -124.5t-113 -75t-120 -39.5t-115.5 -10.5q-77 0 -149.5 16.5t-144.5 56.5t-125.5 100t-86.5 156t-33 215q0 118 33 213.5t86 156t124.5 101t144.5 57.5t149 17
q62 0 117.5 -9.5t117 -37.5t109 -72.5t85 -121t52.5 -177.5h-346q-6 53 -32.5 83t-98.5 30q-176 0 -176 -240q0 -239 178 -239z" />
    <glyph glyph-name="Cdotaccent" unicode="&#x10a;" horiz-adv-x="1429" 
d="M578 1821h383v-248h-383v248zM758 322q92 0 136 42t81 152h393q-8 -133 -62.5 -237.5t-141 -168t-192 -96t-224.5 -32.5q-311 0 -494.5 195t-183.5 540t183.5 540t494.5 195q118 0 223 -32.5t191 -95.5t140.5 -166t63.5 -234h-391q-40 107 -83.5 147.5t-133.5 40.5
q-138 0 -204.5 -107t-66.5 -288q0 -116 26.5 -202t89 -139.5t155.5 -53.5z" />
    <glyph glyph-name="cdotaccent" unicode="&#x10b;" horiz-adv-x="1138" 
d="M360 1452h383v-248h-383v248zM592 291q73 0 103.5 33.5t41.5 91.5h340q-14 -102 -52.5 -180.5t-88 -124.5t-113 -75t-120 -39.5t-115.5 -10.5q-77 0 -149.5 16.5t-144.5 56.5t-125.5 100t-86.5 156t-33 215q0 118 33 213.5t86 156t124.5 101t144.5 57.5t149 17
q62 0 117.5 -9.5t117 -37.5t109 -72.5t85 -121t52.5 -177.5h-346q-6 53 -32.5 83t-98.5 30q-176 0 -176 -240q0 -239 178 -239z" />
    <glyph glyph-name="Ccaron" unicode="&#x10c;" horiz-adv-x="1429" 
d="M940 1802h293l-115 -301h-710l-115 301h293l178 -145zM758 322q92 0 136 42t81 152h393q-8 -133 -62.5 -237.5t-141 -168t-192 -96t-224.5 -32.5q-311 0 -494.5 195t-183.5 540t183.5 540t494.5 195q118 0 223 -32.5t191 -95.5t140.5 -166t63.5 -234h-391
q-40 107 -83.5 147.5t-133.5 40.5q-138 0 -204.5 -107t-66.5 -288q0 -116 26.5 -202t89 -139.5t155.5 -53.5z" />
    <glyph glyph-name="ccaron" unicode="&#x10d;" horiz-adv-x="1138" 
d="M723 1434h293l-115 -301h-711l-114 301h293l178 -146zM592 291q73 0 103.5 33.5t41.5 91.5h340q-14 -102 -52.5 -180.5t-88 -124.5t-113 -75t-120 -39.5t-115.5 -10.5q-77 0 -149.5 16.5t-144.5 56.5t-125.5 100t-86.5 156t-33 215q0 118 33 213.5t86 156t124.5 101
t144.5 57.5t149 17q62 0 117.5 -9.5t117 -37.5t109 -72.5t85 -121t52.5 -177.5h-346q-6 53 -32.5 83t-98.5 30q-176 0 -176 -240q0 -239 178 -239z" />
    <glyph glyph-name="Dcaron" unicode="&#x10e;" horiz-adv-x="1445" 
d="M1040 1501h-710l-115 301h293l178 -145l176 145h293zM698 1434q339 0 513.5 -184.5t174.5 -532.5t-174.5 -532.5t-513.5 -184.5h-598v1434h598zM659 340q98 0 161.5 20t102 66.5t53.5 115.5t15 175q0 211 -70 294t-262 83h-161v-754h161z" />
    <glyph glyph-name="dcaron" unicode="&#x10f;" horiz-adv-x="1742" 
d="M768 967v479h379v-1446h-379v106q-26 -44 -87 -82t-157 -38q-58 0 -119 17t-125.5 58t-115 101t-83 156t-32.5 214q0 114 32 209t82 155t114 102t124.5 59.5t116.5 17.5q91 0 159 -38t91 -70zM1370 1446h416l-252 -262h-317zM604 289q82 0 131 61.5t49 181.5
q0 115 -49.5 178.5t-130.5 63.5q-88 0 -138 -59.5t-50 -182.5q0 -124 49.5 -183.5t138.5 -59.5z" />
    <glyph glyph-name="Dcroat" unicode="&#x110;" horiz-adv-x="1529" 
d="M782 1434q339 0 513.5 -184.5t174.5 -532.5t-174.5 -532.5t-513.5 -184.5h-598v559h-143v283h143v592h598zM743 340q98 0 161.5 20t102 66.5t53.5 115.5t15 175q0 211 -70 294t-262 83h-161v-252h131v-283h-131v-219h161z" />
    <glyph glyph-name="dcroat" unicode="&#x111;" horiz-adv-x="1312" 
d="M1294 1321v-215h-147v-1106h-379v106q-26 -44 -87 -82t-157 -38q-58 0 -119 17t-125.5 58t-115 101t-83 156t-32.5 214q0 114 32 209t82 155t114 102t124.5 59.5t116.5 17.5q91 0 159 -38t91 -70v139h-283v215h283v125h379v-125h147zM604 289q82 0 131 61.5t49 181.5
q0 115 -49.5 178.5t-130.5 63.5q-88 0 -138 -59.5t-50 -182.5q0 -124 49.5 -183.5t138.5 -59.5z" />
    <glyph glyph-name="Emacron" unicode="&#x112;" 
d="M1053 1821v-215h-809v215h809zM498 340h673v-340h-1071v1434h1051v-340h-653v-215h551v-316h-551v-223z" />
    <glyph glyph-name="emacron" unicode="&#x113;" horiz-adv-x="1169" 
d="M995 1452v-215h-809v215h809zM1120 475q0 -39 -2 -57h-702q15 -82 61 -118t133 -36q70 0 111 23t51 59h324q-35 -179 -164 -269.5t-344 -90.5q-72 0 -144 17t-144.5 57.5t-127 100.5t-89 154.5t-34.5 210.5q0 118 33.5 213.5t88 156.5t126.5 102.5t146 59t151 17.5
q84 0 158 -18t142.5 -61.5t117.5 -110.5t78.5 -172t29.5 -238zM418 645h342q-3 66 -44 110t-122 44q-146 0 -176 -154z" />
    <glyph glyph-name="Edotaccent" unicode="&#x116;" 
d="M842 1821v-248h-383v248h383zM498 340h673v-340h-1071v1434h1051v-340h-653v-215h551v-316h-551v-223z" />
    <glyph glyph-name="edotaccent" unicode="&#x117;" horiz-adv-x="1169" 
d="M784 1452v-248h-383v248h383zM1120 475q0 -39 -2 -57h-702q15 -82 61 -118t133 -36q70 0 111 23t51 59h324q-35 -179 -164 -269.5t-344 -90.5q-72 0 -144 17t-144.5 57.5t-127 100.5t-89 154.5t-34.5 210.5q0 118 33.5 213.5t88 156.5t126.5 102.5t146 59t151 17.5
q84 0 158 -18t142.5 -61.5t117.5 -110.5t78.5 -172t29.5 -238zM418 645h342q-3 66 -44 110t-122 44q-146 0 -176 -154z" />
    <glyph glyph-name="Eogonek" unicode="&#x118;" 
d="M1171 0q-78 -19 -135.5 -44t-85.5 -46.5t-44.5 -47.5t-19.5 -41t-3 -32q0 -57 46.5 -66t114.5 25v-151q-48 -27 -113.5 -45t-135.5 -20.5t-130 12.5t-98.5 60t-38.5 115q0 63 36.5 117t92.5 88.5t120 54t124 21.5h-801v1434h1051v-340h-653v-215h551v-316h-551v-223h673
v-340z" />
    <glyph glyph-name="eogonek" unicode="&#x119;" horiz-adv-x="1169" 
d="M1120 475q0 -39 -2 -57h-702q15 -82 61 -118t133 -36q70 0 111 23t51 59h324q-55 -277 -332 -342h16q-78 -19 -135.5 -44t-85.5 -46.5t-44.5 -47.5t-19.5 -41t-3 -32q0 -57 47 -66t114 25v-151q-48 -27 -113.5 -45t-135.5 -20t-130 13t-98.5 60t-38.5 115q0 57 29.5 106
t77.5 83t103 56t112 31q-80 17 -149.5 54.5t-130 99t-95.5 157.5t-35 215q0 118 33.5 213.5t88 156.5t126.5 102.5t146 59t151 17.5q84 0 158 -18t142.5 -61.5t117.5 -110.5t78.5 -172t29.5 -238zM418 645h342q-3 66 -44 110t-122 44q-146 0 -176 -154z" />
    <glyph glyph-name="Ecaron" unicode="&#x11a;" 
d="M999 1501h-710l-115 301h293l178 -145l176 145h293zM498 340h673v-340h-1071v1434h1051v-340h-653v-215h551v-316h-551v-223z" />
    <glyph glyph-name="ecaron" unicode="&#x11b;" horiz-adv-x="1169" 
d="M942 1133h-711l-114 301h293l178 -146l176 146h293zM1120 475q0 -39 -2 -57h-702q15 -82 61 -118t133 -36q70 0 111 23t51 59h324q-35 -179 -164 -269.5t-344 -90.5q-72 0 -144 17t-144.5 57.5t-127 100.5t-89 154.5t-34.5 210.5q0 118 33.5 213.5t88 156.5t126.5 102.5
t146 59t151 17.5q84 0 158 -18t142.5 -61.5t117.5 -110.5t78.5 -172t29.5 -238zM418 645h342q-3 66 -44 110t-122 44q-146 0 -176 -154z" />
    <glyph glyph-name="Gbreve" unicode="&#x11e;" horiz-adv-x="1484" 
d="M889 1821h241q0 -170 -98 -258t-284 -88q-185 0 -284 88.5t-99 257.5h241q10 -58 44.5 -80.5t97.5 -22.5t97 22.5t44 80.5zM1405 817v-104q0 -183 -34 -316t-108.5 -227.5t-196.5 -141t-294 -46.5q-327 0 -514.5 194.5t-187.5 540.5q0 343 186 539t492 196q113 0 216 -31
t188 -91t142.5 -157t73.5 -219h-391q-41 85 -89.5 121.5t-129.5 36.5q-133 0 -202 -108.5t-69 -286.5q0 -84 15.5 -153t48 -124.5t89 -86.5t132.5 -31q124 0 188.5 39.5t83.5 148.5h-253v307h614z" />
    <glyph glyph-name="gbreve" unicode="&#x11f;" 
d="M563 1106q-185 0 -284 88.5t-99 257.5h242q10 -58 44 -80t97 -22t97.5 22t44.5 80h241q0 -170 -98 -258t-285 -88zM754 1075h379v-1032q0 -88 -20.5 -161t-53.5 -123t-80 -88.5t-95.5 -61t-104 -36.5t-101.5 -19t-92 -5q-178 0 -307 69t-185 183l230 148q3 -2 17.5 -16.5
t23 -21t29 -19t39.5 -18.5t50 -11.5t66 -5.5q117 0 161 43t44 143v63q-26 -43 -87 -80.5t-157 -37.5q-54 0 -113 17t-122.5 58t-112.5 101t-81 155.5t-32 212.5q0 114 31.5 209t80.5 155t111 102t120.5 59.5t111.5 17.5q93 0 161.5 -38.5t88.5 -69.5v108zM598 293
q81 0 126.5 59t45.5 180q0 116 -46 177t-126 61q-79 0 -125.5 -58.5t-46.5 -179.5t46.5 -180t125.5 -59z" />
    <glyph glyph-name="Gdotaccent" unicode="&#x120;" horiz-adv-x="1484" 
d="M559 1821h383v-248h-383v248zM1405 817v-104q0 -183 -34 -316t-108.5 -227.5t-196.5 -141t-294 -46.5q-327 0 -514.5 194.5t-187.5 540.5q0 343 186 539t492 196q113 0 216 -31t188 -91t142.5 -157t73.5 -219h-391q-41 85 -89.5 121.5t-129.5 36.5q-133 0 -202 -108.5
t-69 -286.5q0 -84 15.5 -153t48 -124.5t89 -86.5t132.5 -31q124 0 188.5 39.5t83.5 148.5h-253v307h614z" />
    <glyph glyph-name="gdotaccent" unicode="&#x121;" 
d="M758 1452v-248h-383v248h383zM754 1075h379v-1032q0 -88 -20.5 -161t-53.5 -123t-80 -88.5t-95.5 -61t-104 -36.5t-101.5 -19t-92 -5q-178 0 -307 69t-185 183l230 148q3 -2 17.5 -16.5t23 -21t29 -19t39.5 -18.5t50 -11.5t66 -5.5q117 0 161 43t44 143v63
q-26 -43 -87 -80.5t-157 -37.5q-54 0 -113 17t-122.5 58t-112.5 101t-81 155.5t-32 212.5q0 114 31.5 209t80.5 155t111 102t120.5 59.5t111.5 17.5q93 0 161.5 -38.5t88.5 -69.5v108zM598 293q81 0 126.5 59t45.5 180q0 116 -46 177t-126 61q-79 0 -125.5 -58.5
t-46.5 -179.5t46.5 -180t125.5 -59z" />
    <glyph glyph-name="Gcommaaccent" unicode="&#x122;" horiz-adv-x="1484" 
d="M1405 817v-104q0 -183 -34 -316t-108.5 -227.5t-196.5 -141t-294 -46.5q-327 0 -514.5 194.5t-187.5 540.5q0 343 186 539t492 196q113 0 216 -31t188 -91t142.5 -157t73.5 -219h-391q-41 85 -89.5 121.5t-129.5 36.5q-133 0 -202 -108.5t-69 -286.5q0 -84 15.5 -153
t48 -124.5t89 -86.5t132.5 -31q124 0 188.5 39.5t83.5 148.5h-253v307h614zM575 -862v112q77 10 114.5 65t37.5 126v65h-152v416h400v-360q0 -83 -13 -148.5t-33 -109.5t-52.5 -75.5t-64.5 -48.5t-76 -27t-79 -12.5t-82 -2.5z" />
    <glyph glyph-name="gcommaaccent" unicode="&#x123;" 
d="M727 1575v-416h-399v361q0 83 13 148.5t33 109.5t52.5 75.5t64 48.5t75.5 27t79 12.5t82 2.5v-113q-77 -10 -114.5 -65t-37.5 -126v-65h152zM754 1075h379v-1032q0 -88 -20.5 -161t-53.5 -123t-80 -88.5t-95.5 -61t-104 -36.5t-101.5 -19t-92 -5q-178 0 -307 69t-185 183
l230 148q3 -2 17.5 -16.5t23 -21t29 -19t39.5 -18.5t50 -11.5t66 -5.5q117 0 161 43t44 143v63q-26 -43 -87 -80.5t-157 -37.5q-54 0 -113 17t-122.5 58t-112.5 101t-81 155.5t-32 212.5q0 114 31.5 209t80.5 155t111 102t120.5 59.5t111.5 17.5q93 0 161.5 -38.5
t88.5 -69.5v108zM598 293q81 0 126.5 59t45.5 180q0 116 -46 177t-126 61q-79 0 -125.5 -58.5t-46.5 -179.5t46.5 -180t125.5 -59z" />
    <glyph glyph-name="Hbar" unicode="&#x126;" horiz-adv-x="1423" 
d="M926 1434h397v-1434h-397v563h-428v-563h-398v1434h398v-185h428v185zM498 885h428v53h-428v-53z" />
    <glyph glyph-name="hbar" unicode="&#x127;" horiz-adv-x="1355" 
d="M877 1075q378 0 378 -434v-641h-378v618q0 71 -43 108.5t-105 37.5q-42 0 -76.5 -17t-54 -42t-30.5 -50t-13 -45v-610h-379v997h-158v260h158v189h379v-189h139v-233q81 51 183 51zM555 877q35 68 100 120h-100v-120z" />
    <glyph glyph-name="Imacron" unicode="&#x12a;" horiz-adv-x="595" 
d="M-106 1821h808v-215h-808v215zM498 0h-398v1434h398v-1434z" />
    <glyph glyph-name="imacron" unicode="&#x12b;" horiz-adv-x="579" 
d="M-115 1452h809v-215h-809v215zM100 1065h379v-1065h-379v1065z" />
    <glyph glyph-name="Iogonek" unicode="&#x12e;" horiz-adv-x="595" 
d="M211 -211q0 -57 47.5 -66t114.5 25v-151q-48 -27 -113.5 -45t-135.5 -20.5t-130 12.5t-98.5 60t-38.5 115q0 63 36 117t92.5 88.5t120 54t123.5 21.5h-129v1434h398v-1434h2q-66 -16 -117 -35.5t-81 -40t-49.5 -39t-28 -38.5t-11 -32t-2.5 -26z" />
    <glyph glyph-name="iogonek" unicode="&#x12f;" horiz-adv-x="579" 
d="M100 1452h383v-248h-383v248zM100 0v1065h379v-1065h-108q-66 -16 -117 -35.5t-81 -40t-49.5 -39t-28 -38.5t-11 -32t-2.5 -26q0 -57 47 -66t115 25v-151q-48 -27 -113.5 -45t-135.5 -20.5t-130 12.5t-98.5 60t-38.5 115q0 63 36 117t92.5 88.5t120 54t123.5 21.5z" />
    <glyph glyph-name="Idotaccent" unicode="&#x130;" horiz-adv-x="595" 
d="M109 1821h383v-248h-383v248zM498 0h-398v1434h398v-1434z" />
    <glyph glyph-name="dotlessi" unicode="&#x131;" horiz-adv-x="579" 
d="M100 1065h379v-1065h-379v1065z" />
    <glyph glyph-name="IJ" unicode="&#x132;" horiz-adv-x="1705" 
d="M498 0h-398v1434h398v-1434zM829 428q56 -49 92 -68q65 -34 142 -34q34 0 58.5 6.5t49 24.5t37.5 57t13 98v922h395v-942q0 -131 -43 -230.5t-119 -158.5t-173 -88t-212 -29q-143 0 -257.5 56.5t-186.5 139.5z" />
    <glyph glyph-name="ij" unicode="&#x133;" horiz-adv-x="1148" 
d="M100 1452h379v-270h-379v270zM670 1452h379v-270h-379v270zM100 1065h379v-1065h-379v1065zM438 -115q76 -16 127 -16q105 0 105 113v1083h379v-1155q0 -177 -99 -269t-276 -92q-148 0 -236 33v303z" />
    <glyph glyph-name="Kcommaaccent" unicode="&#x136;" horiz-adv-x="1521" 
d="M901 797l580 -797h-434l-353 506l2 43l-198 -242v-307h-398v1434h398v-592l477 592h450zM551 -494v416h399v-360q0 -83 -13 -148.5t-33 -109.5t-52.5 -75.5t-64 -48.5t-75.5 -27t-79 -12.5t-82 -2.5v112q77 10 114 65t37 126v65h-151z" />
    <glyph glyph-name="kcommaaccent" unicode="&#x137;" horiz-adv-x="1243" 
d="M479 340v-340h-379v1446h379v-674l277 293h424l-426 -442l481 -623h-408l-305 383zM465 -494v416h399v-360q0 -83 -13 -148.5t-33 -109.5t-52.5 -75.5t-64 -48.5t-75.5 -27t-79 -12.5t-82 -2.5v112q77 10 114 65t37 126v65h-151z" />
    <glyph glyph-name="Lacute" unicode="&#x139;" horiz-adv-x="1153" 
d="M127 1554h317l252 263h-415zM498 340h606v-340h-1004v1434h398v-1094z" />
    <glyph glyph-name="lacute" unicode="&#x13a;" horiz-adv-x="579" 
d="M119 1571h317l252 262h-416zM100 1446h379v-1446h-379v1446z" />
    <glyph glyph-name="Lcommaaccent" unicode="&#x13b;" horiz-adv-x="1153" 
d="M498 340h606v-340h-1004v1434h398v-1094zM379 -872v112q77 10 114 65t37 126v65h-151v416h399v-361q0 -83 -13 -148.5t-33 -109t-52.5 -75.5t-64 -49t-76 -26.5t-79 -12t-81.5 -2.5z" />
    <glyph glyph-name="lcommaaccent" unicode="&#x13c;" horiz-adv-x="579" 
d="M100 1446h379v-1446h-379v1446zM92 -862v112q77 10 114.5 65t37.5 126v65h-152v416h400v-360q0 -83 -13 -148.5t-33 -109.5t-52.5 -75.5t-64.5 -48.5t-76 -27t-79 -12.5t-82 -2.5z" />
    <glyph glyph-name="Lcaron" unicode="&#x13d;" horiz-adv-x="1153" 
d="M498 340h606v-340h-1004v1434h398v-1094zM655 649v113q77 10 114.5 64.5t37.5 125.5v66h-152v416h400v-361q0 -83 -13 -148.5t-33 -109.5t-52.5 -75.5t-64.5 -48.5t-76 -27t-79 -12.5t-82 -2.5z" />
    <glyph glyph-name="lcaron" unicode="&#x13e;" horiz-adv-x="1042" 
d="M100 1446h379v-1446h-379v1446zM561 649v113q77 10 114.5 64.5t37.5 125.5v66h-152v416h400v-361q0 -83 -13 -148.5t-33 -109.5t-52.5 -75.5t-64.5 -48.5t-76 -27t-79 -12.5t-82 -2.5z" />
    <glyph glyph-name="Lslash" unicode="&#x141;" horiz-adv-x="1179" 
d="M526 340h607v-340h-1004v340l-111 -117v379l111 117v715h397v-295l103 108h2v-379l-105 -110v-418z" />
    <glyph glyph-name="lslash" unicode="&#x142;" horiz-adv-x="612" 
d="M573 1204v-364l-61 -66v-774h-379v375l-94 -99v367l94 98v705h379v-305l59 63h2z" />
    <glyph glyph-name="Nacute" unicode="&#x143;" horiz-adv-x="1464" 
d="M563 1559h318l252 262h-416zM1364 1434v-1434h-410l-448 764h-8v-764h-398v1434h394l464 -791h9v791h397z" />
    <glyph glyph-name="nacute" unicode="&#x144;" horiz-adv-x="1280" 
d="M1038 1452l-252 -262h-317l154 262h415zM801 1075q85 0 152 -23t119 -72.5t80 -135t28 -203.5v-641h-379v618q0 71 -43 108.5t-105 37.5q-42 0 -76.5 -17t-54 -42t-30.5 -50t-13 -45v-610h-379v1065h379v-188q16 31 41.5 62t64.5 63.5t95.5 52.5t120.5 20z" />
    <glyph glyph-name="Ncommaaccent" unicode="&#x145;" horiz-adv-x="1464" 
d="M1364 1434v-1434h-410l-448 764h-8v-764h-398v1434h394l464 -791h9v791h397zM537 -862v112q77 10 114 65t37 126v65h-151v416h399v-360q0 -83 -13 -148.5t-33 -109.5t-52.5 -75.5t-64 -48.5t-75.5 -27t-79 -12.5t-82 -2.5z" />
    <glyph glyph-name="ncommaaccent" unicode="&#x146;" horiz-adv-x="1280" 
d="M801 1075q85 0 152 -23t119 -72.5t80 -135t28 -203.5v-641h-379v618q0 71 -43 108.5t-105 37.5q-42 0 -76.5 -17t-54 -42t-30.5 -50t-13 -45v-610h-379v1065h379v-188q16 31 41.5 62t64.5 63.5t95.5 52.5t120.5 20zM442 -494v416h400v-360q0 -83 -13 -148.5t-33 -109.5
t-52.5 -75.5t-64.5 -48.5t-76 -27t-79 -12.5t-82 -2.5v112q77 10 114.5 65t37.5 126v65h-152z" />
    <glyph glyph-name="Ncaron" unicode="&#x147;" horiz-adv-x="1464" 
d="M907 1802h293l-115 -301h-710l-115 301h293l178 -145zM1364 1434v-1434h-410l-448 764h-8v-764h-398v1434h394l464 -791h9v791h397z" />
    <glyph glyph-name="ncaron" unicode="&#x148;" horiz-adv-x="1280" 
d="M991 1133h-710l-115 301h293l178 -146l176 146h293zM801 1075q85 0 152 -23t119 -72.5t80 -135t28 -203.5v-641h-379v618q0 71 -43 108.5t-105 37.5q-42 0 -76.5 -17t-54 -42t-30.5 -50t-13 -45v-610h-379v1065h379v-188q16 31 41.5 62t64.5 63.5t95.5 52.5t120.5 20z
" />
    <glyph glyph-name="Eng" unicode="&#x14a;" horiz-adv-x="1464" 
d="M967 1434h397v-1379q0 -105 -28.5 -190.5t-78.5 -143.5t-119.5 -97t-149.5 -57t-171 -18q-145 0 -258.5 56.5t-187.5 140.5l204 246q1 -1 11.5 -10.5t14 -12.5t15.5 -12.5t19.5 -14t21 -13t24.5 -13t27 -10.5t31 -9t33 -5.5t37 -2.5q56 0 94.5 22t54.5 85l-452 768h-8
v-764h-398v1434h394l464 -793h9v793z" />
    <glyph glyph-name="eng" unicode="&#x14b;" horiz-adv-x="1280" 
d="M801 1075q85 0 152 -23t119 -72.5t80 -135t28 -203.5v-731q0 -176 -99.5 -268.5t-275.5 -92.5q-148 0 -236 33v303q74 -16 127 -16q105 0 105 113v636q0 71 -43 108.5t-105 37.5q-42 0 -76.5 -17t-54 -42t-30.5 -50t-13 -45v-610h-379v1065h379v-188q16 31 41.5 62
t64.5 63.5t95.5 52.5t120.5 20z" />
    <glyph glyph-name="Omacron" unicode="&#x14c;" horiz-adv-x="1544" 
d="M369 1821h809v-215h-809v215zM772 1452q324 0 513.5 -197.5t189.5 -537.5q0 -336 -190 -535.5t-513 -199.5t-512.5 199.5t-189.5 535.5q0 340 189 537.5t513 197.5zM772 322q140 0 212.5 109.5t72.5 285.5q0 180 -72 287.5t-213 107.5t-213 -107.5t-72 -287.5
q0 -176 72.5 -285.5t212.5 -109.5z" />
    <glyph glyph-name="omacron" unicode="&#x14d;" horiz-adv-x="1193" 
d="M195 1452h809v-215h-809v215zM598 1075q57 0 116.5 -12.5t122 -38t117 -69.5t98 -102.5t68.5 -142t25 -182.5q0 -116 -36 -210.5t-93 -155t-131 -101.5t-146 -58t-141 -17t-141 17t-146.5 58t-131.5 101.5t-93.5 155t-36.5 210.5q0 118 36.5 214t93.5 156.5t131.5 101.5
t146 58t141.5 17zM782 528q0 127 -51 186.5t-133 59.5t-134 -59.5t-52 -186.5q0 -119 52.5 -179t133.5 -60t132.5 60t51.5 179z" />
    <glyph glyph-name="Ohungarumlaut" unicode="&#x150;" horiz-adv-x="1544" 
d="M512 1559h317l252 262h-415zM993 1559h318l252 262h-416zM772 1452q324 0 513.5 -197.5t189.5 -537.5q0 -336 -190 -535.5t-513 -199.5t-512.5 199.5t-189.5 535.5q0 340 189 537.5t513 197.5zM772 322q140 0 212.5 109.5t72.5 285.5q0 180 -72 287.5t-213 107.5
t-213 -107.5t-72 -287.5q0 -176 72.5 -285.5t212.5 -109.5z" />
    <glyph glyph-name="ohungarumlaut" unicode="&#x151;" horiz-adv-x="1193" 
d="M338 1190h317l252 262h-415zM819 1190h318l252 262h-416zM598 1075q57 0 116.5 -12.5t122 -38t117 -69.5t98 -102.5t68.5 -142t25 -182.5q0 -116 -36 -210.5t-93 -155t-131 -101.5t-146 -58t-141 -17t-141 17t-146.5 58t-131.5 101.5t-93.5 155t-36.5 210.5
q0 118 36.5 214t93.5 156.5t131.5 101.5t146 58t141.5 17zM782 528q0 127 -51 186.5t-133 59.5t-134 -59.5t-52 -186.5q0 -119 52.5 -179t133.5 -60t132.5 60t51.5 179z" />
    <glyph glyph-name="OE" unicode="&#x152;" horiz-adv-x="2205" 
d="M1470 340h674v-340h-1071v37q-131 -55 -301 -55q-323 0 -512.5 199.5t-189.5 535.5q0 340 189 537.5t513 197.5q170 0 301 -55v37h1051v-340h-654v-215h551v-316h-551v-223zM772 322q140 0 212.5 109.5t72.5 285.5q0 180 -72 287.5t-213 107.5t-213 -107.5t-72 -287.5
q0 -176 72.5 -285.5t212.5 -109.5z" />
    <glyph glyph-name="oe" unicode="&#x153;" horiz-adv-x="1902" 
d="M1853 475q0 -39 -2 -57h-702q15 -82 61 -118t133 -36q70 0 111 23t51 59h324q-35 -179 -164 -269.5t-344 -90.5q-95 0 -190.5 30.5t-172.5 94.5q-79 -63 -175 -94t-185 -31q-69 0 -141 17t-146.5 58t-131.5 101.5t-93.5 155t-36.5 210.5q0 118 36.5 214t93.5 156.5
t131.5 101.5t146 58t141.5 17q91 0 188 -31t175 -94q74 63 171 94t195 31q84 0 158 -18t142.5 -61.5t117.5 -110.5t78.5 -172t29.5 -238zM1151 645h342q-3 66 -44 110t-122 44q-146 0 -176 -154zM598 289q81 0 132.5 60t51.5 179q0 127 -51 186.5t-133 59.5t-134 -59.5
t-52 -186.5q0 -119 52.5 -179t133.5 -60z" />
    <glyph glyph-name="Racute" unicode="&#x154;" horiz-adv-x="1423" 
d="M975 1821l-252 -262h-317l153 262h416zM1335 240q0 -90 7.5 -138t33.5 -102h-397q-26 54 -33.5 102t-7.5 138v86q0 62 -42 108.5t-122 46.5h-276v-481h-398v1434h652q146 0 256 -35.5t175.5 -97.5t97.5 -140.5t32 -171.5q0 -63 -15 -114.5t-42.5 -89.5t-52 -63.5
t-58.5 -54.5q-7 -5 -10 -8q110 -65 155 -140.5t45 -178.5v-100zM719 793q113 0 148.5 35t35.5 124q0 70 -42.5 105t-117.5 35h-245v-299h221z" />
    <glyph glyph-name="racute" unicode="&#x155;" horiz-adv-x="907" 
d="M893 1452l-252 -262h-317l153 262h416zM479 848q23 107 95 167t196 60q51 0 98 -8v-332q-47 2 -69 2q-156 0 -231 -51t-89 -147v-539h-379v1065h379v-217z" />
    <glyph glyph-name="Rcommaaccent" unicode="&#x156;" horiz-adv-x="1423" 
d="M1335 240q0 -90 7.5 -138t33.5 -102h-397q-26 54 -33.5 102t-7.5 138v86q0 62 -42 108.5t-122 46.5h-276v-481h-398v1434h652q146 0 256 -35.5t175.5 -97.5t97.5 -140.5t32 -171.5q0 -63 -15 -114.5t-42.5 -89.5t-52 -63.5t-58.5 -54.5q-7 -5 -10 -8q110 -65 155 -140.5
t45 -178.5v-100zM719 793q113 0 148.5 35t35.5 124q0 70 -42.5 105t-117.5 35h-245v-299h221zM379 -494v416h399v-360q0 -83 -13 -148.5t-33 -109.5t-52.5 -75.5t-64 -48.5t-75.5 -27t-79 -12.5t-82 -2.5v112q77 10 114 65t37 126v65h-151z" />
    <glyph glyph-name="rcommaaccent" unicode="&#x157;" horiz-adv-x="907" 
d="M770 1075q51 0 98 -8v-332q-47 2 -69 2q-156 0 -231 -51t-89 -147v-539h-379v1065h379v-217q23 107 95 167t196 60zM98 -494v416h400v-360q0 -83 -13 -148.5t-33 -109.5t-52.5 -75.5t-64.5 -48.5t-76 -27t-79 -12.5t-82 -2.5v112q77 10 114.5 65t37.5 126v65h-152z" />
    <glyph glyph-name="Rcaron" unicode="&#x158;" horiz-adv-x="1423" 
d="M928 1501h-711l-115 301h293l178 -145l177 145h292zM1335 240q0 -90 7.5 -138t33.5 -102h-397q-26 54 -33.5 102t-7.5 138v86q0 62 -42 108.5t-122 46.5h-276v-481h-398v1434h652q146 0 256 -35.5t175.5 -97.5t97.5 -140.5t32 -171.5q0 -63 -15 -114.5t-42.5 -89.5
t-52 -63.5t-58.5 -54.5q-7 -5 -10 -8q110 -65 155 -140.5t45 -178.5v-100zM719 793q113 0 148.5 35t35.5 124q0 70 -42.5 105t-117.5 35h-245v-299h221z" />
    <glyph glyph-name="rcaron" unicode="&#x159;" horiz-adv-x="907" 
d="M846 1133h-711l-115 301h293l179 -146l176 146h293zM479 848q23 107 95 167t196 60q51 0 98 -8v-332q-47 2 -69 2q-156 0 -231 -51t-89 -147v-539h-379v1065h379v-217z" />
    <glyph glyph-name="Sacute" unicode="&#x15a;" horiz-adv-x="1378" 
d="M504 1559h317l252 262h-416zM844 858q262 -53 364.5 -151t102.5 -279q0 -110 -51 -197t-138 -140.5t-197.5 -81t-236.5 -27.5q-133 0 -242.5 32.5t-192 95.5t-130.5 162.5t-53 227.5h409q16 -91 66 -142t149 -51q87 0 146 38t59 87q0 54 -35 81.5t-137 45.5l-174 31
q-79 15 -139.5 33.5t-122 52t-101 78.5t-64 113.5t-24.5 156.5q0 131 72 228.5t199 148.5t291 51q127 0 233 -28.5t187.5 -85.5t130.5 -148t57 -211h-410q-8 83 -59 116t-139 33q-75 0 -115.5 -40t-40.5 -76q0 -18 2.5 -31t11 -30.5t30 -29.5t54.5 -18z" />
    <glyph glyph-name="sacute" unicode="&#x15b;" horiz-adv-x="1064" 
d="M360 1190h318l252 262h-416zM666 702q-10 54 -42.5 75.5t-91.5 21.5q-108 0 -108 -68q0 -47 70 -61l200 -43q142 -32 186 -51q99 -41 129 -129q17 -49 17 -117q0 -167 -135.5 -255.5t-364.5 -88.5q-219 0 -341.5 94t-145.5 276h346q13 -46 45.5 -71t99.5 -25
q117 0 117 74q0 22 -13.5 35.5t-51.5 19.5l-164 35q-190 39 -267 120t-77 199q0 157 118 244.5t336 87.5q424 0 478 -373h-340z" />
    <glyph glyph-name="Scedilla" unicode="&#x15e;" horiz-adv-x="1378" 
d="M1311 428q0 -98 -40 -177.5t-110 -132.5t-161 -86t-199 -44l-111 -115q90 -6 150.5 -57.5t60.5 -141.5q0 -50 -16.5 -88t-50 -62t-73.5 -40t-98 -24t-111.5 -10.5t-125.5 -2.5v147q97 0 143.5 15.5t46.5 54.5q0 34 -33 44.5t-67 -15.5l-20 -23l-88 144l100 184
q-197 40 -313 167t-125 335h409q16 -91 66 -142t149 -51q87 0 146 38t59 87q0 54 -35 81.5t-137 45.5l-174 31q-79 15 -139.5 33.5t-122 52t-101 78.5t-64 113.5t-24.5 156.5q0 131 72 228.5t199 148.5t291 51q127 0 233 -28.5t187.5 -85.5t130.5 -148t57 -211h-410
q-8 83 -59 116t-139 33q-75 0 -115.5 -40t-40.5 -76q0 -18 2.5 -31t11 -30.5t30 -29.5t54.5 -18l238 -45q262 -53 364.5 -151t102.5 -279z" />
    <glyph glyph-name="scedilla" unicode="&#x15f;" horiz-adv-x="1064" 
d="M1026 330q0 -138 -93 -222.5t-259 -111.5l-117 -121q90 -6 150.5 -57.5t60.5 -141.5q0 -50 -16.5 -88t-50 -62t-73.5 -40t-98 -24t-111.5 -10.5t-125.5 -2.5v148q97 0 143.5 15t46.5 54q0 34 -33 44.5t-67 -15.5l-21 -23l-88 144l101 184q-298 58 -336 356h346
q13 -46 45.5 -71t99.5 -25q117 0 117 74q0 22 -13.5 35.5t-51.5 19.5l-164 35q-190 39 -267 120t-77 199q0 157 118 244.5t336 87.5q424 0 478 -373h-340q-10 54 -42.5 75.5t-91.5 21.5q-108 0 -108 -68q0 -47 70 -61l200 -43q142 -32 186 -51q99 -41 129 -129
q17 -49 17 -117z" />
    <glyph glyph-name="Scaron" unicode="&#x160;" horiz-adv-x="1378" 
d="M848 1802h293l-115 -301h-711l-114 301h293l178 -145zM844 858q262 -53 364.5 -151t102.5 -279q0 -110 -51 -197t-138 -140.5t-197.5 -81t-236.5 -27.5q-133 0 -242.5 32.5t-192 95.5t-130.5 162.5t-53 227.5h409q16 -91 66 -142t149 -51q87 0 146 38t59 87
q0 54 -35 81.5t-137 45.5l-174 31q-79 15 -139.5 33.5t-122 52t-101 78.5t-64 113.5t-24.5 156.5q0 131 72 228.5t199 148.5t291 51q127 0 233 -28.5t187.5 -85.5t130.5 -148t57 -211h-410q-8 83 -59 116t-139 33q-75 0 -115.5 -40t-40.5 -76q0 -18 2.5 -31t11 -30.5
t30 -29.5t54.5 -18z" />
    <glyph glyph-name="scaron" unicode="&#x161;" horiz-adv-x="1064" 
d="M705 1434h292l-114 -301h-711l-115 301h293l178 -146zM666 702q-10 54 -42.5 75.5t-91.5 21.5q-108 0 -108 -68q0 -47 70 -61l200 -43q142 -32 186 -51q99 -41 129 -129q17 -49 17 -117q0 -167 -135.5 -255.5t-364.5 -88.5q-219 0 -341.5 94t-145.5 276h346
q13 -46 45.5 -71t99.5 -25q117 0 117 74q0 22 -13.5 35.5t-51.5 19.5l-164 35q-190 39 -267 120t-77 199q0 157 118 244.5t336 87.5q424 0 478 -373h-340z" />
    <glyph glyph-name="uni0162" unicode="&#x162;" horiz-adv-x="1255" 
d="M1217 1434v-340h-392v-1094h-90l-125 -129q90 -6 150.5 -57.5t60.5 -141.5q0 -50 -16.5 -88t-50 -62t-73.5 -40t-98 -24t-111.5 -10.5t-125.5 -2.5v147q97 0 144 15.5t47 54.5q0 34 -33.5 44.5t-67.5 -15.5l-20 -23l-88 144l102 188v1094h-391v340h1178z" />
    <glyph glyph-name="uni0163" unicode="&#x163;" horiz-adv-x="854" 
d="M596 -127q90 -6 150.5 -57.5t60.5 -141.5q0 -50 -16.5 -88t-50 -62t-73.5 -40t-98 -24t-111.5 -10.5t-125.5 -2.5v147q97 0 143.5 15.5t46.5 54.5q0 34 -33 44.5t-67 -15.5l-21 -23l-88 144l103 188h22q-114 25 -175.5 106.5t-61.5 245.5v418h-183v293h183v266h379v-266
h221v-293h-221v-375q0 -57 27.5 -87.5t92.5 -30.5q38 0 105 12v-268q-56 -20 -88 -25z" />
    <glyph glyph-name="Tcaron" unicode="&#x164;" horiz-adv-x="1255" 
d="M981 1501h-711l-114 301h293l178 -145l176 145h293zM1217 1434v-340h-392v-1094h-395v1094h-391v340h1178z" />
    <glyph glyph-name="tcaron" unicode="&#x165;" horiz-adv-x="874" 
d="M780 1446h416l-252 -262h-317zM580 397q0 -57 27.5 -87.5t92.5 -30.5q38 0 105 12v-268q-87 -35 -209 -35q-72 0 -127 8t-107.5 32t-86 63.5t-54 106t-20.5 156.5v418h-183v293h183v266h379v-266h221v-293h-221v-375z" />
    <glyph glyph-name="Tbar" unicode="&#x166;" horiz-adv-x="1255" 
d="M1217 1094h-392v-121h209v-215h-209v-758h-395v758h-205v215h205v121h-391v340h1178v-340z" />
    <glyph glyph-name="tbar" unicode="&#x167;" horiz-adv-x="854" 
d="M700 279q38 0 105 12v-268q-87 -35 -209 -35q-72 0 -127 8t-107.5 32t-86 63.5t-54 106t-20.5 156.5v29h-183v301h183v88h-183v293h183v266h379v-266h221v-293h-221v-88h221v-301h-221q7 -104 120 -104z" />
    <glyph glyph-name="Utilde" unicode="&#x168;" horiz-adv-x="1427" 
d="M1018 1802h139q0 -131 -68.5 -217t-207.5 -86q-57 0 -118 26.5t-104.5 57.5t-101.5 57.5t-111 26.5q-25 0 -48.5 -12t-22.5 -37h-139q0 132 69 217.5t207 85.5q57 0 117.5 -26t104 -57t101.5 -57t111 -26q26 0 49.5 11t22.5 36zM1329 561q0 -183 -79.5 -315.5
t-216.5 -198t-318 -65.5q-135 0 -248 38t-194.5 110.5t-127 182.5t-45.5 248v873h398v-856q0 -256 217 -256t217 256v856h397v-873z" />
    <glyph glyph-name="utilde" unicode="&#x169;" horiz-adv-x="1269" 
d="M397 1298q-25 0 -48.5 -12t-22.5 -37h-140q0 131 69.5 217t207.5 86q57 0 117.5 -26t104 -57t101.5 -57t111 -26q25 0 49 11.5t23 36.5h139q0 -131 -69 -217.5t-208 -86.5q-47 0 -94.5 17.5t-87.5 42t-79 49t-84 42t-89 17.5zM791 1065h378v-1065h-378v186
q-16 -31 -42 -62.5t-65 -64t-95.5 -53t-119.5 -20.5q-177 0 -278 104t-101 332v643h379v-619q0 -72 42 -110.5t103 -38.5q43 0 78 17t55 43t31 51.5t13 46.5v610z" />
    <glyph glyph-name="Umacron" unicode="&#x16a;" horiz-adv-x="1427" 
d="M276 1821h809v-215h-809v215zM1329 561q0 -183 -79.5 -315.5t-216.5 -198t-318 -65.5q-135 0 -248 38t-194.5 110.5t-127 182.5t-45.5 248v873h398v-856q0 -256 217 -256t217 256v856h397v-873z" />
    <glyph glyph-name="umacron" unicode="&#x16b;" horiz-adv-x="1269" 
d="M1036 1452v-215h-809v215h809zM791 1065h378v-1065h-378v186q-16 -31 -42 -62.5t-65 -64t-95.5 -53t-119.5 -20.5q-177 0 -278 104t-101 332v643h379v-619q0 -72 42 -110.5t103 -38.5q43 0 78 17t55 43t31 51.5t13 46.5v610z" />
    <glyph glyph-name="Ubreve" unicode="&#x16c;" horiz-adv-x="1427" 
d="M821 1821h242q0 -170 -98 -258t-285 -88q-185 0 -284 88.5t-99 257.5h242q10 -58 44 -80.5t97 -22.5t97 22.5t44 80.5zM1329 561q0 -183 -79.5 -315.5t-216.5 -198t-318 -65.5q-135 0 -248 38t-194.5 110.5t-127 182.5t-45.5 248v873h398v-856q0 -256 217 -256t217 256
v856h397v-873z" />
    <glyph glyph-name="ubreve" unicode="&#x16d;" horiz-adv-x="1269" 
d="M631 1106q-185 0 -284 88.5t-99 257.5h241q10 -58 44.5 -80t97.5 -22t97 22t44 80h242q0 -170 -98 -258t-285 -88zM791 1065h378v-1065h-378v186q-16 -31 -42 -62.5t-65 -64t-95.5 -53t-119.5 -20.5q-177 0 -278 104t-101 332v643h379v-619q0 -72 42 -110.5t103 -38.5
q43 0 78 17t55 43t31 51.5t13 46.5v610z" />
    <glyph glyph-name="Uring" unicode="&#x16e;" horiz-adv-x="1427" 
d="M678 1554q-89 0 -155 65t-66 157t66 156.5t155 64.5t155 -64.5t66 -156.5t-66 -157t-155 -65zM678 1710q26 0 44.5 17.5t18.5 48.5t-18.5 48t-44.5 17q-25 0 -44.5 -17.5t-19.5 -47.5t19.5 -48t44.5 -18zM1329 561q0 -183 -79.5 -315.5t-216.5 -198t-318 -65.5
q-135 0 -248 38t-194.5 110.5t-127 182.5t-45.5 248v873h398v-856q0 -256 217 -256t217 256v856h397v-873z" />
    <glyph glyph-name="uring" unicode="&#x16f;" horiz-adv-x="1269" 
d="M629 1186q-89 0 -155 64.5t-66 156.5t66 156.5t155 64.5t155 -64.5t66 -156.5t-66 -156.5t-155 -64.5zM629 1473q-25 0 -44.5 -18t-19.5 -48t19.5 -48t44.5 -18q26 0 44.5 17.5t18.5 48.5t-18.5 48.5t-44.5 17.5zM791 1065h378v-1065h-378v186q-16 -31 -42 -62.5t-65 -64
t-95.5 -53t-119.5 -20.5q-177 0 -278 104t-101 332v643h379v-619q0 -72 42 -110.5t103 -38.5q43 0 78 17t55 43t31 51.5t13 46.5v610z" />
    <glyph glyph-name="Uhungarumlaut" unicode="&#x170;" horiz-adv-x="1427" 
d="M420 1559h317l252 262h-416zM901 1559h318l251 262h-415zM1329 561q0 -183 -79.5 -315.5t-216.5 -198t-318 -65.5q-135 0 -248 38t-194.5 110.5t-127 182.5t-45.5 248v873h398v-856q0 -256 217 -256t217 256v856h397v-873z" />
    <glyph glyph-name="uhungarumlaut" unicode="&#x171;" horiz-adv-x="1269" 
d="M940 1452l-252 -262h-317l153 262h416zM1006 1452h415l-252 -262h-317zM791 455v610h378v-1065h-378v186q-16 -31 -42 -62.5t-65 -64t-95.5 -53t-119.5 -20.5q-177 0 -278 104t-101 332v643h379v-619q0 -72 42 -110.5t103 -38.5q43 0 78 17t55 43t31 51.5t13 46.5z" />
    <glyph glyph-name="Uogonek" unicode="&#x172;" horiz-adv-x="1427" 
d="M932 1434h397v-873q0 -227 -117.5 -372t-320.5 -189h8q-66 -16 -117 -35.5t-81 -40t-49.5 -39t-28 -38.5t-11 -32t-2.5 -26q0 -57 47 -66t115 25v-151q-48 -27 -113.5 -45t-135.5 -20.5t-130 12.5t-98.5 60t-38.5 115q0 55 28 104t74 82.5t99.5 56t109.5 32.5
q-216 38 -341.5 184.5t-125.5 382.5v873h398v-856q0 -256 217 -256t217 256v856z" />
    <glyph glyph-name="uogonek" unicode="&#x173;" horiz-adv-x="1269" 
d="M791 1065h378v-1065h-108q-66 -16 -117 -35.5t-81 -40t-49.5 -39t-28 -38.5t-11 -32t-2.5 -26q0 -57 47 -66t115 25v-151q-48 -27 -113.5 -45t-135.5 -20.5t-130 12.5t-98.5 60t-38.5 115q0 63 36.5 117t92.5 88.5t120 54t124 21.5v186q-16 -31 -42 -62.5t-65 -64
t-95.5 -53t-119.5 -20.5q-177 0 -278 104t-101 332v643h379v-619q0 -72 42 -110.5t103 -38.5q43 0 78 17t55 43t31 51.5t13 46.5v610z" />
    <glyph glyph-name="Wcircumflex" unicode="&#x174;" horiz-adv-x="2144" 
d="M1249 1520l-176 145l-178 -145h-293l115 301h710l115 -301h-293zM1692 1434h413l-407 -1434h-363l-262 817l-264 -817h-363l-407 1434h414l198 -828l234 828h377l231 -828z" />
    <glyph glyph-name="wcircumflex" unicode="&#x175;" horiz-adv-x="1681" 
d="M1014 1151l-176 145l-179 -145h-292l114 301h711l115 -301h-293zM1653 1065l-291 -1065h-318l-204 621l-201 -621h-320l-290 1065h381l120 -582l162 582h297l160 -582l123 582h381z" />
    <glyph glyph-name="Ycircumflex" unicode="&#x176;" horiz-adv-x="1507" 
d="M930 1520l-176 145l-179 -145h-292l114 301h711l115 -301h-293zM958 506v-506h-409v506l-510 928h446l269 -547l270 547h444z" />
    <glyph glyph-name="ycircumflex" unicode="&#x177;" 
d="M784 1151l-176 145l-178 -145h-293l115 301h711l114 -301h-293zM821 1065h383l-424 -1014q-59 -147 -114.5 -237t-129.5 -146.5t-165.5 -74t-220.5 -5.5v318q94 -9 155.5 11t78.5 40t37 57q3 6 5 9q13 28 -22 118q-1 4 -2 6.5t-2.5 6t-2.5 6.5l-368 905h391l192 -576z
" />
    <glyph glyph-name="Ydieresis" unicode="&#x178;" horiz-adv-x="1507" 
d="M309 1821h383v-248h-383v248zM815 1821h383v-248h-383v248zM958 506v-506h-409v506l-510 928h446l269 -547l270 547h444z" />
    <glyph glyph-name="Zacute" unicode="&#x179;" horiz-adv-x="1290" 
d="M504 1559h317l252 262h-416zM1208 340v-340h-1126v297l657 797h-645v340h1106l2 -297l-663 -797h669z" />
    <glyph glyph-name="zacute" unicode="&#x17a;" horiz-adv-x="1058" 
d="M342 1190h317l252 262h-415zM535 315h442v-315h-895v315l442 435h-422v315h875v-315z" />
    <glyph glyph-name="Zdotaccent" unicode="&#x17b;" horiz-adv-x="1290" 
d="M485 1821h383v-248h-383v248zM1208 340v-340h-1126v297l657 797h-645v340h1106l2 -297l-663 -797h669z" />
    <glyph glyph-name="zdotaccent" unicode="&#x17c;" horiz-adv-x="1058" 
d="M324 1452h383v-248h-383v248zM535 315h442v-315h-895v315l442 435h-422v315h875v-315z" />
    <glyph glyph-name="Zcaron" unicode="&#x17d;" horiz-adv-x="1290" 
d="M848 1802h293l-115 -301h-711l-114 301h293l178 -145zM1208 340v-340h-1126v297l657 797h-645v340h1106l2 -297l-663 -797h669z" />
    <glyph glyph-name="zcaron" unicode="&#x17e;" horiz-adv-x="1058" 
d="M686 1434h293l-115 -301h-710l-115 301h293l178 -146zM535 315h442v-315h-895v315l442 435h-422v315h875v-315z" />
    <glyph glyph-name="florin" unicode="&#x192;" horiz-adv-x="665" 
d="M625 1094q-34 0 -56 -14.5t-31.5 -44t-12.5 -56t-3 -66.5v-55h103v-323h-103v-521q0 -82 -12.5 -142.5t-44.5 -111.5t-86.5 -82.5t-138.5 -49t-199 -17.5v321q21 0 38 5t27.5 11.5t18 20.5t11.5 23t5.5 29t2 29.5t0 32.5t-0.5 30v422h-125v323h125v156q0 70 10.5 124
t41.5 108.5t83 89.5t140 57t207 22v-321z" />
    <glyph glyph-name="uni01CD" unicode="&#x1cd;" horiz-adv-x="1525" 
d="M1114 1501h-711l-114 301h293l178 -145l176 145h293zM1059 0l-66 209h-461l-65 -209h-428l545 1434h358l545 -1434h-428zM621 498h282l-141 452z" />
    <glyph glyph-name="uni01CE" unicode="&#x1ce;" horiz-adv-x="1177" 
d="M948 1133h-710l-115 301h293l178 -146l176 146h293zM1073 330q0 -46 21 -73t55 -30v-213q-47 -22 -131 -22q-119 0 -200 48.5t-81 131.5v-31l-7 -11q-7 -10 -17 -23t-27 -30t-42 -32.5t-56 -29t-75.5 -21.5t-94.5 -8q-71 0 -133.5 18t-117 55t-86.5 104t-32 156
q0 40 7.5 74.5t18.5 60.5t30.5 48t38 37.5t46.5 29.5t49.5 22t54.5 16.5t53.5 12.5t54.5 10.5t51 10.5q30 6 76.5 14.5t69.5 13t50 13t45 20.5q-4 101 -114 101q-104 0 -119 -98h-357q27 370 478 370q183 0 291 -51t154 -151.5t46 -266.5v-276zM694 334v151
q-30 -15 -55 -24.5t-39 -13.5t-41 -11t-45 -12q-44 -15 -65 -36t-21 -52q0 -32 23 -58t75 -26q63 0 105.5 26.5t62.5 55.5z" />
    <glyph glyph-name="uni01CF" unicode="&#x1cf;" horiz-adv-x="595" 
d="M471 1802h293l-115 -301h-710l-115 301h293l178 -145zM498 0h-398v1434h398v-1434z" />
    <glyph glyph-name="uni01D0" unicode="&#x1d0;" horiz-adv-x="579" 
d="M463 1434h293l-115 -301h-711l-114 301h293l178 -146zM100 1065h379v-1065h-379v1065z" />
    <glyph glyph-name="uni01D1" unicode="&#x1d1;" horiz-adv-x="1544" 
d="M946 1802h293l-115 -301h-710l-115 301h293l178 -145zM772 1452q324 0 513.5 -197.5t189.5 -537.5q0 -336 -190 -535.5t-513 -199.5t-512.5 199.5t-189.5 535.5q0 340 189 537.5t513 197.5zM772 322q140 0 212.5 109.5t72.5 285.5q0 180 -72 287.5t-213 107.5
t-213 -107.5t-72 -287.5q0 -176 72.5 -285.5t212.5 -109.5z" />
    <glyph glyph-name="uni01D2" unicode="&#x1d2;" horiz-adv-x="1193" 
d="M772 1434h293l-115 -301h-710l-115 301h293l178 -146zM598 1075q57 0 116.5 -12.5t122 -38t117 -69.5t98 -102.5t68.5 -142t25 -182.5q0 -116 -36 -210.5t-93 -155t-131 -101.5t-146 -58t-141 -17t-141 17t-146.5 58t-131.5 101.5t-93.5 155t-36.5 210.5q0 118 36.5 214
t93.5 156.5t131.5 101.5t146 58t141.5 17zM782 528q0 127 -51 186.5t-133 59.5t-134 -59.5t-52 -186.5q0 -119 52.5 -179t133.5 -60t132.5 60t51.5 179z" />
    <glyph glyph-name="uni01D3" unicode="&#x1d3;" horiz-adv-x="1427" 
d="M854 1802h293l-115 -301h-710l-115 301h293l178 -145zM1329 561q0 -183 -79.5 -315.5t-216.5 -198t-318 -65.5q-135 0 -248 38t-194.5 110.5t-127 182.5t-45.5 248v873h398v-856q0 -256 217 -256t217 256v856h397v-873z" />
    <glyph glyph-name="uni01D4" unicode="&#x1d4;" horiz-adv-x="1269" 
d="M983 1133h-711l-114 301h293l178 -146l176 146h293zM791 1065h378v-1065h-378v186q-16 -31 -42 -62.5t-65 -64t-95.5 -53t-119.5 -20.5q-177 0 -278 104t-101 332v643h379v-619q0 -72 42 -110.5t103 -38.5q43 0 78 17t55 43t31 51.5t13 46.5v610z" />
    <glyph glyph-name="uni01EA" unicode="&#x1ea;" horiz-adv-x="1544" 
d="M891 -10q-68 -19 -117 -43.5t-73.5 -44.5t-38.5 -44.5t-16.5 -38t-2.5 -30.5q0 -57 47.5 -66t114.5 25v-151q-48 -27 -113.5 -45t-135.5 -20.5t-130 12.5t-98.5 60t-38.5 115q0 75 51 136.5t122.5 95.5t149.5 45q-254 47 -398 238.5t-144 482.5q0 340 189 537.5
t513 197.5t513.5 -197.5t189.5 -537.5q0 -302 -156 -496t-428 -231zM487 717q0 -176 72.5 -285.5t212.5 -109.5t212.5 109.5t72.5 285.5q0 180 -72 287.5t-213 107.5t-213 -107.5t-72 -287.5z" />
    <glyph glyph-name="uni01EB" unicode="&#x1eb;" horiz-adv-x="1193" 
d="M1145 528q0 -118 -36.5 -214t-99 -158t-133.5 -100t-151 -56q-66 -16 -117 -35.5t-81 -40t-49.5 -39t-28 -38.5t-11 -32t-2.5 -26q0 -57 47 -66t115 25v-151q-48 -27 -113.5 -45t-135.5 -20.5t-130 12.5t-98.5 60t-38.5 115q0 63 36.5 117t92.5 88.5t120 54t124 21.5h16
q-80 18 -151.5 56t-134 100t-99.5 158t-37 214t36.5 214t93.5 156.5t131.5 101.5t146 58t141.5 17q57 0 116.5 -12.5t122 -38t117 -69.5t98 -102.5t68.5 -142t25 -182.5zM598 289q81 0 132.5 60t51.5 179q0 127 -51 186.5t-133 59.5t-134 -59.5t-52 -186.5q0 -119 52.5 -179
t133.5 -60z" />
    <glyph glyph-name="Scommaaccent" unicode="&#x218;" horiz-adv-x="1378" 
d="M844 858q262 -53 364.5 -151t102.5 -279q0 -110 -51 -197t-138 -140.5t-197.5 -81t-236.5 -27.5q-133 0 -242.5 32.5t-192 95.5t-130.5 162.5t-53 227.5h409q16 -91 66 -142t149 -51q87 0 146 38t59 87q0 54 -35 81.5t-137 45.5l-174 31q-79 15 -139.5 33.5t-122 52
t-101 78.5t-64 113.5t-24.5 156.5q0 131 72 228.5t199 148.5t291 51q127 0 233 -28.5t187.5 -85.5t130.5 -148t57 -211h-410q-8 83 -59 116t-139 33q-75 0 -115.5 -40t-40.5 -76q0 -18 2.5 -31t11 -30.5t30 -29.5t54.5 -18zM463 -862v112q77 10 114 65t37 126v65h-151v416
h399v-360q0 -83 -13 -148.5t-33 -109.5t-52.5 -75.5t-64 -48.5t-75.5 -27t-79 -12.5t-82 -2.5z" />
    <glyph glyph-name="scommaaccent" unicode="&#x219;" horiz-adv-x="1064" 
d="M666 702q-10 54 -42.5 75.5t-91.5 21.5q-108 0 -108 -68q0 -47 70 -61l200 -43q142 -32 186 -51q99 -41 129 -129q17 -49 17 -117q0 -167 -135.5 -255.5t-364.5 -88.5q-219 0 -341.5 94t-145.5 276h346q13 -46 45.5 -71t99.5 -25q117 0 117 74q0 22 -13.5 35.5
t-51.5 19.5l-164 35q-190 39 -267 120t-77 199q0 157 118 244.5t336 87.5q424 0 478 -373h-340zM330 -881v113q77 10 114 64.5t37 125.5v66h-151v416h399v-361q0 -83 -13 -148.5t-33 -109.5t-52.5 -75.5t-64 -48.5t-75.5 -27t-79 -12.5t-82 -2.5z" />
    <glyph glyph-name="uni021A" unicode="&#x21a;" horiz-adv-x="1255" 
d="M1217 1434v-340h-392v-1094h-395v1094h-391v340h1178zM383 -496v416h399v-360q0 -83 -13 -148.5t-33 -109.5t-52.5 -75.5t-64 -48.5t-75.5 -27t-79 -12.5t-82 -2.5v112q77 10 114.5 65t37.5 126v65h-152z" />
    <glyph glyph-name="uni021B" unicode="&#x21b;" horiz-adv-x="854" 
d="M700 279q38 0 105 12v-268q-87 -35 -209 -35q-72 0 -127 8t-107.5 32t-86 63.5t-54 106t-20.5 156.5v418h-183v293h183v266h379v-266h221v-293h-221v-375q0 -57 27.5 -87.5t92.5 -30.5zM369 -494v416h399v-360q0 -83 -13 -148.5t-33 -109.5t-52.5 -75.5t-64 -48.5
t-75.5 -27t-79 -12.5t-82 -2.5v112q77 10 114 65t37 126v65h-151z" />
    <glyph glyph-name="uni0237" unicode="&#x237;" horiz-adv-x="589" 
d="M-121 -115q76 -16 127 -16q105 0 105 113v1083h378v-1155q0 -177 -98.5 -269t-275.5 -92q-148 0 -236 33v303z" />
    <glyph glyph-name="circumflex" unicode="&#x2c6;" horiz-adv-x="940" 
d="M647 1151l-176 145l-178 -145h-293l115 301h710l115 -301h-293z" />
    <glyph glyph-name="caron" unicode="&#x2c7;" horiz-adv-x="940" 
d="M647 1434h293l-115 -301h-710l-115 301h293l178 -146z" />
    <glyph glyph-name="breve" unicode="&#x2d8;" horiz-adv-x="765" 
d="M524 1452h242q0 -170 -98 -258t-285 -88q-185 0 -284 88.5t-99 257.5h242q10 -58 44 -80t97 -22t97 22t44 80z" />
    <glyph glyph-name="dotaccent" unicode="&#x2d9;" horiz-adv-x="382" 
d="M0 1452h383v-248h-383v248z" />
    <glyph glyph-name="ring" unicode="&#x2da;" horiz-adv-x="442" 
d="M221 1186q-89 0 -155 64.5t-66 156.5t66 156.5t155 64.5t155 -64.5t66 -156.5t-66 -156.5t-155 -64.5zM221 1341q26 0 45 17.5t19 48.5t-19 48.5t-45 17.5q-25 0 -44 -17.5t-19 -48.5t19 -48.5t44 -17.5z" />
    <glyph glyph-name="ogonek" unicode="&#x2db;" horiz-adv-x="643" 
d="M516 -403q-48 -27 -113.5 -45t-135.5 -20.5t-130 12.5t-98.5 60t-38.5 115q0 63 36.5 117t92.5 88.5t120 54t124 21.5h270q-66 -16 -117 -35.5t-81 -40t-49.5 -39t-28 -38.5t-11 -32t-2.5 -26q0 -57 47 -66t115 25v-151z" />
    <glyph glyph-name="tilde" unicode="&#x2dc;" horiz-adv-x="921" 
d="M782 1434h140q0 -131 -69 -217.5t-208 -86.5q-47 0 -94.5 17.5t-87.5 42t-79 49t-84 42t-89 17.5q-25 0 -49 -12t-23 -37h-139q0 132 69 217.5t207 85.5q47 0 95 -17t87.5 -41.5l79 -49t84.5 -41.5t89 -17q25 0 48.5 11.5t22.5 36.5z" />
    <glyph glyph-name="hungarumlaut" unicode="&#x2dd;" horiz-adv-x="1062" 
d="M0 1190h317l252 262h-415zM481 1190h318l252 262h-416z" />
    <glyph glyph-name="uni0326" unicode="&#x326;" horiz-adv-x="0" 
d="M-399 -862v112q77 10 114 65t37 126v65h-151v416h399v-360q0 -83 -13 -148.5t-33 -109.5t-52.5 -75.5t-64 -48.5t-75.5 -27t-79 -12.5t-82 -2.5z" />
    <glyph glyph-name="uni0394" unicode="&#x394;" horiz-adv-x="1456" 
d="M1376 0h-1296l610 1434h76zM909 324l-180 512l-184 -512h364z" />
    <glyph glyph-name="uni03A9" unicode="&#x3a9;" horiz-adv-x="1560" 
d="M1491 727q0 -198 -105 -367h54v-360h-520v397l51 41q59 52 95 130t36 159q0 170 -89.5 256t-232.5 86q-144 0 -230.5 -85.5t-86.5 -256.5q0 -82 34.5 -159.5t92.5 -129.5l51 -41v-397h-520v360h53q-104 167 -104 367q0 124 40.5 238t110.5 200.5t160 151t193 98t206 33.5
t206 -33.5t193 -98t160.5 -151t111 -200.5t40.5 -238z" />
    <glyph glyph-name="uni03BC" unicode="&#x3bc;" horiz-adv-x="1269" 
d="M791 1065h378v-1065h-378v186q-16 -31 -42 -62.5t-65 -64t-95.5 -53t-119.5 -20.5v-375h-379v1454h379v-619q0 -72 42 -110.5t103 -38.5q43 0 78 17t55 43t31 51.5t13 46.5v610z" />
    <glyph glyph-name="pi" unicode="&#x3c0;" horiz-adv-x="1548" 
d="M1339 311q68 0 140 37v-323q-30 -15 -127 -26t-152 -11q-36 0 -76.5 6t-86 21.5t-81 38t-59 58.5t-23.5 81v550h-210v-743h-379v743h-205v322h1376v-322h-203v-319q0 -68 20 -90.5t66 -22.5z" />
    <glyph glyph-name="uni0401" unicode="&#x401;" 
d="M586 1821v-248h-383v248h383zM1092 1821v-248h-383v248h383zM498 340h673v-340h-1071v1434h1051v-340h-653v-215h551v-316h-551v-223z" />
    <glyph glyph-name="uni0403" unicode="&#x403;" horiz-adv-x="1107" 
d="M385 1559h317l252 262h-415zM1069 1434v-340h-571v-1094h-398v1434h969z" />
    <glyph glyph-name="uni0404" unicode="&#x404;" horiz-adv-x="1429" 
d="M975 516h393q-8 -133 -62.5 -237.5t-141 -168t-192 -96t-224.5 -32.5q-311 0 -494.5 195t-183.5 540t183.5 540t494.5 195q118 0 223 -32.5t191 -95.5t140.5 -166t63.5 -234h-391q-40 107 -83.5 147.5t-133.5 40.5q-104 0 -167 -61.5t-87 -171.5h313v-316h-315
q24 -113 88 -177t168 -64q92 0 136 42t81 152z" />
    <glyph glyph-name="uni0407" unicode="&#x407;" horiz-adv-x="595" 
d="M-147 1821h383v-248h-383v248zM358 1821h383v-248h-383v248zM498 0h-398v1434h398v-1434z" />
    <glyph glyph-name="uni040C" unicode="&#x40c;" horiz-adv-x="1521" 
d="M1159 1821l-252 -262h-317l153 262h416zM901 797l580 -797h-434l-353 506l2 43l-198 -242v-307h-398v1434h398v-592l477 592h450z" />
    <glyph glyph-name="uni040E" unicode="&#x40e;" horiz-adv-x="1294" 
d="M788 1821h242q0 -170 -98 -258t-285 -88q-185 0 -284 88.5t-99 257.5h242q10 -58 44 -80.5t97 -22.5t97 22.5t44 80.5zM815 1434h440l-444 -1014q-28 -65 -53.5 -116t-53 -97.5t-54.5 -80t-58 -64t-63 -48.5t-70.5 -34t-80.5 -20.5t-92 -7t-106 4.5v350q32 -3 59.5 -4
t48 0t39 5t30.5 7.5t23 11t17 11.5t12.5 12.5t8 11.5t6 11.5t4.5 9.5q26 67 -41 235l-348 816h440l164 -502z" />
    <glyph glyph-name="uni0410" unicode="&#x410;" horiz-adv-x="1525" 
d="M1059 0l-66 209h-461l-65 -209h-428l545 1434h358l545 -1434h-428zM621 498h282l-141 452z" />
    <glyph glyph-name="uni0411" unicode="&#x411;" horiz-adv-x="1366" 
d="M709 981q294 0 435.5 -131.5t141.5 -360.5q0 -228 -141.5 -358.5t-435.5 -130.5h-609v1434h969v-340h-571v-113h211zM705 334q78 0 117.5 41t39.5 114q0 74 -39.5 116t-117.5 42h-207v-313h207z" />
    <glyph glyph-name="uni0412" unicode="&#x412;" horiz-adv-x="1404" 
d="M1073 788q111 -34 181.5 -136.5t70.5 -213.5q0 -209 -142.5 -323.5t-428.5 -114.5h-654v1434h625q244 0 374 -103t130 -280q0 -86 -47 -155t-109 -108zM498 1110v-215h213q50 0 75 35.5t25 79.5q0 30 -11.5 52t-27.5 31.5t-27.5 13t-17.5 3.5h-229zM737 326
q84 0 122 38.5t38 90.5q0 143 -137 143h-262v-272h239z" />
    <glyph glyph-name="uni0413" unicode="&#x413;" horiz-adv-x="1107" 
d="M1069 1434v-340h-571v-1094h-398v1434h969z" />
    <glyph glyph-name="uni0414" unicode="&#x414;" horiz-adv-x="1822" 
d="M1470 324h291v-465h-379v141h-964v-141h-379v465h205q31 28 49.5 48.5t48.5 72.5t47.5 113.5t31 167t13.5 237.5v471h1036v-1110zM659 324h414v770h-242v-131q0 -95 -7 -177.5t-15.5 -138.5t-26.5 -108t-29 -79.5t-34 -60.5t-30.5 -42t-29.5 -33z" />
    <glyph glyph-name="uni0415" unicode="&#x415;" 
d="M498 340h673v-340h-1071v1434h1051v-340h-653v-215h551v-316h-551v-223z" />
    <glyph glyph-name="uni0416" unicode="&#x416;" horiz-adv-x="2258" 
d="M2224 1434l-577 -717l571 -717h-449l-438 539v-539h-397v545l-442 -545h-451l573 717l-577 717h448l449 -547v547h397v-539l443 539h450z" />
    <glyph glyph-name="uni0417" unicode="&#x417;" horiz-adv-x="1290" 
d="M915 754q24 -1 57 -10.5t75.5 -34.5t77.5 -60.5t59 -94.5t24 -130q0 -200 -149 -324.5t-422 -124.5q-264 0 -415.5 143.5t-149.5 373.5h352q3 -46 19.5 -82t39 -56.5t51.5 -33t54 -17t51 -4.5q28 0 54.5 4.5t60 18.5t54.5 46.5t21 80.5q0 25 -10.5 50t-35.5 51t-76 42
t-121 16h-84v246h84q53 0 92.5 12.5t59.5 29.5t31.5 41t14 40t2.5 33q0 43 -25.5 71.5t-58 38.5t-69.5 10q-165 0 -170 -161h-352q0 226 138 354.5t380 128.5q114 0 212.5 -32t165.5 -86t104.5 -125.5t37.5 -149.5q0 -73 -25.5 -132t-65 -93.5t-76 -54t-67.5 -25.5z" />
    <glyph glyph-name="uni0418" unicode="&#x418;" horiz-adv-x="1464" 
d="M100 1434h398v-791h8l465 791h393v-1434h-397v764h-9l-448 -764h-410v1434z" />
    <glyph glyph-name="uni0419" unicode="&#x419;" horiz-adv-x="1464" 
d="M872 1821h242q0 -170 -98 -258t-285 -88q-185 0 -284 88.5t-99 257.5h242q10 -58 44 -80.5t97 -22.5t97 22.5t44 80.5zM100 1434h398v-791h8l465 791h393v-1434h-397v764h-9l-448 -764h-410v1434z" />
    <glyph glyph-name="uni041A" unicode="&#x41a;" horiz-adv-x="1521" 
d="M901 797l580 -797h-434l-353 506l2 43l-198 -242v-307h-398v1434h398v-592l477 592h450z" />
    <glyph glyph-name="uni041B" unicode="&#x41b;" horiz-adv-x="1413" 
d="M1313 1434v-1434h-395v1094h-310v-643q0 -253 -157.5 -374t-419.5 -91v340q36 -1 57.5 0.5t48 9t41 22t25 43t10.5 70.5v963h1100z" />
    <glyph glyph-name="uni041C" unicode="&#x41c;" horiz-adv-x="1763" 
d="M100 1434h465l316 -902l317 902h465v-1434h-397v784h-13l-231 -784h-283l-229 784h-12v-784h-398v1434z" />
    <glyph glyph-name="uni041D" unicode="&#x41d;" horiz-adv-x="1423" 
d="M926 1434h397v-1434h-397v563h-428v-563h-398v1434h398v-549h428v549z" />
    <glyph glyph-name="uni041E" unicode="&#x41e;" horiz-adv-x="1544" 
d="M772 1452q324 0 513.5 -197.5t189.5 -537.5q0 -336 -190 -535.5t-513 -199.5t-512.5 199.5t-189.5 535.5q0 340 189 537.5t513 197.5zM772 322q140 0 212.5 109.5t72.5 285.5q0 180 -72 287.5t-213 107.5t-213 -107.5t-72 -287.5q0 -176 72.5 -285.5t212.5 -109.5z" />
    <glyph glyph-name="uni041F" unicode="&#x41f;" horiz-adv-x="1423" 
d="M1323 1434v-1434h-397v1094h-428v-1094h-398v1434h1223z" />
    <glyph glyph-name="uni0420" unicode="&#x420;" horiz-adv-x="1335" 
d="M709 1434q149 0 261.5 -38.5t180.5 -109t101.5 -163.5t33.5 -208t-33.5 -207.5t-101.5 -163t-180.5 -109t-261.5 -38.5h-211v-397h-398v1434h609zM705 739q77 0 117 47.5t40 128.5q0 82 -40 130.5t-117 48.5h-207v-355h207z" />
    <glyph glyph-name="uni0421" unicode="&#x421;" horiz-adv-x="1429" 
d="M758 322q92 0 136 42t81 152h393q-8 -133 -62.5 -237.5t-141 -168t-192 -96t-224.5 -32.5q-311 0 -494.5 195t-183.5 540t183.5 540t494.5 195q118 0 223 -32.5t191 -95.5t140.5 -166t63.5 -234h-391q-40 107 -83.5 147.5t-133.5 40.5q-138 0 -204.5 -107t-66.5 -288
q0 -116 26.5 -202t89 -139.5t155.5 -53.5z" />
    <glyph glyph-name="uni0422" unicode="&#x422;" horiz-adv-x="1255" 
d="M1217 1434v-340h-392v-1094h-395v1094h-391v340h1178z" />
    <glyph glyph-name="uni0423" unicode="&#x423;" horiz-adv-x="1294" 
d="M815 1434h440l-444 -1014q-28 -65 -53.5 -116t-53 -97.5t-54.5 -80t-58 -64t-63 -48.5t-70.5 -34t-80.5 -20.5t-92 -7t-106 4.5v350q32 -3 59.5 -4t48 0t39 5t30.5 7.5t23 11t17 11.5t12.5 12.5t8 11.5t6 11.5t4.5 9.5q26 67 -41 235l-348 816h440l164 -502z" />
    <glyph glyph-name="uni0424" unicode="&#x424;" horiz-adv-x="1538" 
d="M1470 717q0 -222 -133 -376.5t-368 -201.5v-170h-398v170q-236 47 -368.5 201t-132.5 377q0 226 132.5 378.5t368.5 198.5v170h398v-170q236 -47 368.5 -199t132.5 -378zM449 717q0 -175 122 -248v498q-122 -73 -122 -250zM969 469q123 77 123 248q0 177 -123 248v-496z
" />
    <glyph glyph-name="uni0425" unicode="&#x425;" horiz-adv-x="1429" 
d="M1401 0h-443l-243 385l-244 -385h-442l465 737l-441 697h445l217 -344l217 344h444l-440 -697z" />
    <glyph glyph-name="uni0426" unicode="&#x426;" horiz-adv-x="1531" 
d="M1323 340h170v-629h-379v289h-1014v1434h398v-1094h428v1094h397v-1094z" />
    <glyph glyph-name="uni0427" unicode="&#x427;" horiz-adv-x="1388" 
d="M891 1434h397v-1434h-397v530q-17 -33 -46 -67.5t-77.5 -74t-122 -64.5t-158.5 -25q-203 0 -310 119t-107 377v639h397v-621q0 -166 178 -166q57 0 105.5 19.5t77 49t45 57.5t18.5 50v611z" />
    <glyph glyph-name="uni0428" unicode="&#x428;" horiz-adv-x="1775" 
d="M1280 1434h397v-1434h-1577v1434h398v-1094h192v1094h397v-1094h193v1094z" />
    <glyph glyph-name="uni0429" unicode="&#x429;" horiz-adv-x="1875" 
d="M1677 340h160v-629h-377v289h-1360v1434h398v-1094h192v1094h397v-1094h193v1094h397v-1094z" />
    <glyph glyph-name="uni042A" unicode="&#x42a;" horiz-adv-x="1490" 
d="M834 981q294 0 435.5 -131.5t141.5 -360.5q0 -228 -141.5 -358.5t-435.5 -130.5h-609v1094h-186v340h584v-453h211zM829 334q78 0 118 41.5t40 113.5q0 74 -40 116t-118 42h-206v-313h206z" />
    <glyph glyph-name="uni042B" unicode="&#x42b;" horiz-adv-x="1927" 
d="M709 981q294 0 435.5 -131.5t141.5 -360.5q0 -228 -141.5 -358.5t-435.5 -130.5h-609v1434h398v-453h211zM1430 1434h397v-1434h-397v1434zM705 334q78 0 117.5 41t39.5 114q0 74 -39.5 116t-117.5 42h-207v-313h207z" />
    <glyph glyph-name="uni042C" unicode="&#x42c;" horiz-adv-x="1366" 
d="M709 981q294 0 435.5 -131.5t141.5 -360.5q0 -228 -141.5 -358.5t-435.5 -130.5h-609v1434h398v-453h211zM705 334q78 0 117.5 41t39.5 114q0 74 -39.5 116t-117.5 42h-207v-313h207z" />
    <glyph glyph-name="uni042D" unicode="&#x42d;" horiz-adv-x="1435" 
d="M688 1452q311 0 494.5 -195t183.5 -540t-183.5 -540t-494.5 -195q-119 0 -224.5 32.5t-192 96t-141 168t-62.5 237.5h393q37 -110 81 -152t136 -42q104 0 168 64t88 177h-316v316h314q-24 110 -87 171.5t-167 61.5q-90 0 -133.5 -40.5t-83.5 -147.5h-391q9 131 63.5 234
t140.5 166t191 95.5t223 32.5z" />
    <glyph glyph-name="uni042E" unicode="&#x42e;" horiz-adv-x="2127" 
d="M1356 1452q324 0 513 -197.5t189 -537.5q0 -336 -189.5 -535.5t-512.5 -199.5q-284 0 -466 155.5t-224 425.5h-168v-563h-398v1434h398v-549h170q44 267 225 417t463 150zM1356 322q140 0 212 109.5t72 285.5q0 180 -71.5 287.5t-212.5 107.5t-213 -107.5t-72 -287.5
q0 -176 72.5 -285.5t212.5 -109.5z" />
    <glyph glyph-name="uni042F" unicode="&#x42f;" horiz-adv-x="1423" 
d="M1323 1434v-1434h-397v481h-277q-80 0 -122 -46.5t-42 -108.5v-86q0 -90 -7.5 -138t-33.5 -102h-397q26 54 33.5 102t7.5 138v100q0 102 45.5 178t155.5 141q-74 64 -102 100q-76 97 -76 230q0 93 32 171.5t97.5 140.5t175.5 97.5t256 35.5h651zM926 793v299h-246
q-75 0 -117.5 -35t-42.5 -105q0 -89 36 -124t149 -35h221z" />
    <glyph glyph-name="uni0430" unicode="&#x430;" horiz-adv-x="1177" 
d="M1073 330q0 -46 21 -73t55 -30v-213q-47 -22 -131 -22q-119 0 -200 48.5t-81 131.5v-31l-7 -11q-7 -10 -17 -23t-27 -30t-42 -32.5t-56 -29t-75.5 -21.5t-94.5 -8q-71 0 -133.5 18t-117 55t-86.5 104t-32 156q0 40 7.5 74.5t18.5 60.5t30.5 48t38 37.5t46.5 29.5t49.5 22
t54.5 16.5t53.5 12.5t54.5 10.5t51 10.5q30 6 76.5 14.5t69.5 13t50 13t45 20.5q-4 101 -114 101q-104 0 -119 -98h-357q27 370 478 370q183 0 291 -51t154 -151.5t46 -266.5v-276zM694 334v151q-30 -15 -55 -24.5t-39 -13.5t-41 -11t-45 -12q-44 -15 -65 -36t-21 -52
q0 -32 23 -58t75 -26q63 0 105.5 26.5t62.5 55.5z" />
    <glyph glyph-name="uni0431" unicode="&#x431;" horiz-adv-x="1216" 
d="M711 1059q52 0 109.5 -15t120.5 -54.5t113 -97.5t82.5 -153t32.5 -213q0 -123 -36.5 -220.5t-93 -156.5t-131.5 -98t-145.5 -54t-141.5 -15q-72 0 -141.5 17.5t-145 65.5t-132 122t-94 197t-38.5 280v178q-1 310 124 451t375 141h25q108 0 160 45h329
q-42 -185 -135 -261.5t-282 -76.5h-97q-67 0 -103 -50t-36 -112v-8q3 11 34 30.5t99 38.5t148 19zM621 285q81 0 132.5 59t51.5 182q0 128 -52 190t-132 62q-82 0 -134.5 -62t-52.5 -192q0 -126 51.5 -182.5t135.5 -56.5z" />
    <glyph glyph-name="uni0432" unicode="&#x432;" horiz-adv-x="1257" 
d="M983 596q101 -33 163 -105.5t62 -177.5q0 -77 -30 -134.5t-77 -91t-117 -54t-137.5 -27t-150.5 -6.5h-596v1065h596q122 0 216 -27t152 -87.5t58 -147.5q0 -158 -139 -207zM479 766v-107h211q34 0 54.5 13.5t25 25.5t2.5 19q1 9 -2 18.5t-21.5 20t-52.5 10.5h-217z
M772 713v4v-4zM827 369q0 14 -1.5 21t-11 21t-37 20.5t-72.5 6.5h-226v-139h230q37 0 62.5 7.5t36.5 19.5t15 22t4 21z" />
    <glyph glyph-name="uni0433" unicode="&#x433;" horiz-adv-x="944" 
d="M907 1065v-293h-428v-772h-379v1065h807z" />
    <glyph glyph-name="uni0434" unicode="&#x434;" horiz-adv-x="1445" 
d="M1292 293h117v-389h-344v96h-684v-96h-342v389h111q65 57 83.5 159t18.5 271v342h1040v-772zM512 293h401v479h-282v-49q0 -155 -25.5 -263.5t-93.5 -166.5z" />
    <glyph glyph-name="uni0435" unicode="&#x435;" horiz-adv-x="1169" 
d="M1120 475q0 -39 -2 -57h-702q15 -82 61 -118t133 -36q70 0 111 23t51 59h324q-35 -179 -164 -269.5t-344 -90.5q-72 0 -144 17t-144.5 57.5t-127 100.5t-89 154.5t-34.5 210.5q0 118 33.5 213.5t88 156.5t126.5 102.5t146 59t151 17.5q84 0 158 -18t142.5 -61.5
t117.5 -110.5t78.5 -172t29.5 -238zM418 645h342q-3 66 -44 110t-122 44q-146 0 -176 -154z" />
    <glyph glyph-name="uni0436" unicode="&#x436;" horiz-adv-x="2004" 
d="M1997 0h-467l-326 352v-352h-379v354l-325 -354h-469l501 520l-495 545h469l319 -369v369h379v-365l318 365h469l-494 -545z" />
    <glyph glyph-name="uni0437" unicode="&#x437;" horiz-adv-x="1173" 
d="M889 561l25 -7q25 -6 57 -21t65 -39t55.5 -68.5t22.5 -101.5q0 -83 -45 -149.5t-122 -108t-174 -63t-206 -21.5q-259 0 -388.5 111t-129.5 339h340q0 -83 46.5 -132.5t131.5 -49.5q82 0 126 26.5t44 77.5q0 15 -8 29.5t-28 32.5t-65 29t-110 12v186q49 -1 84 7t51 17.5
t25 25t9.5 21.5t0.5 15q0 39 -37.5 59.5t-89.5 20.5q-61 0 -103 -33t-42 -104h-342q0 198 129.5 302.5t349.5 104.5q218 0 356 -80t138 -219q0 -44 -12 -80.5t-29 -58.5t-39 -38.5t-39.5 -24t-31.5 -12.5t-15 -5z" />
    <glyph glyph-name="uni0438" unicode="&#x438;" horiz-adv-x="1292" 
d="M100 1065h379v-524h8l330 524h377v-1065h-379v498h-10l-313 -498h-392v1065z" />
    <glyph glyph-name="uni0439" unicode="&#x439;" horiz-adv-x="1292" 
d="M791 1452h241q0 -170 -98 -258t-285 -88q-185 0 -284 88.5t-99 257.5h242q10 -58 44 -80t97 -22t97.5 22t44.5 80zM100 1065h379v-524h8l330 524h377v-1065h-379v498h-10l-313 -498h-392v1065z" />
    <glyph glyph-name="uni043A" unicode="&#x43a;" horiz-adv-x="1243" 
d="M827 0l-305 383l-43 -43v-340h-379v1065h379v-293l277 293h424l-426 -442l481 -623h-408z" />
    <glyph glyph-name="uni043B" unicode="&#x43b;" horiz-adv-x="1312" 
d="M1212 1065v-1065h-360l-14 772h-236v-328q0 -251 -153.5 -365t-417.5 -85v295q41 -1 72 5.5t60 24t44.5 54.5t15.5 92v600h989z" />
    <glyph glyph-name="uni043C" unicode="&#x43c;" horiz-adv-x="1576" 
d="M100 1065h447l241 -625l242 625h447v-1065h-379v489h-13l-161 -489h-271l-161 489h-13v-489h-379v1065z" />
    <glyph glyph-name="uni043D" unicode="&#x43d;" horiz-adv-x="1228" 
d="M750 1065h378v-1065h-378v410h-271v-410h-379v1065h379v-363h271v363z" />
    <glyph glyph-name="uni043E" unicode="&#x43e;" horiz-adv-x="1193" 
d="M598 1075q57 0 116.5 -12.5t122 -38t117 -69.5t98 -102.5t68.5 -142t25 -182.5q0 -116 -36 -210.5t-93 -155t-131 -101.5t-146 -58t-141 -17t-141 17t-146.5 58t-131.5 101.5t-93.5 155t-36.5 210.5q0 118 36.5 214t93.5 156.5t131.5 101.5t146 58t141.5 17zM782 528
q0 127 -51 186.5t-133 59.5t-134 -59.5t-52 -186.5q0 -119 52.5 -179t133.5 -60t132.5 60t51.5 179z" />
    <glyph glyph-name="uni043F" unicode="&#x43f;" horiz-adv-x="1204" 
d="M1104 1065v-1065h-379v772h-246v-772h-379v1065h1004z" />
    <glyph glyph-name="uni0440" unicode="&#x440;" horiz-adv-x="1247" 
d="M729 1075q53 0 112.5 -17.5t124 -59.5t115.5 -102t84 -155t33 -209q0 -117 -33.5 -213.5t-84.5 -156.5t-116.5 -101t-125.5 -58t-115 -17q-96 0 -156.5 31t-87.5 67v-473h-379v1454h379v-92q17 17 41.5 35.5t84.5 42.5t124 24zM639 289q83 0 137.5 60t54.5 183
q0 122 -54.5 182t-137.5 60q-80 0 -128 -63t-48 -179q0 -121 47.5 -182t128.5 -61z" />
    <glyph glyph-name="uni0441" unicode="&#x441;" horiz-adv-x="1138" 
d="M592 291q73 0 103.5 33.5t41.5 91.5h340q-14 -102 -52.5 -180.5t-88 -124.5t-113 -75t-120 -39.5t-115.5 -10.5q-77 0 -149.5 16.5t-144.5 56.5t-125.5 100t-86.5 156t-33 215q0 118 33 213.5t86 156t124.5 101t144.5 57.5t149 17q62 0 117.5 -9.5t117 -37.5t109 -72.5
t85 -121t52.5 -177.5h-346q-6 53 -32.5 83t-98.5 30q-176 0 -176 -240q0 -239 178 -239z" />
    <glyph glyph-name="uni0442" unicode="&#x442;" horiz-adv-x="1153" 
d="M1092 1065v-293h-326v-772h-379v772h-326v293h1031z" />
    <glyph glyph-name="uni0443" unicode="&#x443;" 
d="M821 1065h383l-424 -1014q-59 -147 -114.5 -237t-129.5 -146.5t-165.5 -74t-220.5 -5.5v318q94 -9 155.5 11t78.5 40t37 57q3 6 5 9q13 28 -22 118q-1 4 -2 6.5t-2.5 6t-2.5 6.5l-368 905h391l192 -576z" />
    <glyph glyph-name="uni0444" unicode="&#x444;" horiz-adv-x="1290" 
d="M1241 526q0 -92 -23 -171t-62 -136t-93.5 -101.5t-113 -72t-124.5 -43.5v-381h-356v383q-66 17 -125 44t-114 71t-94.5 100.5t-63 135t-23.5 171.5q0 94 23.5 174t63 137.5t94.5 102.5t114 72.5t125 44.5v395h356v-395q84 -22 155 -62.5t131.5 -103t95 -156.5t34.5 -209z
M356 526q0 -170 113 -231v471q-113 -61 -113 -240zM825 297q111 62 111 229q0 176 -111 238v-467z" />
    <glyph glyph-name="uni0445" unicode="&#x445;" horiz-adv-x="1255" 
d="M1217 0h-410l-180 287l-178 -287h-410l377 559l-338 506h411l138 -234l139 234h412l-338 -506z" />
    <glyph glyph-name="uni0446" unicode="&#x446;" horiz-adv-x="1294" 
d="M1104 293h162v-580h-361v287h-805v1065h379v-772h246v772h379v-772z" />
    <glyph glyph-name="uni0447" unicode="&#x447;" horiz-adv-x="1228" 
d="M750 1065h378v-1065h-378v471q-12 -24 -30.5 -48.5t-48.5 -52.5t-64.5 -49t-82 -35t-98.5 -14q-176 0 -276.5 101t-100.5 317v375h379v-350q0 -59 39 -95t106 -36q80 0 126.5 53.5t50.5 107.5v320z" />
    <glyph glyph-name="uni0448" unicode="&#x448;" horiz-adv-x="1681" 
d="M1202 1065h379v-1065h-1481v1065h379v-772h185v772h356v-772h182v772z" />
    <glyph glyph-name="uni0449" unicode="&#x449;" horiz-adv-x="1771" 
d="M1581 293h164v-580h-363v287h-1282v1065h379v-772h185v772h356v-772h182v772h379v-772z" />
    <glyph glyph-name="uni044A" unicode="&#x44a;" horiz-adv-x="1351" 
d="M856 729q201 0 324 -101t123 -263q0 -168 -121.5 -266.5t-325.5 -98.5h-633v772h-184v293h563v-336h254zM852 293q38 0 61 19t23 53t-23 51.5t-61 17.5h-250v-141h250z" />
    <glyph glyph-name="uni044B" unicode="&#x44b;" horiz-adv-x="1792" 
d="M733 729q201 0 324 -101t123 -263q0 -168 -121.5 -266.5t-325.5 -98.5h-633v1065h379v-336h254zM1315 1065h379v-1065h-379v1065zM729 293q38 0 61 19t23 53t-23 51.5t-61 17.5h-250v-141h250z" />
    <glyph glyph-name="uni044C" unicode="&#x44c;" horiz-adv-x="1228" 
d="M733 729q201 0 324 -101t123 -263q0 -168 -121.5 -266.5t-325.5 -98.5h-633v1065h379v-336h254zM729 293q38 0 61 19t23 53t-23 51.5t-61 17.5h-250v-141h250z" />
    <glyph glyph-name="uni044D" unicode="&#x44d;" horiz-adv-x="1126" 
d="M541 1075q76 0 149 -17t144 -57.5t124 -101t86 -156t33 -213.5q0 -119 -33 -215t-86.5 -156t-125 -100t-144 -56.5t-149.5 -16.5q-59 0 -116 10.5t-120.5 39.5t-113 75t-88 124.5t-52.5 180.5h340q11 -57 41.5 -91t104.5 -34q129 0 165 127h-239v225h239
q-37 127 -163 127q-72 0 -98.5 -30t-32.5 -83h-347q15 101 53 177.5t85 121t109 72.5t117.5 37.5t117.5 9.5z" />
    <glyph glyph-name="uni044E" unicode="&#x44e;" horiz-adv-x="1736" 
d="M1141 1075q57 0 116.5 -12.5t122 -38t117 -69.5t98 -102.5t68.5 -142t25 -182.5q0 -116 -36 -210.5t-93 -155t-131 -101.5t-146 -58t-141 -17q-76 0 -155 22t-157 67t-138.5 126t-84.5 186h-127v-389h-379v1065h379v-383h129q26 105 86 184.5t137 123.5t155.5 65.5
t154.5 21.5zM1141 289q81 0 132.5 60t51.5 179q0 127 -51 186.5t-133 59.5t-134.5 -59.5t-52.5 -186.5q0 -119 53 -179t134 -60z" />
    <glyph glyph-name="uni044F" unicode="&#x44f;" horiz-adv-x="1267" 
d="M1167 1065v-1065h-379v336h-253q-64 -11 -64 -90v-84q0 -63 -5.5 -90t-25.5 -72h-379q20 45 25.5 72t5.5 90v84q0 67 24.5 116t88.5 80q-117 100 -117 258q0 168 121.5 266.5t325.5 98.5h632zM788 631v141h-249q-38 0 -61 -19t-23 -53t23 -51.5t61 -17.5h249z" />
    <glyph glyph-name="uni0451" unicode="&#x451;" horiz-adv-x="1169" 
d="M528 1452v-248h-383v248h383zM1034 1452v-248h-383v248h383zM1120 475q0 -39 -2 -57h-702q15 -82 61 -118t133 -36q70 0 111 23t51 59h324q-35 -179 -164 -269.5t-344 -90.5q-72 0 -144 17t-144.5 57.5t-127 100.5t-89 154.5t-34.5 210.5q0 118 33.5 213.5t88 156.5
t126.5 102.5t146 59t151 17.5q84 0 158 -18t142.5 -61.5t117.5 -110.5t78.5 -172t29.5 -238zM418 645h342q-3 66 -44 110t-122 44q-146 0 -176 -154z" />
    <glyph glyph-name="uni0453" unicode="&#x453;" horiz-adv-x="944" 
d="M301 1190h317l252 262h-415zM907 1065v-293h-428v-772h-379v1065h807z" />
    <glyph glyph-name="uni0454" unicode="&#x454;" horiz-adv-x="1138" 
d="M737 416h340q-14 -102 -52.5 -180.5t-88 -124.5t-113 -75t-120 -39.5t-115.5 -10.5q-77 0 -149.5 16.5t-144.5 56.5t-125.5 100t-86.5 156t-33 215q0 118 33 213.5t86 156t124.5 101t144.5 57.5t149 17q62 0 117.5 -9.5t117 -37.5t109 -72.5t85 -121t52.5 -177.5h-346
q-6 53 -32.5 83t-98.5 30q-127 0 -164 -127h240v-225h-240q36 -127 166 -127q73 0 103.5 33.5t41.5 91.5z" />
    <glyph glyph-name="uni0457" unicode="&#x457;" horiz-adv-x="579" 
d="M-156 1452h383v-248h-383v248zM350 1452h383v-248h-383v248zM100 1065h379v-1065h-379v1065z" />
    <glyph glyph-name="uni045C" unicode="&#x45c;" horiz-adv-x="1243" 
d="M1020 1452l-252 -262h-317l153 262h416zM827 0l-305 383l-43 -43v-340h-379v1065h379v-293l277 293h424l-426 -442l481 -623h-408z" />
    <glyph glyph-name="uni045E" unicode="&#x45e;" 
d="M758 1452h241q0 -170 -98 -258t-285 -88q-185 0 -284 88.5t-99 257.5h242q10 -58 44 -80t97 -22t97.5 22t44.5 80zM821 1065h383l-424 -1014q-59 -147 -114.5 -237t-129.5 -146.5t-165.5 -74t-220.5 -5.5v318q94 -9 155.5 11t78.5 40t37 57q3 6 5 9q13 28 -22 118
q-1 4 -2 6.5t-2.5 6t-2.5 6.5l-368 905h391l192 -576z" />
    <glyph glyph-name="uni0490" unicode="&#x490;" horiz-adv-x="1107" 
d="M674 1638h395v-544h-571v-1094h-398v1434h574v204z" />
    <glyph glyph-name="uni0491" unicode="&#x491;" horiz-adv-x="944" 
d="M584 1200h323v-428h-428v-772h-379v1065h484v135z" />
    <glyph glyph-name="Wgrave" unicode="&#x1e80;" horiz-adv-x="2144" 
d="M1235 1559l-154 262h-415l252 -262h317zM1692 1434h413l-407 -1434h-363l-262 817l-264 -817h-363l-407 1434h414l198 -828l234 828h377l231 -828z" />
    <glyph glyph-name="wgrave" unicode="&#x1e81;" horiz-adv-x="1681" 
d="M999 1190l-153 262h-416l252 -262h317zM1653 1065l-291 -1065h-318l-204 621l-201 -621h-320l-290 1065h381l120 -582l162 582h297l160 -582l123 582h381z" />
    <glyph glyph-name="Wacute" unicode="&#x1e82;" horiz-adv-x="2144" 
d="M903 1559h318l252 262h-416zM1692 1434h413l-407 -1434h-363l-262 817l-264 -817h-363l-407 1434h414l198 -828l234 828h377l231 -828z" />
    <glyph glyph-name="wacute" unicode="&#x1e83;" horiz-adv-x="1681" 
d="M668 1190h317l252 262h-416zM1653 1065l-291 -1065h-318l-204 621l-201 -621h-320l-290 1065h381l120 -582l162 582h297l160 -582l123 582h381z" />
    <glyph glyph-name="Wdieresis" unicode="&#x1e84;" horiz-adv-x="2144" 
d="M629 1821h383v-248h-383v248zM1135 1821h383v-248h-383v248zM1692 1434h413l-407 -1434h-363l-262 817l-264 -817h-363l-407 1434h414l198 -828l234 828h377l231 -828z" />
    <glyph glyph-name="wdieresis" unicode="&#x1e85;" horiz-adv-x="1681" 
d="M393 1452h383v-248h-383v248zM899 1452h383v-248h-383v248zM1653 1065l-291 -1065h-318l-204 621l-201 -621h-320l-290 1065h381l120 -582l162 582h297l160 -582l123 582h381z" />
    <glyph glyph-name="uni1E9E" unicode="&#x1e9e;" horiz-adv-x="1603" 
d="M1102 922q86 -17 158.5 -52t136.5 -92.5t100.5 -147.5t36.5 -204q0 -202 -130.5 -324t-373.5 -122q-135 0 -228.5 32.5t-146 96.5t-74.5 146.5t-22 195.5h383q0 -132 88 -132q33 0 54 20.5t26.5 41t5.5 39.5q0 97 -150 151t-378 39l254 506h-211q-133 0 -133 -153v-963
h-398v1010q0 228 120 337t364 109h817z" />
    <glyph glyph-name="Ygrave" unicode="&#x1ef2;" horiz-adv-x="1507" 
d="M915 1559l-153 262h-416l252 -262h317zM958 506v-506h-409v506l-510 928h446l269 -547l270 547h444z" />
    <glyph glyph-name="ygrave" unicode="&#x1ef3;" 
d="M770 1190l-154 262h-415l252 -262h317zM821 1065h383l-424 -1014q-59 -147 -114.5 -237t-129.5 -146.5t-165.5 -74t-220.5 -5.5v318q94 -9 155.5 11t78.5 40t37 57q3 6 5 9q13 28 -22 118q-1 4 -2 6.5t-2.5 6t-2.5 6.5l-368 905h391l192 -576z" />
    <glyph glyph-name="endash" unicode="&#x2013;" horiz-adv-x="1228" 
d="M92 702h1045v-282h-1045v282z" />
    <glyph glyph-name="emdash" unicode="&#x2014;" horiz-adv-x="1351" 
d="M92 702h1168v-282h-1168v282z" />
    <glyph glyph-name="quoteleft" unicode="&#x2018;" horiz-adv-x="563" 
d="M481 1434v-113q-77 -10 -114 -65t-37 -126v-65h151v-416h-399v361q0 83 13 148.5t33 109.5t52.5 75.5t64 48.5t75.5 27t79 12.5t82 2.5z" />
    <glyph glyph-name="quoteright" unicode="&#x2019;" horiz-adv-x="563" 
d="M82 649v113q77 10 114 64.5t37 125.5v66h-151v416h399v-361q0 -83 -13 -148.5t-33 -109.5t-52.5 -75.5t-64 -48.5t-75.5 -27t-79 -12.5t-82 -2.5z" />
    <glyph glyph-name="quotesinglbase" unicode="&#x201a;" horiz-adv-x="563" 
d="M82 -369v113q77 10 114 64.5t37 125.5v66h-151v416h399v-361q0 -83 -13 -148.5t-33 -109.5t-52.5 -75.5t-64 -48.5t-75.5 -27t-79 -12.5t-82 -2.5z" />
    <glyph glyph-name="quotedblleft" unicode="&#x201c;" horiz-adv-x="1165" 
d="M481 1436v-113q-77 -10 -114 -64.5t-37 -125.5v-66h151v-416h-399v361q0 83 13 148.5t33 109.5t52.5 75.5t64 48.5t75.5 27t79 12.5t82 2.5zM1083 1436v-113q-77 -10 -114 -64.5t-37 -125.5v-66h151v-416h-399v361q0 83 13 148.5t33 109.5t52.5 75.5t64 48.5t75.5 27
t79 12.5t82 2.5z" />
    <glyph glyph-name="quotedblright" unicode="&#x201d;" horiz-adv-x="1165" 
d="M82 649v113q77 10 114 64.5t37 125.5v66h-151v416h399v-361q0 -83 -13 -148.5t-33 -109.5t-52.5 -75.5t-64 -48.5t-75.5 -27t-79 -12.5t-82 -2.5zM684 649v113q77 10 114.5 64.5t37.5 125.5v66h-152v416h399v-361q0 -83 -13 -148.5t-33 -109.5t-52.5 -75.5t-64 -48.5
t-75.5 -27t-79 -12.5t-82 -2.5z" />
    <glyph glyph-name="quotedblbase" unicode="&#x201e;" horiz-adv-x="1165" 
d="M82 -369v113q77 10 114 64.5t37 125.5v66h-151v416h399v-361q0 -83 -13 -148.5t-33 -109.5t-52.5 -75.5t-64 -48.5t-75.5 -27t-79 -12.5t-82 -2.5zM684 -369v113q77 10 114.5 64.5t37.5 125.5v66h-152v416h399v-361q0 -83 -13 -148.5t-33 -109.5t-52.5 -75.5t-64 -48.5
t-75.5 -27t-79 -12.5t-82 -2.5z" />
    <glyph glyph-name="dagger" unicode="&#x2020;" horiz-adv-x="980" 
d="M879 1102v-285h-238v-495h-299v495h-240v285h240v332h299v-332h238z" />
    <glyph glyph-name="daggerdbl" unicode="&#x2021;" horiz-adv-x="980" 
d="M879 899h-238v-364h238v-285h-238v-250h-299v250h-240v285h240v364h-240v285h240v250h299v-250h238v-285z" />
    <glyph glyph-name="bullet" unicode="&#x2022;" horiz-adv-x="591" 
d="M297 346q-79 0 -137 58t-58 137q0 78 58 135t137 57q78 0 135 -57t57 -135q0 -79 -57 -137t-135 -58z" />
    <glyph glyph-name="ellipsis" unicode="&#x2026;" horiz-adv-x="1615" 
d="M102 418h400v-418h-400v418zM608 418h400v-418h-400v418zM1114 418h399v-418h-399v418z" />
    <glyph glyph-name="perthousand" unicode="&#x2030;" horiz-adv-x="2183" 
d="M399 731q-139 0 -223 89t-84 267q0 179 83.5 268t223.5 89q139 0 222.5 -89t83.5 -268q0 -178 -83.5 -267t-222.5 -89zM209 0l846 1440l268 -6l-840 -1434h-274zM399 969q12 0 18.5 2.5t14 13t11 36t3.5 66.5q0 54 -7.5 81.5t-15.5 32.5t-24 5q-17 0 -25.5 -5t-16 -32.5
t-7.5 -81.5q0 -41 3.5 -66.5t11.5 -36t14.5 -13t19.5 -2.5zM1788 -2q-139 0 -223 89t-84 269q0 179 83.5 268t223.5 89q137 0 220 -89.5t83 -267.5q0 -180 -82.5 -269t-220.5 -89zM1141 -10q-139 0 -223 89t-84 267q0 179 83.5 267.5t223.5 88.5q139 0 222 -88.5t83 -267.5
t-83 -267.5t-222 -88.5zM1788 236q15 0 23 5t16 33t8 82t-8 81.5t-16 32.5t-23 5q-17 0 -26 -5t-17 -32.5t-8 -81.5q0 -41 4 -67t12 -36.5t15.5 -13.5t19.5 -3zM1141 227q16 0 24 5t15.5 32.5t7.5 81.5t-7.5 81.5t-15.5 32.5t-24 5q-17 0 -25.5 -5t-16 -32.5t-7.5 -81.5
t7.5 -81.5t16 -32.5t25.5 -5z" />
    <glyph glyph-name="guilsinglleft" unicode="&#x2039;" horiz-adv-x="548" 
d="M467 735l-162 -123l162 -125v-333l-385 303v309l385 305v-336z" />
    <glyph glyph-name="guilsinglright" unicode="&#x203a;" horiz-adv-x="573" 
d="M117 735v336l385 -305v-309l-385 -303v333l162 125z" />
    <glyph glyph-name="fraction" unicode="&#x2044;" horiz-adv-x="329" 
d="M-190 0h-185l895 1434h182z" />
    <glyph glyph-name="Euro" unicode="&#x20ac;" horiz-adv-x="1521" 
d="M1067 516h393q-8 -133 -62.5 -237.5t-141 -168t-192 -96t-224.5 -32.5q-235 0 -401.5 115t-233.5 327h-133v223h92q-2 23 -2 70v10h-90v223h116q57 240 228 371t424 131q118 0 223 -32.5t191 -95.5t140.5 -166t63.5 -234h-391q-40 107 -83.5 147.5t-133.5 40.5
q-169 0 -232 -162h197v-223h-235v-10q0 -47 2 -70h233v-223h-166q73 -102 201 -102q92 0 136 42t81 152z" />
    <glyph glyph-name="trademark" unicode="&#x2122;" horiz-adv-x="1093" 
d="M459 1321h-121v-256h-137v256h-119v113h377v-113zM1012 1434v-369h-138v158l-47 -158h-122l-48 158v-158h-137v369h137l109 -267l108 267h138z" />
    <glyph glyph-name="partialdiff" unicode="&#x2202;" horiz-adv-x="1257" 
d="M545 926q148 0 269 -75q16 -9 16 -5q-1 1 -1 2q-2 1 0 18t-2.5 46t-9.5 62.5t-21 68t-37.5 62.5t-58.5 46t-84 18q-12 0 -27 -2t-39 -10t-44 -21.5t-39 -40.5t-27 -63h-334q3 55 20.5 110t56.5 112t95.5 100t145 70.5t197.5 27.5q280 0 423.5 -193t143.5 -542
q0 -164 -32.5 -293.5t-86.5 -211t-128.5 -134.5t-152.5 -74.5t-165 -21.5q-65 0 -129 10t-141.5 42.5t-135.5 84.5t-97.5 144.5t-39.5 213.5q0 81 20 149t52 113t75.5 80t86 54.5t89 32t80 16.5t62.5 4zM614 287q68 0 108 27q69 47 69 165q0 50 -14 87.5t-33 56.5
t-44.5 30.5t-42 14t-32.5 2.5q-12 0 -28 -2.5t-43.5 -13.5t-49 -30t-37.5 -56t-16 -87q0 -51 14 -89t32.5 -57.5t43.5 -31t41.5 -14t31.5 -2.5z" />
    <glyph glyph-name="product" unicode="&#x220f;" horiz-adv-x="1603" 
d="M92 1638h1419v-2027h-366v1681h-686v-1681h-367v2027z" />
    <glyph glyph-name="summation" unicode="&#x2211;" horiz-adv-x="1466" 
d="M1374 1298h-678l369 -673l-369 -674h678v-340h-1282l563 1014l-563 1013h1282v-340z" />
    <glyph glyph-name="minus" unicode="&#x2212;" horiz-adv-x="870" 
d="M80 647h727v-282h-727v282z" />
    <glyph glyph-name="radical" unicode="&#x221a;" horiz-adv-x="1773" 
d="M1681 1638l-514 -2027h-450l-357 842h-268v409h522l308 -772l385 1548h374z" />
    <glyph glyph-name="infinity" unicode="&#x221e;" horiz-adv-x="1732" 
d="M1255 901q176 0 292 -98.5t116 -265.5q0 -172 -116 -271.5t-292 -99.5q-179 0 -389 182q-210 -182 -387 -182t-293 99.5t-116 271.5q0 167 116 265.5t293 98.5q175 0 387 -180q212 180 389 180zM500 446q103 0 180 91q-82 94 -180 94q-54 0 -79.5 -30t-25.5 -64
t25.5 -62.5t79.5 -28.5zM1233 446q54 0 79 28.5t25 62.5t-25 64t-79 30q-98 0 -180 -94q77 -91 180 -91z" />
    <glyph glyph-name="integral" unicode="&#x222b;" horiz-adv-x="665" 
d="M143 1014q0 70 10.5 124t41.5 108.5t83 89.5t140 57t207 22v-321q-34 0 -56 -14.5t-31.5 -44t-12.5 -56t-3 -66.5v-899q0 -82 -12.5 -142.5t-44.5 -111.5t-86.5 -82.5t-138.5 -49t-199 -17.5v321q21 0 38 5t27.5 11.5t18 20.5t11.5 23t5.5 29t2 29.5t0 32.5t-0.5 30v901z
" />
    <glyph glyph-name="approxequal" unicode="&#x2248;" horiz-adv-x="1148" 
d="M909 809h148q0 -87 -29 -156.5t-96.5 -115t-165.5 -45.5q-49 0 -98 18t-90.5 43.5t-82.5 51t-89 43.5t-95 18q-24 0 -48 -12t-23 -38h-148q0 65 17 121t51 100.5t90.5 70.5t130.5 26q50 0 99.5 -18t91 -43.5t82.5 -51t89 -43.5t95 -18q25 0 48.5 11.5t22.5 37.5zM909 481
h148q0 -87 -29 -156.5t-96.5 -115t-165.5 -45.5q-49 0 -98 18t-90.5 43.5t-82.5 51t-89 43.5t-95 18q-25 0 -48.5 -11.5t-22.5 -37.5h-148q0 88 29 157.5t96 114.5t164 45q50 0 99.5 -18t91 -43.5t82.5 -51t89 -43.5t95 -18q25 0 48.5 11.5t22.5 37.5z" />
    <glyph glyph-name="notequal" unicode="&#x2260;" horiz-adv-x="870" 
d="M803 584h-242l-18 -45h260v-283h-369l-100 -256h-242l101 256h-117v283h225l18 45h-243v282h352l111 283h241l-110 -283h133v-282z" />
    <glyph glyph-name="lessequal" unicode="&#x2264;" horiz-adv-x="905" 
d="M805 635l-418 135l418 135v314l-703 -306v-282l703 -309v313zM102 283h701v-283h-701v283z" />
    <glyph glyph-name="greaterequal" unicode="&#x2265;" horiz-adv-x="909" 
d="M104 635v-313l703 309v282l-703 306v-314l418 -135zM807 283v-283h-701v283h701z" />
    <glyph glyph-name="lozenge" unicode="&#x25ca;" horiz-adv-x="1361" 
d="M952 1434l318 -717l-318 -717h-542l-318 717l318 717h542zM682 252l205 465l-205 465l-207 -465z" />
    <glyph glyph-name="G.ss01" horiz-adv-x="1466" 
d="M817 782h582v-782h-367v111q-63 -73 -131 -101t-172 -28q-145 0 -267 51t-208.5 144.5t-135 232t-48.5 307.5q0 343 186 539t492 196q113 0 216 -31t188 -91t142.5 -157t73.5 -219h-391q-41 85 -89.5 121.5t-129.5 36.5q-133 0 -202 -108.5t-69 -286.5q0 -65 9.5 -121
t31 -106.5t54 -86.5t81 -57.5t109.5 -23.5q210 -6 250 145h-205v315z" />
    <glyph glyph-name="R.ss01" horiz-adv-x="1349" 
d="M1300 0h-403l-217 397h-182v-397h-398v1434h609q149 0 261.5 -38.5t180.5 -109t101.5 -163.5t33.5 -208q0 -154 -61.5 -270.5t-186.5 -179.5zM498 1094v-355h207q77 0 117 47.5t40 128.5q0 82 -40 130.5t-117 48.5h-207z" />
    <glyph glyph-name="G.ss05" horiz-adv-x="1466" 
d="M817 782h582v-782h-367v111q-63 -73 -131 -101t-172 -28q-145 0 -267 51t-208.5 144.5t-135 232t-48.5 307.5q0 343 186 539t492 196q113 0 216 -31t188 -91t142.5 -157t73.5 -219h-391q-41 85 -89.5 121.5t-129.5 36.5q-133 0 -202 -108.5t-69 -286.5q0 -65 9.5 -121
t31 -106.5t54 -86.5t81 -57.5t109.5 -23.5q210 -6 250 145h-205v315z" />
    <glyph glyph-name="i.loclTRK" horiz-adv-x="579" 
d="M100 1452h383v-248h-383v248zM100 1065h379v-1065h-379v1065z" />
    <glyph glyph-name="a.ss01" horiz-adv-x="1214" 
d="M735 1065h379v-1065h-379v66q-25 -31 -81.5 -55.5t-147.5 -24.5q-43 0 -90.5 12t-100 37t-99 69t-84.5 102t-60.5 142.5t-22.5 183.5q0 115 32 210.5t81.5 155.5t112 101.5t121 58.5t110.5 17q49 0 89.5 -9t62 -19.5t41 -28.5t24 -24.5t12.5 -20.5v92zM590 291
q80 0 121 57.5t41 183.5q0 238 -162 238q-80 0 -121 -55.5t-41 -182.5q0 -129 41 -185t121 -56z" />
    <glyph glyph-name="aacute.ss01" horiz-adv-x="1214" 
d="M1020 1452l-252 -262h-317l153 262h416zM735 1065h379v-1065h-379v66q-25 -31 -81.5 -55.5t-147.5 -24.5q-43 0 -90.5 12t-100 37t-99 69t-84.5 102t-60.5 142.5t-22.5 183.5q0 115 32 210.5t81.5 155.5t112 101.5t121 58.5t110.5 17q49 0 89.5 -9t62 -19.5t41 -28.5
t24 -24.5t12.5 -20.5v92zM590 291q80 0 121 57.5t41 183.5q0 238 -162 238q-80 0 -121 -55.5t-41 -182.5q0 -129 41 -185t121 -56z" />
    <glyph glyph-name="abreve.ss01" horiz-adv-x="1214" 
d="M621 1106q-185 0 -284 88.5t-99 257.5h241q10 -58 44.5 -80t97.5 -22t97 22t44 80h242q0 -170 -98 -258t-285 -88zM735 1065h379v-1065h-379v66q-25 -31 -81.5 -55.5t-147.5 -24.5q-43 0 -90.5 12t-100 37t-99 69t-84.5 102t-60.5 142.5t-22.5 183.5q0 115 32 210.5
t81.5 155.5t112 101.5t121 58.5t110.5 17q49 0 89.5 -9t62 -19.5t41 -28.5t24 -24.5t12.5 -20.5v92zM590 291q80 0 121 57.5t41 183.5q0 238 -162 238q-80 0 -121 -55.5t-41 -182.5q0 -129 41 -185t121 -56z" />
    <glyph glyph-name="uni01CE.ss01" horiz-adv-x="1214" 
d="M973 1133h-711l-115 301h293l178 -146l177 146h292zM735 1065h379v-1065h-379v66q-25 -31 -81.5 -55.5t-147.5 -24.5q-43 0 -90.5 12t-100 37t-99 69t-84.5 102t-60.5 142.5t-22.5 183.5q0 115 32 210.5t81.5 155.5t112 101.5t121 58.5t110.5 17q49 0 89.5 -9t62 -19.5
t41 -28.5t24 -24.5t12.5 -20.5v92zM590 291q80 0 121 57.5t41 183.5q0 238 -162 238q-80 0 -121 -55.5t-41 -182.5q0 -129 41 -185t121 -56z" />
    <glyph glyph-name="acircumflex.ss01" horiz-adv-x="1214" 
d="M621 1296l-179 -145h-292l114 301h711l115 -301h-293zM735 1065h379v-1065h-379v66q-25 -31 -81.5 -55.5t-147.5 -24.5q-43 0 -90.5 12t-100 37t-99 69t-84.5 102t-60.5 142.5t-22.5 183.5q0 115 32 210.5t81.5 155.5t112 101.5t121 58.5t110.5 17q49 0 89.5 -9t62 -19.5
t41 -28.5t24 -24.5t12.5 -20.5v92zM590 291q80 0 121 57.5t41 183.5q0 238 -162 238q-80 0 -121 -55.5t-41 -182.5q0 -129 41 -185t121 -56z" />
    <glyph glyph-name="adieresis.ss01" horiz-adv-x="1214" 
d="M561 1452v-248h-383v248h383zM1067 1452v-248h-383v248h383zM735 1065h379v-1065h-379v66q-25 -31 -81.5 -55.5t-147.5 -24.5q-43 0 -90.5 12t-100 37t-99 69t-84.5 102t-60.5 142.5t-22.5 183.5q0 115 32 210.5t81.5 155.5t112 101.5t121 58.5t110.5 17q49 0 89.5 -9
t62 -19.5t41 -28.5t24 -24.5t12.5 -20.5v92zM590 291q80 0 121 57.5t41 183.5q0 238 -162 238q-80 0 -121 -55.5t-41 -182.5q0 -129 41 -185t121 -56z" />
    <glyph glyph-name="agrave.ss01" horiz-adv-x="1214" 
d="M782 1190h-317l-252 262h416zM735 1065h379v-1065h-379v66q-25 -31 -81.5 -55.5t-147.5 -24.5q-43 0 -90.5 12t-100 37t-99 69t-84.5 102t-60.5 142.5t-22.5 183.5q0 115 32 210.5t81.5 155.5t112 101.5t121 58.5t110.5 17q49 0 89.5 -9t62 -19.5t41 -28.5t24 -24.5
t12.5 -20.5v92zM590 291q80 0 121 57.5t41 183.5q0 238 -162 238q-80 0 -121 -55.5t-41 -182.5q0 -129 41 -185t121 -56z" />
    <glyph glyph-name="amacron.ss01" horiz-adv-x="1214" 
d="M1026 1452v-215h-809v215h809zM735 1065h379v-1065h-379v66q-25 -31 -81.5 -55.5t-147.5 -24.5q-43 0 -90.5 12t-100 37t-99 69t-84.5 102t-60.5 142.5t-22.5 183.5q0 115 32 210.5t81.5 155.5t112 101.5t121 58.5t110.5 17q49 0 89.5 -9t62 -19.5t41 -28.5t24 -24.5
t12.5 -20.5v92zM590 291q80 0 121 57.5t41 183.5q0 238 -162 238q-80 0 -121 -55.5t-41 -182.5q0 -129 41 -185t121 -56z" />
    <glyph glyph-name="aogonek.ss01" horiz-adv-x="1214" 
d="M735 1065h379v-1065h-108q-66 -16 -117 -35.5t-81 -40t-49.5 -39t-28 -38.5t-11 -32t-2.5 -26q0 -57 47.5 -66t114.5 25v-151q-48 -27 -113.5 -45t-136 -20.5t-130.5 12.5t-98.5 60t-38.5 115q0 63 36.5 117t92.5 88.5t120 54t124 21.5v66q-25 -31 -81.5 -55.5
t-147.5 -24.5q-43 0 -90.5 12t-100 37t-99 69t-84.5 102t-60.5 142.5t-22.5 183.5q0 115 32 210.5t81.5 155.5t112 101.5t121 58.5t110.5 17q49 0 89.5 -9t62 -19.5t41 -28.5t24 -24.5t12.5 -20.5v92zM590 291q80 0 121 57.5t41 183.5q0 238 -162 238q-80 0 -121 -55.5
t-41 -182.5q0 -129 41 -185t121 -56z" />
    <glyph glyph-name="aring.ss01" horiz-adv-x="1214" 
d="M618 1186q-89 0 -155 64.5t-66 156.5t66 156.5t155 64.5t155.5 -64.5t66.5 -156.5t-66.5 -156.5t-155.5 -64.5zM618 1473q-25 0 -44 -17.5t-19 -48.5t19 -48.5t44 -17.5q26 0 45 17.5t19 48.5t-19 48.5t-45 17.5zM735 1065h379v-1065h-379v66q-25 -31 -81.5 -55.5
t-147.5 -24.5q-43 0 -90.5 12t-100 37t-99 69t-84.5 102t-60.5 142.5t-22.5 183.5q0 115 32 210.5t81.5 155.5t112 101.5t121 58.5t110.5 17q49 0 89.5 -9t62 -19.5t41 -28.5t24 -24.5t12.5 -20.5v92zM590 291q80 0 121 57.5t41 183.5q0 238 -162 238q-80 0 -121 -55.5
t-41 -182.5q0 -129 41 -185t121 -56z" />
    <glyph glyph-name="atilde.ss01" horiz-adv-x="1214" 
d="M389 1298q-25 0 -49 -12t-23 -37h-139q0 131 69.5 217t207.5 86q57 0 117.5 -26t104 -57t101.5 -57t111 -26q25 0 49 11.5t23 36.5h139q0 -131 -69 -217.5t-208 -86.5q-47 0 -94.5 17.5t-87.5 42t-79 49t-84 42t-89 17.5zM735 1065h379v-1065h-379v66
q-25 -31 -81.5 -55.5t-147.5 -24.5q-43 0 -90.5 12t-100 37t-99 69t-84.5 102t-60.5 142.5t-22.5 183.5q0 115 32 210.5t81.5 155.5t112 101.5t121 58.5t110.5 17q49 0 89.5 -9t62 -19.5t41 -28.5t24 -24.5t12.5 -20.5v92zM590 291q80 0 121 57.5t41 183.5q0 238 -162 238
q-80 0 -121 -55.5t-41 -182.5q0 -129 41 -185t121 -56z" />
    <glyph glyph-name="g.ss01" horiz-adv-x="1198" 
d="M575 297q80 0 152 -10t145 -36.5t125.5 -67t85.5 -108t33 -153.5q0 -83 -32.5 -148.5t-85 -107t-124.5 -68.5t-144.5 -38t-151.5 -11q-62 0 -121.5 8t-120.5 25t-111.5 46.5t-90.5 69t-62.5 97.5t-22.5 127q0 170 201 258q-74 14 -135.5 60.5t-61.5 115.5q0 60 37.5 100
t97.5 56q-59 83 -59 201q0 165 118.5 264.5t311.5 99.5q177 0 295 -88q87 78 215 76v-270q-33 0 -86 -17q6 -30 6 -65q0 -165 -118.5 -263t-311.5 -98q-116 0 -203 35q-10 -5 -10 -29q0 -15 5 -26t18.5 -17.5t23.5 -10.5t35.5 -5.5t39 -1.5h46.5h21h40zM559 815
q-32 0 -54.5 -9t-32.5 -19t-15.5 -28.5t-5.5 -24.5v-21v-3q0 -13 0.5 -21t6 -24t16 -25.5t32.5 -17.5t53 -8q32 0 54.5 8.5t33 18.5t15.5 27.5t5.5 24t0.5 20.5t-0.5 21t-5.5 25t-15.5 28t-33 19t-54.5 9zM584 -184q48 0 82 9t50 19t24.5 28t9 26.5t0.5 23.5q0 18 -0.5 27
t-9 27.5t-24.5 28t-50 18t-82 8.5q-28 0 -51.5 -3t-40 -6t-29.5 -11t-21 -12.5t-13.5 -15.5t-8 -15t-3.5 -17t-1 -15v-14v-16t3 -18t8.5 -21t17.5 -18.5t29.5 -17.5t45.5 -10.5t64 -4.5z" />
    <glyph glyph-name="l.ss01" horiz-adv-x="655" 
d="M592 0q-170 -18 -279.5 0t-161 104.5t-51.5 266.5v1081h379v-1108q0 -73 113 -70v-274z" />
    <glyph glyph-name="a.ss02" horiz-adv-x="1214" 
d="M735 1065h379v-1065h-379v66q-25 -31 -81.5 -55.5t-147.5 -24.5q-43 0 -90.5 12t-100 37t-99 69t-84.5 102t-60.5 142.5t-22.5 183.5q0 115 32 210.5t81.5 155.5t112 101.5t121 58.5t110.5 17q49 0 89.5 -9t62 -19.5t41 -28.5t24 -24.5t12.5 -20.5v92zM590 291
q80 0 121 57.5t41 183.5q0 238 -162 238q-80 0 -121 -55.5t-41 -182.5q0 -129 41 -185t121 -56z" />
    <glyph glyph-name="aacute.ss02" horiz-adv-x="1214" 
d="M1020 1452l-252 -262h-317l153 262h416zM735 1065h379v-1065h-379v66q-25 -31 -81.5 -55.5t-147.5 -24.5q-43 0 -90.5 12t-100 37t-99 69t-84.5 102t-60.5 142.5t-22.5 183.5q0 115 32 210.5t81.5 155.5t112 101.5t121 58.5t110.5 17q49 0 89.5 -9t62 -19.5t41 -28.5
t24 -24.5t12.5 -20.5v92zM590 291q80 0 121 57.5t41 183.5q0 238 -162 238q-80 0 -121 -55.5t-41 -182.5q0 -129 41 -185t121 -56z" />
    <glyph glyph-name="abreve.ss02" horiz-adv-x="1214" 
d="M621 1106q-185 0 -284 88.5t-99 257.5h241q10 -58 44.5 -80t97.5 -22t97 22t44 80h242q0 -170 -98 -258t-285 -88zM735 1065h379v-1065h-379v66q-25 -31 -81.5 -55.5t-147.5 -24.5q-43 0 -90.5 12t-100 37t-99 69t-84.5 102t-60.5 142.5t-22.5 183.5q0 115 32 210.5
t81.5 155.5t112 101.5t121 58.5t110.5 17q49 0 89.5 -9t62 -19.5t41 -28.5t24 -24.5t12.5 -20.5v92zM590 291q80 0 121 57.5t41 183.5q0 238 -162 238q-80 0 -121 -55.5t-41 -182.5q0 -129 41 -185t121 -56z" />
    <glyph glyph-name="uni01CE.ss02" horiz-adv-x="1214" 
d="M973 1133h-711l-115 301h293l178 -146l177 146h292zM735 1065h379v-1065h-379v66q-25 -31 -81.5 -55.5t-147.5 -24.5q-43 0 -90.5 12t-100 37t-99 69t-84.5 102t-60.5 142.5t-22.5 183.5q0 115 32 210.5t81.5 155.5t112 101.5t121 58.5t110.5 17q49 0 89.5 -9t62 -19.5
t41 -28.5t24 -24.5t12.5 -20.5v92zM590 291q80 0 121 57.5t41 183.5q0 238 -162 238q-80 0 -121 -55.5t-41 -182.5q0 -129 41 -185t121 -56z" />
    <glyph glyph-name="acircumflex.ss02" horiz-adv-x="1214" 
d="M621 1296l-179 -145h-292l114 301h711l115 -301h-293zM735 1065h379v-1065h-379v66q-25 -31 -81.5 -55.5t-147.5 -24.5q-43 0 -90.5 12t-100 37t-99 69t-84.5 102t-60.5 142.5t-22.5 183.5q0 115 32 210.5t81.5 155.5t112 101.5t121 58.5t110.5 17q49 0 89.5 -9t62 -19.5
t41 -28.5t24 -24.5t12.5 -20.5v92zM590 291q80 0 121 57.5t41 183.5q0 238 -162 238q-80 0 -121 -55.5t-41 -182.5q0 -129 41 -185t121 -56z" />
    <glyph glyph-name="adieresis.ss02" horiz-adv-x="1214" 
d="M559 1452v-248h-383v248h383zM1065 1452v-248h-383v248h383zM735 1065h379v-1065h-379v66q-25 -31 -81.5 -55.5t-147.5 -24.5q-43 0 -90.5 12t-100 37t-99 69t-84.5 102t-60.5 142.5t-22.5 183.5q0 115 32 210.5t81.5 155.5t112 101.5t121 58.5t110.5 17q49 0 89.5 -9
t62 -19.5t41 -28.5t24 -24.5t12.5 -20.5v92zM590 291q80 0 121 57.5t41 183.5q0 238 -162 238q-80 0 -121 -55.5t-41 -182.5q0 -129 41 -185t121 -56z" />
    <glyph glyph-name="agrave.ss02" horiz-adv-x="1214" 
d="M782 1190h-317l-252 262h416zM735 1065h379v-1065h-379v66q-25 -31 -81.5 -55.5t-147.5 -24.5q-43 0 -90.5 12t-100 37t-99 69t-84.5 102t-60.5 142.5t-22.5 183.5q0 115 32 210.5t81.5 155.5t112 101.5t121 58.5t110.5 17q49 0 89.5 -9t62 -19.5t41 -28.5t24 -24.5
t12.5 -20.5v92zM590 291q80 0 121 57.5t41 183.5q0 238 -162 238q-80 0 -121 -55.5t-41 -182.5q0 -129 41 -185t121 -56z" />
    <glyph glyph-name="amacron.ss02" horiz-adv-x="1214" 
d="M1026 1452v-215h-809v215h809zM735 1065h379v-1065h-379v66q-25 -31 -81.5 -55.5t-147.5 -24.5q-43 0 -90.5 12t-100 37t-99 69t-84.5 102t-60.5 142.5t-22.5 183.5q0 115 32 210.5t81.5 155.5t112 101.5t121 58.5t110.5 17q49 0 89.5 -9t62 -19.5t41 -28.5t24 -24.5
t12.5 -20.5v92zM590 291q80 0 121 57.5t41 183.5q0 238 -162 238q-80 0 -121 -55.5t-41 -182.5q0 -129 41 -185t121 -56z" />
    <glyph glyph-name="aogonek.ss02" horiz-adv-x="1214" 
d="M735 1065h379v-1065h-108q-66 -16 -117 -35.5t-81 -40t-49.5 -39t-28 -38.5t-11 -32t-2.5 -26q0 -57 47.5 -66t114.5 25v-151q-48 -27 -113.5 -45t-136 -20.5t-130.5 12.5t-98.5 60t-38.5 115q0 63 36.5 117t92.5 88.5t120 54t124 21.5v66q-25 -31 -81.5 -55.5
t-147.5 -24.5q-43 0 -90.5 12t-100 37t-99 69t-84.5 102t-60.5 142.5t-22.5 183.5q0 115 32 210.5t81.5 155.5t112 101.5t121 58.5t110.5 17q49 0 89.5 -9t62 -19.5t41 -28.5t24 -24.5t12.5 -20.5v92zM590 291q80 0 121 57.5t41 183.5q0 238 -162 238q-80 0 -121 -55.5
t-41 -182.5q0 -129 41 -185t121 -56z" />
    <glyph glyph-name="aring.ss02" horiz-adv-x="1214" 
d="M618 1186q-89 0 -155 64.5t-66 156.5t66 156.5t155 64.5t155.5 -64.5t66.5 -156.5t-66.5 -156.5t-155.5 -64.5zM618 1473q-25 0 -44 -17.5t-19 -48.5t19 -48.5t44 -17.5q26 0 45 17.5t19 48.5t-19 48.5t-45 17.5zM735 1065h379v-1065h-379v66q-25 -31 -81.5 -55.5
t-147.5 -24.5q-43 0 -90.5 12t-100 37t-99 69t-84.5 102t-60.5 142.5t-22.5 183.5q0 115 32 210.5t81.5 155.5t112 101.5t121 58.5t110.5 17q49 0 89.5 -9t62 -19.5t41 -28.5t24 -24.5t12.5 -20.5v92zM590 291q80 0 121 57.5t41 183.5q0 238 -162 238q-80 0 -121 -55.5
t-41 -182.5q0 -129 41 -185t121 -56z" />
    <glyph glyph-name="atilde.ss02" horiz-adv-x="1214" 
d="M387 1298q-25 0 -49 -12t-23 -37h-139q0 131 69.5 217t207.5 86q57 0 117.5 -26t104 -57t101.5 -57t111 -26q25 0 48.5 11.5t22.5 36.5h140q0 -131 -69 -217.5t-208 -86.5q-47 0 -94.5 17.5t-87.5 42t-79 49t-84 42t-89 17.5zM735 1065h379v-1065h-379v66
q-25 -31 -81.5 -55.5t-147.5 -24.5q-43 0 -90.5 12t-100 37t-99 69t-84.5 102t-60.5 142.5t-22.5 183.5q0 115 32 210.5t81.5 155.5t112 101.5t121 58.5t110.5 17q49 0 89.5 -9t62 -19.5t41 -28.5t24 -24.5t12.5 -20.5v92zM590 291q80 0 121 57.5t41 183.5q0 238 -162 238
q-80 0 -121 -55.5t-41 -182.5q0 -129 41 -185t121 -56z" />
    <glyph glyph-name="g.ss03" horiz-adv-x="1198" 
d="M575 297q80 0 152 -10t145 -36.5t125.5 -67t85.5 -108t33 -153.5q0 -83 -32.5 -148.5t-85 -107t-124.5 -68.5t-144.5 -38t-151.5 -11q-62 0 -121.5 8t-120.5 25t-111.5 46.5t-90.5 69t-62.5 97.5t-22.5 127q0 170 201 258q-74 14 -135.5 60.5t-61.5 115.5q0 60 37.5 100
t97.5 56q-59 83 -59 201q0 165 118.5 264.5t311.5 99.5q177 0 295 -88q87 78 215 76v-270q-33 0 -86 -17q6 -30 6 -65q0 -165 -118.5 -263t-311.5 -98q-116 0 -203 35q-10 -5 -10 -29q0 -15 5 -26t18.5 -17.5t23.5 -10.5t35.5 -5.5t39 -1.5h46.5h21h40zM559 815
q-32 0 -54.5 -9t-32.5 -19t-15.5 -28.5t-5.5 -24.5v-21v-3q0 -13 0.5 -21t6 -24t16 -25.5t32.5 -17.5t53 -8q32 0 54.5 8.5t33 18.5t15.5 27.5t5.5 24t0.5 20.5t-0.5 21t-5.5 25t-15.5 28t-33 19t-54.5 9zM584 -184q48 0 82 9t50 19t24.5 28t9 26.5t0.5 23.5q0 18 -0.5 27
t-9 27.5t-24.5 28t-50 18t-82 8.5q-28 0 -51.5 -3t-40 -6t-29.5 -11t-21 -12.5t-13.5 -15.5t-8 -15t-3.5 -17t-1 -15v-14v-16t3 -18t8.5 -21t17.5 -18.5t29.5 -17.5t45.5 -10.5t64 -4.5z" />
    <glyph glyph-name="l.ss04" horiz-adv-x="655" 
d="M592 0q-170 -18 -279.5 0t-161 104.5t-51.5 266.5v1081h379v-1108q0 -73 113 -70v-274z" />
    <glyph glyph-name="f_t" horiz-adv-x="1607" 
d="M1454 279q38 0 105 12v-268q-87 -35 -209 -35q-72 0 -127 8t-108 32t-86.5 63.5t-54 106t-20.5 156.5v418h-379v-772h-378v772h-156v293h156v4q0 81 14.5 144.5t35.5 104.5t56 70.5t65 44t75 22.5t73 9.5t70 1.5q44 0 94 -7t68 -15v-273q-49 7 -64 7q-67 0 -88 -25.5
t-21 -87.5h379v266h379v-266h221v-293h-221v-375q0 -118 121 -118z" />
    <glyph glyph-name="r_t" horiz-adv-x="1636" 
d="M1483 279q37 0 104 12v-268q-87 -35 -209 -35q-72 0 -127 8t-107.5 32t-86 63.5t-54 106t-20.5 156.5v418h-125q-97 0 -168 -19.5t-113 -56t-64.5 -78.5t-33.5 -96v-522h-379v1065h379v-238q19 68 76 123.5t122 84t124 30.5h182v266h379v-266h221v-293h-221v-375
q0 -118 121 -118z" />
    <glyph glyph-name="zero.dnom" horiz-adv-x="591" 
d="M297 -4q100 0 161.5 70.5t61.5 187.5v27q0 117 -61.5 187.5t-161.5 70.5q-101 0 -163 -70.5t-62 -187.5v-27q0 -117 62 -187.5t163 -70.5zM297 403q39 0 59.5 -34.5t20.5 -87.5v-27q0 -53 -20.5 -88t-59.5 -35t-60.5 35t-21.5 88v27q0 52 21.5 87t60.5 35z" />
    <glyph glyph-name="one.dnom" horiz-adv-x="428" 
d="M336 535v-535h-133v360q-13 -24 -48.5 -33.5t-72.5 -0.5v135q37 -6 73 18.5t48 55.5h133z" />
    <glyph glyph-name="two.dnom" horiz-adv-x="559" 
d="M82 0v14q0 48 3.5 76t16.5 63.5t44 65t81 57.5q8 5 27.5 14.5t27.5 14.5t19.5 14.5t16 21.5t4.5 28q0 24 -16.5 35.5t-31.5 11.5q-16 0 -33.5 -13.5t-17.5 -44.5v-16h-141v16q0 83 47 134t145 51q97 0 148 -50t51 -124q0 -27 -8.5 -50.5t-18 -38.5t-32 -33t-35 -26.5
t-44.5 -27t-44 -25.5q-30 -17 -38.5 -24t-8.5 -15v-6h223v-123h-385z" />
    <glyph glyph-name="three.dnom" horiz-adv-x="575" 
d="M381 285q37 2 75 -31.5t38 -101.5q0 -72 -55.5 -116t-155.5 -44q-93 0 -147 48.5t-54 125.5h139q3 -53 68 -53t65 59q0 29 -16.5 44t-65.5 15h-22v99h22q10 0 18.5 1.5t14 4.5t10 6t7 7.5t4 8t2 8.5t0.5 7.5v6.5v5q0 15 -12 26t-33 11q-19 0 -34.5 -11t-15.5 -36h-133
q0 79 48 123.5t128 44.5q89 0 141 -41.5t52 -104.5q0 -47 -26.5 -75t-61.5 -37z" />
    <glyph glyph-name="four.dnom" horiz-adv-x="595" 
d="M514 135h-61v-135h-134v135h-237v109l237 291h134v-291h61v-109zM319 244v143l-120 -143h120z" />
    <glyph glyph-name="five.dnom" horiz-adv-x="544" 
d="M295 375q83 0 135.5 -51.5t52.5 -135.5q0 -96 -59.5 -147t-159.5 -51q-97 0 -150 48t-53 126h140q2 -43 63 -43q68 0 68 67q0 45 -19.5 64.5t-48.5 19.5q-43 0 -57 -24h-131l41 287h305v-125h-203l-8 -56q26 21 84 21z" />
    <glyph glyph-name="six.dnom" horiz-adv-x="606" 
d="M340 360q184 0 184 -174q0 -67 -34 -113t-81 -64.5t-102 -18.5q-100 0 -162.5 74t-62.5 204q0 123 60 198t171 75q87 0 139 -46t52 -102h-129q-4 11 -20.5 20t-41.5 9q-52 0 -75.5 -37t-18.5 -80q7 20 45.5 37.5t75.5 17.5zM305 121q31 0 51.5 19.5t20.5 49.5
q0 34 -22 53t-56 19q-25 0 -47.5 -18t-22.5 -56q0 -67 76 -67z" />
    <glyph glyph-name="seven.dnom" horiz-adv-x="479" 
d="M418 535v-125l-195 -410h-131l197 410h-248v125h377z" />
    <glyph glyph-name="eight.dnom" horiz-adv-x="497" 
d="M367 295q36 -21 57.5 -57t21.5 -72q0 -80 -55.5 -125t-142.5 -45q-86 0 -141.5 45.5t-55.5 124.5q0 36 22.5 72.5t57.5 56.5q-23 14 -36 43t-13 59q0 59 46.5 100.5t119.5 41.5q76 0 122 -41.5t46 -100.5q0 -74 -49 -102zM201 391q0 -19 12 -31t35 -12q43 0 43 43
q0 45 -43 45q-21 0 -34 -12t-13 -33zM248 98q32 0 48.5 19t16.5 47q0 31 -17 52.5t-48 21.5t-48.5 -21.5t-17.5 -52.5q0 -27 17 -46.5t49 -19.5z" />
    <glyph glyph-name="nine.dnom" horiz-adv-x="606" 
d="M266 170q-94 0 -139 43.5t-45 132.5q0 66 34 111.5t81 64.5t102 19q100 0 162.5 -74.5t62.5 -204.5q0 -122 -60 -197t-171 -75q-87 0 -139 45.5t-52 101.5h129q3 -10 20 -19t42 -9q52 0 75.5 36.5t18.5 79.5q-8 -19 -46.5 -37t-74.5 -18zM301 412q-31 0 -51.5 -20.5
t-20.5 -51.5q0 -33 22.5 -52.5t55.5 -19.5q24 0 47 19t23 57q0 68 -76 68z" />
    <glyph glyph-name="zero.numr" horiz-adv-x="591" 
d="M297 897q100 0 161.5 70.5t61.5 187.5v27q0 117 -61.5 187.5t-161.5 70.5q-101 0 -163 -70.5t-62 -187.5v-27q0 -117 62 -187.5t163 -70.5zM297 1305q39 0 59.5 -35t20.5 -88v-27q0 -53 -20.5 -88t-59.5 -35t-60.5 35t-21.5 88v27q0 53 21.5 88t60.5 35z" />
    <glyph glyph-name="one.numr" horiz-adv-x="438" 
d="M336 1436v-535h-133v361q-13 -24 -48.5 -34t-72.5 -1v135q37 -6 73 18.5t48 55.5h133z" />
    <glyph glyph-name="two.numr" horiz-adv-x="559" 
d="M82 901v14q0 38 1.5 61t9.5 54t23 53t42.5 47t68.5 48q6 3 33.5 17t34.5 19.5t17 20.5t10 35q0 24 -16.5 35.5t-31.5 11.5q-16 0 -33.5 -13t-17.5 -44v-17h-141v17q0 83 47 133.5t145 50.5q97 0 148 -50t51 -124q0 -27 -8.5 -50.5t-18 -38.5t-32 -33t-35 -26.5t-44.5 -27
t-44 -25.5q-30 -17 -38.5 -24t-8.5 -15v-6h223v-123h-385z" />
    <glyph glyph-name="three.numr" horiz-adv-x="518" 
d="M344 1186q37 2 75 -31.5t38 -101.5q0 -72 -55.5 -116t-155.5 -44q-93 0 -147 48.5t-54 125.5h139q3 -53 68 -53t65 59q0 29 -16 44.5t-65 15.5h-23v98h23q11 0 20 2t15 5t10 8t6 8.5t3 9.5t1 9v8v5q0 15 -12 26t-33 11q-19 0 -34 -11t-15 -36h-134q0 79 48 123.5
t129 44.5q88 0 140 -41.5t52 -104.5q0 -47 -26.5 -75t-61.5 -37z" />
    <glyph glyph-name="four.numr" horiz-adv-x="595" 
d="M514 1036h-61v-135h-134v135h-237v109l237 291h134v-291h61v-109zM319 1145v143l-120 -143h120z" />
    <glyph glyph-name="five.numr" horiz-adv-x="544" 
d="M295 1276q83 0 135.5 -51t52.5 -135q0 -96 -59.5 -147.5t-159.5 -51.5q-97 0 -150 48t-53 126h140q2 -43 63 -43q68 0 68 68q0 45 -19.5 64.5t-48.5 19.5q-43 0 -57 -25h-131l41 287h305v-125h-203l-8 -56q26 21 84 21z" />
    <glyph glyph-name="six.numr" horiz-adv-x="606" 
d="M340 1260q184 0 184 -175q0 -67 -34 -113t-81 -64.5t-102 -18.5q-100 0 -162.5 74t-62.5 204q0 123 60 198t171 75q87 0 139 -46t52 -102h-129q-4 11 -20.5 20t-41.5 9q-52 0 -75.5 -37t-18.5 -80q8 20 46 38t75 18zM305 1020q31 0 51.5 19.5t20.5 50.5q0 34 -22 52.5
t-56 18.5q-25 0 -47.5 -18t-22.5 -56q0 -67 76 -67z" />
    <glyph glyph-name="seven.numr" horiz-adv-x="479" 
d="M418 1436v-125l-195 -410h-131l197 410h-248v125h377z" />
    <glyph glyph-name="eight.numr" horiz-adv-x="497" 
d="M367 1196q36 -21 57.5 -57t21.5 -72q0 -80 -55.5 -125t-142.5 -45q-86 0 -141.5 45.5t-55.5 124.5q0 36 22.5 72.5t57.5 56.5q-23 14 -36 43t-13 59q0 59 46.5 100.5t119.5 41.5q76 0 122 -41.5t46 -100.5q0 -74 -49 -102zM201 1292q0 -19 12 -31t35 -12q43 0 43 43
q0 45 -43 45q-21 0 -34 -12t-13 -33zM248 999q32 0 48.5 19t16.5 47q0 31 -17 52.5t-48 21.5t-48.5 -21.5t-17.5 -52.5q0 -27 17 -46.5t49 -19.5z" />
    <glyph glyph-name="nine.numr" horiz-adv-x="606" 
d="M266 1071q-94 0 -139 43.5t-45 132.5q0 66 34 111.5t81 64.5t102 19q100 0 162.5 -74.5t62.5 -204.5q0 -122 -60 -197t-171 -75q-87 0 -139 45.5t-52 101.5h129q3 -10 20 -19t42 -9q52 0 75.5 36.5t18.5 79.5q-8 -19 -46.5 -37t-74.5 -18zM301 1313q-31 0 -51.5 -20.5
t-20.5 -51.5q0 -33 22.5 -52.5t55.5 -19.5q24 0 47 19t23 57q0 68 -76 68z" />
    <glyph glyph-name="ampersand.001" horiz-adv-x="1538" 
d="M1489 0h-414l-65 70q-160 -95 -361 -95q-85 0 -166 16t-156.5 51.5t-132 86.5t-90.5 128t-34 169q0 237 286 348q-67 88 -98 162t-31 154q0 74 23 138t71.5 118t135 85t202.5 31q113 0 198 -31t134 -85.5t72.5 -119.5t23.5 -141q0 -121 -71.5 -216.5t-186.5 -147.5
l-12 -6l168 -180q50 100 53 229h342q-29 -294 -153 -485zM659 1188q-60 0 -88 -35t-28 -78q0 -38 15.5 -67t76.5 -99q139 78 139 162q0 48 -27.5 82.5t-87.5 34.5zM653 299q56 0 117 25l-227 239q-64 -49 -64 -127q0 -58 48 -97.5t126 -39.5z" />
    <glyph glyph-name="Aacutecy" horiz-adv-x="1525" 
d="M1161 1821l-252 -262h-317l153 262h416zM1059 0l-66 209h-461l-65 -209h-428l545 1434h358l545 -1434h-428zM621 498h282l-141 452z" />
    <glyph glyph-name="Ieacutecy" 
d="M1047 1821l-252 -262h-318l154 262h416zM498 340h673v-340h-1071v1434h1051v-340h-653v-215h551v-316h-551v-223z" />
    <glyph glyph-name="Iiacutecy" horiz-adv-x="1464" 
d="M563 1559h318l252 262h-416zM100 1434h398v-791h8l465 791h393v-1434h-397v764h-9l-448 -764h-410v1434z" />
    <glyph glyph-name="Oacutecy" horiz-adv-x="1544" 
d="M602 1559h318l251 262h-415zM772 1452q324 0 513.5 -197.5t189.5 -537.5q0 -336 -190 -535.5t-513 -199.5t-512.5 199.5t-189.5 535.5q0 340 189 537.5t513 197.5zM772 322q140 0 212.5 109.5t72.5 285.5q0 180 -72 287.5t-213 107.5t-213 -107.5t-72 -287.5
q0 -176 72.5 -285.5t212.5 -109.5z" />
    <glyph glyph-name="Uacutecy" horiz-adv-x="1294" 
d="M477 1559h318l252 262h-416zM815 1434h440l-444 -1014q-28 -65 -53.5 -116t-53 -97.5t-54.5 -80t-58 -64t-63 -48.5t-70.5 -34t-80.5 -20.5t-92 -7t-106 4.5v350q32 -3 59.5 -4t48 0t39 5t30.5 7.5t23 11t17 11.5t12.5 12.5t8 11.5t6 11.5t4.5 9.5q26 67 -41 235
l-348 816h440l164 -502z" />
    <glyph glyph-name="Yeruacutecy" horiz-adv-x="1927" 
d="M795 1559l153 262h416l-252 -262h-317zM709 981q294 0 435.5 -131.5t141.5 -360.5q0 -228 -141.5 -358.5t-435.5 -130.5h-609v1434h398v-453h211zM1430 1434h397v-1434h-397v1434zM705 334q78 0 117.5 41t39.5 114q0 74 -39.5 116t-117.5 42h-207v-313h207z" />
    <glyph glyph-name="Ereversedacutecy" horiz-adv-x="1435" 
d="M1120 1821l-252 -262h-317l154 262h415zM688 1452q311 0 494.5 -195t183.5 -540t-183.5 -540t-494.5 -195q-119 0 -224.5 32.5t-192 96t-141 168t-62.5 237.5h393q37 -110 81 -152t136 -42q104 0 168 64t88 177h-316v316h314q-24 110 -87 171.5t-167 61.5
q-90 0 -133.5 -40.5t-83.5 -147.5h-391q9 131 63.5 234t140.5 166t191 95.5t223 32.5z" />
    <glyph glyph-name="Iuacutecy" horiz-adv-x="2127" 
d="M1466 1821l-252 -262h-317l154 262h415zM1356 1452q324 0 513 -197.5t189 -537.5q0 -336 -189.5 -535.5t-512.5 -199.5q-284 0 -466 155.5t-224 425.5h-168v-563h-398v1434h398v-549h170q44 267 225 417t463 150zM1356 322q140 0 212 109.5t72 285.5q0 180 -71.5 287.5
t-212.5 107.5t-213 -107.5t-72 -287.5q0 -176 72.5 -285.5t212.5 -109.5z" />
    <glyph glyph-name="Iaacutecy" horiz-adv-x="1423" 
d="M1110 1821l-252 -262h-317l153 262h416zM1323 1434v-1434h-397v481h-277q-80 0 -122 -46.5t-42 -108.5v-86q0 -90 -7.5 -138t-33.5 -102h-397q26 54 33.5 102t7.5 138v100q0 102 45.5 178t155.5 141q-74 64 -102 100q-76 97 -76 230q0 93 32 171.5t97.5 140.5t175.5 97.5
t256 35.5h651zM926 793v299h-246q-75 0 -117.5 -35t-42.5 -105q0 -89 36 -124t149 -35h221z" />
    <glyph glyph-name="aacutecy" horiz-adv-x="1177" 
d="M995 1452l-252 -262h-317l154 262h415zM1073 330q0 -46 21 -73t55 -30v-213q-47 -22 -131 -22q-119 0 -200 48.5t-81 131.5v-31l-7 -11q-7 -10 -17 -23t-27 -30t-42 -32.5t-56 -29t-75.5 -21.5t-94.5 -8q-71 0 -133.5 18t-117 55t-86.5 104t-32 156q0 40 7.5 74.5
t18.5 60.5t30.5 48t38 37.5t46.5 29.5t49.5 22t54.5 16.5t53.5 12.5t54.5 10.5t51 10.5q30 6 76.5 14.5t69.5 13t50 13t45 20.5q-4 101 -114 101q-104 0 -119 -98h-357q27 370 478 370q183 0 291 -51t154 -151.5t46 -266.5v-276zM694 334v151q-30 -15 -55 -24.5t-39 -13.5
t-41 -11t-45 -12q-44 -15 -65 -36t-21 -52q0 -32 23 -58t75 -26q63 0 105.5 26.5t62.5 55.5z" />
    <glyph glyph-name="ieacutecy" horiz-adv-x="1169" 
d="M989 1452l-252 -262h-317l153 262h416zM1120 475q0 -39 -2 -57h-702q15 -82 61 -118t133 -36q70 0 111 23t51 59h324q-35 -179 -164 -269.5t-344 -90.5q-72 0 -144 17t-144.5 57.5t-127 100.5t-89 154.5t-34.5 210.5q0 118 33.5 213.5t88 156.5t126.5 102.5t146 59
t151 17.5q84 0 158 -18t142.5 -61.5t117.5 -110.5t78.5 -172t29.5 -238zM418 645h342q-3 66 -44 110t-122 44q-146 0 -176 -154z" />
    <glyph glyph-name="iiacutecy" horiz-adv-x="1292" 
d="M479 1190h318l252 262h-416zM100 1065h379v-524h8l330 524h377v-1065h-379v498h-10l-313 -498h-392v1065z" />
    <glyph glyph-name="oacutecy" horiz-adv-x="1193" 
d="M428 1190h317l252 262h-415zM598 1075q57 0 116.5 -12.5t122 -38t117 -69.5t98 -102.5t68.5 -142t25 -182.5q0 -116 -36 -210.5t-93 -155t-131 -101.5t-146 -58t-141 -17t-141 17t-146.5 58t-131.5 101.5t-93.5 155t-36.5 210.5q0 118 36.5 214t93.5 156.5t131.5 101.5
t146 58t141.5 17zM782 528q0 127 -51 186.5t-133 59.5t-134 -59.5t-52 -186.5q0 -119 52.5 -179t133.5 -60t132.5 60t51.5 179z" />
    <glyph glyph-name="uacutecy" 
d="M446 1190h318l252 262h-416zM821 1065h383l-424 -1014q-59 -147 -114.5 -237t-129.5 -146.5t-165.5 -74t-220.5 -5.5v318q94 -9 155.5 11t78.5 40t37 57q3 6 5 9q13 28 -22 118q-1 4 -2 6.5t-2.5 6t-2.5 6.5l-368 905h391l192 -576z" />
    <glyph glyph-name="yeruacutecy" horiz-adv-x="1792" 
d="M727 1190l154 262h415l-252 -262h-317zM733 729q201 0 324 -101t123 -263q0 -168 -121.5 -266.5t-325.5 -98.5h-633v1065h379v-336h254zM1315 1065h379v-1065h-379v1065zM729 293q38 0 61 19t23 53t-23 51.5t-61 17.5h-250v-141h250z" />
    <glyph glyph-name="ereversedacutecy" horiz-adv-x="1126" 
d="M963 1452l-252 -262h-318l154 262h416zM541 1075q76 0 149 -17t144 -57.5t124 -101t86 -156t33 -213.5q0 -119 -33 -215t-86.5 -156t-125 -100t-144 -56.5t-149.5 -16.5q-59 0 -116 10.5t-120.5 39.5t-113 75t-88 124.5t-52.5 180.5h340q11 -57 41.5 -91t104.5 -34
q129 0 165 127h-239v225h239q-37 127 -163 127q-72 0 -98.5 -30t-32.5 -83h-347q15 101 53 177.5t85 121t109 72.5t117.5 37.5t117.5 9.5z" />
    <glyph glyph-name="iuacutecy" horiz-adv-x="1736" 
d="M1268 1452l-252 -262h-318l154 262h416zM1141 1075q57 0 116.5 -12.5t122 -38t117 -69.5t98 -102.5t68.5 -142t25 -182.5q0 -116 -36 -210.5t-93 -155t-131 -101.5t-146 -58t-141 -17q-76 0 -155 22t-157 67t-138.5 126t-84.5 186h-127v-389h-379v1065h379v-383h129
q26 105 86 184.5t137 123.5t155.5 65.5t154.5 21.5zM1141 289q81 0 132.5 60t51.5 179q0 127 -51 186.5t-133 59.5t-134.5 -59.5t-52.5 -186.5q0 -119 53 -179t134 -60z" />
    <glyph glyph-name="iaacutecy" horiz-adv-x="1267" 
d="M1032 1452l-252 -262h-317l153 262h416zM1167 1065v-1065h-379v336h-253q-64 -11 -64 -90v-84q0 -63 -5.5 -90t-25.5 -72h-379q20 45 25.5 72t5.5 90v84q0 67 24.5 116t88.5 80q-117 100 -117 258q0 168 121.5 266.5t325.5 98.5h632zM788 631v141h-249q-38 0 -61 -19
t-23 -53t23 -51.5t61 -17.5h249z" />
    </font>
</defs>
</svg>
