<?xml version="1.0" standalone="no"?>
<!DOCTYPE svg PUBLIC "-//W3C//DTD SVG 1.1//EN" "http://www.w3.org/Graphics/SVG/1.1/DTD/svg11.dtd" >
<svg xmlns="http://www.w3.org/2000/svg" xmlns:xlink="http://www.w3.org/1999/xlink" version="1.1">
<metadata>
Created by FontForge 20170731 at Mon Aug  7 16:11:18 2023
 By Aleksey,,,
(c) 2017 Connary Fagen
</metadata>
<defs>
<font id="ArticulatCF-HeavyOblique" horiz-adv-x="1210" >
  <font-face 
    font-family="Articulat CF Heavy"
    font-weight="900"
    font-style="oblique"
    font-stretch="normal"
    units-per-em="2048"
    panose-1="0 0 10 0 0 0 0 0 0 0"
    ascent="1638"
    descent="-410"
    x-height="1065"
    cap-height="1434"
    bbox="-623 -887 2353 2013"
    underline-thickness="102"
    underline-position="-307"
    slope="-9"
    unicode-range="U+0020-FB02"
  />
<missing-glyph horiz-adv-x="1044" 
d="M856 1638v-2089h-661v2089h661zM696 1499h-346v-69h137v-78h-139v-68h348v68h-139v78h139v69zM557 1229h-209v-217h348v71h-139v146zM487 1157v-74h-69v74h69zM696 954h-348v-67h139v-78h-139v-70h209v148h139v67zM696 829h-69v-137h-279v-71h348v208zM696 575h-209v-116
h70v47h70v-98h-209v167h-70v-235h348v235zM696 213h-348v-236h348v236zM627 145v-98h-209v98h209zM696 -70h-348v-69h148l-148 -99v-69h348v69h-213l146 99h67v69z" />
    <glyph glyph-name="fi" unicode="fi" horiz-adv-x="1390" 
d="M766 1178q-61 0 -87 -28.5t-36 -84.5h166l-45 -293h-168l-123 -772h-379l123 772h-178l45 293h180l2 8q13 78 37 139.5t51.5 102.5t67.5 70t74.5 44.5t82.5 24t82 10.5t82 2q79 0 131 -10l-45 -282q-54 4 -63 4zM1053 1452h381l-41 -270h-381zM825 0l168 1065h381
l-168 -1065h-381z" />
    <glyph glyph-name="fl" unicode="fl" horiz-adv-x="1429" 
d="M766 1178q-61 0 -87 -28.5t-36 -84.5h166l-45 -293h-168l-123 -772h-379l123 772h-178l45 293h180l2 8q13 78 37 139.5t51.5 102.5t67.5 70t74.5 44.5t82.5 24t82 10.5t82 2q79 0 131 -10l-45 -282q-54 4 -63 4zM1065 1434h381l-225 -1434h-381z" />
    <glyph glyph-name=".notdef" horiz-adv-x="1044" 
d="M856 1638v-2089h-661v2089h661zM696 1499h-346v-69h137v-78h-139v-68h348v68h-139v78h139v69zM557 1229h-209v-217h348v71h-139v146zM487 1157v-74h-69v74h69zM696 954h-348v-67h139v-78h-139v-70h209v148h139v67zM696 829h-69v-137h-279v-71h348v208zM696 575h-209v-116
h70v47h70v-98h-209v167h-70v-235h348v235zM696 213h-348v-236h348v236zM627 145v-98h-209v98h209zM696 -70h-348v-69h148l-148 -99v-69h348v69h-213l146 99h67v69z" />
    <glyph glyph-name=".null" horiz-adv-x="0" 
 />
    <glyph glyph-name="nonmarkingreturn" horiz-adv-x="682" 
 />
    <glyph glyph-name="space" unicode=" " horiz-adv-x="540" 
 />
    <glyph glyph-name="exclam" unicode="!" horiz-adv-x="661" 
d="M512 508h-408l134 926h430zM84 414h414l-64 -414h-414z" />
    <glyph glyph-name="quotedbl" unicode="&#x22;" horiz-adv-x="1124" 
d="M162 1010h379l63 424h-379zM741 1010h379l64 424h-379z" />
    <glyph glyph-name="numbersign" unicode="#" horiz-adv-x="1234" 
d="M1178 811h-177l-49 -188h138l-48 -295h-165l-84 -328h-285l84 328h-127l-84 -328h-285l84 328h-147l45 295h178l49 188h-137l45 297h168l84 326h285l-84 -326h127l84 326h284l-84 -326h148zM668 623l49 188h-127l-49 -188h127z" />
    <glyph glyph-name="dollar" unicode="$" horiz-adv-x="1415" 
d="M1354 979h-412q6 91 -47 123l-37 -234l41 -8q217 -40 312.5 -128t95.5 -251q0 -229 -160.5 -356t-429.5 -141l-27 -168h-192l28 174q-107 14 -194.5 53t-151 101t-93.5 153.5t-19 202.5h413q3 -137 97 -178l40 258l-49 8q-83 16 -150.5 44.5t-122.5 73.5t-85.5 112
t-30.5 151q0 114 44.5 204.5t124 148.5t183 90.5t226.5 37.5l26 168h193l-29 -174q209 -29 317.5 -145t88.5 -320zM594 1001q0 -26 17 -55.5t59 -42.5l35 217q-111 -25 -111 -119zM881 446q0 69 -74 97l-37 -230q111 26 111 133z" />
    <glyph glyph-name="percent" unicode="%" horiz-adv-x="1521" 
d="M426 731q-126 0 -201 72t-75 217q0 184 93 304t259 120q125 0 197.5 -70.5t72.5 -214.5q0 -122 -38.5 -217.5t-118 -153t-189.5 -57.5zM98 0l1073 1440l277 -6l-1065 -1434h-285zM444 969q86 0 86 168q0 69 -49 69q-34 0 -55 -27t-28 -61t-7 -74q0 -75 53 -75zM1051 -10
q-126 0 -201.5 72t-75.5 217q0 184 93 303.5t259 119.5q126 0 198.5 -70t72.5 -214q0 -122 -38.5 -217.5t-118 -153t-189.5 -57.5zM1069 227q86 0 86 168q0 70 -49 70q-34 0 -55 -27t-28 -61t-7 -74q0 -76 53 -76z" />
    <glyph glyph-name="ampersand" unicode="&#x26;" horiz-adv-x="1536" 
d="M1382 764q-56 -300 -221 -500l209 -264h-409l-50 66q-178 -91 -374 -91q-80 0 -154.5 14.5t-141.5 45.5t-116.5 76t-79 111t-29.5 145q0 67 21 125.5t53.5 101.5t81 82t95 65t104.5 52q-90 136 -90 266q0 57 16 112t53 108.5t91 93.5t136 64.5t183 24.5q83 0 149.5 -18
t110.5 -48.5t73.5 -73.5t42.5 -91.5t13 -104.5q0 -287 -330 -426l-2 -2l141 -178q75 112 84 244h340zM731 1184q-62 0 -103.5 -36t-41.5 -91q0 -31 12 -60t47 -75q97 40 145 81t48 99q0 35 -25 58.5t-82 23.5zM590 293q60 0 129 29l-180 239q-35 -18 -59 -40t-33.5 -40
t-15.5 -35t-4 -26t1 -13v-1q0 -46 42.5 -79.5t119.5 -33.5z" />
    <glyph glyph-name="quotesingle" unicode="'" horiz-adv-x="544" 
d="M162 1010h379l63 424h-379z" />
    <glyph glyph-name="parenleft" unicode="(" horiz-adv-x="753" 
d="M434 1526h375q-135 -195 -221 -411t-129 -484q-82 -527 63 -897h-364q-78 205 -96.5 429t24.5 517q84 509 348 846z" />
    <glyph glyph-name="parenright" unicode=")" horiz-adv-x="751" 
d="M582 1526q82 -193 103 -403.5t-21 -491.5q-82 -524 -357 -897h-373q278 427 357 946q80 486 -68 846h359z" />
    <glyph glyph-name="asterisk" unicode="*" horiz-adv-x="1163" 
d="M1067 1087l-180 -49l104 -168l-289 -161l-92 159l-137 -159l-248 161l152 170l-166 47l121 314l203 -62l30 224h299l-39 -222l215 60z" />
    <glyph glyph-name="plus" unicode="+" horiz-adv-x="1236" 
d="M1208 739l-51 -323h-387l-59 -381h-349l62 381h-381l51 323h381l62 381h346l-60 -381h385z" />
    <glyph glyph-name="comma" unicode="," horiz-adv-x="585" 
d="M-37 -369l19 113q76 10 122 64.5t58 125.5l14 66h-151l61 416h399l-55 -361q-12 -83 -35 -148.5t-50 -109.5t-65 -75.5t-72.5 -48.5t-80.5 -27t-81.5 -12.5t-82.5 -2.5z" />
    <glyph glyph-name="hyphen" unicode="-" horiz-adv-x="952" 
d="M90 692h768l-45 -262h-768z" />
    <glyph glyph-name="period" unicode="." horiz-adv-x="600" 
d="M84 414h414l-64 -414h-414z" />
    <glyph glyph-name="slash" unicode="/" horiz-adv-x="1101" 
d="M1143 1434l-785 -1430h-391l785 1430h391z" />
    <glyph glyph-name="zero" unicode="0" horiz-adv-x="1308" 
d="M760 1448q77 0 148 -17t138.5 -58.5t116.5 -103.5t79 -159t30 -219q0 -138 -29 -269t-88 -246.5t-142 -202t-198.5 -137t-249.5 -50.5q-75 0 -144.5 16t-137 56t-116.5 100.5t-79.5 156.5t-30.5 217q0 140 28 272.5t86 249.5t140 204.5t198 138.5t251 51zM893 899
q0 35 -3 63.5t-12.5 60t-26 53t-46 36t-68.5 14.5q-77 0 -137.5 -51t-96 -136t-53.5 -186.5t-18 -211.5q0 -38 2.5 -67.5t12.5 -62t26 -53.5t45.5 -35t69.5 -14q79 0 139.5 51.5t95.5 138t52.5 188t17.5 212.5z" />
    <glyph glyph-name="one" unicode="1" horiz-adv-x="919" 
d="M928 1434l-226 -1434h-378l161 971q-54 -46 -119.5 -67t-122.5 -20.5t-122 1.5l45 307q137 16 228 70.5t153 171.5h381z" />
    <glyph glyph-name="two" unicode="2" horiz-adv-x="1206" 
d="M-8 0l4 37q7 60 13 100t16 91.5t22.5 87.5t31.5 79.5t43.5 76.5t59 70.5t77 68.5t97 64t121.5 64q11 5 46 19.5t48 20.5t44 20.5t44.5 22.5t38.5 24t36.5 28t28 30t24 35.5t13 39t5.5 45.5q0 31 -12.5 52t-33.5 30t-38.5 12.5t-36.5 3.5q-154 0 -180 -166h-365
q31 229 175.5 360.5t404.5 131.5q120 0 212 -30.5t147.5 -84.5t83.5 -123.5t28 -152.5q0 -57 -8.5 -106.5t-27.5 -91t-40 -74.5t-56.5 -65t-65.5 -55t-78.5 -51t-83.5 -47t-93 -49t-96 -51q-23 -11 -40 -20t-37 -20.5t-34.5 -21t-29 -20.5t-23 -21.5t-14.5 -21t-5 -21
t7 -20.5h604l-49 -301h-1028z" />
    <glyph glyph-name="three" unicode="3" horiz-adv-x="1282" 
d="M942 752q20 0 48 -9t62.5 -32t63.5 -55t48.5 -84.5t19.5 -114.5q0 -146 -84.5 -257t-225 -168t-313.5 -57q-171 0 -297 70t-179 188.5t-22 258.5h343q-11 -85 41.5 -139t144.5 -54q85 0 153 46.5t68 125.5q0 19 -4.5 36t-18.5 36.5t-36.5 33t-62 22.5t-91.5 9h-94l39 246
h73q178 0 225 108q11 27 11 62q0 54 -38.5 80t-90.5 26q-28 0 -56 -7t-58.5 -23.5t-53.5 -50.5t-33 -80h-350q38 232 187 357.5t387 125.5q215 0 346 -105.5t131 -261.5q0 -67 -26 -127t-68 -101.5t-91 -68.5t-98 -36z" />
    <glyph glyph-name="four" unicode="4" horiz-adv-x="1290" 
d="M1149 309h-164l-45 -309h-379l45 309h-594l51 301l721 824h381l-127 -824h164zM659 610l56 365l-332 -365h276z" />
    <glyph glyph-name="five" unicode="5" horiz-adv-x="1263" 
d="M735 1004q197 0 319 -113.5t122 -310.5q0 -276 -178 -438t-468 -162q-148 0 -262.5 56t-176 170t-42.5 267h346q-13 -64 30 -117t128 -53q100 0 173 70t73 184q0 41 -16.5 70t-35 42t-46.5 19.5t-36 7t-18 0.5q-129 0 -201 -84h-344l238 822h842l-54 -310h-575l-59 -202
q-2 -3 -4 -5q3 4 10.5 10.5t29.5 21t48 26t68 20.5t89 9z" />
    <glyph glyph-name="six" unicode="6" horiz-adv-x="1271" 
d="M750 924q43 0 90 -7t110.5 -31t111.5 -63t82 -111t34 -167q0 -161 -78.5 -290t-218 -202t-314.5 -73q-122 0 -214 36.5t-148 103.5t-87.5 161t-32.5 209.5t17 248.5q57 346 230 527.5t436 181.5q109 0 195 -28.5t137 -73t82.5 -101t41 -110t3.5 -103.5h-320q-1 39 -15 67
t-30.5 40.5t-40 19.5t-33 7.5t-19.5 0.5h-1q-53 0 -97.5 -15.5t-74 -42.5t-52 -57t-35.5 -64.5t-20.5 -59.5t-12 -47.5t-5.5 -24.5q-1 -4 3 -3t19 9q125 62 257 62zM602 291q91 0 148 66.5t57 160.5q0 42 -16 73.5t-40 46.5t-45.5 21.5t-39.5 6.5q-93 0 -157.5 -62
t-64.5 -162q0 -42 15 -73t33.5 -45.5t44.5 -22.5t39 -9t26 -1z" />
    <glyph glyph-name="seven" unicode="7" horiz-adv-x="1089" 
d="M1124 1434l-45 -322q-460 -561 -614 -1112h-393q193 640 645 1120h-582l49 314h940z" />
    <glyph glyph-name="eight" unicode="8" horiz-adv-x="1312" 
d="M1010 807q88 -39 140 -115.5t52 -173.5q0 -120 -50.5 -222t-137 -170.5t-201.5 -107t-244 -38.5q-105 0 -198 27t-166 78t-115.5 132.5t-42.5 183.5q0 141 75 252t218 176q-82 80 -82 211q0 78 29 145t77.5 114.5t112 81.5t133 50.5t140.5 16.5q202 0 317 -93t115 -245
q0 -26 -1.5 -45.5t-10.5 -56.5t-25.5 -67t-51.5 -67t-83 -67zM727 1157q-57 0 -99 -37.5t-42 -105.5q0 -37 25.5 -69t84.5 -32q63 0 104.5 43t41.5 103q0 48 -30.5 73t-84.5 25zM594 307q109 0 166 70.5t57 163.5q0 73 -48 107t-116 34q-88 0 -152.5 -64.5t-64.5 -156.5
q0 -20 3.5 -39t14.5 -40.5t27.5 -37.5t45.5 -26.5t67 -10.5z" />
    <glyph glyph-name="nine" unicode="9" horiz-adv-x="1271" 
d="M559 504q-43 0 -90 7t-110.5 31t-111.5 63t-82 111t-34 167q0 161 78 290t217.5 202t314.5 73q122 0 214.5 -36.5t148 -103.5t87 -161.5t32.5 -210t-17 -248.5q-57 -346 -229.5 -527t-435.5 -181q-109 0 -195 28.5t-137 72.5t-82.5 100.5t-41 110t-3.5 103.5h319
q1 -39 15 -67t31 -40.5t40 -19.5t33 -7.5t20 -0.5h1q53 0 97.5 15.5t74 42.5t52 57t35.5 64.5t20.5 59.5t12 47.5t5.5 24.5q1 4 -3 3t-19 -9q-126 -61 -257 -61zM707 1137q-91 0 -148 -67t-57 -161q0 -34 11 -61.5t27 -43t36 -25.5t36.5 -13.5t30.5 -3.5q93 0 157 61.5
t64 161.5q0 42 -15 73t-33.5 45.5t-44 23t-38.5 9.5t-26 1z" />
    <glyph glyph-name="colon" unicode=":" horiz-adv-x="600" 
d="M188 1065h414l-67 -414h-412zM84 414h414l-64 -414h-414z" />
    <glyph glyph-name="semicolon" unicode=";" horiz-adv-x="585" 
d="M188 1065h414l-67 -414h-412zM-37 -369l19 113q76 10 122 64.5t58 125.5l14 66h-151l61 416h399l-55 -361q-12 -83 -35 -148.5t-50 -109.5t-65 -75.5t-72.5 -48.5t-80.5 -27t-81.5 -12.5t-82.5 -2.5z" />
    <glyph glyph-name="less" unicode="&#x3c;" horiz-adv-x="1019" 
d="M887 346l-484 150l529 147l57 346l-909 -336l-47 -313l801 -340z" />
    <glyph glyph-name="equal" unicode="=" horiz-adv-x="952" 
d="M113 856h827l-41 -262h-827zM63 528h828l-39 -262h-829z" />
    <glyph glyph-name="greater" unicode="&#x3e;" horiz-adv-x="1021" 
d="M35 346l-53 -346l909 340l45 313l-799 336l-57 -346l487 -147z" />
    <glyph glyph-name="question" unicode="?" horiz-adv-x="1191" 
d="M719 1448q-127 0 -224.5 -26.5t-175.5 -86t-127 -160t-69 -243.5h369q2 6 7 27.5t7 28.5t7.5 26t10 26.5t12.5 22.5t16 21.5t20 16.5t25.5 14t31.5 7.5t39 3.5q35 0 57.5 -10.5t31.5 -22t11 -33t1.5 -27.5t-3.5 -23q-5 -26 -25.5 -49t-50 -43t-65 -42.5t-72 -54
t-68.5 -70.5t-57 -99t-35 -132v-12h408l4 12q10 67 37.5 117t61 78t73 59.5t73 61.5t62 84t39.5 127q29 194 -88 297.5t-344 103.5zM379 414h414l-66 -414h-412z" />
    <glyph glyph-name="at" unicode="@" horiz-adv-x="1533" 
d="M1137 369q-61 0 -105.5 15.5t-62 32t-38.5 44.5t-28 35q1 -1 -7.5 -14t-27 -32t-43.5 -38t-62.5 -32t-78.5 -13q-102 0 -182 73t-80 207q0 164 98 279.5t240 115.5q89 0 145 -63l6 47h242q-53 -332 -53 -362q0 -50 30 -50q58 0 87.5 64t29.5 164q0 158 -101.5 258
t-281.5 100q-166 0 -294 -76t-195.5 -202.5t-67.5 -280.5q0 -173 114.5 -290.5t285.5 -117.5q95 0 162 24t124 73l295 -86q-203 -258 -571 -258q-187 0 -336.5 83t-233.5 232t-84 336q0 164 61 313.5t166.5 259t255 174t318.5 64.5q177 0 320.5 -77t227 -218.5t83.5 -321.5
q0 -126 -42.5 -230.5t-125.5 -168t-190 -63.5zM840 727q0 70 -66 70q-41 0 -72.5 -32t-31.5 -85q0 -72 63 -72q55 0 81 36.5t26 82.5z" />
    <glyph glyph-name="A" unicode="A" horiz-adv-x="1550" 
d="M977 0l-33 209h-465l-98 -209h-424l758 1434h372l318 -1434h-428zM614 498h285l-72 452z" />
    <glyph glyph-name="B" unicode="B" horiz-adv-x="1409" 
d="M1114 782q90 -32 146.5 -119.5t56.5 -195.5q0 -91 -31.5 -167t-88.5 -131t-136 -93.5t-174.5 -57t-202.5 -18.5h-666l228 1434h616q219 0 336 -90t117 -248q0 -105 -55 -188.5t-146 -125.5zM819 1110h-227l-35 -215h199q64 0 100.5 33.5t36.5 103.5q0 31 -15.5 50
t-30 23.5t-28.5 4.5zM696 326q199 0 199 161q0 111 -111 111h-274l-43 -272h229z" />
    <glyph glyph-name="C" unicode="C" horiz-adv-x="1413" 
d="M696 322q97 0 152.5 43.5t97.5 150.5h381q-30 -133 -99.5 -237.5t-164 -168t-204.5 -96t-228 -32.5q-268 0 -422 149.5t-154 421.5q0 147 35 282t104.5 247t166 195t226.5 129t279 46q93 0 175.5 -20t151.5 -62.5t116.5 -104t69.5 -149t12 -192.5h-385q-10 99 -56 143.5
t-131 44.5t-153.5 -48.5t-108.5 -125.5t-61 -165t-21 -175q0 -276 221 -276z" />
    <glyph glyph-name="D" unicode="D" horiz-adv-x="1458" 
d="M842 1434q280 0 430.5 -149.5t150.5 -442.5q0 -254 -88.5 -442t-267 -294t-428.5 -106h-619l226 1434h596zM641 360q102 0 179.5 39t122.5 107t67 151.5t22 180.5q0 132 -59.5 183.5t-200.5 51.5h-182l-115 -713h166z" />
    <glyph glyph-name="E" unicode="E" horiz-adv-x="1243" 
d="M1241 1094h-653l-33 -215h551l-51 -316h-551l-33 -223h674l-53 -340h-1074l228 1434h1052z" />
    <glyph glyph-name="F" unicode="F" horiz-adv-x="1161" 
d="M1180 1094h-592l-33 -234h496l-52 -315h-495l-88 -545h-398l228 1434h989z" />
    <glyph glyph-name="G" unicode="G" horiz-adv-x="1454" 
d="M809 817h606l-16 -104q-31 -183 -85.5 -315t-142.5 -227t-217 -142t-301 -47q-283 0 -440.5 147.5t-157.5 415.5q0 147 35.5 283t105.5 249t166.5 197t226 131t277.5 47q93 0 175.5 -20t151.5 -62.5t116.5 -104t69.5 -149t12 -192.5h-385q-10 99 -56 143.5t-131 44.5
q-81 0 -148.5 -48t-109 -125t-64 -167.5t-22.5 -181.5q0 -268 232 -268q127 0 199.5 40t107.5 148h-256z" />
    <glyph glyph-name="H" unicode="H" horiz-adv-x="1458" 
d="M1071 1434h397l-227 -1434h-397l90 563h-428l-90 -563h-398l228 1434h397l-86 -549h428z" />
    <glyph glyph-name="I" unicode="I" horiz-adv-x="634" 
d="M418 0h-398l226 1434h397z" />
    <glyph glyph-name="J" unicode="J" horiz-adv-x="1157" 
d="M221 428l17 -16q17 -17 24.5 -23.5t28.5 -21t39 -21t46.5 -12.5t59.5 -6q36 0 61 5.5t53 23t46.5 56.5t28.5 99l145 922h397l-149 -942q-19 -129 -72.5 -227t-133 -158.5t-176 -90.5t-208.5 -30q-299 0 -453 196z" />
    <glyph glyph-name="K" unicode="K" horiz-adv-x="1533" 
d="M1571 1434l-625 -637l453 -797h-432l-279 526l2 11l-225 -230l-49 -307h-398l228 1434h397l-96 -605l581 605h443z" />
    <glyph glyph-name="L" unicode="L" horiz-adv-x="1216" 
d="M469 340h606l-53 -340h-1004l228 1434h397z" />
    <glyph glyph-name="M" unicode="M" horiz-adv-x="1798" 
d="M246 1434h465l172 -902l432 902h493l-227 -1434h-397l125 784h-15l-342 -784h-280l-119 784h-14l-123 -784h-398z" />
    <glyph glyph-name="N" unicode="N" horiz-adv-x="1499" 
d="M1509 1434l-227 -1434h-403l-334 764h-10l-119 -764h-398l228 1434h389l344 -791h10l123 791h397z" />
    <glyph glyph-name="O" unicode="O" horiz-adv-x="1521" 
d="M889 1452q279 0 438.5 -155t159.5 -425q0 -146 -38.5 -281t-111.5 -245t-174 -192t-232 -127t-278 -45q-277 0 -436.5 154.5t-159.5 422.5q0 186 60 350t166.5 284t263.5 189.5t342 69.5zM707 319q88 0 159 45.5t115 120.5t67 166t23 189q0 129 -58.5 201.5t-176.5 72.5
q-89 0 -160.5 -45t-114.5 -120t-65.5 -165.5t-22.5 -187.5q0 -128 59.5 -202.5t174.5 -74.5z" />
    <glyph glyph-name="P" unicode="P" horiz-adv-x="1392" 
d="M856 1434q259 0 381.5 -111t122.5 -309q0 -278 -184 -447.5t-486 -169.5h-211l-63 -397h-398l228 1434h610zM748 739q84 0 132 62t48 153q0 61 -33 100.5t-100 39.5h-207l-53 -355h213z" />
    <glyph glyph-name="Q" unicode="Q" horiz-adv-x="1521" 
d="M1487 872q0 -177 -55.5 -334t-159.5 -278l94 -110l-262 -218l-103 123q-162 -73 -348 -73q-277 0 -436.5 154.5t-159.5 422.5q0 186 60 350t166.5 284t263.5 189.5t342 69.5q279 0 438.5 -155t159.5 -425zM707 319q27 0 67 7l-127 151l256 217l115 -135q53 127 53 281
q0 129 -58.5 201.5t-176.5 72.5q-89 0 -160.5 -45t-114.5 -120t-65.5 -165.5t-22.5 -187.5q0 -128 59.5 -202.5t174.5 -74.5z" />
    <glyph glyph-name="R" unicode="R" horiz-adv-x="1447" 
d="M1135 659q104 -54 141 -109t37 -134q0 -29 -16.5 -151.5t-16.5 -158.5q0 -63 14 -106h-393q-14 32 -14 113q0 44 13 138.5t13 104.5q0 49 -37.5 87t-107.5 38h-276l-76 -481h-398l228 1434h651q255 0 377.5 -101.5t122.5 -267.5q0 -146 -58.5 -239t-203.5 -167zM774 793
q110 0 157.5 45t47.5 137q0 59 -37 89t-104 30h-250l-47 -301h233z" />
    <glyph glyph-name="S" unicode="S" horiz-adv-x="1413" 
d="M899 860q217 -40 312.5 -128t95.5 -251q0 -164 -86 -278t-232 -167.5t-340 -53.5q-103 0 -194 20t-166.5 62.5t-128.5 102.5t-77.5 145.5t-14.5 187.5h413q4 -197 199 -197q201 0 201 143q0 92 -140 113l-172 29q-83 16 -150.5 44.5t-122.5 73.5t-85.5 112t-30.5 151
q0 120 49.5 214t136.5 152t200 87.5t245 29.5q271 0 418 -118.5t125 -354.5h-412q6 83 -37.5 116t-122.5 33q-80 0 -134 -30t-54 -97q0 -18 6 -36.5t31 -40t65 -27.5z" />
    <glyph glyph-name="T" unicode="T" horiz-adv-x="1288" 
d="M1362 1434l-55 -340h-392l-170 -1094h-397l172 1094h-391l55 340h1178z" />
    <glyph glyph-name="U" unicode="U" horiz-adv-x="1462" 
d="M1475 1434l-140 -867q-29 -183 -128 -315.5t-245.5 -198t-326.5 -65.5q-136 0 -243.5 38t-179 110.5t-100 182.5t-6.5 248l140 867h397l-135 -850q-21 -131 27.5 -193.5t150.5 -62.5q215 0 256 256l135 850h398z" />
    <glyph glyph-name="V" unicode="V" horiz-adv-x="1568" 
d="M1206 1434h424l-739 -1434h-404l-303 1430l412 4l162 -955z" />
    <glyph glyph-name="W" unicode="W" horiz-adv-x="2191" 
d="M1823 1434h430l-635 -1434h-363l-133 817l-391 -817h-362l-185 1434h410l63 -828l363 828h377l102 -828z" />
    <glyph glyph-name="X" unicode="X" horiz-adv-x="1433" 
d="M1511 1434l-548 -695l346 -739h-449l-178 383l-303 -383h-442l579 735l-326 699h449l160 -342l270 342h442z" />
    <glyph glyph-name="Y" unicode="Y" horiz-adv-x="1554" 
d="M993 506l-80 -506h-409l78 506l-398 928h449l182 -547l363 547h438z" />
    <glyph glyph-name="Z" unicode="Z" horiz-adv-x="1267" 
d="M1157 340l-53 -340h-1127l48 297l774 797h-649l57 340h1116l-43 -297l-786 -797h663z" />
    <glyph glyph-name="bracketleft" unicode="[" horiz-adv-x="753" 
d="M590 1204l-184 -1147h139l-51 -323h-519l285 1792h518l-49 -322h-139z" />
    <glyph glyph-name="backslash" unicode="\" horiz-adv-x="1087" 
d="M195 1434h372l334 -1430h-373z" />
    <glyph glyph-name="bracketright" unicode="]" horiz-adv-x="749" 
d="M348 1204h-139l49 322h516l-285 -1792h-516l52 323h137z" />
    <glyph glyph-name="asciicircum" unicode="^" horiz-adv-x="1054" 
d="M721 952l-113 232l-196 -232h-285l403 482h215l252 -482h-276z" />
    <glyph glyph-name="underscore" unicode="_" horiz-adv-x="1208" 
d="M-20 0h1024l-50 -324h-1024z" />
    <glyph glyph-name="grave" unicode="`" horiz-adv-x="622" 
d="M727 1190l-51 262h-531l240 -262h342z" />
    <glyph glyph-name="a" unicode="a" horiz-adv-x="1206" 
d="M1032 299q-11 -82 64 -88l-35 -201q-62 -18 -139 -18q-106 0 -179.5 43t-72.5 104q-2 -1 -17 -20t-38 -39.5t-56 -42.5t-84 -36.5t-110 -14.5q-73 0 -135.5 15.5t-114.5 49t-81.5 93t-29.5 139.5q0 313 412 354q22 2 65.5 7t61.5 7t49.5 6.5t49.5 8t39 9.5t38 13
q3 37 -8 61.5t-31 34t-33.5 12.5t-28.5 3q-106 0 -139 -94h-354q38 186 159 278t359 92q142 0 236 -30.5t142 -89.5t62 -145.5t-4 -199.5zM655 336l27 145q-21 -5 -44 -11t-35 -9t-41.5 -8t-76.5 -11q-50 -7 -76 -35.5t-26 -62.5q0 -90 102 -90q46 0 94.5 27.5t75.5 54.5z
" />
    <glyph glyph-name="b" unicode="b" horiz-adv-x="1259" 
d="M813 1075q53 0 104 -14.5t100.5 -48.5t86.5 -84t59.5 -127t22.5 -172q0 -122 -40.5 -238t-110 -206t-172 -144.5t-218.5 -54.5q-105 0 -163 37.5t-72 80.5l-21 -104h-379l226 1434h378l-73 -476q2 1 25 22.5t49.5 41t80.5 36.5t117 17zM580 291q73 0 127 46.5t80 119
t26 157.5q0 77 -39.5 116.5t-99.5 39.5q-56 0 -100 -32t-69.5 -82.5t-38.5 -106.5t-13 -111q0 -147 127 -147z" />
    <glyph glyph-name="c" unicode="c" horiz-adv-x="1122" 
d="M526 291q134 0 166 112h342q-29 -100 -77 -176t-101 -120.5t-118.5 -72.5t-123.5 -38t-122 -10q-67 0 -130 14t-123.5 46.5t-105.5 80.5t-72.5 122t-27.5 165q0 189 75 339.5t214.5 236t318.5 85.5q63 0 119 -11t113.5 -40t98 -74.5t66.5 -121t27 -173.5h-334
q3 57 -19.5 86t-90.5 29q-69 0 -120 -53.5t-74.5 -131t-23.5 -165.5q0 -57 31 -93t92 -36z" />
    <glyph glyph-name="d" unicode="d" horiz-adv-x="1241" 
d="M881 1434h381l-228 -1434h-381l15 100q-1 -1 -18 -20.5t-39 -39t-70.5 -37t-108.5 -17.5q-56 0 -110.5 14.5t-107.5 49t-92.5 85t-64 128.5t-24.5 173q0 122 40.5 237.5t110 204.5t171 143t216.5 54q102 0 159.5 -37.5t74.5 -79.5zM543 291q55 0 99.5 32t70.5 83
t39.5 107t13.5 110q0 147 -127 147q-107 0 -170 -92.5t-63 -228.5q0 -78 39.5 -118t97.5 -40z" />
    <glyph glyph-name="e" unicode="e" horiz-adv-x="1181" 
d="M1104 621q0 -41 -7.5 -106t-17.5 -101h-694q11 -150 170 -150q58 0 94 20.5t51 47.5h344q-63 -175 -201.5 -260.5t-336.5 -85.5q-65 0 -129.5 15t-127 49.5t-110 84.5t-77 127.5t-29.5 171.5q0 135 47 254.5t128.5 204t195.5 133.5t243 49q93 0 172.5 -24.5t144.5 -76.5
t102.5 -142t37.5 -211zM754 639q6 12 6 43q0 46 -36.5 81.5t-102.5 35.5q-151 0 -207 -160h340z" />
    <glyph glyph-name="f" unicode="f" horiz-adv-x="798" 
d="M766 1178q-61 0 -87 -28.5t-36 -84.5h166l-45 -293h-168l-123 -772h-379l123 772h-178l45 293h180l2 8q13 78 37 139.5t51.5 102.5t67.5 70t74.5 44.5t82.5 24t82 10.5t82 2q79 0 131 -10l-45 -282q-54 4 -63 4z" />
    <glyph glyph-name="g" unicode="g" horiz-adv-x="1239" 
d="M823 1065h377l-160 -1018q-14 -90 -46 -164t-73 -124.5t-94 -89.5t-104.5 -61t-109 -36t-103.5 -18.5t-92 -4.5q-181 0 -296 76t-157 193l242 119q12 -16 21.5 -25t33 -24t63.5 -23t95 -8q113 0 165.5 51t78.5 168l6 24q-2 -1 -19 -20t-39.5 -38.5t-71 -36.5t-108.5 -17
q-72 0 -139 24.5t-127 75t-96.5 140.5t-36.5 208q0 157 67.5 302.5t193.5 241t277 95.5q56 0 102 -13t73 -33t42.5 -38t22.5 -35zM543 293q72 0 125 56.5t75.5 130t22.5 145.5q0 145 -125 145q-71 0 -126.5 -52t-82 -125t-26.5 -149q0 -75 39.5 -113t97.5 -38z" />
    <glyph glyph-name="h" unicode="h" horiz-adv-x="1296" 
d="M872 1075q68 0 122 -15t98.5 -47.5t69.5 -84.5t34 -126t-8 -171l-98 -631h-379l102 631q10 66 -19.5 99.5t-86.5 33.5q-83 0 -147 -56t-73 -104l-98 -604h-379l226 1434h378l-88 -543q21 30 50.5 59t72.5 58.5t101 48t122 18.5z" />
    <glyph glyph-name="i" unicode="i" horiz-adv-x="575" 
d="M197 1182l41 270h380l-40 -270h-381zM178 1065h381l-168 -1065h-381z" />
    <glyph glyph-name="j" unicode="j" horiz-adv-x="575" 
d="M176 1182l41 270h383l-43 -270h-381zM-236 -98q49 -23 121 -23q22 0 38 4t27.5 16.5t18.5 21.5t14 35t9.5 39t9.5 50l160 1020h379l-189 -1176q-27 -170 -127 -255t-254 -85q-171 0 -260 52z" />
    <glyph glyph-name="k" unicode="k" horiz-adv-x="1267" 
d="M1282 1065l-506 -453l391 -612h-403l-244 383l-82 -72l-49 -311h-379l226 1434h378l-102 -654l315 285h455z" />
    <glyph glyph-name="l" unicode="l" horiz-adv-x="598" 
d="M236 1434h380l-225 -1434h-381z" />
    <glyph glyph-name="m" unicode="m" horiz-adv-x="1918" 
d="M1497 1075q170 0 257.5 -116.5t51.5 -356.5l-94 -602h-379l99 612q13 82 -9.5 117t-81.5 35q-45 0 -83.5 -16.5t-61.5 -40t-36 -44t-17 -34.5l-99 -629h-378l98 612q13 82 -9.5 117t-80.5 35q-45 0 -83.5 -18t-62 -44t-37.5 -52t-16 -46l-98 -604h-379l168 1065h379
l-31 -180q19 32 45 61.5t65 60.5t94.5 49.5t117.5 18.5q119 0 200 -53t105 -154q55 88 152.5 147.5t203.5 59.5z" />
    <glyph glyph-name="n" unicode="n" horiz-adv-x="1284" 
d="M860 1075q85 0 149 -24t110 -77.5t59.5 -139t-2.5 -207.5l-99 -627h-379l103 627q13 68 -18 102.5t-89 34.5q-83 0 -146 -57.5t-73 -106.5l-98 -600h-379l168 1065h379l-31 -182q49 73 137.5 132.5t208.5 59.5z" />
    <glyph glyph-name="o" unicode="o" horiz-adv-x="1220" 
d="M662 1075q66 0 130.5 -15t128.5 -49.5t113 -85.5t79 -129.5t30 -174.5q0 -180 -77 -324.5t-219.5 -227.5t-324.5 -83q-67 0 -132 14.5t-129.5 49t-113.5 85.5t-79.5 131.5t-30.5 179.5q0 177 79 320.5t222.5 226t323.5 82.5zM780 596q0 84 -41.5 129t-107.5 45
q-58 0 -104 -29.5t-72.5 -77t-40 -99.5t-13.5 -103q0 -81 41 -125.5t109 -44.5q58 0 104 29.5t72 76t39.5 98t13.5 101.5z" />
    <glyph glyph-name="p" unicode="p" horiz-adv-x="1257" 
d="M811 1075q53 0 104 -14.5t100.5 -48.5t86.5 -84t59.5 -127t22.5 -172q0 -119 -41 -235t-111 -206.5t-172.5 -146t-216.5 -55.5q-105 0 -161.5 36.5t-73.5 79.5l-82 -491h-379l229 1454h381l-14 -96q3 0 15 11.5t33 27t49.5 31t74 26t96.5 10.5zM578 291q72 0 126.5 47.5
t80.5 120t26 155.5q0 77 -39.5 116.5t-99.5 39.5q-56 0 -100 -29.5t-69.5 -77.5t-38.5 -103t-13 -111q0 -158 127 -158z" />
    <glyph glyph-name="q" unicode="q" horiz-adv-x="1239" 
d="M821 1065h379l-229 -1454h-379l80 489q-2 -1 -19.5 -20t-40.5 -39.5t-71.5 -37.5t-108.5 -17q-71 0 -138.5 24.5t-127.5 75t-96.5 139.5t-36.5 205q0 123 40 240t109 206.5t171 144t218 54.5q104 0 162 -40t74 -81zM543 291q55 0 99.5 33t70.5 84.5t39.5 107.5t13.5 109
q0 145 -125 145q-107 0 -171 -95t-64 -231q0 -75 40 -114t97 -39z" />
    <glyph glyph-name="r" unicode="r" horiz-adv-x="905" 
d="M821 1075q63 0 117 -12l-55 -330q-41 2 -70 2q-85 1 -147 -15.5t-103 -50.5t-65.5 -76.5t-42.5 -103.5l6 41l-84 -530h-379l168 1065h379l-39 -244q83 254 315 254z" />
    <glyph glyph-name="s" unicode="s" horiz-adv-x="1091" 
d="M686 705q-1 51 -32.5 72.5t-90.5 21.5q-46 0 -81.5 -19t-35.5 -59q0 -21 14.5 -36t37.5 -21l182 -46q47 -11 68.5 -16t60.5 -17.5t57.5 -23t44.5 -29.5t38 -40.5t21 -53t9 -69.5q0 -179 -143.5 -281t-393.5 -102q-227 0 -341 93t-111 273h342q11 -47 44 -70.5t97 -23.5
q62 0 92.5 26t30.5 52q0 11 -0.5 16t-4.5 14.5t-15.5 15t-30.5 9.5l-148 35q-170 37 -243.5 110.5t-73.5 182.5q0 163 139.5 259.5t362.5 96.5q231 0 334 -100.5t98 -269.5h-328z" />
    <glyph glyph-name="t" unicode="t" horiz-adv-x="876" 
d="M606 772l-59 -364q-10 -57 6.5 -84t71.5 -27q71 0 137 16l-45 -293q-72 -34 -221 -34q-42 0 -78 4t-71.5 13t-63.5 25.5t-52 39.5t-39.5 57t-24.5 76.5t-8.5 98t11.5 122.5l55 350h-166l45 293h168l43 266h381l-43 -266h213l-49 -293h-211z" />
    <glyph glyph-name="u" unicode="u" horiz-adv-x="1288" 
d="M870 1065h379l-168 -1065h-379l27 168q-50 -70 -136 -125t-196 -55q-184 0 -274.5 107.5t-54.5 338.5l102 631h379l-103 -629q-8 -69 18 -97t81 -28q62 0 131 50t98 96z" />
    <glyph glyph-name="v" unicode="v" horiz-adv-x="1263" 
d="M733 0h-414l-225 1065h375l106 -682l332 682h389z" />
    <glyph glyph-name="w" unicode="w" horiz-adv-x="1685" 
d="M1718 1065l-461 -1065h-317l-104 621l-293 -621h-322l-127 1065h375l27 -582l260 582h293l69 -582l213 582h387z" />
    <glyph glyph-name="x" unicode="x" horiz-adv-x="1234" 
d="M1257 1065l-436 -512l301 -553h-403l-146 281l-229 -281h-418l492 561l-283 504h404l114 -225l187 225h417z" />
    <glyph glyph-name="y" unicode="y" horiz-adv-x="1236" 
d="M881 1065h389l-611 -1061q-38 -67 -71.5 -118t-70 -96.5t-71 -77.5t-74.5 -58t-82 -41t-92 -23t-105.5 -7.5t-121.5 7.5l49 312q61 -6 110 1t78 19.5t54 36t35.5 40t24.5 42.5q14 30 16 48.5t-8 72.5l-236 903h375l115 -576z" />
    <glyph glyph-name="z" unicode="z" horiz-adv-x="1046" 
d="M467 315h448l-47 -315h-895l45 315l521 435h-428l51 315h874l-49 -315z" />
    <glyph glyph-name="braceleft" unicode="{" horiz-adv-x="798" 
d="M573 766l-141 -139l94 -135l-57 -386q-7 -30 4.5 -39.5t46.5 -9.5h82l-51 -323h-246q-18 0 -34.5 1.5t-38 5t-39 10t-37.5 17t-34 25.5t-27.5 35t-19 46t-8.5 59t5 73l78 475l-72 146l115 149l77 494q12 70 39.5 120t57 75.5t70.5 40t68 17.5t62 3h269l-50 -322h-59
q-35 0 -64.5 -18t-33.5 -49z" />
    <glyph glyph-name="bar" unicode="|" horiz-adv-x="630" 
d="M299 1638h324l-322 -2027h-324z" />
    <glyph glyph-name="braceright" unicode="}" horiz-adv-x="798" 
d="M246 766l59 389q3 31 -6.5 40t-42.5 9h-84l49 322h246q19 0 38 -2t43 -7t44 -14t41.5 -23t35 -34.5t24.5 -48t11 -63.5t-6 -81l-75 -477l69 -149l-112 -146l-82 -491q-11 -70 -36.5 -120t-54 -75.5t-69.5 -40t-68.5 -17.5t-64.5 -3h-268l51 323h61q34 0 60.5 17.5
t33.5 48.5l56 369l141 135z" />
    <glyph glyph-name="asciitilde" unicode="~" horiz-adv-x="1087" 
d="M903 678l144 -16q-22 -135 -104 -222.5t-220 -87.5q-42 0 -86 18t-83 43.5l-78 51t-84 43.5t-87 18q-34 0 -69.5 -15.5t-38.5 -41.5l-144 18q22 136 102.5 222t219.5 86q41 0 85.5 -18t83.5 -43.5l78 -51t84.5 -43.5t88.5 -18q30 0 66.5 16t41.5 41z" />
    <glyph glyph-name="exclamdown" unicode="&#xa1;" horiz-adv-x="659" 
d="M121 651l65 414h414l-68 -414h-411zM528 559l-149 -928h-428l149 928h428z" />
    <glyph glyph-name="cent" unicode="&#xa2;" horiz-adv-x="1122" 
d="M639 440q59 33 74 95h342q-32 -109 -84.5 -189t-117 -125.5t-129 -69t-136.5 -30.5l-33 -203h-160l33 205q-74 11 -138.5 39.5t-119 78t-86 127.5t-31.5 177q0 272 151 454.5t398 204.5l37 230h160l-37 -236q66 -11 120 -37t101.5 -73t74 -124t27.5 -178h-333
q2 40 -6.5 65t-34.5 38zM424 551q0 -81 55 -113l70 434q-60 -42 -92.5 -131t-32.5 -190z" />
    <glyph glyph-name="sterling" unicode="&#xa3;" horiz-adv-x="1220" 
d="M1190 983h-342q5 40 -5.5 69.5t-33 44.5t-48.5 22t-56 7q-55 0 -93.5 -16.5t-57 -44t-25.5 -53.5t-7 -56q0 -57 41 -174h232l-33 -198h-160q-4 -107 -52 -169.5t-163 -117.5q81 33 158 33q49 0 152 -13.5t171 -13.5q94 0 205 25l-29 -332q-78 -19 -178 -19
q-95 0 -249.5 31t-225.5 31q-100 0 -221 -62l-164 228q47 27 89.5 60t84.5 78.5t67 103.5t25 120v17h-198l32 198h97q-37 91 -37 170q0 116 46 211.5t124 157t179.5 94.5t215.5 33q233 0 364.5 -126.5t94.5 -338.5z" />
    <glyph glyph-name="currency" unicode="&#xa4;" horiz-adv-x="1298" 
d="M1161 975q0 -69 -18 -131l106 -107l-237 -235l-78 78q-106 -64 -232 -64q-121 0 -223 57l-71 -71l-238 235l96 97q-22 71 -22 141q0 77 26 153l-100 101l238 235l81 -82q99 52 213 52q119 0 222 -58l88 88l237 -235l-110 -111q22 -71 22 -143zM702 823q45 0 77 15
t46.5 33t22 44t8 37t0.5 22v1v1q0 11 -0.5 22t-8 36.5t-22 43.5t-46.5 33t-77 15q-151 0 -151 -151q0 -152 151 -152z" />
    <glyph glyph-name="yen" unicode="&#xa5;" horiz-adv-x="1554" 
d="M1616 1434l-604 -899h217l-35 -218h-231l-7 -49h228l-39 -217h-223l-9 -51h-409l8 51h-223l39 217h217l8 49h-215l35 218h196l-385 899h449l182 -547l363 547h438z" />
    <glyph glyph-name="brokenbar" unicode="&#xa6;" horiz-adv-x="630" 
d="M299 1638h324l-91 -573h-323zM70 184h323l-92 -573h-324z" />
    <glyph glyph-name="section" unicode="&#xa7;" horiz-adv-x="1456" 
d="M1417 989h-418q1 22 -3.5 40t-10.5 29t-19.5 19.5t-22 12.5t-26 6t-24 2.5t-23.5 0t-18 -0.5q-55 0 -94.5 -11.5t-57 -24.5t-26.5 -33.5t-9.5 -26t-0.5 -15.5t1.5 -16t17.5 -18t48 -21l225 -55q224 -55 320 -145t96 -238q0 -199 -121 -326q27 -62 27 -141
q0 -105 -36.5 -191t-99.5 -144.5t-150.5 -98.5t-187.5 -58t-212 -18q-109 0 -190.5 12.5t-154 46t-119 89.5t-74.5 145t-31 210h419q-1 -84 47.5 -117.5t143.5 -33.5q102 0 164.5 36.5t62.5 104.5q0 32 -27 48t-114 38l-168 41q-74 18 -124.5 34t-107.5 45.5t-91.5 66
t-57.5 93.5t-23 130q0 196 123 319q-28 64 -28 148q0 117 49.5 209.5t136.5 150t199.5 87.5t242.5 30q121 0 221.5 -28t176.5 -83t116 -144.5t33 -205.5zM950 477q0 29 -27.5 46.5t-109.5 39.5l-168 41q-7 1 -19 4l-16 4q-41 -38 -41 -90q0 -10 1.5 -16.5t18 -19t48.5 -21.5
l225 -55q5 -1 29.5 -7t36.5 -10q22 28 22 84z" />
    <glyph glyph-name="dieresis" unicode="&#xa8;" horiz-adv-x="890" 
d="M145 1452h383l-39 -248h-383zM651 1452h383l-39 -248h-383z" />
    <glyph glyph-name="copyright" unicode="&#xa9;" horiz-adv-x="1589" 
d="M754 -14q-145 0 -272 51t-218 140.5t-143.5 217.5t-52.5 277q0 163 63.5 308t170 246.5t249.5 160.5t299 59q146 0 273 -51t218 -140.5t143 -217t52 -275.5q0 -161 -63.5 -306t-170 -247.5t-250 -162.5t-298.5 -60zM739 199q135 0 247.5 48t185.5 129.5t113 189t40 227.5
q0 194 -131 318t-330 124q-119 0 -225 -41t-185 -114t-125 -183t-46 -240q0 -202 128 -330t328 -128zM774 547q60 0 98.5 25.5t51.5 64.5h237q-24 -76 -62.5 -134.5t-79 -91.5t-88.5 -54t-86.5 -28t-76.5 -7q-144 0 -248 95t-104 261q0 180 127 307t307 127q43 0 84.5 -8.5
t84 -31t75 -56.5t55 -89.5t25.5 -125.5h-230q-3 44 -35.5 64t-81.5 20q-62 0 -102 -32t-54 -74.5t-14 -94.5q0 -62 34 -99.5t83 -37.5z" />
    <glyph glyph-name="ordfeminine" unicode="&#xaa;" horiz-adv-x="808" 
d="M809 1233q0 -44 -24.5 -185.5t-24.5 -173.5q0 -76 26 -118h-182q-11 11 -18 22t-11 17.5t-7 20t-3.5 17.5t-2 22t-1.5 22q-97 -121 -221 -121q-43 0 -81 9.5t-72 31t-54 61.5t-20 94q0 64 17.5 106t58.5 69.5t97 42t144 24.5l145 18q11 43 -12.5 57.5t-73.5 14.5
q-36 0 -60 -10.5t-31.5 -21.5t-6.5 -21h-209q54 246 320 246q163 0 235 -61t72 -183zM385 946q31 0 55 6t37 11.5t28.5 23t19.5 24t20 31.5l-121 -12q-30 -2 -49 -12t-24 -19.5t-5 -17.5q0 -13 9 -24t30 -11z" />
    <glyph glyph-name="guillemotleft" unicode="&#xab;" horiz-adv-x="1028" 
d="M494 717l-181 -125l144 -125l-51 -313l-336 303l49 309l432 305zM973 717l-180 -125l143 -125l-51 -313l-336 303l49 309l432 305z" />
    <glyph glyph-name="logicalnot" unicode="&#xac;" horiz-adv-x="1112" 
d="M1008 639l-78 -473h-379l31 186h-549l47 287h928z" />
    <glyph glyph-name="uni00AD" unicode="&#xad;" horiz-adv-x="952" 
d="M90 692h768l-45 -262h-768z" />
    <glyph glyph-name="registered" unicode="&#xae;" horiz-adv-x="1589" 
d="M754 -14q-145 0 -272 51t-218 140.5t-143.5 217.5t-52.5 277q0 163 63.5 308t170 246.5t249.5 160.5t299 59q146 0 273 -51t218 -140.5t143 -217t52 -275.5q0 -161 -63.5 -306t-170 -247.5t-250 -162.5t-298.5 -60zM739 199q135 0 247.5 48t185.5 129.5t113 189t40 227.5
q0 194 -131 318t-330 124q-119 0 -225 -41t-185 -114t-125 -183t-46 -240q0 -202 128 -330t328 -128zM1049 319h-213q-2 10 -2.5 27.5t1 37t3 41t4 41.5t4 35.5t2.5 25.5l2 10q0 28 -13 42t-28.5 16.5t-44.5 2.5h-55l-43 -279h-207l123 797h295q118 0 180.5 -54t62.5 -151
q0 -87 -45 -142t-170 -87q81 -12 115.5 -45.5t34.5 -95.5q0 -24 -4.5 -62t-8 -66t-3 -55t9.5 -39zM780 764q66 0 103 36t37 83q0 28 -13 47.5t-35 19.5h-106l-29 -186h43z" />
    <glyph glyph-name="macron" unicode="&#xaf;" horiz-adv-x="808" 
d="M145 1452h809l-34 -215h-807z" />
    <glyph glyph-name="degree" unicode="&#xb0;" horiz-adv-x="804" 
d="M532 1477q126 0 203.5 -78t77.5 -199q0 -142 -96.5 -241t-241.5 -99q-126 0 -203 78.5t-77 198.5q0 144 96 242t241 98zM496 1122q24 0 39 11.5t18.5 22t3.5 18.5v5.5t-2.5 10.5t-6.5 13t-13.5 9.5t-22.5 4.5q-33 0 -46 -18t-13 -34q0 -43 43 -43zM557 1174zM453 1165z
" />
    <glyph glyph-name="plusminus" unicode="&#xb1;" horiz-adv-x="1232" 
d="M866 1036h387l-51 -323h-387l-59 -381h-346l59 381h-381l51 323h381l60 381h346zM109 -20l45 262h827l-43 -262h-829z" />
    <glyph glyph-name="uni00B2" unicode="&#xb2;" horiz-adv-x="546" 
d="M121 901q12 107 53 167.5t129 107.5q9 5 30 13.5t34.5 15t29 16.5t23.5 23.5t8 29.5q0 23 -14.5 33t-28.5 10q-23 0 -42.5 -13t-20.5 -44h-144q11 83 66.5 133.5t154.5 50.5q89 0 130.5 -40.5t41.5 -107.5q0 -31 -10.5 -57.5t-23.5 -43.5t-39.5 -36.5t-43 -28.5
t-51 -26.5t-47.5 -24.5q-26 -12 -40.5 -28.5t-16.5 -26.5h223l-16 -123h-385z" />
    <glyph glyph-name="uni00B3" unicode="&#xb3;" horiz-adv-x="563" 
d="M463 1184q36 -4 69 -29.5t33 -77.5q0 -78 -62 -131t-175 -53q-83 0 -133.5 52.5t-38.5 121.5h133q-2 -22 9.5 -35t23 -15.5t24.5 -2.5q28 0 52 14t24 49q0 13 -1.5 20t-7.5 17t-22.5 14.5t-42.5 4.5h-22l18 100h23q34 0 49.5 10.5t15.5 38.5q0 41 -51 41q-19 0 -35.5 -11
t-19.5 -36h-127q14 81 66.5 124.5t140.5 43.5q74 0 118.5 -35t44.5 -88q0 -58 -32 -92t-74 -45z" />
    <glyph glyph-name="acute" unicode="&#xb4;" horiz-adv-x="577" 
d="M104 1190h338l281 262h-526z" />
    <glyph glyph-name="uni00B5" unicode="&#xb5;" horiz-adv-x="1286" 
d="M868 1065h379l-168 -1065h-379l27 168q-50 -70 -135.5 -124t-196.5 -54h-20l-60 -379h-378l120 766q3 27 9 57l102 631h379l-105 -655q-1 -54 25 -75.5t74 -21.5q67 0 139 56t92 98l-10 -82z" />
    <glyph glyph-name="paragraph" unicode="&#xb6;" horiz-adv-x="1568" 
d="M1587 1434l-31 -215h-4l-262 -1670h-303l262 1670h-200l-263 -1670h-335l161 1031h-57q-119 0 -211.5 40t-144 105t-72 144.5t-6.5 162.5q9 57 36 112.5t74 108t108.5 93t146.5 64.5t180 24h921z" />
    <glyph glyph-name="periodcentered" unicode="&#xb7;" horiz-adv-x="643" 
d="M113 786h413l-67 -413h-412z" />
    <glyph glyph-name="cedilla" unicode="&#xb8;" horiz-adv-x="518" 
d="M170 -127q91 -6 151 -57.5t60 -141.5q0 -50 -16.5 -88t-50 -62t-73.5 -40t-98 -24t-111.5 -10.5t-125.5 -2.5v147q98 0 145 15.5t47 54.5q0 34 -33 44.5t-67 -15.5l-21 -23l-63 103l-25 41l101 188h305z" />
    <glyph glyph-name="uni00B9" unicode="&#xb9;" horiz-adv-x="430" 
d="M451 1434l-84 -533h-140l70 373q-43 -50 -145 -41l20 129q43 -4 82 19.5t57 52.5h140z" />
    <glyph glyph-name="ordmasculine" unicode="&#xba;" horiz-adv-x="811" 
d="M512 1450q127 0 218 -83.5t91 -219.5q0 -164 -113.5 -277.5t-267.5 -113.5q-130 0 -220.5 81.5t-90.5 225.5q0 163 113.5 275t269.5 112zM596 1139q0 37 -23 64.5t-69 27.5q-66 0 -105 -49t-39 -103q0 -42 24 -71t71 -29q70 0 105.5 49.5t35.5 110.5z" />
    <glyph glyph-name="guillemotright" unicode="&#xbb;" horiz-adv-x="1028" 
d="M80 506l180 125l-143 125l51 313l336 -303l-49 -309l-432 -305zM559 506l180 125l-143 125l51 313l336 -303l-49 -309l-432 -305z" />
    <glyph glyph-name="onequarter" unicode="&#xbc;" horiz-adv-x="1443" 
d="M227 0h-182l1118 1434h185zM451 1434l-84 -533h-140l70 373q-43 -50 -145 -41l20 129q43 -4 82 19.5t57 52.5h140zM1298 135h-61l-23 -135h-133l23 135h-238l17 109l284 291h133l-47 -291h62zM1118 244l23 143l-144 -143h121z" />
    <glyph glyph-name="onehalf" unicode="&#xbd;" horiz-adv-x="1415" 
d="M227 0h-182l1118 1434h185zM451 1434l-84 -533h-140l70 373q-43 -50 -145 -41l20 129q43 -4 82 19.5t57 52.5h140zM854 0q12 107 53 167t129 107q7 3 37.5 16.5t44.5 21t28.5 24.5t14.5 37q0 23 -14.5 33t-28.5 10q-23 0 -42.5 -13.5t-20.5 -44.5h-144q11 83 67 134
t155 51q89 0 130.5 -40.5t41.5 -107.5q0 -31 -10.5 -57.5t-23.5 -43.5t-39.5 -36.5t-43 -28.5t-51 -26.5t-47.5 -24.5q-26 -12 -41 -28.5t-17 -26.5h223l-16 -123h-385z" />
    <glyph glyph-name="threequarters" unicode="&#xbe;" horiz-adv-x="1529" 
d="M473 1184q36 -4 69 -29.5t33 -77.5q0 -78 -62 -131t-175 -53q-83 0 -133.5 52.5t-38.5 121.5h133q-2 -22 9.5 -35t23 -15.5t24.5 -2.5q28 0 52 14t24 49q0 13 -1.5 20t-7.5 17t-22.5 14.5t-42.5 4.5h-22l18 100h23q34 0 49.5 10.5t15.5 38.5q0 41 -51 41q-19 0 -35.5 -11
t-19.5 -36h-127q14 81 66.5 124.5t140.5 43.5q75 0 119.5 -35t44.5 -88q0 -58 -32.5 -92t-74.5 -45zM313 0h-182l1118 1434h185zM1384 135h-61l-23 -135h-133l23 135h-238l17 109l284 291h133l-47 -291h62zM1204 244l23 143l-144 -143h121z" />
    <glyph glyph-name="questiondown" unicode="&#xbf;" horiz-adv-x="1191" 
d="M752 651h-414l65 414h412zM412 -383q127 0 224.5 26.5t175.5 86t127 160t69 243.5h-369q-2 -6 -7 -27.5t-7 -28.5t-7.5 -26t-10 -26.5t-12.5 -22.5t-16 -21.5t-20 -16.5t-25.5 -14t-31.5 -7.5t-39 -3.5q-35 0 -57.5 10.5t-31.5 22t-11 33t-1.5 27.5t3.5 23q5 26 25 49
t50 43t65 42.5t71.5 54t68.5 70.5t57 99t35 132v12h-407l-4 -12q-10 -67 -37.5 -117t-61 -78t-73 -59.5t-73 -61.5t-62 -84t-39.5 -127q-29 -194 88 -297.5t344 -103.5z" />
    <glyph glyph-name="Agrave" unicode="&#xc0;" horiz-adv-x="1550" 
d="M1075 1559h-342l-239 262h530zM977 0l-33 209h-465l-98 -209h-424l758 1434h372l318 -1434h-428zM614 498h285l-72 452z" />
    <glyph glyph-name="Aacute" unicode="&#xc1;" horiz-adv-x="1550" 
d="M1362 1821l-281 -262h-338l93 262h526zM977 0l-33 209h-465l-98 -209h-424l758 1434h372l318 -1434h-428zM614 498h285l-72 452z" />
    <glyph glyph-name="Acircumflex" unicode="&#xc2;" horiz-adv-x="1550" 
d="M920 1665l-205 -145h-299l164 301h708l68 -301h-287zM977 0l-33 209h-465l-98 -209h-424l758 1434h372l318 -1434h-428zM614 498h285l-72 452z" />
    <glyph glyph-name="Atilde" unicode="&#xc3;" horiz-adv-x="1550" 
d="M659 1667q-25 0 -48.5 -12t-22.5 -37h-139q0 132 68.5 217.5t207.5 85.5q57 0 117.5 -26t104 -57t101.5 -57t111 -26q26 0 49.5 11t22.5 36h139q0 -130 -69 -216.5t-207 -86.5q-57 0 -118 26.5t-104.5 57.5t-101.5 57.5t-111 26.5zM977 0l-33 209h-465l-98 -209h-424
l758 1434h372l318 -1434h-428zM614 498h285l-72 452z" />
    <glyph glyph-name="Adieresis" unicode="&#xc4;" horiz-adv-x="1550" 
d="M870 1821l-39 -248h-382l38 248h383zM1376 1821l-39 -248h-383l39 248h383zM977 0l-33 209h-465l-98 -209h-424l758 1434h372l318 -1434h-428zM614 498h285l-72 452z" />
    <glyph glyph-name="Aring" unicode="&#xc5;" horiz-adv-x="1550" 
d="M930 1559q-90 0 -148.5 56.5t-58.5 143.5q0 96 70 167t165 71q85 0 142 -58t57 -145q0 -91 -70.5 -163t-156.5 -72zM946 1849q-32 0 -55 -23.5t-23 -51.5t20 -47t52 -19q29 0 50.5 22.5t21.5 49.5q0 29 -19 49t-47 20zM977 0l-33 209h-465l-98 -209h-424l758 1434h372
l318 -1434h-428zM614 498h285l-72 452z" />
    <glyph glyph-name="AE" unicode="&#xc6;" horiz-adv-x="2152" 
d="M2150 1094h-653l-33 -215h551l-51 -316h-551l-33 -223h674l-53 -340h-1073l33 205h-414l-172 -205h-418l1196 1419l2 15h1053zM801 506h207l49 303z" />
    <glyph glyph-name="Ccedilla" unicode="&#xc7;" horiz-adv-x="1413" 
d="M819 1112q-85 0 -153.5 -48.5t-108.5 -125.5t-61 -165t-21 -175q0 -276 221 -276q97 0 152.5 43.5t97.5 150.5h381q-26 -113 -80.5 -206t-129 -156t-162 -103.5t-185.5 -56.5l-117 -121q91 -6 151 -57.5t60 -141.5q0 -50 -16.5 -88t-50 -62t-73.5 -40t-98 -24
t-111.5 -10.5t-125.5 -2.5v147q98 0 145.5 15.5t47.5 54.5q0 34 -33.5 44.5t-67.5 -15.5l-20 -23l-64 103l-24 41l98 184q-197 40 -306.5 183.5t-109.5 371.5q0 147 35 282t104.5 247t166 195t226.5 129t279 46q93 0 175.5 -20t151.5 -62.5t116.5 -104t69.5 -149t12 -192.5
h-385q-10 99 -56 143.5t-131 44.5z" />
    <glyph glyph-name="Egrave" unicode="&#xc8;" horiz-adv-x="1243" 
d="M965 1559l-52 262h-530l240 -262h342zM1241 1094h-653l-33 -215h551l-51 -316h-551l-33 -223h674l-53 -340h-1074l228 1434h1052z" />
    <glyph glyph-name="Eacute" unicode="&#xc9;" horiz-adv-x="1243" 
d="M633 1559h338l280 262h-526zM1241 1094h-653l-33 -215h551l-51 -316h-551l-33 -223h674l-53 -340h-1074l228 1434h1052z" />
    <glyph glyph-name="Ecircumflex" unicode="&#xca;" horiz-adv-x="1243" 
d="M958 1520l-149 145l-205 -145h-299l164 301h709l67 -301h-287zM1241 1094h-653l-33 -215h551l-51 -316h-551l-33 -223h674l-53 -340h-1074l228 1434h1052z" />
    <glyph glyph-name="Edieresis" unicode="&#xcb;" horiz-adv-x="1243" 
d="M377 1821h383l-39 -248h-383zM883 1821h383l-39 -248h-383zM1241 1094h-653l-33 -215h551l-51 -316h-551l-33 -223h674l-53 -340h-1074l228 1434h1052z" />
    <glyph glyph-name="Igrave" unicode="&#xcc;" horiz-adv-x="634" 
d="M633 1559l-51 262h-531l240 -262h342zM418 0h-398l226 1434h397z" />
    <glyph glyph-name="Iacute" unicode="&#xcd;" horiz-adv-x="634" 
d="M301 1559h338l281 262h-527zM418 0h-398l226 1434h397z" />
    <glyph glyph-name="Icircumflex" unicode="&#xce;" horiz-adv-x="634" 
d="M627 1520l-150 145l-205 -145h-299l164 301h709l67 -301h-286zM418 0h-398l226 1434h397z" />
    <glyph glyph-name="Idieresis" unicode="&#xcf;" horiz-adv-x="634" 
d="M45 1821h383l-39 -248h-383zM551 1821h383l-39 -248h-383zM418 0h-398l226 1434h397z" />
    <glyph glyph-name="Eth" unicode="&#xd0;" horiz-adv-x="1536" 
d="M920 1434q280 0 430.5 -149.5t150.5 -442.5q0 -254 -88.5 -442t-267 -294t-428.5 -106h-619l90 569h-133l45 262h129l95 603h596zM719 360q102 0 179.5 39t122.5 107t67 151.5t22 180.5q0 132 -59.5 183.5t-200.5 51.5h-182l-39 -242h239l-45 -262h-237l-33 -209h166z
" />
    <glyph glyph-name="Ntilde" unicode="&#xd1;" horiz-adv-x="1499" 
d="M1237 1802h139q0 -130 -69 -216.5t-207 -86.5q-57 0 -117.5 26.5t-104 57.5t-101.5 57.5t-111 26.5q-25 0 -49 -12t-23 -37h-139q0 132 68.5 217.5t207.5 85.5q57 0 117.5 -26t104 -57t101.5 -57t111 -26q26 0 49.5 11t22.5 36zM1509 1434l-227 -1434h-403l-334 764h-10
l-119 -764h-398l228 1434h389l344 -791h10l123 791h397z" />
    <glyph glyph-name="Ograve" unicode="&#xd2;" horiz-adv-x="1521" 
d="M1096 1559l-52 262h-530l240 -262h342zM889 1452q279 0 438.5 -155t159.5 -425q0 -146 -38.5 -281t-111.5 -245t-174 -192t-232 -127t-278 -45q-277 0 -436.5 154.5t-159.5 422.5q0 186 60 350t166.5 284t263.5 189.5t342 69.5zM707 319q88 0 159 45.5t115 120.5t67 166
t23 189q0 129 -58.5 201.5t-176.5 72.5q-89 0 -160.5 -45t-114.5 -120t-65.5 -165.5t-22.5 -187.5q0 -128 59.5 -202.5t174.5 -74.5z" />
    <glyph glyph-name="Oacute" unicode="&#xd3;" horiz-adv-x="1521" 
d="M764 1559h338l280 262h-526zM889 1452q279 0 438.5 -155t159.5 -425q0 -146 -38.5 -281t-111.5 -245t-174 -192t-232 -127t-278 -45q-277 0 -436.5 154.5t-159.5 422.5q0 186 60 350t166.5 284t263.5 189.5t342 69.5zM707 319q88 0 159 45.5t115 120.5t67 166t23 189
q0 129 -58.5 201.5t-176.5 72.5q-89 0 -160.5 -45t-114.5 -120t-65.5 -165.5t-22.5 -187.5q0 -128 59.5 -202.5t174.5 -74.5z" />
    <glyph glyph-name="Ocircumflex" unicode="&#xd4;" horiz-adv-x="1521" 
d="M1090 1520l-150 145l-205 -145h-299l164 301h709l67 -301h-286zM889 1452q279 0 438.5 -155t159.5 -425q0 -146 -38.5 -281t-111.5 -245t-174 -192t-232 -127t-278 -45q-277 0 -436.5 154.5t-159.5 422.5q0 186 60 350t166.5 284t263.5 189.5t342 69.5zM707 319
q88 0 159 45.5t115 120.5t67 166t23 189q0 129 -58.5 201.5t-176.5 72.5q-89 0 -160.5 -45t-114.5 -120t-65.5 -165.5t-22.5 -187.5q0 -128 59.5 -202.5t174.5 -74.5z" />
    <glyph glyph-name="Otilde" unicode="&#xd5;" horiz-adv-x="1521" 
d="M1251 1802h140q0 -130 -69.5 -216.5t-207.5 -86.5q-57 0 -117.5 26.5t-104 57.5t-101.5 57.5t-111 26.5q-25 0 -49 -12t-23 -37h-139q0 132 68.5 217.5t207.5 85.5q47 0 95 -17t87.5 -41.5l79 -49t84.5 -41.5t89 -17q26 0 49 11t22 36zM889 1452q279 0 438.5 -155
t159.5 -425q0 -146 -38.5 -281t-111.5 -245t-174 -192t-232 -127t-278 -45q-277 0 -436.5 154.5t-159.5 422.5q0 186 60 350t166.5 284t263.5 189.5t342 69.5zM707 319q88 0 159 45.5t115 120.5t67 166t23 189q0 129 -58.5 201.5t-176.5 72.5q-89 0 -160.5 -45t-114.5 -120
t-65.5 -165.5t-22.5 -187.5q0 -128 59.5 -202.5t174.5 -74.5z" />
    <glyph glyph-name="Odieresis" unicode="&#xd6;" horiz-adv-x="1521" 
d="M508 1821h383l-39 -248h-383zM1014 1821h383l-39 -248h-383zM889 1452q279 0 438.5 -155t159.5 -425q0 -146 -38.5 -281t-111.5 -245t-174 -192t-232 -127t-278 -45q-277 0 -436.5 154.5t-159.5 422.5q0 186 60 350t166.5 284t263.5 189.5t342 69.5zM707 319
q88 0 159 45.5t115 120.5t67 166t23 189q0 129 -58.5 201.5t-176.5 72.5q-89 0 -160.5 -45t-114.5 -120t-65.5 -165.5t-22.5 -187.5q0 -128 59.5 -202.5t174.5 -74.5z" />
    <glyph glyph-name="multiply" unicode="&#xd7;" horiz-adv-x="1136" 
d="M1108 774l-307 -268l227 -266l-258 -230l-229 271l-310 -269l-213 246l312 270l-230 271l258 223l230 -268l307 266z" />
    <glyph glyph-name="Oslash" unicode="&#xd8;" horiz-adv-x="1521" 
d="M1520 1526l-164 -258q131 -153 131 -396q0 -146 -38.5 -281t-111.5 -245t-174 -192t-232 -127t-278 -45q-63 0 -112 8l-58 -92h-438l160 249q-148 157 -148 412q0 186 60 350t166.5 284t263.5 189.5t342 69.5q64 0 139 -10l53 84h439zM473 596v-25l346 543
q-85 -4 -153 -51t-109 -121t-62.5 -162.5t-21.5 -183.5zM754 324q99 15 172 91.5t107.5 181t37.5 224.5z" />
    <glyph glyph-name="Ugrave" unicode="&#xd9;" horiz-adv-x="1462" 
d="M1063 1559l-51 262h-531l240 -262h342zM1475 1434l-140 -867q-29 -183 -128 -315.5t-245.5 -198t-326.5 -65.5q-136 0 -243.5 38t-179 110.5t-100 182.5t-6.5 248l140 867h397l-135 -850q-21 -131 27.5 -193.5t150.5 -62.5q215 0 256 256l135 850h398z" />
    <glyph glyph-name="Uacute" unicode="&#xda;" horiz-adv-x="1462" 
d="M731 1559h338l281 262h-527zM1475 1434l-140 -867q-29 -183 -128 -315.5t-245.5 -198t-326.5 -65.5q-136 0 -243.5 38t-179 110.5t-100 182.5t-6.5 248l140 867h397l-135 -850q-21 -131 27.5 -193.5t150.5 -62.5q215 0 256 256l135 850h398z" />
    <glyph glyph-name="Ucircumflex" unicode="&#xdb;" horiz-adv-x="1462" 
d="M1057 1520l-150 145l-205 -145h-299l164 301h709l67 -301h-286zM1475 1434l-140 -867q-29 -183 -128 -315.5t-245.5 -198t-326.5 -65.5q-136 0 -243.5 38t-179 110.5t-100 182.5t-6.5 248l140 867h397l-135 -850q-21 -131 27.5 -193.5t150.5 -62.5q215 0 256 256l135 850
h398z" />
    <glyph glyph-name="Udieresis" unicode="&#xdc;" horiz-adv-x="1462" 
d="M475 1821h383l-39 -248h-383zM981 1821h383l-39 -248h-383zM1475 1434l-140 -867q-29 -183 -128 -315.5t-245.5 -198t-326.5 -65.5q-136 0 -243.5 38t-179 110.5t-100 182.5t-6.5 248l140 867h397l-135 -850q-21 -131 27.5 -193.5t150.5 -62.5q215 0 256 256l135 850h398
z" />
    <glyph glyph-name="Yacute" unicode="&#xdd;" horiz-adv-x="1554" 
d="M776 1559h338l281 262h-527zM993 506l-80 -506h-409l78 506l-398 928h449l182 -547l363 547h438z" />
    <glyph glyph-name="Thorn" unicode="&#xde;" horiz-adv-x="1425" 
d="M801 1157q276 0 428 -128t117 -333q-29 -195 -205.5 -303t-454.5 -108h-242l52 323h223q15 0 44 -5t51 -9t50 -0.5t48 17.5t37.5 47.5t25.5 86.5q3 36 1.5 58.5t-15.5 34t-28 15t-36.5 1.5t-41 -6t-41.5 -8t-38 -4h-246l-131 -836h-379l226 1434h379l-76 -486l33 209h219
z" />
    <glyph glyph-name="germandbls" unicode="&#xdf;" horiz-adv-x="1355" 
d="M1032 780q80 -5 154 -91t74 -206q0 -126 -46 -220t-132 -151t-201.5 -84.5t-262.5 -27.5h-51l51 324h37q42 0 75 4t65.5 15.5t54 31t34.5 53t13 78.5q0 21 -6.5 38t-15.5 27.5t-26 18t-29 11.5t-35 5.5t-34 2t-35 0t-30 -0.5h-24l47 283h4q76 0 124 39.5t48 89.5
q0 26 -9.5 45t-21.5 27.5t-33 13.5t-33 5.5t-33 0.5h-2.5h-2.5q-88 0 -142 -55t-69 -162l-142 -895h-379l146 913q83 521 596 521q116 0 203.5 -18t157.5 -59t106.5 -115t36.5 -179q0 -64 -31 -128.5t-85.5 -109t-115.5 -45.5z" />
    <glyph glyph-name="agrave" unicode="&#xe0;" horiz-adv-x="1206" 
d="M856 1190h-342l-240 262h531zM1032 299q-11 -82 64 -88l-35 -201q-62 -18 -139 -18q-106 0 -179.5 43t-72.5 104q-2 -1 -17 -20t-38 -39.5t-56 -42.5t-84 -36.5t-110 -14.5q-73 0 -135.5 15.5t-114.5 49t-81.5 93t-29.5 139.5q0 313 412 354q22 2 65.5 7t61.5 7t49.5 6.5
t49.5 8t39 9.5t38 13q3 37 -8 61.5t-31 34t-33.5 12.5t-28.5 3q-106 0 -139 -94h-354q38 186 159 278t359 92q142 0 236 -30.5t142 -89.5t62 -145.5t-4 -199.5zM655 336l27 145q-21 -5 -44 -11t-35 -9t-41.5 -8t-76.5 -11q-50 -7 -76 -35.5t-26 -62.5q0 -90 102 -90
q46 0 94.5 27.5t75.5 54.5z" />
    <glyph glyph-name="aacute" unicode="&#xe1;" horiz-adv-x="1206" 
d="M1143 1452l-281 -262h-338l92 262h527zM1032 299q-11 -82 64 -88l-35 -201q-62 -18 -139 -18q-106 0 -179.5 43t-72.5 104q-2 -1 -17 -20t-38 -39.5t-56 -42.5t-84 -36.5t-110 -14.5q-73 0 -135.5 15.5t-114.5 49t-81.5 93t-29.5 139.5q0 313 412 354q22 2 65.5 7t61.5 7
t49.5 6.5t49.5 8t39 9.5t38 13q3 37 -8 61.5t-31 34t-33.5 12.5t-28.5 3q-106 0 -139 -94h-354q38 186 159 278t359 92q142 0 236 -30.5t142 -89.5t62 -145.5t-4 -199.5zM655 336l27 145q-21 -5 -44 -11t-35 -9t-41.5 -8t-76.5 -11q-50 -7 -76 -35.5t-26 -62.5
q0 -90 102 -90q46 0 94.5 27.5t75.5 54.5z" />
    <glyph glyph-name="acircumflex" unicode="&#xe2;" horiz-adv-x="1206" 
d="M700 1296l-204 -145h-299l163 301h709l68 -301h-287zM1032 299q-11 -82 64 -88l-35 -201q-62 -18 -139 -18q-106 0 -179.5 43t-72.5 104q-2 -1 -17 -20t-38 -39.5t-56 -42.5t-84 -36.5t-110 -14.5q-73 0 -135.5 15.5t-114.5 49t-81.5 93t-29.5 139.5q0 313 412 354
q22 2 65.5 7t61.5 7t49.5 6.5t49.5 8t39 9.5t38 13q3 37 -8 61.5t-31 34t-33.5 12.5t-28.5 3q-106 0 -139 -94h-354q38 186 159 278t359 92q142 0 236 -30.5t142 -89.5t62 -145.5t-4 -199.5zM655 336l27 145q-21 -5 -44 -11t-35 -9t-41.5 -8t-76.5 -11q-50 -7 -76 -35.5
t-26 -62.5q0 -90 102 -90q46 0 94.5 27.5t75.5 54.5z" />
    <glyph glyph-name="atilde" unicode="&#xe3;" horiz-adv-x="1206" 
d="M440 1298q-25 0 -48.5 -12t-22.5 -37h-140q0 132 69 217.5t208 85.5q57 0 117.5 -26t104 -57t101.5 -57t111 -26q25 0 49 11.5t23 36.5h139q0 -130 -69.5 -217t-207.5 -87q-47 0 -94.5 17.5t-87.5 42t-79 49t-84 42t-89 17.5zM1032 299q-11 -82 64 -88l-35 -201
q-62 -18 -139 -18q-106 0 -179.5 43t-72.5 104q-2 -1 -17 -20t-38 -39.5t-56 -42.5t-84 -36.5t-110 -14.5q-73 0 -135.5 15.5t-114.5 49t-81.5 93t-29.5 139.5q0 313 412 354q22 2 65.5 7t61.5 7t49.5 6.5t49.5 8t39 9.5t38 13q3 37 -8 61.5t-31 34t-33.5 12.5t-28.5 3
q-106 0 -139 -94h-354q38 186 159 278t359 92q142 0 236 -30.5t142 -89.5t62 -145.5t-4 -199.5zM655 336l27 145q-21 -5 -44 -11t-35 -9t-41.5 -8t-76.5 -11q-50 -7 -76 -35.5t-26 -62.5q0 -90 102 -90q46 0 94.5 27.5t75.5 54.5z" />
    <glyph glyph-name="adieresis" unicode="&#xe4;" horiz-adv-x="1206" 
d="M651 1452l-39 -248h-383l39 248h383zM774 1452h383l-39 -248h-383zM1032 299q-11 -82 64 -88l-35 -201q-62 -18 -139 -18q-106 0 -179.5 43t-72.5 104q-2 -1 -17 -20t-38 -39.5t-56 -42.5t-84 -36.5t-110 -14.5q-73 0 -135.5 15.5t-114.5 49t-81.5 93t-29.5 139.5
q0 313 412 354q22 2 65.5 7t61.5 7t49.5 6.5t49.5 8t39 9.5t38 13q3 37 -8 61.5t-31 34t-33.5 12.5t-28.5 3q-106 0 -139 -94h-354q38 186 159 278t359 92q142 0 236 -30.5t142 -89.5t62 -145.5t-4 -199.5zM655 336l27 145q-21 -5 -44 -11t-35 -9t-41.5 -8t-76.5 -11
q-50 -7 -76 -35.5t-26 -62.5q0 -90 102 -90q46 0 94.5 27.5t75.5 54.5z" />
    <glyph glyph-name="aring" unicode="&#xe5;" horiz-adv-x="1206" 
d="M711 1190q-90 0 -148.5 57t-58.5 144q0 95 70 166t165 71q85 0 142 -58t57 -145q0 -91 -70.5 -163t-156.5 -72zM727 1481q-31 0 -54.5 -23.5t-23.5 -52.5q0 -28 20 -47t52 -19q29 0 50.5 22.5t21.5 49.5q0 29 -19 49.5t-47 20.5zM1032 299q-11 -82 64 -88l-35 -201
q-62 -18 -139 -18q-106 0 -179.5 43t-72.5 104q-2 -1 -17 -20t-38 -39.5t-56 -42.5t-84 -36.5t-110 -14.5q-73 0 -135.5 15.5t-114.5 49t-81.5 93t-29.5 139.5q0 313 412 354q22 2 65.5 7t61.5 7t49.5 6.5t49.5 8t39 9.5t38 13q3 37 -8 61.5t-31 34t-33.5 12.5t-28.5 3
q-106 0 -139 -94h-354q38 186 159 278t359 92q142 0 236 -30.5t142 -89.5t62 -145.5t-4 -199.5zM655 336l27 145q-21 -5 -44 -11t-35 -9t-41.5 -8t-76.5 -11q-50 -7 -76 -35.5t-26 -62.5q0 -90 102 -90q46 0 94.5 27.5t75.5 54.5z" />
    <glyph glyph-name="ae" unicode="&#xe6;" horiz-adv-x="1841" 
d="M1763 621q0 -42 -7 -106.5t-17 -100.5h-695q11 -150 170 -150q58 0 94.5 20.5t51.5 47.5h344q-63 -174 -201.5 -260t-337.5 -86q-120 0 -233 52t-178 157q-158 -207 -383 -207q-76 0 -139 15.5t-115 49t-81.5 92.5t-29.5 140q0 74 21.5 130.5t57 94t90 64t112 40.5
t131.5 23q37 5 96 11t86.5 9.5t61 11t55.5 19.5q-1 29 -11 50t-23 30.5t-30 15.5t-25 6.5t-16 0.5q-22 0 -37 -2t-33.5 -8.5t-33.5 -22t-25 -39.5h-354q36 181 155.5 268.5t358.5 87.5q237 0 346 -86q144 86 318 86q93 0 172 -24.5t144.5 -76.5t102.5 -142t37 -211z
M1413 639q6 12 6 43q0 46 -36.5 81.5t-102.5 35.5q-127 0 -188 -115q0 -10 -5 -45h326zM475 270q54 0 109.5 22.5t74.5 41.5l23 125q-30 -9 -47.5 -13.5t-29 -6.5t-46.5 -8t-76 -13q-90 -14 -90 -78q0 -34 17 -52t65 -18z" />
    <glyph glyph-name="ccedilla" unicode="&#xe7;" horiz-adv-x="1122" 
d="M526 291q134 0 166 112h342q-30 -100 -76.5 -175.5t-104 -121.5t-116 -72t-125.5 -38l-118 -123q91 -6 151 -57.5t60 -141.5q0 -43 -13.5 -77t-35.5 -57.5t-57.5 -40.5t-73 -27t-89.5 -15.5t-98.5 -7.5t-108.5 -2v147q98 0 145.5 15.5t47.5 54.5q0 34 -33 44.5t-67 -15.5
l-21 -23l-63 103l-25 41l100 188h39q-66 16 -121 47.5t-101 80.5t-71.5 121.5t-25.5 162.5q0 189 75 339.5t214.5 236t318.5 85.5q63 0 119 -11t113.5 -40t98 -74.5t66.5 -121t27 -173.5h-334q3 57 -19.5 86t-90.5 29q-69 0 -120 -53.5t-74.5 -131t-23.5 -165.5
q0 -57 31 -93t92 -36z" />
    <glyph glyph-name="egrave" unicode="&#xe8;" horiz-adv-x="1181" 
d="M858 1190h-342l-240 262h531zM1104 621q0 -41 -7.5 -106t-17.5 -101h-694q11 -150 170 -150q58 0 94 20.5t51 47.5h344q-63 -175 -201.5 -260.5t-336.5 -85.5q-65 0 -129.5 15t-127 49.5t-110 84.5t-77 127.5t-29.5 171.5q0 135 47 254.5t128.5 204t195.5 133.5t243 49
q93 0 172.5 -24.5t144.5 -76.5t102.5 -142t37.5 -211zM754 639q6 12 6 43q0 46 -36.5 81.5t-102.5 35.5q-151 0 -207 -160h340z" />
    <glyph glyph-name="eacute" unicode="&#xe9;" horiz-adv-x="1181" 
d="M1145 1452l-281 -262h-338l92 262h527zM647 1075q93 0 172.5 -24.5t144.5 -76.5t102.5 -142t37.5 -211q0 -41 -7.5 -106t-17.5 -101h-694q11 -150 170 -150q58 0 94 20.5t51 47.5h344q-63 -175 -201.5 -260.5t-336.5 -85.5q-65 0 -129.5 15t-127 49.5t-110 84.5
t-77 127.5t-29.5 171.5q0 135 47 254.5t128.5 204t195.5 133.5t243 49zM754 639q6 12 6 43q0 46 -36.5 81.5t-102.5 35.5q-151 0 -207 -160h340z" />
    <glyph glyph-name="ecircumflex" unicode="&#xea;" horiz-adv-x="1181" 
d="M702 1296l-204 -145h-299l163 301h709l68 -301h-287zM647 1075q93 0 172.5 -24.5t144.5 -76.5t102.5 -142t37.5 -211q0 -41 -7.5 -106t-17.5 -101h-694q11 -150 170 -150q58 0 94 20.5t51 47.5h344q-63 -175 -201.5 -260.5t-336.5 -85.5q-65 0 -129.5 15t-127 49.5
t-110 84.5t-77 127.5t-29.5 171.5q0 135 47 254.5t128.5 204t195.5 133.5t243 49zM754 639q6 12 6 43q0 46 -36.5 81.5t-102.5 35.5q-151 0 -207 -160h340z" />
    <glyph glyph-name="edieresis" unicode="&#xeb;" horiz-adv-x="1181" 
d="M653 1452l-39 -248h-383l39 248h383zM776 1452h383l-39 -248h-383zM647 1075q93 0 172.5 -24.5t144.5 -76.5t102.5 -142t37.5 -211q0 -41 -7.5 -106t-17.5 -101h-694q11 -150 170 -150q58 0 94 20.5t51 47.5h344q-63 -175 -201.5 -260.5t-336.5 -85.5q-65 0 -129.5 15
t-127 49.5t-110 84.5t-77 127.5t-29.5 171.5q0 135 47 254.5t128.5 204t195.5 133.5t243 49zM754 639q6 12 6 43q0 46 -36.5 81.5t-102.5 35.5q-151 0 -207 -160h340z" />
    <glyph glyph-name="igrave" unicode="&#xec;" horiz-adv-x="571" 
d="M549 1190l-51 262h-531l240 -262h342zM176 1065h379l-168 -1065h-379z" />
    <glyph glyph-name="iacute" unicode="&#xed;" horiz-adv-x="571" 
d="M217 1190h338l281 262h-527zM176 1065h379l-168 -1065h-379z" />
    <glyph glyph-name="icircumflex" unicode="&#xee;" horiz-adv-x="571" 
d="M543 1151l-150 145l-205 -145h-299l164 301h709l67 -301h-286zM176 1065h379l-168 -1065h-379z" />
    <glyph glyph-name="idieresis" unicode="&#xef;" horiz-adv-x="571" 
d="M-39 1452h383l-39 -248h-383zM467 1452h383l-39 -248h-383zM176 1065h379l-168 -1065h-379z" />
    <glyph glyph-name="eth" unicode="&#xf0;" horiz-adv-x="1251" 
d="M1128 1182l-77 -8q53 -107 76.5 -198t23.5 -194q0 -177 -40 -322t-118 -253t-202 -167.5t-285 -59.5q-75 0 -143 16.5t-128.5 52t-105 88t-70.5 128t-26 167.5q0 123 41 238t112.5 202.5t177.5 140t228 52.5q87 0 170 -29q-11 52 -27 101l-188 -23l24 162l97 10
q-49 79 -127 148h358q44 -69 68 -113l186 22zM526 303q97 0 166.5 85t69.5 202q0 84 -37 118.5t-86 34.5q-74 0 -128.5 -49.5t-78.5 -117.5t-24 -142q0 -68 32 -99.5t86 -31.5z" />
    <glyph glyph-name="ntilde" unicode="&#xf1;" horiz-adv-x="1284" 
d="M1071 1434h139q0 -62 -16 -115.5t-48.5 -96.5t-86.5 -67.5t-125 -24.5q-47 0 -94.5 17.5t-87.5 42t-79 49t-84 42t-89 17.5q-25 0 -49 -12t-23 -37h-139q0 132 68.5 217.5t207.5 85.5q57 0 117.5 -26t104 -57t101.5 -57t111 -26q25 0 49 11.5t23 36.5zM860 1075
q85 0 149 -24t110 -77.5t59.5 -139t-2.5 -207.5l-99 -627h-379l103 627q13 68 -18 102.5t-89 34.5q-83 0 -146 -57.5t-73 -106.5l-98 -600h-379l168 1065h379l-31 -182q49 73 137.5 132.5t208.5 59.5z" />
    <glyph glyph-name="ograve" unicode="&#xf2;" horiz-adv-x="1220" 
d="M858 1190l-51 262h-531l240 -262h342zM662 1075q66 0 130.5 -15t128.5 -49.5t113 -85.5t79 -129.5t30 -174.5q0 -180 -77 -324.5t-219.5 -227.5t-324.5 -83q-67 0 -132 14.5t-129.5 49t-113.5 85.5t-79.5 131.5t-30.5 179.5q0 177 79 320.5t222.5 226t323.5 82.5z
M780 596q0 84 -41.5 129t-107.5 45q-58 0 -104 -29.5t-72.5 -77t-40 -99.5t-13.5 -103q0 -81 41 -125.5t109 -44.5q58 0 104 29.5t72 76t39.5 98t13.5 101.5z" />
    <glyph glyph-name="oacute" unicode="&#xf3;" horiz-adv-x="1220" 
d="M526 1190h338l281 262h-527zM662 1075q66 0 130.5 -15t128.5 -49.5t113 -85.5t79 -129.5t30 -174.5q0 -180 -77 -324.5t-219.5 -227.5t-324.5 -83q-67 0 -132 14.5t-129.5 49t-113.5 85.5t-79.5 131.5t-30.5 179.5q0 177 79 320.5t222.5 226t323.5 82.5zM780 596
q0 84 -41.5 129t-107.5 45q-58 0 -104 -29.5t-72.5 -77t-40 -99.5t-13.5 -103q0 -81 41 -125.5t109 -44.5q58 0 104 29.5t72 76t39.5 98t13.5 101.5z" />
    <glyph glyph-name="ocircumflex" unicode="&#xf4;" horiz-adv-x="1220" 
d="M852 1151l-150 145l-204 -145h-299l163 301h709l68 -301h-287zM662 1075q66 0 130.5 -15t128.5 -49.5t113 -85.5t79 -129.5t30 -174.5q0 -180 -77 -324.5t-219.5 -227.5t-324.5 -83q-67 0 -132 14.5t-129.5 49t-113.5 85.5t-79.5 131.5t-30.5 179.5q0 177 79 320.5
t222.5 226t323.5 82.5zM780 596q0 84 -41.5 129t-107.5 45q-58 0 -104 -29.5t-72.5 -77t-40 -99.5t-13.5 -103q0 -81 41 -125.5t109 -44.5q58 0 104 29.5t72 76t39.5 98t13.5 101.5z" />
    <glyph glyph-name="otilde" unicode="&#xf5;" horiz-adv-x="1220" 
d="M1014 1434h139q0 -62 -16 -115.5t-48.5 -96.5t-86.5 -67.5t-125 -24.5q-47 0 -95 17.5t-87.5 42l-79 49t-84.5 42t-89 17.5q-25 0 -48.5 -12t-22.5 -37h-140q0 132 69 217.5t208 85.5q57 0 117.5 -26t104 -57t101.5 -57t111 -26q25 0 49 11.5t23 36.5zM662 1075
q66 0 130.5 -15t128.5 -49.5t113 -85.5t79 -129.5t30 -174.5q0 -180 -77 -324.5t-219.5 -227.5t-324.5 -83q-67 0 -132 14.5t-129.5 49t-113.5 85.5t-79.5 131.5t-30.5 179.5q0 177 79 320.5t222.5 226t323.5 82.5zM780 596q0 84 -41.5 129t-107.5 45q-58 0 -104 -29.5
t-72.5 -77t-40 -99.5t-13.5 -103q0 -81 41 -125.5t109 -44.5q58 0 104 29.5t72 76t39.5 98t13.5 101.5z" />
    <glyph glyph-name="odieresis" unicode="&#xf6;" horiz-adv-x="1220" 
d="M270 1452h383l-39 -248h-383zM776 1452h383l-39 -248h-383zM662 1075q66 0 130.5 -15t128.5 -49.5t113 -85.5t79 -129.5t30 -174.5q0 -180 -77 -324.5t-219.5 -227.5t-324.5 -83q-67 0 -132 14.5t-129.5 49t-113.5 85.5t-79.5 131.5t-30.5 179.5q0 177 79 320.5
t222.5 226t323.5 82.5zM780 596q0 84 -41.5 129t-107.5 45q-58 0 -104 -29.5t-72.5 -77t-40 -99.5t-13.5 -103q0 -81 41 -125.5t109 -44.5q58 0 104 29.5t72 76t39.5 98t13.5 101.5z" />
    <glyph glyph-name="divide" unicode="&#xf7;" horiz-adv-x="956" 
d="M545 770q-75 0 -118.5 51.5t-33.5 130.5q8 55 52.5 93t105.5 38q71 0 114 -52t31 -128q-4 -55 -49 -94t-102 -39zM92 692h828l-43 -262h-830zM428 41q-75 0 -117.5 52.5t-29.5 131.5q8 53 53 91t106 38q71 0 114 -52t30 -126q-7 -57 -53 -96t-103 -39z" />
    <glyph glyph-name="oslash" unicode="&#xf8;" horiz-adv-x="1220" 
d="M999 956q144 -127 144 -335q0 -180 -77 -324.5t-219.5 -227.5t-324.5 -83q-69 0 -129 14l-65 -102h-310l142 223q-123 123 -123 325q0 177 79 320.5t222.5 226t323.5 82.5q51 0 98 -8l74 117h311zM563 758q-47 -17 -82 -58.5t-53.5 -90.5t-24.5 -103zM580 293
q66 8 113.5 60t67 115.5t19.5 127.5v14z" />
    <glyph glyph-name="ugrave" unicode="&#xf9;" horiz-adv-x="1288" 
d="M915 1190h-342l-239 262h530zM870 1065h379l-168 -1065h-379l27 168q-50 -70 -136 -125t-196 -55q-184 0 -274.5 107.5t-54.5 338.5l102 631h379l-103 -629q-8 -69 18 -97t81 -28q62 0 131 50t98 96z" />
    <glyph glyph-name="uacute" unicode="&#xfa;" horiz-adv-x="1288" 
d="M1202 1452l-280 -262h-338l92 262h526zM870 1065h379l-168 -1065h-379l27 168q-50 -70 -136 -125t-196 -55q-184 0 -274.5 107.5t-54.5 338.5l102 631h379l-103 -629q-8 -69 18 -97t81 -28q62 0 131 50t98 96z" />
    <glyph glyph-name="ucircumflex" unicode="&#xfb;" horiz-adv-x="1288" 
d="M760 1296l-205 -145h-299l164 301h708l68 -301h-287zM870 1065h379l-168 -1065h-379l27 168q-50 -70 -136 -125t-196 -55q-184 0 -274.5 107.5t-54.5 338.5l102 631h379l-103 -629q-8 -69 18 -97t81 -28q62 0 131 50t98 96z" />
    <glyph glyph-name="udieresis" unicode="&#xfc;" horiz-adv-x="1288" 
d="M711 1452l-39 -248h-383l39 248h383zM1217 1452l-39 -248h-383l39 248h383zM870 1065h379l-168 -1065h-379l27 168q-50 -70 -136 -125t-196 -55q-184 0 -274.5 107.5t-54.5 338.5l102 631h379l-103 -629q-8 -69 18 -97t81 -28q62 0 131 50t98 96z" />
    <glyph glyph-name="yacute" unicode="&#xfd;" horiz-adv-x="1236" 
d="M553 1190h338l280 262h-526zM881 1065h389l-611 -1061q-38 -67 -71.5 -118t-70 -96.5t-71 -77.5t-74.5 -58t-82 -41t-92 -23t-105.5 -7.5t-121.5 7.5l49 312q61 -6 110 1t78 19.5t54 36t35.5 40t24.5 42.5q14 30 16 48.5t-8 72.5l-236 903h375l115 -576z" />
    <glyph glyph-name="thorn" unicode="&#xfe;" horiz-adv-x="1224" 
d="M778 1077q54 0 105.5 -14.5t100.5 -47.5t86 -82t59 -124.5t22 -167.5q0 -123 -38 -241.5t-104.5 -211t-165 -149.5t-210.5 -57q-97 0 -154 32.5t-76 69.5l-79 -473h-379l291 1823h378l-67 -445q5 7 10.5 14t24.5 22t42.5 25t64.5 18.5t89 8.5zM567 287q56 0 98 31.5
t65.5 84t34.5 111.5t11 123q0 71 -26.5 103t-83.5 32q-56 0 -99.5 -33.5t-68 -86.5t-37 -110.5t-12.5 -113.5q0 -74 28.5 -107.5t89.5 -33.5z" />
    <glyph glyph-name="ydieresis" unicode="&#xff;" horiz-adv-x="1236" 
d="M297 1452h383l-39 -248h-383zM803 1452h383l-39 -248h-383zM881 1065h389l-611 -1061q-38 -67 -71.5 -118t-70 -96.5t-71 -77.5t-74.5 -58t-82 -41t-92 -23t-105.5 -7.5t-121.5 7.5l49 312q61 -6 110 1t78 19.5t54 36t35.5 40t24.5 42.5q14 30 16 48.5t-8 72.5l-236 903
h375l115 -576z" />
    <glyph glyph-name="Amacron" unicode="&#x100;" horiz-adv-x="1550" 
d="M1376 1821l-35 -215h-806l32 215h809zM977 0l-33 209h-465l-98 -209h-424l758 1434h372l318 -1434h-428zM614 498h285l-72 452z" />
    <glyph glyph-name="amacron" unicode="&#x101;" horiz-adv-x="1206" 
d="M348 1452h809l-35 -215h-807zM1032 299q-11 -82 64 -88l-35 -201q-62 -18 -139 -18q-106 0 -179.5 43t-72.5 104q-2 -1 -17 -20t-38 -39.5t-56 -42.5t-84 -36.5t-110 -14.5q-73 0 -135.5 15.5t-114.5 49t-81.5 93t-29.5 139.5q0 313 412 354q22 2 65.5 7t61.5 7t49.5 6.5
t49.5 8t39 9.5t38 13q3 37 -8 61.5t-31 34t-33.5 12.5t-28.5 3q-106 0 -139 -94h-354q38 186 159 278t359 92q142 0 236 -30.5t142 -89.5t62 -145.5t-4 -199.5zM655 336l27 145q-21 -5 -44 -11t-35 -9t-41.5 -8t-76.5 -11q-50 -7 -76 -35.5t-26 -62.5q0 -90 102 -90
q46 0 94.5 27.5t75.5 54.5z" />
    <glyph glyph-name="Abreve" unicode="&#x102;" horiz-adv-x="1550" 
d="M905 1475q-181 0 -269.5 91.5t-60.5 254.5h236q-11 -58 22.5 -85.5t96.5 -27.5q146 0 166 113h243q-54 -346 -434 -346zM977 0l-33 209h-465l-98 -209h-424l758 1434h372l318 -1434h-428zM614 498h285l-72 452z" />
    <glyph glyph-name="abreve" unicode="&#x103;" horiz-adv-x="1206" 
d="M686 1106q-181 0 -269.5 91.5t-60.5 254.5h236q-11 -58 22.5 -85.5t96.5 -27.5q146 0 166 113h243q-54 -346 -434 -346zM1032 299q-11 -82 64 -88l-35 -201q-62 -18 -139 -18q-106 0 -179.5 43t-72.5 104q-2 -1 -17 -20t-38 -39.5t-56 -42.5t-84 -36.5t-110 -14.5
q-73 0 -135.5 15.5t-114.5 49t-81.5 93t-29.5 139.5q0 313 412 354q22 2 65.5 7t61.5 7t49.5 6.5t49.5 8t39 9.5t38 13q3 37 -8 61.5t-31 34t-33.5 12.5t-28.5 3q-106 0 -139 -94h-354q38 186 159 278t359 92q142 0 236 -30.5t142 -89.5t62 -145.5t-4 -199.5zM655 336
l27 145q-21 -5 -44 -11t-35 -9t-41.5 -8t-76.5 -11q-50 -7 -76 -35.5t-26 -62.5q0 -90 102 -90q46 0 94.5 27.5t75.5 54.5z" />
    <glyph glyph-name="Aogonek" unicode="&#x104;" horiz-adv-x="1550" 
d="M1268 0q-318 -76 -334 -236q-8 -45 32 -45t111 33v-162q-67 -35 -157.5 -50t-174.5 -5.5t-135 63.5t-35 146q10 57 52.5 106.5t101.5 80.5t124 49t124 20l-33 209h-465l-98 -209h-424l758 1434h372l318 -1434h-137zM614 498h285l-72 452z" />
    <glyph glyph-name="aogonek" unicode="&#x105;" horiz-adv-x="1196" 
d="M1096 211l-35 -201q-1 0 -3 -1t-3 -1h6q-79 -19 -136 -43.5t-85.5 -45.5t-45 -46.5t-19.5 -41t-3 -34.5q0 -57 46 -66t114 25v-151q-47 -27 -112.5 -45t-135.5 -20t-129.5 13t-98 60t-38.5 115q0 65 36 118.5t93.5 86t119.5 51.5t124 24h14q-62 19 -98.5 54t-36.5 77
q-2 -1 -17 -20t-38 -39.5t-56 -42.5t-84 -36.5t-110 -14.5q-73 0 -135.5 15.5t-114.5 49t-81.5 93t-29.5 139.5q0 313 412 354q22 2 65.5 7t61.5 7t49.5 6.5t49.5 8t39 9.5t38 13q3 37 -8 61.5t-31 34t-33.5 12.5t-28.5 3q-106 0 -139 -94h-354q38 186 159 278t359 92
q142 0 236 -30.5t142 -89.5t62 -145.5t-4 -199.5l-47 -311q-11 -82 64 -88zM655 336l27 145q-21 -5 -44 -11t-35 -9t-41.5 -8t-76.5 -11q-50 -7 -76 -35.5t-26 -62.5q0 -90 102 -90q46 0 94.5 27.5t75.5 54.5z" />
    <glyph glyph-name="Cacute" unicode="&#x106;" horiz-adv-x="1413" 
d="M702 1559h338l281 262h-526zM696 322q97 0 152.5 43.5t97.5 150.5h381q-30 -133 -99.5 -237.5t-164 -168t-204.5 -96t-228 -32.5q-268 0 -422 149.5t-154 421.5q0 147 35 282t104.5 247t166 195t226.5 129t279 46q93 0 175.5 -20t151.5 -62.5t116.5 -104t69.5 -149
t12 -192.5h-385q-10 99 -56 143.5t-131 44.5t-153.5 -48.5t-108.5 -125.5t-61 -165t-21 -175q0 -276 221 -276z" />
    <glyph glyph-name="cacute" unicode="&#x107;" horiz-adv-x="1122" 
d="M463 1190h338l280 262h-526zM526 291q134 0 166 112h342q-29 -100 -77 -176t-101 -120.5t-118.5 -72.5t-123.5 -38t-122 -10q-67 0 -130 14t-123.5 46.5t-105.5 80.5t-72.5 122t-27.5 165q0 189 75 339.5t214.5 236t318.5 85.5q63 0 119 -11t113.5 -40t98 -74.5
t66.5 -121t27 -173.5h-334q3 57 -19.5 86t-90.5 29q-69 0 -120 -53.5t-74.5 -131t-23.5 -165.5q0 -57 31 -93t92 -36z" />
    <glyph glyph-name="Cdotaccent" unicode="&#x10a;" horiz-adv-x="1413" 
d="M725 1821h383l-39 -248h-383zM696 322q97 0 152.5 43.5t97.5 150.5h381q-30 -133 -99.5 -237.5t-164 -168t-204.5 -96t-228 -32.5q-268 0 -422 149.5t-154 421.5q0 147 35 282t104.5 247t166 195t226.5 129t279 46q93 0 175.5 -20t151.5 -62.5t116.5 -104t69.5 -149
t12 -192.5h-385q-10 99 -56 143.5t-131 44.5t-153.5 -48.5t-108.5 -125.5t-61 -165t-21 -175q0 -276 221 -276z" />
    <glyph glyph-name="cdotaccent" unicode="&#x10b;" horiz-adv-x="1122" 
d="M485 1452h383l-39 -248h-383zM526 291q134 0 166 112h342q-29 -100 -77 -176t-101 -120.5t-118.5 -72.5t-123.5 -38t-122 -10q-67 0 -130 14t-123.5 46.5t-105.5 80.5t-72.5 122t-27.5 165q0 189 75 339.5t214.5 236t318.5 85.5q63 0 119 -11t113.5 -40t98 -74.5
t66.5 -121t27 -173.5h-334q3 57 -19.5 86t-90.5 29q-69 0 -120 -53.5t-74.5 -131t-23.5 -165.5q0 -57 31 -93t92 -36z" />
    <glyph glyph-name="Ccaron" unicode="&#x10c;" horiz-adv-x="1413" 
d="M1071 1821h299l-160 -301h-710l-70 301h287l153 -146zM696 322q97 0 152.5 43.5t97.5 150.5h381q-30 -133 -99.5 -237.5t-164 -168t-204.5 -96t-228 -32.5q-268 0 -422 149.5t-154 421.5q0 147 35 282t104.5 247t166 195t226.5 129t279 46q93 0 175.5 -20t151.5 -62.5
t116.5 -104t69.5 -149t12 -192.5h-385q-10 99 -56 143.5t-131 44.5t-153.5 -48.5t-108.5 -125.5t-61 -165t-21 -175q0 -276 221 -276z" />
    <glyph glyph-name="ccaron" unicode="&#x10d;" horiz-adv-x="1122" 
d="M831 1452h299l-159 -301h-711l-70 301h287l154 -145zM526 291q134 0 166 112h342q-29 -100 -77 -176t-101 -120.5t-118.5 -72.5t-123.5 -38t-122 -10q-67 0 -130 14t-123.5 46.5t-105.5 80.5t-72.5 122t-27.5 165q0 189 75 339.5t214.5 236t318.5 85.5q63 0 119 -11
t113.5 -40t98 -74.5t66.5 -121t27 -173.5h-334q3 57 -19.5 86t-90.5 29q-69 0 -120 -53.5t-74.5 -131t-23.5 -165.5q0 -57 31 -93t92 -36z" />
    <glyph glyph-name="Dcaron" unicode="&#x10e;" horiz-adv-x="1458" 
d="M1044 1821h299l-159 -301h-711l-70 301h287l154 -146zM842 1434q280 0 430.5 -149.5t150.5 -442.5q0 -254 -88.5 -442t-267 -294t-428.5 -106h-619l226 1434h596zM641 360q102 0 179.5 39t122.5 107t67 151.5t22 180.5q0 132 -59.5 183.5t-200.5 51.5h-182l-115 -713h166
z" />
    <glyph glyph-name="dcaron" unicode="&#x10f;" horiz-adv-x="1654" 
d="M881 1434h381l-228 -1434h-381l15 100q-1 -1 -18 -20.5t-39 -39t-70.5 -37t-108.5 -17.5q-56 0 -110.5 14.5t-107.5 49t-92.5 85t-64 128.5t-24.5 173q0 122 40.5 237.5t110 204.5t171 143t216.5 54q102 0 159.5 -37.5t74.5 -79.5zM1386 1434h420l-276 -304h-285z
M543 291q55 0 99.5 32t70.5 83t39.5 107t13.5 110q0 147 -127 147q-107 0 -170 -92.5t-63 -228.5q0 -78 39.5 -118t97.5 -40z" />
    <glyph glyph-name="Dcroat" unicode="&#x110;" horiz-adv-x="1536" 
d="M920 1434q280 0 430.5 -149.5t150.5 -442.5q0 -254 -88.5 -442t-267 -294t-428.5 -106h-619l90 569h-133l45 262h129l95 603h596zM719 360q102 0 179.5 39t122.5 107t67 151.5t22 180.5q0 132 -59.5 183.5t-200.5 51.5h-182l-39 -242h239l-45 -262h-237l-33 -209h166z
" />
    <glyph glyph-name="dcroat" unicode="&#x111;" horiz-adv-x="1261" 
d="M1366 1321l-37 -215h-119l-176 -1106h-381l15 100q-1 -1 -18 -20.5t-39 -39t-70.5 -37t-108.5 -17.5q-56 0 -110.5 14.5t-107.5 49t-92.5 85t-64 128.5t-24.5 173q0 122 40.5 237.5t110 204.5t171 143t216.5 54q102 0 159.5 -37.5t74.5 -79.5l22 148h-260l37 215h258
l19 113h381l-19 -113h123zM543 291q55 0 99.5 32t70.5 83t39.5 107t13.5 110q0 147 -127 147q-107 0 -170 -92.5t-63 -228.5q0 -78 39.5 -118t97.5 -40z" />
    <glyph glyph-name="Emacron" unicode="&#x112;" horiz-adv-x="1243" 
d="M457 1821h809l-35 -215h-807zM1241 1094h-653l-33 -215h551l-51 -316h-551l-33 -223h674l-53 -340h-1074l228 1434h1052z" />
    <glyph glyph-name="emacron" unicode="&#x113;" horiz-adv-x="1181" 
d="M350 1452h809l-35 -215h-807zM647 1075q93 0 172.5 -24.5t144.5 -76.5t102.5 -142t37.5 -211q0 -41 -7.5 -106t-17.5 -101h-694q11 -150 170 -150q58 0 94 20.5t51 47.5h344q-63 -175 -201.5 -260.5t-336.5 -85.5q-65 0 -129.5 15t-127 49.5t-110 84.5t-77 127.5
t-29.5 171.5q0 135 47 254.5t128.5 204t195.5 133.5t243 49zM754 639q6 12 6 43q0 46 -36.5 81.5t-102.5 35.5q-151 0 -207 -160h340z" />
    <glyph glyph-name="Edotaccent" unicode="&#x116;" horiz-adv-x="1243" 
d="M655 1821h383l-39 -248h-383zM1241 1094h-653l-33 -215h551l-51 -316h-551l-33 -223h674l-53 -340h-1074l228 1434h1052z" />
    <glyph glyph-name="edotaccent" unicode="&#x117;" horiz-adv-x="1181" 
d="M932 1452l-39 -248h-383l39 248h383zM1104 621q0 -41 -7.5 -106t-17.5 -101h-694q11 -150 170 -150q58 0 94 20.5t51 47.5h344q-63 -175 -201.5 -260.5t-336.5 -85.5q-65 0 -129.5 15t-127 49.5t-110 84.5t-77 127.5t-29.5 171.5q0 135 47 254.5t128.5 204t195.5 133.5
t243 49q93 0 172.5 -24.5t144.5 -76.5t102.5 -142t37.5 -211zM754 639q6 12 6 43q0 46 -36.5 81.5t-102.5 35.5q-151 0 -207 -160h340z" />
    <glyph glyph-name="Eogonek" unicode="&#x118;" horiz-adv-x="1257" 
d="M1241 1094h-653l-33 -215h551l-51 -316h-551l-33 -223h674l-53 -340h10q-82 -19 -143.5 -45t-94.5 -49t-55 -53t-28.5 -47.5t-12.5 -41.5q-8 -45 33 -45t112 33l-2 -162q-52 -27 -122 -44t-141.5 -16t-130 20t-89.5 69t-18 125q10 57 54.5 106.5t103 80.5t116 49
t100.5 20h-766l228 1434h1052z" />
    <glyph glyph-name="eogonek" unicode="&#x119;" horiz-adv-x="1167" 
d="M643 1077q205 0 327 -113.5t122 -345.5q0 -74 -15 -157l-8 -45h-670q4 -71 38.5 -100t107.5 -29q45 0 93.5 21.5t59.5 45.5h359q-60 -141 -143.5 -225t-200.5 -119h18q-81 -19 -142.5 -44.5t-96 -49.5t-56 -51.5t-29 -47t-8.5 -40.5q-2 -44 33.5 -44t112.5 34l-2 -164
q-52 -27 -121.5 -43.5t-141.5 -15.5t-130.5 19.5t-90 68t-18.5 124.5q14 90 103.5 155t203.5 91q-51 15 -95.5 38.5t-85.5 60.5t-70 83.5t-46.5 110t-17.5 137.5q0 184 78 331.5t217.5 230.5t314.5 83zM627 772q-126 0 -185 -108h289q-2 63 -20.5 85.5t-83.5 22.5z" />
    <glyph glyph-name="Ecaron" unicode="&#x11a;" horiz-adv-x="1243" 
d="M1001 1821h299l-159 -301h-711l-70 301h287l154 -146zM1241 1094h-653l-33 -215h551l-51 -316h-551l-33 -223h674l-53 -340h-1074l228 1434h1052z" />
    <glyph glyph-name="ecaron" unicode="&#x11b;" horiz-adv-x="1167" 
d="M1022 1133h-709l-67 301h286l152 -146l203 146h299zM643 1077q205 0 327 -113.5t122 -345.5q0 -74 -15 -157l-8 -45h-670q4 -71 38.5 -100t107.5 -29q45 0 93.5 21.5t59.5 45.5h359q-84 -199 -218 -285.5t-347 -86.5q-63 0 -125 14.5t-123 49t-107.5 85t-75 128.5
t-28.5 173q0 184 78 331.5t217.5 230.5t314.5 83zM627 772q-126 0 -185 -108h289q-2 63 -20.5 85.5t-83.5 22.5z" />
    <glyph glyph-name="Gbreve" unicode="&#x11e;" horiz-adv-x="1454" 
d="M1079 1821h244q-54 -346 -434 -346q-181 0 -269.5 91.5t-60.5 254.5h236q-11 -58 22 -85.5t96 -27.5q146 0 166 113zM809 817h606l-16 -104q-31 -183 -85.5 -315t-142.5 -227t-217 -142t-301 -47q-283 0 -440.5 147.5t-157.5 415.5q0 147 35.5 283t105.5 249t166.5 197
t226 131t277.5 47q93 0 175.5 -20t151.5 -62.5t116.5 -104t69.5 -149t12 -192.5h-385q-10 99 -56 143.5t-131 44.5q-81 0 -148.5 -48t-109 -125t-64 -167.5t-22.5 -181.5q0 -268 232 -268q127 0 199.5 40t107.5 148h-256z" />
    <glyph glyph-name="gbreve" unicode="&#x11f;" horiz-adv-x="1239" 
d="M743 1106q-181 0 -269 91.5t-60 254.5h235q-11 -58 22.5 -85.5t96.5 -27.5q146 0 166 113h244q-54 -346 -435 -346zM823 1065h377l-160 -1018q-14 -90 -46 -164t-73 -124.5t-94 -89.5t-104.5 -61t-109 -36t-103.5 -18.5t-92 -4.5q-181 0 -296 76t-157 193l242 119
q12 -16 21.5 -25t33 -24t63.5 -23t95 -8q113 0 165.5 51t78.5 168l6 24q-2 -1 -19 -20t-39.5 -38.5t-71 -36.5t-108.5 -17q-72 0 -139 24.5t-127 75t-96.5 140.5t-36.5 208q0 157 67.5 302.5t193.5 241t277 95.5q56 0 102 -13t73 -33t42.5 -38t22.5 -35zM543 293
q72 0 125 56.5t75.5 130t22.5 145.5q0 145 -125 145q-71 0 -126.5 -52t-82 -125t-26.5 -149q0 -75 39.5 -113t97.5 -38z" />
    <glyph glyph-name="Gdotaccent" unicode="&#x120;" horiz-adv-x="1454" 
d="M750 1821h383l-39 -248h-383zM809 817h606l-16 -104q-31 -183 -85.5 -315t-142.5 -227t-217 -142t-301 -47q-283 0 -440.5 147.5t-157.5 415.5q0 147 35.5 283t105.5 249t166.5 197t226 131t277.5 47q93 0 175.5 -20t151.5 -62.5t116.5 -104t69.5 -149t12 -192.5h-385
q-10 99 -56 143.5t-131 44.5q-81 0 -148.5 -48t-109 -125t-64 -167.5t-22.5 -181.5q0 -268 232 -268q127 0 199.5 40t107.5 148h-256z" />
    <glyph glyph-name="gdotaccent" unicode="&#x121;" horiz-adv-x="1239" 
d="M987 1452l-39 -248h-383l39 248h383zM823 1065h377l-160 -1018q-14 -90 -46 -164t-73 -124.5t-94 -89.5t-104.5 -61t-109 -36t-103.5 -18.5t-92 -4.5q-181 0 -296 76t-157 193l242 119q12 -16 21.5 -25t33 -24t63.5 -23t95 -8q113 0 165.5 51t78.5 168l6 24
q-2 -1 -19 -20t-39.5 -38.5t-71 -36.5t-108.5 -17q-72 0 -139 24.5t-127 75t-96.5 140.5t-36.5 208q0 157 67.5 302.5t193.5 241t277 95.5q56 0 102 -13t73 -33t42.5 -38t22.5 -35zM543 293q72 0 125 56.5t75.5 130t22.5 145.5q0 145 -125 145q-71 0 -126.5 -52t-82 -125
t-26.5 -149q0 -75 39.5 -113t97.5 -38z" />
    <glyph glyph-name="Gcommaaccent" unicode="&#x122;" horiz-adv-x="1454" 
d="M809 817h606l-16 -104q-31 -183 -85.5 -315t-142.5 -227t-217 -142t-301 -47q-283 0 -440.5 147.5t-157.5 415.5q0 147 35.5 283t105.5 249t166.5 197t226 131t277.5 47q93 0 175.5 -20t151.5 -62.5t116.5 -104t69.5 -149t12 -192.5h-385q-10 99 -56 143.5t-131 44.5
q-81 0 -148.5 -48t-109 -125t-64 -167.5t-22.5 -181.5q0 -268 232 -268q127 0 199.5 40t107.5 148h-256zM313 -887l19 113q76 10 122 64.5t58 125.5l14 66h-151l61 416h400l-56 -361q-12 -83 -35 -148.5t-50 -109.5t-65 -75.5t-72.5 -48.5t-80.5 -27t-81.5 -12.5t-82.5 -2.5
z" />
    <glyph glyph-name="gcommaaccent" unicode="&#x123;" horiz-adv-x="1239" 
d="M782 1645l-61 -416h-399l55 360q12 83 35 148.5t50 109.5t65 75.5t72.5 48.5t80.5 27t81.5 12.5t82.5 2.5l-19 -112q-76 -10 -122 -65t-58 -126l-14 -65h151zM823 1065h377l-160 -1018q-14 -90 -46 -164t-73 -124.5t-94 -89.5t-104.5 -61t-109 -36t-103.5 -18.5t-92 -4.5
q-181 0 -296 76t-157 193l242 119q12 -16 21.5 -25t33 -24t63.5 -23t95 -8q113 0 165.5 51t78.5 168l6 24q-2 -1 -19 -20t-39.5 -38.5t-71 -36.5t-108.5 -17q-72 0 -139 24.5t-127 75t-96.5 140.5t-36.5 208q0 157 67.5 302.5t193.5 241t277 95.5q56 0 102 -13t73 -33
t42.5 -38t22.5 -35zM543 293q72 0 125 56.5t75.5 130t22.5 145.5q0 145 -125 145q-71 0 -126.5 -52t-82 -125t-26.5 -149q0 -75 39.5 -113t97.5 -38z" />
    <glyph glyph-name="Hbar" unicode="&#x126;" horiz-adv-x="1458" 
d="M1071 1434h397l-227 -1434h-397l90 563h-428l-90 -563h-398l228 1434h397l-29 -185h428zM557 885h428l8 53h-428z" />
    <glyph glyph-name="hbar" unicode="&#x127;" horiz-adv-x="1398" 
d="M975 1075q85 0 149 -23.5t110 -76t59 -137.5t-3 -207l-98 -631h-379l102 631q10 66 -19.5 99.5t-86.5 33.5q-83 0 -146.5 -56t-72.5 -104l-98 -604h-379l166 1057h-166l32 200h164l29 177h379l-29 -177h133l-33 -200h-133l-26 -166q21 30 50.5 59t72.5 58.5t101 48
t122 18.5z" />
    <glyph glyph-name="Imacron" unicode="&#x12a;" horiz-adv-x="634" 
d="M125 1821h809l-35 -215h-807zM418 0h-398l226 1434h397z" />
    <glyph glyph-name="imacron" unicode="&#x12b;" horiz-adv-x="571" 
d="M41 1452h809l-35 -215h-807zM176 1065h379l-168 -1065h-379z" />
    <glyph glyph-name="Iogonek" unicode="&#x12e;" horiz-adv-x="688" 
d="M285 1434h411l-225 -1434h-119q-320 -76 -336 -236q-8 -45 33.5 -45t112.5 33l-2 -162q-67 -35 -157.5 -50t-174.5 -5.5t-135 63.5t-35 146q10 57 52 106.5t101 80.5t124 49t124 20z" />
    <glyph glyph-name="iogonek" unicode="&#x12f;" horiz-adv-x="823" 
d="M487 1452h383l-41 -248h-383zM166 0l168 1065h379l-168 -1065h-88q-314 -74 -336 -236q-8 -45 33 -45t112 33l-2 -162q-66 -35 -156.5 -50t-174.5 -5.5t-135.5 63.5t-35.5 146q10 57 52.5 106.5t101.5 80.5t124.5 49t125.5 20z" />
    <glyph glyph-name="Idotaccent" unicode="&#x130;" horiz-adv-x="634" 
d="M324 1821h383l-39 -248h-383zM418 0h-398l226 1434h397z" />
    <glyph glyph-name="dotlessi" unicode="&#x131;" horiz-adv-x="571" 
d="M176 1065h379l-168 -1065h-379z" />
    <glyph glyph-name="IJ" unicode="&#x132;" horiz-adv-x="1730" 
d="M418 0h-398l226 1434h397zM797 428l17 -16q17 -17 24.5 -23.5t28.5 -21t39 -21t46.5 -12.5t59.5 -6q36 0 61 5.5t52.5 23t46 56.5t28.5 99l146 922h397l-150 -942q-19 -129 -72.5 -227t-132.5 -158.5t-175.5 -90.5t-208.5 -30q-299 0 -453 196z" />
    <glyph glyph-name="Kcommaaccent" unicode="&#x136;" horiz-adv-x="1533" 
d="M1571 1434l-625 -637l453 -797h-432l-279 526l2 11l-225 -230l-49 -307h-398l228 1434h397l-96 -605l581 605h443zM449 -494l71 443h465l-63 -393q-11 -72 -33 -132t-49.5 -102t-62 -75t-71.5 -52t-77 -33t-79.5 -18t-78 -7t-72.5 1l-6 114q72 8 120 67t60 130l11 57
h-135z" />
    <glyph glyph-name="kcommaaccent" unicode="&#x137;" horiz-adv-x="1267" 
d="M1282 1065l-506 -453l391 -612h-403l-244 383l-82 -72l-49 -311h-379l226 1434h378l-102 -654l315 285h455zM297 -518l61 416h400l-56 -361q-12 -83 -35 -148.5t-50 -109.5t-64.5 -75.5t-72 -48.5t-80.5 -27t-81.5 -12.5t-82.5 -2.5l18 113q76 10 122 64.5t58 125.5
l15 66h-152z" />
    <glyph glyph-name="Lacute" unicode="&#x139;" horiz-adv-x="1216" 
d="M279 1559h337l281 262h-526zM469 340h606l-53 -340h-1004l228 1434h397z" />
    <glyph glyph-name="lacute" unicode="&#x13a;" horiz-adv-x="579" 
d="M248 1559h338l280 262h-526zM213 1434h379l-225 -1434h-379z" />
    <glyph glyph-name="Lcommaaccent" unicode="&#x13b;" horiz-adv-x="1216" 
d="M469 340h606l-53 -340h-1004l228 1434h397zM201 -887l18 113q76 10 122 64.5t58 125.5l15 66h-152l62 416h399l-55 -361q-12 -83 -35 -148.5t-50 -109.5t-65 -75.5t-72.5 -48.5t-80.5 -27t-81.5 -12.5t-82.5 -2.5z" />
    <glyph glyph-name="lcommaaccent" unicode="&#x13c;" horiz-adv-x="690" 
d="M289 1434h379l-226 -1434h-379zM-109 -862l-4 114q73 8 121 67.5t58 129.5l10 57h-133l71 443h463l-61 -393q-14 -82 -40.5 -148.5t-60.5 -109.5t-75.5 -75.5t-85.5 -48t-90 -26.5t-89.5 -10.5t-83.5 0.5z" />
    <glyph glyph-name="Lcaron" unicode="&#x13d;" horiz-adv-x="1216" 
d="M469 340h606l-53 -340h-1004l228 1434h397zM680 625l-6 114q70 7 119 67t61 130l8 57h-133l68 441h465l-62 -394q-13 -82 -39 -148t-59.5 -109t-74.5 -75.5t-85 -47.5t-89.5 -25.5t-89 -10t-83.5 0.5z" />
    <glyph glyph-name="lcaron" unicode="&#x13e;" horiz-adv-x="1097" 
d="M236 1434h378l-225 -1434h-379zM639 625l-6 114q71 7 121.5 67.5t58.5 129.5l4 57h-133l72 441h463l-62 -394q-14 -82 -40 -148t-59.5 -109t-74.5 -75.5t-84.5 -47.5t-89 -25.5t-88 -10t-82.5 0.5z" />
    <glyph glyph-name="Lslash" unicode="&#x141;" horiz-adv-x="1243" 
d="M496 340h606l-53 -340h-1004l53 336l-139 -113l57 379l144 117l112 715h398l-54 -338l185 151h4l-51 -379l-201 -161z" />
    <glyph glyph-name="lslash" unicode="&#x142;" horiz-adv-x="626" 
d="M672 1194l-47 -350l-103 -94l-119 -750h-378l55 350l-78 -69l47 358l88 78l113 717h379l-51 -324z" />
    <glyph glyph-name="Nacute" unicode="&#x143;" horiz-adv-x="1499" 
d="M750 1559h337l281 262h-526zM1509 1434l-227 -1434h-403l-334 764h-10l-119 -764h-398l228 1434h389l344 -791h10l123 791h397z" />
    <glyph glyph-name="nacute" unicode="&#x144;" horiz-adv-x="1284" 
d="M584 1190h338l280 262h-526zM860 1075q85 0 149 -24t110 -77.5t59.5 -139t-2.5 -207.5l-99 -627h-379l103 627q13 68 -18 102.5t-89 34.5q-83 0 -146 -57.5t-73 -106.5l-98 -600h-379l168 1065h379l-31 -182q49 73 137.5 132.5t208.5 59.5z" />
    <glyph glyph-name="Ncommaaccent" unicode="&#x145;" horiz-adv-x="1499" 
d="M1509 1434l-227 -1434h-403l-334 764h-10l-119 -764h-398l228 1434h389l344 -791h10l123 791h397zM336 -887l18 113q76 10 122.5 65t58.5 125l14 66h-152l62 416h399l-55 -361q-12 -83 -35 -148.5t-50 -109.5t-65 -75.5t-72.5 -48.5t-80.5 -27t-81.5 -12.5t-82.5 -2.5z
" />
    <glyph glyph-name="ncommaaccent" unicode="&#x146;" horiz-adv-x="1284" 
d="M860 1075q85 0 149 -24t110 -77.5t59.5 -139t-2.5 -207.5l-99 -627h-379l103 627q13 68 -18 102.5t-89 34.5q-83 0 -146 -57.5t-73 -106.5l-98 -600h-379l168 1065h379l-31 -182q49 73 137.5 132.5t208.5 59.5zM229 -887l19 113q76 10 122 64.5t58 125.5l14 66h-151
l61 416h400l-56 -361q-12 -83 -35 -148.5t-50 -109.5t-65 -75.5t-72.5 -48.5t-80.5 -27t-81.5 -12.5t-82.5 -2.5z" />
    <glyph glyph-name="Ncaron" unicode="&#x147;" horiz-adv-x="1499" 
d="M1118 1821h299l-160 -301h-710l-70 301h287l154 -146zM1509 1434l-227 -1434h-403l-334 764h-10l-119 -764h-398l228 1434h389l344 -791h10l123 791h397z" />
    <glyph glyph-name="ncaron" unicode="&#x148;" horiz-adv-x="1284" 
d="M952 1452h299l-159 -301h-711l-70 301h287l154 -145zM860 1075q85 0 149 -24t110 -77.5t59.5 -139t-2.5 -207.5l-99 -627h-379l103 627q13 68 -18 102.5t-89 34.5q-83 0 -146 -57.5t-73 -106.5l-98 -600h-379l168 1065h379l-31 -182q49 73 137.5 132.5t208.5 59.5z" />
    <glyph glyph-name="Eng" unicode="&#x14a;" horiz-adv-x="1499" 
d="M1112 1434h397l-219 -1379q-21 -130 -74.5 -228t-131.5 -158t-174 -90t-208 -30q-301 0 -452 197l244 246q2 -2 21.5 -21t32.5 -28t38 -23.5t55.5 -21.5t67.5 -7q30 0 51 3t45 12.5t42.5 31t31.5 54.5l-334 772h-10l-119 -764h-398l228 1434h389l344 -791h12l51 354z" />
    <glyph glyph-name="eng" unicode="&#x14b;" horiz-adv-x="1284" 
d="M860 1079q85 0 149 -24t110 -77.5t59.5 -139t-2.5 -207.5l-117 -742q-29 -171 -128.5 -255.5t-254.5 -84.5q-169 0 -258 52l53 301q49 -23 121 -23q26 0 44.5 8.5t29 18.5t19 36t12 43.5t10.5 59.5l94 586q13 68 -18 102.5t-89 34.5q-83 0 -146 -57.5t-73 -106.5
l-98 -604h-379l168 1065h379l-31 -174q21 31 50.5 60t72.5 59.5t101 49.5t122 19z" />
    <glyph glyph-name="Omacron" unicode="&#x14c;" horiz-adv-x="1521" 
d="M588 1821h809l-35 -215h-807zM889 1452q279 0 438.5 -155t159.5 -425q0 -146 -38.5 -281t-111.5 -245t-174 -192t-232 -127t-278 -45q-277 0 -436.5 154.5t-159.5 422.5q0 186 60 350t166.5 284t263.5 189.5t342 69.5zM707 319q88 0 159 45.5t115 120.5t67 166t23 189
q0 129 -58.5 201.5t-176.5 72.5q-89 0 -160.5 -45t-114.5 -120t-65.5 -165.5t-22.5 -187.5q0 -128 59.5 -202.5t174.5 -74.5z" />
    <glyph glyph-name="omacron" unicode="&#x14d;" horiz-adv-x="1220" 
d="M350 1452h809l-35 -215h-807zM662 1075q66 0 130.5 -15t128.5 -49.5t113 -85.5t79 -129.5t30 -174.5q0 -180 -77 -324.5t-219.5 -227.5t-324.5 -83q-67 0 -132 14.5t-129.5 49t-113.5 85.5t-79.5 131.5t-30.5 179.5q0 177 79 320.5t222.5 226t323.5 82.5zM780 596
q0 84 -41.5 129t-107.5 45q-58 0 -104 -29.5t-72.5 -77t-40 -99.5t-13.5 -103q0 -81 41 -125.5t109 -44.5q58 0 104 29.5t72 76t39.5 98t13.5 101.5z" />
    <glyph glyph-name="Ohungarumlaut" unicode="&#x150;" horiz-adv-x="1521" 
d="M1171 1753l-176 -194h-342l52 262h1011l-239 -262h-342zM889 1452q279 0 438.5 -155t159.5 -425q0 -146 -38.5 -281t-111.5 -245t-174 -192t-232 -127t-278 -45q-277 0 -436.5 154.5t-159.5 422.5q0 186 60 350t166.5 284t263.5 189.5t342 69.5zM707 319q88 0 159 45.5
t115 120.5t67 166t23 189q0 129 -58.5 201.5t-176.5 72.5q-89 0 -160.5 -45t-114.5 -120t-65.5 -165.5t-22.5 -187.5q0 -128 59.5 -202.5t174.5 -74.5z" />
    <glyph glyph-name="ohungarumlaut" unicode="&#x151;" horiz-adv-x="1220" 
d="M1479 1452l-240 -262h-342l37 194l-176 -194h-342l51 262h1012zM662 1075q66 0 130.5 -15t128.5 -49.5t113 -85.5t79 -129.5t30 -174.5q0 -180 -77 -324.5t-219.5 -227.5t-324.5 -83q-67 0 -132 14.5t-129.5 49t-113.5 85.5t-79.5 131.5t-30.5 179.5q0 177 79 320.5
t222.5 226t323.5 82.5zM551 291q58 0 104 29.5t72 76t39.5 98t13.5 101.5q0 84 -41.5 129t-107.5 45q-58 0 -104 -29.5t-72.5 -77t-40 -99.5t-13.5 -103q0 -81 41 -125.5t109 -44.5z" />
    <glyph glyph-name="OE" unicode="&#x152;" horiz-adv-x="2185" 
d="M2183 1094h-653l-33 -215h551l-51 -316h-551l-33 -223h674l-53 -340h-1073l6 41q-142 -59 -314 -59q-277 0 -436.5 154.5t-159.5 422.5q0 186 60 350t166.5 284t263.5 189.5t342 69.5q164 0 293 -57l6 39h1053zM707 319q88 0 159 45.5t115 120.5t67 166t23 189
q0 129 -58.5 201.5t-176.5 72.5q-89 0 -160.5 -45t-114.5 -120t-65.5 -165.5t-22.5 -187.5q0 -128 59.5 -202.5t174.5 -74.5z" />
    <glyph glyph-name="oe" unicode="&#x153;" horiz-adv-x="1906" 
d="M1806 414h-692l-2 -2q14 -148 170 -148q58 0 94 20.5t51 47.5h345q-63 -174 -201.5 -260t-337.5 -86q-91 0 -179 29t-155 89q-155 -118 -377 -118q-67 0 -132 14.5t-129.5 49t-113.5 85.5t-79.5 131.5t-30.5 179.5q0 177 79 320.5t222.5 226t323.5 82.5q91 0 182 -31
t160 -92q161 123 370 123q93 0 172.5 -24.5t144.5 -76.5t102.5 -142t37.5 -211q0 -41 -7.5 -106t-17.5 -101zM1348 799q-149 0 -205 -156v-4h338q6 12 6 43q0 46 -36.5 81.5t-102.5 35.5zM551 291q79 0 132 51.5t77 130.5q7 76 20 133q-3 80 -44 122t-105 42
q-58 0 -104 -29.5t-72.5 -77t-40 -99.5t-13.5 -103q0 -81 41 -125.5t109 -44.5z" />
    <glyph glyph-name="Racute" unicode="&#x154;" horiz-adv-x="1447" 
d="M1360 1821l-281 -262h-338l93 262h526zM1135 659q104 -54 141 -109t37 -134q0 -29 -16.5 -151.5t-16.5 -158.5q0 -63 14 -106h-393q-14 32 -14 113q0 44 13 138.5t13 104.5q0 49 -37.5 87t-107.5 38h-276l-76 -481h-398l228 1434h651q255 0 377.5 -101.5t122.5 -267.5
q0 -146 -58.5 -239t-203.5 -167zM774 793q110 0 157.5 45t47.5 137q0 59 -37 89t-104 30h-250l-47 -301h233z" />
    <glyph glyph-name="racute" unicode="&#x155;" horiz-adv-x="905" 
d="M1028 1452l-280 -262h-338l92 262h526zM506 821q83 254 315 254q63 0 117 -12l-55 -330q-41 2 -70 2q-85 1 -147 -15.5t-103 -50.5t-65.5 -76.5t-42.5 -103.5l6 41l-84 -530h-379l168 1065h379z" />
    <glyph glyph-name="Rcommaaccent" unicode="&#x156;" horiz-adv-x="1447" 
d="M1135 659q104 -54 141 -109t37 -134q0 -29 -16.5 -151.5t-16.5 -158.5q0 -63 14 -106h-393q-14 32 -14 113q0 44 13 138.5t13 104.5q0 49 -37.5 87t-107.5 38h-276l-76 -481h-398l228 1434h651q255 0 377.5 -101.5t122.5 -267.5q0 -146 -58.5 -239t-203.5 -167zM774 793
q110 0 157.5 45t47.5 137q0 59 -37 89t-104 30h-250l-47 -301h233zM389 -518l62 416h399l-55 -361q-12 -83 -35 -148.5t-50 -109.5t-65 -75.5t-72.5 -48.5t-80.5 -27t-81.5 -12.5t-82.5 -2.5l18 113q76 10 122 64.5t58 125.5l15 66h-152z" />
    <glyph glyph-name="rcommaaccent" unicode="&#x157;" horiz-adv-x="905" 
d="M821 1075q63 0 117 -12l-55 -330q-41 2 -70 2q-85 1 -147 -15.5t-103 -50.5t-65.5 -76.5t-42.5 -103.5l6 41l-84 -530h-379l168 1065h379l-39 -244q83 254 315 254zM-92 -518l61 416h400l-56 -361q-12 -83 -35 -148.5t-50 -109.5t-65 -75.5t-72.5 -48.5t-80.5 -27
t-81.5 -12.5t-82.5 -2.5l19 113q76 10 122 64.5t58 125.5l14 66h-151z" />
    <glyph glyph-name="Rcaron" unicode="&#x158;" horiz-adv-x="1447" 
d="M1249 1520h-710l-70 301h287l153 -146l201 146h299zM1397 1065q0 -146 -58.5 -239t-203.5 -167q104 -54 141 -109t37 -134q0 -29 -16.5 -151.5t-16.5 -158.5q0 -63 14 -106h-393q-14 32 -14 113q0 44 13 138.5t13 104.5q0 49 -37.5 87t-107.5 38h-276l-76 -481h-398
l228 1434h651q255 0 377.5 -101.5t122.5 -267.5zM774 793q110 0 157.5 45t47.5 137q0 59 -37 89t-104 30h-250l-47 -301h233z" />
    <glyph glyph-name="rcaron" unicode="&#x159;" horiz-adv-x="905" 
d="M918 1151h-711l-70 301h287l154 -145l200 145h299zM506 821q83 254 315 254q63 0 117 -12l-55 -330q-41 2 -70 2q-85 1 -147 -15.5t-103 -50.5t-65.5 -76.5t-42.5 -103.5l6 41l-84 -530h-379l168 1065h379z" />
    <glyph glyph-name="Sacute" unicode="&#x15a;" horiz-adv-x="1413" 
d="M688 1559h338l281 262h-527zM899 860q217 -40 312.5 -128t95.5 -251q0 -164 -86 -278t-232 -167.5t-340 -53.5q-103 0 -194 20t-166.5 62.5t-128.5 102.5t-77.5 145.5t-14.5 187.5h413q4 -197 199 -197q201 0 201 143q0 92 -140 113l-172 29q-83 16 -150.5 44.5
t-122.5 73.5t-85.5 112t-30.5 151q0 120 49.5 214t136.5 152t200 87.5t245 29.5q271 0 418 -118.5t125 -354.5h-412q6 83 -37.5 116t-122.5 33q-80 0 -134 -30t-54 -97q0 -18 6 -36.5t31 -40t65 -27.5z" />
    <glyph glyph-name="sacute" unicode="&#x15b;" horiz-adv-x="1091" 
d="M471 1190h338l281 262h-527zM686 705q-1 51 -32.5 72.5t-90.5 21.5q-46 0 -81.5 -19t-35.5 -59q0 -21 14.5 -36t37.5 -21l182 -46q47 -11 68.5 -16t60.5 -17.5t57.5 -23t44.5 -29.5t38 -40.5t21 -53t9 -69.5q0 -179 -143.5 -281t-393.5 -102q-227 0 -341 93t-111 273h342
q11 -47 44 -70.5t97 -23.5q62 0 92.5 26t30.5 52q0 11 -0.5 16t-4.5 14.5t-15.5 15t-30.5 9.5l-148 35q-170 37 -243.5 110.5t-73.5 182.5q0 163 139.5 259.5t362.5 96.5q231 0 334 -100.5t98 -269.5h-328z" />
    <glyph glyph-name="Scedilla" unicode="&#x15e;" horiz-adv-x="1413" 
d="M1354 979h-412q6 83 -37.5 116t-122.5 33q-80 0 -134 -30t-54 -97q0 -18 6 -36.5t31 -40t65 -27.5l203 -37q217 -40 312.5 -128t95.5 -251q0 -217 -145 -342t-392 -151l-111 -115q91 -6 151 -57.5t60 -141.5q0 -50 -16.5 -88t-50 -62t-73.5 -40t-98 -24t-111.5 -10.5
t-125.5 -2.5v147q98 0 145.5 15.5t47.5 54.5q0 34 -33.5 44.5t-67.5 -15.5l-20 -23l-64 103l-24 41l98 184q-97 19 -175.5 59.5t-135 102t-83 148.5t-15.5 192h413q4 -197 199 -197q201 0 201 143q0 92 -140 113l-172 29q-83 16 -150.5 44.5t-122.5 73.5t-85.5 112
t-30.5 151q0 120 49.5 214t136.5 152t200 87.5t245 29.5q271 0 418 -118.5t125 -354.5z" />
    <glyph glyph-name="scedilla" unicode="&#x15f;" horiz-adv-x="1091" 
d="M563 799q-46 0 -81.5 -19t-35.5 -59q0 -21 14.5 -36t37.5 -21l182 -46q47 -11 68.5 -16t60.5 -17.5t57.5 -23t44.5 -29.5t38 -40.5t21 -53t9 -69.5q0 -148 -98.5 -244t-278.5 -127l-121 -125q91 -6 151 -57.5t60 -141.5q0 -50 -16.5 -88t-50 -62t-73.5 -40t-98 -24
t-111.5 -10.5t-125.5 -2.5v147q98 0 145.5 15.5t47.5 54.5q0 34 -33.5 44.5t-67.5 -15.5l-20 -23l-64 103l-24 41l98 184q-315 53 -309 354h342q11 -47 44 -70.5t97 -23.5q62 0 92.5 26t30.5 52q0 11 -0.5 16t-4.5 14.5t-15.5 15t-30.5 9.5l-148 35q-170 37 -243.5 110.5
t-73.5 182.5q0 163 139.5 259.5t362.5 96.5q231 0 334 -100.5t98 -269.5h-328q-1 51 -32.5 72.5t-90.5 21.5z" />
    <glyph glyph-name="Scaron" unicode="&#x160;" horiz-adv-x="1413" 
d="M1057 1821h299l-160 -301h-711l-69 301h286l154 -146zM899 860q217 -40 312.5 -128t95.5 -251q0 -164 -86 -278t-232 -167.5t-340 -53.5q-103 0 -194 20t-166.5 62.5t-128.5 102.5t-77.5 145.5t-14.5 187.5h413q4 -197 199 -197q201 0 201 143q0 92 -140 113l-172 29
q-83 16 -150.5 44.5t-122.5 73.5t-85.5 112t-30.5 151q0 120 49.5 214t136.5 152t200 87.5t245 29.5q271 0 418 -118.5t125 -354.5h-412q6 83 -37.5 116t-122.5 33q-80 0 -134 -30t-54 -97q0 -18 6 -36.5t31 -40t65 -27.5z" />
    <glyph glyph-name="scaron" unicode="&#x161;" horiz-adv-x="1091" 
d="M840 1452h299l-160 -301h-711l-69 301h286l154 -145zM686 705q-1 51 -32.5 72.5t-90.5 21.5q-46 0 -81.5 -19t-35.5 -59q0 -21 14.5 -36t37.5 -21l182 -46q47 -11 68.5 -16t60.5 -17.5t57.5 -23t44.5 -29.5t38 -40.5t21 -53t9 -69.5q0 -179 -143.5 -281t-393.5 -102
q-227 0 -341 93t-111 273h342q11 -47 44 -70.5t97 -23.5q62 0 92.5 26t30.5 52q0 11 -0.5 16t-4.5 14.5t-15.5 15t-30.5 9.5l-148 35q-170 37 -243.5 110.5t-73.5 182.5q0 163 139.5 259.5t362.5 96.5q231 0 334 -100.5t98 -269.5h-328z" />
    <glyph glyph-name="uni0162" unicode="&#x162;" horiz-adv-x="1288" 
d="M184 1434h1178l-55 -340h-392l-170 -1094h11l-178 -127q89 -21 138 -76.5t32 -148.5q-9 -46 -30.5 -80t-58 -56t-76 -36t-98.5 -20.5t-110 -8.5t-125 -2l2 147q96 0 150 21.5t63 73.5q4 23 -22 25q-38 3 -78 -39q-6 -6 -11 -13l-75 152l79 188h-10l172 1094h-391z" />
    <glyph glyph-name="uni0163" unicode="&#x163;" horiz-adv-x="876" 
d="M606 772l-59 -364q-10 -57 6.5 -84t71.5 -27q71 0 137 16l-45 -293q-45 -20 -103 -26l-116 -121q91 -6 151 -57.5t60 -141.5q0 -43 -13.5 -77t-35.5 -57.5t-57.5 -40.5t-73 -27t-89.5 -15.5t-98.5 -7.5t-108.5 -2v147q98 0 145.5 15.5t47.5 54.5q0 34 -33 44.5t-67 -15.5
l-21 -23l-63 103l-25 41l100 188h31q-54 15 -91.5 43t-65 78t-31.5 123t10 176l55 350h-166l45 293h168l43 266h381l-43 -266h213l-49 -293h-211z" />
    <glyph glyph-name="Tcaron" unicode="&#x164;" horiz-adv-x="1288" 
d="M995 1821h299l-159 -301h-711l-70 301h287l154 -146zM1362 1434l-55 -340h-392l-170 -1094h-397l172 1094h-391l55 340h1178z" />
    <glyph glyph-name="tcaron" unicode="&#x165;" horiz-adv-x="884" 
d="M858 1434h447l-295 -304h-291zM696 1331l-43 -266h213l-49 -293h-211l-59 -364q-10 -57 6.5 -84t71.5 -27q71 0 137 16l-45 -293q-72 -34 -221 -34q-42 0 -78 4t-71.5 13t-63.5 25.5t-52 39.5t-39.5 57t-24.5 76.5t-8.5 98t11.5 122.5l55 350h-166l45 293h168l43 266h381
z" />
    <glyph glyph-name="Tbar" unicode="&#x166;" horiz-adv-x="1288" 
d="M1307 1094h-392l-16 -111h213l-35 -215h-213l-119 -768h-397l121 768h-211l33 215h213l16 111h-391l55 340h1178z" />
    <glyph glyph-name="tbar" unicode="&#x167;" horiz-adv-x="882" 
d="M821 772h-211l-10 -63h211l-49 -293h-209l-2 -8q-10 -57 6.5 -84t71.5 -27q71 0 137 16l-45 -293q-72 -34 -221 -34q-48 0 -88 5t-79.5 18t-67.5 34.5t-53 54t-35 77.5t-13.5 105t10.5 136h-168l43 293h170l10 63h-166l46 293h167l43 266h381l-43 -266h213z" />
    <glyph glyph-name="Utilde" unicode="&#x168;" horiz-adv-x="1462" 
d="M1219 1802h139q0 -130 -69.5 -216.5t-207.5 -86.5q-57 0 -117.5 26.5t-104 57.5t-101.5 57.5t-111 26.5q-25 0 -49 -12t-23 -37h-139q0 132 69 217.5t208 85.5q57 0 117.5 -26t104 -57t101.5 -57t111 -26q26 0 49.5 11t22.5 36zM1475 1434l-140 -867
q-29 -183 -128 -315.5t-245.5 -198t-326.5 -65.5q-136 0 -243.5 38t-179 110.5t-100 182.5t-6.5 248l140 867h397l-135 -850q-21 -131 27.5 -193.5t150.5 -62.5q215 0 256 256l135 850h398z" />
    <glyph glyph-name="utilde" unicode="&#x169;" horiz-adv-x="1288" 
d="M500 1298q-25 0 -49 -12t-23 -37h-139q0 132 68.5 217.5t207.5 85.5q57 0 117.5 -26t104 -57t101.5 -57t111 -26q25 0 49 11.5t23 36.5h139q0 -62 -16 -115.5t-48.5 -96.5t-86.5 -67.5t-125 -24.5q-47 0 -94.5 17.5t-87.5 42t-79 49t-84 42t-89 17.5zM870 1065h379
l-168 -1065h-379l27 168q-50 -70 -136 -125t-196 -55q-184 0 -274.5 107.5t-54.5 338.5l102 631h379l-103 -629q-8 -69 18 -97t81 -28q62 0 131 50t98 96z" />
    <glyph glyph-name="Umacron" unicode="&#x16a;" horiz-adv-x="1462" 
d="M555 1821h809l-35 -215h-807zM1475 1434l-140 -867q-29 -183 -128 -315.5t-245.5 -198t-326.5 -65.5q-136 0 -243.5 38t-179 110.5t-100 182.5t-6.5 248l140 867h397l-135 -850q-21 -131 27.5 -193.5t150.5 -62.5q215 0 256 256l135 850h398z" />
    <glyph glyph-name="umacron" unicode="&#x16b;" horiz-adv-x="1288" 
d="M1217 1452l-35 -215h-807l33 215h809zM870 1065h379l-168 -1065h-379l27 168q-50 -70 -136 -125t-196 -55q-184 0 -274.5 107.5t-54.5 338.5l102 631h379l-103 -629q-8 -69 18 -97t81 -28q62 0 131 50t98 96z" />
    <glyph glyph-name="Ubreve" unicode="&#x16c;" horiz-adv-x="1462" 
d="M1083 1821h244q-54 -346 -434 -346q-181 0 -269.5 91.5t-60.5 254.5h236q-11 -58 22.5 -85.5t96.5 -27.5q145 0 165 113zM1475 1434l-140 -867q-29 -183 -128 -315.5t-245.5 -198t-326.5 -65.5q-136 0 -243.5 38t-179 110.5t-100 182.5t-6.5 248l140 867h397l-135 -850
q-21 -131 27.5 -193.5t150.5 -62.5q215 0 256 256l135 850h398z" />
    <glyph glyph-name="ubreve" unicode="&#x16d;" horiz-adv-x="1288" 
d="M745 1106q-181 0 -269 91.5t-60 254.5h235q-11 -58 22.5 -85.5t96.5 -27.5q146 0 166 113h244q-54 -346 -435 -346zM870 1065h379l-168 -1065h-379l27 168q-50 -70 -136 -125t-196 -55q-184 0 -274.5 107.5t-54.5 338.5l102 631h379l-103 -629q-8 -69 18 -97t81 -28
q62 0 131 50t98 96z" />
    <glyph glyph-name="Uring" unicode="&#x16e;" horiz-adv-x="1462" 
d="M918 1559q-90 0 -148.5 56.5t-58.5 143.5q0 96 70 167t165 71q85 0 142 -58t57 -145q0 -91 -70.5 -163t-156.5 -72zM928 1708q29 0 50 22.5t21 49.5q0 29 -18.5 49t-46.5 20q-32 0 -55 -23.5t-23 -51.5t20 -47t52 -19zM1475 1434l-140 -867q-29 -183 -128 -315.5
t-245.5 -198t-326.5 -65.5q-136 0 -243.5 38t-179 110.5t-100 182.5t-6.5 248l140 867h397l-135 -850q-21 -131 27.5 -193.5t150.5 -62.5q215 0 256 256l135 850h398z" />
    <glyph glyph-name="uring" unicode="&#x16f;" horiz-adv-x="1288" 
d="M770 1190q-90 0 -148.5 57t-58.5 144q0 95 70.5 166t165.5 71q85 0 141.5 -57.5t56.5 -145.5q0 -91 -70.5 -163t-156.5 -72zM786 1481q-31 0 -54 -23.5t-23 -52.5q0 -28 19.5 -47t51.5 -19q29 0 50.5 22.5t21.5 49.5q0 29 -19 49.5t-47 20.5zM870 1065h379l-168 -1065
h-379l27 168q-50 -70 -136 -125t-196 -55q-184 0 -274.5 107.5t-54.5 338.5l102 631h379l-103 -629q-8 -69 18 -97t81 -28q62 0 131 50t98 96z" />
    <glyph glyph-name="Uhungarumlaut" unicode="&#x170;" horiz-adv-x="1462" 
d="M1139 1753l-176 -194h-342l51 262h1011l-239 -262h-342zM942 584l135 850h398l-140 -867q-29 -183 -128 -315.5t-245.5 -198t-326.5 -65.5q-136 0 -243.5 38t-179 110.5t-100 182.5t-6.5 248l140 867h397l-135 -850q-21 -131 27.5 -193.5t150.5 -62.5q215 0 256 256z" />
    <glyph glyph-name="uhungarumlaut" unicode="&#x171;" horiz-adv-x="1288" 
d="M1536 1452l-240 -262h-342l37 194l-176 -194h-342l51 262h1012zM774 457l96 608h379l-168 -1065h-379l27 168q-50 -70 -136 -125t-196 -55q-184 0 -274.5 107.5t-54.5 338.5l102 631h379l-103 -629q-8 -69 18 -97t81 -28q62 0 131 50t98 96z" />
    <glyph glyph-name="Uogonek" unicode="&#x172;" horiz-adv-x="1462" 
d="M1077 1434h398l-140 -867q-37 -239 -188 -386t-377 -183h16q-317 -76 -333 -234q-8 -45 32 -45t111 33v-162q-67 -35 -157.5 -50t-174.5 -5.5t-135 63.5t-35 146q13 74 78.5 133t147 89.5t161.5 35.5q-208 39 -310 185.5t-65 379.5l140 867h397l-135 -850
q-21 -131 27.5 -193.5t150.5 -62.5q215 0 256 256z" />
    <glyph glyph-name="uogonek" unicode="&#x173;" horiz-adv-x="1288" 
d="M1249 1065l-168 -1065h-243l145 -2q-314 -75 -336 -234q-8 -45 33.5 -45t112.5 33l-2 -162q-66 -35 -156.5 -50t-174.5 -5.5t-135.5 63.5t-35.5 146q14 76 82.5 136t153.5 90t167 32h10l27 166q-50 -70 -135.5 -124t-196.5 -54q-184 0 -274.5 106.5t-54.5 337.5l102 631
h379l-103 -629q-8 -69 17.5 -96t81.5 -27q66 0 138 56t91 98l-10 -82l106 680h379z" />
    <glyph glyph-name="Wcircumflex" unicode="&#x174;" horiz-adv-x="2191" 
d="M1391 1520l-150 145l-205 -145h-299l164 301h709l67 -301h-286zM1823 1434h430l-635 -1434h-363l-133 817l-391 -817h-362l-185 1434h410l63 -828l363 828h377l102 -828z" />
    <glyph glyph-name="wcircumflex" unicode="&#x175;" horiz-adv-x="1685" 
d="M1104 1151l-150 145l-204 -145h-299l163 301h709l68 -301h-287zM1718 1065l-461 -1065h-317l-104 621l-293 -621h-322l-127 1065h375l27 -582l260 582h293l69 -582l213 582h387z" />
    <glyph glyph-name="Ycircumflex" unicode="&#x176;" horiz-adv-x="1554" 
d="M1102 1520l-150 145l-204 -145h-299l163 301h709l68 -301h-287zM993 506l-80 -506h-409l78 506l-398 928h449l182 -547l363 547h438z" />
    <glyph glyph-name="ycircumflex" unicode="&#x177;" horiz-adv-x="1236" 
d="M879 1151l-150 145l-205 -145h-299l164 301h709l67 -301h-286zM881 1065h389l-611 -1061q-38 -67 -71.5 -118t-70 -96.5t-71 -77.5t-74.5 -58t-82 -41t-92 -23t-105.5 -7.5t-121.5 7.5l49 312q61 -6 110 1t78 19.5t54 36t35.5 40t24.5 42.5q14 30 16 48.5t-8 72.5
l-236 903h375l115 -576z" />
    <glyph glyph-name="Ydieresis" unicode="&#x178;" horiz-adv-x="1554" 
d="M520 1821h383l-39 -248h-383zM1026 1821h383l-39 -248h-383zM993 506l-80 -506h-409l78 506l-398 928h449l182 -547l363 547h438z" />
    <glyph glyph-name="Zacute" unicode="&#x179;" horiz-adv-x="1267" 
d="M621 1559h337l281 262h-526zM1157 340l-53 -340h-1127l48 297l774 797h-649l57 340h1116l-43 -297l-786 -797h663z" />
    <glyph glyph-name="zacute" unicode="&#x17a;" horiz-adv-x="1046" 
d="M422 1190h338l280 262h-526zM467 315h448l-47 -315h-895l45 315l521 435h-428l51 315h874l-49 -315z" />
    <glyph glyph-name="Zdotaccent" unicode="&#x17b;" horiz-adv-x="1267" 
d="M643 1821h383l-39 -248h-383zM1157 340l-53 -340h-1127l48 297l774 797h-649l57 340h1116l-43 -297l-786 -797h663z" />
    <glyph glyph-name="zdotaccent" unicode="&#x17c;" horiz-adv-x="1046" 
d="M444 1452h383l-39 -248h-382zM467 315h448l-47 -315h-895l45 315l521 435h-428l51 315h874l-49 -315z" />
    <glyph glyph-name="Zcaron" unicode="&#x17d;" horiz-adv-x="1267" 
d="M989 1821h299l-160 -301h-710l-70 301h287l153 -146zM1157 340l-53 -340h-1127l48 297l774 797h-649l57 340h1116l-43 -297l-786 -797h663z" />
    <glyph glyph-name="zcaron" unicode="&#x17e;" horiz-adv-x="1046" 
d="M791 1452h299l-160 -301h-711l-69 301h286l154 -145zM467 315h448l-47 -315h-895l45 315l521 435h-428l51 315h874l-49 -315z" />
    <glyph glyph-name="florin" unicode="&#x192;" horiz-adv-x="673" 
d="M694 1094q-113 0 -147 -189l-8 -47h104l-51 -323h-103l-81 -529q-15 -85 -35.5 -144.5t-60 -112.5t-98 -83t-148 -45t-209.5 -10l49 321q40 0 67 15.5t40 44.5t19.5 55.5t11.5 63.5q1 7 1 10l66 414h-127l53 323h125l26 164q10 69 33 128t66.5 113.5t104 90t151 53
t202.5 8.5z" />
    <glyph glyph-name="uni01CD" unicode="&#x1cd;" horiz-adv-x="1550" 
d="M1251 1520h-710l-70 301h287l153 -146l201 146h299zM715 1434h372l318 -1434h-428l-33 209h-465l-98 -209h-424zM614 498h285l-72 452z" />
    <glyph glyph-name="uni01CE" unicode="&#x1ce;" horiz-adv-x="1206" 
d="M1032 1151h-710l-70 301h287l153 -145l201 145h299zM1032 299q-11 -82 64 -88l-35 -201q-62 -18 -139 -18q-106 0 -179.5 43t-72.5 104q-2 -1 -17 -20t-38 -39.5t-56 -42.5t-84 -36.5t-110 -14.5q-73 0 -135.5 15.5t-114.5 49t-81.5 93t-29.5 139.5q0 313 412 354
q22 2 65.5 7t61.5 7t49.5 6.5t49.5 8t39 9.5t38 13q3 37 -8 61.5t-31 34t-33.5 12.5t-28.5 3q-106 0 -139 -94h-354q38 186 159 278t359 92q142 0 236 -30.5t142 -89.5t62 -145.5t-4 -199.5zM655 336l27 145q-21 -5 -44 -11t-35 -9t-41.5 -8t-76.5 -11q-50 -7 -76 -35.5
t-26 -62.5q0 -90 102 -90q46 0 94.5 27.5t75.5 54.5z" />
    <glyph glyph-name="uni01CF" unicode="&#x1cf;" horiz-adv-x="634" 
d="M670 1821h299l-160 -301h-711l-69 301h286l154 -146zM418 0h-398l226 1434h397z" />
    <glyph glyph-name="uni01D0" unicode="&#x1d0;" horiz-adv-x="571" 
d="M586 1452h299l-160 -301h-711l-69 301h286l154 -145zM176 1065h379l-168 -1065h-379z" />
    <glyph glyph-name="uni01D1" unicode="&#x1d1;" horiz-adv-x="1521" 
d="M1133 1821h299l-160 -301h-711l-69 301h286l154 -146zM889 1452q279 0 438.5 -155t159.5 -425q0 -146 -38.5 -281t-111.5 -245t-174 -192t-232 -127t-278 -45q-277 0 -436.5 154.5t-159.5 422.5q0 186 60 350t166.5 284t263.5 189.5t342 69.5zM707 319q88 0 159 45.5
t115 120.5t67 166t23 189q0 129 -58.5 201.5t-176.5 72.5q-89 0 -160.5 -45t-114.5 -120t-65.5 -165.5t-22.5 -187.5q0 -128 59.5 -202.5t174.5 -74.5z" />
    <glyph glyph-name="uni01D2" unicode="&#x1d2;" horiz-adv-x="1220" 
d="M895 1452h299l-160 -301h-710l-70 301h287l153 -145zM662 1075q66 0 130.5 -15t128.5 -49.5t113 -85.5t79 -129.5t30 -174.5q0 -180 -77 -324.5t-219.5 -227.5t-324.5 -83q-67 0 -132 14.5t-129.5 49t-113.5 85.5t-79.5 131.5t-30.5 179.5q0 177 79 320.5t222.5 226
t323.5 82.5zM780 596q0 84 -41.5 129t-107.5 45q-58 0 -104 -29.5t-72.5 -77t-40 -99.5t-13.5 -103q0 -81 41 -125.5t109 -44.5q58 0 104 29.5t72 76t39.5 98t13.5 101.5z" />
    <glyph glyph-name="uni01D3" unicode="&#x1d3;" horiz-adv-x="1462" 
d="M1100 1821h299l-160 -301h-711l-69 301h286l154 -146zM1475 1434l-140 -867q-29 -183 -128 -315.5t-245.5 -198t-326.5 -65.5q-136 0 -243.5 38t-179 110.5t-100 182.5t-6.5 248l140 867h397l-135 -850q-21 -131 27.5 -193.5t150.5 -62.5q215 0 256 256l135 850h398z" />
    <glyph glyph-name="uni01D4" unicode="&#x1d4;" horiz-adv-x="1288" 
d="M1092 1151h-711l-70 301h287l154 -145l200 145h299zM774 457l96 608h379l-168 -1065h-379l27 168q-50 -70 -136 -125t-196 -55q-184 0 -274.5 107.5t-54.5 338.5l102 631h379l-103 -629q-8 -69 18 -97t81 -28q62 0 131 50t98 96z" />
    <glyph glyph-name="uni01EA" unicode="&#x1ea;" horiz-adv-x="1521" 
d="M1487 872q0 -214 -79 -397t-228 -308.5t-344 -166.5h22q-322 -75 -344 -236q-8 -45 33 -45t112 33l-2 -162q-52 -27 -121.5 -44t-141 -16t-130 20t-90 69t-18.5 125q12 64 70 118t131 86t151 46q-213 38 -332 186t-119 379q0 186 60 350t166.5 284t263.5 189.5t342 69.5
q279 0 438.5 -155t159.5 -425zM707 319q88 0 159 45.5t115 120.5t67 166t23 189q0 129 -58.5 201.5t-176.5 72.5q-89 0 -160.5 -45t-114.5 -120t-65.5 -165.5t-22.5 -187.5q0 -128 59.5 -202.5t174.5 -74.5z" />
    <glyph glyph-name="uni01EB" unicode="&#x1eb;" horiz-adv-x="1191" 
d="M643 1077q73 0 143.5 -18t138.5 -61.5t115 -107.5t67.5 -164.5t0.5 -223.5q-14 -95 -50.5 -175.5t-85 -136t-109.5 -97.5t-121 -65.5t-124 -35.5q-290 -75 -311 -228q-8 -45 33.5 -45t112.5 33l-2 -162q-66 -35 -156.5 -50t-174.5 -5.5t-135.5 63.5t-35.5 146
q14 76 82.5 136t153.5 90t167 32h8q-60 17 -111 45.5t-97.5 74t-73.5 106.5t-39 142t6 181q17 113 65 205.5t110.5 151t139 98t147 55.5t136.5 16zM741 551q19 120 -8 170.5t-96 50.5q-83 0 -142 -64.5t-83 -205.5q-19 -115 8.5 -165t95.5 -50q83 0 142 64t83 200z" />
    <glyph glyph-name="Scommaaccent" unicode="&#x218;" horiz-adv-x="1413" 
d="M899 860q217 -40 312.5 -128t95.5 -251q0 -164 -86 -278t-232 -167.5t-340 -53.5q-103 0 -194 20t-166.5 62.5t-128.5 102.5t-77.5 145.5t-14.5 187.5h413q4 -197 199 -197q201 0 201 143q0 92 -140 113l-172 29q-83 16 -150.5 44.5t-122.5 73.5t-85.5 112t-30.5 151
q0 120 49.5 214t136.5 152t200 87.5t245 29.5q271 0 418 -118.5t125 -354.5h-412q6 83 -37.5 116t-122.5 33q-80 0 -134 -30t-54 -97q0 -18 6 -36.5t31 -40t65 -27.5zM295 -887l18 113q76 10 122.5 65t58.5 125l14 66h-152l62 416h399l-55 -361q-12 -83 -35 -148.5
t-50 -109.5t-65 -75.5t-72.5 -48.5t-80.5 -27t-81.5 -12.5t-82.5 -2.5z" />
    <glyph glyph-name="scommaaccent" unicode="&#x219;" horiz-adv-x="1091" 
d="M686 705q-1 51 -32.5 72.5t-90.5 21.5q-46 0 -81.5 -19t-35.5 -59q0 -21 14.5 -36t37.5 -21l182 -46q47 -11 68.5 -16t60.5 -17.5t57.5 -23t44.5 -29.5t38 -40.5t21 -53t9 -69.5q0 -179 -143.5 -281t-393.5 -102q-227 0 -341 93t-111 273h342q11 -47 44 -70.5t97 -23.5
q62 0 92.5 26t30.5 52q0 11 -0.5 16t-4.5 14.5t-15.5 15t-30.5 9.5l-148 35q-170 37 -243.5 110.5t-73.5 182.5q0 163 139.5 259.5t362.5 96.5q231 0 334 -100.5t98 -269.5h-328zM117 -887l18 113q76 10 122 64.5t58 125.5l15 66h-152l62 416h399l-55 -361
q-12 -83 -35 -148.5t-50 -109.5t-65 -75.5t-72.5 -48.5t-80.5 -27t-81.5 -12.5t-82.5 -2.5z" />
    <glyph glyph-name="uni021A" unicode="&#x21a;" horiz-adv-x="1288" 
d="M1362 1434l-55 -340h-392l-170 -1094h-397l172 1094h-391l55 340h1178zM207 -862l-6 114q72 8 120 67t60 130l10 57h-135l72 443h463l-62 -393q-11 -72 -33 -132t-49.5 -102t-62 -75t-71.5 -52t-77 -33t-79.5 -18t-77.5 -7t-72 1z" />
    <glyph glyph-name="uni021B" unicode="&#x21b;" horiz-adv-x="876" 
d="M606 772l-59 -364q-10 -57 6.5 -84t71.5 -27q71 0 137 16l-45 -293q-72 -34 -221 -34q-42 0 -78 4t-71.5 13t-63.5 25.5t-52 39.5t-39.5 57t-24.5 76.5t-8.5 98t11.5 122.5l55 350h-166l45 293h168l43 266h381l-43 -266h213l-49 -293h-211zM195 -518l61 416h399l-55 -361
q-12 -83 -35 -148.5t-50 -109.5t-65 -75.5t-72.5 -48.5t-80.5 -27t-81.5 -12.5t-82.5 -2.5l19 113q76 10 122 64.5t58 125.5l14 66h-151z" />
    <glyph glyph-name="uni0237" unicode="&#x237;" horiz-adv-x="575" 
d="M-236 -98q49 -23 121 -23q22 0 38 4t27.5 16.5t18.5 21.5t14 35t9.5 39t9.5 50l160 1020h379l-189 -1176q-27 -170 -127 -255t-254 -85q-171 0 -260 52z" />
    <glyph glyph-name="circumflex" unicode="&#x2c6;" horiz-adv-x="940" 
d="M754 1151l-150 145l-205 -145h-299l164 301h709l67 -301h-286z" />
    <glyph glyph-name="caron" unicode="&#x2c7;" horiz-adv-x="940" 
d="M786 1452h299l-159 -301h-711l-70 301h287l154 -145z" />
    <glyph glyph-name="breve" unicode="&#x2d8;" horiz-adv-x="763" 
d="M666 1452h243q-54 -346 -434 -346q-181 0 -269.5 91.5t-60.5 254.5h236q-11 -58 22.5 -85.5t96.5 -27.5q146 0 166 113z" />
    <glyph glyph-name="dotaccent" unicode="&#x2d9;" horiz-adv-x="385" 
d="M145 1452h383l-39 -248h-383z" />
    <glyph glyph-name="ring" unicode="&#x2da;" horiz-adv-x="434" 
d="M346 1190q-90 0 -148.5 57t-58.5 144q0 95 70.5 166t165.5 71q85 0 141.5 -57.5t56.5 -145.5q0 -91 -70.5 -163t-156.5 -72zM356 1339q29 0 50.5 22.5t21.5 49.5q0 29 -19 49.5t-47 20.5q-31 0 -54 -23.5t-23 -52.5q0 -28 19.5 -47t51.5 -19z" />
    <glyph glyph-name="ogonek" unicode="&#x2db;" horiz-adv-x="569" 
d="M387 -403q-60 -34 -145.5 -52t-168.5 -13t-141.5 52.5t-58.5 134.5q0 65 36 118.5t93.5 86.5t120 52t123.5 24h270q-79 -19 -136 -43.5t-85.5 -45.5t-45 -46.5t-19.5 -41t-3 -34.5q0 -57 46.5 -66t113.5 25v-151z" />
    <glyph glyph-name="tilde" unicode="&#x2dc;" horiz-adv-x="903" 
d="M903 1434h139q0 -62 -16 -115.5t-48.5 -96.5t-86.5 -67.5t-125 -24.5q-47 0 -94.5 17.5t-87.5 42t-79 49t-84 42t-89 17.5q-25 0 -49 -12t-23 -37h-139q0 132 68.5 217.5t207.5 85.5q57 0 117.5 -26t104 -57t101.5 -57t111 -26q25 0 49 11.5t23 36.5z" />
    <glyph glyph-name="hungarumlaut" unicode="&#x2dd;" horiz-adv-x="1021" 
d="M1167 1452l-239 -262h-342l37 194l-177 -194h-342l52 262h1011z" />
    <glyph glyph-name="uni0326" unicode="&#x326;" horiz-adv-x="0" 
d="M-623 -887l19 113q76 10 122 64.5t58 125.5l14 66h-151l61 416h400l-56 -361q-12 -83 -35 -148.5t-50 -109.5t-65 -75.5t-72.5 -48.5t-80.5 -27t-81.5 -12.5t-82.5 -2.5z" />
    <glyph glyph-name="uni0394" unicode="&#x394;" horiz-adv-x="1456" 
d="M1260 0h-1299l838 1434h75zM854 324l-98 512l-267 -512h365z" />
    <glyph glyph-name="uni03A9" unicode="&#x3a9;" horiz-adv-x="1546" 
d="M1505 817q0 -114 -43 -232.5t-123 -224.5h47l-55 -360h-522l57 397q248 196 248 412q0 134 -68 198t-188 64q-87 0 -163.5 -35.5t-126.5 -93t-78.5 -128t-28.5 -142.5q0 -104 25.5 -153.5t105.5 -121.5l-57 -397h-523l56 360h65q-63 129 -63 295q0 153 62.5 297.5
t169 254t258.5 175.5t321 66q176 0 317.5 -76.5t224 -221.5t82.5 -333z" />
    <glyph glyph-name="uni03BC" unicode="&#x3bc;" horiz-adv-x="1286" 
d="M868 1065h379l-168 -1065h-379l27 174q-45 -69 -132 -126.5t-200 -57.5h-20l-60 -379h-378l120 766q3 27 9 57l102 631h379l-105 -655q-1 -54 25 -75.5t74 -21.5q63 0 132 49.5t99 94.5z" />
    <glyph glyph-name="pi" unicode="&#x3c0;" horiz-adv-x="1550" 
d="M1255 743l-51 -329q-10 -64 1.5 -83.5t54.5 -19.5q28 0 52.5 4.5t51.5 13t43 11.5l-31 -317q-33 -18 -123.5 -26.5t-148.5 -8.5q-47 0 -91 7.5t-88 26t-75 47t-45.5 75t-5.5 104.5l78 495h-211l-117 -743h-379l117 743h-205l51 322h1376l-51 -322h-203z" />
    <glyph glyph-name="uni0401" unicode="&#x401;" horiz-adv-x="1243" 
d="M377 1821h383l-39 -248h-383zM883 1821h383l-39 -248h-383zM1241 1094h-653l-33 -215h551l-51 -316h-551l-33 -223h674l-53 -340h-1074l228 1434h1052z" />
    <glyph glyph-name="uni0403" unicode="&#x403;" horiz-adv-x="1144" 
d="M561 1559h338l281 262h-527zM1217 1434l-54 -340h-573l-174 -1094h-398l228 1434h971z" />
    <glyph glyph-name="uni0404" unicode="&#x404;" horiz-adv-x="1413" 
d="M819 1112q-100 0 -173.5 -63.5t-117.5 -169.5h314l-49 -316h-318q16 -241 221 -241q97 0 152.5 43.5t97.5 150.5h381q-30 -133 -99.5 -237.5t-164 -168t-204.5 -96t-228 -32.5q-268 0 -422 149.5t-154 421.5q0 147 35 282t104.5 247t166 195t226.5 129t279 46
q93 0 175.5 -20t151.5 -62.5t116.5 -104t69.5 -149t12 -192.5h-385q-10 99 -56 143.5t-131 44.5z" />
    <glyph glyph-name="uni0407" unicode="&#x407;" horiz-adv-x="634" 
d="M45 1821h383l-39 -248h-383zM551 1821h383l-39 -248h-383zM418 0h-398l226 1434h397z" />
    <glyph glyph-name="uni040C" unicode="&#x40c;" horiz-adv-x="1533" 
d="M1378 1821l-280 -262h-338l92 262h526zM1571 1434l-625 -637l453 -797h-432l-279 526l2 11l-225 -230l-49 -307h-398l228 1434h397l-96 -605l581 605h443z" />
    <glyph glyph-name="uni040E" unicode="&#x40e;" horiz-adv-x="1341" 
d="M1016 1821h244q-54 -346 -435 -346q-181 0 -269 91.5t-60 254.5h235q-11 -58 22.5 -85.5t96.5 -27.5q146 0 166 113zM961 1434h442l-572 -1002q-115 -202 -218.5 -308t-226.5 -144.5t-302 -22.5l53 350q42 -7 77 -4.5t60 5.5t45 12.5t32 17t22.5 19.5t15 20t10.5 18
q1 3 2 4q49 92 7 234l-224 801h437l118 -494z" />
    <glyph glyph-name="uni0410" unicode="&#x410;" horiz-adv-x="1550" 
d="M977 0l-33 209h-465l-98 -209h-424l758 1434h372l318 -1434h-428zM614 498h285l-72 452z" />
    <glyph glyph-name="uni0411" unicode="&#x411;" horiz-adv-x="1382" 
d="M786 981q262 0 388 -109t126 -303q0 -275 -172 -422t-477 -147h-633l228 1434h971l-54 -340h-573l-19 -113h215zM680 334q91 0 144 62t53 149q0 102 -132 102h-227l-49 -313h211z" />
    <glyph glyph-name="uni0412" unicode="&#x412;" horiz-adv-x="1409" 
d="M1114 782q90 -32 146.5 -119.5t56.5 -195.5q0 -91 -31.5 -167t-88.5 -131t-136 -93.5t-174.5 -57t-202.5 -18.5h-666l228 1434h616q219 0 336 -90t117 -248q0 -105 -55 -188.5t-146 -125.5zM819 1110h-227l-35 -215h199q64 0 100.5 33.5t36.5 103.5q0 31 -15.5 50
t-30 23.5t-28.5 4.5zM696 326q199 0 199 161q0 111 -111 111h-274l-43 -272h229z" />
    <glyph glyph-name="uni0413" unicode="&#x413;" horiz-adv-x="1144" 
d="M1217 1434l-54 -340h-573l-174 -1094h-398l228 1434h971z" />
    <glyph glyph-name="uni0414" unicode="&#x414;" horiz-adv-x="1835" 
d="M1440 324h291l-74 -465h-379l22 141h-964l-23 -141h-379l74 465h209q70 73 95 107q138 182 196 540l74 463h1034zM643 324h399l123 770h-241l-21 -140q-25 -156 -58.5 -272t-71.5 -185.5t-66 -104.5t-64 -68z" />
    <glyph glyph-name="uni0415" unicode="&#x415;" horiz-adv-x="1243" 
d="M1241 1094h-653l-33 -215h551l-51 -316h-551l-33 -223h674l-53 -340h-1074l228 1434h1052z" />
    <glyph glyph-name="uni0416" unicode="&#x416;" horiz-adv-x="2248" 
d="M2353 1434l-696 -717l457 -717h-443l-356 539l-86 -539h-398l87 545l-525 -545h-456l688 717l-459 717h442l365 -549l86 549h397l-86 -539l526 539h457z" />
    <glyph glyph-name="uni0417" unicode="&#x417;" horiz-adv-x="1282" 
d="M942 752q20 0 48 -9t62.5 -32t63.5 -55t48.5 -84.5t19.5 -114.5q0 -146 -84.5 -257t-225 -168t-313.5 -57q-171 0 -297 70t-179 188.5t-22 258.5h343q-11 -85 41.5 -139t144.5 -54q85 0 153 46.5t68 125.5q0 19 -4.5 36t-18.5 36.5t-36.5 33t-62 22.5t-91.5 9h-94l39 246
h73q178 0 225 108q11 27 11 62q0 54 -38.5 80t-90.5 26q-28 0 -56 -7t-58.5 -23.5t-53.5 -50.5t-33 -80h-350q38 232 187 357.5t387 125.5q215 0 346 -105.5t131 -261.5q0 -67 -26 -127t-68 -101.5t-91 -68.5t-98 -36z" />
    <glyph glyph-name="uni0418" unicode="&#x418;" horiz-adv-x="1499" 
d="M246 1434h397l-129 -791h6l594 791h395l-227 -1434h-397l121 764h-5l-567 -764h-416z" />
    <glyph glyph-name="uni0419" unicode="&#x419;" horiz-adv-x="1499" 
d="M1094 1821h243q-54 -346 -434 -346q-181 0 -269.5 91.5t-60.5 254.5h236q-11 -58 22.5 -85.5t96.5 -27.5q146 0 166 113zM246 1434h397l-129 -791h6l594 791h395l-227 -1434h-397l121 764h-5l-567 -764h-416z" />
    <glyph glyph-name="uni041A" unicode="&#x41a;" horiz-adv-x="1533" 
d="M1571 1434l-625 -637l453 -797h-432l-279 526l2 11l-225 -230l-49 -307h-398l228 1434h397l-96 -605l581 605h443z" />
    <glyph glyph-name="uni041B" unicode="&#x41b;" horiz-adv-x="1458" 
d="M1468 1434l-227 -1434h-397l174 1094h-307l-105 -652q-39 -252 -210 -369t-429 -87l33 340q41 -1 71 3.5t62 19t53 47.5t29 83l152 955h1101z" />
    <glyph glyph-name="uni041C" unicode="&#x41c;" horiz-adv-x="1798" 
d="M246 1434h465l172 -902l432 902h493l-227 -1434h-397l125 784h-15l-342 -784h-280l-119 784h-14l-123 -784h-398z" />
    <glyph glyph-name="uni041D" unicode="&#x41d;" horiz-adv-x="1458" 
d="M1071 1434h397l-227 -1434h-397l90 563h-428l-90 -563h-398l228 1434h397l-86 -549h428z" />
    <glyph glyph-name="uni041E" unicode="&#x41e;" horiz-adv-x="1521" 
d="M889 1452q279 0 438.5 -155t159.5 -425q0 -146 -38.5 -281t-111.5 -245t-174 -192t-232 -127t-278 -45q-277 0 -436.5 154.5t-159.5 422.5q0 186 60 350t166.5 284t263.5 189.5t342 69.5zM707 319q88 0 159 45.5t115 120.5t67 166t23 189q0 129 -58.5 201.5t-176.5 72.5
q-89 0 -160.5 -45t-114.5 -120t-65.5 -165.5t-22.5 -187.5q0 -128 59.5 -202.5t174.5 -74.5z" />
    <glyph glyph-name="uni041F" unicode="&#x41f;" horiz-adv-x="1458" 
d="M1468 1434l-227 -1434h-397l174 1094h-428l-174 -1094h-398l228 1434h1222z" />
    <glyph glyph-name="uni0420" unicode="&#x420;" horiz-adv-x="1392" 
d="M856 1434q259 0 381.5 -111t122.5 -309q0 -278 -184 -447.5t-486 -169.5h-211l-63 -397h-398l228 1434h610zM748 739q84 0 132 62t48 153q0 61 -33 100.5t-100 39.5h-207l-53 -355h213z" />
    <glyph glyph-name="uni0421" unicode="&#x421;" horiz-adv-x="1413" 
d="M696 322q97 0 152.5 43.5t97.5 150.5h381q-30 -133 -99.5 -237.5t-164 -168t-204.5 -96t-228 -32.5q-268 0 -422 149.5t-154 421.5q0 147 35 282t104.5 247t166 195t226.5 129t279 46q93 0 175.5 -20t151.5 -62.5t116.5 -104t69.5 -149t12 -192.5h-385q-10 99 -56 143.5
t-131 44.5t-153.5 -48.5t-108.5 -125.5t-61 -165t-21 -175q0 -276 221 -276z" />
    <glyph glyph-name="uni0422" unicode="&#x422;" horiz-adv-x="1288" 
d="M1362 1434l-55 -340h-392l-170 -1094h-397l172 1094h-391l55 340h1178z" />
    <glyph glyph-name="uni0423" unicode="&#x423;" horiz-adv-x="1341" 
d="M961 1434h442l-572 -1002q-115 -202 -218.5 -308t-226.5 -144.5t-302 -22.5l53 350q42 -7 77 -4.5t60 5.5t45 12.5t32 17t22.5 19.5t15 20t10.5 18q1 3 2 4q49 92 7 234l-224 801h437l118 -494z" />
    <glyph glyph-name="uni0424" unicode="&#x424;" horiz-adv-x="1529" 
d="M1481 801q0 -263 -165.5 -440t-432.5 -224l-27 -168h-397l26 174q-199 44 -309 174t-110 318q0 266 166 442t438 221l26 166h398l-29 -174q199 -44 307.5 -172t108.5 -317zM938 481q79 50 122.5 133t43.5 189q0 118 -88 170zM442 635q0 -122 95 -176l79 497
q-84 -50 -129 -132.5t-45 -188.5z" />
    <glyph glyph-name="uni0425" unicode="&#x425;" horiz-adv-x="1433" 
d="M1511 1434l-548 -695l346 -739h-449l-178 383l-303 -383h-442l579 735l-326 699h449l160 -342l270 342h442z" />
    <glyph glyph-name="uni0426" unicode="&#x426;" horiz-adv-x="1558" 
d="M1468 1434l-174 -1094h174l-102 -629h-379l47 289h-1016l228 1434h397l-172 -1094h430l170 1094h397z" />
    <glyph glyph-name="uni0427" unicode="&#x427;" horiz-adv-x="1390" 
d="M1004 1434h397l-227 -1434h-398l82 510q-25 -33 -59 -64.5t-86 -67t-123.5 -57.5t-149.5 -22q-211 0 -305.5 123t-52.5 381l100 631h398l-101 -631q-29 -156 129 -156q105 0 185.5 52t111.5 110z" />
    <glyph glyph-name="uni0428" unicode="&#x428;" horiz-adv-x="1812" 
d="M1425 1434h398l-228 -1434h-1577l228 1434h397l-172 -1094h193l172 1094h397l-172 -1094h192z" />
    <glyph glyph-name="uni0429" unicode="&#x429;" horiz-adv-x="1910" 
d="M1823 1434l-174 -1094h174l-105 -629h-375l48 289h-1373l228 1434h397l-172 -1094h193l172 1094h397l-172 -1094h192l172 1094h398z" />
    <glyph glyph-name="uni042A" unicode="&#x42a;" horiz-adv-x="1462" 
d="M866 981q261 0 386.5 -109t125.5 -303q0 -275 -171 -422t-476 -147h-620l174 1094h-176l53 340h573l-71 -453h202zM760 334q91 0 142.5 62t51.5 149q0 102 -129 102h-215l-47 -313h197z" />
    <glyph glyph-name="uni042B" unicode="&#x42b;" horiz-adv-x="1959" 
d="M774 981q261 0 386.5 -109t125.5 -303q0 -275 -171 -422t-476 -147h-621l228 1434h397l-72 -453h203zM1745 0h-397l225 1434h397zM668 334q91 0 142.5 62t51.5 149q0 102 -129 102h-215l-47 -313h197z" />
    <glyph glyph-name="uni042C" unicode="&#x42c;" horiz-adv-x="1370" 
d="M774 981q261 0 386.5 -109t125.5 -303q0 -275 -171 -422t-476 -147h-621l228 1434h397l-72 -453h203zM668 334q91 0 142.5 62t51.5 149q0 102 -129 102h-215l-47 -313h197z" />
    <glyph glyph-name="uni042D" unicode="&#x42d;" horiz-adv-x="1454" 
d="M821 1452q277 0 434.5 -151t157.5 -424q0 -188 -53.5 -351t-152.5 -284t-248 -190.5t-330 -69.5q-97 0 -183.5 21t-159.5 65t-123.5 106t-74.5 150t-14 192h383q21 -119 52.5 -156.5t119.5 -37.5q107 0 185.5 65t123.5 176h-320l52 316h325q-7 233 -196 233
q-96 0 -149.5 -42t-114.5 -146h-394q30 134 99 237.5t162 165.5t199 93.5t220 31.5z" />
    <glyph glyph-name="uni042E" unicode="&#x42e;" horiz-adv-x="2107" 
d="M1473 1452q279 0 438.5 -155t159.5 -425q0 -146 -38.5 -281t-111.5 -245t-174 -192t-232 -127t-278 -45q-277 0 -436.5 154.5t-159.5 422.5v4h-135l-88 -563h-398l226 1434h397l-86 -549h135q84 257 290.5 412t490.5 155zM1290 319q88 0 159.5 45.5t115 120.5t67 166
t23.5 189q0 129 -59 201.5t-177 72.5q-89 0 -160.5 -45t-114 -120t-65 -165.5t-22.5 -187.5q0 -129 59 -203t174 -74z" />
    <glyph glyph-name="uni042F" unicode="&#x42f;" horiz-adv-x="1462" 
d="M1473 1434l-228 -1434h-397l76 481h-246q-194 0 -227 -221l-5 -29q-12 -87 -26.5 -131t-50.5 -100h-402q40 63 60.5 116.5t27.5 131.5l6 45q17 138 83.5 229t185.5 148q-59 36 -102.5 105t-43.5 179q0 147 80 256.5t219.5 166.5t319.5 57h670zM741 793h232l49 299h-238
q-96 0 -148 -54t-52 -123q0 -60 36 -91t121 -31z" />
    <glyph glyph-name="uni0430" unicode="&#x430;" horiz-adv-x="1206" 
d="M1032 299q-11 -82 64 -88l-35 -201q-62 -18 -139 -18q-106 0 -179.5 43t-72.5 104q-2 -1 -17 -20t-38 -39.5t-56 -42.5t-84 -36.5t-110 -14.5q-73 0 -135.5 15.5t-114.5 49t-81.5 93t-29.5 139.5q0 313 412 354q22 2 65.5 7t61.5 7t49.5 6.5t49.5 8t39 9.5t38 13
q3 37 -8 61.5t-31 34t-33.5 12.5t-28.5 3q-106 0 -139 -94h-354q38 186 159 278t359 92q142 0 236 -30.5t142 -89.5t62 -145.5t-4 -199.5zM655 336l27 145q-21 -5 -44 -11t-35 -9t-41.5 -8t-76.5 -11q-50 -7 -76 -35.5t-26 -62.5q0 -90 102 -90q46 0 94.5 27.5t75.5 54.5z
" />
    <glyph glyph-name="uni0431" unicode="&#x431;" horiz-adv-x="1236" 
d="M760 1059q49 0 100 -13.5t105.5 -46.5t97 -81.5t69.5 -127t27 -174.5q0 -181 -82 -326.5t-224.5 -226.5t-317.5 -81q-114 0 -201.5 34.5t-142.5 97t-87.5 149.5t-36 192t12.5 225l24 172q45 310 188 446t394 136h25q112 0 168 49h340q-61 -199 -163 -270.5t-300 -71.5
h-86q-80 0 -121.5 -40.5t-61.5 -109.5q30 24 104 46t169 22zM555 285q62 0 111 28t77.5 73.5t43 97t14.5 104.5q0 99 -42 144.5t-112 45.5q-62 0 -111 -28t-77 -74t-42 -99t-14 -108q0 -98 43.5 -141t108.5 -43z" />
    <glyph glyph-name="uni0432" unicode="&#x432;" horiz-adv-x="1226" 
d="M975 588q79 -30 128.5 -94t49.5 -158q0 -336 -549 -336h-606l168 1065h379l-64 -406h199q91 0 105 44q1 5 1 8q-1 7 0.5 19.5t-15.5 24t-50 11.5h-223l47 299h205q174 0 283.5 -63t109.5 -183q0 -172 -168 -231zM786 711v-2v2zM643 299q67 0 104 22t37 60q0 10 -2.5 17
t-11 17.5t-32.5 16.5t-60 6h-232l9 56l-31 -195h219z" />
    <glyph glyph-name="uni0433" unicode="&#x433;" horiz-adv-x="958" 
d="M993 1065l-49 -293h-448l-119 -772h-379l168 1065h827z" />
    <glyph glyph-name="uni0434" unicode="&#x434;" horiz-adv-x="1472" 
d="M1378 1065l-121 -772h119l-67 -389h-342l16 96h-682l-18 -96h-344l67 389h82q84 71 127.5 179.5t69.5 258.5l53 334h1040zM469 293h408l73 479h-282l-6 -59q-17 -154 -70 -265.5t-123 -154.5z" />
    <glyph glyph-name="uni0435" unicode="&#x435;" horiz-adv-x="1181" 
d="M1104 621q0 -41 -7.5 -106t-17.5 -101h-694q11 -150 170 -150q58 0 94 20.5t51 47.5h344q-63 -175 -201.5 -260.5t-336.5 -85.5q-65 0 -129.5 15t-127 49.5t-110 84.5t-77 127.5t-29.5 171.5q0 135 47 254.5t128.5 204t195.5 133.5t243 49q93 0 172.5 -24.5t144.5 -76.5
t102.5 -142t37.5 -211zM754 639q6 12 6 43q0 46 -36.5 81.5t-102.5 35.5q-151 0 -207 -160h340z" />
    <glyph glyph-name="uni0436" unicode="&#x436;" horiz-adv-x="1986" 
d="M2046 1065l-578 -543l416 -522h-463l-276 358l-58 -358h-378l57 358l-387 -358h-465l580 520l-406 545h465l264 -373l60 373h378l-59 -373l385 373h465z" />
    <glyph glyph-name="uni0437" unicode="&#x437;" horiz-adv-x="1196" 
d="M895 559l10 -6q1 0 5 -2q121 -47 155 -135q14 -37 14 -80q0 -108 -76.5 -189t-205.5 -123t-291 -42q-259 0 -384.5 112.5t-86.5 337.5h338q-7 -94 29 -138t147 -44q67 0 117.5 32t50.5 89q0 84 -193 86l11 186q86 -1 137 25.5t51 72.5q0 68 -115 68q-59 0 -106 -35
t-60 -102h-336q31 204 171.5 305.5t359.5 101.5q199 0 323.5 -75t124.5 -203q0 -89 -50 -154t-140 -88z" />
    <glyph glyph-name="uni0438" unicode="&#x438;" horiz-adv-x="1298" 
d="M166 1065h379l-80 -524h4l412 524h379l-168 -1065h-379l75 498h-4l-391 -498h-395z" />
    <glyph glyph-name="uni0439" unicode="&#x439;" horiz-adv-x="1298" 
d="M938 1452h244q-54 -346 -434 -346q-181 0 -269.5 91.5t-60.5 254.5h235q-11 -58 22.5 -85.5t96.5 -27.5q146 0 166 113zM166 1065h379l-80 -524h4l412 524h379l-168 -1065h-379l75 498h-4l-391 -498h-395z" />
    <glyph glyph-name="uni043A" unicode="&#x43a;" horiz-adv-x="1300" 
d="M1358 1065l-520 -543l360 -522h-455l-290 422l-66 -422h-379l168 1065h379l-70 -438l418 438h455z" />
    <glyph glyph-name="uni043B" unicode="&#x43b;" horiz-adv-x="1333" 
d="M1294 1065l-168 -1065h-360l104 772h-235l-53 -336q-26 -168 -118.5 -275.5t-227.5 -147.5t-304 -19l45 291q86 -2 152 42t82 148l94 590h989z" />
    <glyph glyph-name="uni043C" unicode="&#x43c;" horiz-adv-x="1595" 
d="M176 1065h449l141 -625l336 625h454l-167 -1065h-379l80 489h-13l-235 -489h-281l-82 475h-14l-78 -475h-379z" />
    <glyph glyph-name="uni043D" unicode="&#x43d;" horiz-adv-x="1234" 
d="M166 1065h379l-56 -363h273l55 363h379l-168 -1065h-379l66 410h-273l-65 -410h-379z" />
    <glyph glyph-name="uni043E" unicode="&#x43e;" horiz-adv-x="1220" 
d="M662 1075q66 0 130.5 -15t128.5 -49.5t113 -85.5t79 -129.5t30 -174.5q0 -180 -77 -324.5t-219.5 -227.5t-324.5 -83q-67 0 -132 14.5t-129.5 49t-113.5 85.5t-79.5 131.5t-30.5 179.5q0 177 79 320.5t222.5 226t323.5 82.5zM780 596q0 84 -41.5 129t-107.5 45
q-58 0 -104 -29.5t-72.5 -77t-40 -99.5t-13.5 -103q0 -81 41 -125.5t109 -44.5q58 0 104 29.5t72 76t39.5 98t13.5 101.5z" />
    <glyph glyph-name="uni043F" unicode="&#x43f;" horiz-adv-x="1208" 
d="M1169 1065l-168 -1065h-378l118 772h-245l-119 -772h-379l168 1065h1003z" />
    <glyph glyph-name="uni0440" unicode="&#x440;" horiz-adv-x="1257" 
d="M811 1075q53 0 104 -14.5t100.5 -48.5t86.5 -84t59.5 -127t22.5 -172q0 -119 -41 -235t-111 -206.5t-172.5 -146t-216.5 -55.5q-105 0 -161.5 36.5t-73.5 79.5l-82 -491h-379l229 1454h381l-14 -96q3 0 15 11.5t33 27t49.5 31t74 26t96.5 10.5zM578 291q72 0 126.5 47.5
t80.5 120t26 155.5q0 77 -39.5 116.5t-99.5 39.5q-56 0 -100 -29.5t-69.5 -77.5t-38.5 -103t-13 -111q0 -158 127 -158z" />
    <glyph glyph-name="uni0441" unicode="&#x441;" horiz-adv-x="1122" 
d="M526 291q134 0 166 112h342q-29 -100 -77 -176t-101 -120.5t-118.5 -72.5t-123.5 -38t-122 -10q-67 0 -130 14t-123.5 46.5t-105.5 80.5t-72.5 122t-27.5 165q0 189 75 339.5t214.5 236t318.5 85.5q63 0 119 -11t113.5 -40t98 -74.5t66.5 -121t27 -173.5h-334
q3 57 -19.5 86t-90.5 29q-69 0 -120 -53.5t-74.5 -131t-23.5 -165.5q0 -57 31 -93t92 -36z" />
    <glyph glyph-name="uni0442" unicode="&#x442;" horiz-adv-x="1132" 
d="M1145 1065l-49 -293h-324l-121 -772h-379l121 772h-327l49 293h1030z" />
    <glyph glyph-name="uni0443" unicode="&#x443;" horiz-adv-x="1236" 
d="M881 1065h389l-611 -1061q-38 -67 -71.5 -118t-70 -96.5t-71 -77.5t-74.5 -58t-82 -41t-92 -23t-105.5 -7.5t-121.5 7.5l49 312q61 -6 110 1t78 19.5t54 36t35.5 40t24.5 42.5q14 30 16 48.5t-8 72.5l-236 903h375l115 -576z" />
    <glyph glyph-name="uni0444" unicode="&#x444;" horiz-adv-x="1318" 
d="M1239 602q0 -238 -141.5 -398.5t-360.5 -205.5l-59 -377h-359l62 389q-72 21 -131.5 56t-108.5 87t-76.5 127t-27.5 166q0 123 40 229.5t109.5 183.5t162.5 129.5t202 74.5l61 389h357l-64 -403q147 -45 240.5 -157t93.5 -290zM786 311q77 43 116.5 122t39.5 179
q0 117 -82 160zM340 436q0 -105 86 -147l76 467q-79 -45 -120.5 -128.5t-41.5 -191.5z" />
    <glyph glyph-name="uni0445" unicode="&#x445;" horiz-adv-x="1234" 
d="M1257 1065l-436 -512l301 -553h-403l-146 281l-229 -281h-418l492 561l-283 504h404l114 -225l187 225h417z" />
    <glyph glyph-name="uni0446" unicode="&#x446;" horiz-adv-x="1306" 
d="M1049 293h163l-94 -580h-360l47 287h-807l168 1065h379l-119 -772h246l119 772h378z" />
    <glyph glyph-name="uni0447" unicode="&#x447;" horiz-adv-x="1243" 
d="M825 1065h379l-168 -1065h-379l72 451q-50 -68 -138 -123.5t-194 -55.5q-182 0 -271.5 105.5t-55.5 322.5l55 365h379l-60 -360q-10 -56 20 -88.5t89 -32.5q78 0 134 44.5t85 98.5z" />
    <glyph glyph-name="uni0448" unicode="&#x448;" horiz-adv-x="1697" 
d="M1280 1065h379l-168 -1065h-1483l168 1065h379l-119 -772h185l118 772h357l-119 -772h184z" />
    <glyph glyph-name="uni0449" unicode="&#x449;" horiz-adv-x="1751" 
d="M1528 293h131l-94 -580h-363l47 287h-1251l168 1065h379l-119 -772h184l119 772h356l-118 -772h184l119 772h379z" />
    <glyph glyph-name="uni044A" unicode="&#x44a;" horiz-adv-x="1419" 
d="M909 729q182 0 293 -88.5t111 -237.5q0 -186 -139 -294.5t-355 -108.5h-645l121 772h-219l49 293h596l-53 -336h241zM840 293q49 0 79.5 23t30.5 59q0 59 -71 59h-254l-25 -141h240z" />
    <glyph glyph-name="uni044B" unicode="&#x44b;" horiz-adv-x="1808" 
d="M743 729q182 0 293 -88.5t111 -237.5q0 -186 -139 -294.5t-355 -108.5h-645l168 1065h379l-53 -336h241zM1391 1065h378l-167 -1065h-379zM674 293q49 0 79.5 23t30.5 59q0 59 -71 59h-254l-25 -141h240z" />
    <glyph glyph-name="uni044C" unicode="&#x44c;" horiz-adv-x="1251" 
d="M743 729q182 0 293 -88.5t111 -237.5q0 -186 -139 -294.5t-355 -108.5h-645l168 1065h379l-53 -336h241zM674 293q49 0 79.5 23t30.5 59q0 59 -71 59h-254l-25 -141h240z" />
    <glyph glyph-name="uni044D" unicode="&#x44d;" horiz-adv-x="1136" 
d="M604 1075q67 0 130 -14t123.5 -46.5t105.5 -80.5t72.5 -122t27.5 -165q0 -189 -75 -339.5t-214.5 -236t-318.5 -85.5q-63 0 -119 11t-113.5 40t-98 74.5t-66.5 121t-27 173.5h334q-3 -57 19.5 -86t90.5 -29q110 0 170 127h-227l31 225h243q0 57 -30.5 92t-92.5 35
q-134 0 -166 -113h-342q29 100 77 176t101.5 121t119 73t123.5 38t122 10z" />
    <glyph glyph-name="uni044E" unicode="&#x44e;" horiz-adv-x="1763" 
d="M1204 1075q66 0 131 -15t129 -49.5t113 -85.5t79 -129.5t30 -174.5q0 -180 -77 -324.5t-219.5 -227.5t-324.5 -83q-63 0 -124 12.5t-123 43t-110.5 75t-82.5 114.5t-43 156h-133l-62 -389h-379l168 1065h379l-59 -383h125q66 180 221 287.5t362 107.5zM1094 291
q58 0 104 29.5t72 76t39.5 98t13.5 101.5q0 84 -41.5 129t-107.5 45q-58 0 -104 -29.5t-72.5 -77t-40 -99.5t-13.5 -103q0 -81 41 -125.5t109 -44.5z" />
    <glyph glyph-name="uni044F" unicode="&#x44f;" horiz-adv-x="1232" 
d="M549 1065h645l-168 -1065h-379l53 336h-208q-65 -11 -76 -90l-10 -84q-3 -26 -6.5 -44.5t-10 -35.5t-10 -25t-14 -28t-15.5 -29h-375q3 7 10 19.5t9.5 17.5t7.5 15.5t7 17t5.5 17.5t6 21t5 24t5.5 30l12 84q7 61 33 106.5t84 77.5q-105 88 -105 232q0 186 139 294.5
t355 108.5zM743 631l25 141h-240q-49 0 -79.5 -23t-30.5 -59q0 -59 71 -59h254z" />
    <glyph glyph-name="uni0451" unicode="&#x451;" horiz-adv-x="1181" 
d="M653 1452l-39 -248h-383l39 248h383zM776 1452h383l-39 -248h-383zM647 1075q93 0 172.5 -24.5t144.5 -76.5t102.5 -142t37.5 -211q0 -41 -7.5 -106t-17.5 -101h-694q11 -150 170 -150q58 0 94 20.5t51 47.5h344q-63 -175 -201.5 -260.5t-336.5 -85.5q-65 0 -129.5 15
t-127 49.5t-110 84.5t-77 127.5t-29.5 171.5q0 135 47 254.5t128.5 204t195.5 133.5t243 49zM754 639q6 12 6 43q0 46 -36.5 81.5t-102.5 35.5q-151 0 -207 -160h340z" />
    <glyph glyph-name="uni0453" unicode="&#x453;" horiz-adv-x="958" 
d="M414 1190h338l280 262h-526zM993 1065l-49 -293h-448l-119 -772h-379l168 1065h827z" />
    <glyph glyph-name="uni0454" unicode="&#x454;" horiz-adv-x="1122" 
d="M526 291q134 0 166 112h342q-29 -100 -77 -176t-101 -120.5t-118.5 -72.5t-123.5 -38t-122 -10q-67 0 -130 14t-123.5 46.5t-105.5 80.5t-72.5 122t-27.5 165q0 189 75 339.5t214.5 236t318.5 85.5q63 0 119 -11t113.5 -40t98 -74.5t66.5 -121t27 -173.5h-334
q3 57 -19.5 86t-90.5 29q-110 0 -170 -127h229l-31 -225h-246q0 -57 30.5 -92t92.5 -35z" />
    <glyph glyph-name="uni0457" unicode="&#x457;" horiz-adv-x="571" 
d="M-39 1452h383l-39 -248h-383zM467 1452h383l-39 -248h-383zM176 1065h379l-168 -1065h-379z" />
    <glyph glyph-name="uni045C" unicode="&#x45c;" horiz-adv-x="1300" 
d="M1206 1452l-280 -262h-338l92 262h526zM1358 1065l-520 -543l360 -522h-455l-290 422l-66 -422h-379l168 1065h379l-70 -438l418 438h455z" />
    <glyph glyph-name="uni045E" unicode="&#x45e;" horiz-adv-x="1236" 
d="M905 1452h244q-54 -346 -434 -346q-181 0 -269.5 91.5t-60.5 254.5h236q-11 -58 22 -85.5t96 -27.5q146 0 166 113zM881 1065h389l-611 -1061q-38 -67 -71.5 -118t-70 -96.5t-71 -77.5t-74.5 -58t-82 -41t-92 -23t-105.5 -7.5t-121.5 7.5l49 312q61 -6 110 1t78 19.5
t54 36t35.5 40t24.5 42.5q14 30 16 48.5t-8 72.5l-236 903h375l115 -576z" />
    <glyph glyph-name="uni0490" unicode="&#x490;" horiz-adv-x="1144" 
d="M852 1638h397l-86 -544h-573l-174 -1094h-398l228 1434h573z" />
    <glyph glyph-name="uni0491" unicode="&#x491;" horiz-adv-x="958" 
d="M692 1200h324l-72 -428h-448l-119 -772h-379l168 1065h504z" />
    <glyph glyph-name="Wgrave" unicode="&#x1e80;" horiz-adv-x="2191" 
d="M1397 1559l-51 262h-531l240 -262h342zM1823 1434h430l-635 -1434h-363l-133 817l-391 -817h-362l-185 1434h410l63 -828l363 828h377l102 -828z" />
    <glyph glyph-name="wgrave" unicode="&#x1e81;" horiz-adv-x="1685" 
d="M1110 1190l-51 262h-531l240 -262h342zM1718 1065l-461 -1065h-317l-104 621l-293 -621h-322l-127 1065h375l27 -582l260 582h293l69 -582l213 582h387z" />
    <glyph glyph-name="Wacute" unicode="&#x1e82;" horiz-adv-x="2191" 
d="M1065 1559h338l280 262h-526zM1823 1434h430l-635 -1434h-363l-133 817l-391 -817h-362l-185 1434h410l63 -828l363 828h377l102 -828z" />
    <glyph glyph-name="wacute" unicode="&#x1e83;" horiz-adv-x="1685" 
d="M778 1190h338l281 262h-527zM1718 1065l-461 -1065h-317l-104 621l-293 -621h-322l-127 1065h375l27 -582l260 582h293l69 -582l213 582h387z" />
    <glyph glyph-name="Wdieresis" unicode="&#x1e84;" horiz-adv-x="2191" 
d="M809 1821h383l-39 -248h-383zM1315 1821h383l-39 -248h-383zM1823 1434h430l-635 -1434h-363l-133 817l-391 -817h-362l-185 1434h410l63 -828l363 828h377l102 -828z" />
    <glyph glyph-name="wdieresis" unicode="&#x1e85;" horiz-adv-x="1685" 
d="M522 1452h383l-39 -248h-383zM1028 1452h383l-39 -248h-383zM1718 1065l-461 -1065h-317l-104 621l-293 -621h-322l-127 1065h375l27 -582l260 582h293l69 -582l213 582h387z" />
    <glyph glyph-name="uni1E9E" unicode="&#x1e9e;" horiz-adv-x="1607" 
d="M1155 922q72 -15 134.5 -45t117 -79t86 -124.5t31.5 -169.5q0 -242 -153 -383t-408 -141q-228 0 -327.5 109.5t-88.5 328.5h373q0 -19 2.5 -34t11 -31t26.5 -25t46 -9q45 0 70.5 34t25.5 73q0 102 -134.5 150.5t-359.5 33.5l324 506h-201q-68 0 -112 -42.5t-58 -119.5
l-147 -954h-398l162 1018q35 228 166 333t375 105h829z" />
    <glyph glyph-name="Ygrave" unicode="&#x1ef2;" horiz-adv-x="1554" 
d="M1108 1559l-51 262h-531l240 -262h342zM993 506l-80 -506h-409l78 506l-398 928h449l182 -547l363 547h438z" />
    <glyph glyph-name="ygrave" unicode="&#x1ef3;" horiz-adv-x="1236" 
d="M885 1190l-51 262h-531l240 -262h342zM881 1065h389l-611 -1061q-38 -67 -71.5 -118t-70 -96.5t-71 -77.5t-74.5 -58t-82 -41t-92 -23t-105.5 -7.5t-121.5 7.5l49 312q61 -6 110 1t78 19.5t54 36t35.5 40t24.5 42.5q14 30 16 48.5t-8 72.5l-236 903h375l115 -576z" />
    <glyph glyph-name="endash" unicode="&#x2013;" horiz-adv-x="1228" 
d="M94 711h1045l-54 -312h-1044z" />
    <glyph glyph-name="emdash" unicode="&#x2014;" horiz-adv-x="1351" 
d="M94 711h1168l-54 -312h-1167z" />
    <glyph glyph-name="quoteleft" unicode="&#x2018;" horiz-adv-x="561" 
d="M625 1436l-19 -113q-76 -10 -122 -64.5t-58 -125.5l-14 -66h151l-61 -416h-400l56 361q12 83 35 148.5t50 109.5t65 75.5t72.5 48.5t80.5 27t81.5 12.5t82.5 2.5z" />
    <glyph glyph-name="quoteright" unicode="&#x2019;" horiz-adv-x="634" 
d="M119 625l-6 114q70 7 120 67.5t60 129.5l4 57h-133l72 441h462l-61 -394q-11 -72 -32 -132t-48.5 -101.5t-61.5 -74.5t-71 -51.5t-77 -32.5t-79 -17.5t-77 -6.5t-72 1z" />
    <glyph glyph-name="quotesinglbase" unicode="&#x201a;" horiz-adv-x="638" 
d="M-41 -369l-4 115q72 8 120 67.5t58 129.5l12 57h-133l68 442h465l-64 -395q-13 -82 -39 -148.5t-60 -109t-75 -75t-85 -48t-90 -26t-89.5 -10t-83.5 0.5z" />
    <glyph glyph-name="quotedblleft" unicode="&#x201c;" horiz-adv-x="1175" 
d="M625 1436l-19 -113q-76 -10 -122 -64.5t-58 -125.5l-14 -66h151l-61 -416h-400l56 361q12 83 35 148.5t50 109.5t65 75.5t72.5 48.5t80.5 27t81.5 12.5t82.5 2.5zM1239 1436l-18 -113q-76 -10 -122.5 -65t-58.5 -125l-14 -66h152l-62 -416h-399l55 361q12 83 35 148.5
t50 109.5t65 75.5t72.5 48.5t80.5 27t81.5 12.5t82.5 2.5z" />
    <glyph glyph-name="quotedblright" unicode="&#x201d;" horiz-adv-x="1181" 
d="M102 647l19 113q76 10 122 64.5t58 125.5l14 66h-151l61 416h400l-56 -361q-12 -83 -35 -148.5t-50 -109.5t-65 -75.5t-72.5 -48.5t-80.5 -27t-81.5 -12.5t-82.5 -2.5zM717 647l18 113q76 10 122 64.5t58 125.5l15 66h-152l62 416h399l-55 -361q-12 -83 -35 -148.5
t-50 -109.5t-65 -75.5t-72.5 -48.5t-80.5 -27t-81.5 -12.5t-82.5 -2.5z" />
    <glyph glyph-name="quotedblbase" unicode="&#x201e;" horiz-adv-x="1179" 
d="M-59 -369l18 113q76 10 122 64.5t58 125.5l15 66h-152l61 416h400l-55 -361q-12 -83 -35 -148.5t-50 -109.5t-65 -75.5t-72.5 -48.5t-80.5 -27t-81.5 -12.5t-82.5 -2.5zM555 -369l18 113q76 10 122.5 65t58.5 125l14 66h-152l62 416h399l-55 -361q-12 -83 -35 -148.5
t-50 -109.5t-65 -75.5t-72.5 -48.5t-80.5 -27t-81.5 -12.5t-82.5 -2.5z" />
    <glyph glyph-name="dagger" unicode="&#x2020;" horiz-adv-x="980" 
d="M938 1102l-45 -285h-238l-80 -495h-296l77 495h-239l45 285h239l54 332h299l-54 -332h238z" />
    <glyph glyph-name="daggerdbl" unicode="&#x2021;" horiz-adv-x="980" 
d="M905 899h-235l-58 -364h240l-49 -285h-236l-39 -250h-299l39 250h-241l49 285h237l58 364h-242l49 285h238l39 250h299l-39 -250h239z" />
    <glyph glyph-name="bullet" unicode="&#x2022;" horiz-adv-x="591" 
d="M260 346q-89 0 -143 64t-41 155q12 67 73 117.5t134 50.5q85 0 136 -63.5t38 -153.5q-11 -68 -69 -119t-128 -51z" />
    <glyph glyph-name="ellipsis" unicode="&#x2026;" horiz-adv-x="1611" 
d="M84 414h414l-64 -414h-414zM590 414h414l-64 -414h-414zM1096 414h413l-63 -414h-414z" />
    <glyph glyph-name="perthousand" unicode="&#x2030;" horiz-adv-x="2172" 
d="M426 731q-126 0 -201 72t-75 217q0 184 93 304t259 120q125 0 197.5 -70.5t72.5 -214.5q0 -122 -38.5 -217.5t-118 -153t-189.5 -57.5zM98 0l1073 1440l277 -6l-1065 -1434h-285zM444 969q86 0 86 168q0 69 -49 69q-34 0 -55 -27t-28 -61t-7 -74q0 -75 53 -75zM1051 -10
q-126 0 -201.5 72t-75.5 217q0 184 93 303.5t259 119.5q126 0 198.5 -70t72.5 -214q0 -122 -38.5 -217.5t-118 -153t-189.5 -57.5zM1702 -10q-127 0 -202 72t-75 217q0 184 93.5 303.5t259.5 119.5q125 0 197.5 -70.5t72.5 -213.5q0 -122 -38.5 -217.5t-118 -153
t-189.5 -57.5zM1069 227q86 0 86 168q0 70 -49 70q-34 0 -55 -27t-28 -61t-7 -74q0 -76 53 -76zM1720 227q84 0 84 168q0 70 -47 70q-34 0 -55 -27t-28 -61t-7 -74q0 -76 53 -76z" />
    <glyph glyph-name="guilsinglleft" unicode="&#x2039;" horiz-adv-x="550" 
d="M494 717l-181 -125l144 -125l-51 -313l-336 303l49 309l432 305z" />
    <glyph glyph-name="guilsinglright" unicode="&#x203a;" horiz-adv-x="548" 
d="M115 731l53 340l336 -305l-49 -309l-432 -303l55 325l178 125z" />
    <glyph glyph-name="fraction" unicode="&#x2044;" horiz-adv-x="358" 
d="M-260 0h-182l1118 1434h184z" />
    <glyph glyph-name="Euro" unicode="&#x20ac;" horiz-adv-x="1501" 
d="M907 1112q-159 0 -254 -162h197l-31 -223h-246q-4 -28 -8 -80h240l-35 -223h-172q51 -102 186 -102q97 0 152.5 43.5t97.5 150.5h381q-30 -133 -99.5 -237.5t-164 -168t-204.5 -96t-228 -32.5q-234 0 -382 114.5t-183 327.5h-127l34 223h86q3 39 9 80h-80l30 223h111
q93 229 284 365.5t453 136.5q93 0 175.5 -20t151.5 -62.5t116.5 -104t69.5 -149t12 -192.5h-385q-10 99 -56 143.5t-131 44.5z" />
    <glyph glyph-name="trademark" unicode="&#x2122;" horiz-adv-x="1196" 
d="M604 1321h-119l-41 -256h-137l41 256h-119l17 113h377zM1176 1434l-58 -369h-137l27 158l-70 -158h-123l-24 158l-27 -158h-137l57 369h133l64 -267l155 267h140z" />
    <glyph glyph-name="partialdiff" unicode="&#x2202;" horiz-adv-x="1269" 
d="M584 924q143 0 257 -71q23 -14 25 -9v4q24 156 -14.5 234.5t-146.5 78.5q-17 0 -37.5 -4t-51 -16t-59 -40t-45.5 -69h-334q11 55 36.5 110t72 111t107 98.5t149 69.5t190.5 27q122 0 214 -36t148.5 -102.5t88.5 -160t34.5 -209t-12.5 -250.5q-27 -169 -81 -297.5
t-119 -205t-147 -125t-157 -65.5t-157 -17q-63 0 -123.5 10t-128.5 38.5t-118.5 73t-84 121.5t-33.5 176q0 160 71.5 281t190 182.5t265.5 61.5zM543 291q100 0 171.5 74.5t71.5 177.5q0 41 -15 68t-40 37.5t-41.5 14t-34.5 3.5q-92 0 -159.5 -71t-67.5 -179
q0 -40 14.5 -67.5t36.5 -38.5t37 -15t27 -4z" />
    <glyph glyph-name="product" unicode="&#x220f;" horiz-adv-x="1603" 
d="M238 1638h1419l-322 -2027h-366l266 1681h-686l-266 -1681h-367z" />
    <glyph glyph-name="summation" unicode="&#x2211;" horiz-adv-x="1466" 
d="M1462 1298h-678l267 -673l-476 -674h676l-53 -340h-1284l727 1014l-401 1013h1280z" />
    <glyph glyph-name="minus" unicode="&#x2212;" horiz-adv-x="956" 
d="M82 637h827l-39 -262h-829z" />
    <glyph glyph-name="radical" unicode="&#x221a;" horiz-adv-x="1773" 
d="M1831 1638l-836 -2027h-450l-221 842h-273l64 409h516l182 -772l635 1548h383z" />
    <glyph glyph-name="infinity" unicode="&#x221e;" horiz-adv-x="1716" 
d="M1268 901q164 0 268 -85.5t104 -233.5q0 -178 -128.5 -297t-319.5 -119q-181 0 -369 188q-227 -188 -407 -188q-168 0 -273.5 86t-105.5 237q0 178 130.5 295t324.5 117q178 0 364 -186q229 186 412 186zM442 446q103 0 226 91q-52 94 -160 94q-65 0 -104 -37t-39 -82
q0 -21 18 -43.5t59 -22.5zM1176 446q65 0 101 28.5t36 82.5q0 27 -15.5 50.5t-54.5 23.5q-106 0 -233 -94q50 -91 166 -91z" />
    <glyph glyph-name="integral" unicode="&#x222b;" horiz-adv-x="673" 
d="M188 1022q10 69 33 128t66.5 113.5t104 90t151 53t202.5 8.5l-51 -321q-113 0 -147 -189l-139 -899q-15 -85 -35.5 -144.5t-60 -112.5t-98 -83t-148 -45t-209.5 -10l49 321q40 0 67 15.5t40 44.5t19.5 55.5t11.5 63.5q1 7 1 10z" />
    <glyph glyph-name="approxequal" unicode="&#x2248;" horiz-adv-x="1087" 
d="M926 817l143 -16q-22 -135 -104 -222t-220 -87q-42 0 -86 18t-83 43.5t-77.5 51t-83.5 43.5t-87 18q-34 0 -70 -16t-39 -42l-143 19q22 136 102 221.5t219 85.5q41 0 85.5 -18t83.5 -43.5l78 -51t84.5 -43.5t88.5 -18q30 0 67 16t42 41zM870 489l146 -16
q-24 -136 -103.5 -222.5t-216.5 -86.5q-41 0 -86 18t-84.5 43.5t-80 51t-86 43.5t-87.5 18q-33 0 -67 -15t-37 -42l-141 18q20 135 101 221t220 86q41 0 85 -18t83 -43.5l78 -51t84 -43.5t88 -18q30 0 65.5 16t38.5 41z" />
    <glyph glyph-name="notequal" unicode="&#x2260;" horiz-adv-x="907" 
d="M877 594h-287l-35 -66h313l-41 -262h-415l-146 -266h-250l146 266h-162l41 262h264l35 66h-291l39 262h395l160 293h250l-160 -293h185z" />
    <glyph glyph-name="lessequal" unicode="&#x2264;" horiz-adv-x="829" 
d="M782 635l-395 137l436 135l58 312l-756 -306l-49 -284l653 -307zM33 244h690l-45 -262h-690z" />
    <glyph glyph-name="greaterequal" unicode="&#x2265;" horiz-adv-x="841" 
d="M92 635l-53 -313l752 307l49 284l-652 306l-55 -312l395 -135zM719 244l-45 -262h-699l45 262h699z" />
    <glyph glyph-name="lozenge" unicode="&#x25ca;" horiz-adv-x="1361" 
d="M1059 1434l211 -717l-426 -717h-543l-209 717l426 717h541zM604 254l283 463l-131 465l-281 -465z" />
    <glyph glyph-name="G.ss01" horiz-adv-x="1452" 
d="M829 782h580l-123 -782h-366l18 88q-76 -70 -146.5 -93.5t-197.5 -23.5q-236 0 -385.5 161.5t-149.5 442.5q0 148 34.5 282t102.5 244t162 191t219.5 125.5t268.5 44.5q115 0 217.5 -33t180 -93.5t120.5 -155.5t39 -211h-379q-28 87 -67.5 120t-114.5 33
q-87 0 -158.5 -47.5t-116 -126t-68.5 -173t-24 -193.5q0 -271 225 -271q206 0 281 156h-203zM1006 545l2 8z" />
    <glyph glyph-name="R.ss01" horiz-adv-x="1359" 
d="M1360 1014q0 -192 -90.5 -335t-251.5 -216l188 -463h-395l-154 397h-178l-63 -397h-398l228 1434h610q259 0 381.5 -111t122.5 -309zM588 1094l-53 -355h213q84 0 132 62t48 153q0 61 -33 100.5t-100 39.5h-207z" />
    <glyph glyph-name="G.ss05" horiz-adv-x="1452" 
d="M829 782h580l-123 -782h-366l18 88q-76 -70 -146.5 -93.5t-197.5 -23.5q-236 0 -385.5 161.5t-149.5 442.5q0 148 34.5 282t102.5 244t162 191t219.5 125.5t268.5 44.5q115 0 217.5 -33t180 -93.5t120.5 -155.5t39 -211h-379q-28 87 -67.5 120t-114.5 33
q-87 0 -158.5 -47.5t-116 -126t-68.5 -173t-24 -193.5q0 -271 225 -271q206 0 281 156h-203zM1006 545l2 8z" />
    <glyph glyph-name="i.loclTRK" horiz-adv-x="571" 
d="M240 1452h383l-39 -248h-383zM176 1065h379l-168 -1065h-379z" />
    <glyph glyph-name="a.ss01" 
d="M791 1069h380l-167 -1069h-379l8 59q-72 -77 -223 -77q-45 0 -93.5 14.5t-100 48.5t-91.5 83.5t-66 127t-26 170.5q0 97 21.5 191t65 177t103.5 146.5t143 100t179 36.5q37 0 69 -5.5t54.5 -15t40 -19.5t29.5 -23t18.5 -21.5t12.5 -18.5t7 -11zM526 287q56 0 98 31.5
t64.5 82.5t33.5 106t11 111q0 154 -121 154q-59 0 -101.5 -32.5t-64 -86t-31 -107t-9.5 -110.5q0 -149 120 -149z" />
    <glyph glyph-name="aacute.ss01" 
d="M1174 1452l-281 -262h-338l92 262h527zM776 963l15 106h380l-167 -1069h-379l8 59q-72 -77 -223 -77q-45 0 -93.5 14.5t-100 48.5t-91.5 83.5t-66 127t-26 170.5q0 97 21.5 191t65 177t103.5 146.5t143 100t179 36.5q37 0 69 -5.5t54.5 -15t40 -19.5t29.5 -23t18.5 -21.5
t12.5 -18.5t7 -11zM526 287q56 0 98 31.5t64.5 82.5t33.5 106t11 111q0 154 -121 154q-59 0 -101.5 -32.5t-64 -86t-31 -107t-9.5 -110.5q0 -149 120 -149z" />
    <glyph glyph-name="abreve.ss01" 
d="M717 1106q-181 0 -269.5 91.5t-60.5 254.5h236q-11 -58 22 -85.5t96 -27.5q146 0 166 113h244q-54 -346 -434 -346zM791 1069h380l-167 -1069h-379l8 59q-72 -77 -223 -77q-45 0 -93.5 14.5t-100 48.5t-91.5 83.5t-66 127t-26 170.5q0 97 21.5 191t65 177t103.5 146.5
t143 100t179 36.5q37 0 69 -5.5t54.5 -15t40 -19.5t29.5 -23t18.5 -21.5t12.5 -18.5t7 -11zM526 287q56 0 98 31.5t64.5 82.5t33.5 106t11 111q0 154 -121 154q-59 0 -101.5 -32.5t-64 -86t-31 -107t-9.5 -110.5q0 -149 120 -149z" />
    <glyph glyph-name="uni01CE.ss01" 
d="M1063 1151h-711l-69 301h286l154 -145l201 145h299zM776 963l15 106h380l-167 -1069h-379l8 59q-72 -77 -223 -77q-45 0 -93.5 14.5t-100 48.5t-91.5 83.5t-66 127t-26 170.5q0 97 21.5 191t65 177t103.5 146.5t143 100t179 36.5q37 0 69 -5.5t54.5 -15t40 -19.5
t29.5 -23t18.5 -21.5t12.5 -18.5t7 -11zM526 287q56 0 98 31.5t64.5 82.5t33.5 106t11 111q0 154 -121 154q-59 0 -101.5 -32.5t-64 -86t-31 -107t-9.5 -110.5q0 -149 120 -149z" />
    <glyph glyph-name="acircumflex.ss01" 
d="M729 1296l-205 -145h-299l164 301h709l67 -301h-286zM791 1069h380l-167 -1069h-379l8 59q-72 -77 -223 -77q-45 0 -93.5 14.5t-100 48.5t-91.5 83.5t-66 127t-26 170.5q0 97 21.5 191t65 177t103.5 146.5t143 100t179 36.5q37 0 69 -5.5t54.5 -15t40 -19.5t29.5 -23
t18.5 -21.5t12.5 -18.5t7 -11zM526 287q56 0 98 31.5t64.5 82.5t33.5 106t11 111q0 154 -121 154q-59 0 -101.5 -32.5t-64 -86t-31 -107t-9.5 -110.5q0 -149 120 -149z" />
    <glyph glyph-name="adieresis.ss01" 
d="M680 1452l-39 -248h-383l39 248h383zM1186 1452l-39 -248h-383l39 248h383zM776 963l15 106h380l-167 -1069h-379l8 59q-72 -77 -223 -77q-45 0 -93.5 14.5t-100 48.5t-91.5 83.5t-66 127t-26 170.5q0 97 21.5 191t65 177t103.5 146.5t143 100t179 36.5q37 0 69 -5.5
t54.5 -15t40 -19.5t29.5 -23t18.5 -21.5t12.5 -18.5t7 -11zM526 287q56 0 98 31.5t64.5 82.5t33.5 106t11 111q0 154 -121 154q-59 0 -101.5 -32.5t-64 -86t-31 -107t-9.5 -110.5q0 -149 120 -149z" />
    <glyph glyph-name="agrave.ss01" 
d="M885 1190h-342l-240 262h531zM791 1069h380l-167 -1069h-379l8 59q-72 -77 -223 -77q-45 0 -93.5 14.5t-100 48.5t-91.5 83.5t-66 127t-26 170.5q0 97 21.5 191t65 177t103.5 146.5t143 100t179 36.5q37 0 69 -5.5t54.5 -15t40 -19.5t29.5 -23t18.5 -21.5t12.5 -18.5
t7 -11zM526 287q56 0 98 31.5t64.5 82.5t33.5 106t11 111q0 154 -121 154q-59 0 -101.5 -32.5t-64 -86t-31 -107t-9.5 -110.5q0 -149 120 -149z" />
    <glyph glyph-name="amacron.ss01" 
d="M1186 1452l-35 -215h-807l33 215h809zM776 963l15 106h380l-167 -1069h-379l8 59q-72 -77 -223 -77q-45 0 -93.5 14.5t-100 48.5t-91.5 83.5t-66 127t-26 170.5q0 97 21.5 191t65 177t103.5 146.5t143 100t179 36.5q37 0 69 -5.5t54.5 -15t40 -19.5t29.5 -23t18.5 -21.5
t12.5 -18.5t7 -11zM526 287q56 0 98 31.5t64.5 82.5t33.5 106t11 111q0 154 -121 154q-59 0 -101.5 -32.5t-64 -86t-31 -107t-9.5 -110.5q0 -149 120 -149z" />
    <glyph glyph-name="aogonek.ss01" 
d="M791 1069h380l-167 -1069h-109q-79 -19 -136 -43.5t-85.5 -45.5t-45 -46.5t-19.5 -41t-3 -34.5q0 -57 46 -66t114 25v-151q-60 -34 -145.5 -52t-168.5 -13t-141.5 52.5t-58.5 134.5q0 65 36 118.5t93.5 86.5t120 52t123.5 24l8 59q-72 -77 -223 -77q-45 0 -93.5 14.5
t-100 48.5t-91.5 83.5t-66 127t-26 170.5q0 97 21.5 191t65 177t103.5 146.5t143 100t179 36.5q37 0 69 -5.5t54.5 -15t40 -19.5t29.5 -23t18.5 -21.5t12.5 -18.5t7 -11zM526 287q56 0 98 31.5t64.5 82.5t33.5 106t11 111q0 154 -121 154q-59 0 -101.5 -32.5t-64 -86
t-31 -107t-9.5 -110.5q0 -149 120 -149z" />
    <glyph glyph-name="aring.ss01" 
d="M739 1190q-90 0 -148.5 57t-58.5 144q0 95 70.5 166t165.5 71q85 0 142 -58t57 -145q0 -91 -71 -163t-157 -72zM756 1481q-31 0 -54.5 -23.5t-23.5 -52.5q0 -28 20 -47t52 -19q29 0 50 22.5t21 49.5q0 29 -18.5 49.5t-46.5 20.5zM791 1069h380l-167 -1069h-379l8 59
q-72 -77 -223 -77q-45 0 -93.5 14.5t-100 48.5t-91.5 83.5t-66 127t-26 170.5q0 97 21.5 191t65 177t103.5 146.5t143 100t179 36.5q37 0 69 -5.5t54.5 -15t40 -19.5t29.5 -23t18.5 -21.5t12.5 -18.5t7 -11zM526 287q56 0 98 31.5t64.5 82.5t33.5 106t11 111q0 154 -121 154
q-59 0 -101.5 -32.5t-64 -86t-31 -107t-9.5 -110.5q0 -149 120 -149z" />
    <glyph glyph-name="atilde.ss01" 
d="M471 1298q-25 0 -49 -12t-23 -37h-139q0 132 69 217.5t208 85.5q57 0 117.5 -26t104 -57t101.5 -57t111 -26q25 0 48.5 11.5t22.5 36.5h140q0 -130 -69.5 -217t-207.5 -87q-47 0 -94.5 17.5t-87.5 42t-79 49t-84 42t-89 17.5zM776 963l15 106h380l-167 -1069h-379l8 59
q-72 -77 -223 -77q-45 0 -93.5 14.5t-100 48.5t-91.5 83.5t-66 127t-26 170.5q0 97 21.5 191t65 177t103.5 146.5t143 100t179 36.5q37 0 69 -5.5t54.5 -15t40 -19.5t29.5 -23t18.5 -21.5t12.5 -18.5t7 -11zM526 287q56 0 98 31.5t64.5 82.5t33.5 106t11 111q0 154 -121 154
q-59 0 -101.5 -32.5t-64 -86t-31 -107t-9.5 -110.5q0 -149 120 -149z" />
    <glyph glyph-name="g.ss01" horiz-adv-x="1187" 
d="M1151 1065l-47 -270q-42 0 -94 -23v-18q0 -183 -131 -292.5t-336 -109.5q-125 0 -207 39l-5 -3q-5 -2 -7.5 -4.5t-6.5 -7t-6 -12t-2 -16.5q0 -19 7.5 -29.5t31 -15.5t43 -5.5t68.5 -0.5h22h41q92 0 173.5 -16t156 -52t118.5 -104t44 -162q0 -111 -49.5 -194t-134 -129.5
t-183.5 -68.5t-213 -22q-71 0 -138 10.5t-132 35.5t-113.5 62.5t-78 96t-29.5 131.5q0 118 63 187.5t182 115.5q-35 6 -72 24.5t-67.5 57t-30.5 84.5q0 131 166 166q-34 64 -34 148q0 186 133 297.5t335 111.5q180 0 287 -90q89 80 246 78zM692 721v11v13t-1 13t-4.5 14.5
t-8 12.5t-12.5 12t-18.5 9t-25.5 7t-34 2q-66 0 -94.5 -32.5t-28.5 -77.5q0 -1 -0.5 -9t0 -12t1.5 -12.5t4 -14t7.5 -13t13 -12t19 -9.5t26.5 -7t35 -2q56 0 88.5 31t32.5 76zM494 31q-185 0 -185 -111q0 -14 1 -24t9.5 -26.5t23 -27t45 -18.5t73.5 -8q90 0 138 28.5
t48 83.5q0 19 -3.5 32t-16.5 32t-46.5 29t-86.5 10z" />
    <glyph glyph-name="l.ss01" horiz-adv-x="657" 
d="M494 0q-78 -8 -135 -9t-109.5 5.5t-86.5 23.5t-60.5 45.5t-37.5 72t-11 103t12 138.5l170 1055h378l-172 -1098q-6 -33 17.5 -48t85.5 -14z" />
    <glyph glyph-name="a.ss02" 
d="M791 1069h380l-167 -1069h-379l8 59q-72 -77 -223 -77q-45 0 -93.5 14.5t-100 48.5t-91.5 83.5t-66 127t-26 170.5q0 97 21.5 191t65 177t103.5 146.5t143 100t179 36.5q37 0 69 -5.5t54.5 -15t40 -19.5t29.5 -23t18.5 -21.5t12.5 -18.5t7 -11zM526 287q56 0 98 31.5
t64.5 82.5t33.5 106t11 111q0 154 -121 154q-59 0 -101.5 -32.5t-64 -86t-31 -107t-9.5 -110.5q0 -149 120 -149z" />
    <glyph glyph-name="aacute.ss02" 
d="M1171 1452l-280 -262h-338l92 262h526zM776 963l15 106h380l-167 -1069h-379l8 59q-72 -77 -223 -77q-45 0 -93.5 14.5t-100 48.5t-91.5 83.5t-66 127t-26 170.5q0 97 21.5 191t65 177t103.5 146.5t143 100t179 36.5q37 0 69 -5.5t54.5 -15t40 -19.5t29.5 -23t18.5 -21.5
t12.5 -18.5t7 -11zM526 287q56 0 98 31.5t64.5 82.5t33.5 106t11 111q0 154 -121 154q-59 0 -101.5 -32.5t-64 -86t-31 -107t-9.5 -110.5q0 -149 120 -149z" />
    <glyph glyph-name="abreve.ss02" 
d="M715 1106q-181 0 -269.5 91.5t-60.5 254.5h236q-11 -58 22 -85.5t96 -27.5q146 0 166 113h244q-54 -346 -434 -346zM791 1069h380l-167 -1069h-379l8 59q-72 -77 -223 -77q-45 0 -93.5 14.5t-100 48.5t-91.5 83.5t-66 127t-26 170.5q0 97 21.5 191t65 177t103.5 146.5
t143 100t179 36.5q37 0 69 -5.5t54.5 -15t40 -19.5t29.5 -23t18.5 -21.5t12.5 -18.5t7 -11zM526 287q56 0 98 31.5t64.5 82.5t33.5 106t11 111q0 154 -121 154q-59 0 -101.5 -32.5t-64 -86t-31 -107t-9.5 -110.5q0 -149 120 -149z" />
    <glyph glyph-name="uni01CE.ss02" 
d="M1061 1151h-711l-69 301h286l154 -145l201 145h299zM776 963l15 106h380l-167 -1069h-379l8 59q-72 -77 -223 -77q-45 0 -93.5 14.5t-100 48.5t-91.5 83.5t-66 127t-26 170.5q0 97 21.5 191t65 177t103.5 146.5t143 100t179 36.5q37 0 69 -5.5t54.5 -15t40 -19.5
t29.5 -23t18.5 -21.5t12.5 -18.5t7 -11zM526 287q56 0 98 31.5t64.5 82.5t33.5 106t11 111q0 154 -121 154q-59 0 -101.5 -32.5t-64 -86t-31 -107t-9.5 -110.5q0 -149 120 -149z" />
    <glyph glyph-name="acircumflex.ss02" 
d="M729 1296l-205 -145h-299l164 301h709l67 -301h-286zM791 1069h380l-167 -1069h-379l8 59q-72 -77 -223 -77q-45 0 -93.5 14.5t-100 48.5t-91.5 83.5t-66 127t-26 170.5q0 97 21.5 191t65 177t103.5 146.5t143 100t179 36.5q37 0 69 -5.5t54.5 -15t40 -19.5t29.5 -23
t18.5 -21.5t12.5 -18.5t7 -11zM526 287q56 0 98 31.5t64.5 82.5t33.5 106t11 111q0 154 -121 154q-59 0 -101.5 -32.5t-64 -86t-31 -107t-9.5 -110.5q0 -149 120 -149z" />
    <glyph glyph-name="adieresis.ss02" 
d="M680 1452l-39 -248h-383l39 248h383zM1186 1452l-39 -248h-383l39 248h383zM776 963l15 106h380l-167 -1069h-379l8 59q-72 -77 -223 -77q-45 0 -93.5 14.5t-100 48.5t-91.5 83.5t-66 127t-26 170.5q0 97 21.5 191t65 177t103.5 146.5t143 100t179 36.5q37 0 69 -5.5
t54.5 -15t40 -19.5t29.5 -23t18.5 -21.5t12.5 -18.5t7 -11zM526 287q56 0 98 31.5t64.5 82.5t33.5 106t11 111q0 154 -121 154q-59 0 -101.5 -32.5t-64 -86t-31 -107t-9.5 -110.5q0 -149 120 -149z" />
    <glyph glyph-name="agrave.ss02" 
d="M885 1190h-342l-240 262h531zM791 1069h380l-167 -1069h-379l8 59q-72 -77 -223 -77q-45 0 -93.5 14.5t-100 48.5t-91.5 83.5t-66 127t-26 170.5q0 97 21.5 191t65 177t103.5 146.5t143 100t179 36.5q37 0 69 -5.5t54.5 -15t40 -19.5t29.5 -23t18.5 -21.5t12.5 -18.5
t7 -11zM526 287q56 0 98 31.5t64.5 82.5t33.5 106t11 111q0 154 -121 154q-59 0 -101.5 -32.5t-64 -86t-31 -107t-9.5 -110.5q0 -149 120 -149z" />
    <glyph glyph-name="amacron.ss02" 
d="M1186 1452l-35 -215h-807l33 215h809zM776 963l15 106h380l-167 -1069h-379l8 59q-72 -77 -223 -77q-45 0 -93.5 14.5t-100 48.5t-91.5 83.5t-66 127t-26 170.5q0 97 21.5 191t65 177t103.5 146.5t143 100t179 36.5q37 0 69 -5.5t54.5 -15t40 -19.5t29.5 -23t18.5 -21.5
t12.5 -18.5t7 -11zM526 287q56 0 98 31.5t64.5 82.5t33.5 106t11 111q0 154 -121 154q-59 0 -101.5 -32.5t-64 -86t-31 -107t-9.5 -110.5q0 -149 120 -149z" />
    <glyph glyph-name="aogonek.ss02" 
d="M791 1069h380l-167 -1069h-109q-79 -19 -136 -43.5t-85.5 -45.5t-45 -46.5t-19.5 -41t-3 -34.5q0 -57 46 -66t114 25v-151q-60 -34 -145.5 -52t-168.5 -13t-141.5 52.5t-58.5 134.5q0 65 36 118.5t93.5 86.5t120 52t123.5 24l8 59q-72 -77 -223 -77q-45 0 -93.5 14.5
t-100 48.5t-91.5 83.5t-66 127t-26 170.5q0 97 21.5 191t65 177t103.5 146.5t143 100t179 36.5q37 0 69 -5.5t54.5 -15t40 -19.5t29.5 -23t18.5 -21.5t12.5 -18.5t7 -11zM526 287q56 0 98 31.5t64.5 82.5t33.5 106t11 111q0 154 -121 154q-59 0 -101.5 -32.5t-64 -86
t-31 -107t-9.5 -110.5q0 -149 120 -149z" />
    <glyph glyph-name="aring.ss02" 
d="M739 1190q-90 0 -148.5 57t-58.5 144q0 95 70.5 166t165.5 71q85 0 142 -58t57 -145q0 -91 -71 -163t-157 -72zM756 1481q-31 0 -54.5 -23.5t-23.5 -52.5q0 -28 20 -47t52 -19q29 0 50 22.5t21 49.5q0 29 -18.5 49.5t-46.5 20.5zM791 1069h380l-167 -1069h-379l8 59
q-72 -77 -223 -77q-45 0 -93.5 14.5t-100 48.5t-91.5 83.5t-66 127t-26 170.5q0 97 21.5 191t65 177t103.5 146.5t143 100t179 36.5q37 0 69 -5.5t54.5 -15t40 -19.5t29.5 -23t18.5 -21.5t12.5 -18.5t7 -11zM526 287q56 0 98 31.5t64.5 82.5t33.5 106t11 111q0 154 -121 154
q-59 0 -101.5 -32.5t-64 -86t-31 -107t-9.5 -110.5q0 -149 120 -149z" />
    <glyph glyph-name="atilde.ss02" 
d="M469 1298q-25 0 -49 -12t-23 -37h-139q0 132 69 217.5t208 85.5q57 0 117.5 -26t104 -57t101.5 -57t111 -26q25 0 48.5 11.5t22.5 36.5h140q0 -130 -69.5 -217t-207.5 -87q-47 0 -94.5 17.5t-87.5 42t-79 49t-84 42t-89 17.5zM776 963l15 106h380l-167 -1069h-379l8 59
q-72 -77 -223 -77q-45 0 -93.5 14.5t-100 48.5t-91.5 83.5t-66 127t-26 170.5q0 97 21.5 191t65 177t103.5 146.5t143 100t179 36.5q37 0 69 -5.5t54.5 -15t40 -19.5t29.5 -23t18.5 -21.5t12.5 -18.5t7 -11zM526 287q56 0 98 31.5t64.5 82.5t33.5 106t11 111q0 154 -121 154
q-59 0 -101.5 -32.5t-64 -86t-31 -107t-9.5 -110.5q0 -149 120 -149z" />
    <glyph glyph-name="g.ss03" horiz-adv-x="1187" 
d="M1151 1065l-47 -270q-42 0 -94 -23v-18q0 -183 -131 -292.5t-336 -109.5q-125 0 -207 39l-5 -3q-5 -2 -7.5 -4.5t-6.5 -7t-6 -12t-2 -16.5q0 -19 7.5 -29.5t31 -15.5t43 -5.5t68.5 -0.5h22h41q92 0 173.5 -16t156 -52t118.5 -104t44 -162q0 -111 -49.5 -194t-134 -129.5
t-183.5 -68.5t-213 -22q-71 0 -138 10.5t-132 35.5t-113.5 62.5t-78 96t-29.5 131.5q0 118 63 187.5t182 115.5q-35 6 -72 24.5t-67.5 57t-30.5 84.5q0 131 166 166q-34 64 -34 148q0 186 133 297.5t335 111.5q180 0 287 -90q89 80 246 78zM692 721v11v13t-1 13t-4.5 14.5
t-8 12.5t-12.5 12t-18.5 9t-25.5 7t-34 2q-66 0 -94.5 -32.5t-28.5 -77.5q0 -1 -0.5 -9t0 -12t1.5 -12.5t4 -14t7.5 -13t13 -12t19 -9.5t26.5 -7t35 -2q56 0 88.5 31t32.5 76zM494 31q-185 0 -185 -111q0 -14 1 -24t9.5 -26.5t23 -27t45 -18.5t73.5 -8q90 0 138 28.5
t48 83.5q0 19 -3.5 32t-16.5 32t-46.5 29t-86.5 10z" />
    <glyph glyph-name="l.ss04" horiz-adv-x="657" 
d="M494 0q-78 -8 -135 -9t-109.5 5.5t-86.5 23.5t-60.5 45.5t-37.5 72t-11 103t12 138.5l170 1055h378l-172 -1098q-6 -33 17.5 -48t85.5 -14z" />
    <glyph glyph-name="f_t" horiz-adv-x="1677" 
d="M1407 772l-59 -364q-10 -57 6.5 -84t70.5 -27q72 0 138 16l-45 -293q-72 -34 -222 -34q-42 0 -78 4t-71.5 13t-63 25.5t-52 39.5t-40 57t-24 76.5t-8 98t11.5 122.5l55 350h-430l-123 -772h-379l123 772h-178l45 293h180l2 8q13 78 37 139.5t51.5 102.5t67.5 70
t74.5 44.5t82.5 24t82 10.5t82 2q79 0 131 -10l-45 -282q-54 4 -63 4q-61 0 -87 -28.5t-36 -84.5h430l43 266h381l-43 -266h213l-49 -293h-211z" />
    <glyph glyph-name="r_t" horiz-adv-x="1648" 
d="M1378 772l-59 -364q-10 -57 6.5 -84t71.5 -27q71 0 137 16l-45 -293q-72 -34 -221 -34q-42 0 -78 4t-71.5 13t-63.5 25.5t-52 39.5t-39.5 57t-24.5 76.5t-8.5 98t11.5 122.5l55 350h-166l46 293h167l43 266h381l-43 -266h213l-49 -293h-211zM508 838q49 101 163 164
t206 63l-48 -293q-145 1 -241.5 -77t-130.5 -193l-80 -502h-379l168 1065h379z" />
    <glyph glyph-name="zero.dnom" horiz-adv-x="595" 
d="M219 -4q118 0 191 88t73 242q0 103 -51.5 158t-142.5 55q-124 0 -193 -96.5t-69 -235.5q0 -100 50.5 -155.5t141.5 -55.5zM274 410q33 0 49.5 -28t16.5 -73q0 -85 -30.5 -133.5t-80.5 -48.5q-59 0 -59 96q0 87 28 137t76 50z" />
    <glyph glyph-name="one.dnom" horiz-adv-x="450" 
d="M307 532l-84 -532h-139l70 373q-43 -50 -146 -41l21 129q43 -4 82 19t57 52h139z" />
    <glyph glyph-name="two.dnom" horiz-adv-x="569" 
d="M8 0q12 107 53 167t129 107q7 3 37.5 16.5t44.5 21t28.5 24.5t14.5 37q0 23 -14.5 33t-28.5 10q-23 0 -42.5 -13.5t-20.5 -44.5h-143q11 83 66.5 134t154.5 51q89 0 130.5 -40.5t41.5 -107.5q0 -31 -10.5 -57.5t-23.5 -43.5t-39.5 -36.5t-43 -28.5t-51 -26.5t-47.5 -24.5
q-26 -12 -41 -28.5t-17 -26.5h224l-17 -123h-385z" />
    <glyph glyph-name="three.dnom" horiz-adv-x="575" 
d="M332 283q36 -4 69 -29.5t33 -77.5q0 -78 -62 -131t-175 -53q-83 0 -133.5 52.5t-38.5 121.5h133q-2 -22 9.5 -35t23 -15.5t24.5 -2.5q28 0 52 14t24 49q0 13 -1.5 20t-7.5 16.5t-22.5 14t-42.5 4.5h-22l18 101h23q34 0 49.5 10.5t15.5 38.5q0 41 -51 41q-19 0 -35.5 -11
t-19.5 -36h-127q14 81 66 124.5t140 43.5q75 0 119.5 -35t44.5 -88q0 -58 -32 -92t-74 -45z" />
    <glyph glyph-name="four.dnom" horiz-adv-x="598" 
d="M453 135h-62l-22 -135h-133l22 135h-238l17 109l285 291h133l-47 -291h61zM272 244l23 143l-143 -143h120z" />
    <glyph glyph-name="five.dnom" horiz-adv-x="552" 
d="M276 377q83 0 129 -52.5t33 -136.5q-20 -98 -86 -148t-168 -50q-100 0 -146.5 48t-35.5 126h145q-2 -47 56 -47q70 0 82 71q5 45 -13 63.5t-47 18.5q-33 0 -61 -22h-125l86 287h305l-18 -125h-209l-13 -56q34 23 86 23z" />
    <glyph glyph-name="six.dnom" horiz-adv-x="612" 
d="M311 369q164 0 164 -158q0 -63 -25.5 -109.5t-66 -69t-78.5 -32.5t-74 -10q-222 0 -192 282q19 120 91.5 194.5t182.5 74.5q86 0 127.5 -44.5t38.5 -99.5h-143q-1 9 -11.5 14.5t-18 7t-11.5 1.5q-103 0 -119 -115q13 25 51.5 44.5t83.5 19.5zM248 115q46 0 67 35
q13 22 13 51q0 32 -18.5 46.5t-45.5 14.5q-29 0 -53.5 -22t-24.5 -64q0 -25 12.5 -40t24.5 -18t25 -3z" />
    <glyph glyph-name="seven.dnom" horiz-adv-x="475" 
d="M414 535l-23 -125l-280 -410h-140l287 410h-238l25 125h369z" />
    <glyph glyph-name="eight.dnom" horiz-adv-x="507" 
d="M332 299q69 -42 69 -111q0 -86 -59 -139t-166 -53q-80 0 -131 39.5t-51 109.5q0 106 100 150q-39 31 -39 88q0 60 50 108t135 48q73 0 116 -36.5t43 -90.5q0 -80 -67 -113zM178 389q0 -41 51 -41q45 6 45 49q0 17 -12 28t-31 11q-24 0 -38.5 -15t-14.5 -32zM188 100
q24 0 40.5 8.5t24 21t10.5 23t3 19.5q0 28 -20.5 43.5t-48.5 15.5q-32 0 -53 -19t-21 -50q0 -28 19 -45t46 -17z" />
    <glyph glyph-name="nine.dnom" horiz-adv-x="614" 
d="M215 162q-80 0 -122 39.5t-42 117.5q0 63 25.5 109.5t66 69.5t78.5 33t74 10q62 0 105 -23t62.5 -61.5t26.5 -90t-2 -108.5q-19 -120 -91 -194t-183 -74q-86 0 -127.5 44t-38.5 99h143q1 -11 17.5 -16.5t25.5 -5.5q100 0 117 114q-13 -25 -51.5 -44t-83.5 -19zM279 416
q-53 0 -72 -44q-8 -18 -8 -42q0 -32 18.5 -47t44.5 -15q29 0 54.5 22t25.5 64q0 36 -20 49t-43 13z" />
    <glyph glyph-name="zero.numr" horiz-adv-x="593" 
d="M360 897q118 0 191.5 88t73.5 242q0 103 -52 158t-143 55q-124 0 -193 -96.5t-69 -235.5q0 -100 50.5 -155.5t141.5 -55.5zM416 1311q33 0 49 -28t16 -73q0 -85 -30 -133.5t-80 -48.5q-60 0 -60 96q0 87 28.5 137t76.5 50z" />
    <glyph glyph-name="one.numr" horiz-adv-x="450" 
d="M451 1434l-84 -533h-140l70 373q-43 -50 -145 -41l20 129q43 -4 82 19.5t57 52.5h140z" />
    <glyph glyph-name="two.numr" horiz-adv-x="569" 
d="M152 901q12 107 53 167.5t129 107.5q9 5 30 13.5t34.5 15t29 16.5t23.5 23.5t8 29.5q0 23 -14.5 33t-28.5 10q-23 0 -43 -13t-21 -44h-143q11 83 66.5 133.5t154.5 50.5q89 0 130.5 -40.5t41.5 -107.5q0 -31 -10.5 -57.5t-23.5 -43.5t-39.5 -36.5t-43 -28.5t-51 -26.5
t-47.5 -24.5q-26 -12 -40.5 -28.5t-16.5 -26.5h223l-16 -123h-385z" />
    <glyph glyph-name="three.numr" horiz-adv-x="573" 
d="M473 1184q36 -4 69 -29.5t33 -77.5q0 -78 -62 -131t-175 -53q-83 0 -133.5 52.5t-38.5 121.5h133q-2 -22 9.5 -35t23 -15.5t24.5 -2.5q28 0 52 14t24 49q0 13 -1.5 20t-7.5 17t-22.5 14.5t-42.5 4.5h-22l18 100h23q34 0 49.5 10.5t15.5 38.5q0 41 -51 41q-19 0 -35.5 -11
t-19.5 -36h-127q14 81 66.5 124.5t140.5 43.5q75 0 119.5 -35t44.5 -88q0 -58 -32.5 -92t-74.5 -45z" />
    <glyph glyph-name="four.numr" horiz-adv-x="598" 
d="M596 1036h-61l-23 -135h-133l22 135h-237l16 109l285 291h133l-47 -291h61zM416 1145l22 143l-143 -143h121z" />
    <glyph glyph-name="five.numr" horiz-adv-x="557" 
d="M420 1278q83 0 129 -52t33 -136q-20 -98 -86 -148.5t-168 -50.5q-100 0 -147 48t-36 126h146q-2 -47 55 -47q70 0 82 72q5 45 -12.5 63t-46.5 18q-35 0 -62 -22h-125l86 287h305l-18 -125h-209l-12 -56q35 23 86 23z" />
    <glyph glyph-name="six.numr" horiz-adv-x="612" 
d="M455 1268q163 0 163 -158q0 -63 -25.5 -109.5t-65.5 -69t-78 -32.5t-74 -10q-223 0 -193 282q19 120 91.5 194.5t183.5 74.5q86 0 127.5 -44.5t38.5 -99.5h-144q-1 9 -11.5 14.5t-18 7t-11.5 1.5q-103 0 -119 -115q13 25 52 44.5t84 19.5zM391 1014q46 0 67 35
q13 21 13 51q0 61 -63 61q-29 0 -53.5 -22t-24.5 -64q0 -25 12.5 -40t24 -18t24.5 -3z" />
    <glyph glyph-name="seven.numr" horiz-adv-x="475" 
d="M557 1436l-22 -125l-281 -410h-139l286 410h-237l24 125h369z" />
    <glyph glyph-name="eight.numr" horiz-adv-x="507" 
d="M475 1200q70 -43 70 -110q0 -86 -59.5 -139.5t-166.5 -53.5q-80 0 -131 40t-51 110q0 105 101 149q-39 31 -39 88q0 60 49.5 108t134.5 48q73 0 116.5 -36.5t43.5 -90.5q0 -80 -68 -113zM322 1290q0 -41 51 -41q45 6 45 49q0 17 -12 28t-31 11q-24 0 -38.5 -15t-14.5 -32
zM332 1001q24 0 40.5 8.5t24 21t10.5 23t3 19.5q0 28 -21 44t-49 16q-32 0 -53 -19t-21 -51q0 -28 19.5 -45t46.5 -17z" />
    <glyph glyph-name="nine.numr" horiz-adv-x="614" 
d="M358 1063q-80 0 -121.5 40t-41.5 118q0 63 25.5 109.5t65.5 69t78 32.5t74 10q62 0 105 -23t62.5 -61.5t27 -90t-1.5 -108.5q-19 -120 -91.5 -194t-183.5 -74q-86 0 -127.5 44t-38.5 99h144q1 -11 17.5 -16.5t25.5 -5.5q100 0 117 114q-13 -25 -52 -44t-84 -19zM422 1317
q-53 0 -72 -44q-8 -18 -8 -42q0 -32 19 -47t45 -15q29 0 54 22t25 64q0 36 -20 49t-43 13z" />
    <glyph glyph-name="Aacutecy" horiz-adv-x="1550" 
d="M1362 1821l-281 -262h-338l93 262h526zM977 0l-33 209h-465l-98 -209h-424l758 1434h372l318 -1434h-428zM614 498h285l-72 452z" />
    <glyph glyph-name="Ieacutecy" horiz-adv-x="1243" 
d="M633 1559h338l280 262h-526zM1241 1094h-653l-33 -215h551l-51 -316h-551l-33 -223h674l-53 -340h-1074l228 1434h1052z" />
    <glyph glyph-name="Iiacutecy" horiz-adv-x="1499" 
d="M739 1559h338l281 262h-527zM246 1434h397l-129 -791h6l594 791h395l-227 -1434h-397l121 764h-5l-567 -764h-416z" />
    <glyph glyph-name="Oacutecy" horiz-adv-x="1521" 
d="M764 1559h338l280 262h-526zM889 1452q279 0 438.5 -155t159.5 -425q0 -146 -38.5 -281t-111.5 -245t-174 -192t-232 -127t-278 -45q-277 0 -436.5 154.5t-159.5 422.5q0 186 60 350t166.5 284t263.5 189.5t342 69.5zM707 319q88 0 159 45.5t115 120.5t67 166t23 189
q0 129 -58.5 201.5t-176.5 72.5q-89 0 -160.5 -45t-114.5 -120t-65.5 -165.5t-22.5 -187.5q0 -128 59.5 -202.5t174.5 -74.5z" />
    <glyph glyph-name="Uacutecy" horiz-adv-x="1341" 
d="M664 1559h337l281 262h-526zM961 1434h442l-572 -1002q-115 -202 -218.5 -308t-226.5 -144.5t-302 -22.5l53 350q42 -7 77 -4.5t60 5.5t45 12.5t32 17t22.5 19.5t15 20t10.5 18q1 3 2 4q49 92 7 234l-224 801h437l118 -494z" />
    <glyph glyph-name="Yeruacutecy" horiz-adv-x="1959" 
d="M977 1559h338l280 262h-526zM774 981q261 0 386.5 -109t125.5 -303q0 -275 -171 -422t-476 -147h-621l228 1434h397l-72 -453h203zM1745 0h-397l225 1434h397zM668 334q91 0 142.5 62t51.5 149q0 102 -129 102h-215l-47 -313h197z" />
    <glyph glyph-name="Ereversedacutecy" horiz-adv-x="1454" 
d="M1341 1821l-280 -262h-338l92 262h526zM821 1452q277 0 434.5 -151t157.5 -424q0 -188 -53.5 -351t-152.5 -284t-248 -190.5t-330 -69.5q-97 0 -183.5 21t-159.5 65t-123.5 106t-74.5 150t-14 192h383q21 -119 52.5 -156.5t119.5 -37.5q107 0 185.5 65t123.5 176h-320
l52 316h325q-7 233 -196 233q-96 0 -149.5 -42t-114.5 -146h-394q30 134 99 237.5t162 165.5t199 93.5t220 31.5z" />
    <glyph glyph-name="Iuacutecy" horiz-adv-x="2107" 
d="M1665 1821l-281 -262h-337l92 262h526zM1473 1452q279 0 438.5 -155t159.5 -425q0 -146 -38.5 -281t-111.5 -245t-174 -192t-232 -127t-278 -45q-277 0 -436.5 154.5t-159.5 422.5v4h-135l-88 -563h-398l226 1434h397l-86 -549h135q84 257 290.5 412t490.5 155zM1290 319
q88 0 159.5 45.5t115 120.5t67 166t23.5 189q0 129 -59 201.5t-177 72.5q-89 0 -160.5 -45t-114 -120t-65 -165.5t-22.5 -187.5q0 -129 59 -203t174 -74z" />
    <glyph glyph-name="Iaacutecy" horiz-adv-x="1462" 
d="M1341 1821l-280 -262h-338l92 262h526zM1473 1434l-228 -1434h-397l76 481h-246q-194 0 -227 -221l-5 -29q-12 -87 -26.5 -131t-50.5 -100h-402q40 63 60.5 116.5t27.5 131.5l6 45q17 138 83.5 229t185.5 148q-59 36 -102.5 105t-43.5 179q0 147 80 256.5t219.5 166.5
t319.5 57h670zM741 793h232l49 299h-238q-96 0 -148 -54t-52 -123q0 -60 36 -91t121 -31z" />
    <glyph glyph-name="aacutecy" horiz-adv-x="1206" 
d="M1143 1452l-281 -262h-338l92 262h527zM1032 299q-11 -82 64 -88l-35 -201q-62 -18 -139 -18q-106 0 -179.5 43t-72.5 104q-2 -1 -17 -20t-38 -39.5t-56 -42.5t-84 -36.5t-110 -14.5q-73 0 -135.5 15.5t-114.5 49t-81.5 93t-29.5 139.5q0 313 412 354q22 2 65.5 7t61.5 7
t49.5 6.5t49.5 8t39 9.5t38 13q3 37 -8 61.5t-31 34t-33.5 12.5t-28.5 3q-106 0 -139 -94h-354q38 186 159 278t359 92q142 0 236 -30.5t142 -89.5t62 -145.5t-4 -199.5zM655 336l27 145q-21 -5 -44 -11t-35 -9t-41.5 -8t-76.5 -11q-50 -7 -76 -35.5t-26 -62.5
q0 -90 102 -90q46 0 94.5 27.5t75.5 54.5z" />
    <glyph glyph-name="ieacutecy" horiz-adv-x="1181" 
d="M1145 1452l-281 -262h-338l92 262h527zM647 1075q93 0 172.5 -24.5t144.5 -76.5t102.5 -142t37.5 -211q0 -41 -7.5 -106t-17.5 -101h-694q11 -150 170 -150q58 0 94 20.5t51 47.5h344q-63 -175 -201.5 -260.5t-336.5 -85.5q-65 0 -129.5 15t-127 49.5t-110 84.5
t-77 127.5t-29.5 171.5q0 135 47 254.5t128.5 204t195.5 133.5t243 49zM754 639q6 12 6 43q0 46 -36.5 81.5t-102.5 35.5q-151 0 -207 -160h340z" />
    <glyph glyph-name="iiacutecy" horiz-adv-x="1298" 
d="M586 1190h338l280 262h-526zM166 1065h379l-80 -524h4l412 524h379l-168 -1065h-379l75 498h-4l-391 -498h-395z" />
    <glyph glyph-name="oacutecy" horiz-adv-x="1220" 
d="M526 1190h338l281 262h-527zM662 1075q66 0 130.5 -15t128.5 -49.5t113 -85.5t79 -129.5t30 -174.5q0 -180 -77 -324.5t-219.5 -227.5t-324.5 -83q-67 0 -132 14.5t-129.5 49t-113.5 85.5t-79.5 131.5t-30.5 179.5q0 177 79 320.5t222.5 226t323.5 82.5zM780 596
q0 84 -41.5 129t-107.5 45q-58 0 -104 -29.5t-72.5 -77t-40 -99.5t-13.5 -103q0 -81 41 -125.5t109 -44.5q58 0 104 29.5t72 76t39.5 98t13.5 101.5z" />
    <glyph glyph-name="uacutecy" horiz-adv-x="1236" 
d="M553 1190h338l280 262h-526zM881 1065h389l-611 -1061q-38 -67 -71.5 -118t-70 -96.5t-71 -77.5t-74.5 -58t-82 -41t-92 -23t-105.5 -7.5t-121.5 7.5l49 312q61 -6 110 1t78 19.5t54 36t35.5 40t24.5 42.5q14 30 16 48.5t-8 72.5l-236 903h375l115 -576z" />
    <glyph glyph-name="yeruacutecy" horiz-adv-x="1808" 
d="M840 1190h338l280 262h-526zM743 729q182 0 293 -88.5t111 -237.5q0 -186 -139 -294.5t-355 -108.5h-645l168 1065h379l-53 -336h241zM1391 1065h378l-167 -1065h-379zM674 293q49 0 79.5 23t30.5 59q0 59 -71 59h-254l-25 -141h240z" />
    <glyph glyph-name="ereversedacutecy" horiz-adv-x="1136" 
d="M1122 1452l-280 -262h-338l92 262h526zM604 1075q67 0 130 -14t123.5 -46.5t105.5 -80.5t72.5 -122t27.5 -165q0 -189 -75 -339.5t-214.5 -236t-318.5 -85.5q-63 0 -119 11t-113.5 40t-98 74.5t-66.5 121t-27 173.5h334q-3 -57 19.5 -86t90.5 -29q110 0 170 127h-227
l31 225h243q0 57 -30.5 92t-92.5 35q-134 0 -166 -113h-342q29 100 77 176t101.5 121t119 73t123.5 38t122 10z" />
    <glyph glyph-name="iuacutecy" horiz-adv-x="1763" 
d="M1436 1452l-281 -262h-338l92 262h527zM1204 1075q66 0 131 -15t129 -49.5t113 -85.5t79 -129.5t30 -174.5q0 -180 -77 -324.5t-219.5 -227.5t-324.5 -83q-63 0 -124 12.5t-123 43t-110.5 75t-82.5 114.5t-43 156h-133l-62 -389h-379l168 1065h379l-59 -383h125
q66 180 221 287.5t362 107.5zM1094 291q58 0 104 29.5t72 76t39.5 98t13.5 101.5q0 84 -41.5 129t-107.5 45q-58 0 -104 -29.5t-72.5 -77t-40 -99.5t-13.5 -103q0 -81 41 -125.5t109 -44.5z" />
    <glyph glyph-name="iaacutecy" horiz-adv-x="1232" 
d="M1169 1452l-280 -262h-338l92 262h526zM549 1065h645l-168 -1065h-379l53 336h-208q-65 -11 -76 -90l-10 -84q-3 -26 -6.5 -44.5t-10 -35.5t-10 -25t-14 -28t-15.5 -29h-375q3 7 10 19.5t9.5 17.5t7.5 15.5t7 17t5.5 17.5t6 21t5 24t5.5 30l12 84q7 61 33 106.5t84 77.5
q-105 88 -105 232q0 186 139 294.5t355 108.5zM743 631l25 141h-240q-49 0 -79.5 -23t-30.5 -59q0 -59 71 -59h254z" />
    </font>
</defs>
</svg>
