<?xml version="1.0" standalone="no"?>
<!DOCTYPE svg PUBLIC "-//W3C//DTD SVG 1.1//EN" "http://www.w3.org/Graphics/SVG/1.1/DTD/svg11.dtd" >
<svg xmlns="http://www.w3.org/2000/svg" xmlns:xlink="http://www.w3.org/1999/xlink" version="1.1">
<metadata>
Created by FontForge 20170731 at Mon Aug  7 16:11:16 2023
 By Aleksey,,,
(c) 2018 Connary Fagen
</metadata>
<defs>
<font id="ArticulatCF-Light" horiz-adv-x="1163" >
  <font-face 
    font-family="Articulat CF Light"
    font-weight="300"
    font-stretch="normal"
    units-per-em="2048"
    panose-1="0 0 4 0 0 0 0 0 0 0"
    ascent="1638"
    descent="-410"
    x-height="1065"
    cap-height="1434"
    bbox="-332 -514 2157 1890"
    underline-thickness="102"
    underline-position="-307"
    unicode-range="U+0020-FB02"
  />
<missing-glyph horiz-adv-x="1044" 
d="M856 1638v-2089h-661v2089h661zM696 1499h-346v-69h137v-78h-139v-68h348v68h-139v78h139v69zM557 1229h-209v-217h348v71h-139v146zM487 1157v-74h-69v74h69zM696 954h-348v-67h139v-78h-139v-70h209v148h139v67zM696 829h-69v-137h-279v-71h348v208zM696 575h-209v-116
h70v47h70v-98h-209v167h-70v-235h348v235zM696 213h-348v-236h348v236zM627 145v-98h-209v98h209zM696 -70h-348v-69h148l-148 -99v-69h348v69h-213l146 99h67v69z" />
    <glyph glyph-name="fi" unicode="fi" horiz-adv-x="985" 
d="M186 1198q0 64 14.5 112.5t38 77.5t58.5 47t70 24.5t77 6.5q88 0 156 -22v-92q-61 14 -135 14q-81 0 -119.5 -38t-38.5 -132v-131h279v-100h-279v-965h-121v965h-145v100h145v133zM741 1452h121v-129h-121v129zM741 0v1065h121v-1065h-121z" />
    <glyph glyph-name="fl" unicode="fl" horiz-adv-x="985" 
d="M186 1198q0 64 14.5 112.5t38 77.5t58.5 47t70 24.5t77 6.5q88 0 156 -22v-92q-61 14 -135 14q-81 0 -119.5 -38t-38.5 -132v-131h279v-100h-279v-965h-121v965h-145v100h145v133zM741 1446h121v-1446h-121v1446z" />
    <glyph glyph-name=".notdef" horiz-adv-x="1044" 
d="M856 1638v-2089h-661v2089h661zM696 1499h-346v-69h137v-78h-139v-68h348v68h-139v78h139v69zM557 1229h-209v-217h348v71h-139v146zM487 1157v-74h-69v74h69zM696 954h-348v-67h139v-78h-139v-70h209v148h139v67zM696 829h-69v-137h-279v-71h348v208zM696 575h-209v-116
h70v47h70v-98h-209v167h-70v-235h348v235zM696 213h-348v-236h348v236zM627 145v-98h-209v98h209zM696 -70h-348v-69h148l-148 -99v-69h348v69h-213l146 99h67v69z" />
    <glyph glyph-name=".null" horiz-adv-x="0" 
 />
    <glyph glyph-name="nonmarkingreturn" horiz-adv-x="682" 
 />
    <glyph glyph-name="space" unicode=" " horiz-adv-x="561" 
 />
    <glyph glyph-name="exclam" unicode="!" horiz-adv-x="397" 
d="M258 373h-117l-4 1061h125zM121 168h155v-168h-155v168z" />
    <glyph glyph-name="quotedbl" unicode="&#x22;" horiz-adv-x="518" 
d="M82 965h115v469h-115v-469zM322 965h114v469h-114v-469z" />
    <glyph glyph-name="numbersign" unicode="#" horiz-adv-x="1204" 
d="M1112 932h-227l-43 -430h219v-99h-230l-40 -403h-97l41 403h-332l-41 -403h-96l41 403h-215v99h225l43 430h-217v98h226l41 404h96l-41 -404h332l41 404h96l-41 -404h219v-98zM745 502l43 430h-331l-43 -430h331z" />
    <glyph glyph-name="dollar" unicode="$" horiz-adv-x="1179" 
d="M1090 385q0 -179 -121.5 -287.5t-341.5 -115.5v-166h-70v166q-213 10 -329 124t-138 293h127q10 -61 32.5 -111.5t61.5 -93.5t101.5 -69.5t144.5 -30.5v600l-80 17q-358 76 -358 360q0 160 114 267t324 114v166h70v-168q189 -10 297 -107t127 -253h-121q-47 233 -303 251
v-553l57 -12q96 -20 166.5 -48.5t126.5 -74t84.5 -112.5t28.5 -156zM504 813l53 -10v540q-81 -4 -142.5 -28t-98 -63t-54.5 -84.5t-18 -96.5q0 -203 260 -258zM627 92q164 7 251 86.5t87 206.5q0 66 -22 116t-63 82t-88 51t-108 32l-57 12v-586z" />
    <glyph glyph-name="percent" unicode="%" horiz-adv-x="1472" 
d="M348 834q-112 0 -184 82t-72 223t72.5 223t183.5 82q112 0 184 -82t72 -223t-72 -223t-184 -82zM268 0l842 1436l96 -2l-839 -1434h-99zM348 922q76 0 122 54.5t46 162.5t-46 163.5t-122 55.5q-75 0 -120.5 -55.5t-45.5 -163.5t45 -162.5t121 -54.5zM1124 -10
q-112 0 -184 82t-72 223t72 223t184 82t184 -82t72 -223t-72 -223t-184 -82zM1124 76q75 0 120.5 55.5t45.5 163.5t-45 162.5t-121 54.5t-121 -54.5t-45 -162.5t45.5 -163.5t120.5 -55.5z" />
    <glyph glyph-name="ampersand" unicode="&#x26;" horiz-adv-x="1366" 
d="M1296 0h-139l-151 170q-88 -99 -201.5 -147t-233.5 -48q-110 0 -201.5 32t-152 86.5t-94 126t-33.5 151.5q0 73 21.5 133t68.5 112t105.5 95.5t148.5 95.5q-89 98 -141.5 184t-52.5 174q0 132 84.5 214.5t242.5 82.5q149 0 234.5 -82.5t85.5 -208.5q0 -113 -61.5 -196.5
t-235.5 -188.5l399 -444q90 164 96 391h113q-14 -289 -131 -479zM567 1368q-103 0 -163 -55.5t-60 -151.5q0 -48 29.5 -105t62 -97t88.5 -101l4 2q137 79 196.5 146.5t59.5 158.5q0 92 -60 147.5t-157 55.5zM571 84q101 0 194 43t165 129l-430 479q-140 -83 -211.5 -167.5
t-71.5 -192.5q0 -128 98 -209.5t256 -81.5z" />
    <glyph glyph-name="quotesingle" unicode="'" horiz-adv-x="278" 
d="M82 965h115v469h-115v-469z" />
    <glyph glyph-name="parenleft" unicode="(" horiz-adv-x="495" 
d="M309 1526h111q-207 -377 -207 -871q0 -523 207 -921h-111q-217 388 -217 921q0 507 217 871z" />
    <glyph glyph-name="parenright" unicode=")" horiz-adv-x="495" 
d="M203 1526q217 -364 217 -871q0 -533 -217 -921h-111q207 398 207 921q0 494 -207 871h111z" />
    <glyph glyph-name="asterisk" unicode="*" horiz-adv-x="921" 
d="M768 1169l-231 -63l149 -197l-90 -59l-135 197l-135 -197l-88 59l149 197l-233 63l26 103l234 -72l-6 242h104l-2 -242l233 72zM514 1114l-16 68h-74l-16 -66l53 -47z" />
    <glyph glyph-name="plus" unicode="+" horiz-adv-x="1013" 
d="M922 633v-111h-359v-360h-114v360h-357v111h357v358h114v-358h359z" />
    <glyph glyph-name="comma" unicode="," horiz-adv-x="360" 
d="M102 -283v43q39 24 52.5 62.5t13.5 116.5v61h-66v168h156v-242q0 -201 -156 -209z" />
    <glyph glyph-name="hyphen" unicode="-" horiz-adv-x="706" 
d="M82 625h543v-99h-543v99z" />
    <glyph glyph-name="period" unicode="." horiz-adv-x="360" 
d="M102 168h156v-168h-156v168z" />
    <glyph glyph-name="slash" unicode="/" horiz-adv-x="796" 
d="M735 1434l-555 -1434h-119l555 1434h119z" />
    <glyph glyph-name="zero" unicode="0" horiz-adv-x="1282" 
d="M641 1452q244 0 396.5 -194.5t152.5 -540.5q0 -347 -152 -541t-397 -194t-398 194t-153 541q0 174 41.5 314t115 231.5t174.5 140.5t220 49zM1069 717q0 295 -115.5 462t-312.5 167t-313.5 -167t-116.5 -462t116.5 -461t313.5 -166t312.5 166t115.5 461z" />
    <glyph glyph-name="one" unicode="1" horiz-adv-x="600" 
d="M449 1434v-1434h-121v1257q-37 -44 -102 -78.5t-146 -37.5v102q90 7 159 63t89 128h121z" />
    <glyph glyph-name="two" unicode="2" horiz-adv-x="1091" 
d="M82 0v49q0 186 95 313.5t331 276.5q163 102 218 148q118 98 136 217q4 24 4 49q0 130 -90 210t-235 80q-147 0 -235.5 -86t-88.5 -245v-33h-119v33q0 198 119 317t324 119q203 0 324.5 -112t121.5 -283q0 -58 -13 -107.5t-42 -93.5t-59 -77.5t-83 -73t-93.5 -66
t-110.5 -68.5q-91 -55 -154 -101.5t-116 -101.5t-79 -115t-26 -128v-17h788v-104h-917z" />
    <glyph glyph-name="three" unicode="3" horiz-adv-x="1161" 
d="M752 778q65 -12 121.5 -40.5t103.5 -73.5t74.5 -112.5t27.5 -148.5q0 -192 -139 -310t-369 -118q-231 0 -364 131t-135 347h114q5 -169 108.5 -269t274.5 -100q172 0 280.5 87t108.5 235q0 151 -110 235t-305 84h-45v90h45q91 0 158.5 23t105.5 62.5t56 85.5t18 99
q0 116 -88 188.5t-230 72.5q-146 0 -234.5 -89.5t-88.5 -267.5h-115q0 224 117 343.5t321 119.5q198 0 316 -104t118 -258q0 -110 -62.5 -193t-182.5 -119z" />
    <glyph glyph-name="four" unicode="4" horiz-adv-x="1103" 
d="M1032 395h-164v-395h-120v395h-676v103l676 936h120v-936h164v-103zM748 498v778l-562 -778h562z" />
    <glyph glyph-name="five" unicode="5" horiz-adv-x="1155" 
d="M610 967q95 0 179.5 -34t148 -95.5t100.5 -155.5t37 -207q0 -228 -134 -361.5t-359 -133.5q-224 0 -354.5 125t-135.5 321h111q5 -153 107.5 -248.5t271.5 -95.5q168 0 271 103.5t103 289.5q0 182 -103.5 287.5t-260.5 105.5q-110 0 -192 -41t-150 -125h-117l111 732h710
v-99h-628l-80 -528q56 73 151.5 116.5t212.5 43.5z" />
    <glyph glyph-name="six" unicode="6" horiz-adv-x="1175" 
d="M627 956q200 0 329 -131.5t129 -347.5q0 -224 -133 -359.5t-350 -135.5q-244 0 -373 179.5t-129 524.5q0 124 13.5 229.5t49.5 207t93 172.5t148.5 114t211.5 43q98 0 178.5 -30t131 -80t80 -111.5t34.5 -128.5h-106q-15 106 -97 180t-221 74q-409 0 -401 -664
q43 127 150 195.5t262 68.5zM602 84q168 0 267.5 107t99.5 286q0 178 -98.5 283.5t-266.5 105.5q-155 0 -261.5 -101.5t-106.5 -250.5q0 -188 98.5 -309t267.5 -121z" />
    <glyph glyph-name="seven" unicode="7" horiz-adv-x="978" 
d="M907 1434v-103q-420 -654 -520 -1331h-123q109 685 527 1331h-730v103h846z" />
    <glyph glyph-name="eight" unicode="8" horiz-adv-x="1155" 
d="M780 801q135 -48 214 -146.5t79 -242.5q0 -198 -139.5 -315t-355.5 -117q-217 0 -357.5 117t-140.5 315q0 143 79.5 242t215.5 147q-95 41 -153 121t-58 184q0 146 111 244t303 98t302.5 -98t110.5 -244q0 -104 -58 -184t-153 -121zM578 1356q-145 0 -225.5 -70.5
t-80.5 -185.5q0 -119 83.5 -190.5t222.5 -71.5t222 71.5t83 190.5q0 115 -80 185.5t-225 70.5zM578 82q169 0 272.5 90t103.5 244q0 151 -102 241.5t-274 90.5t-274.5 -90.5t-102.5 -241.5q0 -154 103.5 -244t273.5 -90z" />
    <glyph glyph-name="nine" unicode="9" horiz-adv-x="1165" 
d="M539 477q-200 0 -329.5 131.5t-129.5 347.5q0 224 133 360t350 136q244 0 373 -179.5t129 -524.5q0 -124 -13.5 -229.5t-49.5 -207t-93 -172.5t-148.5 -114t-211.5 -43q-98 0 -178.5 30t-131 80t-80 111.5t-34.5 128.5h106q15 -106 97 -180t221 -74q409 0 401 663
q-43 -127 -149.5 -195.5t-261.5 -68.5zM563 1350q-168 0 -267 -107.5t-99 -286.5q0 -178 98 -283.5t266 -105.5q155 0 261 102t106 251q0 188 -98 309t-267 121z" />
    <glyph glyph-name="colon" unicode=":" horiz-adv-x="442" 
d="M143 1063h156v-168h-156v168zM143 168h156v-168h-156v168z" />
    <glyph glyph-name="semicolon" unicode=";" horiz-adv-x="442" 
d="M143 1063h156v-168h-156v168zM143 -283v43q39 24 52.5 62.5t13.5 116.5v61h-66v168h156v-242q0 -201 -156 -209z" />
    <glyph glyph-name="less" unicode="&#x3c;" horiz-adv-x="1038" 
d="M946 123l-749 369l749 370v123l-854 -432v-123l854 -430v123z" />
    <glyph glyph-name="equal" unicode="=" horiz-adv-x="923" 
d="M82 788h588v-98h-588v98zM82 461h588v-99h-588v99z" />
    <glyph glyph-name="greater" unicode="&#x3e;" horiz-adv-x="1038" 
d="M92 123v-123l854 430v123l-854 432v-123l750 -370z" />
    <glyph glyph-name="question" unicode="?" horiz-adv-x="1046" 
d="M524 1448q-196 0 -314.5 -118t-117.5 -329h121q0 166 86 252t225 86q140 0 225 -70t85 -204q0 -55 -20.5 -100t-53 -77t-72 -61.5t-79.5 -61.5t-72.5 -70t-53 -94t-20.5 -126v-96h127v96q0 60 20 108t52 81t71 62.5t78 60.5t71 67t52 90t20 121q0 181 -119 282t-311 101z
M451 168h155v-168h-155v168z" />
    <glyph glyph-name="at" unicode="@" horiz-adv-x="1585" 
d="M1251 160q-190 -174 -458 -174q-136 0 -262 51t-224.5 142.5t-157.5 230t-59 301.5q0 135 38.5 253.5t105.5 205.5t156 150.5t192 95.5t211 32q137 0 264.5 -53t224.5 -146.5t155 -232.5t58 -301q0 -183 -74.5 -284t-181.5 -101q-95 0 -149 58.5t-62 156.5
q-31 -105 -106 -161t-164 -56q-60 0 -116 23t-103.5 67.5t-76 120.5t-28.5 172q0 91 29 163.5t76 115.5t103 65t114 22q87 0 161 -55t91 -141v176h86v-439q0 -95 37.5 -148.5t107.5 -53.5q76 0 122 78t46 221q0 144 -50 266.5t-134.5 204t-196 127t-233.5 45.5
q-120 0 -229 -43t-195 -123t-137.5 -204.5t-51.5 -276.5q0 -118 34 -221.5t93 -178t137 -128.5t167 -80.5t182 -26.5q211 0 358 119zM760 416q98 0 166.5 79.5t68.5 215.5q0 130 -68 204t-167 74q-94 0 -166 -72t-72 -206q0 -74 21.5 -132t56.5 -92.5t76 -52.5t84 -18z" />
    <glyph glyph-name="A" unicode="A" horiz-adv-x="1378" 
d="M1184 0l-156 397h-678l-155 -397h-136l576 1434h108l576 -1434h-135zM389 498h600l-299 766z" />
    <glyph glyph-name="B" unicode="B" horiz-adv-x="1253" 
d="M831 784q156 -40 239 -138.5t83 -246.5q0 -190 -126.5 -294.5t-379.5 -104.5h-526v1434h522q212 0 317 -93t105 -251q0 -110 -58.5 -191t-175.5 -115zM248 1325v-500h411q127 0 202 70.5t75 189.5q0 107 -68.5 173.5t-218.5 66.5h-401zM651 111q190 0 280.5 79t90.5 218
q0 143 -99 229t-288 86h-387v-612h403z" />
    <glyph glyph-name="C" unicode="C" horiz-adv-x="1316" 
d="M715 94q158 0 262.5 64t148.5 176h129q-45 -166 -190 -259t-352 -93q-135 0 -247 46t-196.5 135t-132 230.5t-47.5 323.5t47.5 323.5t132 230.5t196.5 135t247 46q206 0 349 -93t187 -259h-129q-43 112 -145.5 175.5t-259.5 63.5q-108 0 -197.5 -38t-156.5 -113
t-104.5 -195.5t-37.5 -275.5t37.5 -275t104.5 -195.5t156.5 -114t197.5 -38.5z" />
    <glyph glyph-name="D" unicode="D" horiz-adv-x="1325" 
d="M547 1434q345 0 521.5 -185t176.5 -532t-176.5 -532t-521.5 -185h-426v1434h426zM539 113q296 0 438.5 150t142.5 454q0 306 -142 455t-439 149h-291v-1208h291z" />
    <glyph glyph-name="E" unicode="E" horiz-adv-x="1107" 
d="M248 113h799v-113h-926v1434h905v-113h-778v-528h676v-105h-676v-575z" />
    <glyph glyph-name="F" unicode="F" horiz-adv-x="1083" 
d="M1022 1321h-774v-551h633v-104h-633v-666h-127v1434h901v-113z" />
    <glyph glyph-name="G" unicode="G" horiz-adv-x="1398" 
d="M1298 717v-76q0 -324 -147.5 -491.5t-433.5 -167.5q-138 0 -251 45.5t-197.5 134.5t-131.5 230.5t-47 324.5q0 182 46.5 323.5t131 230.5t197 135t248.5 46q200 0 335 -87t183 -243h-129q-96 217 -387 217q-226 0 -361 -157.5t-135 -464.5q0 -156 37 -276.5t104.5 -195.5
t157.5 -113t199 -38q228 0 346 130t119 388h-391v105h507z" />
    <glyph glyph-name="H" unicode="H" horiz-adv-x="1310" 
d="M1063 1434h127v-1434h-127v645h-815v-645h-127v1434h127v-682h815v682z" />
    <glyph glyph-name="I" unicode="I" horiz-adv-x="368" 
d="M248 0h-127v1434h127v-1434z" />
    <glyph glyph-name="J" unicode="J" horiz-adv-x="1007" 
d="M121 242q117 -144 319 -144q68 0 124 20t104 64t75 124t27 190v938h125v-942q0 -109 -25 -196t-67 -144.5t-101.5 -95t-124.5 -54t-139 -16.5q-253 0 -389 180z" />
    <glyph glyph-name="K" unicode="K" horiz-adv-x="1271" 
d="M1081 0l-608 674l-225 -244v-430h-127v1434h127v-832l774 832h154l-619 -670l674 -764h-150z" />
    <glyph glyph-name="L" unicode="L" horiz-adv-x="1075" 
d="M248 113h756v-113h-883v1434h127v-1321z" />
    <glyph glyph-name="M" unicode="M" horiz-adv-x="1685" 
d="M121 1434h135l586 -1280l588 1280h133v-1434h-125v1184h-4l-537 -1184h-111l-534 1184h-4v-1184h-127v1434z" />
    <glyph glyph-name="N" unicode="N" horiz-adv-x="1335" 
d="M1212 1434v-1434h-147l-813 1245h-4v-1245h-127v1434h145l817 -1248h4v1248h125z" />
    <glyph glyph-name="O" unicode="O" horiz-adv-x="1447" 
d="M725 1452q139 0 254 -46.5t200 -136t132 -230.5t47 -322t-47 -322t-132 -230.5t-200 -136t-254 -46.5q-140 0 -255 46.5t-200.5 136t-132.5 230.5t-47 322t47 322t132.5 230.5t200.5 136t255 46.5zM725 94q232 0 368 157t136 466t-136 465.5t-368 156.5
q-233 0 -369.5 -156.5t-136.5 -465.5t136.5 -466t369.5 -157z" />
    <glyph glyph-name="P" unicode="P" horiz-adv-x="1187" 
d="M618 1434q242 0 371 -118.5t129 -334.5q0 -214 -129 -332.5t-371 -118.5h-370v-530h-127v1434h497zM623 643q177 0 270.5 87.5t93.5 250.5q0 166 -93.5 253t-270.5 87h-375v-678h375z" />
    <glyph glyph-name="Q" unicode="Q" horiz-adv-x="1476" 
d="M1384 51l-75 -74l-158 160q-165 -155 -426 -155q-140 0 -255 46.5t-200.5 136t-132.5 230.5t-47 322t47 322t132.5 230.5t200.5 136t255 46.5q139 0 254 -46.5t200 -136t132 -230.5t47 -322q0 -315 -137 -500zM725 94q213 0 342 129l-279 281l76 74l269 -273
q96 157 96 412q0 309 -136 465.5t-368 156.5q-233 0 -369.5 -156.5t-136.5 -465.5t136.5 -466t369.5 -157z" />
    <glyph glyph-name="R" unicode="R" horiz-adv-x="1247" 
d="M1137 240q0 -190 41 -240h-127q-41 50 -41 240v120q0 246 -275 246h-487v-606h-127v1434h545q235 0 355 -106t120 -296q0 -131 -62 -224.5t-178 -139.5q124 -29 180 -102.5t56 -205.5v-120zM702 711q140 0 226 82t86 229q0 301 -348 301h-418v-612h454z" />
    <glyph glyph-name="S" unicode="S" horiz-adv-x="1220" 
d="M707 776q100 -20 173 -48.5t131 -74t87.5 -112.5t29.5 -156q0 -186 -134.5 -294.5t-377.5 -108.5q-124 0 -221 32t-159.5 89.5t-98.5 131.5t-47 164h131q55 -307 395 -307q186 0 284.5 80t98.5 213q0 66 -23 116t-65.5 82t-91.5 51t-112 32l-215 45q-373 76 -373 360
q0 165 125.5 273t357.5 108q217 0 341 -98.5t147 -263.5h-127q-23 112 -109 182.5t-252 70.5q-175 0 -263.5 -79t-88.5 -193q0 -204 270 -258z" />
    <glyph glyph-name="T" unicode="T" horiz-adv-x="1173" 
d="M1114 1434v-113h-465v-1321h-125v1321h-465v113h1055z" />
    <glyph glyph-name="U" unicode="U" horiz-adv-x="1320" 
d="M1200 541q0 -261 -145.5 -410t-395.5 -149t-394 148.5t-144 410.5v893h127v-887q0 -214 108.5 -333.5t302.5 -119.5t304 120t110 333v887h127v-893z" />
    <glyph glyph-name="V" unicode="V" horiz-adv-x="1357" 
d="M1174 1434h135l-576 -1434h-108l-576 1434h135l496 -1264z" />
    <glyph glyph-name="W" unicode="W" horiz-adv-x="2023" 
d="M1833 1434h131l-418 -1434h-121l-413 1262l-414 -1262h-121l-418 1434h131l355 -1250l399 1250h135l400 -1250z" />
    <glyph glyph-name="X" unicode="X" horiz-adv-x="1296" 
d="M1245 0h-141l-455 641l-456 -641h-144l529 741l-494 693h141l422 -594l422 594h143l-493 -695z" />
    <glyph glyph-name="Y" unicode="Y" horiz-adv-x="1300" 
d="M715 571v-571h-127v571l-529 863h142l450 -740l449 740h141z" />
    <glyph glyph-name="Z" unicode="Z" horiz-adv-x="1239" 
d="M1157 113v-113h-1075v109l924 1212h-887v113h1030l-2 -109l-922 -1212h932z" />
    <glyph glyph-name="bracketleft" unicode="[" horiz-adv-x="544" 
d="M242 1419v-1579h182v-106h-303v1792h303v-107h-182z" />
    <glyph glyph-name="backslash" unicode="\" horiz-adv-x="796" 
d="M61 1434h119l555 -1434h-119z" />
    <glyph glyph-name="bracketright" unicode="]" horiz-adv-x="544" 
d="M303 1419h-182v107h303v-1792h-303v106h182v1579z" />
    <glyph glyph-name="asciicircum" unicode="^" horiz-adv-x="968" 
d="M772 952l-287 400l-288 -400h-105l348 482h88l349 -482h-105z" />
    <glyph glyph-name="underscore" unicode="_" horiz-adv-x="1208" 
d="M92 0h1024v-109h-1024v109z" />
    <glyph glyph-name="grave" unicode="`" horiz-adv-x="317" 
d="M317 1190l-184 262h-135l213 -262h106z" />
    <glyph glyph-name="a" unicode="a" horiz-adv-x="1077" 
d="M948 154q0 -42 18 -59.5t62 -14.5v-80q-24 -8 -53 -8q-72 0 -104.5 32t-32.5 113v99q-12 -25 -31 -52.5t-56.5 -64.5t-82.5 -65t-112 -48t-142 -20q-155 0 -249.5 82t-94.5 231q0 131 87 206.5t281 104.5q310 43 389 82v19q0 147 -67 207.5t-219 60.5q-257 0 -287 -172
h-115q17 133 122 200.5t282 67.5q207 0 306 -91t99 -302v-528zM827 342v268q-26 -15 -93 -31.5t-121 -26t-160 -26.5q-145 -21 -204 -74.5t-59 -150.5q0 -102 66 -161.5t180 -59.5q70 0 132.5 22t104 52t76 69.5t51 67t27.5 51.5z" />
    <glyph glyph-name="b" unicode="b" horiz-adv-x="1165" 
d="M623 1075q91 0 174 -33.5t150.5 -97.5t108 -170.5t40.5 -241.5q0 -136 -40 -243t-108 -171.5t-151.5 -98t-175.5 -33.5q-129 0 -226.5 64t-152.5 181v-231h-121v1446h121v-600q55 111 155.5 170t225.5 59zM604 90q74 0 140 27t118.5 79t83.5 139t31 197t-31 196
t-83.5 138t-118.5 78.5t-140 26.5t-138.5 -26t-116.5 -77t-82.5 -137.5t-30.5 -198.5q0 -108 30.5 -194.5t82.5 -139.5t117 -80.5t138 -27.5z" />
    <glyph glyph-name="c" unicode="c" horiz-adv-x="1056" 
d="M561 88q123 0 202 52.5t120 162.5h112q-32 -112 -98.5 -185t-149.5 -102.5t-186 -29.5q-75 0 -145.5 20t-133.5 63.5t-110 106.5t-74.5 154t-27.5 200t27.5 200t74 154t109 106.5t133 64t145.5 20.5q102 0 184 -29.5t148 -100.5t98 -181h-112q-83 209 -318 209
q-74 0 -140 -27t-118.5 -80t-83.5 -139.5t-31 -196.5q0 -111 31 -198t84.5 -139t119.5 -78.5t140 -26.5z" />
    <glyph glyph-name="d" unicode="d" horiz-adv-x="1165" 
d="M543 1075q125 0 225.5 -59t155.5 -170v600h120v-1446h-120v231q-55 -117 -152.5 -181t-226.5 -64q-92 0 -175.5 33.5t-151.5 98t-108 171.5t-40 243q0 135 40.5 241.5t108 170.5t150.5 97.5t174 33.5zM561 90q73 0 138 27.5t117.5 80.5t83 139.5t30.5 194.5
q0 112 -30.5 198.5t-83 137.5t-117 77t-138.5 26t-140 -26.5t-118.5 -78.5t-83.5 -138t-31 -196t31 -197t83.5 -139t118.5 -79t140 -27z" />
    <glyph glyph-name="e" unicode="e" horiz-adv-x="1091" 
d="M1020 535q0 -34 -2 -52h-828q10 -203 111 -302t266 -99q105 0 174 30t125 105h117q-68 -123 -169 -177t-253 -54q-103 0 -191.5 34.5t-156 100t-105.5 171t-38 238.5q0 134 40 240t108.5 171.5t154 99.5t182.5 34q98 0 181 -33.5t147 -99t100.5 -170t36.5 -237.5z
M190 573h715q-3 196 -98.5 301t-251.5 105q-72 0 -134.5 -25t-113 -74t-81.5 -127.5t-36 -179.5z" />
    <glyph glyph-name="f" unicode="f" horiz-adv-x="641" 
d="M465 1366q-81 0 -119.5 -38t-38.5 -132v-131h279v-100h-279v-965h-121v965h-145v100h145v133q0 64 14.5 112.5t38 77.5t58.5 47t70 24.5t77 6.5q88 0 156 -22v-92q-61 14 -135 14z" />
    <glyph glyph-name="g" unicode="g" 
d="M922 1065h120v-1067q0 -103 -28.5 -183.5t-74.5 -129.5t-110 -80.5t-128 -43.5t-136 -12q-145 0 -259.5 52.5t-168.5 144.5l80 51q106 -143 340 -143q365 0 365 344v233q-53 -116 -151 -179.5t-226 -63.5q-92 0 -175.5 33.5t-151.5 98t-108 171t-40 241.5t40.5 241.5
t108 170.5t150.5 97.5t174 33.5q125 0 224.5 -59t154.5 -170v219zM559 90q73 0 138 27.5t117.5 80.5t83 139.5t30.5 194.5q0 112 -30.5 198.5t-83 138.5t-117.5 78t-138 26t-138.5 -26.5t-118 -79t-83.5 -139t-31 -196.5t31 -197t83.5 -139t118 -79t138.5 -27z" />
    <glyph glyph-name="h" unicode="h" horiz-adv-x="1132" 
d="M633 1075q83 0 149 -22t119 -70t82 -134t29 -204v-645h-121v643q0 177 -75.5 252.5t-217.5 75.5q-63 0 -118.5 -21t-94 -53t-69.5 -73.5t-48 -79.5t-26 -74v-670h-121v1446h121v-641q7 26 25 58.5t52.5 70.5t77.5 69t105.5 51.5t130.5 20.5z" />
    <glyph glyph-name="i" unicode="i" horiz-adv-x="364" 
d="M121 1452h121v-129h-121v129zM121 1065h121v-1065h-121v1065z" />
    <glyph glyph-name="j" unicode="j" horiz-adv-x="401" 
d="M158 1452h121v-129h-121v129zM-141 -301q87 -41 164 -41q68 0 101.5 44t33.5 122v1241h121v-1245q0 -271 -236 -271q-111 0 -184 48v102z" />
    <glyph glyph-name="k" unicode="k" horiz-adv-x="1075" 
d="M903 0l-457 522l-204 -211v-311h-121v1446h121v-989l589 608h146l-453 -463l523 -602h-144z" />
    <glyph glyph-name="l" unicode="l" horiz-adv-x="364" 
d="M121 1446h121v-1446h-121v1446z" />
    <glyph glyph-name="m" unicode="m" horiz-adv-x="1837" 
d="M1352 1075q79 0 142 -22.5t113.5 -71t78.5 -133.5t28 -201v-647h-121v641q0 176 -70 253t-200 77q-62 0 -118 -21t-96.5 -55.5t-70 -77t-44.5 -86t-15 -82.5v-649h-121v641q0 330 -270 330q-75 0 -139.5 -31.5t-105.5 -80t-66.5 -98t-34.5 -95.5v-666h-121v1065h121v-260
q7 26 24.5 58.5t50.5 70.5t74.5 69t100.5 51.5t124 20.5q130 0 222 -63.5t125 -204.5q17 46 50.5 91.5t81 86t115 65.5t142.5 25z" />
    <glyph glyph-name="n" unicode="n" horiz-adv-x="1132" 
d="M633 1075q83 0 149 -22t119 -70t82 -134t29 -204v-645h-121v643q0 177 -75.5 252.5t-217.5 75.5q-63 0 -118.5 -21t-94 -53t-69.5 -73.5t-48 -79.5t-26 -74v-670h-121v1065h121v-260q7 26 25 58.5t52.5 70.5t77.5 69t105.5 51.5t130.5 20.5z" />
    <glyph glyph-name="o" unicode="o" horiz-adv-x="1107" 
d="M555 1075q91 0 175.5 -34t154 -99t111.5 -171.5t42 -238.5q0 -135 -42 -242t-111.5 -171.5t-154 -98.5t-175.5 -34q-92 0 -176.5 33.5t-154.5 98.5t-112 172t-42 242q0 132 42 238.5t111.5 171.5t154.5 99t177 34zM920 532q0 109 -30.5 195t-82.5 138t-116 79t-136 27
t-136.5 -27t-116.5 -79t-83 -138t-31 -195q0 -110 31 -197t83 -139t116.5 -79t136.5 -27t136 27t116 79t82.5 139t30.5 197z" />
    <glyph glyph-name="p" unicode="p" horiz-adv-x="1165" 
d="M623 1075q71 0 138.5 -20t128.5 -64t106.5 -106.5t72.5 -153.5t27 -199q0 -135 -40.5 -242.5t-108.5 -172t-151 -98t-175 -33.5q-130 0 -227.5 64.5t-151.5 185.5v-625h-121v1454h121v-221q55 112 155.5 171.5t225.5 59.5zM604 90q74 0 140 26.5t118.5 78.5t83.5 139
t31 198q0 110 -31 196.5t-83.5 138t-118.5 78t-140 26.5t-138.5 -26t-116.5 -77t-82.5 -137.5t-30.5 -198.5q0 -108 30.5 -194.5t82.5 -139.5t117 -80.5t138 -27.5z" />
    <glyph glyph-name="q" unicode="q" horiz-adv-x="1165" 
d="M543 1075q125 0 225.5 -59.5t155.5 -171.5v221h120v-1454h-120v625q-54 -121 -151.5 -185.5t-227.5 -64.5q-92 0 -175 33.5t-151 98t-108.5 172t-40.5 242.5q0 108 27 199t72.5 153.5t106.5 106.5t128.5 64t138.5 20zM561 90q73 0 138 27.5t117.5 80.5t83 139.5
t30.5 194.5q0 112 -30.5 198.5t-83 137.5t-117 77t-138.5 26t-140 -26.5t-118.5 -78t-83.5 -138t-31 -196.5q0 -111 31 -198t83.5 -139t118.5 -78.5t140 -26.5z" />
    <glyph glyph-name="r" unicode="r" horiz-adv-x="751" 
d="M623 1075q42 0 69 -4v-108q-27 2 -61 2q-160 0 -259.5 -86t-129.5 -238v-641h-121v1065h121v-272q27 119 127.5 200.5t253.5 81.5z" />
    <glyph glyph-name="s" unicode="s" horiz-adv-x="964" 
d="M768 809q-59 170 -287 170q-126 0 -197 -53.5t-71 -134.5q0 -74 48.5 -117.5t160.5 -69.5l166 -39q68 -16 110.5 -29.5t86 -35t67 -49t38.5 -68.5t15 -96q0 -78 -34.5 -138t-93.5 -94.5t-131 -51.5t-154 -17q-115 0 -205.5 32t-152.5 104t-75 179h115q25 -115 110.5 -166
t207.5 -51q126 0 209 51.5t83 151.5q0 36 -10.5 63.5t-26.5 45.5t-45.5 32.5t-57.5 23t-73 19.5l-192 47q-139 33 -210 99.5t-71 173.5q0 131 105 207.5t278 76.5q156 0 262 -68t138 -198h-113z" />
    <glyph glyph-name="t" unicode="t" horiz-adv-x="612" 
d="M426 90q54 0 117 14v-96q-64 -20 -158 -20q-184 0 -184 174v803h-162v100h162v266h121v-266h204v-100h-204v-791q0 -44 23 -64t81 -20z" />
    <glyph glyph-name="u" unicode="u" horiz-adv-x="1122" 
d="M881 1065h120v-1065h-120v258q-7 -26 -25 -58.5t-52.5 -71t-78 -69.5t-106 -52t-130.5 -21q-83 0 -149 22.5t-118.5 71t-81.5 134t-29 204.5v647h120v-645q0 -177 75.5 -253.5t217.5 -76.5q77 0 143.5 31t108.5 79.5t68.5 97.5t36.5 95v672z" />
    <glyph glyph-name="v" unicode="v" horiz-adv-x="1093" 
d="M616 0h-139l-428 1065h121l377 -950l377 950h120z" />
    <glyph glyph-name="w" unicode="w" horiz-adv-x="1638" 
d="M1587 1065l-321 -1065h-119l-328 913l-332 -913h-116l-322 1065h123l268 -918l328 918h100l328 -918l268 918h123z" />
    <glyph glyph-name="x" unicode="x" horiz-adv-x="1040" 
d="M979 0h-137l-322 455l-321 -455h-140l396 545l-377 520h137l305 -426l305 426h138l-377 -520z" />
    <glyph glyph-name="y" unicode="y" horiz-adv-x="1069" 
d="M893 1065h125l-465 -1169q-65 -163 -160.5 -229t-228.5 -48v107q201 -28 282 184q20 53 23 71.5t-6 49.5l-414 1034h127l359 -936z" />
    <glyph glyph-name="z" unicode="z" horiz-adv-x="1011" 
d="M225 104h705v-104h-848v104l704 857h-684v104h828v-104z" />
    <glyph glyph-name="braceleft" unicode="{" horiz-adv-x="540" 
d="M305 766l-84 -139l84 -135v-580q0 -32 20 -52t52 -20h72v-106h-107q-68 0 -113 44.5t-45 117.5v585l-92 146l92 149v588q0 73 45.5 117.5t112.5 44.5h107v-107h-72q-32 0 -52 -19.5t-20 -51.5v-582z" />
    <glyph glyph-name="bar" unicode="|" horiz-adv-x="415" 
d="M154 1638h108v-2027h-108v2027z" />
    <glyph glyph-name="braceright" unicode="}" horiz-adv-x="540" 
d="M236 766v582q0 32 -20 51.5t-52 19.5h-72v107h107q66 0 111.5 -44.5t45.5 -117.5v-588l93 -149l-93 -146v-585q0 -73 -44.5 -117.5t-112.5 -44.5h-107v106h72q32 0 52 20t20 52v580l83 135z" />
    <glyph glyph-name="asciitilde" unicode="~" horiz-adv-x="919" 
d="M748 670h69q0 -91 -58.5 -144t-140.5 -53q-41 0 -78.5 16t-66 38.5t-56 45t-60 38.5t-66.5 16q-60 0 -90.5 -32.5t-28.5 -70.5h-70q0 93 58 146t141 53q41 0 78.5 -16t66.5 -38.5t56 -45t60 -38.5t67 -16q59 0 90 32t29 69z" />
    <glyph glyph-name="exclamdown" unicode="&#xa1;" horiz-adv-x="342" 
d="M121 897v168h155v-168h-155zM258 692l4 -1061h-125l4 1061h117z" />
    <glyph glyph-name="cent" unicode="&#xa2;" horiz-adv-x="1056" 
d="M995 451q-45 -157 -154.5 -232t-260.5 -80v-221h-66v223q-70 6 -134 29.5t-121 68t-98.5 105t-66 145.5t-24.5 185q0 125 37 225t99.5 164t141 100t166.5 43v228h66v-226q149 -5 256.5 -79t152.5 -226h-112q-81 196 -297 205v-868q115 3 189 54.5t114 156.5h112zM186 674
q0 -100 26.5 -180.5t72.5 -132t104 -81.5t125 -38v864q-141 -16 -234.5 -127t-93.5 -305z" />
    <glyph glyph-name="sterling" unicode="&#xa3;" horiz-adv-x="1081" 
d="M989 983h-115v37q0 154 -90.5 236.5t-230.5 82.5q-139 0 -227 -76t-88 -212q0 -47 13 -100t27.5 -87t41.5 -93t38 -85h293v-82h-262q17 -60 17 -108q0 -207 -189 -408q76 28 155.5 32.5t149.5 -5.5t140 -21t151 -9.5t158 24.5v-109q-69 -19 -144.5 -21.5t-137.5 7
t-132 19.5t-130.5 16.5t-131 -3t-135.5 -38.5l-66 90q196 214 193 417q0 52 -21 117h-174v82h141q-4 8 -29.5 61t-33.5 73.5t-24 65.5t-21.5 85t-5.5 84q0 178 121 285.5t313 107.5q189 0 312.5 -116t123.5 -312v-37z" />
    <glyph glyph-name="currency" unicode="&#xa4;" horiz-adv-x="1132" 
d="M1024 975q0 -151 -92 -277l94 -94l-82 -82l-94 94q-124 -100 -285 -100q-159 0 -284 98l-93 -92l-82 82l93 92q-93 127 -93 279q0 154 95 280l-95 95l82 80l95 -95q127 99 282 99q158 0 285 -99l94 95l82 -80l-96 -97q94 -124 94 -278zM211 975q0 -143 104 -248.5
t250 -105.5t251.5 106t105.5 248q0 141 -105.5 247.5t-251.5 106.5t-250 -106.5t-104 -247.5z" />
    <glyph glyph-name="yen" unicode="&#xa5;" horiz-adv-x="1300" 
d="M715 571v-4h278v-80h-278v-120h278v-80h-278v-287h-127v287h-279v80h279v120h-279v80h279v4l-529 863h142l450 -740l449 740h141z" />
    <glyph glyph-name="brokenbar" unicode="&#xa6;" horiz-adv-x="415" 
d="M154 1638h108v-573h-108v573zM154 184h108v-573h-108v573z" />
    <glyph glyph-name="section" unicode="&#xa7;" horiz-adv-x="1263" 
d="M1161 375q0 -149 -88 -246q68 -90 68 -221q0 -185 -134 -288t-382 -103q-244 0 -372 109t-151 296h129q12 -65 36 -115t68.5 -92.5t117.5 -65t172 -22.5q196 0 291.5 74.5t95.5 206.5q0 231 -293 291l-213 45q-181 37 -275 130t-94 240q0 150 96 246q-75 90 -75 221
q0 164 121.5 266.5t351.5 102.5q222 0 339 -92t140 -258h-127q-9 53 -30 94t-60 75t-105 52t-157 18q-177 0 -259.5 -72t-82.5 -186q0 -211 266 -266l182 -37q100 -21 173.5 -51.5t132 -77t88.5 -115.5t30 -159zM717 311q170 -38 264 -98q51 63 51 162q0 231 -293 291
l-213 45q-122 25 -196 71q-62 -68 -62 -168q0 -211 267 -266z" />
    <glyph glyph-name="dieresis" unicode="&#xa8;" horiz-adv-x="552" 
d="M0 1452h129v-172h-129v172zM424 1452h129v-172h-129v172z" />
    <glyph glyph-name="copyright" unicode="&#xa9;" horiz-adv-x="1644" 
d="M821 -14q-200 0 -367 93.5t-265.5 261.5t-98.5 376q0 155 58 291.5t156.5 232t233 150.5t283.5 55t283.5 -55t233 -150.5t156.5 -232t58 -291.5q0 -208 -98.5 -376t-265.5 -261.5t-367 -93.5zM821 70q178 0 326 82t235.5 231t87.5 334q0 138 -51.5 259.5t-138.5 206
t-206.5 133t-252.5 48.5q-177 0 -324.5 -82t-235 -231.5t-87.5 -333.5q0 -139 51 -260.5t138.5 -205.5t206.5 -132.5t251 -48.5zM819 362q203 0 273 162h92q-42 -127 -138.5 -186t-226.5 -59q-81 0 -154.5 29.5t-131.5 83.5t-92.5 138.5t-34.5 186.5t34.5 186.5t92.5 138.5
t131.5 83.5t154.5 29.5q127 0 223 -59.5t140 -184.5h-95q-71 158 -268 158q-135 0 -228 -93t-93 -259t93 -260.5t228 -94.5z" />
    <glyph glyph-name="ordfeminine" unicode="&#xaa;" horiz-adv-x="712" 
d="M618 971q0 -113 44 -180h-91q-35 44 -41 116q-40 -55 -95 -88t-146 -33q-93 0 -156 52t-63 149q0 88 62 133.5t167 53.5l223 16q-2 88 -39.5 129t-126.5 41q-82 0 -121.5 -23t-52.5 -69h-86q14 86 79.5 132t182.5 46q143 0 201.5 -71.5t58.5 -229.5v-174zM313 874
q46 0 84.5 13.5t63 35t39 40.5t22.5 38v117q-20 -4 -55 -8t-85 -7.5t-77 -6.5q-139 -13 -139 -109q0 -55 38.5 -84t108.5 -29z" />
    <glyph glyph-name="guillemotleft" unicode="&#xab;" horiz-adv-x="784" 
d="M367 782l-195 -170l195 -172v-125l-285 248v96l285 248v-125zM702 782l-196 -170l196 -172v-125l-284 248v94l284 250v-125z" />
    <glyph glyph-name="logicalnot" unicode="&#xac;" horiz-adv-x="983" 
d="M891 639v-344h-121v244h-678v100h799z" />
    <glyph glyph-name="uni00AD" unicode="&#xad;" horiz-adv-x="706" 
d="M82 625h543v-99h-543v99z" />
    <glyph glyph-name="registered" unicode="&#xae;" horiz-adv-x="1644" 
d="M821 -14q-200 0 -367 93.5t-265.5 261.5t-98.5 376q0 155 58 291.5t156.5 232t233 150.5t283.5 55t283.5 -55t233 -150.5t156.5 -232t58 -291.5q0 -208 -98.5 -376t-265.5 -261.5t-367 -93.5zM821 70q178 0 326 82t235.5 231t87.5 334q0 138 -51.5 259.5t-138.5 206
t-206.5 133t-252.5 48.5q-177 0 -324.5 -82t-235 -231.5t-87.5 -333.5q0 -139 51 -260.5t138.5 -205.5t206.5 -132.5t251 -48.5zM1112 449q0 -112 25 -140h-86q-21 28 -21 142v63q0 42 -12 70t-35 41t-46 17.5t-54 4.5h-260v-338h-84v815h307q268 0 268 -229
q0 -154 -139 -207q72 -15 104.5 -56.5t32.5 -117.5v-65zM864 719q79 0 123.5 44t44.5 130q0 82 -45 121t-141 39h-223v-334h241z" />
    <glyph glyph-name="macron" unicode="&#xaf;" horiz-adv-x="593" 
d="M0 1452h594v-82h-594v82z" />
    <glyph glyph-name="degree" unicode="&#xb0;" horiz-adv-x="784" 
d="M391 874q-124 0 -211.5 87.5t-87.5 212.5q0 124 87 211.5t212 87.5q126 0 213.5 -87t87.5 -212t-87.5 -212.5t-213.5 -87.5zM391 971q87 0 145 59t58 144t-58 142.5t-145 57.5q-86 0 -143.5 -57.5t-57.5 -142.5t57.5 -144t143.5 -59z" />
    <glyph glyph-name="plusminus" unicode="&#xb1;" horiz-adv-x="1013" 
d="M563 741h359v-110h-359v-361h-114v361h-357v110h357v359h114v-359zM193 -39v98h587v-98h-587z" />
    <glyph glyph-name="uni00B2" unicode="&#xb2;" horiz-adv-x="512" 
d="M82 901v19q0 73 36 128t118 109q47 29 66 43t34.5 38t15.5 56q0 42 -28 68.5t-76 26.5q-50 0 -78.5 -28.5t-28.5 -80.5v-12h-59v12q0 74 45 119t121 45q75 0 119.5 -42.5t44.5 -107.5q0 -58 -36.5 -97.5t-111.5 -86.5q-121 -71 -121 -149v-7h277v-53h-338z" />
    <glyph glyph-name="uni00B3" unicode="&#xb3;" horiz-adv-x="534" 
d="M332 1186q49 -11 85 -44.5t36 -92.5q0 -68 -49.5 -112t-141.5 -44q-89 0 -139.5 47.5t-50.5 126.5h57q1 -61 37 -92t98 -31q58 0 94.5 28t36.5 81q0 51 -38.5 77.5t-104.5 26.5h-23v47h23q58 0 89.5 27.5t31.5 68.5q0 42 -29.5 67.5t-81.5 25.5q-55 0 -86 -30t-31 -87
h-55q0 79 46 123.5t126 44.5q79 0 122.5 -40t43.5 -101q0 -43 -27 -74.5t-69 -42.5z" />
    <glyph glyph-name="acute" unicode="&#xb4;" horiz-adv-x="319" 
d="M0 1190h106l213 262h-135z" />
    <glyph glyph-name="uni00B5" unicode="&#xb5;" horiz-adv-x="1122" 
d="M881 1065h120v-1065h-120v258q-7 -26 -25 -58.5t-52.5 -71t-78 -69.5t-106 -52t-130.5 -21q-161 0 -258 84v-459h-120v1454h120v-645q0 -177 75.5 -253.5t217.5 -76.5q77 0 143.5 31t108.5 79.5t68.5 97.5t36.5 95v672z" />
    <glyph glyph-name="paragraph" unicode="&#xb6;" horiz-adv-x="1144" 
d="M1024 1434v-1885h-102v1797h-174v-1797h-109v1086h-156q-192 0 -302.5 110t-110.5 287q0 180 110.5 291t302.5 111h541z" />
    <glyph glyph-name="periodcentered" unicode="&#xb7;" horiz-adv-x="360" 
d="M102 670h156v-168h-156v168z" />
    <glyph glyph-name="cedilla" unicode="&#xb8;" horiz-adv-x="294" 
d="M106 -109q72 11 130.5 -29t58.5 -116q0 -182 -287 -182v61q187 6 187 117q0 59 -48.5 80t-113.5 -10l-33 49l92 141h117z" />
    <glyph glyph-name="uni00B9" unicode="&#xb9;" horiz-adv-x="327" 
d="M246 1436v-535h-58v455q-29 -53 -106 -47v53q35 0 65 22.5t41 51.5h58z" />
    <glyph glyph-name="ordmasculine" unicode="&#xba;" horiz-adv-x="772" 
d="M385 1450q59 0 114.5 -22t100.5 -62.5t72.5 -105.5t27.5 -144t-27.5 -144.5t-72.5 -106.5t-100.5 -63t-114.5 -22q-58 0 -113.5 22t-101 63t-73 106.5t-27.5 144.5t27.5 144t73 105.5t101 62.5t113.5 22zM602 1116q0 115 -64 179.5t-153 64.5t-152 -64.5t-63 -179.5
t63 -179.5t152 -64.5t153 64.5t64 179.5z" />
    <glyph glyph-name="guillemotright" unicode="&#xbb;" horiz-adv-x="745" 
d="M53 782v125l285 -250v-94l-285 -248v125l197 172zM389 782v125l285 -248v-96l-285 -248v125l195 172z" />
    <glyph glyph-name="onequarter" unicode="&#xbc;" horiz-adv-x="1202" 
d="M246 1436v-535h-58v455q-29 -53 -106 -47v53q35 0 65 22.5t41 51.5h58zM174 0h-72l895 1434h70zM1100 135h-62v-135h-55v135h-246v47l246 353h55v-353h62v-47zM983 182v275l-190 -275h190z" />
    <glyph glyph-name="onehalf" unicode="&#xbd;" horiz-adv-x="1181" 
d="M244 1436v-535h-58v455q-29 -53 -106 -47v53q35 0 65 22.5t41 51.5h58zM188 0h-71l895 1434h69zM754 0v18q0 73 35.5 128.5t117.5 109.5q37 23 51.5 33t34 27.5t25.5 35t6 41.5q0 42 -27.5 68t-76.5 26q-50 0 -78.5 -28t-28.5 -80v-12h-59v12q0 74 45 119t121 45
q75 0 119 -42.5t44 -107.5q0 -58 -36 -98t-111 -86q-121 -71 -121 -150v-6h277v-53h-338z" />
    <glyph glyph-name="threequarters" unicode="&#xbe;" horiz-adv-x="1298" 
d="M350 1186q49 -11 85 -44.5t36 -92.5q0 -68 -49.5 -112t-140.5 -44q-90 0 -140.5 47.5t-50.5 126.5h57q1 -61 37.5 -92t98.5 -31q58 0 94.5 28t36.5 81q0 51 -38.5 77.5t-105.5 26.5h-22v47h22q58 0 89.5 27.5t31.5 68.5q0 42 -29 67.5t-81 25.5q-55 0 -86 -30t-31 -87
h-55q0 79 46 123.5t126 44.5q79 0 122 -40t43 -101q0 -43 -27 -74.5t-69 -42.5zM287 0h-72l895 1434h70zM1143 135h-62v-135h-55v135h-246v47l246 353h55v-353h62v-47zM1026 182v275l-190 -275h190z" />
    <glyph glyph-name="questiondown" unicode="&#xbf;" horiz-adv-x="1046" 
d="M596 897h-156v168h156v-168zM522 -383q196 0 314.5 117.5t117.5 328.5h-120q0 -166 -86.5 -251.5t-225.5 -85.5q-140 0 -224.5 70t-84.5 204q0 55 20.5 100t53 77t72 61.5t79.5 61.5t72.5 70t53 94t20.5 126v96h-127v-96q0 -60 -20 -108t-52.5 -81t-71 -62.5t-77.5 -60.5
t-71.5 -67t-52.5 -90t-20 -121q0 -181 119 -282t311 -101z" />
    <glyph glyph-name="Agrave" unicode="&#xc0;" horiz-adv-x="1378" 
d="M782 1559h-106l-213 262h135zM1184 0l-156 397h-678l-155 -397h-136l576 1434h108l576 -1434h-135zM389 498h600l-299 766z" />
    <glyph glyph-name="Aacute" unicode="&#xc1;" horiz-adv-x="1378" 
d="M911 1821l-213 -262h-106l184 262h135zM1184 0l-156 397h-678l-155 -397h-136l576 1434h108l576 -1434h-135zM389 498h600l-299 766z" />
    <glyph glyph-name="Acircumflex" unicode="&#xc2;" horiz-adv-x="1378" 
d="M690 1751l-198 -188h-101l197 258h203l196 -258h-100zM1184 0l-156 397h-678l-155 -397h-136l576 1434h108l576 -1434h-135zM389 498h600l-299 766z" />
    <glyph glyph-name="Atilde" unicode="&#xc3;" horiz-adv-x="1378" 
d="M526 1761q-58 0 -86 -30t-26 -66h-68q0 88 55.5 137t135.5 49q47 0 91 -22.5t72.5 -49t67.5 -49t78 -22.5q58 0 87.5 29t27.5 65h65q0 -87 -54.5 -136.5t-135.5 -49.5q-39 0 -74.5 15t-62 36t-52.5 42.5t-57 36.5t-64 15zM1184 0l-156 397h-678l-155 -397h-136l576 1434
h108l576 -1434h-135zM389 498h600l-299 766z" />
    <glyph glyph-name="Adieresis" unicode="&#xc4;" horiz-adv-x="1378" 
d="M543 1821v-172h-129v172h129zM967 1821v-172h-129v172h129zM1184 0l-156 397h-678l-155 -397h-136l576 1434h108l576 -1434h-135zM389 498h600l-299 766z" />
    <glyph glyph-name="Aring" unicode="&#xc5;" horiz-adv-x="1378" 
d="M692 1559q-71 0 -120.5 48.5t-49.5 116.5t49.5 117t120.5 49t120.5 -49t49.5 -117t-49.5 -116.5t-120.5 -48.5zM692 1825q-42 0 -72 -29.5t-30 -71.5q0 -43 29.5 -71.5t72.5 -28.5t72 28.5t29 71.5q0 42 -29.5 71.5t-71.5 29.5zM1184 0l-156 397h-678l-155 -397h-136
l576 1434h108l576 -1434h-135zM389 498h600l-299 766z" />
    <glyph glyph-name="AE" unicode="&#xc6;" horiz-adv-x="2029" 
d="M1167 113h799v-113h-926v397h-577l-270 -397h-134l981 1434h906v-113h-779v-528h676v-105h-676v-575zM535 502h505v739z" />
    <glyph glyph-name="Ccedilla" unicode="&#xc7;" horiz-adv-x="1316" 
d="M1255 334q-44 -159 -177.5 -251t-327.5 -101l-84 -91q72 11 130 -29t58 -116q0 -182 -287 -182v61q187 6 187 117q0 59 -49 80t-113 -10l-33 49l82 125q-121 12 -221 63t-174 140.5t-115 224t-41 303.5q0 182 47.5 323.5t132 230.5t196.5 135t247 46q206 0 349 -93
t187 -259h-129q-43 112 -145.5 175.5t-259.5 63.5q-108 0 -197.5 -38t-156.5 -113t-104.5 -195.5t-37.5 -275.5t37.5 -275t104.5 -195.5t156.5 -114t197.5 -38.5q158 0 262.5 64t148.5 176h129z" />
    <glyph glyph-name="Egrave" unicode="&#xc8;" horiz-adv-x="1107" 
d="M653 1559h-106l-213 262h135zM248 113h799v-113h-926v1434h905v-113h-778v-528h676v-105h-676v-575z" />
    <glyph glyph-name="Eacute" unicode="&#xc9;" horiz-adv-x="1107" 
d="M782 1821l-213 -262h-106l184 262h135zM248 113h799v-113h-926v1434h905v-113h-778v-528h676v-105h-676v-575z" />
    <glyph glyph-name="Ecircumflex" unicode="&#xca;" horiz-adv-x="1107" 
d="M561 1751l-199 -188h-100l197 258h203l196 -258h-100zM248 113h799v-113h-926v1434h905v-113h-778v-528h676v-105h-676v-575z" />
    <glyph glyph-name="Edieresis" unicode="&#xcb;" horiz-adv-x="1107" 
d="M414 1821v-172h-129v172h129zM838 1821v-172h-129v172h129zM248 113h799v-113h-926v1434h905v-113h-778v-528h676v-105h-676v-575z" />
    <glyph glyph-name="Igrave" unicode="&#xcc;" horiz-adv-x="368" 
d="M276 1559l-184 262h-135l213 -262h106zM248 0h-127v1434h127v-1434z" />
    <glyph glyph-name="Iacute" unicode="&#xcd;" horiz-adv-x="368" 
d="M86 1559h107l213 262h-136zM248 0h-127v1434h127v-1434z" />
    <glyph glyph-name="Icircumflex" unicode="&#xce;" horiz-adv-x="368" 
d="M381 1563l-197 188l-198 -188h-101l197 258h203l196 -258h-100zM248 0h-127v1434h127v-1434z" />
    <glyph glyph-name="Idieresis" unicode="&#xcf;" horiz-adv-x="368" 
d="M-92 1821h129v-172h-129v172zM332 1821h129v-172h-129v172zM248 0h-127v1434h127v-1434z" />
    <glyph glyph-name="Eth" unicode="&#xd0;" horiz-adv-x="1366" 
d="M588 1434q345 0 521.5 -185t176.5 -532t-176.5 -532t-521.5 -185h-426v666h-121v98h121v670h426zM580 113q296 0 438.5 150t142.5 454q0 306 -142 455t-439 149h-291v-557h295v-98h-295v-553h291z" />
    <glyph glyph-name="Ntilde" unicode="&#xd1;" horiz-adv-x="1335" 
d="M938 1802h66q0 -87 -55 -136.5t-136 -49.5q-39 0 -74 15t-62 36t-52.5 42.5t-56.5 36.5t-64 15q-58 0 -86.5 -30t-26.5 -66h-67q0 88 55 137t135 49q47 0 91 -22.5t72.5 -49t67.5 -49t78 -22.5q58 0 87.5 29t27.5 65zM1212 1434v-1434h-147l-813 1245h-4v-1245h-127v1434
h145l817 -1248h4v1248h125z" />
    <glyph glyph-name="Ograve" unicode="&#xd2;" horiz-adv-x="1447" 
d="M817 1559l-184 262h-135l213 -262h106zM725 1452q139 0 254 -46.5t200 -136t132 -230.5t47 -322t-47 -322t-132 -230.5t-200 -136t-254 -46.5q-140 0 -255 46.5t-200.5 136t-132.5 230.5t-47 322t47 322t132.5 230.5t200.5 136t255 46.5zM725 94q232 0 368 157t136 466
t-136 465.5t-368 156.5q-233 0 -369.5 -156.5t-136.5 -465.5t136.5 -466t369.5 -157z" />
    <glyph glyph-name="Oacute" unicode="&#xd3;" horiz-adv-x="1447" 
d="M627 1559h106l213 262h-135zM725 1452q139 0 254 -46.5t200 -136t132 -230.5t47 -322t-47 -322t-132 -230.5t-200 -136t-254 -46.5q-140 0 -255 46.5t-200.5 136t-132.5 230.5t-47 322t47 322t132.5 230.5t200.5 136t255 46.5zM725 94q232 0 368 157t136 466t-136 465.5
t-368 156.5q-233 0 -369.5 -156.5t-136.5 -465.5t136.5 -466t369.5 -157z" />
    <glyph glyph-name="Ocircumflex" unicode="&#xd4;" horiz-adv-x="1447" 
d="M922 1563l-197 188l-199 -188h-100l197 258h202l197 -258h-100zM725 1452q139 0 254 -46.5t200 -136t132 -230.5t47 -322t-47 -322t-132 -230.5t-200 -136t-254 -46.5q-140 0 -255 46.5t-200.5 136t-132.5 230.5t-47 322t47 322t132.5 230.5t200.5 136t255 46.5zM725 94
q232 0 368 157t136 466t-136 465.5t-368 156.5q-233 0 -369.5 -156.5t-136.5 -465.5t136.5 -466t369.5 -157z" />
    <glyph glyph-name="Otilde" unicode="&#xd5;" horiz-adv-x="1447" 
d="M995 1802h66q0 -87 -55 -136.5t-136 -49.5q-39 0 -74 15t-62 36t-52.5 42.5t-56.5 36.5t-64 15q-58 0 -86 -30t-26 -66h-68q0 88 55 137t135 49q39 0 74.5 -14.5t62.5 -35.5t53 -42.5t57 -36t63 -14.5q58 0 87 29t27 65zM725 1452q139 0 254 -46.5t200 -136t132 -230.5
t47 -322t-47 -322t-132 -230.5t-200 -136t-254 -46.5q-140 0 -255 46.5t-200.5 136t-132.5 230.5t-47 322t47 322t132.5 230.5t200.5 136t255 46.5zM725 94q232 0 368 157t136 466t-136 465.5t-368 156.5q-233 0 -369.5 -156.5t-136.5 -465.5t136.5 -466t369.5 -157z" />
    <glyph glyph-name="Odieresis" unicode="&#xd6;" horiz-adv-x="1447" 
d="M449 1821h129v-172h-129v172zM872 1821h129v-172h-129v172zM725 1452q139 0 254 -46.5t200 -136t132 -230.5t47 -322t-47 -322t-132 -230.5t-200 -136t-254 -46.5q-140 0 -255 46.5t-200.5 136t-132.5 230.5t-47 322t47 322t132.5 230.5t200.5 136t255 46.5zM725 94
q232 0 368 157t136 466t-136 465.5t-368 156.5q-233 0 -369.5 -156.5t-136.5 -465.5t136.5 -466t369.5 -157z" />
    <glyph glyph-name="multiply" unicode="&#xd7;" horiz-adv-x="849" 
d="M760 788l-254 -253l254 -254l-80 -78l-252 254l-256 -256l-80 82l254 254l-252 251l78 80l254 -252l252 252z" />
    <glyph glyph-name="Oslash" unicode="&#xd8;" horiz-adv-x="1447" 
d="M1071 1360q136 -87 211.5 -250t75.5 -393q0 -181 -47 -322t-132 -230.5t-200 -136t-254 -46.5q-164 0 -285 59l-67 -143h-129l96 202q-120 90 -185 246t-65 371q0 181 47 322t132.5 230.5t200.5 136t255 46.5q130 0 242 -41l55 115h129zM219 717q0 -346 174 -506
l525 1096q-82 32 -193 32q-233 0 -369.5 -156.5t-136.5 -465.5zM725 94q232 0 368 157t136 466q0 381 -209 534l-528 -1106q99 -51 233 -51z" />
    <glyph glyph-name="Ugrave" unicode="&#xd9;" horiz-adv-x="1320" 
d="M752 1559l-185 262h-135l213 -262h107zM1200 541q0 -261 -145.5 -410t-395.5 -149t-394 148.5t-144 410.5v893h127v-887q0 -214 108.5 -333.5t302.5 -119.5t304 120t110 333v887h127v-893z" />
    <glyph glyph-name="Uacute" unicode="&#xda;" horiz-adv-x="1320" 
d="M561 1559h107l213 262h-136zM1200 541q0 -261 -145.5 -410t-395.5 -149t-394 148.5t-144 410.5v893h127v-887q0 -214 108.5 -333.5t302.5 -119.5t304 120t110 333v887h127v-893z" />
    <glyph glyph-name="Ucircumflex" unicode="&#xdb;" horiz-adv-x="1320" 
d="M856 1563l-197 188l-198 -188h-101l197 258h203l196 -258h-100zM1200 541q0 -261 -145.5 -410t-395.5 -149t-394 148.5t-144 410.5v893h127v-887q0 -214 108.5 -333.5t302.5 -119.5t304 120t110 333v887h127v-893z" />
    <glyph glyph-name="Udieresis" unicode="&#xdc;" horiz-adv-x="1320" 
d="M383 1821h129v-172h-129v172zM807 1821h129v-172h-129v172zM1200 541q0 -261 -145.5 -410t-395.5 -149t-394 148.5t-144 410.5v893h127v-887q0 -214 108.5 -333.5t302.5 -119.5t304 120t110 333v887h127v-893z" />
    <glyph glyph-name="Yacute" unicode="&#xdd;" horiz-adv-x="1300" 
d="M553 1559h106l213 262h-135zM715 571v-571h-127v571l-529 863h142l450 -740l449 740h141z" />
    <glyph glyph-name="Thorn" unicode="&#xde;" horiz-adv-x="1193" 
d="M604 1157q247 0 383.5 -116.5t136.5 -319.5q0 -215 -134.5 -325.5t-385.5 -110.5h-362v-285h-121v1434h121v-277h362zM608 393q193 0 294.5 81t101.5 247q0 155 -104 242.5t-292 87.5h-366v-658h366z" />
    <glyph glyph-name="germandbls" unicode="&#xdf;" horiz-adv-x="1187" 
d="M770 786q153 -33 234 -132t81 -240q0 -414 -530 -414h-143v109h143q410 0 410 309q0 150 -110 230.5t-302 80.5h-141v100h141q165 0 244.5 59.5t79.5 194.5q0 117 -83 180.5t-235 63.5q-168 0 -242.5 -64.5t-74.5 -207.5v-1055h-121v1055q0 189 107 284t329 95
q207 0 323.5 -90.5t116.5 -258.5q0 -245 -227 -299z" />
    <glyph glyph-name="agrave" unicode="&#xe0;" horiz-adv-x="1077" 
d="M627 1190h-107l-213 262h135zM948 154q0 -42 18 -59.5t62 -14.5v-80q-24 -8 -53 -8q-72 0 -104.5 32t-32.5 113v99q-12 -25 -31 -52.5t-56.5 -64.5t-82.5 -65t-112 -48t-142 -20q-155 0 -249.5 82t-94.5 231q0 131 87 206.5t281 104.5q310 43 389 82v19q0 147 -67 207.5
t-219 60.5q-257 0 -287 -172h-115q17 133 122 200.5t282 67.5q207 0 306 -91t99 -302v-528zM827 342v268q-26 -15 -93 -31.5t-121 -26t-160 -26.5q-145 -21 -204 -74.5t-59 -150.5q0 -102 66 -161.5t180 -59.5q70 0 132.5 22t104 52t76 69.5t51 67t27.5 51.5z" />
    <glyph glyph-name="aacute" unicode="&#xe1;" horiz-adv-x="1077" 
d="M756 1452l-213 -262h-107l185 262h135zM948 154q0 -42 18 -59.5t62 -14.5v-80q-24 -8 -53 -8q-72 0 -104.5 32t-32.5 113v99q-12 -25 -31 -52.5t-56.5 -64.5t-82.5 -65t-112 -48t-142 -20q-155 0 -249.5 82t-94.5 231q0 131 87 206.5t281 104.5q310 43 389 82v19
q0 147 -67 207.5t-219 60.5q-257 0 -287 -172h-115q17 133 122 200.5t282 67.5q207 0 306 -91t99 -302v-528zM827 342v268q-26 -15 -93 -31.5t-121 -26t-160 -26.5q-145 -21 -204 -74.5t-59 -150.5q0 -102 66 -161.5t180 -59.5q70 0 132.5 22t104 52t76 69.5t51 67
t27.5 51.5z" />
    <glyph glyph-name="acircumflex" unicode="&#xe2;" horiz-adv-x="1077" 
d="M535 1382l-199 -188h-100l196 258h203l196 -258h-100zM948 154q0 -42 18 -59.5t62 -14.5v-80q-24 -8 -53 -8q-72 0 -104.5 32t-32.5 113v99q-12 -25 -31 -52.5t-56.5 -64.5t-82.5 -65t-112 -48t-142 -20q-155 0 -249.5 82t-94.5 231q0 131 87 206.5t281 104.5
q310 43 389 82v19q0 147 -67 207.5t-219 60.5q-257 0 -287 -172h-115q17 133 122 200.5t282 67.5q207 0 306 -91t99 -302v-528zM827 342v268q-26 -15 -93 -31.5t-121 -26t-160 -26.5q-145 -21 -204 -74.5t-59 -150.5q0 -102 66 -161.5t180 -59.5q70 0 132.5 22t104 52
t76 69.5t51 67t27.5 51.5z" />
    <glyph glyph-name="atilde" unicode="&#xe3;" horiz-adv-x="1077" 
d="M371 1393q-58 0 -86.5 -30.5t-26.5 -66.5h-68q0 88 55.5 137.5t135.5 49.5q47 0 91 -22.5t72.5 -49.5t67.5 -49.5t78 -22.5q58 0 87.5 29.5t27.5 65.5h65q0 -87 -55 -137t-135 -50q-47 0 -91 23t-72 50t-67.5 50t-78.5 23zM948 154q0 -42 18 -59.5t62 -14.5v-80
q-24 -8 -53 -8q-72 0 -104.5 32t-32.5 113v99q-12 -25 -31 -52.5t-56.5 -64.5t-82.5 -65t-112 -48t-142 -20q-155 0 -249.5 82t-94.5 231q0 131 87 206.5t281 104.5q310 43 389 82v19q0 147 -67 207.5t-219 60.5q-257 0 -287 -172h-115q17 133 122 200.5t282 67.5
q207 0 306 -91t99 -302v-528zM827 342v268q-26 -15 -93 -31.5t-121 -26t-160 -26.5q-145 -21 -204 -74.5t-59 -150.5q0 -102 66 -161.5t180 -59.5q70 0 132.5 22t104 52t76 69.5t51 67t27.5 51.5z" />
    <glyph glyph-name="adieresis" unicode="&#xe4;" horiz-adv-x="1077" 
d="M387 1452v-172h-129v172h129zM811 1452v-172h-129v172h129zM948 154q0 -42 18 -59.5t62 -14.5v-80q-24 -8 -53 -8q-72 0 -104.5 32t-32.5 113v99q-12 -25 -31 -52.5t-56.5 -64.5t-82.5 -65t-112 -48t-142 -20q-155 0 -249.5 82t-94.5 231q0 131 87 206.5t281 104.5
q310 43 389 82v19q0 147 -67 207.5t-219 60.5q-257 0 -287 -172h-115q17 133 122 200.5t282 67.5q207 0 306 -91t99 -302v-528zM827 342v268q-26 -15 -93 -31.5t-121 -26t-160 -26.5q-145 -21 -204 -74.5t-59 -150.5q0 -102 66 -161.5t180 -59.5q70 0 132.5 22t104 52
t76 69.5t51 67t27.5 51.5z" />
    <glyph glyph-name="aring" unicode="&#xe5;" horiz-adv-x="1077" 
d="M537 1190q-71 0 -120.5 49t-49.5 117t49.5 117t120.5 49t120.5 -49t49.5 -117t-49.5 -117t-120.5 -49zM537 1456q-43 0 -73 -29.5t-30 -70.5q0 -43 30 -72t73 -29t71.5 29t28.5 72q0 42 -29 71t-71 29zM948 154q0 -42 18 -59.5t62 -14.5v-80q-24 -8 -53 -8
q-72 0 -104.5 32t-32.5 113v99q-12 -25 -31 -52.5t-56.5 -64.5t-82.5 -65t-112 -48t-142 -20q-155 0 -249.5 82t-94.5 231q0 131 87 206.5t281 104.5q310 43 389 82v19q0 147 -67 207.5t-219 60.5q-257 0 -287 -172h-115q17 133 122 200.5t282 67.5q207 0 306 -91t99 -302
v-528zM827 342v268q-26 -15 -93 -31.5t-121 -26t-160 -26.5q-145 -21 -204 -74.5t-59 -150.5q0 -102 66 -161.5t180 -59.5q70 0 132.5 22t104 52t76 69.5t51 67t27.5 51.5z" />
    <glyph glyph-name="ae" unicode="&#xe6;" horiz-adv-x="1851" 
d="M1780 535q0 -34 -2 -52h-828q10 -203 111 -302t266 -99q105 0 174 30t125 105h117q-68 -123 -169 -177t-253 -54q-151 0 -268 72t-176 210q-65 -122 -183.5 -202t-279.5 -80q-154 0 -249 81t-95 224q0 135 89 212t279 103q11 2 53.5 7.5t63.5 8t60.5 8.5t64.5 11t55.5 12
t53 15t38.5 16v27q0 147 -67.5 207.5t-220.5 60.5q-131 0 -201 -44t-84 -122h-115q17 128 123 195t279 67q154 0 248 -48.5t133 -156.5q66 100 169.5 152.5t223.5 52.5q98 0 181 -33.5t147 -99t100.5 -170t36.5 -237.5zM950 573h715q-3 196 -98.5 301t-251.5 105
q-72 0 -134.5 -25t-113 -74t-81.5 -127.5t-36 -179.5zM827 336v262q-26 -15 -95 -31t-127 -25t-167 -24q-132 -22 -190 -75.5t-58 -149.5t67 -154.5t179 -58.5q70 0 132.5 21t104 51t76 68t51.5 65.5t27 50.5z" />
    <glyph glyph-name="ccedilla" unicode="&#xe7;" horiz-adv-x="1056" 
d="M995 303q-42 -153 -144 -229t-243 -86l-88 -97q72 11 130.5 -29t58.5 -116q0 -182 -287 -182v61q186 6 186 117q0 59 -49 80t-113 -10l-32 49l84 129q-86 10 -161.5 48t-136 103t-95.5 165t-35 224q0 109 27.5 200t74 154t109 106.5t133 64t145.5 20.5q102 0 184 -29.5
t148 -100.5t98 -181h-112q-83 209 -318 209q-74 0 -140 -27t-118.5 -80t-83.5 -139.5t-31 -196.5q0 -111 31 -198t84.5 -139t119.5 -78.5t140 -26.5q123 0 202 52.5t120 162.5h112z" />
    <glyph glyph-name="egrave" unicode="&#xe8;" horiz-adv-x="1091" 
d="M643 1190h-106l-213 262h135zM1020 535q0 -34 -2 -52h-828q10 -203 111 -302t266 -99q105 0 174 30t125 105h117q-68 -123 -169 -177t-253 -54q-103 0 -191.5 34.5t-156 100t-105.5 171t-38 238.5q0 134 40 240t108.5 171.5t154 99.5t182.5 34q98 0 181 -33.5t147 -99
t100.5 -170t36.5 -237.5zM190 573h715q-3 196 -98.5 301t-251.5 105q-72 0 -134.5 -25t-113 -74t-81.5 -127.5t-36 -179.5z" />
    <glyph glyph-name="eacute" unicode="&#xe9;" horiz-adv-x="1091" 
d="M772 1452l-213 -262h-106l184 262h135zM1020 535q0 -34 -2 -52h-828q10 -203 111 -302t266 -99q105 0 174 30t125 105h117q-68 -123 -169 -177t-253 -54q-103 0 -191.5 34.5t-156 100t-105.5 171t-38 238.5q0 134 40 240t108.5 171.5t154 99.5t182.5 34q98 0 181 -33.5
t147 -99t100.5 -170t36.5 -237.5zM190 573h715q-3 196 -98.5 301t-251.5 105q-72 0 -134.5 -25t-113 -74t-81.5 -127.5t-36 -179.5z" />
    <glyph glyph-name="ecircumflex" unicode="&#xea;" horiz-adv-x="1091" 
d="M551 1382l-199 -188h-100l197 258h202l197 -258h-100zM1020 535q0 -34 -2 -52h-828q10 -203 111 -302t266 -99q105 0 174 30t125 105h117q-68 -123 -169 -177t-253 -54q-103 0 -191.5 34.5t-156 100t-105.5 171t-38 238.5q0 134 40 240t108.5 171.5t154 99.5t182.5 34
q98 0 181 -33.5t147 -99t100.5 -170t36.5 -237.5zM190 573h715q-3 196 -98.5 301t-251.5 105q-72 0 -134.5 -25t-113 -74t-81.5 -127.5t-36 -179.5z" />
    <glyph glyph-name="edieresis" unicode="&#xeb;" horiz-adv-x="1091" 
d="M403 1452v-172h-129v172h129zM827 1452v-172h-129v172h129zM1020 535q0 -34 -2 -52h-828q10 -203 111 -302t266 -99q105 0 174 30t125 105h117q-68 -123 -169 -177t-253 -54q-103 0 -191.5 34.5t-156 100t-105.5 171t-38 238.5q0 134 40 240t108.5 171.5t154 99.5
t182.5 34q98 0 181 -33.5t147 -99t100.5 -170t36.5 -237.5zM190 573h715q-3 196 -98.5 301t-251.5 105q-72 0 -134.5 -25t-113 -74t-81.5 -127.5t-36 -179.5z" />
    <glyph glyph-name="igrave" unicode="&#xec;" horiz-adv-x="364" 
d="M274 1190l-184 262h-135l213 -262h106zM121 1065h121v-1065h-121v1065z" />
    <glyph glyph-name="iacute" unicode="&#xed;" horiz-adv-x="364" 
d="M84 1190h106l213 262h-135zM121 1065h121v-1065h-121v1065z" />
    <glyph glyph-name="icircumflex" unicode="&#xee;" horiz-adv-x="364" 
d="M379 1194l-197 188l-198 -188h-101l197 258h203l196 -258h-100zM121 1065h121v-1065h-121v1065z" />
    <glyph glyph-name="idieresis" unicode="&#xef;" horiz-adv-x="364" 
d="M-94 1452h129v-172h-129v172zM330 1452h129v-172h-129v172zM121 1065h121v-1065h-121v1065z" />
    <glyph glyph-name="eth" unicode="&#xf0;" horiz-adv-x="1161" 
d="M780 1200q151 -202 204.5 -344t53.5 -332q0 -130 -37.5 -234.5t-104.5 -171.5t-157 -102.5t-196 -35.5q-98 0 -183 35.5t-150 101.5t-102.5 169t-37.5 230q0 263 122 406t345 143q186 0 290 -107q-96 148 -157 228l-226 -29v68l179 22q-70 94 -154 187h129
q70 -84 135 -172l205 26v-67zM547 88q163 0 268 109t105 319q0 227 -94.5 334.5t-278.5 107.5q-357 0 -357 -442q0 -106 29.5 -190t79.5 -134.5t113.5 -77t134.5 -26.5z" />
    <glyph glyph-name="ntilde" unicode="&#xf1;" horiz-adv-x="1132" 
d="M403 1393q-58 0 -86 -30.5t-26 -66.5h-68q0 88 55.5 137.5t135.5 49.5q47 0 91 -22.5t72.5 -49.5t67.5 -49.5t78 -22.5q58 0 87.5 29.5t27.5 65.5h65q0 -87 -55 -137t-135 -50q-47 0 -91 23t-72.5 50t-68 50t-78.5 23zM633 1075q83 0 149 -22t119 -70t82 -134t29 -204
v-645h-121v643q0 177 -75.5 252.5t-217.5 75.5q-63 0 -118.5 -21t-94 -53t-69.5 -73.5t-48 -79.5t-26 -74v-670h-121v1065h121v-260q7 26 25 58.5t52.5 70.5t77.5 69t105.5 51.5t130.5 20.5z" />
    <glyph glyph-name="ograve" unicode="&#xf2;" horiz-adv-x="1107" 
d="M647 1190l-184 262h-135l213 -262h106zM555 1075q91 0 175.5 -34t154 -99t111.5 -171.5t42 -238.5q0 -135 -42 -242t-111.5 -171.5t-154 -98.5t-175.5 -34q-92 0 -176.5 33.5t-154.5 98.5t-112 172t-42 242q0 132 42 238.5t111.5 171.5t154.5 99t177 34zM920 532
q0 109 -30.5 195t-82.5 138t-116 79t-136 27t-136.5 -27t-116.5 -79t-83 -138t-31 -195q0 -110 31 -197t83 -139t116.5 -79t136.5 -27t136 27t116 79t82.5 139t30.5 197z" />
    <glyph glyph-name="oacute" unicode="&#xf3;" horiz-adv-x="1107" 
d="M457 1190h106l213 262h-135zM555 1075q91 0 175.5 -34t154 -99t111.5 -171.5t42 -238.5q0 -135 -42 -242t-111.5 -171.5t-154 -98.5t-175.5 -34q-92 0 -176.5 33.5t-154.5 98.5t-112 172t-42 242q0 132 42 238.5t111.5 171.5t154.5 99t177 34zM920 532q0 109 -30.5 195
t-82.5 138t-116 79t-136 27t-136.5 -27t-116.5 -79t-83 -138t-31 -195q0 -110 31 -197t83 -139t116.5 -79t136.5 -27t136 27t116 79t82.5 139t30.5 197z" />
    <glyph glyph-name="ocircumflex" unicode="&#xf4;" horiz-adv-x="1107" 
d="M752 1194l-197 188l-199 -188h-100l197 258h202l197 -258h-100zM555 1075q91 0 175.5 -34t154 -99t111.5 -171.5t42 -238.5q0 -135 -42 -242t-111.5 -171.5t-154 -98.5t-175.5 -34q-92 0 -176.5 33.5t-154.5 98.5t-112 172t-42 242q0 132 42 238.5t111.5 171.5t154.5 99
t177 34zM920 532q0 109 -30.5 195t-82.5 138t-116 79t-136 27t-136.5 -27t-116.5 -79t-83 -138t-31 -195q0 -110 31 -197t83 -139t116.5 -79t136.5 -27t136 27t116 79t82.5 139t30.5 197z" />
    <glyph glyph-name="otilde" unicode="&#xf5;" horiz-adv-x="1107" 
d="M825 1434h66q0 -87 -55.5 -137t-135.5 -50q-47 0 -91 23t-72 50t-67.5 50t-78.5 23q-58 0 -86 -30.5t-26 -66.5h-68q0 88 55 137.5t135 49.5q39 0 74.5 -15t62.5 -36t53 -42t57 -36t63 -15q58 0 87 29.5t27 65.5zM555 1075q91 0 175.5 -34t154 -99t111.5 -171.5
t42 -238.5q0 -135 -42 -242t-111.5 -171.5t-154 -98.5t-175.5 -34q-92 0 -176.5 33.5t-154.5 98.5t-112 172t-42 242q0 132 42 238.5t111.5 171.5t154.5 99t177 34zM920 532q0 109 -30.5 195t-82.5 138t-116 79t-136 27t-136.5 -27t-116.5 -79t-83 -138t-31 -195
q0 -110 31 -197t83 -139t116.5 -79t136.5 -27t136 27t116 79t82.5 139t30.5 197z" />
    <glyph glyph-name="odieresis" unicode="&#xf6;" horiz-adv-x="1107" 
d="M279 1452h129v-172h-129v172zM702 1452h129v-172h-129v172zM555 1075q91 0 175.5 -34t154 -99t111.5 -171.5t42 -238.5q0 -135 -42 -242t-111.5 -171.5t-154 -98.5t-175.5 -34q-92 0 -176.5 33.5t-154.5 98.5t-112 172t-42 242q0 132 42 238.5t111.5 171.5t154.5 99
t177 34zM920 532q0 109 -30.5 195t-82.5 138t-116 79t-136 27t-136.5 -27t-116.5 -79t-83 -138t-31 -195q0 -110 31 -197t83 -139t116.5 -79t136.5 -27t136 27t116 79t82.5 139t30.5 197z" />
    <glyph glyph-name="divide" unicode="&#xf7;" horiz-adv-x="929" 
d="M469 825q-26 0 -44.5 19t-18.5 45t18.5 44.5t44.5 18.5t44.5 -18.5t18.5 -44.5t-18.5 -45t-44.5 -19zM88 625h588v-99h-588v99zM469 197q-26 0 -44.5 18.5t-18.5 44.5t18.5 45t44.5 19t44.5 -19t18.5 -45t-18.5 -44.5t-44.5 -18.5z" />
    <glyph glyph-name="oslash" unicode="&#xf8;" horiz-adv-x="1107" 
d="M821 993q99 -67 158 -184t59 -277q0 -135 -42 -242t-111.5 -171.5t-154 -98.5t-175.5 -34q-106 0 -199 43l-61 -131h-113l88 182q-93 68 -146.5 182t-53.5 270q0 132 42 238.5t111.5 171.5t154.5 99t177 34q94 0 176 -33l68 142h112zM188 532q0 -230 129 -352l369 766
q-67 25 -131 25q-72 0 -136.5 -27t-116.5 -79t-83 -138t-31 -195zM555 90q72 0 136 27t116 79t82.5 139t30.5 197q0 244 -146 363l-371 -772q67 -33 152 -33z" />
    <glyph glyph-name="ugrave" unicode="&#xf9;" horiz-adv-x="1122" 
d="M645 1190h-106l-213 262h135zM881 1065h120v-1065h-120v258q-7 -26 -25 -58.5t-52.5 -71t-78 -69.5t-106 -52t-130.5 -21q-83 0 -149 22.5t-118.5 71t-81.5 134t-29 204.5v647h120v-645q0 -177 75.5 -253.5t217.5 -76.5q77 0 143.5 31t108.5 79.5t68.5 97.5t36.5 95v672z
" />
    <glyph glyph-name="uacute" unicode="&#xfa;" horiz-adv-x="1122" 
d="M774 1452l-213 -262h-106l184 262h135zM881 1065h120v-1065h-120v258q-7 -26 -25 -58.5t-52.5 -71t-78 -69.5t-106 -52t-130.5 -21q-83 0 -149 22.5t-118.5 71t-81.5 134t-29 204.5v647h120v-645q0 -177 75.5 -253.5t217.5 -76.5q77 0 143.5 31t108.5 79.5t68.5 97.5
t36.5 95v672z" />
    <glyph glyph-name="ucircumflex" unicode="&#xfb;" horiz-adv-x="1122" 
d="M553 1382l-199 -188h-100l197 258h202l197 -258h-100zM881 1065h120v-1065h-120v258q-7 -26 -25 -58.5t-52.5 -71t-78 -69.5t-106 -52t-130.5 -21q-83 0 -149 22.5t-118.5 71t-81.5 134t-29 204.5v647h120v-645q0 -177 75.5 -253.5t217.5 -76.5q77 0 143.5 31t108.5 79.5
t68.5 97.5t36.5 95v672z" />
    <glyph glyph-name="udieresis" unicode="&#xfc;" horiz-adv-x="1122" 
d="M406 1452v-172h-130v172h130zM829 1452v-172h-129v172h129zM881 1065h120v-1065h-120v258q-7 -26 -25 -58.5t-52.5 -71t-78 -69.5t-106 -52t-130.5 -21q-83 0 -149 22.5t-118.5 71t-81.5 134t-29 204.5v647h120v-645q0 -177 75.5 -253.5t217.5 -76.5q77 0 143.5 31
t108.5 79.5t68.5 97.5t36.5 95v672z" />
    <glyph glyph-name="yacute" unicode="&#xfd;" horiz-adv-x="1069" 
d="M440 1190h107l213 262h-135zM893 1065h125l-465 -1169q-65 -163 -160.5 -229t-228.5 -48v107q201 -28 282 184q20 53 23 71.5t-6 49.5l-414 1034h127l359 -936z" />
    <glyph glyph-name="thorn" unicode="&#xfe;" horiz-adv-x="1165" 
d="M623 1075q91 0 174 -33.5t150.5 -97.5t108 -170.5t40.5 -241.5q0 -136 -40 -243t-108 -171.5t-151.5 -98t-175.5 -33.5q-156 0 -265 92q-70 62 -114 153v-620h-121v1835h121v-600q53 108 150.5 167t219.5 62h2h4h5zM236 532q0 -108 30.5 -194.5t82.5 -139.5t117 -80.5
t138 -27.5h2q73 0 138.5 27t118 79t83.5 139t31 197t-31 196t-83.5 138t-118.5 78.5t-140 26.5t-138.5 -26t-116.5 -77t-82.5 -137.5t-30.5 -198.5z" />
    <glyph glyph-name="ydieresis" unicode="&#xff;" horiz-adv-x="1069" 
d="M262 1452h129v-172h-129v172zM686 1452h129v-172h-129v172zM893 1065h125l-465 -1169q-65 -163 -160.5 -229t-228.5 -48v107q201 -28 282 184q20 53 23 71.5t-6 49.5l-414 1034h127l359 -936z" />
    <glyph glyph-name="Amacron" unicode="&#x100;" horiz-adv-x="1378" 
d="M987 1821v-82h-594v82h594zM1184 0l-156 397h-678l-155 -397h-136l576 1434h108l576 -1434h-135zM389 498h600l-299 766z" />
    <glyph glyph-name="amacron" unicode="&#x101;" horiz-adv-x="1077" 
d="M831 1452v-82h-593v82h593zM948 154q0 -42 18 -59.5t62 -14.5v-80q-24 -8 -53 -8q-72 0 -104.5 32t-32.5 113v99q-12 -25 -31 -52.5t-56.5 -64.5t-82.5 -65t-112 -48t-142 -20q-155 0 -249.5 82t-94.5 231q0 131 87 206.5t281 104.5q310 43 389 82v19q0 147 -67 207.5
t-219 60.5q-257 0 -287 -172h-115q17 133 122 200.5t282 67.5q207 0 306 -91t99 -302v-528zM827 342v268q-26 -15 -93 -31.5t-121 -26t-160 -26.5q-145 -21 -204 -74.5t-59 -150.5q0 -102 66 -161.5t180 -59.5q70 0 132.5 22t104 52t76 69.5t51 67t27.5 51.5z" />
    <glyph glyph-name="Abreve" unicode="&#x102;" horiz-adv-x="1378" 
d="M690 1575q-143 0 -211.5 70.5t-68.5 175.5h86q10 -75 55 -116.5t139 -41.5q176 0 193 158h86q0 -104 -68.5 -175t-210.5 -71zM1184 0l-156 397h-678l-155 -397h-136l576 1434h108l576 -1434h-135zM389 498h600l-299 766z" />
    <glyph glyph-name="abreve" unicode="&#x103;" horiz-adv-x="1077" 
d="M535 1206q-143 0 -212 71t-69 175h86q21 -158 195 -158q175 0 192 158h86q0 -49 -15.5 -91.5t-47 -78t-87 -56t-128.5 -20.5zM948 154q0 -42 18 -59.5t62 -14.5v-80q-24 -8 -53 -8q-72 0 -104.5 32t-32.5 113v99q-12 -25 -31 -52.5t-56.5 -64.5t-82.5 -65t-112 -48
t-142 -20q-155 0 -249.5 82t-94.5 231q0 131 87 206.5t281 104.5q310 43 389 82v19q0 147 -67 207.5t-219 60.5q-257 0 -287 -172h-115q17 133 122 200.5t282 67.5q207 0 306 -91t99 -302v-528zM827 342v268q-26 -15 -93 -31.5t-121 -26t-160 -26.5q-145 -21 -204 -74.5
t-59 -150.5q0 -102 66 -161.5t180 -59.5q70 0 132.5 22t104 52t76 69.5t51 67t27.5 51.5z" />
    <glyph glyph-name="Aogonek" unicode="&#x104;" horiz-adv-x="1378" 
d="M1278 0q-114 -40 -181 -104t-67 -138q0 -65 53 -91t148 -9v-66q-43 -18 -96 -20.5t-103.5 10.5t-84.5 53t-34 101t43.5 116.5t102 91t125.5 56.5l-156 397h-678l-155 -397h-136l576 1434h108l576 -1434h-41zM389 498h600l-299 766z" />
    <glyph glyph-name="aogonek" unicode="&#x105;" horiz-adv-x="1077" 
d="M1028 80v-80q-2 -1 -7 -2t-7 -2h12q-114 -40 -181 -104t-67 -138q0 -65 53 -91t148 -9v-66q-43 -18 -96 -20.5t-103 10.5t-84 53t-34 101q0 89 81 159.5t187 104.5q-47 8 -69.5 41.5t-22.5 99.5v99q-12 -25 -31 -52.5t-56.5 -64.5t-82.5 -65t-112 -48t-142 -20
q-155 0 -249.5 82t-94.5 231q0 131 87 206.5t281 104.5q310 43 389 82v19q0 147 -67 207.5t-219 60.5q-257 0 -287 -172h-115q17 133 122 200.5t282 67.5q207 0 306 -91t99 -302v-528q0 -42 18 -59.5t62 -14.5zM827 342v268q-26 -15 -93 -31.5t-121 -26t-160 -26.5
q-145 -21 -204 -74.5t-59 -150.5q0 -102 66 -161.5t180 -59.5q70 0 132.5 22t104 52t76 69.5t51 67t27.5 51.5z" />
    <glyph glyph-name="Cacute" unicode="&#x106;" horiz-adv-x="1316" 
d="M606 1559h107l213 262h-135zM715 94q158 0 262.5 64t148.5 176h129q-45 -166 -190 -259t-352 -93q-135 0 -247 46t-196.5 135t-132 230.5t-47.5 323.5t47.5 323.5t132 230.5t196.5 135t247 46q206 0 349 -93t187 -259h-129q-43 112 -145.5 175.5t-259.5 63.5
q-108 0 -197.5 -38t-156.5 -113t-104.5 -195.5t-37.5 -275.5t37.5 -275t104.5 -195.5t156.5 -114t197.5 -38.5z" />
    <glyph glyph-name="cacute" unicode="&#x107;" horiz-adv-x="1056" 
d="M455 1190h106l213 262h-135zM561 88q123 0 202 52.5t120 162.5h112q-32 -112 -98.5 -185t-149.5 -102.5t-186 -29.5q-75 0 -145.5 20t-133.5 63.5t-110 106.5t-74.5 154t-27.5 200t27.5 200t74 154t109 106.5t133 64t145.5 20.5q102 0 184 -29.5t148 -100.5t98 -181h-112
q-83 209 -318 209q-74 0 -140 -27t-118.5 -80t-83.5 -139.5t-31 -196.5q0 -111 31 -198t84.5 -139t119.5 -78.5t140 -26.5z" />
    <glyph glyph-name="Cdotaccent" unicode="&#x10a;" horiz-adv-x="1316" 
d="M641 1821h129v-172h-129v172zM715 94q158 0 262.5 64t148.5 176h129q-45 -166 -190 -259t-352 -93q-135 0 -247 46t-196.5 135t-132 230.5t-47.5 323.5t47.5 323.5t132 230.5t196.5 135t247 46q206 0 349 -93t187 -259h-129q-43 112 -145.5 175.5t-259.5 63.5
q-108 0 -197.5 -38t-156.5 -113t-104.5 -195.5t-37.5 -275.5t37.5 -275t104.5 -195.5t156.5 -114t197.5 -38.5z" />
    <glyph glyph-name="cdotaccent" unicode="&#x10b;" horiz-adv-x="1056" 
d="M489 1452h129v-172h-129v172zM561 88q123 0 202 52.5t120 162.5h112q-32 -112 -98.5 -185t-149.5 -102.5t-186 -29.5q-75 0 -145.5 20t-133.5 63.5t-110 106.5t-74.5 154t-27.5 200t27.5 200t74 154t109 106.5t133 64t145.5 20.5q102 0 184 -29.5t148 -100.5t98 -181
h-112q-83 209 -318 209q-74 0 -140 -27t-118.5 -80t-83.5 -139.5t-31 -196.5q0 -111 31 -198t84.5 -139t119.5 -78.5t140 -26.5z" />
    <glyph glyph-name="Ccaron" unicode="&#x10c;" horiz-adv-x="1316" 
d="M899 1800h100l-196 -258h-203l-197 258h101l198 -188zM715 94q158 0 262.5 64t148.5 176h129q-45 -166 -190 -259t-352 -93q-135 0 -247 46t-196.5 135t-132 230.5t-47.5 323.5t47.5 323.5t132 230.5t196.5 135t247 46q206 0 349 -93t187 -259h-129q-43 112 -145.5 175.5
t-259.5 63.5q-108 0 -197.5 -38t-156.5 -113t-104.5 -195.5t-37.5 -275.5t37.5 -275t104.5 -195.5t156.5 -114t197.5 -38.5z" />
    <glyph glyph-name="ccaron" unicode="&#x10d;" horiz-adv-x="1056" 
d="M748 1432h100l-197 -258h-202l-197 258h100l199 -189zM561 88q123 0 202 52.5t120 162.5h112q-32 -112 -98.5 -185t-149.5 -102.5t-186 -29.5q-75 0 -145.5 20t-133.5 63.5t-110 106.5t-74.5 154t-27.5 200t27.5 200t74 154t109 106.5t133 64t145.5 20.5q102 0 184 -29.5
t148 -100.5t98 -181h-112q-83 209 -318 209q-74 0 -140 -27t-118.5 -80t-83.5 -139.5t-31 -196.5q0 -111 31 -198t84.5 -139t119.5 -78.5t140 -26.5z" />
    <glyph glyph-name="Dcaron" unicode="&#x10e;" horiz-adv-x="1325" 
d="M772 1542h-203l-196 258h100l199 -188l196 188h101zM547 1434q345 0 521.5 -185t176.5 -532t-176.5 -532t-521.5 -185h-426v1434h426zM539 113q296 0 438.5 150t142.5 454q0 306 -142 455t-439 149h-291v-1208h291z" />
    <glyph glyph-name="dcaron" unicode="&#x10f;" horiz-adv-x="1378" 
d="M543 1075q125 0 225.5 -59t155.5 -170v600h120v-1446h-120v231q-55 -117 -152.5 -181t-226.5 -64q-92 0 -175.5 33.5t-151.5 98t-108 171.5t-40 243q0 135 40.5 241.5t108 170.5t150.5 97.5t174 33.5zM1100 1184h106l213 262h-135zM561 90q73 0 138 27.5t117.5 80.5
t83 139.5t30.5 194.5q0 112 -30.5 198.5t-83 137.5t-117 77t-138.5 26t-140 -26.5t-118.5 -78.5t-83.5 -138t-31 -196t31 -197t83.5 -139t118.5 -79t140 -27z" />
    <glyph glyph-name="Dcroat" unicode="&#x110;" horiz-adv-x="1366" 
d="M588 1434q345 0 521.5 -185t176.5 -532t-176.5 -532t-521.5 -185h-426v666h-121v98h121v670h426zM580 113q296 0 438.5 150t142.5 454q0 306 -142 455t-439 149h-291v-557h295v-98h-295v-553h291z" />
    <glyph glyph-name="dcroat" unicode="&#x111;" horiz-adv-x="1269" 
d="M1231 1321v-82h-187v-1239h-120v231q-55 -117 -152.5 -181t-226.5 -64q-92 0 -175.5 33.5t-151.5 98t-108 171.5t-40 243q0 135 40.5 241.5t108 170.5t150.5 97.5t174 33.5q125 0 225.5 -59t155.5 -170v393h-287v82h287v125h120v-125h187zM561 90q73 0 138 27.5
t117.5 80.5t83 139.5t30.5 194.5q0 112 -30.5 198.5t-83 137.5t-117 77t-138.5 26t-140 -26.5t-118.5 -78.5t-83.5 -138t-31 -196t31 -197t83.5 -139t118.5 -79t140 -27z" />
    <glyph glyph-name="Emacron" unicode="&#x112;" horiz-adv-x="1107" 
d="M858 1821v-82h-594v82h594zM248 113h799v-113h-926v1434h905v-113h-778v-528h676v-105h-676v-575z" />
    <glyph glyph-name="emacron" unicode="&#x113;" horiz-adv-x="1091" 
d="M848 1452v-82h-594v82h594zM1020 535q0 -34 -2 -52h-828q10 -203 111 -302t266 -99q105 0 174 30t125 105h117q-68 -123 -169 -177t-253 -54q-103 0 -191.5 34.5t-156 100t-105.5 171t-38 238.5q0 134 40 240t108.5 171.5t154 99.5t182.5 34q98 0 181 -33.5t147 -99
t100.5 -170t36.5 -237.5zM190 573h715q-3 196 -98.5 301t-251.5 105q-72 0 -134.5 -25t-113 -74t-81.5 -127.5t-36 -179.5z" />
    <glyph glyph-name="Edotaccent" unicode="&#x116;" horiz-adv-x="1107" 
d="M627 1821v-172h-129v172h129zM248 113h799v-113h-926v1434h905v-113h-778v-528h676v-105h-676v-575z" />
    <glyph glyph-name="edotaccent" unicode="&#x117;" horiz-adv-x="1091" 
d="M616 1452v-172h-129v172h129zM1020 535q0 -34 -2 -52h-828q10 -203 111 -302t266 -99q105 0 174 30t125 105h117q-68 -123 -169 -177t-253 -54q-103 0 -191.5 34.5t-156 100t-105.5 171t-38 238.5q0 134 40 240t108.5 171.5t154 99.5t182.5 34q98 0 181 -33.5t147 -99
t100.5 -170t36.5 -237.5zM190 573h715q-3 196 -98.5 301t-251.5 105q-72 0 -134.5 -25t-113 -74t-81.5 -127.5t-36 -179.5z" />
    <glyph glyph-name="Eogonek" unicode="&#x118;" horiz-adv-x="1107" 
d="M1047 0q-114 -40 -181 -104t-67 -138q0 -66 53 -91.5t147 -8.5v-66q-43 -18 -96 -20.5t-103 10.5t-84 53t-34 101q0 89 82 159.5t188 104.5h-831v1434h905v-113h-778v-528h676v-105h-676v-575h799v-113z" />
    <glyph glyph-name="eogonek" unicode="&#x119;" horiz-adv-x="1091" 
d="M1020 535q0 -34 -2 -52h-828q10 -203 111 -302t266 -99q105 0 174 30t125 105h117q-60 -106 -142 -160.5t-198 -66.5h33q-114 -40 -181 -104t-67 -138q0 -65 53 -91t148 -9v-66q-43 -18 -96 -20.5t-103.5 10.5t-84.5 53t-34 101q0 59 40.5 113.5t96.5 89.5t121 57h-8
q-103 0 -191.5 34.5t-156 100t-105.5 171t-38 238.5q0 134 40 240t108.5 171.5t154 99.5t182.5 34q98 0 181 -33.5t147 -99t100.5 -170t36.5 -237.5zM190 573h715q-3 196 -98.5 301t-251.5 105q-72 0 -134.5 -25t-113 -74t-81.5 -127.5t-36 -179.5z" />
    <glyph glyph-name="Ecaron" unicode="&#x11a;" horiz-adv-x="1107" 
d="M659 1542h-202l-197 258h100l199 -188l197 188h100zM248 113h799v-113h-926v1434h905v-113h-778v-528h676v-105h-676v-575z" />
    <glyph glyph-name="ecaron" unicode="&#x11b;" horiz-adv-x="1091" 
d="M649 1174h-203l-196 258h100l199 -189l196 189h101zM1020 535q0 -34 -2 -52h-828q10 -203 111 -302t266 -99q105 0 174 30t125 105h117q-68 -123 -169 -177t-253 -54q-103 0 -191.5 34.5t-156 100t-105.5 171t-38 238.5q0 134 40 240t108.5 171.5t154 99.5t182.5 34
q98 0 181 -33.5t147 -99t100.5 -170t36.5 -237.5zM190 573h715q-3 196 -98.5 301t-251.5 105q-72 0 -134.5 -25t-113 -74t-81.5 -127.5t-36 -179.5z" />
    <glyph glyph-name="Gbreve" unicode="&#x11e;" horiz-adv-x="1398" 
d="M905 1821h86q0 -49 -15.5 -91.5t-47 -78t-87 -56t-128.5 -20.5q-143 0 -212 71t-69 175h86q21 -158 195 -158q175 0 192 158zM1298 717v-76q0 -324 -147.5 -491.5t-433.5 -167.5q-138 0 -251 45.5t-197.5 134.5t-131.5 230.5t-47 324.5q0 182 46.5 323.5t131 230.5
t197 135t248.5 46q200 0 335 -87t183 -243h-129q-96 217 -387 217q-226 0 -361 -157.5t-135 -464.5q0 -156 37 -276.5t104.5 -195.5t157.5 -113t199 -38q228 0 346 130t119 388h-391v105h507z" />
    <glyph glyph-name="gbreve" unicode="&#x11f;" 
d="M559 1206q-143 0 -211.5 70.5t-68.5 175.5h86q10 -75 55 -116.5t139 -41.5q176 0 193 158h86q0 -104 -68.5 -175t-210.5 -71zM922 1065h120v-1067q0 -103 -28.5 -183.5t-74.5 -129.5t-110 -80.5t-128 -43.5t-136 -12q-145 0 -259.5 52.5t-168.5 144.5l80 51
q106 -143 340 -143q365 0 365 344v233q-53 -116 -151 -179.5t-226 -63.5q-92 0 -175.5 33.5t-151.5 98t-108 171t-40 241.5t40.5 241.5t108 170.5t150.5 97.5t174 33.5q125 0 224.5 -59t154.5 -170v219zM559 90q73 0 138 27.5t117.5 80.5t83 139.5t30.5 194.5
q0 112 -30.5 198.5t-83 138.5t-117.5 78t-138 26t-138.5 -26.5t-118 -79t-83.5 -139t-31 -196.5t31 -197t83.5 -139t118 -79t138.5 -27z" />
    <glyph glyph-name="Gdotaccent" unicode="&#x120;" horiz-adv-x="1398" 
d="M649 1821h129v-172h-129v172zM1298 717v-76q0 -324 -147.5 -491.5t-433.5 -167.5q-138 0 -251 45.5t-197.5 134.5t-131.5 230.5t-47 324.5q0 182 46.5 323.5t131 230.5t197 135t248.5 46q200 0 335 -87t183 -243h-129q-96 217 -387 217q-226 0 -361 -157.5t-135 -464.5
q0 -156 37 -276.5t104.5 -195.5t157.5 -113t199 -38q228 0 346 130t119 388h-391v105h507z" />
    <glyph glyph-name="gdotaccent" unicode="&#x121;" 
d="M625 1452v-172h-129v172h129zM922 1065h120v-1067q0 -103 -28.5 -183.5t-74.5 -129.5t-110 -80.5t-128 -43.5t-136 -12q-145 0 -259.5 52.5t-168.5 144.5l80 51q106 -143 340 -143q365 0 365 344v233q-53 -116 -151 -179.5t-226 -63.5q-92 0 -175.5 33.5t-151.5 98
t-108 171t-40 241.5t40.5 241.5t108 170.5t150.5 97.5t174 33.5q125 0 224.5 -59t154.5 -170v219zM559 90q73 0 138 27.5t117.5 80.5t83 139.5t30.5 194.5q0 112 -30.5 198.5t-83 138.5t-117.5 78t-138 26t-138.5 -26.5t-118 -79t-83.5 -139t-31 -196.5t31 -197t83.5 -139
t118 -79t138.5 -27z" />
    <glyph glyph-name="Gcommaaccent" unicode="&#x122;" horiz-adv-x="1398" 
d="M1298 717v-76q0 -324 -147.5 -491.5t-433.5 -167.5q-138 0 -251 45.5t-197.5 134.5t-131.5 230.5t-47 324.5q0 182 46.5 323.5t131 230.5t197 135t248.5 46q200 0 335 -87t183 -243h-129q-96 217 -387 217q-226 0 -361 -157.5t-135 -464.5q0 -156 37 -276.5t104.5 -195.5
t157.5 -113t199 -38q228 0 346 130t119 388h-391v105h507zM637 -492v43q39 24 52 62t13 117v61h-65v168h156v-242q0 -201 -156 -209z" />
    <glyph glyph-name="gcommaaccent" unicode="&#x123;" 
d="M627 1333v-168h-156v242q0 201 156 209v-43q-39 -24 -52.5 -62t-13.5 -116v-62h66zM922 1065h120v-1067q0 -103 -28.5 -183.5t-74.5 -129.5t-110 -80.5t-128 -43.5t-136 -12q-145 0 -259.5 52.5t-168.5 144.5l80 51q106 -143 340 -143q365 0 365 344v233
q-53 -116 -151 -179.5t-226 -63.5q-92 0 -175.5 33.5t-151.5 98t-108 171t-40 241.5t40.5 241.5t108 170.5t150.5 97.5t174 33.5q125 0 224.5 -59t154.5 -170v219zM559 90q73 0 138 27.5t117.5 80.5t83 139.5t30.5 194.5q0 112 -30.5 198.5t-83 138.5t-117.5 78t-138 26
t-138.5 -26.5t-118 -79t-83.5 -139t-31 -196.5t31 -197t83.5 -139t118 -79t138.5 -27z" />
    <glyph glyph-name="Hbar" unicode="&#x126;" horiz-adv-x="1310" 
d="M1063 1434h127v-1434h-127v645h-815v-645h-127v1434h127v-357h815v357zM248 752h815v229h-815v-229z" />
    <glyph glyph-name="hbar" unicode="&#x127;" horiz-adv-x="1187" 
d="M688 1075q83 0 149 -22t119 -70t82 -134t29 -204v-645h-121v643q0 177 -75.5 252.5t-217.5 75.5q-63 0 -118.5 -21t-94 -53t-69.5 -73.5t-48 -79.5t-26 -74v-670h-121v1169h-137v88h137v189h121v-189h246v-88h-246v-364q7 26 25 58.5t52.5 70.5t77.5 69t105.5 51.5
t130.5 20.5z" />
    <glyph glyph-name="Imacron" unicode="&#x12a;" horiz-adv-x="368" 
d="M-113 1821h594v-82h-594v82zM248 0h-127v1434h127v-1434z" />
    <glyph glyph-name="imacron" unicode="&#x12b;" horiz-adv-x="364" 
d="M-115 1452h594v-82h-594v82zM121 1065h121v-1065h-121v1065z" />
    <glyph glyph-name="Iogonek" unicode="&#x12e;" horiz-adv-x="368" 
d="M121 1434h127v-1434h-2q-114 -40 -181 -104t-67 -138q0 -65 53 -91t148 -9v-66q-43 -18 -96 -20.5t-103.5 10.5t-84.5 53t-34 101t43.5 116.5t102 91t125.5 56.5h-31v1434z" />
    <glyph glyph-name="iogonek" unicode="&#x12f;" horiz-adv-x="364" 
d="M119 1452h129v-172h-129v172zM121 0v1065h121v-1065h-27q-114 -40 -181 -104t-67 -138q0 -65 53 -91t148 -9v-66q-43 -18 -96 -20.5t-103.5 10.5t-84.5 53t-34 101t43.5 116.5t102 91t125.5 56.5z" />
    <glyph glyph-name="Idotaccent" unicode="&#x130;" horiz-adv-x="368" 
d="M121 1821h129v-172h-129v172zM248 0h-127v1434h127v-1434z" />
    <glyph glyph-name="dotlessi" unicode="&#x131;" horiz-adv-x="364" 
d="M121 1065h121v-1065h-121v1065z" />
    <glyph glyph-name="IJ" unicode="&#x132;" horiz-adv-x="1376" 
d="M248 0h-127v1434h127v-1434zM489 242q117 -144 320 -144q68 0 124 20t104 64t75 124t27 190v938h125v-942q0 -109 -25 -196t-67 -144.5t-101.5 -95t-124.5 -54t-139 -16.5q-253 0 -389 180z" />
    <glyph glyph-name="ij" unicode="&#x133;" horiz-adv-x="745" 
d="M121 1452h121v-129h-121v129zM502 1452h121v-129h-121v129zM121 1065h121v-1065h-121v1065zM203 -301q87 -41 164 -41q68 0 101.5 44t33.5 122v1241h121v-1245q0 -271 -236 -271q-111 0 -184 48v102z" />
    <glyph glyph-name="Kcommaaccent" unicode="&#x136;" horiz-adv-x="1271" 
d="M557 764l674 -764h-150l-608 674l-225 -244v-430h-127v1434h127v-832l774 832h154zM565 -209v168h156v-242q0 -201 -156 -209v43q39 24 52.5 62.5t13.5 116.5v61h-66z" />
    <glyph glyph-name="kcommaaccent" unicode="&#x137;" horiz-adv-x="1075" 
d="M524 602l523 -602h-144l-457 522l-204 -211v-311h-121v1446h121v-989l589 608h146zM469 -209v168h156v-242q0 -201 -156 -209v43q39 24 52.5 62.5t13.5 116.5v61h-66z" />
    <glyph glyph-name="Lacute" unicode="&#x139;" horiz-adv-x="1075" 
d="M135 1554h107l213 263h-136zM248 113h756v-113h-883v1434h127v-1321z" />
    <glyph glyph-name="lacute" unicode="&#x13a;" horiz-adv-x="364" 
d="M84 1571h106l213 262h-135zM121 1446h121v-1446h-121v1446z" />
    <glyph glyph-name="Lcommaaccent" unicode="&#x13b;" horiz-adv-x="1075" 
d="M248 113h756v-113h-883v1434h127v-1321zM457 -502v43q39 24 52 61.5t13 116.5v62h-65v168h155v-242q0 -201 -155 -209z" />
    <glyph glyph-name="lcommaaccent" unicode="&#x13c;" horiz-adv-x="364" 
d="M121 1446h121v-1446h-121v1446zM102 -492v43q39 24 52.5 62.5t13.5 116.5v61h-66v168h156v-242q0 -201 -156 -209z" />
    <glyph glyph-name="Lcaron" unicode="&#x13d;" horiz-adv-x="1075" 
d="M248 113h756v-113h-883v1434h127v-1321zM514 983v43q39 24 52.5 62t13.5 116v62h-66v168h156v-242q0 -201 -156 -209z" />
    <glyph glyph-name="lcaron" unicode="&#x13e;" horiz-adv-x="667" 
d="M121 1446h121v-1446h-121v1446zM432 983v43q39 24 52.5 62t13.5 116v62h-66v168h156v-242q0 -201 -156 -209z" />
    <glyph glyph-name="Lslash" unicode="&#x141;" horiz-adv-x="1144" 
d="M319 113h756v-113h-882v526l-154 -161v131l154 161v777h126v-643l259 270h2v-127l-261 -275v-546z" />
    <glyph glyph-name="lslash" unicode="&#x142;" horiz-adv-x="655" 
d="M594 1075v-149l-234 -246v-680h-120v553l-181 -191v152l181 191v741h120v-615l232 244h2z" />
    <glyph glyph-name="Nacute" unicode="&#x143;" horiz-adv-x="1335" 
d="M569 1559h107l213 262h-135zM1212 1434v-1434h-147l-813 1245h-4v-1245h-127v1434h145l817 -1248h4v1248h125z" />
    <glyph glyph-name="nacute" unicode="&#x144;" horiz-adv-x="1132" 
d="M788 1452l-213 -262h-106l184 262h135zM633 1075q83 0 149 -22t119 -70t82 -134t29 -204v-645h-121v643q0 177 -75.5 252.5t-217.5 75.5q-63 0 -118.5 -21t-94 -53t-69.5 -73.5t-48 -79.5t-26 -74v-670h-121v1065h121v-260q7 26 25 58.5t52.5 70.5t77.5 69t105.5 51.5
t130.5 20.5z" />
    <glyph glyph-name="Ncommaaccent" unicode="&#x145;" horiz-adv-x="1335" 
d="M1212 1434v-1434h-147l-813 1245h-4v-1245h-127v1434h145l817 -1248h4v1248h125zM588 -492v43q39 24 52 62t13 117v61h-65v168h155v-242q0 -201 -155 -209z" />
    <glyph glyph-name="ncommaaccent" unicode="&#x146;" horiz-adv-x="1132" 
d="M633 1075q83 0 149 -22t119 -70t82 -134t29 -204v-645h-121v643q0 177 -75.5 252.5t-217.5 75.5q-63 0 -118.5 -21t-94 -53t-69.5 -73.5t-48 -79.5t-26 -74v-670h-121v1065h121v-260q7 26 25 58.5t52.5 70.5t77.5 69t105.5 51.5t130.5 20.5zM487 -209v168h156v-242
q0 -201 -156 -209v43q39 24 52.5 62.5t13.5 116.5v61h-66z" />
    <glyph glyph-name="Ncaron" unicode="&#x147;" horiz-adv-x="1335" 
d="M862 1800h101l-197 -258h-203l-196 258h100l199 -188zM1212 1434v-1434h-147l-813 1245h-4v-1245h-127v1434h145l817 -1248h4v1248h125z" />
    <glyph glyph-name="ncaron" unicode="&#x148;" horiz-adv-x="1132" 
d="M666 1174h-203l-197 258h101l198 -189l197 189h100zM633 1075q83 0 149 -22t119 -70t82 -134t29 -204v-645h-121v643q0 177 -75.5 252.5t-217.5 75.5q-63 0 -118.5 -21t-94 -53t-69.5 -73.5t-48 -79.5t-26 -74v-670h-121v1065h121v-260q7 26 25 58.5t52.5 70.5t77.5 69
t105.5 51.5t130.5 20.5z" />
    <glyph glyph-name="Eng" unicode="&#x14a;" horiz-adv-x="1335" 
d="M1087 1434h125v-1379q0 -136 -37 -236.5t-102.5 -158t-144.5 -84.5t-172 -27q-252 0 -389 181l71 75q116 -143 320 -143q61 0 112.5 15.5t96.5 50t75.5 97t40.5 148.5l-831 1272h-4v-1245h-127v1434h145l817 -1250h4v1250z" />
    <glyph glyph-name="eng" unicode="&#x14b;" horiz-adv-x="1132" 
d="M633 1075q83 0 149 -22t119 -70t82 -134t29 -204v-825q0 -271 -238 -271q-111 0 -184 48v102q87 -41 166 -41q67 0 101 44.5t34 121.5v819q0 177 -75.5 252.5t-217.5 75.5q-63 0 -118.5 -21t-94 -53t-69.5 -73.5t-48 -79.5t-26 -74v-670h-121v1065h121v-260q7 26 25 58.5
t52.5 70.5t77.5 69t105.5 51.5t130.5 20.5z" />
    <glyph glyph-name="Omacron" unicode="&#x14c;" horiz-adv-x="1447" 
d="M428 1821h594v-82h-594v82zM725 1452q139 0 254 -46.5t200 -136t132 -230.5t47 -322t-47 -322t-132 -230.5t-200 -136t-254 -46.5q-140 0 -255 46.5t-200.5 136t-132.5 230.5t-47 322t47 322t132.5 230.5t200.5 136t255 46.5zM725 94q232 0 368 157t136 466t-136 465.5
t-368 156.5q-233 0 -369.5 -156.5t-136.5 -465.5t136.5 -466t369.5 -157z" />
    <glyph glyph-name="omacron" unicode="&#x14d;" horiz-adv-x="1107" 
d="M258 1452h594v-82h-594v82zM555 1075q91 0 175.5 -34t154 -99t111.5 -171.5t42 -238.5q0 -135 -42 -242t-111.5 -171.5t-154 -98.5t-175.5 -34q-92 0 -176.5 33.5t-154.5 98.5t-112 172t-42 242q0 132 42 238.5t111.5 171.5t154.5 99t177 34zM920 532q0 109 -30.5 195
t-82.5 138t-116 79t-136 27t-136.5 -27t-116.5 -79t-83 -138t-31 -195q0 -110 31 -197t83 -139t116.5 -79t136.5 -27t136 27t116 79t82.5 139t30.5 197z" />
    <glyph glyph-name="Ohungarumlaut" unicode="&#x150;" horiz-adv-x="1447" 
d="M465 1559h106l213 262h-135zM774 1559h107l213 262h-136zM725 1452q139 0 254 -46.5t200 -136t132 -230.5t47 -322t-47 -322t-132 -230.5t-200 -136t-254 -46.5q-140 0 -255 46.5t-200.5 136t-132.5 230.5t-47 322t47 322t132.5 230.5t200.5 136t255 46.5zM725 94
q232 0 368 157t136 466t-136 465.5t-368 156.5q-233 0 -369.5 -156.5t-136.5 -465.5t136.5 -466t369.5 -157z" />
    <glyph glyph-name="ohungarumlaut" unicode="&#x151;" horiz-adv-x="1107" 
d="M295 1190h106l213 262h-135zM604 1190h107l213 262h-136zM555 1075q91 0 175.5 -34t154 -99t111.5 -171.5t42 -238.5q0 -135 -42 -242t-111.5 -171.5t-154 -98.5t-175.5 -34q-92 0 -176.5 33.5t-154.5 98.5t-112 172t-42 242q0 132 42 238.5t111.5 171.5t154.5 99t177 34
zM920 532q0 109 -30.5 195t-82.5 138t-116 79t-136 27t-136.5 -27t-116.5 -79t-83 -138t-31 -195q0 -110 31 -197t83 -139t116.5 -79t136.5 -27t136 27t116 79t82.5 139t30.5 197z" />
    <glyph glyph-name="OE" unicode="&#x152;" horiz-adv-x="2220" 
d="M1358 113h799v-113h-926v231q-83 -124 -213 -186.5t-293 -62.5q-140 0 -255 46.5t-200.5 136t-132.5 230.5t-47 322t47 322t132.5 230.5t200.5 136t255 46.5q162 0 292.5 -63t213.5 -187v232h905v-113h-778v-528h676v-105h-676v-575zM725 94q232 0 368 157t136 466
t-136 465.5t-368 156.5q-233 0 -369.5 -156.5t-136.5 -465.5t136.5 -466t369.5 -157z" />
    <glyph glyph-name="oe" unicode="&#x153;" horiz-adv-x="1941" 
d="M1870 535q0 -34 -2 -52h-828q10 -203 111 -302t266 -99q105 0 174 30t125 105h117q-68 -123 -169 -177t-253 -54q-145 0 -259.5 66.5t-174.5 193.5q-63 -127 -178 -193.5t-244 -66.5q-92 0 -176.5 33.5t-154.5 98.5t-112 172t-42 242q0 132 42 238.5t111.5 171.5
t154.5 99t177 34q129 0 244.5 -67.5t177.5 -194.5q63 128 177 195t251 67q98 0 181 -33.5t147 -99t100.5 -170t36.5 -237.5zM1040 573h715q-3 196 -98.5 301t-251.5 105q-72 0 -134.5 -25t-113 -74t-81.5 -127.5t-36 -179.5zM555 90q72 0 136 27t116 79t82.5 139t30.5 197
q0 109 -30.5 195t-82.5 138t-116 79t-136 27t-136.5 -27t-116.5 -79t-83 -138t-31 -195q0 -110 31 -197t83 -139t116.5 -79t136.5 -27z" />
    <glyph glyph-name="Racute" unicode="&#x154;" horiz-adv-x="1247" 
d="M848 1821l-213 -262h-107l185 262h135zM1137 240q0 -190 41 -240h-127q-41 50 -41 240v120q0 246 -275 246h-487v-606h-127v1434h545q235 0 355 -106t120 -296q0 -131 -62 -224.5t-178 -139.5q124 -29 180 -102.5t56 -205.5v-120zM702 711q140 0 226 82t86 229
q0 301 -348 301h-418v-612h454z" />
    <glyph glyph-name="racute" unicode="&#x155;" horiz-adv-x="751" 
d="M598 1452l-213 -262h-106l184 262h135zM623 1075q42 0 69 -4v-108q-27 2 -61 2q-160 0 -259.5 -86t-129.5 -238v-641h-121v1065h121v-272q27 119 127.5 200.5t253.5 81.5z" />
    <glyph glyph-name="Rcommaaccent" unicode="&#x156;" horiz-adv-x="1247" 
d="M1137 240q0 -190 41 -240h-127q-41 50 -41 240v120q0 246 -275 246h-487v-606h-127v1434h545q235 0 355 -106t120 -296q0 -131 -62 -224.5t-178 -139.5q124 -29 180 -102.5t56 -205.5v-120zM702 711q140 0 226 82t86 229q0 301 -348 301h-418v-612h454zM547 -209v168h155
v-242q0 -201 -155 -209v43q39 24 52 62t13 117v61h-65z" />
    <glyph glyph-name="rcommaaccent" unicode="&#x157;" horiz-adv-x="751" 
d="M623 1075q42 0 69 -4v-108q-27 2 -61 2q-160 0 -259.5 -86t-129.5 -238v-641h-121v1065h121v-272q27 119 127.5 200.5t253.5 81.5zM102 -209v168h156v-242q0 -201 -156 -209v43q39 24 52.5 62.5t13.5 116.5v61h-66z" />
    <glyph glyph-name="Rcaron" unicode="&#x158;" horiz-adv-x="1247" 
d="M725 1542h-203l-196 258h100l199 -188l196 188h101zM1137 240q0 -190 41 -240h-127q-41 50 -41 240v120q0 246 -275 246h-487v-606h-127v1434h545q235 0 355 -106t120 -296q0 -131 -62 -224.5t-178 -139.5q124 -29 180 -102.5t56 -205.5v-120zM702 711q140 0 226 82
t86 229q0 301 -348 301h-418v-612h454z" />
    <glyph glyph-name="rcaron" unicode="&#x159;" horiz-adv-x="751" 
d="M475 1174h-203l-196 258h100l199 -189l196 189h101zM623 1075q42 0 69 -4v-108q-27 2 -61 2q-160 0 -259.5 -86t-129.5 -238v-641h-121v1065h121v-272q27 119 127.5 200.5t253.5 81.5z" />
    <glyph glyph-name="Sacute" unicode="&#x15a;" horiz-adv-x="1220" 
d="M498 1559h106l213 262h-135zM707 776q100 -20 173 -48.5t131 -74t87.5 -112.5t29.5 -156q0 -186 -134.5 -294.5t-377.5 -108.5q-124 0 -221 32t-159.5 89.5t-98.5 131.5t-47 164h131q55 -307 395 -307q186 0 284.5 80t98.5 213q0 66 -23 116t-65.5 82t-91.5 51t-112 32
l-215 45q-373 76 -373 360q0 165 125.5 273t357.5 108q217 0 341 -98.5t147 -263.5h-127q-23 112 -109 182.5t-252 70.5q-175 0 -263.5 -79t-88.5 -193q0 -204 270 -258z" />
    <glyph glyph-name="sacute" unicode="&#x15b;" horiz-adv-x="964" 
d="M385 1190h107l213 262h-136zM768 809q-59 170 -287 170q-126 0 -197 -53.5t-71 -134.5q0 -74 48.5 -117.5t160.5 -69.5l166 -39q68 -16 110.5 -29.5t86 -35t67 -49t38.5 -68.5t15 -96q0 -78 -34.5 -138t-93.5 -94.5t-131 -51.5t-154 -17q-115 0 -205.5 32t-152.5 104
t-75 179h115q25 -115 110.5 -166t207.5 -51q126 0 209 51.5t83 151.5q0 36 -10.5 63.5t-26.5 45.5t-45.5 32.5t-57.5 23t-73 19.5l-192 47q-139 33 -210 99.5t-71 173.5q0 131 105 207.5t278 76.5q156 0 262 -68t138 -198h-113z" />
    <glyph glyph-name="Scedilla" unicode="&#x15e;" horiz-adv-x="1220" 
d="M1128 385q0 -179 -125.5 -287.5t-353.5 -115.5l-84 -91q72 11 130.5 -29t58.5 -116q0 -182 -287 -182v61q186 6 186 117q0 59 -48.5 80t-112.5 -10l-33 49l82 125q-206 18 -317.5 129.5t-133.5 283.5h131q55 -307 395 -307q186 0 284.5 80t98.5 213q0 66 -23 116
t-65.5 82t-91.5 51t-112 32l-215 45q-373 76 -373 360q0 165 125.5 273t357.5 108q217 0 341 -98.5t147 -263.5h-127q-23 112 -109 182.5t-252 70.5q-175 0 -263.5 -79t-88.5 -193q0 -204 270 -258l187 -37q100 -20 173 -48.5t131 -74t87.5 -112.5t29.5 -156z" />
    <glyph glyph-name="scedilla" unicode="&#x15f;" horiz-adv-x="964" 
d="M905 287q0 -140 -102 -214.5t-260 -84.5l-90 -99q72 11 130 -29t58 -116q0 -182 -287 -182v61q187 6 187 117q0 59 -48.5 80t-113.5 -10l-33 49l84 129q-154 13 -253.5 90.5t-117.5 222.5h115q25 -115 110.5 -166t207.5 -51q126 0 209 51.5t83 151.5q0 36 -10.5 63.5
t-26.5 45.5t-45.5 32.5t-57.5 23t-73 19.5l-192 47q-139 33 -210 99.5t-71 173.5q0 131 105 207.5t278 76.5q156 0 262 -68t138 -198h-113q-59 170 -287 170q-126 0 -197 -53.5t-71 -134.5q0 -74 48.5 -117.5t160.5 -69.5l166 -39q68 -16 110.5 -29.5t86 -35t67 -49
t38.5 -68.5t15 -96z" />
    <glyph glyph-name="Scaron" unicode="&#x160;" horiz-adv-x="1220" 
d="M791 1800h100l-197 -258h-202l-197 258h100l199 -188zM707 776q100 -20 173 -48.5t131 -74t87.5 -112.5t29.5 -156q0 -186 -134.5 -294.5t-377.5 -108.5q-124 0 -221 32t-159.5 89.5t-98.5 131.5t-47 164h131q55 -307 395 -307q186 0 284.5 80t98.5 213q0 66 -23 116
t-65.5 82t-91.5 51t-112 32l-215 45q-373 76 -373 360q0 165 125.5 273t357.5 108q217 0 341 -98.5t147 -263.5h-127q-23 112 -109 182.5t-252 70.5q-175 0 -263.5 -79t-88.5 -193q0 -204 270 -258z" />
    <glyph glyph-name="scaron" unicode="&#x161;" horiz-adv-x="964" 
d="M678 1432h100l-196 -258h-203l-197 258h101l198 -189zM768 809q-59 170 -287 170q-126 0 -197 -53.5t-71 -134.5q0 -74 48.5 -117.5t160.5 -69.5l166 -39q68 -16 110.5 -29.5t86 -35t67 -49t38.5 -68.5t15 -96q0 -78 -34.5 -138t-93.5 -94.5t-131 -51.5t-154 -17
q-115 0 -205.5 32t-152.5 104t-75 179h115q25 -115 110.5 -166t207.5 -51q126 0 209 51.5t83 151.5q0 36 -10.5 63.5t-26.5 45.5t-45.5 32.5t-57.5 23t-73 19.5l-192 47q-139 33 -210 99.5t-71 173.5q0 131 105 207.5t278 76.5q156 0 262 -68t138 -198h-113z" />
    <glyph glyph-name="uni0162" unicode="&#x162;" horiz-adv-x="1173" 
d="M649 0h-10l-102 -111q72 11 130 -29t58 -116q0 -182 -287 -182v61q187 6 187 117q0 59 -48.5 80t-113.5 -10l-33 49l92 141h2v1321h-465v113h1055v-113h-465v-1321z" />
    <glyph glyph-name="uni0163" unicode="&#x163;" horiz-adv-x="612" 
d="M543 8q-49 -15 -109 -18l-90 -99q72 11 130 -29t58 -116q0 -182 -286 -182v61q186 6 186 117q0 59 -49 80t-113 -10l-32 49l86 133q-123 24 -123 168v803h-162v100h162v266h121v-266h204v-100h-204v-791q0 -44 23 -64t81 -20q54 0 117 14v-96z" />
    <glyph glyph-name="Tcaron" unicode="&#x164;" horiz-adv-x="1173" 
d="M684 1542h-203l-196 258h100l199 -188l196 188h101zM1114 1434v-113h-465v-1321h-125v1321h-465v113h1055z" />
    <glyph glyph-name="tcaron" unicode="&#x165;" horiz-adv-x="581" 
d="M709 1446l-213 -262h-107l184 262h136zM322 174q0 -44 23 -64t81 -20q54 0 117 14v-96q-64 -20 -158 -20q-184 0 -184 174v803h-162v100h162v266h121v-266h204v-100h-204v-791z" />
    <glyph glyph-name="Tbar" unicode="&#x166;" horiz-adv-x="1173" 
d="M1114 1321h-465v-262h236v-82h-236v-977h-125v977h-233v82h233v262h-465v113h1055v-113z" />
    <glyph glyph-name="tbar" unicode="&#x167;" horiz-adv-x="612" 
d="M426 90q54 0 117 14v-96q-64 -20 -158 -20q-184 0 -184 174v538h-162v101h162v164h-162v100h162v266h121v-266h204v-100h-204v-164h204v-101h-204v-526q0 -44 23 -64t81 -20z" />
    <glyph glyph-name="Utilde" unicode="&#x168;" horiz-adv-x="1320" 
d="M930 1802h65q0 -87 -54.5 -136.5t-135.5 -49.5q-39 0 -74 15t-62 36t-52.5 42.5t-56.5 36.5t-64 15q-58 0 -86.5 -30t-26.5 -66h-68q0 88 55.5 137t135.5 49q47 0 91 -22.5t72.5 -49t67.5 -49t78 -22.5q58 0 87.5 29t27.5 65zM1200 541q0 -261 -145.5 -410t-395.5 -149
t-394 148.5t-144 410.5v893h127v-887q0 -214 108.5 -333.5t302.5 -119.5t304 120t110 333v887h127v-893z" />
    <glyph glyph-name="utilde" unicode="&#x169;" horiz-adv-x="1122" 
d="M389 1393q-58 0 -86.5 -30.5t-26.5 -66.5h-67q0 88 55 137.5t135 49.5q39 0 74.5 -15t62.5 -36t53 -42t57 -36t63 -15q58 0 87 29.5t27 65.5h66q0 -87 -55.5 -137t-135.5 -50q-47 0 -91 23t-72 50t-67.5 50t-78.5 23zM881 1065h120v-1065h-120v258q-7 -26 -25 -58.5
t-52.5 -71t-78 -69.5t-106 -52t-130.5 -21q-83 0 -149 22.5t-118.5 71t-81.5 134t-29 204.5v647h120v-645q0 -177 75.5 -253.5t217.5 -76.5q77 0 143.5 31t108.5 79.5t68.5 97.5t36.5 95v672z" />
    <glyph glyph-name="Umacron" unicode="&#x16a;" horiz-adv-x="1320" 
d="M362 1821h594v-82h-594v82zM1200 541q0 -261 -145.5 -410t-395.5 -149t-394 148.5t-144 410.5v893h127v-887q0 -214 108.5 -333.5t302.5 -119.5t304 120t110 333v887h127v-893z" />
    <glyph glyph-name="umacron" unicode="&#x16b;" horiz-adv-x="1122" 
d="M850 1452v-82h-594v82h594zM881 1065h120v-1065h-120v258q-7 -26 -25 -58.5t-52.5 -71t-78 -69.5t-106 -52t-130.5 -21q-83 0 -149 22.5t-118.5 71t-81.5 134t-29 204.5v647h120v-645q0 -177 75.5 -253.5t217.5 -76.5q77 0 143.5 31t108.5 79.5t68.5 97.5t36.5 95v672z
" />
    <glyph glyph-name="Ubreve" unicode="&#x16c;" horiz-adv-x="1320" 
d="M852 1821h86q0 -104 -68.5 -175t-210.5 -71q-143 0 -211.5 70.5t-68.5 175.5h86q10 -75 55 -116.5t139 -41.5q176 0 193 158zM1200 541q0 -261 -145.5 -410t-395.5 -149t-394 148.5t-144 410.5v893h127v-887q0 -214 108.5 -333.5t302.5 -119.5t304 120t110 333v887h127
v-893z" />
    <glyph glyph-name="ubreve" unicode="&#x16d;" horiz-adv-x="1122" 
d="M553 1206q-143 0 -212 71t-69 175h86q21 -158 195 -158q175 0 192 158h86q0 -49 -15.5 -91.5t-47 -78t-87 -56t-128.5 -20.5zM881 1065h120v-1065h-120v258q-7 -26 -25 -58.5t-52.5 -71t-78 -69.5t-106 -52t-130.5 -21q-83 0 -149 22.5t-118.5 71t-81.5 134t-29 204.5
v647h120v-645q0 -177 75.5 -253.5t217.5 -76.5q77 0 143.5 31t108.5 79.5t68.5 97.5t36.5 95v672z" />
    <glyph glyph-name="Uring" unicode="&#x16e;" horiz-adv-x="1320" 
d="M662 1559q-71 0 -120.5 48.5t-49.5 116.5t49.5 117t120.5 49t120 -49t49 -117t-49 -116.5t-120 -48.5zM662 1624q43 0 71.5 28.5t28.5 71.5q0 42 -29 71.5t-71 29.5q-43 0 -73 -30t-30 -71q0 -42 30 -71t73 -29zM1200 541q0 -261 -145.5 -410t-395.5 -149t-394 148.5
t-144 410.5v893h127v-887q0 -214 108.5 -333.5t302.5 -119.5t304 120t110 333v887h127v-893z" />
    <glyph glyph-name="uring" unicode="&#x16f;" horiz-adv-x="1122" 
d="M555 1190q-71 0 -120.5 49t-49.5 117t49.5 117t120.5 49t120.5 -49t49.5 -117t-49.5 -117t-120.5 -49zM555 1456q-43 0 -72.5 -29.5t-29.5 -70.5q0 -43 29.5 -72t72.5 -29t71.5 29t28.5 72q0 42 -29 71t-71 29zM881 1065h120v-1065h-120v258q-7 -26 -25 -58.5t-52.5 -71
t-78 -69.5t-106 -52t-130.5 -21q-83 0 -149 22.5t-118.5 71t-81.5 134t-29 204.5v647h120v-645q0 -177 75.5 -253.5t217.5 -76.5q77 0 143.5 31t108.5 79.5t68.5 97.5t36.5 95v672z" />
    <glyph glyph-name="Uhungarumlaut" unicode="&#x170;" horiz-adv-x="1320" 
d="M399 1559h107l213 262h-135zM709 1559h106l213 262h-135zM1200 541q0 -261 -145.5 -410t-395.5 -149t-394 148.5t-144 410.5v893h127v-887q0 -214 108.5 -333.5t302.5 -119.5t304 120t110 333v887h127v-893z" />
    <glyph glyph-name="uhungarumlaut" unicode="&#x171;" horiz-adv-x="1122" 
d="M612 1452l-213 -262h-106l184 262h135zM709 1190h-107l184 262h136zM881 1065h120v-1065h-120v258q-7 -26 -25 -58.5t-52.5 -71t-78 -69.5t-106 -52t-130.5 -21q-83 0 -149 22.5t-118.5 71t-81.5 134t-29 204.5v647h120v-645q0 -177 75.5 -253.5t217.5 -76.5
q77 0 143.5 31t108.5 79.5t68.5 97.5t36.5 95v672z" />
    <glyph glyph-name="Uogonek" unicode="&#x172;" horiz-adv-x="1320" 
d="M1073 1434h127v-893q0 -215 -100.5 -356.5t-278.5 -184.5h6q-114 -40 -180.5 -104t-66.5 -138q0 -66 53 -91.5t147 -8.5v-66q-43 -18 -96 -20.5t-103 10.5t-84 53t-34 101q0 79 64 143.5t157 102.5h-25q-250 0 -394 148.5t-144 410.5v893h127v-887q0 -214 108.5 -333.5
t302.5 -119.5t304 120t110 333v887z" />
    <glyph glyph-name="uogonek" unicode="&#x173;" horiz-adv-x="1122" 
d="M881 1065h120v-1065h-26q-114 -40 -181 -104t-67 -138q0 -65 53 -91t148 -9v-66q-43 -18 -96 -20.5t-103.5 10.5t-84.5 53t-34 101t43.5 116.5t102 91t125.5 56.5v258q-7 -26 -25 -58.5t-52.5 -71t-78 -69.5t-106 -52t-130.5 -21q-83 0 -149 22.5t-118.5 71t-81.5 134
t-29 204.5v647h120v-645q0 -177 75.5 -253.5t217.5 -76.5q77 0 143.5 31t108.5 79.5t68.5 97.5t36.5 95v672z" />
    <glyph glyph-name="Wcircumflex" unicode="&#x174;" horiz-adv-x="2023" 
d="M1208 1563l-196 188l-199 -188h-100l196 258h203l197 -258h-101zM1833 1434h131l-418 -1434h-121l-413 1262l-414 -1262h-121l-418 1434h131l355 -1250l399 1250h135l400 -1250z" />
    <glyph glyph-name="wcircumflex" unicode="&#x175;" horiz-adv-x="1638" 
d="M1018 1194l-197 188l-198 -188h-101l197 258h203l196 -258h-100zM1587 1065l-321 -1065h-119l-328 913l-332 -913h-116l-322 1065h123l268 -918l328 918h100l328 -918l268 918h123z" />
    <glyph glyph-name="Ycircumflex" unicode="&#x176;" horiz-adv-x="1300" 
d="M848 1563l-197 188l-198 -188h-101l197 258h203l196 -258h-100zM715 571v-571h-127v571l-529 863h142l450 -740l449 740h141z" />
    <glyph glyph-name="ycircumflex" unicode="&#x177;" horiz-adv-x="1069" 
d="M735 1194l-196 188l-199 -188h-100l196 258h203l197 -258h-101zM893 1065h125l-465 -1169q-65 -163 -160.5 -229t-228.5 -48v107q201 -28 282 184q20 53 23 71.5t-6 49.5l-414 1034h127l359 -936z" />
    <glyph glyph-name="Ydieresis" unicode="&#x178;" horiz-adv-x="1300" 
d="M375 1821h129v-172h-129v172zM799 1821h129v-172h-129v172zM715 571v-571h-127v571l-529 863h142l450 -740l449 740h141z" />
    <glyph glyph-name="Zacute" unicode="&#x179;" horiz-adv-x="1239" 
d="M528 1559h107l213 262h-135zM1157 113v-113h-1075v109l924 1212h-887v113h1030l-2 -109l-922 -1212h932z" />
    <glyph glyph-name="zacute" unicode="&#x17a;" horiz-adv-x="1011" 
d="M403 1190h107l213 262h-135zM225 104h705v-104h-848v104l704 857h-684v104h828v-104z" />
    <glyph glyph-name="Zdotaccent" unicode="&#x17b;" horiz-adv-x="1239" 
d="M563 1821h129v-172h-129v172zM1157 113v-113h-1075v109l924 1212h-887v113h1030l-2 -109l-922 -1212h932z" />
    <glyph glyph-name="zdotaccent" unicode="&#x17c;" horiz-adv-x="1011" 
d="M438 1452h129v-172h-129v172zM225 104h705v-104h-848v104l704 857h-684v104h828v-104z" />
    <glyph glyph-name="Zcaron" unicode="&#x17d;" horiz-adv-x="1239" 
d="M821 1800h101l-197 -258h-203l-196 258h100l199 -188zM1157 113v-113h-1075v109l924 1212h-887v113h1030l-2 -109l-922 -1212h932z" />
    <glyph glyph-name="zcaron" unicode="&#x17e;" horiz-adv-x="1011" 
d="M696 1432h101l-197 -258h-203l-196 258h100l199 -189zM225 104h705v-104h-848v104l704 857h-684v104h828v-104z" />
    <glyph glyph-name="florin" unicode="&#x192;" horiz-adv-x="579" 
d="M539 1337q-94 0 -141.5 -48.5t-47.5 -172.5v-237h189v-107h-189v-840q0 -76 -16.5 -133t-44 -92.5t-68.5 -57.5t-84 -30t-96 -8v106q91 0 139.5 51.5t48.5 172.5v831h-170v107h170v245q0 94 21.5 158.5t64.5 99.5t96.5 49.5t127.5 14.5v-109z" />
    <glyph glyph-name="uni01CD" unicode="&#x1cd;" horiz-adv-x="1378" 
d="M788 1542h-202l-197 258h100l199 -188l197 188h100zM1184 0l-156 397h-678l-155 -397h-136l576 1434h108l576 -1434h-135zM389 498h600l-299 766z" />
    <glyph glyph-name="uni01CE" unicode="&#x1ce;" horiz-adv-x="1077" 
d="M633 1174h-203l-197 258h101l198 -189l197 189h100zM948 154q0 -42 18 -59.5t62 -14.5v-80q-24 -8 -53 -8q-72 0 -104.5 32t-32.5 113v99q-12 -25 -31 -52.5t-56.5 -64.5t-82.5 -65t-112 -48t-142 -20q-155 0 -249.5 82t-94.5 231q0 131 87 206.5t281 104.5
q310 43 389 82v19q0 147 -67 207.5t-219 60.5q-257 0 -287 -172h-115q17 133 122 200.5t282 67.5q207 0 306 -91t99 -302v-528zM827 342v268q-26 -15 -93 -31.5t-121 -26t-160 -26.5q-145 -21 -204 -74.5t-59 -150.5q0 -102 66 -161.5t180 -59.5q70 0 132.5 22t104 52
t76 69.5t51 67t27.5 51.5z" />
    <glyph glyph-name="uni01CF" unicode="&#x1cf;" horiz-adv-x="368" 
d="M379 1800h100l-196 -258h-203l-197 258h101l198 -188zM248 0h-127v1434h127v-1434z" />
    <glyph glyph-name="uni01D0" unicode="&#x1d0;" horiz-adv-x="364" 
d="M377 1432h100l-196 -258h-203l-197 258h101l198 -189zM121 1065h121v-1065h-121v1065z" />
    <glyph glyph-name="uni01D1" unicode="&#x1d1;" horiz-adv-x="1447" 
d="M920 1800h100l-197 -258h-202l-197 258h100l199 -188zM725 1452q139 0 254 -46.5t200 -136t132 -230.5t47 -322t-47 -322t-132 -230.5t-200 -136t-254 -46.5q-140 0 -255 46.5t-200.5 136t-132.5 230.5t-47 322t47 322t132.5 230.5t200.5 136t255 46.5zM725 94
q232 0 368 157t136 466t-136 465.5t-368 156.5q-233 0 -369.5 -156.5t-136.5 -465.5t136.5 -466t369.5 -157z" />
    <glyph glyph-name="uni01D2" unicode="&#x1d2;" horiz-adv-x="1107" 
d="M750 1432h100l-197 -258h-202l-197 258h100l199 -189zM555 1075q91 0 175.5 -34t154 -99t111.5 -171.5t42 -238.5q0 -135 -42 -242t-111.5 -171.5t-154 -98.5t-175.5 -34q-92 0 -176.5 33.5t-154.5 98.5t-112 172t-42 242q0 132 42 238.5t111.5 171.5t154.5 99t177 34z
M920 532q0 109 -30.5 195t-82.5 138t-116 79t-136 27t-136.5 -27t-116.5 -79t-83 -138t-31 -195q0 -110 31 -197t83 -139t116.5 -79t136.5 -27t136 27t116 79t82.5 139t30.5 197z" />
    <glyph glyph-name="uni01D3" unicode="&#x1d3;" horiz-adv-x="1320" 
d="M854 1800h100l-196 -258h-203l-197 258h101l198 -188zM1200 541q0 -261 -145.5 -410t-395.5 -149t-394 148.5t-144 410.5v893h127v-887q0 -214 108.5 -333.5t302.5 -119.5t304 120t110 333v887h127v-893z" />
    <glyph glyph-name="uni01D4" unicode="&#x1d4;" horiz-adv-x="1122" 
d="M651 1174h-202l-197 258h100l199 -189l197 189h100zM881 1065h120v-1065h-120v258q-7 -26 -25 -58.5t-52.5 -71t-78 -69.5t-106 -52t-130.5 -21q-83 0 -149 22.5t-118.5 71t-81.5 134t-29 204.5v647h120v-645q0 -177 75.5 -253.5t217.5 -76.5q77 0 143.5 31t108.5 79.5
t68.5 97.5t36.5 95v672z" />
    <glyph glyph-name="uni01EA" unicode="&#x1ea;" horiz-adv-x="1447" 
d="M858 -6q-107 -42 -168 -103.5t-61 -132.5q0 -66 53 -91.5t147 -8.5v-66q-43 -18 -96 -20.5t-103 10.5t-84 53t-34 101q0 79 63.5 142.5t157.5 103.5h-8q-140 0 -255 46.5t-200.5 136t-132.5 230.5t-47 322t47 322t132.5 230.5t200.5 136t255 46.5q139 0 254 -46.5
t200 -136t132 -230.5t47 -322q0 -313 -134.5 -497.5t-365.5 -225.5zM219 717q0 -309 136.5 -466t369.5 -157q232 0 368 157t136 466t-136 465.5t-368 156.5q-233 0 -369.5 -156.5t-136.5 -465.5z" />
    <glyph glyph-name="uni01EB" unicode="&#x1eb;" horiz-adv-x="1107" 
d="M1038 532q0 -113 -29.5 -207t-81 -158t-116 -106t-139.5 -61h16q-114 -40 -181 -104t-67 -138q0 -65 53 -91t148 -9v-66q-43 -18 -96 -20.5t-103 10.5t-84 53t-34 101q0 80 67.5 146t163.5 104q-92 0 -176.5 33.5t-154.5 98.5t-112 172t-42 242q0 132 42 238.5
t111.5 171.5t154.5 99t177 34q91 0 175.5 -34t154 -99t111.5 -171.5t42 -238.5zM555 90q72 0 136 27t116 79t82.5 139t30.5 197q0 109 -30.5 195t-82.5 138t-116 79t-136 27t-136.5 -27t-116.5 -79t-83 -138t-31 -195q0 -110 31 -197t83 -139t116.5 -79t136.5 -27z" />
    <glyph glyph-name="Scommaaccent" unicode="&#x218;" horiz-adv-x="1220" 
d="M707 776q100 -20 173 -48.5t131 -74t87.5 -112.5t29.5 -156q0 -186 -134.5 -294.5t-377.5 -108.5q-124 0 -221 32t-159.5 89.5t-98.5 131.5t-47 164h131q55 -307 395 -307q186 0 284.5 80t98.5 213q0 66 -23 116t-65.5 82t-91.5 51t-112 32l-215 45q-373 76 -373 360
q0 165 125.5 273t357.5 108q217 0 341 -98.5t147 -263.5h-127q-23 112 -109 182.5t-252 70.5q-175 0 -263.5 -79t-88.5 -193q0 -204 270 -258zM524 -492v43q39 24 52.5 62.5t13.5 116.5v61h-66v168h156v-242q0 -201 -156 -209z" />
    <glyph glyph-name="scommaaccent" unicode="&#x219;" horiz-adv-x="964" 
d="M768 809q-59 170 -287 170q-126 0 -197 -53.5t-71 -134.5q0 -74 48.5 -117.5t160.5 -69.5l166 -39q68 -16 110.5 -29.5t86 -35t67 -49t38.5 -68.5t15 -96q0 -78 -34.5 -138t-93.5 -94.5t-131 -51.5t-154 -17q-115 0 -205.5 32t-152.5 104t-75 179h115q25 -115 110.5 -166
t207.5 -51q126 0 209 51.5t83 151.5q0 36 -10.5 63.5t-26.5 45.5t-45.5 32.5t-57.5 23t-73 19.5l-192 47q-139 33 -210 99.5t-71 173.5q0 131 105 207.5t278 76.5q156 0 262 -68t138 -198h-113zM412 -514v43q39 24 52 61.5t13 116.5v62h-65v168h155v-242q0 -201 -155 -209z
" />
    <glyph glyph-name="uni021A" unicode="&#x21a;" horiz-adv-x="1173" 
d="M59 1434h1055v-113h-465v-1321h-125v1321h-465v113zM496 -211v168h155v-242q0 -201 -155 -209v43q39 24 52 62t13 117v61h-65z" />
    <glyph glyph-name="uni021B" unicode="&#x21b;" horiz-adv-x="612" 
d="M426 90q54 0 117 14v-96q-64 -20 -158 -20q-184 0 -184 174v803h-162v100h162v266h121v-266h204v-100h-204v-791q0 -44 23 -64t81 -20zM303 -209v168h156v-242q0 -201 -156 -209v43q39 24 52.5 62.5t13.5 116.5v61h-66z" />
    <glyph glyph-name="uni0237" unicode="&#x237;" horiz-adv-x="401" 
d="M-141 -301q87 -41 164 -41q68 0 101.5 44t33.5 122v1241h121v-1245q0 -271 -236 -271q-111 0 -184 48v102z" />
    <glyph glyph-name="circumflex" unicode="&#x2c6;" horiz-adv-x="595" 
d="M496 1194l-197 188l-199 -188h-100l197 258h202l197 -258h-100z" />
    <glyph glyph-name="caron" unicode="&#x2c7;" horiz-adv-x="595" 
d="M496 1432h100l-197 -258h-202l-197 258h100l199 -189z" />
    <glyph glyph-name="breve" unicode="&#x2d8;" horiz-adv-x="559" 
d="M473 1452h86q0 -49 -15.5 -91.5t-47 -78t-87 -56t-128.5 -20.5q-143 0 -212 71t-69 175h86q21 -158 195 -158q175 0 192 158z" />
    <glyph glyph-name="dotaccent" unicode="&#x2d9;" horiz-adv-x="129" 
d="M0 1452h129v-172h-129v172z" />
    <glyph glyph-name="ring" unicode="&#x2da;" horiz-adv-x="339" 
d="M170 1190q-71 0 -120.5 49t-49.5 117t49.5 117t120.5 49t120.5 -49t49.5 -117t-49.5 -117t-120.5 -49zM170 1255q43 0 71.5 29t28.5 72q0 42 -29 71t-71 29q-43 0 -72.5 -29.5t-29.5 -70.5q0 -43 29.5 -72t72.5 -29z" />
    <glyph glyph-name="ogonek" unicode="&#x2db;" horiz-adv-x="364" 
d="M317 -408q-43 -18 -96 -20.5t-103 10.5t-84 53t-34 101q0 89 82 159.5t188 104.5h95q-114 -40 -181 -104t-67 -138q0 -66 53 -91.5t147 -8.5v-66z" />
    <glyph glyph-name="tilde" unicode="&#x2dc;" horiz-adv-x="679" 
d="M614 1434h66q0 -87 -55.5 -137t-135.5 -50q-47 0 -91 23t-72 50t-67.5 50t-78.5 23q-58 0 -86 -30.5t-26 -66.5h-68q0 88 55 137.5t135 49.5q39 0 74.5 -15t62.5 -36t53 -42t57 -36t63 -15q58 0 87 29.5t27 65.5z" />
    <glyph glyph-name="hungarumlaut" unicode="&#x2dd;" horiz-adv-x="632" 
d="M0 1190h106l213 262h-135zM309 1190h107l213 262h-135z" />
    <glyph glyph-name="uni0326" unicode="&#x326;" horiz-adv-x="0" 
d="M-156 -492v43q39 24 52.5 62.5t13.5 116.5v61h-66v168h156v-242q0 -201 -156 -209z" />
    <glyph glyph-name="uni0394" unicode="&#x394;" horiz-adv-x="1499" 
d="M1397 0h-1297l629 1434h41zM1233 109l-483 1114l-484 -1114h967z" />
    <glyph glyph-name="uni03A9" unicode="&#x3a9;" horiz-adv-x="1603" 
d="M1153 117h307v-117h-403v199l90 67q113 88 178.5 206t65.5 259q0 172 -87 313t-221 216t-282 75q-110 0 -215.5 -44.5t-188.5 -122.5t-133.5 -192.5t-50.5 -244.5q0 -142 65 -260t179 -205l88 -67v-199h-404v117h310v12q-361 239 -361 602q0 152 61 287.5t161 228.5
t228 147t261 54q134 0 262 -54t227.5 -147t160 -228.5t60.5 -287.5q0 -363 -358 -602v-12z" />
    <glyph glyph-name="uni03BC" unicode="&#x3bc;" horiz-adv-x="1122" 
d="M881 1065h120v-1065h-120v258q-7 -26 -25 -58.5t-52.5 -71t-78 -69.5t-106 -52t-130.5 -21q-161 0 -258 84v-459h-120v1454h120v-645q0 -177 75.5 -253.5t217.5 -76.5q77 0 143.5 31t108.5 79.5t68.5 97.5t36.5 95v672z" />
    <glyph glyph-name="pi" unicode="&#x3c0;" horiz-adv-x="1333" 
d="M1102 96q67 0 139 37v-108q-72 -37 -147 -37q-199 0 -199 205v765h-469v-958h-121v958h-205v107h1119v-107h-203v-751q0 -68 19.5 -89.5t66.5 -21.5z" />
    <glyph glyph-name="uni0401" unicode="&#x401;" horiz-adv-x="1107" 
d="M414 1821v-172h-129v172h129zM838 1821v-172h-129v172h129zM248 113h799v-113h-926v1434h905v-113h-778v-528h676v-105h-676v-575z" />
    <glyph glyph-name="uni0403" unicode="&#x403;" horiz-adv-x="1005" 
d="M395 1559h107l213 262h-135zM944 1434v-113h-696v-1321h-127v1434h823z" />
    <glyph glyph-name="uni0404" unicode="&#x404;" horiz-adv-x="1316" 
d="M1126 334h129q-45 -166 -190 -259t-352 -93q-135 0 -247 46t-196.5 135t-132 230.5t-47.5 323.5t47.5 323.5t132 230.5t196.5 135t247 46q206 0 349 -93t187 -259h-129q-43 112 -145.5 175.5t-259.5 63.5q-208 0 -342 -138t-152 -408h545v-105h-547q4 -147 43 -261.5
t105.5 -186.5t154.5 -109t193 -37q158 0 262.5 64t148.5 176z" />
    <glyph glyph-name="uni0407" unicode="&#x407;" horiz-adv-x="368" 
d="M-92 1821h129v-172h-129v172zM332 1821h129v-172h-129v172zM248 0h-127v1434h127v-1434z" />
    <glyph glyph-name="uni040C" unicode="&#x40c;" horiz-adv-x="1271" 
d="M856 1821l-213 -262h-106l184 262h135zM1081 0l-608 674l-225 -244v-430h-127v1434h127v-832l774 832h154l-619 -670l674 -764h-150z" />
    <glyph glyph-name="uni040E" unicode="&#x40e;" horiz-adv-x="1130" 
d="M758 1821h86q0 -104 -68.5 -175t-210.5 -71q-143 0 -211.5 70.5t-68.5 175.5h86q10 -75 55 -116.5t139 -41.5q176 0 193 158zM936 1434h133l-485 -1170q-68 -162 -162.5 -227.5t-226.5 -48.5v116q103 -13 167 31t105 146q20 51 22.5 85t-12.5 70l-418 998h136l370 -908z
" />
    <glyph glyph-name="uni0410" unicode="&#x410;" horiz-adv-x="1378" 
d="M1184 0l-156 397h-678l-155 -397h-136l576 1434h108l576 -1434h-135zM389 498h600l-299 766z" />
    <glyph glyph-name="uni0411" unicode="&#x411;" horiz-adv-x="1218" 
d="M618 899q243 0 371.5 -117t128.5 -331q0 -215 -128.5 -333t-371.5 -118h-497v1434h823v-113h-696v-422h370zM623 115q177 0 270.5 86t93.5 250q0 163 -93.5 248t-270.5 85h-375v-669h375z" />
    <glyph glyph-name="uni0412" unicode="&#x412;" horiz-adv-x="1253" 
d="M831 784q156 -40 239 -138.5t83 -246.5q0 -190 -126.5 -294.5t-379.5 -104.5h-526v1434h522q212 0 317 -93t105 -251q0 -110 -58.5 -191t-175.5 -115zM248 1325v-500h411q127 0 202 70.5t75 189.5q0 107 -68.5 173.5t-218.5 66.5h-401zM651 111q190 0 280.5 79t90.5 218
q0 143 -99 229t-288 86h-387v-612h403z" />
    <glyph glyph-name="uni0413" unicode="&#x413;" horiz-adv-x="1005" 
d="M944 1434v-113h-696v-1321h-127v1434h823z" />
    <glyph glyph-name="uni0414" unicode="&#x414;" horiz-adv-x="1478" 
d="M1255 109h162v-250h-121v141h-1116v-141h-121v250h107q98 110 130 333.5t32 692.5v299h927v-1325zM301 109h827v1212h-675v-186q0 -480 -28 -698.5t-124 -327.5z" />
    <glyph glyph-name="uni0415" unicode="&#x415;" horiz-adv-x="1107" 
d="M248 113h799v-113h-926v1434h905v-113h-778v-528h676v-105h-676v-575z" />
    <glyph glyph-name="uni0416" unicode="&#x416;" horiz-adv-x="1759" 
d="M1718 0h-147l-627 678v-678h-127v680l-627 -680h-149l674 733l-635 701h147l590 -648v648h127v-646l588 646h149l-637 -701z" />
    <glyph glyph-name="uni0417" unicode="&#x417;" horiz-adv-x="1161" 
d="M752 778q65 -12 121.5 -40.5t103.5 -73.5t74.5 -112.5t27.5 -148.5q0 -192 -139 -310t-369 -118q-231 0 -364 131t-135 347h114q5 -169 108.5 -269t274.5 -100q172 0 280.5 87t108.5 235q0 151 -110 235t-305 84h-45v90h45q91 0 158.5 23t105.5 62.5t56 85.5t18 99
q0 116 -88 188.5t-230 72.5q-146 0 -234.5 -89.5t-88.5 -267.5h-115q0 224 117 343.5t321 119.5q198 0 316 -104t118 -258q0 -110 -62.5 -193t-182.5 -119z" />
    <glyph glyph-name="uni0418" unicode="&#x418;" horiz-adv-x="1335" 
d="M121 1434h125v-1248h4l817 1248h145v-1434h-127v1245h-4l-813 -1245h-147v1434z" />
    <glyph glyph-name="uni0419" unicode="&#x419;" horiz-adv-x="1335" 
d="M860 1821h86q0 -49 -15.5 -91.5t-47 -78t-87 -56t-128.5 -20.5q-143 0 -212 71t-69 175h86q21 -158 195 -158q175 0 192 158zM121 1434h125v-1248h4l817 1248h145v-1434h-127v1245h-4l-813 -1245h-147v1434z" />
    <glyph glyph-name="uni041A" unicode="&#x41a;" horiz-adv-x="1271" 
d="M1081 0l-608 674l-225 -244v-430h-127v1434h127v-832l774 832h154l-619 -670l674 -764h-150z" />
    <glyph glyph-name="uni041B" unicode="&#x41b;" horiz-adv-x="1378" 
d="M1257 1434v-1434h-124v1321h-701v-870q0 -130 -30.5 -224.5t-86 -147.5t-126 -75.5t-158.5 -17.5v112q61 -1 108.5 15.5t86.5 55t60 111t21 175.5v979h950z" />
    <glyph glyph-name="uni041C" unicode="&#x41c;" horiz-adv-x="1685" 
d="M121 1434h135l586 -1280l588 1280h133v-1434h-125v1184h-4l-537 -1184h-111l-534 1184h-4v-1184h-127v1434z" />
    <glyph glyph-name="uni041D" unicode="&#x41d;" horiz-adv-x="1310" 
d="M1063 1434h127v-1434h-127v645h-815v-645h-127v1434h127v-682h815v682z" />
    <glyph glyph-name="uni041E" unicode="&#x41e;" horiz-adv-x="1447" 
d="M725 1452q139 0 254 -46.5t200 -136t132 -230.5t47 -322t-47 -322t-132 -230.5t-200 -136t-254 -46.5q-140 0 -255 46.5t-200.5 136t-132.5 230.5t-47 322t47 322t132.5 230.5t200.5 136t255 46.5zM725 94q232 0 368 157t136 466t-136 465.5t-368 156.5
q-233 0 -369.5 -156.5t-136.5 -465.5t136.5 -466t369.5 -157z" />
    <glyph glyph-name="uni041F" unicode="&#x41f;" horiz-adv-x="1310" 
d="M1190 1434v-1434h-127v1321h-815v-1321h-127v1434h1069z" />
    <glyph glyph-name="uni0420" unicode="&#x420;" horiz-adv-x="1187" 
d="M618 1434q242 0 371 -118.5t129 -334.5q0 -214 -129 -332.5t-371 -118.5h-370v-530h-127v1434h497zM623 643q177 0 270.5 87.5t93.5 250.5q0 166 -93.5 253t-270.5 87h-375v-678h375z" />
    <glyph glyph-name="uni0421" unicode="&#x421;" horiz-adv-x="1316" 
d="M715 94q158 0 262.5 64t148.5 176h129q-45 -166 -190 -259t-352 -93q-135 0 -247 46t-196.5 135t-132 230.5t-47.5 323.5t47.5 323.5t132 230.5t196.5 135t247 46q206 0 349 -93t187 -259h-129q-43 112 -145.5 175.5t-259.5 63.5q-108 0 -197.5 -38t-156.5 -113
t-104.5 -195.5t-37.5 -275.5t37.5 -275t104.5 -195.5t156.5 -114t197.5 -38.5z" />
    <glyph glyph-name="uni0422" unicode="&#x422;" horiz-adv-x="1173" 
d="M1114 1434v-113h-465v-1321h-125v1321h-465v113h1055z" />
    <glyph glyph-name="uni0423" unicode="&#x423;" horiz-adv-x="1130" 
d="M936 1434h133l-485 -1170q-68 -162 -162.5 -227.5t-226.5 -48.5v116q103 -13 167 31t105 146q20 51 22.5 85t-12.5 70l-418 998h136l370 -908z" />
    <glyph glyph-name="uni0424" unicode="&#x424;" horiz-adv-x="1447" 
d="M1358 717q0 -274 -155.5 -428.5t-416.5 -169.5v-150h-124v150q-262 18 -417 171.5t-155 426.5q0 274 155 427t417 171v149h124v-149q262 -15 417 -169t155 -429zM786 217q207 18 329 145.5t122 354.5t-122 354.5t-329 145.5v-1000zM211 717q0 -227 122 -354.5t329 -145.5
v1000q-207 -18 -329 -145.5t-122 -354.5z" />
    <glyph glyph-name="uni0425" unicode="&#x425;" horiz-adv-x="1296" 
d="M1245 0h-141l-455 641l-456 -641h-144l529 741l-494 693h141l422 -594l422 594h143l-493 -695z" />
    <glyph glyph-name="uni0426" unicode="&#x426;" horiz-adv-x="1325" 
d="M1190 113h76v-402h-121v289h-1024v1434h127v-1321h815v1321h127v-1321z" />
    <glyph glyph-name="uni0427" unicode="&#x427;" horiz-adv-x="1259" 
d="M1012 1434h125v-1434h-125v625q-6 -26 -30 -60.5t-69 -74.5t-101 -73t-135.5 -55t-164.5 -22t-158 24t-133.5 74t-95.5 137.5t-35 204.5v654h127v-648q0 -91 26.5 -157t74.5 -103t107.5 -54t133.5 -17q76 0 146 21t121 54t91.5 74t63.5 80.5t31 73.5v676z" />
    <glyph glyph-name="uni0428" unicode="&#x428;" horiz-adv-x="1583" 
d="M1335 1434h127v-1434h-1341v1434h127v-1321h481v1321h125v-1321h481v1321z" />
    <glyph glyph-name="uni0429" unicode="&#x429;" horiz-adv-x="1603" 
d="M1462 113h82v-402h-123v289h-1300v1434h127v-1321h481v1321h125v-1321h481v1321h127v-1321z" />
    <glyph glyph-name="uni042A" unicode="&#x42a;" horiz-adv-x="1323" 
d="M723 899q243 0 371.5 -117t128.5 -331q0 -215 -128.5 -333t-371.5 -118h-498v1321h-166v113h293v-535h371zM727 115q177 0 271 86t94 250q0 162 -94 247.5t-271 85.5h-375v-669h375z" />
    <glyph glyph-name="uni042B" unicode="&#x42b;" horiz-adv-x="1521" 
d="M618 899q243 0 371.5 -117t128.5 -331q0 -215 -128.5 -333t-371.5 -118h-497v1434h127v-535h370zM1274 1434h127v-1434h-127v1434zM623 115q177 0 270.5 86t93.5 250q0 163 -93.5 248t-270.5 85h-375v-669h375z" />
    <glyph glyph-name="uni042C" unicode="&#x42c;" horiz-adv-x="1218" 
d="M618 899q243 0 371.5 -117t128.5 -331q0 -215 -128.5 -333t-371.5 -118h-497v1434h127v-535h370zM623 115q177 0 270.5 86t93.5 250q0 163 -93.5 248t-270.5 85h-375v-669h375z" />
    <glyph glyph-name="uni042D" unicode="&#x42d;" horiz-adv-x="1345" 
d="M633 1452q135 0 247 -46t196.5 -135t131.5 -230.5t47 -323.5t-47 -323.5t-131.5 -230.5t-196.5 -135t-247 -46q-207 0 -352.5 93t-190.5 259h129q44 -112 149 -176t263 -64q105 0 192.5 37t154.5 109t105.5 186.5t42.5 261.5h-546v105h544q-18 270 -151.5 408t-341.5 138
q-157 0 -260 -63.5t-146 -175.5h-129q44 166 187.5 259t349.5 93z" />
    <glyph glyph-name="uni042E" unicode="&#x42e;" horiz-adv-x="1839" 
d="M1116 1452q139 0 254 -46.5t200 -136t132 -230.5t47 -322t-47 -322t-132 -230.5t-200 -136t-254 -46.5q-178 0 -314 72t-221.5 223t-97.5 368h-235v-645h-127v1434h127v-682h233q9 341 182 520.5t453 179.5zM1116 94q232 0 368 157t136 466t-136 465.5t-368 156.5
q-233 0 -369.5 -156.5t-136.5 -465.5t136.5 -466t369.5 -157z" />
    <glyph glyph-name="uni042F" unicode="&#x42f;" horiz-adv-x="1247" 
d="M1126 1434v-1434h-127v606h-487q-274 0 -274 -246v-120q0 -190 -41 -240h-127q41 50 41 240v120q0 132 55.5 205.5t179.5 102.5q-116 46 -178 139.5t-62 224.5q0 190 120.5 296t355.5 106h544zM999 711v612h-417q-349 0 -349 -301q0 -147 86 -229t226 -82h454z" />
    <glyph glyph-name="uni0430" unicode="&#x430;" horiz-adv-x="1077" 
d="M948 154q0 -42 18 -59.5t62 -14.5v-80q-24 -8 -53 -8q-72 0 -104.5 32t-32.5 113v99q-12 -25 -31 -52.5t-56.5 -64.5t-82.5 -65t-112 -48t-142 -20q-155 0 -249.5 82t-94.5 231q0 131 87 206.5t281 104.5q310 43 389 82v19q0 147 -67 207.5t-219 60.5q-257 0 -287 -172
h-115q17 133 122 200.5t282 67.5q207 0 306 -91t99 -302v-528zM827 342v268q-26 -15 -93 -31.5t-121 -26t-160 -26.5q-145 -21 -204 -74.5t-59 -150.5q0 -102 66 -161.5t180 -59.5q70 0 132.5 22t104 52t76 69.5t51 67t27.5 51.5z" />
    <glyph glyph-name="uni0431" unicode="&#x431;" horiz-adv-x="1126" 
d="M590 1075q90 0 172 -33.5t148.5 -98t106.5 -171.5t40 -242q0 -109 -27.5 -201t-74.5 -155t-109.5 -107t-131.5 -64.5t-141 -20.5q-93 0 -177 35t-154 104t-111.5 187t-40.5 270v397q1 227 115.5 343t329.5 116h165q111 0 156 45h121q-41 -83 -103 -114.5t-188 -31.5h-151
q-153 0 -240.5 -82t-87.5 -229v-182q51 118 157 176.5t226 58.5zM573 86q72 0 136 26.5t116 79t82.5 139.5t30.5 199q0 111 -30.5 198.5t-82 140t-116 79.5t-136.5 27t-136 -27t-116.5 -79.5t-83 -139.5t-30.5 -197t31 -197.5t83.5 -140.5t116.5 -80.5t135 -27.5z" />
    <glyph glyph-name="uni0432" unicode="&#x432;" horiz-adv-x="1105" 
d="M807 586q116 -32 172.5 -106t56.5 -171q0 -157 -105 -233t-331 -76h-479v1065h479q175 0 266.5 -68t91.5 -194q0 -72 -38.5 -132t-112.5 -85zM242 958v-337h362q125 0 182.5 42.5t57.5 131.5q0 163 -244 163h-358zM602 106q177 0 246.5 54t69.5 153q0 35 -8 65t-30 59
t-56.5 49.5t-90.5 33t-129 12.5h-362v-426h360z" />
    <glyph glyph-name="uni0433" unicode="&#x433;" horiz-adv-x="837" 
d="M778 1065v-100h-536v-965h-121v1065h657z" />
    <glyph glyph-name="uni0434" unicode="&#x434;" horiz-adv-x="1183" 
d="M1059 100h65v-239h-110v139h-844v-139h-111v239h64q28 34 46 87t27.5 105t14.5 155.5t5.5 175.5t0.5 229v213h842v-965zM244 100h694v865h-600v-113q0 -157 -0.5 -229t-5.5 -175.5t-14.5 -155.5t-27.5 -105t-46 -87z" />
    <glyph glyph-name="uni0435" unicode="&#x435;" horiz-adv-x="1091" 
d="M1020 535q0 -34 -2 -52h-828q10 -203 111 -302t266 -99q105 0 174 30t125 105h117q-68 -123 -169 -177t-253 -54q-103 0 -191.5 34.5t-156 100t-105.5 171t-38 238.5q0 134 40 240t108.5 171.5t154 99.5t182.5 34q98 0 181 -33.5t147 -99t100.5 -170t36.5 -237.5z
M190 573h715q-3 196 -98.5 301t-251.5 105q-72 0 -134.5 -25t-113 -74t-81.5 -127.5t-36 -179.5z" />
    <glyph glyph-name="uni0436" unicode="&#x436;" horiz-adv-x="1441" 
d="M1411 0h-149l-480 479v-479h-120v481l-482 -481h-149l544 541l-524 524h150l461 -465v465h120v-463l461 463h150l-525 -524z" />
    <glyph glyph-name="uni0437" unicode="&#x437;" horiz-adv-x="1026" 
d="M662 565q119 -17 201.5 -85t82.5 -183q0 -145 -124 -230t-326 -85q-197 0 -311.5 101.5t-114.5 266.5h112q0 -119 86.5 -195.5t227.5 -76.5q150 0 240.5 60.5t90.5 160.5q0 112 -101 168.5t-265 54.5v78q152 1 229.5 53.5t77.5 147.5q0 79 -75.5 131.5t-192.5 52.5
q-124 0 -199.5 -65t-75.5 -158h-112q0 136 104.5 226.5t282.5 90.5q174 0 278.5 -78.5t104.5 -195.5q0 -93 -56.5 -154t-164.5 -86z" />
    <glyph glyph-name="uni0438" unicode="&#x438;" horiz-adv-x="1167" 
d="M121 1065h121v-911h4l661 911h140v-1065h-121v911h-4l-658 -911h-143v1065z" />
    <glyph glyph-name="uni0439" unicode="&#x439;" horiz-adv-x="1167" 
d="M776 1452h86q0 -49 -15.5 -91.5t-47 -78t-87 -56t-128.5 -20.5q-143 0 -212 71t-69 175h86q21 -158 195 -158q175 0 192 158zM121 1065h121v-911h4l661 911h140v-1065h-121v911h-4l-658 -911h-143v1065z" />
    <glyph glyph-name="uni043A" unicode="&#x43a;" horiz-adv-x="1075" 
d="M903 0l-457 522l-204 -211v-311h-121v1065h121v-608l589 608h146l-453 -463l523 -602h-144z" />
    <glyph glyph-name="uni043B" unicode="&#x43b;" horiz-adv-x="1200" 
d="M1079 1065v-1065h-121v965h-544v-525q0 -130 -27.5 -221.5t-80 -142t-120 -71t-155.5 -15.5v100q62 -1 106.5 14t81.5 53t55.5 110t18.5 177v621h786z" />
    <glyph glyph-name="uni043C" unicode="&#x43c;" horiz-adv-x="1404" 
d="M121 1065h129l452 -926l453 926h129v-1065h-121v834h-6l-401 -834h-107l-401 834h-6v-834h-121v1065z" />
    <glyph glyph-name="uni043D" unicode="&#x43d;" horiz-adv-x="1056" 
d="M815 1065h121v-1065h-121v504h-573v-504h-121v1065h121v-463h573v463z" />
    <glyph glyph-name="uni043E" unicode="&#x43e;" horiz-adv-x="1107" 
d="M555 1075q91 0 175.5 -34t154 -99t111.5 -171.5t42 -238.5q0 -135 -42 -242t-111.5 -171.5t-154 -98.5t-175.5 -34q-92 0 -176.5 33.5t-154.5 98.5t-112 172t-42 242q0 132 42 238.5t111.5 171.5t154.5 99t177 34zM920 532q0 109 -30.5 195t-82.5 138t-116 79t-136 27
t-136.5 -27t-116.5 -79t-83 -138t-31 -195q0 -110 31 -197t83 -139t116.5 -79t136.5 -27t136 27t116 79t82.5 139t30.5 197z" />
    <glyph glyph-name="uni043F" unicode="&#x43f;" horiz-adv-x="1075" 
d="M952 1065v-1065h-121v965h-589v-965h-121v1065h831z" />
    <glyph glyph-name="uni0440" unicode="&#x440;" horiz-adv-x="1165" 
d="M623 1075q71 0 138.5 -20t128.5 -64t106.5 -106.5t72.5 -153.5t27 -199q0 -135 -40.5 -242.5t-108.5 -172t-151 -98t-175 -33.5q-130 0 -227.5 64.5t-151.5 185.5v-625h-121v1454h121v-221q55 112 155.5 171.5t225.5 59.5zM604 90q74 0 140 26.5t118.5 78.5t83.5 139
t31 198q0 110 -31 196.5t-83.5 138t-118.5 78t-140 26.5t-138.5 -26t-116.5 -77t-82.5 -137.5t-30.5 -198.5q0 -108 30.5 -194.5t82.5 -139.5t117 -80.5t138 -27.5z" />
    <glyph glyph-name="uni0441" unicode="&#x441;" horiz-adv-x="1056" 
d="M561 88q123 0 202 52.5t120 162.5h112q-32 -112 -98.5 -185t-149.5 -102.5t-186 -29.5q-75 0 -145.5 20t-133.5 63.5t-110 106.5t-74.5 154t-27.5 200t27.5 200t74 154t109 106.5t133 64t145.5 20.5q102 0 184 -29.5t148 -100.5t98 -181h-112q-83 209 -318 209
q-74 0 -140 -27t-118.5 -80t-83.5 -139.5t-31 -196.5q0 -111 31 -198t84.5 -139t119.5 -78.5t140 -26.5z" />
    <glyph glyph-name="uni0442" unicode="&#x442;" horiz-adv-x="937" 
d="M877 1065v-100h-349v-965h-120v965h-347v100h816z" />
    <glyph glyph-name="uni0443" unicode="&#x443;" horiz-adv-x="1069" 
d="M893 1065h125l-465 -1169q-65 -163 -160.5 -229t-228.5 -48v107q201 -28 282 184q20 53 23 71.5t-6 49.5l-414 1034h127l359 -936z" />
    <glyph glyph-name="uni0444" unicode="&#x444;" horiz-adv-x="1187" 
d="M1116 530q0 -127 -37 -229t-102 -167.5t-148 -103t-180 -46.5v-363h-110v363q-97 9 -180 46.5t-148.5 103t-103 167.5t-37.5 229q0 126 37.5 228t103 168t148.5 104t180 47v365h110v-365q97 -9 180 -47t148 -104t102 -167.5t37 -228.5zM174 530q0 -208 100.5 -321
t264.5 -129v901q-79 -9 -144 -40t-115 -85t-78 -137.5t-28 -188.5zM649 80q163 18 263 131t100 319t-100.5 319.5t-262.5 131.5v-901z" />
    <glyph glyph-name="uni0445" unicode="&#x445;" horiz-adv-x="1040" 
d="M979 0h-137l-322 455l-321 -455h-140l396 545l-377 520h137l305 -426l305 426h138l-377 -520z" />
    <glyph glyph-name="uni0446" unicode="&#x446;" horiz-adv-x="1075" 
d="M952 100h72v-387h-115v287h-788v1065h121v-965h589v965h121v-965z" />
    <glyph glyph-name="uni0447" unicode="&#x447;" horiz-adv-x="1081" 
d="M840 1065h121v-1065h-121v543q-8 -33 -36.5 -74.5t-74.5 -85t-120 -73t-158 -29.5q-82 0 -149 21.5t-120 67.5t-82.5 126.5t-29.5 189.5v379h120v-377q0 -303 293 -303q64 0 120 20t95 51t69.5 70.5t47.5 76.5t25 71v391z" />
    <glyph glyph-name="uni0448" unicode="&#x448;" horiz-adv-x="1525" 
d="M1284 1065h121v-1065h-1284v1065h121v-965h463v965h116v-965h463v965z" />
    <glyph glyph-name="uni0449" unicode="&#x449;" horiz-adv-x="1527" 
d="M1405 100h72v-387h-115v287h-1241v1065h121v-965h463v965h116v-965h463v965h121v-965z" />
    <glyph glyph-name="uni044A" unicode="&#x44a;" horiz-adv-x="1179" 
d="M684 668q205 0 315.5 -87.5t110.5 -246.5t-110.5 -246.5t-315.5 -87.5h-440v965h-185v100h306v-397h319zM688 100q303 0 303 234q0 233 -303 233h-323v-467h323z" />
    <glyph glyph-name="uni044B" unicode="&#x44b;" horiz-adv-x="1361" 
d="M561 668q205 0 315.5 -87.5t110.5 -246.5t-110.5 -246.5t-315.5 -87.5h-440v1065h121v-397h319zM1120 1065h121v-1065h-121v1065zM565 100q303 0 303 234q0 233 -303 233h-323v-467h323z" />
    <glyph glyph-name="uni044C" unicode="&#x44c;" horiz-adv-x="1056" 
d="M561 668q205 0 315.5 -87.5t110.5 -246.5t-110.5 -246.5t-315.5 -87.5h-440v1065h121v-397h319zM565 100q303 0 303 234q0 233 -303 233h-323v-467h323z" />
    <glyph glyph-name="uni044D" unicode="&#x44d;" horiz-adv-x="1064" 
d="M506 1075q75 0 145.5 -20.5t133 -64t109 -106.5t74 -154t27.5 -200t-27.5 -200t-74.5 -154t-110 -106.5t-133.5 -63.5t-145.5 -20q-103 0 -186 29.5t-149.5 102.5t-98.5 185h112q41 -110 120 -162.5t202 -52.5q72 0 137 25.5t118 75t85 132t35 187.5h-394v84h392
q-8 94 -42 168.5t-85.5 120t-113.5 69t-130 23.5q-235 0 -318 -209h-112q32 110 98 181t148 100.5t184 29.5z" />
    <glyph glyph-name="uni044E" unicode="&#x44e;" horiz-adv-x="1435" 
d="M883 1075q91 0 175.5 -34t154 -99t111.5 -171.5t42 -238.5q0 -135 -42 -242t-111.5 -171.5t-154 -98.5t-175.5 -34q-87 0 -169 30.5t-150.5 89.5t-113 156t-51.5 219h-157v-483h-121v1065h121v-483h157q7 121 51.5 217.5t113 156t150.5 90.5t169 31zM883 90q72 0 136 27
t115.5 79t82 139t30.5 197q0 109 -30.5 195t-82 138t-115.5 79t-136 27t-136.5 -27t-116.5 -79t-83 -138t-31 -195q0 -110 31 -197t83 -139t116.5 -79t136.5 -27z" />
    <glyph glyph-name="uni044F" unicode="&#x44f;" horiz-adv-x="1064" 
d="M944 1065v-1065h-121v397h-424q-101 0 -143.5 -33.5t-42.5 -109.5v-96q0 -122 -31 -158h-121q31 36 31 158v96q0 78 33 127.5t113 71.5q-160 85 -160 278q0 159 110.5 246.5t315.5 87.5h440zM823 498v467h-323q-303 0 -303 -234q0 -233 303 -233h323z" />
    <glyph glyph-name="uni0451" unicode="&#x451;" horiz-adv-x="1091" 
d="M403 1452v-172h-129v172h129zM827 1452v-172h-129v172h129zM1020 535q0 -34 -2 -52h-828q10 -203 111 -302t266 -99q105 0 174 30t125 105h117q-68 -123 -169 -177t-253 -54q-103 0 -191.5 34.5t-156 100t-105.5 171t-38 238.5q0 134 40 240t108.5 171.5t154 99.5
t182.5 34q98 0 181 -33.5t147 -99t100.5 -170t36.5 -237.5zM190 573h715q-3 196 -98.5 301t-251.5 105q-72 0 -134.5 -25t-113 -74t-81.5 -127.5t-36 -179.5z" />
    <glyph glyph-name="uni0453" unicode="&#x453;" horiz-adv-x="837" 
d="M322 1190h106l213 262h-135zM778 1065v-100h-536v-965h-121v1065h657z" />
    <glyph glyph-name="uni0454" unicode="&#x454;" horiz-adv-x="1056" 
d="M883 303h112q-32 -112 -98.5 -185t-149.5 -102.5t-186 -29.5q-75 0 -145.5 20t-133.5 63.5t-110 106.5t-74.5 154t-27.5 200t27.5 200t74 154t109 106.5t133 64t145.5 20.5q102 0 184 -29.5t148 -100.5t98 -181h-112q-83 209 -318 209q-68 0 -130 -23.5t-113.5 -69
t-85.5 -120t-42 -168.5h392v-84h-394q3 -105 35 -187.5t85 -132t118 -75t137 -25.5q123 0 202 52.5t120 162.5z" />
    <glyph glyph-name="uni0457" unicode="&#x457;" horiz-adv-x="364" 
d="M-94 1452h129v-172h-129v172zM330 1452h129v-172h-129v172zM121 1065h121v-1065h-121v1065z" />
    <glyph glyph-name="uni045C" unicode="&#x45c;" horiz-adv-x="1075" 
d="M760 1452l-213 -262h-107l185 262h135zM903 0l-457 522l-204 -211v-311h-121v1065h121v-608l589 608h146l-453 -463l523 -602h-144z" />
    <glyph glyph-name="uni045E" unicode="&#x45e;" horiz-adv-x="1069" 
d="M727 1452h86q0 -49 -15.5 -91.5t-47 -78t-87 -56t-128.5 -20.5q-143 0 -212 71t-69 175h86q21 -158 195 -158q175 0 192 158zM893 1065h125l-465 -1169q-65 -163 -160.5 -229t-228.5 -48v107q201 -28 282 184q20 53 23 71.5t-6 49.5l-414 1034h127l359 -936z" />
    <glyph glyph-name="uni0490" unicode="&#x490;" horiz-adv-x="1005" 
d="M819 1638h125v-317h-696v-1321h-127v1434h698v204z" />
    <glyph glyph-name="uni0491" unicode="&#x491;" horiz-adv-x="837" 
d="M670 1200h108v-235h-536v-965h-121v1065h549v135z" />
    <glyph glyph-name="Wgrave" unicode="&#x1e80;" horiz-adv-x="2023" 
d="M1104 1559l-184 262h-136l213 -262h107zM1833 1434h131l-418 -1434h-121l-413 1262l-414 -1262h-121l-418 1434h131l355 -1250l399 1250h135l400 -1250z" />
    <glyph glyph-name="wgrave" unicode="&#x1e81;" horiz-adv-x="1638" 
d="M913 1190l-184 262h-135l213 -262h106zM1587 1065l-321 -1065h-119l-328 913l-332 -913h-116l-322 1065h123l268 -918l328 918h100l328 -918l268 918h123z" />
    <glyph glyph-name="Wacute" unicode="&#x1e82;" horiz-adv-x="2023" 
d="M913 1559h107l213 262h-135zM1833 1434h131l-418 -1434h-121l-413 1262l-414 -1262h-121l-418 1434h131l355 -1250l399 1250h135l400 -1250z" />
    <glyph glyph-name="wacute" unicode="&#x1e83;" horiz-adv-x="1638" 
d="M723 1190h106l213 262h-135zM1587 1065l-321 -1065h-119l-328 913l-332 -913h-116l-322 1065h123l268 -918l328 918h100l328 -918l268 918h123z" />
    <glyph glyph-name="Wdieresis" unicode="&#x1e84;" horiz-adv-x="2023" 
d="M735 1821h129v-172h-129v172zM1159 1821h129v-172h-129v172zM1833 1434h131l-418 -1434h-121l-413 1262l-414 -1262h-121l-418 1434h131l355 -1250l399 1250h135l400 -1250z" />
    <glyph glyph-name="wdieresis" unicode="&#x1e85;" horiz-adv-x="1638" 
d="M545 1452h129v-172h-129v172zM969 1452h129v-172h-129v172zM1587 1065l-321 -1065h-119l-328 913l-332 -913h-116l-322 1065h123l268 -918l328 918h100l328 -918l268 918h123z" />
    <glyph glyph-name="uni1E9E" unicode="&#x1e9e;" horiz-adv-x="1298" 
d="M741 870q207 -18 336 -140.5t129 -313.5q0 -202 -118 -319t-316 -117q-194 0 -305 106.5t-111 294.5h121q0 -122 77 -205.5t218 -83.5q147 0 226 92t79 232q0 164 -137 261.5t-379 94.5l354 567h-471q-113 0 -154.5 -49t-41.5 -160v-1130h-127v1135q0 176 75.5 246.5
t245.5 70.5h674z" />
    <glyph glyph-name="Ygrave" unicode="&#x1ef2;" horiz-adv-x="1300" 
d="M743 1559l-184 262h-135l213 -262h106zM715 571v-571h-127v571l-529 863h142l450 -740l449 740h141z" />
    <glyph glyph-name="ygrave" unicode="&#x1ef3;" horiz-adv-x="1069" 
d="M631 1190l-185 262h-135l213 -262h107zM893 1065h125l-465 -1169q-65 -163 -160.5 -229t-228.5 -48v107q201 -28 282 184q20 53 23 71.5t-6 49.5l-414 1034h127l359 -936z" />
    <glyph glyph-name="endash" unicode="&#x2013;" horiz-adv-x="1228" 
d="M92 625h1045v-99h-1045v99z" />
    <glyph glyph-name="emdash" unicode="&#x2014;" horiz-adv-x="1351" 
d="M92 625h1168v-99h-1168v99z" />
    <glyph glyph-name="quoteleft" unicode="&#x2018;" horiz-adv-x="319" 
d="M238 1434v-43q-39 -24 -52.5 -62.5t-13.5 -116.5v-61h66v-168h-156v242q0 201 156 209z" />
    <glyph glyph-name="quoteright" unicode="&#x2019;" horiz-adv-x="319" 
d="M82 983v43q39 24 52 61.5t13 116.5v62h-65v168h156v-242q0 -201 -156 -209z" />
    <glyph glyph-name="quotesinglbase" unicode="&#x201a;" horiz-adv-x="319" 
d="M82 -283v43q39 24 52 62t13 117v61h-65v168h156v-242q0 -201 -156 -209z" />
    <glyph glyph-name="quotedblleft" unicode="&#x201c;" horiz-adv-x="602" 
d="M238 1436v-43q-39 -24 -52.5 -62.5t-13.5 -116.5v-61h66v-168h-156v242q0 201 156 209zM520 1436v-43q-39 -24 -52 -62t-13 -117v-61h65v-168h-155v242q0 201 155 209z" />
    <glyph glyph-name="quotedblright" unicode="&#x201d;" horiz-adv-x="602" 
d="M82 983v43q39 24 52 61.5t13 116.5v62h-65v168h156v-242q0 -201 -156 -209zM365 983v43q39 24 52 61.5t13 116.5v62h-65v168h155v-242q0 -201 -155 -209z" />
    <glyph glyph-name="quotedblbase" unicode="&#x201e;" horiz-adv-x="602" 
d="M82 -283v43q39 24 52 62t13 117v61h-65v168h156v-242q0 -201 -156 -209zM365 -283v43q39 24 52 62t13 117v61h-65v168h155v-242q0 -201 -155 -209z" />
    <glyph glyph-name="dagger" unicode="&#x2020;" horiz-adv-x="636" 
d="M535 1202v-96h-166v-526h-99v526h-168v96h168v232h99v-232h166z" />
    <glyph glyph-name="daggerdbl" unicode="&#x2021;" horiz-adv-x="636" 
d="M535 1016h-166v-598h166v-96h-166v-322h-99v322h-168v96h168v598h-168v96h168v322h99v-322h166v-96z" />
    <glyph glyph-name="bullet" unicode="&#x2022;" horiz-adv-x="522" 
d="M262 381q-66 0 -113 46.5t-47 113.5q0 66 47 111.5t113 45.5t112 -45.5t46 -111.5q0 -67 -46 -113.5t-112 -46.5z" />
    <glyph glyph-name="ellipsis" unicode="&#x2026;" horiz-adv-x="1372" 
d="M102 168h156v-168h-156v168zM608 168h156v-168h-156v168zM1114 168h156v-168h-156v168z" />
    <glyph glyph-name="perthousand" unicode="&#x2030;" horiz-adv-x="2127" 
d="M348 834q-112 0 -184 82t-72 223t72.5 223t183.5 82q112 0 184 -82t72 -223t-72 -223t-184 -82zM268 0l842 1436l96 -2l-839 -1434h-99zM348 922q76 0 122 54.5t46 162.5t-46 163.5t-122 55.5q-75 0 -120.5 -55.5t-45.5 -163.5t45 -162.5t121 -54.5zM1124 -10
q-112 0 -184 82t-72 223t72 223t184 82t184 -82t72 -223t-72 -223t-184 -82zM1778 -10q-112 0 -183 82t-71 223t72 223t182 82q112 0 185 -82t73 -223t-73 -223t-185 -82zM1778 78q77 0 122.5 54.5t45.5 162.5q0 109 -45.5 164t-122.5 55q-74 0 -120 -55.5t-46 -163.5
t46 -162.5t120 -54.5zM1124 76q75 0 120.5 55.5t45.5 163.5t-45 162.5t-121 54.5t-121 -54.5t-45 -162.5t45.5 -163.5t120.5 -55.5z" />
    <glyph glyph-name="guilsinglleft" unicode="&#x2039;" horiz-adv-x="448" 
d="M367 782l-195 -170l195 -172v-125l-285 248v96l285 248v-125z" />
    <glyph glyph-name="guilsinglright" unicode="&#x203a;" horiz-adv-x="409" 
d="M53 782v125l285 -248v-96l-285 -248v125l195 172z" />
    <glyph glyph-name="fraction" unicode="&#x2044;" horiz-adv-x="303" 
d="M-260 0h-72l895 1434h70z" />
    <glyph glyph-name="Euro" unicode="&#x20ac;" horiz-adv-x="1409" 
d="M1219 334h129q-45 -166 -190.5 -259t-352.5 -93q-158 0 -284 60.5t-212.5 189t-113.5 313.5h-123v82h114q-4 58 -4 90q0 35 2 53h-112v80h116q33 295 199.5 448.5t417.5 153.5q206 0 349 -93t187 -259h-129q-43 112 -145.5 175.5t-259.5 63.5q-196 0 -327 -124t-161 -365
h410v-80h-416q-2 -16 -2 -53q0 -32 4 -90h414v-82h-403q36 -222 164.5 -336.5t316.5 -114.5q158 0 263 64t149 176z" />
    <glyph glyph-name="trademark" unicode="&#x2122;" horiz-adv-x="993" 
d="M416 1372h-133v-307h-68v307h-133v62h334v-62zM911 1434v-369h-67v248l-117 -248h-53l-117 248v-248h-68v369h68l143 -297l144 297h67z" />
    <glyph glyph-name="partialdiff" unicode="&#x2202;" horiz-adv-x="1175" 
d="M559 956q155 0 262 -68.5t150 -195.5q8 664 -402 664q-139 0 -220.5 -74t-96.5 -180h-107q5 67 34.5 128.5t80 111.5t131 80t178.5 30q120 0 211.5 -43t148.5 -114t93 -172.5t49.5 -207t13.5 -229.5q0 -345 -128.5 -524.5t-372.5 -179.5q-217 0 -350.5 135.5
t-133.5 359.5q0 216 129.5 347.5t329.5 131.5zM584 84q169 0 267.5 121t98.5 309q0 149 -106.5 250.5t-261.5 101.5q-168 0 -266.5 -105.5t-98.5 -283.5q0 -179 99.5 -286t267.5 -107z" />
    <glyph glyph-name="product" unicode="&#x220f;" horiz-adv-x="1345" 
d="M92 1638h1161v-2027h-112v1919h-936v-1919h-113v2027z" />
    <glyph glyph-name="summation" unicode="&#x2211;" horiz-adv-x="1337" 
d="M1245 1526h-958l504 -901l-504 -901h958v-113h-1153l563 1014l-563 1013h1153v-112z" />
    <glyph glyph-name="minus" unicode="&#x2212;" horiz-adv-x="870" 
d="M80 586h588v-99h-588v99z" />
    <glyph glyph-name="radical" unicode="&#x221a;" horiz-adv-x="1464" 
d="M1372 1638l-565 -2027h-125l-369 958h-221v125h299l344 -909l520 1853h117z" />
    <glyph glyph-name="infinity" unicode="&#x221e;" horiz-adv-x="1636" 
d="M1208 870q142 0 240 -95.5t98 -237.5q0 -146 -98 -243t-240 -97q-204 0 -389 249q-90 -118 -183.5 -183.5t-203.5 -65.5q-146 0 -244 96.5t-98 243.5q0 142 98.5 237.5t243.5 95.5q109 0 202.5 -64.5t184.5 -180.5q187 245 389 245zM438 299q91 0 166 64t148 174
q-72 107 -147.5 169t-166.5 62q-104 0 -167.5 -64.5t-63.5 -166.5q0 -104 64 -171t167 -67zM1198 299q103 0 168.5 67t65.5 171q0 102 -65 166.5t-169 64.5q-90 0 -165.5 -62.5t-147.5 -168.5q73 -109 148 -173.5t165 -64.5z" />
    <glyph glyph-name="integral" unicode="&#x222b;" horiz-adv-x="579" 
d="M229 1124q0 94 21.5 158.5t64.5 99.5t96.5 49.5t127.5 14.5v-109q-94 0 -141.5 -48.5t-47.5 -172.5v-1184q0 -76 -16.5 -133t-44 -92.5t-68.5 -57.5t-84 -30t-96 -8v106q91 0 139.5 51.5t48.5 172.5v1183z" />
    <glyph glyph-name="approxequal" unicode="&#x2248;" horiz-adv-x="899" 
d="M737 809h70q0 -91 -58.5 -144t-140.5 -53q-41 0 -78.5 16t-66 38.5t-56 45t-60 38.5t-66.5 16q-60 0 -90.5 -32t-28.5 -70h-70q0 92 58 145t141 53q50 0 96.5 -24t76.5 -52.5t71.5 -52.5t82.5 -24q59 0 90 31.5t29 68.5zM737 481h70q0 -91 -58 -143.5t-141 -52.5
q-50 0 -96.5 24t-76.5 52.5t-71.5 52.5t-82.5 24q-60 0 -90.5 -32t-28.5 -70h-70q0 93 58 146t141 53q41 0 78.5 -16t66 -38.5t56 -45t60 -38.5t66.5 -16q59 0 90 31.5t29 68.5z" />
    <glyph glyph-name="notequal" unicode="&#x2260;" horiz-adv-x="870" 
d="M702 1149l-139 -361h105v-98h-144l-90 -229h234v-99h-271l-141 -362h-88l141 362h-229v99h266l90 229h-356v98h395l139 361h88z" />
    <glyph glyph-name="lessequal" unicode="&#x2264;" horiz-adv-x="909" 
d="M805 432l-617 336l617 336v110l-703 -391v-112l703 -389v110zM102 96h705v-96h-705v96z" />
    <glyph glyph-name="greaterequal" unicode="&#x2265;" horiz-adv-x="909" 
d="M104 432v-110l703 389v112l-703 391v-110l617 -336zM807 96v-96h-705v96h705z" />
    <glyph glyph-name="lozenge" unicode="&#x25ca;" horiz-adv-x="974" 
d="M565 1434l318 -717l-318 -717h-155l-318 717l318 717h155zM487 106l271 611l-271 610l-270 -610z" />
    <glyph glyph-name="G.ss01" horiz-adv-x="1376" 
d="M817 711h469v-711h-117v252q-138 -270 -456 -270q-136 0 -248.5 45t-197 133.5t-131 230.5t-46.5 326q0 182 46.5 323.5t131 230.5t197 135t248.5 46q200 0 335 -87t183 -243h-129q-96 217 -387 217q-226 0 -361 -157.5t-135 -464.5q0 -157 37 -277.5t104.5 -195
t157.5 -112.5t199 -38q203 0 326.5 115.5t123.5 300.5v94h-350v107z" />
    <glyph glyph-name="R.ss01" horiz-adv-x="1198" 
d="M1128 0h-131l-311 532q-23 -2 -68 -2h-370v-530h-127v1434h497q242 0 371 -118.5t129 -334.5q0 -166 -79.5 -276.5t-231.5 -151.5zM248 643h375q177 0 270.5 87.5t93.5 250.5q0 166 -93.5 253t-270.5 87h-375v-678z" />
    <glyph glyph-name="G.ss05" horiz-adv-x="1376" 
d="M817 711h469v-711h-117v252q-138 -270 -456 -270q-136 0 -248.5 45t-197 133.5t-131 230.5t-46.5 326q0 182 46.5 323.5t131 230.5t197 135t248.5 46q200 0 335 -87t183 -243h-129q-96 217 -387 217q-226 0 -361 -157.5t-135 -464.5q0 -157 37 -277.5t104.5 -195
t157.5 -112.5t199 -38q203 0 326.5 115.5t123.5 300.5v94h-350v107z" />
    <glyph glyph-name="i.loclTRK" horiz-adv-x="364" 
d="M119 1452h129v-172h-129v172zM121 1065h121v-1065h-121v1065z" />
    <glyph glyph-name="a.ss01" 
d="M545 1075q263 0 377 -227v217h120v-1065h-120v229q-54 -119 -150.5 -181t-226.5 -62q-93 0 -176 33t-151 97t-108 171.5t-40 244.5q0 136 40.5 243t108.5 171t151 96.5t175 32.5zM559 88q73 0 138 27t117.5 80t83 140t30.5 197q0 113 -30.5 200t-83 138.5t-117 77
t-138.5 25.5q-75 0 -139.5 -26t-117 -78t-82.5 -138.5t-30 -198.5q0 -113 30 -200t82.5 -139t117 -78.5t139.5 -26.5z" />
    <glyph glyph-name="aacute.ss01" 
d="M483 1190h107l213 262h-135zM545 1075q263 0 377 -227v217h120v-1065h-120v229q-54 -119 -150.5 -181t-226.5 -62q-93 0 -176 33t-151 97t-108 171.5t-40 244.5q0 136 40.5 243t108.5 171t151 96.5t175 32.5zM559 88q73 0 138 27t117.5 80t83 140t30.5 197
q0 113 -30.5 200t-83 138.5t-117 77t-138.5 25.5q-75 0 -139.5 -26t-117 -78t-82.5 -138.5t-30 -198.5q0 -113 30 -200t82.5 -139t117 -78.5t139.5 -26.5z" />
    <glyph glyph-name="abreve.ss01" 
d="M774 1452h86q0 -49 -15.5 -91.5t-47 -78t-87 -56t-128.5 -20.5q-143 0 -212 71t-69 175h86q21 -158 195 -158q175 0 192 158zM545 1075q263 0 377 -227v217h120v-1065h-120v229q-54 -119 -150.5 -181t-226.5 -62q-93 0 -176 33t-151 97t-108 171.5t-40 244.5
q0 136 40.5 243t108.5 171t151 96.5t175 32.5zM559 88q73 0 138 27t117.5 80t83 140t30.5 197q0 113 -30.5 200t-83 138.5t-117 77t-138.5 25.5q-75 0 -139.5 -26t-117 -78t-82.5 -138.5t-30 -198.5q0 -113 30 -200t82.5 -139t117 -78.5t139.5 -26.5z" />
    <glyph glyph-name="uni01CE.ss01" 
d="M776 1432h101l-197 -258h-203l-196 258h100l199 -189zM545 1075q263 0 377 -227v217h120v-1065h-120v229q-54 -119 -150.5 -181t-226.5 -62q-93 0 -176 33t-151 97t-108 171.5t-40 244.5q0 136 40.5 243t108.5 171t151 96.5t175 32.5zM559 88q73 0 138 27t117.5 80
t83 140t30.5 197q0 113 -30.5 200t-83 138.5t-117 77t-138.5 25.5q-75 0 -139.5 -26t-117 -78t-82.5 -138.5t-30 -198.5q0 -113 30 -200t82.5 -139t117 -78.5t139.5 -26.5z" />
    <glyph glyph-name="acircumflex.ss01" 
d="M778 1194l-196 188l-199 -188h-100l196 258h203l197 -258h-101zM545 1075q263 0 377 -227v217h120v-1065h-120v229q-54 -119 -150.5 -181t-226.5 -62q-93 0 -176 33t-151 97t-108 171.5t-40 244.5q0 136 40.5 243t108.5 171t151 96.5t175 32.5zM559 88q73 0 138 27
t117.5 80t83 140t30.5 197q0 113 -30.5 200t-83 138.5t-117 77t-138.5 25.5q-75 0 -139.5 -26t-117 -78t-82.5 -138.5t-30 -198.5q0 -113 30 -200t82.5 -139t117 -78.5t139.5 -26.5z" />
    <glyph glyph-name="adieresis.ss01" 
d="M305 1452h129v-172h-129v172zM729 1452h129v-172h-129v172zM545 1075q263 0 377 -227v217h120v-1065h-120v229q-54 -119 -150.5 -181t-226.5 -62q-93 0 -176 33t-151 97t-108 171.5t-40 244.5q0 136 40.5 243t108.5 171t151 96.5t175 32.5zM559 88q73 0 138 27t117.5 80
t83 140t30.5 197q0 113 -30.5 200t-83 138.5t-117 77t-138.5 25.5q-75 0 -139.5 -26t-117 -78t-82.5 -138.5t-30 -198.5q0 -113 30 -200t82.5 -139t117 -78.5t139.5 -26.5z" />
    <glyph glyph-name="agrave.ss01" 
d="M674 1190l-185 262h-135l213 -262h107zM545 1075q263 0 377 -227v217h120v-1065h-120v229q-54 -119 -150.5 -181t-226.5 -62q-93 0 -176 33t-151 97t-108 171.5t-40 244.5q0 136 40.5 243t108.5 171t151 96.5t175 32.5zM559 88q73 0 138 27t117.5 80t83 140t30.5 197
q0 113 -30.5 200t-83 138.5t-117 77t-138.5 25.5q-75 0 -139.5 -26t-117 -78t-82.5 -138.5t-30 -198.5q0 -113 30 -200t82.5 -139t117 -78.5t139.5 -26.5z" />
    <glyph glyph-name="amacron.ss01" 
d="M285 1452h594v-82h-594v82zM545 1075q263 0 377 -227v217h120v-1065h-120v229q-54 -119 -150.5 -181t-226.5 -62q-93 0 -176 33t-151 97t-108 171.5t-40 244.5q0 136 40.5 243t108.5 171t151 96.5t175 32.5zM559 88q73 0 138 27t117.5 80t83 140t30.5 197
q0 113 -30.5 200t-83 138.5t-117 77t-138.5 25.5q-75 0 -139.5 -26t-117 -78t-82.5 -138.5t-30 -198.5q0 -113 30 -200t82.5 -139t117 -78.5t139.5 -26.5z" />
    <glyph glyph-name="aogonek.ss01" 
d="M922 1065h120v-1065h-26q-114 -40 -181 -104t-67 -138q0 -65 53 -91t148 -9v-66q-43 -18 -96 -20.5t-103.5 10.5t-84.5 53t-34 101t43.5 116.5t102 91t125.5 56.5v229q-54 -119 -150.5 -181t-226.5 -62q-93 0 -176 33t-151 97t-108 171.5t-40 244.5q0 136 40.5 243
t108.5 171t151 96.5t175 32.5q263 0 377 -227v217zM559 88q73 0 138 27t117.5 80t83 140t30.5 197q0 113 -30.5 200t-83 138.5t-117 77t-138.5 25.5q-75 0 -139.5 -26t-117 -78t-82.5 -138.5t-30 -198.5q0 -113 30 -200t82.5 -139t117 -78.5t139.5 -26.5z" />
    <glyph glyph-name="aring.ss01" 
d="M584 1190q-71 0 -120.5 49t-49.5 117t49.5 117t120.5 49t120.5 -49t49.5 -117t-49.5 -117t-120.5 -49zM584 1255q43 0 71.5 29t28.5 72q0 42 -29 71t-71 29q-43 0 -73 -29.5t-30 -70.5q0 -43 30 -72t73 -29zM545 1075q263 0 377 -227v217h120v-1065h-120v229
q-54 -119 -150.5 -181t-226.5 -62q-93 0 -176 33t-151 97t-108 171.5t-40 244.5q0 136 40.5 243t108.5 171t151 96.5t175 32.5zM559 88q73 0 138 27t117.5 80t83 140t30.5 197q0 113 -30.5 200t-83 138.5t-117 77t-138.5 25.5q-75 0 -139.5 -26t-117 -78t-82.5 -138.5
t-30 -198.5q0 -113 30 -200t82.5 -139t117 -78.5t139.5 -26.5z" />
    <glyph glyph-name="atilde.ss01" 
d="M852 1434h66q0 -87 -55.5 -137t-135.5 -50q-47 0 -91 23t-72 50t-67.5 50t-78.5 23q-58 0 -86.5 -30.5t-26.5 -66.5h-67q0 88 55 137.5t135 49.5q47 0 91 -22.5t72.5 -49.5t67.5 -49.5t78 -22.5q58 0 87.5 29.5t27.5 65.5zM545 1075q263 0 377 -227v217h120v-1065h-120
v229q-54 -119 -150.5 -181t-226.5 -62q-93 0 -176 33t-151 97t-108 171.5t-40 244.5q0 136 40.5 243t108.5 171t151 96.5t175 32.5zM559 88q73 0 138 27t117.5 80t83 140t30.5 197q0 113 -30.5 200t-83 138.5t-117 77t-138.5 25.5q-75 0 -139.5 -26t-117 -78t-82.5 -138.5
t-30 -198.5q0 -113 30 -200t82.5 -139t117 -78.5t139.5 -26.5z" />
    <glyph glyph-name="g.ss01" horiz-adv-x="1073" 
d="M528 250q89 0 169.5 -20t147.5 -60t106.5 -109t39.5 -159q0 -92 -39.5 -162.5t-106.5 -110.5t-147.5 -60t-171.5 -20q-69 0 -133 12t-123.5 39t-103.5 67t-70 100.5t-26 134.5q0 107 60 181.5t171 111.5q-92 8 -148.5 46.5t-56.5 104.5q0 54 34.5 89.5t102.5 45.5
q-90 93 -90 246q0 163 107 256.5t274 93.5q172 0 281 -98q49 89 168 86v-94q-85 0 -119 -49q53 -80 53 -195q0 -166 -107 -260t-276 -94q-132 0 -227 59q-50 -3 -74 -26.5t-24 -57.5q0 -98 188 -98h141zM524 983q-132 0 -204 -68.5t-72 -187.5q0 -121 72 -190.5t204 -69.5
t204.5 69.5t72.5 190.5q0 119 -72.5 187.5t-204.5 68.5zM528 -356q73 0 133 14t109 43.5t76.5 80.5t27.5 120q0 88 -49 147t-124 83t-173 24q-95 0 -169 -24t-122.5 -83t-48.5 -147q0 -69 27.5 -120t75.5 -80.5t107.5 -43.5t129.5 -14z" />
    <glyph glyph-name="l.ss01" horiz-adv-x="376" 
d="M334 -4q-109 -11 -161 26.5t-52 141.5v1278h121v-1274q0 -42 21 -61.5t71 -18.5v-92z" />
    <glyph glyph-name="a.ss02" 
d="M545 1075q263 0 377 -227v217h120v-1065h-120v229q-54 -119 -150.5 -181t-226.5 -62q-93 0 -176 33t-151 97t-108 171.5t-40 244.5q0 136 40.5 243t108.5 171t151 96.5t175 32.5zM559 88q73 0 138 27t117.5 80t83 140t30.5 197q0 113 -30.5 200t-83 138.5t-117 77
t-138.5 25.5q-75 0 -139.5 -26t-117 -78t-82.5 -138.5t-30 -198.5q0 -113 30 -200t82.5 -139t117 -78.5t139.5 -26.5z" />
    <glyph glyph-name="aacute.ss02" 
d="M483 1190h107l213 262h-135zM545 1075q263 0 377 -227v217h120v-1065h-120v229q-54 -119 -150.5 -181t-226.5 -62q-93 0 -176 33t-151 97t-108 171.5t-40 244.5q0 136 40.5 243t108.5 171t151 96.5t175 32.5zM559 88q73 0 138 27t117.5 80t83 140t30.5 197
q0 113 -30.5 200t-83 138.5t-117 77t-138.5 25.5q-75 0 -139.5 -26t-117 -78t-82.5 -138.5t-30 -198.5q0 -113 30 -200t82.5 -139t117 -78.5t139.5 -26.5z" />
    <glyph glyph-name="abreve.ss02" 
d="M774 1452h86q0 -49 -15.5 -91.5t-47 -78t-87 -56t-128.5 -20.5q-143 0 -212 71t-69 175h86q21 -158 195 -158q175 0 192 158zM545 1075q263 0 377 -227v217h120v-1065h-120v229q-54 -119 -150.5 -181t-226.5 -62q-93 0 -176 33t-151 97t-108 171.5t-40 244.5
q0 136 40.5 243t108.5 171t151 96.5t175 32.5zM559 88q73 0 138 27t117.5 80t83 140t30.5 197q0 113 -30.5 200t-83 138.5t-117 77t-138.5 25.5q-75 0 -139.5 -26t-117 -78t-82.5 -138.5t-30 -198.5q0 -113 30 -200t82.5 -139t117 -78.5t139.5 -26.5z" />
    <glyph glyph-name="uni01CE.ss02" 
d="M776 1432h101l-197 -258h-203l-196 258h100l199 -189zM545 1075q263 0 377 -227v217h120v-1065h-120v229q-54 -119 -150.5 -181t-226.5 -62q-93 0 -176 33t-151 97t-108 171.5t-40 244.5q0 136 40.5 243t108.5 171t151 96.5t175 32.5zM559 88q73 0 138 27t117.5 80
t83 140t30.5 197q0 113 -30.5 200t-83 138.5t-117 77t-138.5 25.5q-75 0 -139.5 -26t-117 -78t-82.5 -138.5t-30 -198.5q0 -113 30 -200t82.5 -139t117 -78.5t139.5 -26.5z" />
    <glyph glyph-name="acircumflex.ss02" 
d="M778 1194l-196 188l-199 -188h-100l196 258h203l197 -258h-101zM545 1075q263 0 377 -227v217h120v-1065h-120v229q-54 -119 -150.5 -181t-226.5 -62q-93 0 -176 33t-151 97t-108 171.5t-40 244.5q0 136 40.5 243t108.5 171t151 96.5t175 32.5zM559 88q73 0 138 27
t117.5 80t83 140t30.5 197q0 113 -30.5 200t-83 138.5t-117 77t-138.5 25.5q-75 0 -139.5 -26t-117 -78t-82.5 -138.5t-30 -198.5q0 -113 30 -200t82.5 -139t117 -78.5t139.5 -26.5z" />
    <glyph glyph-name="adieresis.ss02" 
d="M305 1452h129v-172h-129v172zM729 1452h129v-172h-129v172zM545 1075q263 0 377 -227v217h120v-1065h-120v229q-54 -119 -150.5 -181t-226.5 -62q-93 0 -176 33t-151 97t-108 171.5t-40 244.5q0 136 40.5 243t108.5 171t151 96.5t175 32.5zM559 88q73 0 138 27t117.5 80
t83 140t30.5 197q0 113 -30.5 200t-83 138.5t-117 77t-138.5 25.5q-75 0 -139.5 -26t-117 -78t-82.5 -138.5t-30 -198.5q0 -113 30 -200t82.5 -139t117 -78.5t139.5 -26.5z" />
    <glyph glyph-name="agrave.ss02" 
d="M674 1190l-185 262h-135l213 -262h107zM545 1075q263 0 377 -227v217h120v-1065h-120v229q-54 -119 -150.5 -181t-226.5 -62q-93 0 -176 33t-151 97t-108 171.5t-40 244.5q0 136 40.5 243t108.5 171t151 96.5t175 32.5zM559 88q73 0 138 27t117.5 80t83 140t30.5 197
q0 113 -30.5 200t-83 138.5t-117 77t-138.5 25.5q-75 0 -139.5 -26t-117 -78t-82.5 -138.5t-30 -198.5q0 -113 30 -200t82.5 -139t117 -78.5t139.5 -26.5z" />
    <glyph glyph-name="amacron.ss02" 
d="M285 1452h594v-82h-594v82zM545 1075q263 0 377 -227v217h120v-1065h-120v229q-54 -119 -150.5 -181t-226.5 -62q-93 0 -176 33t-151 97t-108 171.5t-40 244.5q0 136 40.5 243t108.5 171t151 96.5t175 32.5zM559 88q73 0 138 27t117.5 80t83 140t30.5 197
q0 113 -30.5 200t-83 138.5t-117 77t-138.5 25.5q-75 0 -139.5 -26t-117 -78t-82.5 -138.5t-30 -198.5q0 -113 30 -200t82.5 -139t117 -78.5t139.5 -26.5z" />
    <glyph glyph-name="aogonek.ss02" 
d="M922 1065h120v-1065h-26q-114 -40 -181 -104t-67 -138q0 -65 53 -91t148 -9v-66q-43 -18 -96 -20.5t-103.5 10.5t-84.5 53t-34 101t43.5 116.5t102 91t125.5 56.5v229q-54 -119 -150.5 -181t-226.5 -62q-93 0 -176 33t-151 97t-108 171.5t-40 244.5q0 136 40.5 243
t108.5 171t151 96.5t175 32.5q263 0 377 -227v217zM559 88q73 0 138 27t117.5 80t83 140t30.5 197q0 113 -30.5 200t-83 138.5t-117 77t-138.5 25.5q-75 0 -139.5 -26t-117 -78t-82.5 -138.5t-30 -198.5q0 -113 30 -200t82.5 -139t117 -78.5t139.5 -26.5z" />
    <glyph glyph-name="aring.ss02" 
d="M584 1190q-71 0 -120.5 49t-49.5 117t49.5 117t120.5 49t120.5 -49t49.5 -117t-49.5 -117t-120.5 -49zM584 1255q43 0 71.5 29t28.5 72q0 42 -29 71t-71 29q-43 0 -73 -29.5t-30 -70.5q0 -43 30 -72t73 -29zM545 1075q263 0 377 -227v217h120v-1065h-120v229
q-54 -119 -150.5 -181t-226.5 -62q-93 0 -176 33t-151 97t-108 171.5t-40 244.5q0 136 40.5 243t108.5 171t151 96.5t175 32.5zM559 88q73 0 138 27t117.5 80t83 140t30.5 197q0 113 -30.5 200t-83 138.5t-117 77t-138.5 25.5q-75 0 -139.5 -26t-117 -78t-82.5 -138.5
t-30 -198.5q0 -113 30 -200t82.5 -139t117 -78.5t139.5 -26.5z" />
    <glyph glyph-name="atilde.ss02" 
d="M852 1434h66q0 -87 -55.5 -137t-135.5 -50q-47 0 -91 23t-72 50t-67.5 50t-78.5 23q-58 0 -86.5 -30.5t-26.5 -66.5h-67q0 88 55 137.5t135 49.5q47 0 91 -22.5t72.5 -49.5t67.5 -49.5t78 -22.5q58 0 87.5 29.5t27.5 65.5zM545 1075q263 0 377 -227v217h120v-1065h-120
v229q-54 -119 -150.5 -181t-226.5 -62q-93 0 -176 33t-151 97t-108 171.5t-40 244.5q0 136 40.5 243t108.5 171t151 96.5t175 32.5zM559 88q73 0 138 27t117.5 80t83 140t30.5 197q0 113 -30.5 200t-83 138.5t-117 77t-138.5 25.5q-75 0 -139.5 -26t-117 -78t-82.5 -138.5
t-30 -198.5q0 -113 30 -200t82.5 -139t117 -78.5t139.5 -26.5z" />
    <glyph glyph-name="g.ss03" horiz-adv-x="1073" 
d="M528 250q89 0 169.5 -20t147.5 -60t106.5 -109t39.5 -159q0 -92 -39.5 -162.5t-106.5 -110.5t-147.5 -60t-171.5 -20q-69 0 -133 12t-123.5 39t-103.5 67t-70 100.5t-26 134.5q0 107 60 181.5t171 111.5q-92 8 -148.5 46.5t-56.5 104.5q0 54 34.5 89.5t102.5 45.5
q-90 93 -90 246q0 163 107 256.5t274 93.5q172 0 281 -98q49 89 168 86v-94q-85 0 -119 -49q53 -80 53 -195q0 -166 -107 -260t-276 -94q-132 0 -227 59q-50 -3 -74 -26.5t-24 -57.5q0 -98 188 -98h141zM524 983q-132 0 -204 -68.5t-72 -187.5q0 -121 72 -190.5t204 -69.5
t204.5 69.5t72.5 190.5q0 119 -72.5 187.5t-204.5 68.5zM528 -356q73 0 133 14t109 43.5t76.5 80.5t27.5 120q0 88 -49 147t-124 83t-173 24q-95 0 -169 -24t-122.5 -83t-48.5 -147q0 -69 27.5 -120t75.5 -80.5t107.5 -43.5t129.5 -14z" />
    <glyph glyph-name="l.ss04" horiz-adv-x="376" 
d="M334 -4q-109 -11 -161 26.5t-52 141.5v1278h121v-1274q0 -42 21 -61.5t71 -18.5v-92z" />
    <glyph glyph-name="f_t" horiz-adv-x="1249" 
d="M1063 90q54 0 117 14v-96q-64 -20 -158 -20q-184 0 -184 174v803h-531v-965h-121v965h-145v100h145v133q0 64 14.5 112.5t38 77.5t58.5 47t70 24.5t77 6.5q88 0 156 -22v-92q-61 14 -135 14q-81 0 -119.5 -38t-38.5 -132v-131h531v266h120v-266h205v-100h-205v-791
q0 -44 23.5 -64t81.5 -20z" />
    <glyph glyph-name="r_t" horiz-adv-x="1253" 
d="M1067 90q54 0 117 14v-96q-64 -20 -158 -20q-184 0 -184 174v803h-148q-203 0 -310.5 -84t-141.5 -242v-639h-121v1065h121v-272q27 117 137 193t301 79h162v266h121v-266h204v-100h-204v-791q0 -44 23 -64t81 -20z" />
    <glyph glyph-name="zero.dnom" horiz-adv-x="575" 
d="M287 -4q97 0 157 72t60 186v27q0 114 -60 186t-157 72q-96 0 -155.5 -71.5t-59.5 -186.5v-27q0 -114 59.5 -186t155.5 -72zM287 485q70 0 114.5 -54t44.5 -150v-27q0 -96 -44.5 -150.5t-114.5 -54.5q-68 0 -113 55t-45 150v27q0 95 45 149.5t113 54.5z" />
    <glyph glyph-name="one.dnom" horiz-adv-x="337" 
d="M246 535v-535h-58v455q-29 -53 -106 -47v53q35 0 65 22.5t41 51.5h58z" />
    <glyph glyph-name="two.dnom" horiz-adv-x="512" 
d="M82 0v18q0 73 36 128.5t118 109.5q47 29 66 43t34.5 38t15.5 56q0 42 -27.5 68t-76.5 26q-50 0 -78.5 -28t-28.5 -80v-12h-59v12q0 74 45 119t121 45q75 0 119.5 -42.5t44.5 -107.5q0 -58 -36.5 -97.5t-111.5 -86.5q-121 -71 -121 -150v-6h277v-53h-338z" />
    <glyph glyph-name="three.dnom" horiz-adv-x="544" 
d="M342 285q49 -11 85 -45t36 -93q0 -68 -49.5 -111.5t-141.5 -43.5q-89 0 -139.5 47.5t-50.5 126.5h57q1 -61 37 -92t98 -31q58 0 95 28t37 81q0 51 -38.5 77.5t-105.5 26.5h-22v47h22q58 0 89.5 27.5t31.5 68.5q0 42 -29.5 67.5t-81.5 25.5q-55 0 -85.5 -29.5t-30.5 -87.5
h-56q0 79 46 123.5t126 44.5q79 0 122.5 -40.5t43.5 -101.5q0 -43 -26.5 -74t-69.5 -42z" />
    <glyph glyph-name="four.dnom" horiz-adv-x="526" 
d="M444 135h-61v-135h-55v135h-246v47l246 353h55v-353h61v-47zM328 182v275l-191 -275h191z" />
    <glyph glyph-name="five.dnom" horiz-adv-x="493" 
d="M260 354q70 0 121 -48t51 -132q0 -85 -51 -134.5t-137 -49.5q-83 0 -133 49t-50 125h54q2 -50 34.5 -85.5t94.5 -35.5t96.5 35t34.5 96q0 68 -38 100.5t-87 32.5q-74 0 -121 -59h-57l45 287h270v-54h-229l-29 -182q14 20 48 37.5t83 17.5z" />
    <glyph glyph-name="six.dnom" horiz-adv-x="540" 
d="M285 346q71 0 122.5 -42t51.5 -128q0 -92 -53 -139t-130 -47q-86 0 -140 63t-54 201q0 61 10 111t32 90.5t60 63t90 22.5q81 0 122.5 -44t45.5 -100h-51q-5 40 -33.5 67.5t-83.5 27.5q-30 0 -52.5 -10t-37 -29.5t-23.5 -39.5t-14 -50t-7 -49.5t-3 -47.5q17 33 56 56.5
t92 23.5zM279 43q55 0 88.5 32.5t33.5 100.5q0 62 -34 93.5t-88 31.5q-57 0 -94.5 -33.5t-37.5 -89.5q0 -60 36.5 -97.5t95.5 -37.5z" />
    <glyph glyph-name="seven.dnom" horiz-adv-x="458" 
d="M397 535v-54l-217 -481h-57l221 481h-303v54h356z" />
    <glyph glyph-name="eight.dnom" horiz-adv-x="471" 
d="M324 291q96 -46 96 -139q0 -70 -53 -113t-134 -43q-77 0 -129.5 43.5t-52.5 112.5q0 95 96 139q-65 48 -65 115q0 55 40 94t111 39q74 0 115 -39t41 -94q0 -69 -65 -115zM131 406q0 -40 31.5 -68.5t70.5 -28.5q44 0 74.5 28t30.5 69q0 38 -25 62t-80 24q-49 0 -75.5 -25
t-26.5 -61zM233 43q61 0 96.5 29t35.5 82q0 54 -35.5 81t-96.5 27q-55 0 -92 -27.5t-37 -80.5q0 -51 37 -81t92 -30z" />
    <glyph glyph-name="nine.dnom" horiz-adv-x="540" 
d="M256 184q-71 0 -122.5 42t-51.5 128q0 92 52.5 139.5t129.5 47.5q86 0 140.5 -63.5t54.5 -201.5q0 -83 -17.5 -144.5t-62 -101.5t-113.5 -40q-80 0 -122 43.5t-46 99.5h52q16 -94 116 -94q35 0 61 15.5t40 37.5t22.5 55.5t10.5 58.5t3 58q-15 -32 -54.5 -56t-92.5 -24z
M262 487q-55 0 -89 -32.5t-34 -100.5q0 -62 34.5 -93.5t90.5 -31.5q55 0 92 33.5t37 89.5q0 60 -36.5 97.5t-94.5 37.5z" />
    <glyph glyph-name="zero.numr" horiz-adv-x="575" 
d="M287 897q97 0 157 72t60 186v27q0 114 -60 186t-157 72q-96 0 -155.5 -72t-59.5 -186v-27q0 -115 59.5 -186.5t155.5 -71.5zM287 1386q70 0 114.5 -54t44.5 -150v-27q0 -96 -44.5 -150.5t-114.5 -54.5q-68 0 -113 55t-45 150v27q0 95 45 149.5t113 54.5z" />
    <glyph glyph-name="one.numr" horiz-adv-x="348" 
d="M246 1436v-535h-58v455q-29 -53 -106 -47v53q35 0 65 22.5t41 51.5h58z" />
    <glyph glyph-name="two.numr" horiz-adv-x="512" 
d="M82 901v19q0 73 36 128t118 109q47 29 66 43t34.5 38t15.5 56q0 42 -28 68.5t-76 26.5q-50 0 -78.5 -28.5t-28.5 -80.5v-12h-59v12q0 74 45 119t121 45q75 0 119.5 -42.5t44.5 -107.5q0 -58 -36.5 -97.5t-111.5 -86.5q-121 -71 -121 -149v-7h277v-53h-338z" />
    <glyph glyph-name="three.numr" horiz-adv-x="583" 
d="M350 1186q49 -11 85 -44.5t36 -92.5q0 -68 -49.5 -112t-140.5 -44q-90 0 -140.5 47.5t-50.5 126.5h57q1 -61 37.5 -92t98.5 -31q58 0 94.5 28t36.5 81q0 51 -38.5 77.5t-105.5 26.5h-22v47h22q58 0 89.5 27.5t31.5 68.5q0 42 -29 67.5t-81 25.5q-55 0 -86 -30t-31 -87
h-55q0 79 46 123.5t126 44.5q79 0 122 -40t43 -101q0 -43 -27 -74.5t-69 -42.5z" />
    <glyph glyph-name="four.numr" horiz-adv-x="526" 
d="M444 1036h-61v-135h-55v135h-246v47l246 353h55v-353h61v-47zM328 1083v275l-191 -275h191z" />
    <glyph glyph-name="five.numr" horiz-adv-x="493" 
d="M260 1255q70 0 121 -48t51 -132q0 -85 -51 -134.5t-137 -49.5q-83 0 -133 49t-50 125h54q2 -50 34.5 -85.5t94.5 -35.5t96.5 35t34.5 96q0 68 -38 100.5t-87 32.5q-74 0 -121 -59h-57l45 287h270v-54h-229l-29 -182q14 20 48 37.5t83 17.5z" />
    <glyph glyph-name="six.numr" horiz-adv-x="540" 
d="M285 1245q71 0 122.5 -42t51.5 -128q0 -92 -53 -139t-130 -47q-86 0 -140 63t-54 201q0 61 10 111t32 90.5t60 63t90 22.5q81 0 122.5 -44t45.5 -100h-51q-5 40 -33.5 67.5t-83.5 27.5q-30 0 -52.5 -10t-37 -29.5t-23.5 -39.5t-14 -50t-7 -49.5t-3 -47.5q17 33 56 56.5
t92 23.5zM279 942q55 0 88.5 32.5t33.5 100.5q0 62 -34 93.5t-88 31.5q-57 0 -94.5 -33.5t-37.5 -89.5q0 -60 36.5 -97.5t95.5 -37.5z" />
    <glyph glyph-name="seven.numr" horiz-adv-x="458" 
d="M397 1436v-54l-217 -481h-57l221 481h-303v54h356z" />
    <glyph glyph-name="eight.numr" horiz-adv-x="471" 
d="M324 1192q96 -46 96 -139q0 -70 -53 -113t-134 -43q-77 0 -129.5 43.5t-52.5 112.5q0 95 96 139q-65 48 -65 115q0 55 40 94t111 39q74 0 115 -39t41 -94q0 -69 -65 -115zM131 1307q0 -40 31.5 -68.5t70.5 -28.5q44 0 74.5 28t30.5 69q0 38 -25 62t-80 24
q-49 0 -75.5 -25t-26.5 -61zM233 944q61 0 96.5 29t35.5 82q0 54 -35.5 81t-96.5 27q-55 0 -92 -27.5t-37 -80.5q0 -51 37 -81t92 -30z" />
    <glyph glyph-name="nine.numr" horiz-adv-x="540" 
d="M256 1085q-71 0 -122.5 42t-51.5 128q0 92 52.5 139.5t129.5 47.5q86 0 140.5 -63t54.5 -201q0 -83 -17.5 -144.5t-62.5 -102t-113 -40.5q-80 0 -122 43.5t-46 99.5h52q16 -94 116 -94q35 0 61 15.5t40 37.5t22.5 55.5t10.5 58.5t3 58q-15 -32 -54.5 -56t-92.5 -24z
M262 1389q-55 0 -89 -33t-34 -101q0 -62 34.5 -93.5t90.5 -31.5q55 0 92 33.5t37 89.5q0 60 -36.5 98t-94.5 38z" />
    <glyph glyph-name="ampersand.001" horiz-adv-x="1366" 
d="M1296 0h-139l-151 170q-88 -99 -201.5 -147t-233.5 -48q-110 0 -201.5 32t-152 86.5t-94 126t-33.5 151.5q0 73 21.5 133t68.5 112t105.5 95.5t148.5 95.5q-57 64 -93 110.5t-67.5 115.5t-31.5 132q0 132 85.5 214.5t245.5 82.5q150 0 236 -82.5t86 -208.5
q0 -115 -63 -196.5t-242 -186.5l399 -446q90 164 96 391h113q-14 -290 -131 -477zM573 1368q-105 0 -167 -55.5t-62 -151.5q0 -31 11.5 -64t25.5 -58.5t43 -62.5t46 -56.5t54 -59.5l4 2q140 79 201.5 145t61.5 158t-60 147.5t-158 55.5zM571 84q101 0 194 43t165 129
l-430 479q-140 -83 -211.5 -167.5t-71.5 -192.5q0 -128 98 -209.5t256 -81.5z" />
    <glyph glyph-name="Aacutecy" horiz-adv-x="1378" 
d="M911 1821l-213 -262h-106l184 262h135zM1184 0l-156 397h-678l-155 -397h-136l576 1434h108l576 -1434h-135zM389 498h600l-299 766z" />
    <glyph glyph-name="Ieacutecy" horiz-adv-x="1107" 
d="M782 1821l-213 -262h-106l184 262h135zM248 113h799v-113h-926v1434h905v-113h-778v-528h676v-105h-676v-575z" />
    <glyph glyph-name="Iiacutecy" horiz-adv-x="1335" 
d="M569 1559h107l213 262h-135zM121 1434h125v-1248h4l817 1248h145v-1434h-127v1245h-4l-813 -1245h-147v1434z" />
    <glyph glyph-name="Oacutecy" horiz-adv-x="1447" 
d="M627 1559h106l213 262h-135zM725 1452q139 0 254 -46.5t200 -136t132 -230.5t47 -322t-47 -322t-132 -230.5t-200 -136t-254 -46.5q-140 0 -255 46.5t-200.5 136t-132.5 230.5t-47 322t47 322t132.5 230.5t200.5 136t255 46.5zM725 94q232 0 368 157t136 466t-136 465.5
t-368 156.5q-233 0 -369.5 -156.5t-136.5 -465.5t136.5 -466t369.5 -157z" />
    <glyph glyph-name="Uacutecy" horiz-adv-x="1130" 
d="M467 1559h106l213 262h-135zM936 1434h133l-485 -1170q-68 -162 -162.5 -227.5t-226.5 -48.5v116q103 -13 167 31t105 146q20 51 22.5 85t-12.5 70l-418 998h136l370 -908z" />
    <glyph glyph-name="Yeruacutecy" horiz-adv-x="1521" 
d="M983 1821l-213 -262h-106l184 262h135zM618 899q243 0 371.5 -117t128.5 -331q0 -215 -128.5 -333t-371.5 -118h-497v1434h127v-535h370zM1274 1434h127v-1434h-127v1434zM623 115q177 0 270.5 86t93.5 250q0 163 -93.5 248t-270.5 85h-375v-669h375z" />
    <glyph glyph-name="Ereversedacutecy" horiz-adv-x="1345" 
d="M895 1821l-213 -262h-107l185 262h135zM633 1452q135 0 247 -46t196.5 -135t131.5 -230.5t47 -323.5t-47 -323.5t-131.5 -230.5t-196.5 -135t-247 -46q-207 0 -352.5 93t-190.5 259h129q44 -112 149 -176t263 -64q105 0 192.5 37t154.5 109t105.5 186.5t42.5 261.5h-546
v105h544q-18 270 -151.5 408t-341.5 138q-157 0 -260 -63.5t-146 -175.5h-129q44 166 187.5 259t349.5 93z" />
    <glyph glyph-name="Iuacutecy" horiz-adv-x="1839" 
d="M1141 1821l-213 -262h-107l185 262h135zM1116 1452q139 0 254 -46.5t200 -136t132 -230.5t47 -322t-47 -322t-132 -230.5t-200 -136t-254 -46.5q-178 0 -314 72t-221.5 223t-97.5 368h-235v-645h-127v1434h127v-682h233q9 341 182 520.5t453 179.5zM1116 94
q232 0 368 157t136 466t-136 465.5t-368 156.5q-233 0 -369.5 -156.5t-136.5 -465.5t136.5 -466t369.5 -157z" />
    <glyph glyph-name="Iaacutecy" horiz-adv-x="1247" 
d="M846 1821l-213 -262h-107l185 262h135zM1126 1434v-1434h-127v606h-487q-274 0 -274 -246v-120q0 -190 -41 -240h-127q41 50 41 240v120q0 132 55.5 205.5t179.5 102.5q-116 46 -178 139.5t-62 224.5q0 190 120.5 296t355.5 106h544zM999 711v612h-417q-349 0 -349 -301
q0 -147 86 -229t226 -82h454z" />
    <glyph glyph-name="aacutecy" horiz-adv-x="1077" 
d="M756 1452l-213 -262h-107l185 262h135zM948 154q0 -42 18 -59.5t62 -14.5v-80q-24 -8 -53 -8q-72 0 -104.5 32t-32.5 113v99q-12 -25 -31 -52.5t-56.5 -64.5t-82.5 -65t-112 -48t-142 -20q-155 0 -249.5 82t-94.5 231q0 131 87 206.5t281 104.5q310 43 389 82v19
q0 147 -67 207.5t-219 60.5q-257 0 -287 -172h-115q17 133 122 200.5t282 67.5q207 0 306 -91t99 -302v-528zM827 342v268q-26 -15 -93 -31.5t-121 -26t-160 -26.5q-145 -21 -204 -74.5t-59 -150.5q0 -102 66 -161.5t180 -59.5q70 0 132.5 22t104 52t76 69.5t51 67
t27.5 51.5z" />
    <glyph glyph-name="ieacutecy" horiz-adv-x="1091" 
d="M772 1452l-213 -262h-106l184 262h135zM1020 535q0 -34 -2 -52h-828q10 -203 111 -302t266 -99q105 0 174 30t125 105h117q-68 -123 -169 -177t-253 -54q-103 0 -191.5 34.5t-156 100t-105.5 171t-38 238.5q0 134 40 240t108.5 171.5t154 99.5t182.5 34q98 0 181 -33.5
t147 -99t100.5 -170t36.5 -237.5zM190 573h715q-3 196 -98.5 301t-251.5 105q-72 0 -134.5 -25t-113 -74t-81.5 -127.5t-36 -179.5z" />
    <glyph glyph-name="iiacutecy" horiz-adv-x="1167" 
d="M485 1190h107l213 262h-135zM121 1065h121v-911h4l661 911h140v-1065h-121v911h-4l-658 -911h-143v1065z" />
    <glyph glyph-name="oacutecy" horiz-adv-x="1107" 
d="M457 1190h106l213 262h-135zM555 1075q91 0 175.5 -34t154 -99t111.5 -171.5t42 -238.5q0 -135 -42 -242t-111.5 -171.5t-154 -98.5t-175.5 -34q-92 0 -176.5 33.5t-154.5 98.5t-112 172t-42 242q0 132 42 238.5t111.5 171.5t154.5 99t177 34zM920 532q0 109 -30.5 195
t-82.5 138t-116 79t-136 27t-136.5 -27t-116.5 -79t-83 -138t-31 -195q0 -110 31 -197t83 -139t116.5 -79t136.5 -27t136 27t116 79t82.5 139t30.5 197z" />
    <glyph glyph-name="uacutecy" horiz-adv-x="1069" 
d="M436 1190h107l213 262h-135zM893 1065h125l-465 -1169q-65 -163 -160.5 -229t-228.5 -48v107q201 -28 282 184q20 53 23 71.5t-6 49.5l-414 1034h127l359 -936z" />
    <glyph glyph-name="yeruacutecy" horiz-adv-x="1361" 
d="M903 1452l-213 -262h-106l184 262h135zM561 668q205 0 315.5 -87.5t110.5 -246.5t-110.5 -246.5t-315.5 -87.5h-440v1065h121v-397h319zM1120 1065h121v-1065h-121v1065zM565 100q303 0 303 234q0 233 -303 233h-323v-467h323z" />
    <glyph glyph-name="ereversedacutecy" horiz-adv-x="1064" 
d="M754 1452l-213 -262h-107l184 262h136zM506 1075q75 0 145.5 -20.5t133 -64t109 -106.5t74 -154t27.5 -200t-27.5 -200t-74.5 -154t-110 -106.5t-133.5 -63.5t-145.5 -20q-103 0 -186 29.5t-149.5 102.5t-98.5 185h112q41 -110 120 -162.5t202 -52.5q72 0 137 25.5
t118 75t85 132t35 187.5h-394v84h392q-8 94 -42 168.5t-85.5 120t-113.5 69t-130 23.5q-235 0 -318 -209h-112q32 110 98 181t148 100.5t184 29.5z" />
    <glyph glyph-name="iuacutecy" horiz-adv-x="1435" 
d="M938 1452l-213 -262h-107l185 262h135zM883 1075q91 0 175.5 -34t154 -99t111.5 -171.5t42 -238.5q0 -135 -42 -242t-111.5 -171.5t-154 -98.5t-175.5 -34q-87 0 -169 30.5t-150.5 89.5t-113 156t-51.5 219h-157v-483h-121v1065h121v-483h157q7 121 51.5 217.5t113 156
t150.5 90.5t169 31zM883 90q72 0 136 27t115.5 79t82 139t30.5 197q0 109 -30.5 195t-82 138t-115.5 79t-136 27t-136.5 -27t-116.5 -79t-83 -138t-31 -195q0 -110 31 -197t83 -139t116.5 -79t136.5 -27z" />
    <glyph glyph-name="iaacutecy" horiz-adv-x="1064" 
d="M754 1452l-213 -262h-107l184 262h136zM944 1065v-1065h-121v397h-424q-101 0 -143.5 -33.5t-42.5 -109.5v-96q0 -122 -31 -158h-121q31 36 31 158v96q0 78 33 127.5t113 71.5q-160 85 -160 278q0 159 110.5 246.5t315.5 87.5h440zM823 498v467h-323q-303 0 -303 -234
q0 -233 303 -233h323z" />
    </font>
</defs>
</svg>
