<?xml version="1.0" standalone="no"?>
<!DOCTYPE svg PUBLIC "-//W3C//DTD SVG 1.1//EN" "http://www.w3.org/Graphics/SVG/1.1/DTD/svg11.dtd" >
<svg xmlns="http://www.w3.org/2000/svg" xmlns:xlink="http://www.w3.org/1999/xlink" version="1.1">
<metadata>
Created by FontForge 20170731 at Mon Aug  7 16:11:15 2023
 By Aleksey,,,
(c) 2017 Connary Fagen
</metadata>
<defs>
<font id="ArticulatCF-LightOblique" horiz-adv-x="1128" >
  <font-face 
    font-family="Articulat CF Light"
    font-weight="300"
    font-style="oblique"
    font-stretch="normal"
    units-per-em="2048"
    panose-1="0 0 4 0 0 0 0 0 0 0"
    ascent="1638"
    descent="-410"
    x-height="1065"
    cap-height="1434"
    bbox="-442 -578 2255 1890"
    underline-thickness="102"
    underline-position="-307"
    slope="-9"
    unicode-range="U+0020-FB02"
  />
<missing-glyph horiz-adv-x="1044" 
d="M856 1638v-2089h-661v2089h661zM696 1499h-346v-69h137v-78h-139v-68h348v68h-139v78h139v69zM557 1229h-209v-217h348v71h-139v146zM487 1157v-74h-69v74h69zM696 954h-348v-67h139v-78h-139v-70h209v148h139v67zM696 829h-69v-137h-279v-71h348v208zM696 575h-209v-116
h70v47h70v-98h-209v167h-70v-235h348v235zM696 213h-348v-236h348v236zM627 145v-98h-209v98h209zM696 -70h-348v-69h148l-148 -99v-69h348v69h-213l146 99h67v69z" />
    <glyph glyph-name="fi" unicode="fi" horiz-adv-x="1003" 
d="M383 1196l-21 -131h279l-14 -100h-281l-151 -965h-121l151 965h-155l14 100h158l20 133q13 80 42.5 135.5t72 83t86.5 38.5t98 11q81 0 156 -20l-17 -92q-58 12 -133 12q-82 0 -125.5 -38t-58.5 -132zM905 1452h119l-20 -129h-119zM678 0l168 1065h119l-168 -1065h-119z
" />
    <glyph glyph-name="fl" unicode="fl" horiz-adv-x="1024" 
d="M383 1196l-21 -131h279l-14 -100h-281l-151 -965h-121l151 965h-155l14 100h158l20 133q13 80 42.5 135.5t72 83t86.5 38.5t98 11q81 0 156 -20l-17 -92q-58 12 -133 12q-82 0 -125.5 -38t-58.5 -132zM924 1434h118l-225 -1434h-119z" />
    <glyph glyph-name=".notdef" horiz-adv-x="1044" 
d="M856 1638v-2089h-661v2089h661zM696 1499h-346v-69h137v-78h-139v-68h348v68h-139v78h139v69zM557 1229h-209v-217h348v71h-139v146zM487 1157v-74h-69v74h69zM696 954h-348v-67h139v-78h-139v-70h209v148h139v67zM696 829h-69v-137h-279v-71h348v208zM696 575h-209v-116
h70v47h70v-98h-209v167h-70v-235h348v235zM696 213h-348v-236h348v236zM627 145v-98h-209v98h209zM696 -70h-348v-69h148l-148 -99v-69h348v69h-213l146 99h67v69z" />
    <glyph glyph-name=".null" horiz-adv-x="0" 
 />
    <glyph glyph-name="nonmarkingreturn" horiz-adv-x="682" 
 />
    <glyph glyph-name="space" unicode=" " horiz-adv-x="561" 
 />
    <glyph glyph-name="exclam" unicode="!" horiz-adv-x="393" 
d="M211 379h-121l162 1055h131zM45 170h148l-27 -170h-146z" />
    <glyph glyph-name="quotedbl" unicode="&#x22;" horiz-adv-x="542" 
d="M166 1053h121l59 381h-121zM422 1053h121l59 381h-121z" />
    <glyph glyph-name="numbersign" unicode="#" horiz-adv-x="1183" 
d="M1143 932h-228l-110 -430h219l-16 -99h-228l-104 -403h-96l104 403h-332l-104 -403h-96l104 403h-215l16 99h224l110 430h-215l17 98h223l104 404h96l-104 -404h332l104 404h96l-104 -404h219zM709 502l110 430h-332l-110 -430h332z" />
    <glyph glyph-name="dollar" unicode="$" horiz-adv-x="1208" 
d="M1028 1090q-5 104 -71 172.5t-209 78.5l-89 -550l72 -17q183 -39 274 -117t91 -227q0 -205 -157.5 -325t-408.5 -123l-26 -166h-78l27 168q-210 17 -310 130t-92 285h129q4 -280 291 -305l96 604l-67 15q-316 70 -316 321q0 180 130 295.5t372 122.5l27 166h78l-27 -168
q195 -10 294 -107.5t97 -252.5h-127zM545 815l39 -8l86 536q-174 -7 -264.5 -89.5t-90.5 -204.5q0 -95 54.5 -151.5t175.5 -82.5zM707 666l-66 14l-94 -588q187 3 301.5 91.5t114.5 236.5q0 58 -19.5 101.5t-57.5 71t-79.5 44t-99.5 29.5z" />
    <glyph glyph-name="percent" unicode="%" horiz-adv-x="1452" 
d="M371 834q-100 0 -158.5 63.5t-58.5 177.5q0 152 83 260.5t218 108.5q98 0 157.5 -64.5t59.5 -177.5q0 -150 -84.5 -259t-216.5 -109zM150 0l1069 1436l100 -2l-1069 -1434h-100zM375 922q98 0 156.5 81t58.5 193q0 77 -39.5 119.5t-104.5 42.5q-66 0 -115.5 -42.5
t-72 -104.5t-22.5 -132q0 -76 38 -116.5t101 -40.5zM1012 -10q-100 0 -158.5 63.5t-58.5 177.5q0 97 36 180.5t106 136t159 52.5q98 0 158.5 -65t60.5 -179q0 -150 -84.5 -258t-218.5 -108zM1018 76q98 0 155.5 81t57.5 195q0 78 -38 119t-103 41q-99 0 -155 -84t-56 -195
q0 -76 37 -116.5t102 -40.5z" />
    <glyph glyph-name="ampersand" unicode="&#x26;" horiz-adv-x="1347" 
d="M1200 737q-57 -295 -205 -487l187 -250h-135l-125 168q-102 -98 -223.5 -145.5t-239.5 -47.5q-202 0 -314 100.5t-112 256.5q0 59 13.5 109.5t43 94t62 77.5t85.5 70.5t97 62.5t112 63q-65 88 -103 164.5t-38 156.5q0 148 105 240t272 92q136 0 213.5 -71t77.5 -183
q0 -71 -25 -130t-79.5 -111t-114.5 -92.5t-156 -94.5l330 -442q124 166 162 399h110zM670 1364q-113 0 -186.5 -65t-73.5 -166q0 -65 34 -129t95 -144q64 35 103 58t87.5 58.5t75 66t45 72.5t18.5 87q0 76 -52.5 119t-145.5 43zM465 82q102 0 204.5 44t188.5 130l-352 475
q-84 -46 -136.5 -80.5t-105.5 -82.5t-78.5 -104.5t-25.5 -123.5q0 -118 82 -188t223 -70z" />
    <glyph glyph-name="quotesingle" unicode="'" horiz-adv-x="286" 
d="M166 1053h121l59 381h-121z" />
    <glyph glyph-name="parenleft" unicode="(" horiz-adv-x="491" 
d="M434 1526h113q-270 -387 -346 -879q-84 -519 59 -913h-106q-156 396 -72 930q81 507 352 862z" />
    <glyph glyph-name="parenright" unicode=")" horiz-adv-x="493" 
d="M328 1526q161 -368 82 -879q-86 -534 -361 -913h-115q274 407 357 930q78 490 -68 862h105z" />
    <glyph glyph-name="asterisk" unicode="*" horiz-adv-x="921" 
d="M840 1169l-244 -63l121 -197l-96 -59l-109 197l-164 -197l-80 59l178 199l-221 61l41 103l223 -72l31 242h107l-39 -242l241 72zM571 1182h-71l-29 -70l45 -43l64 49z" />
    <glyph glyph-name="plus" unicode="+" horiz-adv-x="952" 
d="M907 633l-18 -111h-359l-57 -360h-115l58 360h-357l19 111h354l57 358h115l-57 -358h360z" />
    <glyph glyph-name="comma" unicode="," horiz-adv-x="342" 
d="M-27 -283l9 43q43 25 63 63.5t31 115.5l8 61h-66l27 168h156l-39 -242q-17 -108 -68 -157t-121 -52z" />
    <glyph glyph-name="hyphen" unicode="-" horiz-adv-x="866" 
d="M76 621h682l-15 -91h-682z" />
    <glyph glyph-name="period" unicode="." horiz-adv-x="331" 
d="M45 170h148l-27 -170h-146z" />
    <glyph glyph-name="slash" unicode="/" horiz-adv-x="827" 
d="M868 1434l-782 -1434h-119l781 1434h120z" />
    <glyph glyph-name="zero" unicode="0" horiz-adv-x="1265" 
d="M750 1448q211 0 333.5 -140.5t122.5 -400.5q0 -138 -28.5 -271t-85.5 -250.5t-136.5 -206.5t-189.5 -141t-236 -52q-210 0 -333 140t-123 396q0 139 28.5 273t86 252t137 207.5t189.5 141.5t235 52zM1085 907q0 210 -90 321t-250 111q-105 0 -195 -47t-154.5 -126.5
t-110.5 -184t-68 -220.5t-22 -235q0 -211 90 -321.5t252 -110.5q130 0 236.5 71.5t173 189t102.5 260t36 292.5z" />
    <glyph glyph-name="one" unicode="1" horiz-adv-x="561" 
d="M569 1434l-225 -1434h-121l201 1253q-42 -45 -111.5 -79.5t-152.5 -34.5l14 104q90 6 169 63.5t108 127.5h118z" />
    <glyph glyph-name="two" unicode="2" horiz-adv-x="1081" 
d="M-12 0l8 53q28 191 144 327.5t362 272.5q180 101 244 148q150 110 177 241q7 33 7 68q0 107 -76.5 169t-204.5 62q-149 0 -251 -86t-128 -243h-116q31 201 165 318.5t338 117.5q186 0 289 -93t103 -243q0 -44 -9 -85t-21.5 -74.5t-38 -68.5t-47 -60.5t-59.5 -56.5
t-65 -51t-75 -49.5t-76.5 -46.5t-82.5 -47q-81 -46 -138.5 -82.5t-114.5 -82t-93.5 -88.5t-61.5 -95.5t-32 -109.5l-2 -13h778l-16 -102h-907z" />
    <glyph glyph-name="three" unicode="3" horiz-adv-x="1157" 
d="M786 776q116 -20 194.5 -100.5t78.5 -210.5q0 -144 -77 -257t-206.5 -173t-286.5 -60q-231 0 -347.5 129.5t-82.5 348.5h113q-26 -172 59.5 -270.5t260.5 -98.5q192 0 321 106t129 277q0 125 -96.5 191.5t-272.5 66.5h-47l15 90h39q174 0 282.5 88.5t108.5 226.5
q0 97 -75.5 156.5t-201.5 59.5q-151 0 -255.5 -90.5t-129.5 -266.5h-114q33 226 168 344.5t337 118.5q182 0 284.5 -89t102.5 -226q0 -126 -77.5 -222.5t-223.5 -138.5z" />
    <glyph glyph-name="four" unicode="4" horiz-adv-x="1118" 
d="M993 395h-164l-61 -395h-121l62 395h-676l14 103l823 936h123l-147 -936h164zM725 498l127 782l-688 -782h561z" />
    <glyph glyph-name="five" unicode="5" horiz-adv-x="1173" 
d="M657 969q176 0 289 -108.5t113 -295.5q0 -167 -71.5 -300t-202.5 -209t-298 -76q-142 0 -246.5 57.5t-152 160t-25.5 228.5h109q-20 -157 69.5 -247.5t250.5 -90.5q132 0 235 63.5t158 171t55 238.5q0 143 -86 223t-221 80q-204 0 -369 -162h-119l226 732h710l-14 -103
h-627l-161 -522q66 74 165.5 117t212.5 43z" />
    <glyph glyph-name="six" unicode="6" horiz-adv-x="1193" 
d="M678 954q180 0 289.5 -105.5t109.5 -287.5q0 -162 -71.5 -294.5t-201 -209.5t-292.5 -77q-107 0 -187.5 35.5t-127.5 100t-73 153.5t-25 195.5t18 227.5q18 119 47 222t80 204t117.5 171.5t164 114.5t215.5 44q99 0 176 -30t121.5 -80t65.5 -110.5t16 -125.5h-106
q5 107 -66.5 179.5t-210.5 72.5q-96 0 -176 -38.5t-134.5 -101t-96 -151.5t-65.5 -181t-38 -198q61 131 179 200.5t272 69.5zM516 84q99 0 183.5 37.5t142 102t89.5 152t32 185.5q0 139 -82.5 220t-229.5 81q-121 0 -221.5 -61.5t-156.5 -163.5t-56 -221q0 -147 77.5 -239.5
t221.5 -92.5z" />
    <glyph glyph-name="seven" unicode="7" horiz-adv-x="983" 
d="M1022 1434l-14 -107q-523 -652 -729 -1327h-121q217 700 731 1331h-719l14 103h838z" />
    <glyph glyph-name="eight" unicode="8" horiz-adv-x="1161" 
d="M799 797q113 -44 179 -126t66 -200q0 -142 -77 -255.5t-205.5 -174.5t-282.5 -61q-197 0 -319.5 98.5t-122.5 267.5q0 163 96.5 281t265.5 176q-76 37 -122 103t-46 151q0 164 128.5 277.5t334.5 113.5q176 0 273.5 -83t97.5 -212q0 -121 -73 -215t-193 -141zM692 1346
q-160 0 -255 -81.5t-95 -207.5q0 -98 69 -159.5t189 -61.5q151 0 251.5 89t100.5 220q0 89 -67 145t-193 56zM481 88q120 0 220.5 49t159.5 139t59 203q0 123 -88.5 196t-233.5 73q-189 0 -312.5 -110t-123.5 -280q0 -125 87.5 -197.5t231.5 -72.5z" />
    <glyph glyph-name="nine" unicode="9" horiz-adv-x="1193" 
d="M553 473q-180 0 -289.5 105.5t-109.5 287.5q0 162 71.5 294.5t201 210t292.5 77.5q107 0 187.5 -36t127.5 -100t73 -153.5t25 -196t-18 -227.5q-15 -98 -38 -185t-58 -175t-85 -157.5t-113 -124t-147.5 -84t-183.5 -29.5q-80 0 -145.5 20t-109.5 53.5t-73.5 78t-41.5 94
t-8 100.5h106q-5 -107 66.5 -179.5t210.5 -72.5q96 0 176 38.5t134.5 101t96 151.5t65.5 180.5t38 197.5q-61 -131 -179 -200.5t-272 -69.5zM715 1343q-99 0 -183.5 -37.5t-142 -102t-89.5 -152t-32 -185.5q0 -139 82.5 -220t229.5 -81q183 0 308.5 132t125.5 315
q0 147 -77.5 239t-221.5 92z" />
    <glyph glyph-name="colon" unicode=":" horiz-adv-x="331" 
d="M188 1065h146l-27 -170h-145zM45 170h148l-27 -170h-146z" />
    <glyph glyph-name="semicolon" unicode=";" horiz-adv-x="342" 
d="M188 1065h146l-27 -170h-145zM-27 -283l9 43q43 25 63 63.5t31 115.5l8 61h-66l27 168h156l-39 -242q-17 -108 -68 -157t-121 -52z" />
    <glyph glyph-name="less" unicode="&#x3c;" horiz-adv-x="1019" 
d="M852 123l-690 369l809 370l18 123l-923 -432l-19 -123l787 -430z" />
    <glyph glyph-name="equal" unicode="=" horiz-adv-x="862" 
d="M102 784h738l-13 -90h-739zM49 457h739l-14 -90h-737z" />
    <glyph glyph-name="greater" unicode="&#x3e;" horiz-adv-x="1017" 
d="M-4 123l-19 -123l922 430l21 123l-787 432l-18 -123l690 -370z" />
    <glyph glyph-name="question" unicode="?" horiz-adv-x="1054" 
d="M649 1448q-213 0 -346.5 -117t-165.5 -330h117q29 169 130.5 253.5t244.5 84.5q148 0 218 -72t46 -210q-9 -52 -36 -95t-64.5 -74.5t-82 -62t-89.5 -64.5t-84 -74t-69.5 -99.5t-43.5 -132.5l-14 -76h129l12 76q10 62 38.5 113t66.5 86t82.5 67t89 65t83 70.5t67.5 92.5
t40 122q28 178 -76 277.5t-293 99.5zM379 170h145l-24 -170h-146z" />
    <glyph glyph-name="at" unicode="@" horiz-adv-x="1564" 
d="M1167 158q-209 -172 -477 -172q-170 0 -307 71t-220 211t-83 326q0 172 65.5 330t176 272.5t263 183t318.5 68.5t302 -73t217 -213t81 -322q0 -127 -35 -240.5t-109.5 -191.5t-174.5 -78q-95 0 -144.5 66.5t-35.5 150.5q-48 -109 -131.5 -164t-172.5 -55
q-113 0 -193.5 77.5t-80.5 225.5q0 184 109 315t272 131q91 0 158.5 -57.5t68.5 -145.5l29 183h86q-76 -484 -76 -506q0 -135 113 -135q56 0 101 40t72 103.5t41.5 137t14.5 145.5q0 236 -145 376t-367 140q-152 0 -288.5 -61.5t-233.5 -165t-154 -244t-57 -293.5
q0 -122 41.5 -221.5t112.5 -163.5t165 -98.5t201 -34.5q213 0 379 121zM707 416q83 0 151.5 53t105.5 136t37 173q0 102 -54 156.5t-138 54.5q-128 0 -211.5 -105.5t-83.5 -246.5q0 -108 57.5 -164.5t135.5 -56.5z" />
    <glyph glyph-name="A" unicode="A" horiz-adv-x="1361" 
d="M1079 0l-92 397h-674l-217 -397h-139l799 1434h112l349 -1434h-138zM369 498h596l-177 766z" />
    <glyph glyph-name="B" unicode="B" horiz-adv-x="1236" 
d="M852 782q129 -32 197.5 -113.5t68.5 -201.5q0 -226 -155 -346.5t-416 -120.5h-529l228 1434h516q191 0 284 -77t93 -210q0 -134 -75.5 -230.5t-211.5 -134.5zM758 1325h-404l-80 -500h410q143 0 234.5 89t91.5 221q0 86 -61 138t-191 52zM563 111q195 0 310.5 95.5
t115.5 264.5q0 116 -85.5 184t-252.5 68h-393l-96 -612h401z" />
    <glyph glyph-name="C" unicode="C" horiz-adv-x="1306" 
d="M614 94q158 0 273.5 64t175.5 176h131q-71 -166 -231 -259t-367 -93q-116 0 -210.5 34t-164 101.5t-107.5 174.5t-38 245q0 144 31.5 278.5t95.5 250t153 202t211.5 135.5t263.5 49q206 0 334.5 -93t147.5 -259h-127q-26 112 -119.5 175.5t-251.5 63.5q-114 0 -213 -45
t-170.5 -122t-123 -178.5t-76.5 -216.5t-25 -234q0 -223 110 -336t297 -113z" />
    <glyph glyph-name="D" unicode="D" horiz-adv-x="1290" 
d="M653 1434q288 0 436 -142.5t148 -406.5q0 -262 -93 -460.5t-276.5 -311.5t-435.5 -113h-412l226 1434h407zM430 117q167 0 298 56t215 158.5t127.5 243.5t43.5 314q0 217 -120 322.5t-363 105.5h-279l-186 -1200h264z" />
    <glyph glyph-name="E" unicode="E" horiz-adv-x="1101" 
d="M1135 1321h-781l-84 -528h678l-18 -105h-676l-92 -575h801l-19 -113h-926l228 1434h905z" />
    <glyph glyph-name="F" unicode="F" horiz-adv-x="1095" 
d="M1149 1321h-795l-88 -551h656l-19 -104h-653l-107 -666h-125l228 1434h919z" />
    <glyph glyph-name="G" unicode="G" horiz-adv-x="1351" 
d="M793 717h505l-12 -76q-52 -327 -226 -493t-462 -166q-116 0 -211 34t-165 100.5t-108 172t-38 241.5q0 146 31.5 282t95 252t152.5 203t211.5 136t264.5 49q206 0 334.5 -93t147.5 -259h-127q-26 112 -119.5 175.5t-251.5 63.5q-116 0 -216 -44.5t-171 -121t-121.5 -178
t-75 -216.5t-24.5 -236q0 -223 110 -336t299 -113q227 0 367.5 133t181.5 385h-391z" />
    <glyph glyph-name="H" unicode="H" horiz-adv-x="1302" 
d="M1188 1434h125l-228 -1434h-124l102 645h-817l-103 -645h-125l228 1434h125l-109 -682h817z" />
    <glyph glyph-name="I" unicode="I" horiz-adv-x="362" 
d="M145 0h-125l226 1434h125z" />
    <glyph glyph-name="J" unicode="J" horiz-adv-x="1009" 
d="M57 242q88 -142 301 -142q67 0 125.5 20t112.5 63.5t93 123.5t56 189l150 938h125l-150 -942q-22 -137 -73.5 -238t-123.5 -158t-154 -83.5t-177 -26.5q-134 0 -228 47.5t-143 132.5z" />
    <glyph glyph-name="K" unicode="K" horiz-adv-x="1261" 
d="M1298 1434l-723 -670l551 -764h-145l-496 682l-274 -254l-68 -428h-125l228 1434h125l-131 -826l903 826h155z" />
    <glyph glyph-name="L" unicode="L" horiz-adv-x="1099" 
d="M164 113h756l-19 -113h-883l228 1434h125z" />
    <glyph glyph-name="M" unicode="M" horiz-adv-x="1677" 
d="M246 1434h135l385 -1280l776 1280h146l-228 -1434h-125l189 1184h-6l-713 -1184h-113l-354 1184h-6l-189 -1184h-125z" />
    <glyph glyph-name="N" unicode="N" horiz-adv-x="1327" 
d="M1337 1434l-227 -1434h-141l-623 1245h-4l-199 -1245h-125l228 1434h139l625 -1248h4l198 1248h125z" />
    <glyph glyph-name="O" unicode="O" horiz-adv-x="1431" 
d="M842 1452q244 0 388 -142.5t144 -406.5q0 -123 -23.5 -239t-67.5 -218.5t-111 -187.5t-151 -146.5t-190 -95.5t-225 -34q-244 0 -388 141.5t-144 404.5q0 148 32.5 285t98 253t156.5 202.5t214.5 135t266.5 48.5zM621 96q147 0 267.5 67.5t196.5 180.5t117 254.5
t41 296.5q0 218 -111 330t-307 112q-99 0 -186.5 -31t-155 -86.5t-120.5 -130.5t-87.5 -164.5t-52.5 -188t-18 -201.5q0 -215 110.5 -327t305.5 -112z" />
    <glyph glyph-name="P" unicode="P" horiz-adv-x="1204" 
d="M743 1434q213 0 324 -93.5t111 -267.5q0 -253 -156 -398t-422 -145h-371l-86 -530h-125l228 1434h497zM618 643q201 0 313.5 110.5t112.5 303.5q0 264 -315 264h-375l-108 -678h372z" />
    <glyph glyph-name="Q" unicode="Q" horiz-adv-x="1431" 
d="M1374 903q0 -207 -64.5 -389.5t-185.5 -310.5l129 -154l-84 -74l-127 152q-184 -145 -436 -145q-244 0 -388 141.5t-144 404.5q0 148 32.5 285t98 253t156.5 202.5t214.5 135t266.5 48.5q244 0 388 -142.5t144 -406.5zM621 96q200 0 346 121l-244 291l84 74l240 -287
q95 114 145.5 271t50.5 329q0 218 -111 330t-307 112q-99 0 -186.5 -31t-155 -86.5t-120.5 -130.5t-87.5 -164.5t-52.5 -188t-18 -201.5q0 -215 110.5 -327t305.5 -112z" />
    <glyph glyph-name="R" unicode="R" horiz-adv-x="1249" 
d="M901 668q197 -45 197 -228q0 -35 -20.5 -174t-20.5 -180q0 -62 18 -86h-127q-18 24 -18 86q0 41 19.5 169.5t19.5 170.5q0 180 -240 180h-489l-97 -606h-125l228 1434h545q209 0 313 -83.5t104 -238.5q0 -157 -85 -277t-222 -167zM709 711q166 0 268 112t102 269
q0 229 -307 229h-418l-98 -610h453z" />
    <glyph glyph-name="S" unicode="S" horiz-adv-x="1210" 
d="M731 774q183 -39 274 -117t91 -227q0 -207 -160.5 -327.5t-415.5 -120.5q-244 0 -360.5 115.5t-108.5 301.5h129q1 -65 17.5 -117t54 -96.5t108.5 -69t172 -24.5q193 0 312 88.5t119 239.5q0 58 -19.5 101.5t-57.5 71t-79.5 44t-99.5 29.5l-207 47q-316 70 -316 321
q0 186 138 302t393 116q218 0 330 -98.5t110 -263.5h-127q-2 53 -20 96.5t-55 79.5t-101.5 56.5t-151.5 20.5q-187 0 -286 -83t-99 -211q0 -95 54.5 -151.5t175.5 -82.5z" />
    <glyph glyph-name="T" unicode="T" horiz-adv-x="1167" 
d="M1237 1434l-16 -113h-463l-211 -1321h-127l211 1321h-463l16 113h1053z" />
    <glyph glyph-name="U" unicode="U" horiz-adv-x="1314" 
d="M1323 1434l-139 -887q-41 -261 -209 -410t-418 -149t-371 149t-80 410l140 887h125l-138 -881q-35 -215 53 -334t287 -119q196 0 324 119.5t162 333.5l139 881h125z" />
    <glyph glyph-name="V" unicode="V" horiz-adv-x="1380" 
d="M1307 1434h135l-795 -1434h-117l-346 1434h127l299 -1268z" />
    <glyph glyph-name="W" unicode="W" horiz-adv-x="2027" 
d="M1956 1434h133l-643 -1434h-121l-213 1262l-614 -1262h-121l-193 1434h131l154 -1250l598 1250h137l199 -1250z" />
    <glyph glyph-name="X" unicode="X" horiz-adv-x="1257" 
d="M1325 1434l-602 -695l410 -739h-140l-356 641l-555 -641h-145l645 743l-383 691h139l328 -592l514 592h145z" />
    <glyph glyph-name="Y" unicode="Y" horiz-adv-x="1304" 
d="M709 571l-93 -571h-127l93 571l-398 863h140l333 -740l564 740h145z" />
    <glyph glyph-name="Z" unicode="Z" horiz-adv-x="1220" 
d="M1071 113l-18 -113h-1076l17 109l1110 1212h-889l16 113h1041l-19 -109l-1108 -1212h926z" />
    <glyph glyph-name="bracketleft" unicode="[" horiz-adv-x="538" 
d="M362 1419l-249 -1579h182l-16 -106h-304l285 1792h303l-20 -107h-181z" />
    <glyph glyph-name="backslash" unicode="\" horiz-adv-x="829" 
d="M195 1434h118l330 -1434h-119z" />
    <glyph glyph-name="bracketright" unicode="]" horiz-adv-x="538" 
d="M424 1419h-180l18 107h301l-284 -1792h-302l17 106h182z" />
    <glyph glyph-name="asciicircum" unicode="^" horiz-adv-x="968" 
d="M811 952l-223 400l-352 -400h-109l424 482h88l272 -482h-100z" />
    <glyph glyph-name="underscore" unicode="_" horiz-adv-x="1208" 
d="M-20 0h1024l-19 -109h-1024z" />
    <glyph glyph-name="grave" unicode="`" horiz-adv-x="364" 
d="M469 1190l-152 262h-172l220 -262h104z" />
    <glyph glyph-name="a" unicode="a" horiz-adv-x="1110" 
d="M967 692l-86 -540q-6 -42 11.5 -57.5t65.5 -12.5l-14 -82q-27 -8 -57 -8q-73 0 -103.5 36t-15.5 117l14 80q-19 -31 -53 -67t-89 -77t-137 -68t-173 -27q-142 0 -226 71.5t-84 198.5q0 82 29.5 143t87 100t129.5 62t170 37q6 1 48.5 7t56.5 8t54 8t59.5 10t53 10t54 11.5
t43.5 12t39 13.5l4 20q26 153 -31.5 217t-212.5 64q-135 0 -207.5 -44.5t-103.5 -129.5h-117q43 140 148.5 205t287.5 65q210 0 298.5 -91.5t56.5 -291.5zM788 340l43 256q-15 -6 -35 -12t-48.5 -12.5t-52 -11.5t-64 -12t-63 -11t-71 -12t-67.5 -11q-150 -24 -219.5 -80
t-69.5 -168q0 -88 57.5 -138t157.5 -50q87 0 166.5 30.5t132.5 76t85.5 85t47.5 70.5z" />
    <glyph glyph-name="b" unicode="b" horiz-adv-x="1146" 
d="M680 1075q170 0 281.5 -108.5t111.5 -313.5q0 -132 -40.5 -253.5t-111.5 -213t-176.5 -146t-228.5 -54.5q-135 0 -225 67t-121 191l-39 -244h-121l226 1434h120l-94 -592q71 114 179 173.5t239 59.5zM498 88q108 0 196.5 47.5t144 127t85.5 179t30 207.5q0 160 -84.5 242
t-216.5 82q-140 0 -245.5 -78.5t-157 -202t-51.5 -270.5q0 -162 84.5 -248t214.5 -86z" />
    <glyph glyph-name="c" unicode="c" horiz-adv-x="1050" 
d="M457 88q124 0 207 52t139 161h119q-136 -315 -469 -315q-68 0 -130 16.5t-115 51t-92 84.5t-61 122t-22 158q0 178 71.5 327.5t204.5 239.5t301 90q337 0 385 -317h-112q-23 113 -89.5 164t-187.5 51q-84 0 -158 -31.5t-127.5 -85.5t-92.5 -124.5t-58.5 -150.5
t-19.5 -161q0 -164 86.5 -248t220.5 -84z" />
    <glyph glyph-name="d" unicode="d" horiz-adv-x="1134" 
d="M588 1075q135 0 227.5 -66t122.5 -188l98 613h119l-227 -1434h-119l39 225q-73 -117 -180 -178t-236 -61q-82 0 -153 26.5t-126.5 77.5t-87.5 133.5t-32 186.5q0 179 67.5 329.5t196 243t291.5 92.5zM453 88q140 0 245.5 78t157 201.5t51.5 271.5q0 167 -84.5 250.5
t-214.5 83.5q-110 0 -198.5 -47.5t-143.5 -127t-84.5 -178.5t-29.5 -206q0 -160 84.5 -243t216.5 -83z" />
    <glyph glyph-name="e" unicode="e" horiz-adv-x="1085" 
d="M993 479h-843q-3 -30 -3 -61q0 -171 87 -253.5t235 -82.5q109 0 182 30t140 103h124q-89 -124 -196.5 -176.5t-259.5 -52.5q-191 0 -308.5 111.5t-117.5 320.5q0 180 72.5 330t206 238.5t300.5 88.5q115 0 204.5 -46t143.5 -142.5t54 -231.5q0 -33 -7 -91t-14 -85z
M604 979q-87 0 -162 -32.5t-130 -89.5t-92.5 -130.5t-55.5 -159.5h727q10 41 10 99q0 149 -82.5 231t-214.5 82z" />
    <glyph glyph-name="f" unicode="f" horiz-adv-x="661" 
d="M567 1366q-82 0 -125.5 -38t-58.5 -132l-21 -131h279l-14 -100h-281l-151 -965h-121l151 965h-155l14 100h158l20 133q13 80 42.5 135.5t72 83t86.5 38.5t98 11q81 0 156 -20l-17 -92q-58 12 -133 12z" />
    <glyph glyph-name="g" unicode="g" horiz-adv-x="1136" 
d="M1098 1065l-170 -1073q-69 -443 -553 -443q-141 0 -248 54t-145 145l84 47q36 -68 117.5 -104.5t193.5 -36.5q183 0 291.5 81t140.5 271l37 219q-71 -117 -178 -177t-236 -60q-82 0 -153 26t-126.5 76.5t-87.5 133t-32 186.5q0 132 40 252.5t111 212t176 146t228 54.5
q135 0 227.5 -66t122.5 -188l37 244h123zM453 90q85 0 158.5 29.5t127 81.5t92 122t57.5 151t19 167q0 165 -85.5 248.5t-215.5 83.5q-109 0 -197.5 -48t-143 -127.5t-84 -178t-29.5 -205.5q0 -160 84.5 -242t216.5 -82z" />
    <glyph glyph-name="h" unicode="h" horiz-adv-x="1107" 
d="M684 1075q67 0 120.5 -13.5t98.5 -44t70 -80t35 -121.5t-7 -169l-100 -647h-121l103 651q13 74 6 128.5t-24.5 91.5t-52 59t-74.5 31.5t-93 9.5q-64 0 -124.5 -21t-104.5 -53t-81.5 -73.5t-60.5 -79.5t-36 -74l-107 -670h-121l226 1434h120l-98 -621q14 33 48.5 74.5
t87 85t130 73t160.5 29.5z" />
    <glyph glyph-name="i" unicode="i" horiz-adv-x="333" 
d="M217 1323l21 129h118l-20 -129h-119zM178 1065h119l-168 -1065h-119z" />
    <glyph glyph-name="j" unicode="j" horiz-adv-x="399" 
d="M262 1323l21 129h118l-20 -129h-119zM-291 -295q70 -45 152 -45q138 0 166 182l194 1223h121l-197 -1241q-24 -148 -93 -211.5t-181 -63.5q-106 0 -180 56z" />
    <glyph glyph-name="k" unicode="k" horiz-adv-x="1056" 
d="M1038 1065l-553 -487l449 -578h-135l-398 502l-221 -195l-49 -307h-121l226 1434h120l-153 -975l684 606h151z" />
    <glyph glyph-name="l" unicode="l" horiz-adv-x="335" 
d="M236 1434h118l-225 -1434h-119z" />
    <glyph glyph-name="m" unicode="m" horiz-adv-x="1798" 
d="M1391 1075q80 0 141 -22t106.5 -73t58.5 -133.5t-3 -203.5l-103 -643h-121l103 647q51 324 -215 324q-76 0 -148.5 -33t-123.5 -83.5t-85 -105.5t-45 -104l-100 -645h-121l101 647q54 324 -213 324q-75 0 -145.5 -32.5t-120.5 -82t-83.5 -99.5t-48.5 -93l-106 -664h-121
l168 1065h121l-41 -252q14 32 47.5 73.5t84.5 85.5t124 73.5t151 29.5q134 0 218 -64.5t94 -203.5q50 103 167 185.5t259 82.5z" />
    <glyph glyph-name="n" unicode="n" horiz-adv-x="1095" 
d="M672 1075q67 0 120.5 -14t98.5 -45t70.5 -81t35 -122.5t-7.5 -169.5l-100 -643h-121l102 647q12 93 3 155t-44 100t-82.5 53.5t-113.5 15.5q-80 0 -152 -31.5t-122 -80.5t-83.5 -98t-50.5 -95l-106 -666h-121l168 1065h121l-41 -254q14 33 48.5 74t87 85.5t130 74.5
t160.5 30z" />
    <glyph glyph-name="o" unicode="o" horiz-adv-x="1099" 
d="M610 1075q66 0 126.5 -17t113.5 -52.5t92 -86.5t61.5 -123.5t22.5 -158.5q0 -129 -43 -248t-118 -208t-183 -142t-231 -53q-83 0 -157 27t-133 79.5t-93.5 137t-34.5 190.5q0 129 43.5 249t118.5 209.5t183.5 143t231.5 53.5zM909 639q0 163 -87.5 248.5t-217.5 85.5
q-133 0 -238 -78.5t-159.5 -203.5t-54.5 -269q0 -82 24.5 -147.5t67 -105.5t96.5 -60.5t115 -20.5q101 0 188 46.5t144.5 123t89.5 176t32 205.5z" />
    <glyph glyph-name="p" unicode="p" horiz-adv-x="1144" 
d="M295 1065l-37 -229q74 119 181.5 179t238.5 60q170 0 281.5 -108.5t111.5 -313.5q0 -132 -40 -253.5t-111 -213t-177 -146t-229 -54.5q-135 0 -225 67t-121 191l-100 -633h-121l229 1454h119zM496 88q109 0 197.5 47.5t144 127t85 179t29.5 207.5q0 160 -84.5 242
t-216.5 82q-140 0 -245.5 -78t-157 -201.5t-51.5 -271.5q0 -162 84.5 -248t214.5 -86z" />
    <glyph glyph-name="q" unicode="q" horiz-adv-x="1136" 
d="M588 1075q136 0 227.5 -66t122.5 -188l39 244h121l-230 -1454h-120l96 614q-71 -117 -177 -178t-235 -61q-82 0 -153 26.5t-126.5 77.5t-87.5 133.5t-32 186.5q0 132 40 253t111 212.5t176 145.5t228 54zM453 88q106 0 193.5 46t143.5 123t86.5 176t30.5 208
q0 165 -85.5 248.5t-215.5 83.5q-88 0 -162.5 -31t-127.5 -84.5t-90.5 -125t-55.5 -152.5t-18 -166q0 -160 84.5 -243t216.5 -83z" />
    <glyph glyph-name="r" unicode="r" horiz-adv-x="729" 
d="M670 1075q25 0 75 -4l-18 -106q-23 2 -65 2q-162 -1 -275.5 -92t-169.5 -246l-98 -629h-121l168 1065h121l-45 -279q40 119 158 204t270 85z" />
    <glyph glyph-name="s" unicode="s" horiz-adv-x="966" 
d="M797 807q-17 91 -83.5 131.5t-181.5 40.5q-140 0 -220.5 -60.5t-80.5 -150.5q0 -65 41 -104t136 -62l159 -39q59 -15 96.5 -26.5t76.5 -30.5t60.5 -41.5t35.5 -56.5t14 -78q0 -89 -39 -157.5t-106 -108t-146 -59t-168 -19.5q-180 0 -286.5 79t-100.5 236h113
q1 -61 23 -105t62 -68t87.5 -35t105.5 -11q90 0 163.5 23.5t122 79t48.5 134.5q0 67 -44.5 99t-139.5 55l-187 47q-121 30 -184 89.5t-63 156.5q0 139 121.5 224t306.5 85q162 0 259 -68.5t109 -199.5h-110z" />
    <glyph glyph-name="t" unicode="t" horiz-adv-x="614" 
d="M377 965l-127 -799q-6 -42 11.5 -59t62.5 -17q69 0 141 16l-16 -100q-67 -20 -156 -20q-90 0 -134 41t-28 141l127 797h-168l14 100h168l43 266h119l-43 -266h217l-14 -100h-217z" />
    <glyph glyph-name="u" unicode="u" horiz-adv-x="1095" 
d="M936 1065h121l-168 -1065h-121l59 373l-20 -121q-15 -34 -49 -75t-86.5 -85.5t-129 -74t-159.5 -29.5q-84 0 -148 22t-112 72.5t-62 132.5t2 203l103 647h121l-103 -649q-51 -320 230 -320q81 0 155 31t125 79.5t85.5 98.5t51.5 96z" />
    <glyph glyph-name="v" unicode="v" horiz-adv-x="1048" 
d="M489 0h-139l-256 1065h121l219 -940l520 940h127z" />
    <glyph glyph-name="w" unicode="w" horiz-adv-x="1599" 
d="M1632 1065l-487 -1065h-123l-182 913l-473 -913h-121l-152 1065h121l123 -918l469 918h104l181 -918l415 918h125z" />
    <glyph glyph-name="x" unicode="x" horiz-adv-x="976" 
d="M999 1065l-462 -526l307 -539h-129l-254 453l-395 -453h-140l482 547l-293 518h127l243 -432l375 432h139z" />
    <glyph glyph-name="y" unicode="y" horiz-adv-x="1030" 
d="M936 1065h127l-653 -1174q-91 -163 -197 -226.5t-242 -43.5l19 105q194 -28 315 190q27 51 35 75t4 46l-250 1028h121l213 -934z" />
    <glyph glyph-name="z" unicode="z" horiz-adv-x="995" 
d="M127 104h707l-17 -104h-848l15 104l843 857h-686l17 104h827l-14 -104z" />
    <glyph glyph-name="braceleft" unicode="{" horiz-adv-x="540" 
d="M315 766l-116 -139l69 -135l-92 -584q-4 -32 12 -50t48 -18h73l-16 -106h-105q-66 0 -105.5 46.5t-27.5 119.5l95 581l-72 146l115 149l94 594q12 73 62.5 114.5t117.5 41.5h111l-19 -107h-70q-32 0 -55 -21.5t-28 -54.5z" />
    <glyph glyph-name="bar" unicode="|" horiz-adv-x="415" 
d="M299 1638h109l-322 -2027h-109z" />
    <glyph glyph-name="braceright" unicode="}" horiz-adv-x="540" 
d="M246 766l90 586q6 32 -10.5 49.5t-49.5 17.5h-73l18 107h105q66 0 104.5 -46.5t26.5 -119.5l-92 -584l69 -149l-112 -146l-97 -592q-10 -72 -60.5 -113.5t-117.5 -41.5h-110l16 106h70q32 0 56.5 22t29.5 54l90 576l114 135z" />
    <glyph glyph-name="asciitilde" unicode="~" horiz-adv-x="837" 
d="M727 674l70 -8q-14 -91 -78 -142t-144 -51q-40 0 -75 16t-60.5 38.5t-50.5 45t-56.5 38.5t-66.5 16q-60 0 -97.5 -34.5t-41.5 -72.5l-66 10q13 91 75.5 142t142.5 51q40 0 75 -16t61 -38.5t51 -45t56.5 -38.5t65.5 -16q63 0 99 33.5t40 71.5z" />
    <glyph glyph-name="exclamdown" unicode="&#xa1;" horiz-adv-x="391" 
d="M160 895l26 170h146l-27 -170h-145zM266 688l-166 -1057h-133l168 1057h131z" />
    <glyph glyph-name="cent" unicode="&#xa2;" horiz-adv-x="1050" 
d="M508 219q111 6 186.5 58t128.5 155h119q-72 -164 -185.5 -238t-264.5 -77l-33 -199h-74l33 201q-77 9 -142 39.5t-115.5 82.5t-79 131t-28.5 177q0 171 66.5 316.5t190.5 237t282 101.5l37 230h73l-36 -228q304 -16 350 -317h-113q-22 107 -83.5 158.5t-170.5 56.5z
M170 551q0 -150 73.5 -233.5t190.5 -96.5l141 879q-94 -11 -172 -63t-128 -128.5t-77.5 -169t-27.5 -188.5z" />
    <glyph glyph-name="sterling" unicode="&#xa3;" horiz-adv-x="1062" 
d="M649 1448q213 0 312 -122t71 -343h-112q46 356 -281 356q-161 0 -259.5 -97.5t-98.5 -254.5q0 -49 8 -96t27 -116t24 -89h303l-10 -82h-277q4 -40 4 -61q0 -238 -245 -457q107 41 211 41q62 0 182 -21.5t188 -21.5q86 0 174 25l-12 -109q-88 -23 -174 -23q-74 0 -202 24
t-197 24q-124 0 -240 -48l-55 95q266 250 266 475q0 21 -4 57h-178l12 82h145q-2 8 -20 63t-24 77.5t-13.5 68.5t-7.5 88q0 208 134 336.5t349 128.5z" />
    <glyph glyph-name="currency" unicode="&#xa4;" horiz-adv-x="1181" 
d="M1110 975q0 -154 -92 -277l94 -94l-84 -82l-92 92q-125 -98 -285 -98q-159 0 -284 98l-93 -92l-84 82l95 94q-92 123 -92 277t94 278l-97 97l84 80l95 -95q127 99 282 99q158 0 285 -99l92 95l84 -80l-96 -97q94 -124 94 -278zM297 975q0 -143 104 -248.5t250 -105.5
t251.5 106t105.5 248q0 141 -105.5 247.5t-251.5 106.5t-250 -106.5t-104 -247.5z" />
    <glyph glyph-name="yen" unicode="&#xa5;" horiz-adv-x="1304" 
d="M1366 1434l-655 -861h276l-12 -84h-279l-20 -118h280l-14 -82h-278l-48 -289h-127l48 289h-279l14 82h277l20 118h-278l12 84h279l-398 861h140l333 -740l564 740h145z" />
    <glyph glyph-name="brokenbar" unicode="&#xa6;" horiz-adv-x="415" 
d="M299 1638h109l-91 -573h-108zM70 184h106l-90 -573h-109z" />
    <glyph glyph-name="section" unicode="&#xa7;" horiz-adv-x="1249" 
d="M762 1339q-180 0 -287.5 -84t-107.5 -225q0 -165 227 -215l176 -39q176 -36 272.5 -116.5t96.5 -221.5q0 -192 -133 -313q38 -65 38 -154q0 -147 -75.5 -250.5t-203.5 -153.5t-298 -50q-245 0 -356 109t-105 298h127q1 -67 16.5 -118t52.5 -93t105.5 -64t167.5 -22
q201 0 320.5 88t119.5 250q0 100 -66 155t-181 79l-207 45q-155 34 -236.5 113t-81.5 200q0 89 37 169.5t105 137.5q-47 68 -47 160q0 132 70 229.5t189 147t271 49.5q224 0 328.5 -93.5t101.5 -256.5h-127q0 55 -14 96t-47 74.5t-95.5 51t-152.5 17.5zM762 666l-207 45
q-112 25 -182 69q-101 -85 -101 -219q0 -163 228 -213l176 -39q161 -33 248 -98q86 89 86 223q0 180 -248 232z" />
    <glyph glyph-name="dieresis" unicode="&#xa8;" horiz-adv-x="555" 
d="M145 1452h129l-26 -172h-127zM569 1452h129l-26 -172h-129z" />
    <glyph glyph-name="copyright" unicode="&#xa9;" horiz-adv-x="1624" 
d="M733 -14q-186 0 -334 80.5t-231.5 226.5t-83.5 332q0 221 112 410.5t302 300t411 110.5q185 0 332.5 -80.5t231 -226t83.5 -330.5q0 -167 -65.5 -319.5t-175.5 -262.5t-262.5 -175.5t-319.5 -65.5zM729 70q203 0 375 99t272.5 268.5t100.5 369.5q0 247 -159 402t-407 155
q-153 0 -292 -60.5t-238 -161.5t-157 -238t-58 -286q0 -244 158.5 -396t404.5 -152zM758 360q206 0 303 164h90q-120 -245 -397 -245q-153 0 -254 97.5t-101 266.5q0 140 63.5 257.5t174.5 186t244 68.5q127 0 212.5 -61t110.5 -183h-84q-43 160 -246 160
q-168 0 -278.5 -126.5t-110.5 -305.5q0 -131 78.5 -205t194.5 -74z" />
    <glyph glyph-name="ordfeminine" unicode="&#xaa;" horiz-adv-x="731" 
d="M670 883q0 -52 20 -97h-86q-25 60 -22 121q-48 -55 -107.5 -88t-148.5 -33q-84 0 -140.5 44.5t-56.5 125.5q0 193 258 218l231 22q9 89 -20 126.5t-119 37.5q-143 0 -188 -94h-88q56 180 282 180q121 0 174.5 -50t53.5 -155q0 -43 -21.5 -182.5t-21.5 -175.5zM350 874
q47 0 89 14t71.5 36.5t47 41.5t30.5 38l20 112l-219 -20q-164 -16 -164 -131q0 -91 125 -91z" />
    <glyph glyph-name="guillemotleft" unicode="&#xab;" horiz-adv-x="800" 
d="M408 776l-224 -170l170 -174l-20 -117l-248 248l16 96l324 248zM758 776l-223 -170l170 -174l-21 -117l-248 248l17 96l323 248z" />
    <glyph glyph-name="logicalnot" unicode="&#xac;" horiz-adv-x="983" 
d="M80 639h678l-19 -100h-676zM758 639h121l-56 -344h-121z" />
    <glyph glyph-name="uni00AD" unicode="&#xad;" horiz-adv-x="866" 
d="M76 621h682l-15 -91h-682z" />
    <glyph glyph-name="registered" unicode="&#xae;" horiz-adv-x="1624" 
d="M733 -14q-186 0 -334 80.5t-231.5 226.5t-83.5 332q0 221 112 410.5t302 300t411 110.5q185 0 332.5 -80.5t231 -226t83.5 -330.5q0 -167 -65.5 -319.5t-175.5 -262.5t-262.5 -175.5t-319.5 -65.5zM729 70q203 0 375 99t272.5 268.5t100.5 369.5q0 247 -159 402t-407 155
q-153 0 -292 -60.5t-238 -161.5t-157 -238t-58 -286q0 -244 158.5 -396t404.5 -152zM1079 309h-82q-12 37 -9.5 70.5t11.5 92t9 81.5q0 58 -32.5 77t-90.5 19h-267l-53 -340h-82l129 815h303q119 0 179.5 -49.5t60.5 -142.5q0 -186 -178 -246q58 -12 85.5 -43.5t27.5 -87.5
q0 -17 -6 -57t-11.5 -75t-5 -68.5t11.5 -45.5zM870 721q92 0 148.5 59t56.5 150q0 65 -39 94t-125 29h-227l-53 -332h239z" />
    <glyph glyph-name="macron" unicode="&#xaf;" horiz-adv-x="593" 
d="M145 1452h594l-12 -82h-594z" />
    <glyph glyph-name="degree" unicode="&#xb0;" horiz-adv-x="788" 
d="M455 874q-115 0 -190 74.5t-75 184.5q0 137 105 238.5t242 101.5q113 0 187.5 -74.5t74.5 -184.5q0 -138 -104 -239t-240 -101zM457 971q99 0 172 71.5t73 169.5q0 71 -47.5 116.5t-122.5 45.5q-97 0 -170 -70.5t-73 -168.5q0 -71 47.5 -117.5t120.5 -46.5z" />
    <glyph glyph-name="plusminus" unicode="&#xb1;" horiz-adv-x="954" 
d="M555 672h358l-16 -111h-358l-58 -360h-114l57 360h-356l16 111h356l58 358h114zM18 -35l15 90h737l-14 -90h-738z" />
    <glyph glyph-name="uni00B2" unicode="&#xb2;" horiz-adv-x="503" 
d="M121 901q9 87 51 143t145 115q40 23 56 33t41.5 30.5t35 42t9.5 48.5q0 33 -26 54.5t-68 21.5q-51 0 -83.5 -28.5t-41.5 -80.5h-58q11 74 62.5 119t128.5 45q64 0 103.5 -34.5t39.5 -88.5q0 -70 -43.5 -113t-136.5 -94q-65 -35 -101.5 -78t-41.5 -82h274l-8 -53h-338z
" />
    <glyph glyph-name="uni00B3" unicode="&#xb3;" horiz-adv-x="536" 
d="M432 1184q44 -7 75.5 -34.5t31.5 -76.5q0 -76 -61 -128t-161 -52q-90 0 -131.5 48.5t-29.5 125.5h55q-9 -57 21.5 -90t93.5 -33q68 0 111.5 36t43.5 93q0 84 -133 84h-22l8 45h22q63 0 99.5 34.5t36.5 80.5q0 35 -25.5 55.5t-71.5 20.5q-112 0 -139 -117h-53
q13 79 65.5 123.5t132.5 44.5q70 0 109 -33t39 -86t-34 -90.5t-83 -50.5z" />
    <glyph glyph-name="acute" unicode="&#xb4;" horiz-adv-x="319" 
d="M104 1190h101l260 262h-168z" />
    <glyph glyph-name="uni00B5" unicode="&#xb5;" horiz-adv-x="1097" 
d="M831 401l-22 -149q-15 -34 -49 -75t-86.5 -84.5t-129 -73t-159.5 -29.5q-171 0 -254 86l-74 -465h-120l231 1454h121l-103 -649q-27 -173 36 -245.5t194 -72.5q81 0 154.5 31t124.5 79.5t85 97.5t51 95zM938 1065h121l-168 -1065h-121z" />
    <glyph glyph-name="paragraph" unicode="&#xb6;" horiz-adv-x="1118" 
d="M1137 1434l-297 -1885h-103l283 1797h-174l-283 -1797h-108l172 1086h-154q-193 0 -286.5 112t-65.5 293q28 177 154 285.5t319 108.5h543z" />
    <glyph glyph-name="periodcentered" unicode="&#xb7;" horiz-adv-x="342" 
d="M96 670h146l-27 -168h-147z" />
    <glyph glyph-name="cedilla" unicode="&#xb8;" horiz-adv-x="315" 
d="M0 -109q72 11 130 -29t58 -116q0 -182 -286 -182v61q186 6 186 117q0 59 -49 80t-113 -10l-32 49l92 141h116z" />
    <glyph glyph-name="uni00B9" unicode="&#xb9;" horiz-adv-x="329" 
d="M350 1434l-84 -533h-55l72 455q-40 -56 -117 -47l6 53q35 -4 71 19t52 53h55z" />
    <glyph glyph-name="ordmasculine" unicode="&#xba;" horiz-adv-x="755" 
d="M496 1450q111 0 192.5 -75t81.5 -204q0 -161 -109.5 -276t-259.5 -115q-111 0 -191.5 75t-80.5 204q0 161 108.5 276t258.5 115zM672 1174q0 89 -53 137.5t-130 48.5q-112 0 -187 -90t-75 -211q0 -91 52 -139t129 -48q113 0 188.5 90.5t75.5 211.5z" />
    <glyph glyph-name="guillemotright" unicode="&#xbb;" horiz-adv-x="800" 
d="M68 446l223 170l-170 175l20 116l248 -248l-16 -96l-324 -248zM418 446l223 170l-170 175l21 116l247 -248l-16 -96l-324 -248z" />
    <glyph glyph-name="onequarter" unicode="&#xbc;" horiz-adv-x="1204" 
d="M59 0h-71l1118 1434h72zM350 1434l-84 -533h-55l72 455q-40 -56 -117 -47l6 53q35 -4 71 19t52 53h55zM1059 135h-62l-22 -135h-55l22 135h-246l6 47l304 353h55l-55 -353h61zM948 182l43 275l-233 -275h190z" />
    <glyph glyph-name="onehalf" unicode="&#xbd;" horiz-adv-x="1198" 
d="M59 0h-71l1118 1434h72zM350 1434l-84 -533h-55l72 455q-40 -56 -117 -47l6 53q35 -4 71 19t52 53h55zM684 0q9 87 51 142.5t146 115.5q39 22 56 32.5t41.5 31t34 42t9.5 48.5q0 33 -26 54t-68 21q-106 0 -125 -108h-58q11 74 62.5 119t128.5 45q64 0 103.5 -34.5
t39.5 -88.5q0 -70 -43.5 -113t-136.5 -94q-65 -35 -101.5 -78t-41.5 -82h274l-8 -53h-338z" />
    <glyph glyph-name="threequarters" unicode="&#xbe;" horiz-adv-x="1320" 
d="M442 1184q44 -7 75.5 -34.5t31.5 -76.5q0 -76 -60.5 -128t-160.5 -52q-90 0 -132 48.5t-30 125.5h55q-9 -57 21.5 -90t93.5 -33q68 0 112 36t44 93q0 42 -36 63t-98 21h-22l8 45h23q62 0 98.5 34.5t36.5 80.5q0 35 -25.5 55.5t-70.5 20.5q-113 0 -140 -117h-53
q13 79 66 123.5t133 44.5q70 0 108.5 -33t38.5 -86t-34 -90.5t-83 -50.5zM176 0h-72l1119 1434h71zM1176 135h-62l-22 -135h-56l23 135h-246l6 47l303 353h56l-56 -353h62zM1065 182l43 275l-234 -275h191z" />
    <glyph glyph-name="questiondown" unicode="&#xbf;" horiz-adv-x="1054" 
d="M614 895h-145l25 170h145zM344 -383q213 0 346.5 116.5t165.5 329.5h-117q-29 -169 -130 -253t-244 -84q-148 0 -218.5 72t-46.5 210q9 52 36 95t64.5 74.5t82 62t89.5 64.5t84 74t69.5 99.5t43.5 132.5l15 76h-129l-13 -76q-10 -62 -38.5 -113t-66.5 -86t-82.5 -67
t-89 -65t-83 -70.5t-67.5 -92.5t-40 -122q-28 -178 76 -277.5t293 -99.5z" />
    <glyph glyph-name="Agrave" unicode="&#xc0;" horiz-adv-x="1361" 
d="M868 1559h-104l-219 262h172zM1079 0l-92 397h-674l-217 -397h-139l799 1434h112l349 -1434h-138zM369 498h596l-177 766z" />
    <glyph glyph-name="Aacute" unicode="&#xc1;" horiz-adv-x="1361" 
d="M1135 1821l-261 -262h-100l193 262h168zM1079 0l-92 397h-674l-217 -397h-139l799 1434h112l349 -1434h-138zM369 498h596l-177 766z" />
    <glyph glyph-name="Acircumflex" unicode="&#xc2;" horiz-adv-x="1361" 
d="M842 1751l-230 -188h-102l235 258h203l158 -258h-98zM1079 0l-92 397h-674l-217 -397h-139l799 1434h112l349 -1434h-138zM369 498h596l-177 766z" />
    <glyph glyph-name="Atilde" unicode="&#xc3;" horiz-adv-x="1361" 
d="M647 1761q-58 0 -87.5 -30t-27.5 -66h-65q0 88 55 137t135 49q39 0 74.5 -14.5t62.5 -35.5t53 -42.5t57 -36t63 -14.5q58 0 87 29t27 65h66q0 -87 -55 -136.5t-136 -49.5q-39 0 -74.5 15t-62.5 36t-52.5 42.5t-56.5 36.5t-63 15zM1079 0l-92 397h-674l-217 -397h-139
l799 1434h112l349 -1434h-138zM369 498h596l-177 766z" />
    <glyph glyph-name="Adieresis" unicode="&#xc4;" horiz-adv-x="1361" 
d="M723 1821l-27 -172h-127l25 172h129zM1147 1821l-27 -172h-129l27 172h129zM1079 0l-92 397h-674l-217 -397h-139l799 1434h112l349 -1434h-138zM369 498h596l-177 766z" />
    <glyph glyph-name="Aring" unicode="&#xc5;" horiz-adv-x="1361" 
d="M838 1559q-66 0 -109 42t-43 103q0 76 56 131t135 55q64 0 105.5 -42.5t41.5 -104.5q0 -74 -55.5 -129t-130.5 -55zM868 1823q-46 0 -79 -33.5t-33 -77.5q0 -36 25 -61t63 -25q43 0 76.5 33t33.5 78q0 36 -25 61t-61 25zM1079 0l-92 397h-674l-217 -397h-139l799 1434
h112l349 -1434h-138zM369 498h596l-177 766z" />
    <glyph glyph-name="AE" unicode="&#xc6;" horiz-adv-x="2011" 
d="M2044 1321h-780l-84 -528h678l-19 -105h-676l-92 -575h801l-19 -113h-925l63 397h-561l-334 -397h-139l1196 1419l2 15h905zM1008 502l112 717l-602 -717h490z" />
    <glyph glyph-name="Ccedilla" unicode="&#xc7;" horiz-adv-x="1306" 
d="M614 94q158 0 273.5 64t175.5 176h131q-68 -160 -219 -252t-348 -100l-84 -91q72 11 130 -29t58 -116q0 -182 -287 -182v61q187 6 187 117q0 59 -48.5 80t-113.5 -10l-33 49l82 125q-205 23 -323.5 162t-118.5 389q0 144 31.5 278.5t95.5 250t153 202t211.5 135.5
t263.5 49q206 0 334.5 -93t147.5 -259h-127q-26 112 -119.5 175.5t-251.5 63.5q-114 0 -213 -45t-170.5 -122t-123 -178.5t-76.5 -216.5t-25 -234q0 -223 110 -336t297 -113z" />
    <glyph glyph-name="Egrave" unicode="&#xc8;" horiz-adv-x="1101" 
d="M768 1559l-152 262h-172l220 -262h104zM1135 1321h-781l-84 -528h678l-18 -105h-676l-92 -575h801l-19 -113h-926l228 1434h905z" />
    <glyph glyph-name="Eacute" unicode="&#xc9;" horiz-adv-x="1101" 
d="M674 1559h100l260 262h-168zM1135 1321h-781l-84 -528h678l-18 -105h-676l-92 -575h801l-19 -113h-926l228 1434h905z" />
    <glyph glyph-name="Ecircumflex" unicode="&#xca;" horiz-adv-x="1101" 
d="M907 1563l-166 188l-229 -188h-102l235 258h203l158 -258h-99zM1135 1321h-781l-84 -528h678l-18 -105h-676l-92 -575h801l-19 -113h-926l228 1434h905z" />
    <glyph glyph-name="Edieresis" unicode="&#xcb;" horiz-adv-x="1101" 
d="M494 1821h129l-27 -172h-127zM918 1821h129l-27 -172h-129zM1135 1321h-781l-84 -528h678l-18 -105h-676l-92 -575h801l-19 -113h-926l228 1434h905z" />
    <glyph glyph-name="Igrave" unicode="&#xcc;" horiz-adv-x="362" 
d="M367 1559l-152 262h-172l219 -262h105zM145 0h-125l226 1434h125z" />
    <glyph glyph-name="Iacute" unicode="&#xcd;" horiz-adv-x="362" 
d="M272 1559h101l260 262h-168zM145 0h-125l226 1434h125z" />
    <glyph glyph-name="Icircumflex" unicode="&#xce;" horiz-adv-x="362" 
d="M506 1563l-166 188l-229 -188h-103l236 258h202l158 -258h-98zM145 0h-125l226 1434h125z" />
    <glyph glyph-name="Idieresis" unicode="&#xcf;" horiz-adv-x="362" 
d="M92 1821h129l-26 -172h-127zM516 1821h129l-27 -172h-129zM145 0h-125l226 1434h125z" />
    <glyph glyph-name="Eth" unicode="&#xd0;" horiz-adv-x="1333" 
d="M696 1434q288 0 436 -142.5t148 -406.5q0 -262 -93 -460.5t-276.5 -311.5t-435.5 -113h-412l105 670h-96l14 90h96l107 674h407zM473 117q167 0 298 56t215 158.5t127.5 243.5t43.5 314q0 217 -120 322.5t-363 105.5h-279l-86 -557h459l-14 -90h-459l-86 -553h264z" />
    <glyph glyph-name="Ntilde" unicode="&#xd1;" horiz-adv-x="1327" 
d="M1083 1802h66q0 -87 -55 -136.5t-136 -49.5q-39 0 -74.5 15t-62.5 36t-52.5 42.5t-56.5 36.5t-63 15q-58 0 -87 -30t-27 -66h-66q0 88 55 137t135 49q39 0 74.5 -14.5t62.5 -35.5t53 -42.5t57 -36t63 -14.5q58 0 87 29t27 65zM1337 1434l-227 -1434h-141l-623 1245h-4
l-199 -1245h-125l228 1434h139l625 -1248h4l198 1248h125z" />
    <glyph glyph-name="Ograve" unicode="&#xd2;" horiz-adv-x="1431" 
d="M924 1559l-152 262h-172l219 -262h105zM842 1452q244 0 388 -142.5t144 -406.5q0 -123 -23.5 -239t-67.5 -218.5t-111 -187.5t-151 -146.5t-190 -95.5t-225 -34q-244 0 -388 141.5t-144 404.5q0 148 32.5 285t98 253t156.5 202.5t214.5 135t266.5 48.5zM621 96
q147 0 267.5 67.5t196.5 180.5t117 254.5t41 296.5q0 218 -111 330t-307 112q-99 0 -186.5 -31t-155 -86.5t-120.5 -130.5t-87.5 -164.5t-52.5 -188t-18 -201.5q0 -215 110.5 -327t305.5 -112z" />
    <glyph glyph-name="Oacute" unicode="&#xd3;" horiz-adv-x="1431" 
d="M829 1559h101l260 262h-168zM842 1452q244 0 388 -142.5t144 -406.5q0 -123 -23.5 -239t-67.5 -218.5t-111 -187.5t-151 -146.5t-190 -95.5t-225 -34q-244 0 -388 141.5t-144 404.5q0 148 32.5 285t98 253t156.5 202.5t214.5 135t266.5 48.5zM621 96q147 0 267.5 67.5
t196.5 180.5t117 254.5t41 296.5q0 218 -111 330t-307 112q-99 0 -186.5 -31t-155 -86.5t-120.5 -130.5t-87.5 -164.5t-52.5 -188t-18 -201.5q0 -215 110.5 -327t305.5 -112z" />
    <glyph glyph-name="Ocircumflex" unicode="&#xd4;" horiz-adv-x="1431" 
d="M1063 1563l-166 188l-229 -188h-103l236 258h203l157 -258h-98zM842 1452q244 0 388 -142.5t144 -406.5q0 -123 -23.5 -239t-67.5 -218.5t-111 -187.5t-151 -146.5t-190 -95.5t-225 -34q-244 0 -388 141.5t-144 404.5q0 148 32.5 285t98 253t156.5 202.5t214.5 135
t266.5 48.5zM621 96q147 0 267.5 67.5t196.5 180.5t117 254.5t41 296.5q0 218 -111 330t-307 112q-99 0 -186.5 -31t-155 -86.5t-120.5 -130.5t-87.5 -164.5t-52.5 -188t-18 -201.5q0 -215 110.5 -327t305.5 -112z" />
    <glyph glyph-name="Otilde" unicode="&#xd5;" horiz-adv-x="1431" 
d="M1137 1802h65q0 -87 -54.5 -136.5t-135.5 -49.5q-39 0 -74.5 15t-62.5 36t-53 42.5t-57 36.5t-63 15q-58 0 -87 -30t-27 -66h-66q0 88 55.5 137t135.5 49q47 0 91 -22.5t72.5 -49t67.5 -49t78 -22.5q58 0 87.5 29t27.5 65zM842 1452q244 0 388 -142.5t144 -406.5
q0 -123 -23.5 -239t-67.5 -218.5t-111 -187.5t-151 -146.5t-190 -95.5t-225 -34q-244 0 -388 141.5t-144 404.5q0 148 32.5 285t98 253t156.5 202.5t214.5 135t266.5 48.5zM621 96q147 0 267.5 67.5t196.5 180.5t117 254.5t41 296.5q0 218 -111 330t-307 112
q-99 0 -186.5 -31t-155 -86.5t-120.5 -130.5t-87.5 -164.5t-52.5 -188t-18 -201.5q0 -215 110.5 -327t305.5 -112z" />
    <glyph glyph-name="Odieresis" unicode="&#xd6;" horiz-adv-x="1431" 
d="M649 1821h129l-26 -172h-127zM1073 1821h129l-26 -172h-129zM842 1452q244 0 388 -142.5t144 -406.5q0 -123 -23.5 -239t-67.5 -218.5t-111 -187.5t-151 -146.5t-190 -95.5t-225 -34q-244 0 -388 141.5t-144 404.5q0 148 32.5 285t98 253t156.5 202.5t214.5 135
t266.5 48.5zM621 96q147 0 267.5 67.5t196.5 180.5t117 254.5t41 296.5q0 218 -111 330t-307 112q-99 0 -186.5 -31t-155 -86.5t-120.5 -130.5t-87.5 -164.5t-52.5 -188t-18 -201.5q0 -215 110.5 -327t305.5 -112z" />
    <glyph glyph-name="multiply" unicode="&#xd7;" horiz-adv-x="788" 
d="M768 788l-295 -253l215 -252l-90 -80l-213 254l-295 -256l-67 82l292 256l-211 249l86 78l216 -252l290 254z" />
    <glyph glyph-name="Oslash" unicode="&#xd8;" horiz-adv-x="1431" 
d="M1188 1348q186 -143 186 -445q0 -123 -23.5 -239t-67.5 -218.5t-111 -187.5t-151 -146.5t-190 -95.5t-225 -34q-148 0 -256 51l-86 -135h-129l121 190q-182 146 -182 440q0 148 32.5 285t98 253t156.5 202.5t214.5 135t266.5 48.5q142 0 252 -49l77 123h129zM205 535
q0 -223 121 -338l700 1101q-82 39 -201 39q-99 0 -186.5 -31t-155 -86.5t-120.5 -130.5t-87.5 -164.5t-52.5 -188t-18 -201.5zM621 96q147 0 267.5 67.5t196.5 180.5t117 254.5t41 296.5q0 228 -125 344l-702 -1102q90 -41 205 -41z" />
    <glyph glyph-name="Ugrave" unicode="&#xd9;" horiz-adv-x="1314" 
d="M866 1559l-151 262h-172l219 -262h104zM1323 1434l-139 -887q-41 -261 -209 -410t-418 -149t-371 149t-80 410l140 887h125l-138 -881q-35 -215 53 -334t287 -119q196 0 324 119.5t162 333.5l139 881h125z" />
    <glyph glyph-name="Uacute" unicode="&#xda;" horiz-adv-x="1314" 
d="M772 1559h100l261 262h-168zM1323 1434l-139 -887q-41 -261 -209 -410t-418 -149t-371 149t-80 410l140 887h125l-138 -881q-35 -215 53 -334t287 -119q196 0 324 119.5t162 333.5l139 881h125z" />
    <glyph glyph-name="Ucircumflex" unicode="&#xdb;" horiz-adv-x="1314" 
d="M1006 1563l-166 188l-230 -188h-102l235 258h203l158 -258h-98zM1323 1434l-139 -887q-41 -261 -209 -410t-418 -149t-371 149t-80 410l140 887h125l-138 -881q-35 -215 53 -334t287 -119q196 0 324 119.5t162 333.5l139 881h125z" />
    <glyph glyph-name="Udieresis" unicode="&#xdc;" horiz-adv-x="1314" 
d="M592 1821h129l-27 -172h-127zM1016 1821h129l-27 -172h-129zM1323 1434l-139 -887q-41 -261 -209 -410t-418 -149t-371 149t-80 410l140 887h125l-138 -881q-35 -215 53 -334t287 -119q196 0 324 119.5t162 333.5l139 881h125z" />
    <glyph glyph-name="Yacute" unicode="&#xdd;" horiz-adv-x="1304" 
d="M764 1559h100l260 262h-168zM709 571l-93 -571h-127l93 571l-398 863h140l333 -740l564 740h145z" />
    <glyph glyph-name="Thorn" unicode="&#xde;" horiz-adv-x="1210" 
d="M680 1157q241 0 364.5 -123t90.5 -321q-32 -204 -187.5 -316t-398.5 -112h-363l9 51l-54 -336h-121l226 1434h121l-164 -1041h360q194 0 311 83t144 253q23 153 -66.5 237.5t-277.5 84.5h-367l17 106h356z" />
    <glyph glyph-name="germandbls" unicode="&#xdf;" horiz-adv-x="1169" 
d="M791 784q128 -27 195 -109t67 -202q0 -239 -159 -356t-439 -117h-146l17 109h141q221 0 345 89.5t124 280.5q0 122 -96.5 186t-270.5 64h-145l16 100h140q175 0 272.5 76.5t97.5 224.5q0 93 -72 145t-206 52q-168 0 -256 -66.5t-111 -209.5l-166 -1051h-121l166 1059
q31 190 150.5 282.5t339.5 92.5q189 0 293 -77t104 -224q0 -134 -73.5 -226t-206.5 -123z" />
    <glyph glyph-name="agrave" unicode="&#xe0;" horiz-adv-x="1110" 
d="M670 1190h-105l-219 262h172zM967 692l-86 -540q-6 -42 11.5 -57.5t65.5 -12.5l-14 -82q-27 -8 -57 -8q-73 0 -103.5 36t-15.5 117l14 80q-19 -31 -53 -67t-89 -77t-137 -68t-173 -27q-142 0 -226 71.5t-84 198.5q0 82 29.5 143t87 100t129.5 62t170 37q6 1 48.5 7
t56.5 8t54 8t59.5 10t53 10t54 11.5t43.5 12t39 13.5l4 20q26 153 -31.5 217t-212.5 64q-135 0 -207.5 -44.5t-103.5 -129.5h-117q43 140 148.5 205t287.5 65q210 0 298.5 -91.5t56.5 -291.5zM788 340l43 256q-15 -6 -35 -12t-48.5 -12.5t-52 -11.5t-64 -12t-63 -11t-71 -12
t-67.5 -11q-150 -24 -219.5 -80t-69.5 -168q0 -88 57.5 -138t157.5 -50q87 0 166.5 30.5t132.5 76t85.5 85t47.5 70.5z" />
    <glyph glyph-name="aacute" unicode="&#xe1;" horiz-adv-x="1110" 
d="M936 1452l-260 -262h-101l193 262h168zM967 692l-86 -540q-6 -42 11.5 -57.5t65.5 -12.5l-14 -82q-27 -8 -57 -8q-73 0 -103.5 36t-15.5 117l14 80q-19 -31 -53 -67t-89 -77t-137 -68t-173 -27q-142 0 -226 71.5t-84 198.5q0 82 29.5 143t87 100t129.5 62t170 37
q6 1 48.5 7t56.5 8t54 8t59.5 10t53 10t54 11.5t43.5 12t39 13.5l4 20q26 153 -31.5 217t-212.5 64q-135 0 -207.5 -44.5t-103.5 -129.5h-117q43 140 148.5 205t287.5 65q210 0 298.5 -91.5t56.5 -291.5zM788 340l43 256q-15 -6 -35 -12t-48.5 -12.5t-52 -11.5t-64 -12
t-63 -11t-71 -12t-67.5 -11q-150 -24 -219.5 -80t-69.5 -168q0 -88 57.5 -138t157.5 -50q87 0 166.5 30.5t132.5 76t85.5 85t47.5 70.5z" />
    <glyph glyph-name="acircumflex" unicode="&#xe2;" horiz-adv-x="1110" 
d="M643 1382l-229 -188h-103l236 258h203l157 -258h-98zM967 692l-86 -540q-6 -42 11.5 -57.5t65.5 -12.5l-14 -82q-27 -8 -57 -8q-73 0 -103.5 36t-15.5 117l14 80q-19 -31 -53 -67t-89 -77t-137 -68t-173 -27q-142 0 -226 71.5t-84 198.5q0 82 29.5 143t87 100t129.5 62
t170 37q6 1 48.5 7t56.5 8t54 8t59.5 10t53 10t54 11.5t43.5 12t39 13.5l4 20q26 153 -31.5 217t-212.5 64q-135 0 -207.5 -44.5t-103.5 -129.5h-117q43 140 148.5 205t287.5 65q210 0 298.5 -91.5t56.5 -291.5zM788 340l43 256q-15 -6 -35 -12t-48.5 -12.5t-52 -11.5
t-64 -12t-63 -11t-71 -12t-67.5 -11q-150 -24 -219.5 -80t-69.5 -168q0 -88 57.5 -138t157.5 -50q87 0 166.5 30.5t132.5 76t85.5 85t47.5 70.5z" />
    <glyph glyph-name="atilde" unicode="&#xe3;" horiz-adv-x="1110" 
d="M449 1393q-58 0 -87.5 -30.5t-27.5 -66.5h-66q0 88 55.5 137.5t135.5 49.5q47 0 91 -22.5t72.5 -49.5t67.5 -49.5t78 -22.5q58 0 87.5 29.5t27.5 65.5h65q0 -87 -55 -137t-135 -50q-47 0 -91 23t-72.5 50t-67.5 50t-78 23zM967 692l-86 -540q-6 -42 11.5 -57.5
t65.5 -12.5l-14 -82q-27 -8 -57 -8q-73 0 -103.5 36t-15.5 117l14 80q-19 -31 -53 -67t-89 -77t-137 -68t-173 -27q-142 0 -226 71.5t-84 198.5q0 82 29.5 143t87 100t129.5 62t170 37q6 1 48.5 7t56.5 8t54 8t59.5 10t53 10t54 11.5t43.5 12t39 13.5l4 20q26 153 -31.5 217
t-212.5 64q-135 0 -207.5 -44.5t-103.5 -129.5h-117q43 140 148.5 205t287.5 65q210 0 298.5 -91.5t56.5 -291.5zM788 340l43 256q-15 -6 -35 -12t-48.5 -12.5t-52 -11.5t-64 -12t-63 -11t-71 -12t-67.5 -11q-150 -24 -219.5 -80t-69.5 -168q0 -88 57.5 -138t157.5 -50
q87 0 166.5 30.5t132.5 76t85.5 85t47.5 70.5z" />
    <glyph glyph-name="adieresis" unicode="&#xe4;" horiz-adv-x="1110" 
d="M524 1452l-26 -172h-127l24 172h129zM948 1452l-26 -172h-129l26 172h129zM967 692l-86 -540q-6 -42 11.5 -57.5t65.5 -12.5l-14 -82q-27 -8 -57 -8q-73 0 -103.5 36t-15.5 117l14 80q-19 -31 -53 -67t-89 -77t-137 -68t-173 -27q-142 0 -226 71.5t-84 198.5
q0 82 29.5 143t87 100t129.5 62t170 37q6 1 48.5 7t56.5 8t54 8t59.5 10t53 10t54 11.5t43.5 12t39 13.5l4 20q26 153 -31.5 217t-212.5 64q-135 0 -207.5 -44.5t-103.5 -129.5h-117q43 140 148.5 205t287.5 65q210 0 298.5 -91.5t56.5 -291.5zM788 340l43 256
q-15 -6 -35 -12t-48.5 -12.5t-52 -11.5t-64 -12t-63 -11t-71 -12t-67.5 -11q-150 -24 -219.5 -80t-69.5 -168q0 -88 57.5 -138t157.5 -50q87 0 166.5 30.5t132.5 76t85.5 85t47.5 70.5z" />
    <glyph glyph-name="aring" unicode="&#xe5;" horiz-adv-x="1110" 
d="M639 1190q-66 0 -109 42t-43 103q0 76 56 131.5t135 55.5q64 0 105.5 -43t41.5 -105q0 -74 -55.5 -129t-130.5 -55zM670 1454q-46 0 -79.5 -33.5t-33.5 -77.5q0 -36 25 -61t63 -25q43 0 77 33t34 78q0 36 -25 61t-61 25zM967 692l-86 -540q-6 -42 11.5 -57.5t65.5 -12.5
l-14 -82q-27 -8 -57 -8q-73 0 -103.5 36t-15.5 117l14 80q-19 -31 -53 -67t-89 -77t-137 -68t-173 -27q-142 0 -226 71.5t-84 198.5q0 82 29.5 143t87 100t129.5 62t170 37q6 1 48.5 7t56.5 8t54 8t59.5 10t53 10t54 11.5t43.5 12t39 13.5l4 20q26 153 -31.5 217t-212.5 64
q-135 0 -207.5 -44.5t-103.5 -129.5h-117q43 140 148.5 205t287.5 65q210 0 298.5 -91.5t56.5 -291.5zM788 340l43 256q-15 -6 -35 -12t-48.5 -12.5t-52 -11.5t-64 -12t-63 -11t-71 -12t-67.5 -11q-150 -24 -219.5 -80t-69.5 -168q0 -88 57.5 -138t157.5 -50
q87 0 166.5 30.5t132.5 76t85.5 85t47.5 70.5z" />
    <glyph glyph-name="ae" unicode="&#xe6;" horiz-adv-x="1865" 
d="M1774 479h-844q-2 -20 -2 -61q0 -171 86.5 -253.5t234.5 -82.5q109 0 182 30t140 103h125q-89 -124 -197 -176.5t-260 -52.5q-154 0 -262.5 73.5t-145.5 214.5q-205 -286 -505 -286q-142 0 -224 67t-82 191q0 86 29.5 150t86.5 104.5t129 64.5t169 37q12 2 55 7t65 8
t62.5 9t67 11t58.5 11.5t56.5 14t43.5 15.5l4 20q26 154 -32 216.5t-212 62.5q-134 0 -206.5 -42.5t-100.5 -121.5h-119q41 136 147 199t289 63q156 0 244 -49.5t111 -153.5q78 96 187.5 149.5t238.5 53.5q176 0 288.5 -109t112.5 -311q0 -34 -6.5 -91.5t-13.5 -84.5z
M1384 979q-87 0 -162 -32.5t-130 -89.5t-92.5 -130.5t-55.5 -159.5h727q10 41 10 99q0 149 -82.5 231t-214.5 82zM350 84q71 0 138.5 22t113 51t88 69.5t62 65.5t36.5 50l39 246q-63 -25 -405 -76q-137 -21 -208 -81.5t-71 -172.5q0 -84 54 -129t153 -45z" />
    <glyph glyph-name="ccedilla" unicode="&#xe7;" horiz-adv-x="1050" 
d="M457 88q124 0 207 52t139 161h119q-128 -297 -424 -313l-88 -97q72 11 130 -29t58 -116q0 -182 -287 -182v61q187 6 187 117q0 59 -49 80t-113 -10l-33 49l84 129q-157 20 -255.5 129t-98.5 299q0 178 71.5 327.5t204.5 239.5t301 90q337 0 385 -317h-112
q-23 113 -89.5 164t-187.5 51q-84 0 -158 -31.5t-127.5 -85.5t-92.5 -124.5t-58.5 -150.5t-19.5 -161q0 -164 86.5 -248t220.5 -84z" />
    <glyph glyph-name="egrave" unicode="&#xe8;" horiz-adv-x="1085" 
d="M686 1190h-104l-220 262h173zM993 479h-843q-3 -30 -3 -61q0 -171 87 -253.5t235 -82.5q109 0 182 30t140 103h124q-89 -124 -196.5 -176.5t-259.5 -52.5q-191 0 -308.5 111.5t-117.5 320.5q0 180 72.5 330t206 238.5t300.5 88.5q115 0 204.5 -46t143.5 -142.5t54 -231.5
q0 -33 -7 -91t-14 -85zM604 979q-87 0 -162 -32.5t-130 -89.5t-92.5 -130.5t-55.5 -159.5h727q10 41 10 99q0 149 -82.5 231t-214.5 82z" />
    <glyph glyph-name="eacute" unicode="&#xe9;" horiz-adv-x="1085" 
d="M952 1452l-260 -262h-100l192 262h168zM993 479h-843q-3 -30 -3 -61q0 -171 87 -253.5t235 -82.5q109 0 182 30t140 103h124q-89 -124 -196.5 -176.5t-259.5 -52.5q-191 0 -308.5 111.5t-117.5 320.5q0 180 72.5 330t206 238.5t300.5 88.5q115 0 204.5 -46t143.5 -142.5
t54 -231.5q0 -33 -7 -91t-14 -85zM604 979q-87 0 -162 -32.5t-130 -89.5t-92.5 -130.5t-55.5 -159.5h727q10 41 10 99q0 149 -82.5 231t-214.5 82z" />
    <glyph glyph-name="ecircumflex" unicode="&#xea;" horiz-adv-x="1085" 
d="M659 1382l-229 -188h-102l235 258h203l158 -258h-99zM993 479h-843q-3 -30 -3 -61q0 -171 87 -253.5t235 -82.5q109 0 182 30t140 103h124q-89 -124 -196.5 -176.5t-259.5 -52.5q-191 0 -308.5 111.5t-117.5 320.5q0 180 72.5 330t206 238.5t300.5 88.5q115 0 204.5 -46
t143.5 -142.5t54 -231.5q0 -33 -7 -91t-14 -85zM604 979q-87 0 -162 -32.5t-130 -89.5t-92.5 -130.5t-55.5 -159.5h727q10 41 10 99q0 149 -82.5 231t-214.5 82z" />
    <glyph glyph-name="edieresis" unicode="&#xeb;" horiz-adv-x="1085" 
d="M541 1452l-27 -172h-127l25 172h129zM965 1452l-27 -172h-129l27 172h129zM993 479h-843q-3 -30 -3 -61q0 -171 87 -253.5t235 -82.5q109 0 182 30t140 103h124q-89 -124 -196.5 -176.5t-259.5 -52.5q-191 0 -308.5 111.5t-117.5 320.5q0 180 72.5 330t206 238.5
t300.5 88.5q115 0 204.5 -46t143.5 -142.5t54 -231.5q0 -33 -7 -91t-14 -85zM604 979q-87 0 -162 -32.5t-130 -89.5t-92.5 -130.5t-55.5 -159.5h727q10 41 10 99q0 149 -82.5 231t-214.5 82z" />
    <glyph glyph-name="igrave" unicode="&#xec;" horiz-adv-x="333" 
d="M295 1190l-152 262h-172l219 -262h105zM176 1065h121l-168 -1065h-121z" />
    <glyph glyph-name="iacute" unicode="&#xed;" horiz-adv-x="333" 
d="M201 1190h100l260 262h-168zM176 1065h121l-168 -1065h-121z" />
    <glyph glyph-name="icircumflex" unicode="&#xee;" horiz-adv-x="333" 
d="M434 1194l-166 188l-229 -188h-102l235 258h203l157 -258h-98zM176 1065h121l-168 -1065h-121z" />
    <glyph glyph-name="idieresis" unicode="&#xef;" horiz-adv-x="333" 
d="M20 1452h130l-27 -172h-127zM444 1452h129l-26 -172h-129zM176 1065h121l-168 -1065h-121z" />
    <glyph glyph-name="eth" unicode="&#xf0;" horiz-adv-x="1138" 
d="M1022 1221l-164 -21q91 -156 129.5 -271.5t38.5 -236.5q0 -204 -68 -364t-203.5 -254t-318.5 -94q-177 0 -290 113t-113 313q0 135 38 254.5t107.5 209.5t175.5 142.5t234 52.5q185 0 280 -107q-56 125 -116 228l-236 -29l12 68l187 22q-57 92 -127 187h125
q73 -112 108 -172l211 26zM444 88q109 0 198 46.5t145 125.5t86 180t30 215q0 303 -307 303q-86 0 -159 -29t-124.5 -80t-87.5 -120t-53.5 -150.5t-17.5 -170.5q0 -158 81 -239t209 -81z" />
    <glyph glyph-name="ntilde" unicode="&#xf1;" horiz-adv-x="1095" 
d="M907 1434h66q0 -87 -55.5 -137t-135.5 -50q-47 0 -91 23t-72.5 50t-67.5 50t-78 23q-58 0 -87.5 -30.5t-27.5 -66.5h-65q0 88 55 137.5t135 49.5q39 0 74.5 -15t62.5 -36t53 -42t57 -36t63 -15q58 0 87 29.5t27 65.5zM672 1075q67 0 120.5 -14t98.5 -45t70.5 -81
t35 -122.5t-7.5 -169.5l-100 -643h-121l102 647q12 93 3 155t-44 100t-82.5 53.5t-113.5 15.5q-80 0 -152 -31.5t-122 -80.5t-83.5 -98t-50.5 -95l-106 -666h-121l168 1065h121l-41 -254q14 33 48.5 74t87 85.5t130 74.5t160.5 30z" />
    <glyph glyph-name="ograve" unicode="&#xf2;" horiz-adv-x="1099" 
d="M672 1190l-152 262h-172l219 -262h105zM610 1075q66 0 126.5 -17t113.5 -52.5t92 -86.5t61.5 -123.5t22.5 -158.5q0 -129 -43 -248t-118 -208t-183 -142t-231 -53q-83 0 -157 27t-133 79.5t-93.5 137t-34.5 190.5q0 129 43.5 249t118.5 209.5t183.5 143t231.5 53.5z
M909 639q0 163 -87.5 248.5t-217.5 85.5q-133 0 -238 -78.5t-159.5 -203.5t-54.5 -269q0 -82 24.5 -147.5t67 -105.5t96.5 -60.5t115 -20.5q101 0 188 46.5t144.5 123t89.5 176t32 205.5z" />
    <glyph glyph-name="oacute" unicode="&#xf3;" horiz-adv-x="1099" 
d="M578 1190h100l260 262h-168zM610 1075q66 0 126.5 -17t113.5 -52.5t92 -86.5t61.5 -123.5t22.5 -158.5q0 -129 -43 -248t-118 -208t-183 -142t-231 -53q-83 0 -157 27t-133 79.5t-93.5 137t-34.5 190.5q0 129 43.5 249t118.5 209.5t183.5 143t231.5 53.5zM909 639
q0 163 -87.5 248.5t-217.5 85.5q-133 0 -238 -78.5t-159.5 -203.5t-54.5 -269q0 -82 24.5 -147.5t67 -105.5t96.5 -60.5t115 -20.5q101 0 188 46.5t144.5 123t89.5 176t32 205.5z" />
    <glyph glyph-name="ocircumflex" unicode="&#xf4;" horiz-adv-x="1099" 
d="M811 1194l-166 188l-229 -188h-103l236 258h203l157 -258h-98zM610 1075q66 0 126.5 -17t113.5 -52.5t92 -86.5t61.5 -123.5t22.5 -158.5q0 -129 -43 -248t-118 -208t-183 -142t-231 -53q-83 0 -157 27t-133 79.5t-93.5 137t-34.5 190.5q0 129 43.5 249t118.5 209.5
t183.5 143t231.5 53.5zM909 639q0 163 -87.5 248.5t-217.5 85.5q-133 0 -238 -78.5t-159.5 -203.5t-54.5 -269q0 -82 24.5 -147.5t67 -105.5t96.5 -60.5t115 -20.5q101 0 188 46.5t144.5 123t89.5 176t32 205.5z" />
    <glyph glyph-name="otilde" unicode="&#xf5;" horiz-adv-x="1099" 
d="M885 1434h65q0 -87 -55 -137t-135 -50q-47 0 -91 23t-72.5 50t-67.5 50t-78 23q-58 0 -87.5 -30.5t-27.5 -66.5h-66q0 88 55.5 137.5t135.5 49.5q47 0 91 -22.5t72.5 -49.5t67.5 -49.5t78 -22.5q58 0 87.5 29.5t27.5 65.5zM610 1075q66 0 126.5 -17t113.5 -52.5t92 -86.5
t61.5 -123.5t22.5 -158.5q0 -129 -43 -248t-118 -208t-183 -142t-231 -53q-83 0 -157 27t-133 79.5t-93.5 137t-34.5 190.5q0 129 43.5 249t118.5 209.5t183.5 143t231.5 53.5zM909 639q0 163 -87.5 248.5t-217.5 85.5q-133 0 -238 -78.5t-159.5 -203.5t-54.5 -269
q0 -82 24.5 -147.5t67 -105.5t96.5 -60.5t115 -20.5q101 0 188 46.5t144.5 123t89.5 176t32 205.5z" />
    <glyph glyph-name="odieresis" unicode="&#xf6;" horiz-adv-x="1099" 
d="M397 1452h129l-26 -172h-127zM821 1452h129l-26 -172h-129zM610 1075q66 0 126.5 -17t113.5 -52.5t92 -86.5t61.5 -123.5t22.5 -158.5q0 -129 -43 -248t-118 -208t-183 -142t-231 -53q-83 0 -157 27t-133 79.5t-93.5 137t-34.5 190.5q0 129 43.5 249t118.5 209.5
t183.5 143t231.5 53.5zM909 639q0 163 -87.5 248.5t-217.5 85.5q-133 0 -238 -78.5t-159.5 -203.5t-54.5 -269q0 -82 24.5 -147.5t67 -105.5t96.5 -60.5t115 -20.5q101 0 188 46.5t144.5 123t89.5 176t32 205.5z" />
    <glyph glyph-name="divide" unicode="&#xf7;" horiz-adv-x="860" 
d="M483 825q-29 0 -46.5 22t-12.5 50q3 23 22 39t43 16q29 0 47 -20.5t13 -48.5q-4 -25 -23.5 -41.5t-42.5 -16.5zM76 621h737l-14 -91h-738zM385 197q-30 0 -48 20.5t-13 50.5q5 23 23.5 39.5t41.5 16.5q29 0 47 -21t15 -51q-4 -23 -24 -39t-42 -16z" />
    <glyph glyph-name="oslash" unicode="&#xf8;" horiz-adv-x="1099" 
d="M870 991q156 -119 156 -354q0 -129 -43 -248t-118 -208t-183 -142t-231 -53q-108 0 -195 43l-84 -131h-113l117 182q-143 120 -143 340q0 129 43.5 249t118.5 209.5t183.5 143t231.5 53.5q94 0 178 -35l93 144h112zM152 422q0 -157 86 -246l493 772q-61 25 -127 25
q-133 0 -238 -78.5t-159.5 -203.5t-54.5 -269zM455 88q101 0 188 46.5t144.5 123t89.5 176t32 205.5q0 169 -98 260l-498 -780q67 -31 142 -31z" />
    <glyph glyph-name="ugrave" unicode="&#xf9;" horiz-adv-x="1095" 
d="M666 1190h-105l-219 262h172zM936 1065h121l-168 -1065h-121l59 373l-20 -121q-15 -34 -49 -75t-86.5 -85.5t-129 -74t-159.5 -29.5q-84 0 -148 22t-112 72.5t-62 132.5t2 203l103 647h121l-103 -649q-51 -320 230 -320q81 0 155 31t125 79.5t85.5 98.5t51.5 96z" />
    <glyph glyph-name="uacute" unicode="&#xfa;" horiz-adv-x="1095" 
d="M932 1452l-260 -262h-101l193 262h168zM936 1065h121l-168 -1065h-121l59 373l-20 -121q-15 -34 -49 -75t-86.5 -85.5t-129 -74t-159.5 -29.5q-84 0 -148 22t-112 72.5t-62 132.5t2 203l103 647h121l-103 -649q-51 -320 230 -320q81 0 155 31t125 79.5t85.5 98.5t51.5 96
z" />
    <glyph glyph-name="ucircumflex" unicode="&#xfb;" horiz-adv-x="1095" 
d="M639 1382l-229 -188h-103l236 258h202l158 -258h-98zM936 1065h121l-168 -1065h-121l59 373l-20 -121q-15 -34 -49 -75t-86.5 -85.5t-129 -74t-159.5 -29.5q-84 0 -148 22t-112 72.5t-62 132.5t2 203l103 647h121l-103 -649q-51 -320 230 -320q81 0 155 31t125 79.5
t85.5 98.5t51.5 96z" />
    <glyph glyph-name="udieresis" unicode="&#xfc;" horiz-adv-x="1095" 
d="M520 1452l-26 -172h-127l24 172h129zM944 1452l-26 -172h-130l27 172h129zM936 1065h121l-168 -1065h-121l59 373l-20 -121q-15 -34 -49 -75t-86.5 -85.5t-129 -74t-159.5 -29.5q-84 0 -148 22t-112 72.5t-62 132.5t2 203l103 647h121l-103 -649q-51 -320 230 -320
q81 0 155 31t125 79.5t85.5 98.5t51.5 96z" />
    <glyph glyph-name="yacute" unicode="&#xfd;" horiz-adv-x="1030" 
d="M563 1190h101l260 262h-168zM936 1065h127l-653 -1174q-91 -163 -197 -226.5t-242 -43.5l19 105q194 -28 315 190q27 51 35 75t4 46l-250 1028h121l213 -934z" />
    <glyph glyph-name="thorn" unicode="&#xfe;" horiz-adv-x="1138" 
d="M672 1077q81 0 151 -26t124.5 -76t86 -132.5t31.5 -187.5q0 -180 -67.5 -332.5t-195.5 -246.5t-290 -94q-133 0 -221 64.5t-123 186.5l-98 -622h-121l287 1823h120l-94 -586q149 229 410 229zM498 84q103 0 190 49t142.5 129.5t86.5 181.5t31 207q0 161 -84 242.5
t-213 81.5q-139 0 -244 -79t-156.5 -204t-51.5 -274q0 -163 83.5 -248.5t215.5 -85.5z" />
    <glyph glyph-name="ydieresis" unicode="&#xff;" horiz-adv-x="1030" 
d="M383 1452h129l-27 -172h-127zM807 1452h129l-27 -172h-129zM936 1065h127l-653 -1174q-91 -163 -197 -226.5t-242 -43.5l19 105q194 -28 315 190q27 51 35 75t4 46l-250 1028h121l213 -934z" />
    <glyph glyph-name="Amacron" unicode="&#x100;" horiz-adv-x="1361" 
d="M1180 1821l-13 -82h-594l13 82h594zM1079 0l-92 397h-674l-217 -397h-139l799 1434h112l349 -1434h-138zM369 498h596l-177 766z" />
    <glyph glyph-name="amacron" unicode="&#x101;" horiz-adv-x="1110" 
d="M981 1452l-12 -82h-594l12 82h594zM612 1075q210 0 298.5 -91.5t56.5 -291.5l-86 -540q-6 -42 11.5 -57.5t65.5 -12.5l-14 -82q-27 -8 -57 -8q-73 0 -103.5 36t-15.5 117l14 80q-19 -31 -53 -67t-89 -77t-137 -68t-173 -27q-142 0 -226 71.5t-84 198.5q0 82 29.5 143
t87 100t129.5 62t170 37q6 1 48.5 7t56.5 8t54 8t59.5 10t53 10t54 11.5t43.5 12t39 13.5l4 20q26 153 -31.5 217t-212.5 64q-135 0 -207.5 -44.5t-103.5 -129.5h-117q43 140 148.5 205t287.5 65zM788 340l43 256q-15 -6 -35 -12t-48.5 -12.5t-52 -11.5t-64 -12t-63 -11
t-71 -12t-67.5 -11q-150 -24 -219.5 -80t-69.5 -168q0 -88 57.5 -138t157.5 -50q87 0 166.5 30.5t132.5 76t85.5 85t47.5 70.5z" />
    <glyph glyph-name="Abreve" unicode="&#x102;" horiz-adv-x="1361" 
d="M829 1575q-72 0 -124.5 21.5t-78.5 57.5t-35 78t-1 89h84q-5 -76 33.5 -118t130.5 -42q180 0 225 160h84q-15 -107 -93 -176.5t-225 -69.5zM1079 0l-92 397h-674l-217 -397h-139l799 1434h112l349 -1434h-138zM369 498h596l-177 766z" />
    <glyph glyph-name="abreve" unicode="&#x103;" horiz-adv-x="1110" 
d="M631 1206q-72 0 -124.5 21.5t-79 57.5t-35.5 78t-1 89h84q-5 -76 33.5 -118t130.5 -42q180 0 225 160h84q-15 -107 -93 -176.5t-224 -69.5zM967 692l-86 -540q-6 -42 11.5 -57.5t65.5 -12.5l-14 -82q-27 -8 -57 -8q-73 0 -103.5 36t-15.5 117l14 80q-19 -31 -53 -67
t-89 -77t-137 -68t-173 -27q-142 0 -226 71.5t-84 198.5q0 82 29.5 143t87 100t129.5 62t170 37q6 1 48.5 7t56.5 8t54 8t59.5 10t53 10t54 11.5t43.5 12t39 13.5l4 20q26 153 -31.5 217t-212.5 64q-135 0 -207.5 -44.5t-103.5 -129.5h-117q43 140 148.5 205t287.5 65
q210 0 298.5 -91.5t56.5 -291.5zM788 340l43 256q-15 -6 -35 -12t-48.5 -12.5t-52 -11.5t-64 -12t-63 -11t-71 -12t-67.5 -11q-150 -24 -219.5 -80t-69.5 -168q0 -88 57.5 -138t157.5 -50q87 0 166.5 30.5t132.5 76t85.5 85t47.5 70.5z" />
    <glyph glyph-name="Aogonek" unicode="&#x104;" horiz-adv-x="1361" 
d="M1178 0q-120 -41 -198.5 -107.5t-88.5 -142.5q-9 -63 38 -86t144 -6l-6 -68q-45 -18 -99 -20t-102.5 13t-76 57t-17.5 104q8 59 59.5 113t115 88t132.5 55l-92 397h-674l-217 -397h-139l799 1434h112l349 -1434h-39zM369 498h596l-177 766z" />
    <glyph glyph-name="aogonek" unicode="&#x105;" horiz-adv-x="1079" 
d="M967 692l-86 -540q-6 -42 11.5 -57.5t65.5 -12.5l-14 -82q-18 -6 -35 -6q-108 -42 -170.5 -104t-62.5 -134q0 -65 53 -91t148 -9v-66q-43 -18 -96 -20.5t-103.5 10.5t-84.5 53t-34 101q0 91 82 163.5t186 100.5h7q-89 22 -66 147l14 80q-19 -31 -53 -67t-89 -77t-137 -68
t-173 -27q-142 0 -226 71.5t-84 198.5q0 82 29.5 143t87 100t129.5 62t170 37q6 1 48.5 7t56.5 8t54 8t59.5 10t53 10t54 11.5t43.5 12t39 13.5l4 20q26 153 -31.5 217t-212.5 64q-135 0 -207.5 -44.5t-103.5 -129.5h-117q43 140 148.5 205t287.5 65q210 0 298.5 -91.5
t56.5 -291.5zM788 340l43 256q-15 -6 -35 -12t-48.5 -12.5t-52 -11.5t-64 -12t-63 -11t-71 -12t-67.5 -11q-150 -24 -219.5 -80t-69.5 -168q0 -88 57.5 -138t157.5 -50q87 0 166.5 30.5t132.5 76t85.5 85t47.5 70.5z" />
    <glyph glyph-name="Cacute" unicode="&#x106;" horiz-adv-x="1306" 
d="M772 1559h100l261 262h-168zM614 94q158 0 273.5 64t175.5 176h131q-71 -166 -231 -259t-367 -93q-116 0 -210.5 34t-164 101.5t-107.5 174.5t-38 245q0 144 31.5 278.5t95.5 250t153 202t211.5 135.5t263.5 49q206 0 334.5 -93t147.5 -259h-127q-26 112 -119.5 175.5
t-251.5 63.5q-114 0 -213 -45t-170.5 -122t-123 -178.5t-76.5 -216.5t-25 -234q0 -223 110 -336t297 -113z" />
    <glyph glyph-name="cacute" unicode="&#x107;" horiz-adv-x="1050" 
d="M571 1190h101l260 262h-168zM457 88q124 0 207 52t139 161h119q-136 -315 -469 -315q-68 0 -130 16.5t-115 51t-92 84.5t-61 122t-22 158q0 178 71.5 327.5t204.5 239.5t301 90q337 0 385 -317h-112q-23 113 -89.5 164t-187.5 51q-84 0 -158 -31.5t-127.5 -85.5
t-92.5 -124.5t-58.5 -150.5t-19.5 -161q0 -164 86.5 -248t220.5 -84z" />
    <glyph glyph-name="Cdotaccent" unicode="&#x10a;" horiz-adv-x="1306" 
d="M807 1821h129l-27 -172h-127zM614 94q158 0 273.5 64t175.5 176h131q-71 -166 -231 -259t-367 -93q-116 0 -210.5 34t-164 101.5t-107.5 174.5t-38 245q0 144 31.5 278.5t95.5 250t153 202t211.5 135.5t263.5 49q206 0 334.5 -93t147.5 -259h-127q-26 112 -119.5 175.5
t-251.5 63.5q-114 0 -213 -45t-170.5 -122t-123 -178.5t-76.5 -216.5t-25 -234q0 -223 110 -336t297 -113z" />
    <glyph glyph-name="cdotaccent" unicode="&#x10b;" horiz-adv-x="1050" 
d="M606 1452h129l-26 -172h-127zM457 88q124 0 207 52t139 161h119q-136 -315 -469 -315q-68 0 -130 16.5t-115 51t-92 84.5t-61 122t-22 158q0 178 71.5 327.5t204.5 239.5t301 90q337 0 385 -317h-112q-23 113 -89.5 164t-187.5 51q-84 0 -158 -31.5t-127.5 -85.5
t-92.5 -124.5t-58.5 -150.5t-19.5 -161q0 -164 86.5 -248t220.5 -84z" />
    <glyph glyph-name="Ccaron" unicode="&#x10c;" horiz-adv-x="1306" 
d="M1063 1821h102l-237 -258h-203l-156 258h99l166 -189zM614 94q158 0 273.5 64t175.5 176h131q-71 -166 -231 -259t-367 -93q-116 0 -210.5 34t-164 101.5t-107.5 174.5t-38 245q0 144 31.5 278.5t95.5 250t153 202t211.5 135.5t263.5 49q206 0 334.5 -93t147.5 -259h-127
q-26 112 -119.5 175.5t-251.5 63.5q-114 0 -213 -45t-170.5 -122t-123 -178.5t-76.5 -216.5t-25 -234q0 -223 110 -336t297 -113z" />
    <glyph glyph-name="ccaron" unicode="&#x10d;" horiz-adv-x="1050" 
d="M862 1452h103l-238 -258h-203l-155 258h98l166 -188zM457 88q124 0 207 52t139 161h119q-136 -315 -469 -315q-68 0 -130 16.5t-115 51t-92 84.5t-61 122t-22 158q0 178 71.5 327.5t204.5 239.5t301 90q337 0 385 -317h-112q-23 113 -89.5 164t-187.5 51
q-84 0 -158 -31.5t-127.5 -85.5t-92.5 -124.5t-58.5 -150.5t-19.5 -161q0 -164 86.5 -248t220.5 -84z" />
    <glyph glyph-name="Dcaron" unicode="&#x10e;" horiz-adv-x="1290" 
d="M1024 1821h102l-237 -258h-203l-156 258h99l166 -189zM653 1434q288 0 436 -142.5t148 -406.5q0 -262 -93 -460.5t-276.5 -311.5t-435.5 -113h-412l226 1434h407zM430 117q167 0 298 56t215 158.5t127.5 243.5t43.5 314q0 217 -120 322.5t-363 105.5h-279l-186 -1200h264
z" />
    <glyph glyph-name="dcaron" unicode="&#x10f;" horiz-adv-x="1325" 
d="M588 1075q135 0 227.5 -66t122.5 -188l98 613h119l-227 -1434h-119l39 225q-73 -117 -180 -178t-236 -61q-82 0 -153 26.5t-126.5 77.5t-87.5 133.5t-32 186.5q0 179 67.5 329.5t196 243t291.5 92.5zM1159 1130h103l235 304h-154zM453 88q140 0 245.5 78t157 201.5
t51.5 271.5q0 167 -84.5 250.5t-214.5 83.5q-110 0 -198.5 -47.5t-143.5 -127t-84.5 -178.5t-29.5 -206q0 -160 84.5 -243t216.5 -83z" />
    <glyph glyph-name="Dcroat" unicode="&#x110;" horiz-adv-x="1333" 
d="M696 1434q288 0 436 -142.5t148 -406.5q0 -262 -93 -460.5t-276.5 -311.5t-435.5 -113h-412l105 670h-96l14 90h96l107 674h407zM473 117q167 0 298 56t215 158.5t127.5 243.5t43.5 314q0 217 -120 322.5t-363 105.5h-279l-86 -557h459l-14 -90h-459l-86 -553h264z" />
    <glyph glyph-name="dcroat" unicode="&#x111;" horiz-adv-x="1218" 
d="M1323 1321l-14 -82h-185l-196 -1239h-119l39 225q-73 -117 -180 -178t-236 -61q-82 0 -153 26.5t-126.5 77.5t-87.5 133.5t-32 186.5q0 179 67.5 329.5t196 243t291.5 92.5q135 0 227.5 -66t122.5 -188l68 418h-287l14 82h285l18 113h119l-18 -113h186zM453 88
q140 0 245.5 78t157 201.5t51.5 271.5q0 167 -84.5 250.5t-214.5 83.5q-110 0 -198.5 -47.5t-143.5 -127t-84.5 -178.5t-29.5 -206q0 -160 84.5 -243t216.5 -83z" />
    <glyph glyph-name="Emacron" unicode="&#x112;" horiz-adv-x="1101" 
d="M485 1821h594l-12 -82h-594zM1135 1321h-781l-84 -528h678l-18 -105h-676l-92 -575h801l-19 -113h-926l228 1434h905z" />
    <glyph glyph-name="emacron" unicode="&#x113;" horiz-adv-x="1085" 
d="M997 1452l-12 -82h-594l12 82h594zM993 479h-843q-3 -30 -3 -61q0 -171 87 -253.5t235 -82.5q109 0 182 30t140 103h124q-89 -124 -196.5 -176.5t-259.5 -52.5q-191 0 -308.5 111.5t-117.5 320.5q0 180 72.5 330t206 238.5t300.5 88.5q115 0 204.5 -46t143.5 -142.5
t54 -231.5q0 -33 -7 -91t-14 -85zM604 979q-87 0 -162 -32.5t-130 -89.5t-92.5 -130.5t-55.5 -159.5h727q10 41 10 99q0 149 -82.5 231t-214.5 82z" />
    <glyph glyph-name="Edotaccent" unicode="&#x116;" horiz-adv-x="1101" 
d="M709 1821h129l-27 -172h-127zM1135 1321h-781l-84 -528h678l-18 -105h-676l-92 -575h801l-19 -113h-926l228 1434h905z" />
    <glyph glyph-name="edotaccent" unicode="&#x117;" horiz-adv-x="1085" 
d="M756 1452l-27 -172h-127l25 172h129zM993 479h-843q-3 -30 -3 -61q0 -171 87 -253.5t235 -82.5q109 0 182 30t140 103h124q-89 -124 -196.5 -176.5t-259.5 -52.5q-191 0 -308.5 111.5t-117.5 320.5q0 180 72.5 330t206 238.5t300.5 88.5q115 0 204.5 -46t143.5 -142.5
t54 -231.5q0 -33 -7 -91t-14 -85zM604 979q-87 0 -162 -32.5t-130 -89.5t-92.5 -130.5t-55.5 -159.5h727q10 41 10 99q0 149 -82.5 231t-214.5 82z" />
    <glyph glyph-name="Eogonek" unicode="&#x118;" horiz-adv-x="1110" 
d="M1135 1321h-781l-84 -528h678l-18 -105h-676l-92 -575h801l-19 -113h10q-122 -43 -202 -109t-90 -141q-9 -63 38.5 -86t143.5 -6l-4 -68q-45 -18 -99 -20t-102 13t-76.5 57t-19.5 104q9 59 57 112.5t108.5 88t127.5 55.5h-818l228 1434h905z" />
    <glyph glyph-name="eogonek" unicode="&#x119;" horiz-adv-x="1077" 
d="M604 1077q175 0 288.5 -107t113.5 -313q0 -45 -11 -127l-8 -45h-833q-4 -46 -4 -67q0 -165 88.5 -249.5t224.5 -84.5q100 0 177 29.5t144 99.5h125q-76 -108 -170.5 -162t-214.5 -65q-116 -44 -189.5 -107t-86.5 -137q-9 -63 39 -87t145 -5l-6 -68q-45 -18 -99 -20
t-102.5 13t-76 57t-17.5 104q11 80 92 146t185 102q-164 14 -269.5 124.5t-105.5 309.5q0 177 72.5 327.5t204.5 241t294 90.5zM600 975q-162 0 -277 -114.5t-155 -287.5h715q6 47 6 89q0 155 -79.5 234t-209.5 79z" />
    <glyph glyph-name="Ecaron" unicode="&#x11a;" horiz-adv-x="1101" 
d="M965 1821h102l-238 -258h-202l-156 258h98l166 -189zM1135 1321h-781l-84 -528h678l-18 -105h-676l-92 -575h801l-19 -113h-926l228 1434h905z" />
    <glyph glyph-name="ecaron" unicode="&#x11b;" horiz-adv-x="1077" 
d="M725 1176h-201l-157 258h96l170 -189l227 189h103zM604 1077q175 0 288.5 -107t113.5 -313q0 -45 -11 -127l-8 -45h-833q-4 -46 -4 -67q0 -165 88.5 -249.5t224.5 -84.5q100 0 177 29.5t144 99.5h125q-88 -124 -198.5 -177.5t-257.5 -53.5q-86 0 -160.5 26.5t-133 78.5
t-92.5 137t-34 194q0 177 72.5 327.5t204.5 241t294 90.5zM600 975q-162 0 -277 -114.5t-155 -287.5h715q6 47 6 89q0 155 -79.5 234t-209.5 79z" />
    <glyph glyph-name="Gbreve" unicode="&#x11e;" horiz-adv-x="1351" 
d="M1081 1821h84q-15 -107 -93 -176.5t-224 -69.5q-72 0 -124.5 21.5t-79 57.5t-35.5 78t-1 89h84q-5 -76 33.5 -118t130.5 -42q180 0 225 160zM793 717h505l-12 -76q-52 -327 -226 -493t-462 -166q-116 0 -211 34t-165 100.5t-108 172t-38 241.5q0 146 31.5 282t95 252
t152.5 203t211.5 136t264.5 49q206 0 334.5 -93t147.5 -259h-127q-26 112 -119.5 175.5t-251.5 63.5q-116 0 -216 -44.5t-171 -121t-121.5 -178t-75 -216.5t-24.5 -236q0 -223 110 -336t299 -113q227 0 367.5 133t181.5 385h-391z" />
    <glyph glyph-name="gbreve" unicode="&#x11f;" horiz-adv-x="1136" 
d="M918 1452h83q-15 -107 -93 -176.5t-224 -69.5q-72 0 -124.5 21.5t-79 57.5t-35.5 78t-1 89h84q-5 -76 33.5 -118t130.5 -42q181 0 226 160zM1098 1065l-170 -1073q-69 -443 -553 -443q-141 0 -248 54t-145 145l84 47q36 -68 117.5 -104.5t193.5 -36.5q183 0 291.5 81
t140.5 271l37 219q-71 -117 -178 -177t-236 -60q-82 0 -153 26t-126.5 76.5t-87.5 133t-32 186.5q0 132 40 252.5t111 212t176 146t228 54.5q135 0 227.5 -66t122.5 -188l37 244h123zM453 90q85 0 158.5 29.5t127 81.5t92 122t57.5 151t19 167q0 165 -85.5 248.5
t-215.5 83.5q-109 0 -197.5 -48t-143 -127.5t-84 -178t-29.5 -205.5q0 -160 84.5 -242t216.5 -82z" />
    <glyph glyph-name="Gdotaccent" unicode="&#x120;" horiz-adv-x="1351" 
d="M827 1821h129l-26 -172h-127zM793 717h505l-12 -76q-52 -327 -226 -493t-462 -166q-116 0 -211 34t-165 100.5t-108 172t-38 241.5q0 146 31.5 282t95 252t152.5 203t211.5 136t264.5 49q206 0 334.5 -93t147.5 -259h-127q-26 112 -119.5 175.5t-251.5 63.5
q-116 0 -216 -44.5t-171 -121t-121.5 -178t-75 -216.5t-24.5 -236q0 -223 110 -336t299 -113q227 0 367.5 133t181.5 385h-391z" />
    <glyph glyph-name="gdotaccent" unicode="&#x121;" horiz-adv-x="1136" 
d="M664 1452h129l-27 -172h-127zM1098 1065l-170 -1073q-69 -443 -553 -443q-141 0 -248 54t-145 145l84 47q36 -68 117.5 -104.5t193.5 -36.5q183 0 291.5 81t140.5 271l37 219q-71 -117 -178 -177t-236 -60q-82 0 -153 26t-126.5 76.5t-87.5 133t-32 186.5q0 132 40 252.5
t111 212t176 146t228 54.5q135 0 227.5 -66t122.5 -188l37 244h123zM453 90q85 0 158.5 29.5t127 81.5t92 122t57.5 151t19 167q0 165 -85.5 248.5t-215.5 83.5q-109 0 -197.5 -48t-143 -127.5t-84 -178t-29.5 -205.5q0 -160 84.5 -242t216.5 -82z" />
    <glyph glyph-name="Gcommaaccent" unicode="&#x122;" horiz-adv-x="1351" 
d="M793 717h505l-12 -76q-52 -327 -226 -493t-462 -166q-116 0 -211 34t-165 100.5t-108 172t-38 241.5q0 146 31.5 282t95 252t152.5 203t211.5 136t264.5 49q206 0 334.5 -93t147.5 -259h-127q-26 112 -119.5 175.5t-251.5 63.5q-116 0 -216 -44.5t-171 -121t-121.5 -178
t-75 -216.5t-24.5 -236q0 -223 110 -336t299 -113q227 0 367.5 133t181.5 385h-391zM442 -553l9 43q43 25 63.5 63.5t30.5 114.5l8 62h-66l27 168h156l-39 -242q-17 -108 -68 -157t-121 -52z" />
    <glyph glyph-name="gcommaaccent" unicode="&#x123;" horiz-adv-x="1136" 
d="M793 1679l-9 -43q-43 -25 -63.5 -63.5t-30.5 -114.5l-8 -61h66l-27 -168h-156l39 241q17 108 68 157t121 52zM1098 1065l-170 -1073q-69 -443 -553 -443q-141 0 -248 54t-145 145l84 47q36 -68 117.5 -104.5t193.5 -36.5q183 0 291.5 81t140.5 271l37 219
q-71 -117 -178 -177t-236 -60q-82 0 -153 26t-126.5 76.5t-87.5 133t-32 186.5q0 132 40 252.5t111 212t176 146t228 54.5q135 0 227.5 -66t122.5 -188l37 244h123zM453 90q85 0 158.5 29.5t127 81.5t92 122t57.5 151t19 167q0 165 -85.5 248.5t-215.5 83.5
q-109 0 -197.5 -48t-143 -127.5t-84 -178t-29.5 -205.5q0 -160 84.5 -242t216.5 -82z" />
    <glyph glyph-name="Hbar" unicode="&#x126;" horiz-adv-x="1302" 
d="M1188 1434h125l-228 -1434h-124l102 645h-817l-103 -645h-125l228 1434h125l-58 -357h817zM262 752h817l37 229h-817z" />
    <glyph glyph-name="hbar" unicode="&#x127;" horiz-adv-x="1187" 
d="M766 1075q67 0 120.5 -13.5t98.5 -44t70 -80t35 -121.5t-7 -169l-100 -647h-121l103 651q13 74 6 128.5t-24.5 91.5t-52 59t-74.5 31.5t-93 9.5q-80 0 -152 -30.5t-122 -79t-83.5 -97t-50.5 -94.5l-106 -670h-121l184 1178h-143l12 79h144l28 177h121l-28 -177h239
l-12 -79h-240l-57 -365q14 33 48.5 74.5t87 85t130 73t160.5 29.5z" />
    <glyph glyph-name="Imacron" unicode="&#x12a;" horiz-adv-x="362" 
d="M84 1821h594l-12 -82h-594zM145 0h-125l226 1434h125z" />
    <glyph glyph-name="imacron" unicode="&#x12b;" horiz-adv-x="333" 
d="M12 1452h594l-12 -82h-594zM176 1065h121l-168 -1065h-121z" />
    <glyph glyph-name="Iogonek" unicode="&#x12e;" horiz-adv-x="415" 
d="M299 1434h125l-225 -1434h-29q-120 -41 -198.5 -107.5t-88.5 -142.5q-9 -63 38.5 -86t144.5 -6l-7 -68q-45 -18 -99 -20t-102 13t-76 57t-18 104q14 86 106 154t204 102z" />
    <glyph glyph-name="iogonek" unicode="&#x12f;" horiz-adv-x="407" 
d="M301 1452h129l-27 -172h-129zM70 0l168 1065h120l-168 -1065h-22q-120 -41 -198.5 -107.5t-90.5 -142.5q-9 -63 39 -86t145 -6l-6 -68q-45 -18 -99 -20t-102.5 13t-76 57t-17.5 104q8 59 59.5 113t115 88t133.5 55z" />
    <glyph glyph-name="Idotaccent" unicode="&#x130;" horiz-adv-x="362" 
d="M307 1821h129l-26 -172h-127zM145 0h-125l226 1434h125z" />
    <glyph glyph-name="dotlessi" unicode="&#x131;" horiz-adv-x="333" 
d="M176 1065h121l-168 -1065h-121z" />
    <glyph glyph-name="IJ" unicode="&#x132;" horiz-adv-x="1370" 
d="M145 0h-125l226 1434h125zM416 242q88 -142 301 -142q67 0 125.5 20t112.5 63.5t93 123.5t56 189l149 938h125l-149 -942q-22 -137 -73.5 -238t-124 -158t-154.5 -83.5t-177 -26.5q-134 0 -227.5 47.5t-142.5 132.5z" />
    <glyph glyph-name="Kcommaaccent" unicode="&#x136;" horiz-adv-x="1261" 
d="M1298 1434l-723 -670l551 -764h-145l-496 682l-274 -254l-68 -428h-125l228 1434h125l-131 -826l903 826h155zM410 -295l24 158h164l-37 -236q-19 -108 -68.5 -153t-123.5 -52l4 46q38 25 53.5 62t30.5 118l10 57h-57z" />
    <glyph glyph-name="kcommaaccent" unicode="&#x137;" horiz-adv-x="1056" 
d="M1038 1065l-553 -487l449 -578h-135l-398 502l-221 -195l-49 -307h-121l226 1434h120l-153 -975l684 606h151zM324 -270l26 168h156l-39 -242q-32 -201 -188 -209l8 43q43 25 63.5 63.5t30.5 114.5l8 62h-65z" />
    <glyph glyph-name="Lacute" unicode="&#x139;" horiz-adv-x="1099" 
d="M270 1559h101l260 262h-168zM164 113h756l-19 -113h-883l228 1434h125z" />
    <glyph glyph-name="lacute" unicode="&#x13a;" horiz-adv-x="364" 
d="M264 1559h103l258 262h-168zM233 1434h121l-225 -1434h-121z" />
    <glyph glyph-name="Lcommaaccent" unicode="&#x13b;" horiz-adv-x="1099" 
d="M164 113h756l-19 -113h-883l228 1434h125zM307 -553l8 43q43 25 64 63.5t31 114.5l8 62h-66l27 168h156l-39 -242q-17 -108 -68 -157t-121 -52z" />
    <glyph glyph-name="lcommaaccent" unicode="&#x13c;" horiz-adv-x="380" 
d="M258 1434h121l-225 -1434h-121zM-78 -578l4 46q37 25 53.5 62.5t30.5 117.5l10 57h-57l25 158h162l-35 -236q-19 -107 -69.5 -152.5t-123.5 -52.5z" />
    <glyph glyph-name="Lcaron" unicode="&#x13d;" horiz-adv-x="1099" 
d="M164 113h756l-19 -113h-883l228 1434h125zM559 993l2 47q40 24 57.5 62.5t28.5 116.5l8 57h-55l25 158h163l-38 -236q-19 -108 -67.5 -152t-123.5 -53z" />
    <glyph glyph-name="lcaron" unicode="&#x13e;" horiz-adv-x="561" 
d="M236 1434h120l-225 -1434h-121zM406 993l4 47q36 24 53 61.5t31 117.5l10 57h-58l25 158h162l-35 -236q-19 -107 -68 -151.5t-124 -53.5z" />
    <glyph glyph-name="Lslash" unicode="&#x141;" horiz-adv-x="1177" 
d="M242 113h755l-18 -113h-883l84 524l-174 -159l19 131l176 161l123 777h125l-101 -639l289 266h4l-20 -127l-293 -270z" />
    <glyph glyph-name="lslash" unicode="&#x142;" horiz-adv-x="616" 
d="M651 1073l-22 -143l-256 -234l-111 -696h-121l90 569l-225 -202l23 143l225 203l113 721h120l-92 -594z" />
    <glyph glyph-name="Nacute" unicode="&#x143;" horiz-adv-x="1327" 
d="M776 1559h101l260 262h-168zM1337 1434l-227 -1434h-141l-623 1245h-4l-199 -1245h-125l228 1434h139l625 -1248h4l198 1248h125z" />
    <glyph glyph-name="nacute" unicode="&#x144;" horiz-adv-x="1095" 
d="M600 1190h100l261 262h-168zM672 1075q67 0 120.5 -14t98.5 -45t70.5 -81t35 -122.5t-7.5 -169.5l-100 -643h-121l102 647q12 93 3 155t-44 100t-82.5 53.5t-113.5 15.5q-80 0 -152 -31.5t-122 -80.5t-83.5 -98t-50.5 -95l-106 -666h-121l168 1065h121l-41 -254
q14 33 48.5 74t87 85.5t130 74.5t160.5 30z" />
    <glyph glyph-name="Ncommaaccent" unicode="&#x145;" horiz-adv-x="1327" 
d="M1337 1434l-227 -1434h-141l-623 1245h-4l-199 -1245h-125l228 1434h139l625 -1248h4l198 1248h125zM426 -553l8 43q43 25 63.5 63.5t30.5 114.5l9 62h-66l27 168h155l-39 -242q-32 -201 -188 -209z" />
    <glyph glyph-name="ncommaaccent" unicode="&#x146;" horiz-adv-x="1095" 
d="M672 1075q67 0 120.5 -14t98.5 -45t70.5 -81t35 -122.5t-7.5 -169.5l-100 -643h-121l102 647q12 93 3 155t-44 100t-82.5 53.5t-113.5 15.5q-80 0 -152 -31.5t-122 -80.5t-83.5 -98t-50.5 -95l-106 -666h-121l168 1065h121l-41 -254q14 33 48.5 74t87 85.5t130 74.5
t160.5 30zM309 -553l8 43q43 25 64 63.5t31 114.5l8 62h-66l27 168h156l-39 -242q-17 -108 -68 -157t-121 -52z" />
    <glyph glyph-name="Ncaron" unicode="&#x147;" horiz-adv-x="1327" 
d="M1067 1821h102l-237 -258h-203l-156 258h99l166 -189zM1337 1434l-227 -1434h-141l-623 1245h-4l-199 -1245h-125l228 1434h139l625 -1248h4l198 1248h125z" />
    <glyph glyph-name="ncaron" unicode="&#x148;" horiz-adv-x="1095" 
d="M891 1452h102l-237 -258h-203l-156 258h99l166 -188zM672 1075q67 0 120.5 -14t98.5 -45t70.5 -81t35 -122.5t-7.5 -169.5l-100 -643h-121l102 647q12 93 3 155t-44 100t-82.5 53.5t-113.5 15.5q-80 0 -152 -31.5t-122 -80.5t-83.5 -98t-50.5 -95l-106 -666h-121
l168 1065h121l-41 -254q14 33 48.5 74t87 85.5t130 74.5t160.5 30z" />
    <glyph glyph-name="Eng" unicode="&#x14a;" horiz-adv-x="1327" 
d="M1212 1434h125l-219 -1379q-22 -137 -73.5 -238t-123.5 -158t-154 -83.5t-177 -26.5q-134 0 -228 48t-143 133l86 75q87 -141 301 -141q61 0 115 16.5t104 52.5t90 99.5t64 151.5l-633 1261h-4l-199 -1245h-125l228 1434h139l625 -1248h2l131 811z" />
    <glyph glyph-name="eng" unicode="&#x14b;" horiz-adv-x="1095" 
d="M672 1079q67 0 120.5 -14t98.5 -45t70.5 -81t35 -122.5t-7.5 -169.5l-129 -823q-24 -148 -93.5 -211.5t-180.5 -63.5q-105 0 -183 56l21 100q70 -45 151 -45q68 0 110.5 46.5t55.5 135.5l129 809q12 93 3 155t-44 100t-82.5 53.5t-113.5 15.5q-80 0 -152 -31.5
t-122 -80.5t-83.5 -98t-50.5 -95l-106 -670h-121l168 1065h121l-41 -252q14 33 48.5 75t87 86.5t130 74.5t160.5 30z" />
    <glyph glyph-name="Omacron" unicode="&#x14c;" horiz-adv-x="1431" 
d="M641 1821h594l-12 -82h-594zM842 1452q244 0 388 -142.5t144 -406.5q0 -123 -23.5 -239t-67.5 -218.5t-111 -187.5t-151 -146.5t-190 -95.5t-225 -34q-244 0 -388 141.5t-144 404.5q0 148 32.5 285t98 253t156.5 202.5t214.5 135t266.5 48.5zM621 96q147 0 267.5 67.5
t196.5 180.5t117 254.5t41 296.5q0 218 -111 330t-307 112q-99 0 -186.5 -31t-155 -86.5t-120.5 -130.5t-87.5 -164.5t-52.5 -188t-18 -201.5q0 -215 110.5 -327t305.5 -112z" />
    <glyph glyph-name="omacron" unicode="&#x14d;" horiz-adv-x="1099" 
d="M389 1452h594l-12 -82h-594zM610 1075q66 0 126.5 -17t113.5 -52.5t92 -86.5t61.5 -123.5t22.5 -158.5q0 -129 -43 -248t-118 -208t-183 -142t-231 -53q-83 0 -157 27t-133 79.5t-93.5 137t-34.5 190.5q0 129 43.5 249t118.5 209.5t183.5 143t231.5 53.5zM909 639
q0 163 -87.5 248.5t-217.5 85.5q-133 0 -238 -78.5t-159.5 -203.5t-54.5 -269q0 -82 24.5 -147.5t67 -105.5t96.5 -60.5t115 -20.5q101 0 188 46.5t144.5 123t89.5 176t32 205.5z" />
    <glyph glyph-name="Ohungarumlaut" unicode="&#x150;" horiz-adv-x="1431" 
d="M606 1559h105l219 262h-172zM915 1559h105l219 262h-172zM842 1452q244 0 388 -142.5t144 -406.5q0 -123 -23.5 -239t-67.5 -218.5t-111 -187.5t-151 -146.5t-190 -95.5t-225 -34q-244 0 -388 141.5t-144 404.5q0 148 32.5 285t98 253t156.5 202.5t214.5 135t266.5 48.5z
M621 96q147 0 267.5 67.5t196.5 180.5t117 254.5t41 296.5q0 218 -111 330t-307 112q-99 0 -186.5 -31t-155 -86.5t-120.5 -130.5t-87.5 -164.5t-52.5 -188t-18 -201.5q0 -215 110.5 -327t305.5 -112z" />
    <glyph glyph-name="ohungarumlaut" unicode="&#x151;" horiz-adv-x="1099" 
d="M354 1190h105l219 262h-172zM664 1190h104l219 262h-172zM610 1075q66 0 126.5 -17t113.5 -52.5t92 -86.5t61.5 -123.5t22.5 -158.5q0 -129 -43 -248t-118 -208t-183 -142t-231 -53q-83 0 -157 27t-133 79.5t-93.5 137t-34.5 190.5q0 129 43.5 249t118.5 209.5t183.5 143
t231.5 53.5zM909 639q0 163 -87.5 248.5t-217.5 85.5q-133 0 -238 -78.5t-159.5 -203.5t-54.5 -269q0 -82 24.5 -147.5t67 -105.5t96.5 -60.5t115 -20.5q101 0 188 46.5t144.5 123t89.5 176t32 205.5z" />
    <glyph glyph-name="OE" unicode="&#x152;" horiz-adv-x="2205" 
d="M2238 1321h-780l-84 -528h678l-18 -105h-676l-92 -575h800l-18 -113h-926l39 244q-102 -124 -242.5 -193t-312.5 -69q-244 0 -388 141.5t-144 404.5q0 148 32.5 285t98 253t156.5 202.5t214.5 135t266.5 48.5q163 0 285 -65.5t186 -190.5l37 238h905zM621 96
q147 0 267.5 67.5t196.5 180.5t117 254.5t41 296.5q0 218 -111 330t-307 112q-99 0 -186.5 -31t-155 -86.5t-120.5 -130.5t-87.5 -164.5t-52.5 -188t-18 -201.5q0 -215 110.5 -327t305.5 -112z" />
    <glyph glyph-name="oe" unicode="&#x153;" horiz-adv-x="1941" 
d="M1010 479q-4 -12 -4 -20q-2 -12 -2 -41q0 -171 86.5 -253.5t234.5 -82.5q109 0 182 30t140 103h125q-89 -124 -197 -176.5t-260 -52.5q-146 0 -252.5 67t-149.5 195q-77 -122 -197.5 -192t-264.5 -70q-83 0 -157 27t-133 79.5t-93.5 137t-34.5 190.5q0 129 43.5 249
t118.5 209.5t183.5 143t231.5 53.5q132 0 237.5 -67.5t149.5 -194.5q79 122 201 192t270 70q115 0 204.5 -46t143.5 -142.5t54 -231.5q0 -33 -7 -91t-14 -85h-839zM1460 979q-165 0 -279.5 -108.5t-156.5 -278.5q0 -17 -2 -25h725q10 41 10 99q0 149 -82.5 231t-214.5 82z
M455 88q164 0 280 112.5t156 284.5q8 74 16 105q2 16 2 49q0 163 -87.5 248.5t-217.5 85.5q-133 0 -238 -78.5t-159.5 -203.5t-54.5 -269q0 -82 24.5 -147.5t67 -105.5t96.5 -60.5t115 -20.5z" />
    <glyph glyph-name="Racute" unicode="&#x154;" horiz-adv-x="1249" 
d="M1094 1821l-260 -262h-101l193 262h168zM901 668q197 -45 197 -228q0 -35 -20.5 -174t-20.5 -180q0 -62 18 -86h-127q-18 24 -18 86q0 41 19.5 169.5t19.5 170.5q0 180 -240 180h-489l-97 -606h-125l228 1434h545q209 0 313 -83.5t104 -238.5q0 -157 -85 -277t-222 -167z
M709 711q166 0 268 112t102 269q0 229 -307 229h-418l-98 -610h453z" />
    <glyph glyph-name="racute" unicode="&#x155;" horiz-adv-x="729" 
d="M745 1452l-260 -262h-100l193 262h167zM242 786q40 119 158 204t270 85q25 0 75 -4l-18 -106q-23 2 -65 2q-162 -1 -275.5 -92t-169.5 -246l-98 -629h-121l168 1065h121z" />
    <glyph glyph-name="Rcommaaccent" unicode="&#x156;" horiz-adv-x="1249" 
d="M901 668q197 -45 197 -228q0 -35 -20.5 -174t-20.5 -180q0 -62 18 -86h-127q-18 24 -18 86q0 41 19.5 169.5t19.5 170.5q0 180 -240 180h-489l-97 -606h-125l228 1434h545q209 0 313 -83.5t104 -238.5q0 -157 -85 -277t-222 -167zM709 711q166 0 268 112t102 269
q0 229 -307 229h-418l-98 -610h453zM428 -270l27 168h155l-39 -242q-32 -201 -188 -209l8 43q43 25 63.5 63.5t30.5 114.5l9 62h-66z" />
    <glyph glyph-name="rcommaaccent" unicode="&#x157;" horiz-adv-x="729" 
d="M670 1075q25 0 75 -4l-18 -106q-23 2 -65 2q-162 -1 -275.5 -92t-169.5 -246l-98 -629h-121l168 1065h121l-45 -279q40 119 158 204t270 85zM-57 -270l26 168h156l-39 -242q-32 -201 -188 -209l8 43q43 25 63.5 63.5t30.5 114.5l8 62h-65z" />
    <glyph glyph-name="Rcaron" unicode="&#x158;" horiz-adv-x="1249" 
d="M889 1563h-203l-156 258h99l166 -189l229 189h102zM901 668q197 -45 197 -228q0 -35 -20.5 -174t-20.5 -180q0 -62 18 -86h-127q-18 24 -18 86q0 41 19.5 169.5t19.5 170.5q0 180 -240 180h-489l-97 -606h-125l228 1434h545q209 0 313 -83.5t104 -238.5q0 -157 -85 -277
t-222 -167zM709 711q166 0 268 112t102 269q0 229 -307 229h-418l-98 -610h453z" />
    <glyph glyph-name="rcaron" unicode="&#x159;" horiz-adv-x="729" 
d="M541 1194h-203l-156 258h99l165 -188l230 188h102zM242 786q40 119 158 204t270 85q25 0 75 -4l-18 -106q-23 2 -65 2q-162 -1 -275.5 -92t-169.5 -246l-98 -629h-121l168 1065h121z" />
    <glyph glyph-name="Sacute" unicode="&#x15a;" horiz-adv-x="1210" 
d="M700 1559h101l260 262h-168zM731 774q183 -39 274 -117t91 -227q0 -207 -160.5 -327.5t-415.5 -120.5q-244 0 -360.5 115.5t-108.5 301.5h129q1 -65 17.5 -117t54 -96.5t108.5 -69t172 -24.5q193 0 312 88.5t119 239.5q0 58 -19.5 101.5t-57.5 71t-79.5 44t-99.5 29.5
l-207 47q-316 70 -316 321q0 186 138 302t393 116q218 0 330 -98.5t110 -263.5h-127q-2 53 -20 96.5t-55 79.5t-101.5 56.5t-151.5 20.5q-187 0 -286 -83t-99 -211q0 -95 54.5 -151.5t175.5 -82.5z" />
    <glyph glyph-name="sacute" unicode="&#x15b;" horiz-adv-x="966" 
d="M532 1190h101l260 262h-168zM797 807q-17 91 -83.5 131.5t-181.5 40.5q-140 0 -220.5 -60.5t-80.5 -150.5q0 -65 41 -104t136 -62l159 -39q59 -15 96.5 -26.5t76.5 -30.5t60.5 -41.5t35.5 -56.5t14 -78q0 -89 -39 -157.5t-106 -108t-146 -59t-168 -19.5q-180 0 -286.5 79
t-100.5 236h113q1 -61 23 -105t62 -68t87.5 -35t105.5 -11q90 0 163.5 23.5t122 79t48.5 134.5q0 67 -44.5 99t-139.5 55l-187 47q-121 30 -184 89.5t-63 156.5q0 139 121.5 224t306.5 85q162 0 259 -68.5t109 -199.5h-110z" />
    <glyph glyph-name="Scedilla" unicode="&#x15e;" horiz-adv-x="1210" 
d="M700 1343q-187 0 -286 -83t-99 -211q0 -95 54.5 -151.5t175.5 -82.5l186 -41q183 -39 274 -117t91 -227q0 -194 -143.5 -313t-377.5 -133l-83 -93q72 11 130 -29t58 -116q0 -182 -287 -182v61q187 6 187 117q0 59 -49 80t-113 -10l-33 49l80 123q-216 13 -319 126.5
t-95 288.5h129q1 -65 17.5 -117t54 -96.5t108.5 -69t172 -24.5q193 0 312 88.5t119 239.5q0 58 -19.5 101.5t-57.5 71t-79.5 44t-99.5 29.5l-207 47q-316 70 -316 321q0 186 138 302t393 116q218 0 330 -98.5t110 -263.5h-127q-2 53 -20 96.5t-55 79.5t-101.5 56.5
t-151.5 20.5z" />
    <glyph glyph-name="scedilla" unicode="&#x15f;" horiz-adv-x="966" 
d="M567 563q59 -15 96.5 -26.5t76.5 -30.5t60.5 -41.5t35.5 -56.5t14 -78q0 -81 -32.5 -145.5t-89.5 -104.5t-126 -63t-149 -29l-91 -97q72 11 130.5 -29t58.5 -116q0 -182 -287 -182v61q187 6 187 117q0 59 -48.5 80t-113.5 -10l-33 49l82 127q-158 11 -249 89t-85 224h113
q1 -61 23 -105t62 -68t87.5 -35t105.5 -11q90 0 163.5 23.5t122 79t48.5 134.5q0 67 -44.5 99t-139.5 55l-187 47q-121 30 -184 89.5t-63 156.5q0 139 121.5 224t306.5 85q162 0 259 -68.5t109 -199.5h-110q-17 91 -83.5 131.5t-181.5 40.5q-140 0 -220.5 -60.5
t-80.5 -150.5q0 -65 41 -104t136 -62z" />
    <glyph glyph-name="Scaron" unicode="&#x160;" horiz-adv-x="1210" 
d="M991 1821h103l-238 -258h-203l-155 258h98l166 -189zM731 774q183 -39 274 -117t91 -227q0 -207 -160.5 -327.5t-415.5 -120.5q-244 0 -360.5 115.5t-108.5 301.5h129q1 -65 17.5 -117t54 -96.5t108.5 -69t172 -24.5q193 0 312 88.5t119 239.5q0 58 -19.5 101.5t-57.5 71
t-79.5 44t-99.5 29.5l-207 47q-316 70 -316 321q0 186 138 302t393 116q218 0 330 -98.5t110 -263.5h-127q-2 53 -20 96.5t-55 79.5t-101.5 56.5t-151.5 20.5q-187 0 -286 -83t-99 -211q0 -95 54.5 -151.5t175.5 -82.5z" />
    <glyph glyph-name="scaron" unicode="&#x161;" horiz-adv-x="966" 
d="M823 1452h103l-238 -258h-203l-155 258h98l166 -188zM797 807q-17 91 -83.5 131.5t-181.5 40.5q-140 0 -220.5 -60.5t-80.5 -150.5q0 -65 41 -104t136 -62l159 -39q59 -15 96.5 -26.5t76.5 -30.5t60.5 -41.5t35.5 -56.5t14 -78q0 -89 -39 -157.5t-106 -108t-146 -59
t-168 -19.5q-180 0 -286.5 79t-100.5 236h113q1 -61 23 -105t62 -68t87.5 -35t105.5 -11q90 0 163.5 23.5t122 79t48.5 134.5q0 67 -44.5 99t-139.5 55l-187 47q-121 30 -184 89.5t-63 156.5q0 139 121.5 224t306.5 85q162 0 259 -68.5t109 -199.5h-110z" />
    <glyph glyph-name="uni0162" unicode="&#x162;" horiz-adv-x="1167" 
d="M184 1434h1053l-16 -113h-463l-211 -1321h10l-121 -111q72 8 122.5 -34.5t37.5 -116.5q-26 -176 -311 -176l6 61q94 3 147 36t62 89q10 56 -35.5 73t-114.5 -14l-31 52l111 141h-10l211 1321h-463z" />
    <glyph glyph-name="uni0163" unicode="&#x163;" horiz-adv-x="614" 
d="M377 965l-127 -799q-6 -42 11.5 -59t62.5 -17q69 0 141 16l-16 -100q-52 -15 -113 -18l-88 -97q72 11 130 -29t58 -116q0 -182 -286 -182v61q186 6 186 117q0 59 -49 80t-113 -10l-33 49l86 131q-120 27 -96 176l127 797h-168l14 100h168l43 266h119l-43 -266h217
l-14 -100h-217z" />
    <glyph glyph-name="Tcaron" unicode="&#x164;" horiz-adv-x="1167" 
d="M961 1821h102l-238 -258h-202l-156 258h98l166 -189zM1237 1434l-16 -113h-463l-211 -1321h-127l211 1321h-463l16 113h1053z" />
    <glyph glyph-name="tcaron" unicode="&#x165;" horiz-adv-x="583" 
d="M831 1434l-251 -304h-99l195 304h155zM434 1331l-43 -266h217l-14 -100h-217l-127 -799q-6 -42 11.5 -59t62.5 -17q69 0 141 16l-16 -100q-67 -20 -156 -20q-90 0 -134 41t-28 141l127 797h-168l14 100h168l43 266h119z" />
    <glyph glyph-name="Tbar" unicode="&#x166;" horiz-adv-x="1167" 
d="M1221 1321h-463l-41 -262h231l-12 -80h-234l-155 -979h-127l155 979h-231l12 80h234l41 262h-463l16 113h1053z" />
    <glyph glyph-name="tbar" unicode="&#x167;" horiz-adv-x="614" 
d="M594 965h-217l-27 -166h217l-16 -101h-217l-84 -532q-6 -42 11.5 -59t62.5 -17q69 0 141 16l-16 -100q-67 -20 -156 -20q-90 0 -134 41t-28 141l84 530h-166l14 101h168l27 166h-168l14 100h168l43 266h119l-43 -266h217z" />
    <glyph glyph-name="Utilde" unicode="&#x168;" horiz-adv-x="1314" 
d="M1079 1802h66q0 -87 -55 -136.5t-136 -49.5q-39 0 -74.5 15t-62.5 36t-52.5 42.5t-56.5 36.5t-63 15q-58 0 -87.5 -30t-27.5 -66h-65q0 88 55 137t135 49q39 0 74.5 -14.5t62.5 -35.5t53 -42.5t57 -36t63 -14.5q58 0 87 29t27 65zM1323 1434l-139 -887
q-41 -261 -209 -410t-418 -149t-371 149t-80 410l140 887h125l-138 -881q-35 -215 53 -334t287 -119q196 0 324 119.5t162 333.5l139 881h125z" />
    <glyph glyph-name="utilde" unicode="&#x169;" horiz-adv-x="1095" 
d="M444 1393q-58 0 -87 -30.5t-27 -66.5h-66q0 88 55.5 137.5t135.5 49.5q47 0 91 -22.5t72.5 -49.5t67.5 -49.5t78 -22.5q58 0 87.5 29.5t27.5 65.5h65q0 -87 -55 -137t-135 -50q-39 0 -74.5 15t-62.5 36.5t-53 43t-57 36.5t-63 15zM936 1065h121l-168 -1065h-121l59 373
l-20 -121q-15 -34 -49 -75t-86.5 -85.5t-129 -74t-159.5 -29.5q-84 0 -148 22t-112 72.5t-62 132.5t2 203l103 647h121l-103 -649q-51 -320 230 -320q81 0 155 31t125 79.5t85.5 98.5t51.5 96z" />
    <glyph glyph-name="Umacron" unicode="&#x16a;" horiz-adv-x="1314" 
d="M584 1821h594l-13 -82h-594zM1323 1434l-139 -887q-41 -261 -209 -410t-418 -149t-371 149t-80 410l140 887h125l-138 -881q-35 -215 53 -334t287 -119q196 0 324 119.5t162 333.5l139 881h125z" />
    <glyph glyph-name="umacron" unicode="&#x16b;" horiz-adv-x="1095" 
d="M977 1452l-12 -82h-594l12 82h594zM936 1065h121l-168 -1065h-121l59 373l-20 -121q-15 -34 -49 -75t-86.5 -85.5t-129 -74t-159.5 -29.5q-84 0 -148 22t-112 72.5t-62 132.5t2 203l103 647h121l-103 -649q-51 -320 230 -320q81 0 155 31t125 79.5t85.5 98.5t51.5 96z
" />
    <glyph glyph-name="Ubreve" unicode="&#x16c;" horiz-adv-x="1314" 
d="M1061 1821h84q-15 -107 -93 -176.5t-225 -69.5q-72 0 -124.5 21.5t-78.5 57.5t-35 78t-1 89h84q-5 -76 33.5 -118t130.5 -42q180 0 225 160zM1323 1434l-139 -887q-41 -261 -209 -410t-418 -149t-371 149t-80 410l140 887h125l-138 -881q-35 -215 53 -334t287 -119
q196 0 324 119.5t162 333.5l139 881h125z" />
    <glyph glyph-name="ubreve" unicode="&#x16d;" horiz-adv-x="1095" 
d="M627 1206q-72 0 -124.5 21.5t-79 57.5t-35.5 78t-1 89h84q-5 -76 33.5 -118t130.5 -42q180 0 225 160h84q-15 -107 -93 -176.5t-224 -69.5zM936 1065h121l-168 -1065h-121l59 373l-20 -121q-15 -34 -49 -75t-86.5 -85.5t-129 -74t-159.5 -29.5q-84 0 -148 22t-112 72.5
t-62 132.5t2 203l103 647h121l-103 -649q-51 -320 230 -320q81 0 155 31t125 79.5t85.5 98.5t51.5 96z" />
    <glyph glyph-name="Uring" unicode="&#x16e;" horiz-adv-x="1314" 
d="M836 1559q-66 0 -109 42t-43 103q0 76 55.5 131t134.5 55q64 0 106 -42.5t42 -104.5q0 -74 -55.5 -129t-130.5 -55zM842 1626q43 0 76.5 33t33.5 78q0 36 -25 61t-61 25q-46 0 -79 -33.5t-33 -77.5q0 -36 25 -61t63 -25zM1323 1434l-139 -887q-41 -261 -209 -410
t-418 -149t-371 149t-80 410l140 887h125l-138 -881q-35 -215 53 -334t287 -119q196 0 324 119.5t162 333.5l139 881h125z" />
    <glyph glyph-name="uring" unicode="&#x16f;" horiz-adv-x="1095" 
d="M635 1190q-66 0 -109 42t-43 103q0 76 56 131.5t135 55.5q64 0 105.5 -43t41.5 -105q0 -74 -55.5 -129t-130.5 -55zM666 1454q-46 0 -79.5 -33.5t-33.5 -77.5q0 -36 25 -61t63 -25q43 0 77 33t34 78q0 36 -25 61t-61 25zM936 1065h121l-168 -1065h-121l59 373l-20 -121
q-15 -34 -49 -75t-86.5 -85.5t-129 -74t-159.5 -29.5q-84 0 -148 22t-112 72.5t-62 132.5t2 203l103 647h121l-103 -649q-51 -320 230 -320q81 0 155 31t125 79.5t85.5 98.5t51.5 96z" />
    <glyph glyph-name="Uhungarumlaut" unicode="&#x170;" horiz-adv-x="1314" 
d="M549 1559h104l219 262h-172zM858 1559h105l219 262h-172zM1323 1434l-139 -887q-41 -261 -209 -410t-418 -149t-371 149t-80 410l140 887h125l-138 -881q-35 -215 53 -334t287 -119q196 0 324 119.5t162 333.5l139 881h125z" />
    <glyph glyph-name="uhungarumlaut" unicode="&#x171;" horiz-adv-x="1095" 
d="M672 1452l-219 -262h-105l152 262h172zM762 1190h-105l152 262h172zM936 1065h121l-168 -1065h-121l59 373l-20 -121q-15 -34 -49 -75t-86.5 -85.5t-129 -74t-159.5 -29.5q-84 0 -148 22t-112 72.5t-62 132.5t2 203l103 647h121l-103 -649q-51 -320 230 -320q81 0 155 31
t125 79.5t85.5 98.5t51.5 96z" />
    <glyph glyph-name="Uogonek" unicode="&#x172;" horiz-adv-x="1314" 
d="M1198 1434h125l-139 -887q-35 -225 -166.5 -368t-331.5 -179l29 -2q-121 -41 -199 -106.5t-90 -141.5q-9 -63 39 -86t145 -6l-6 -68q-45 -18 -99 -20t-102.5 13t-77 57t-18.5 104q13 79 89.5 142.5t178.5 101.5h-18q-250 0 -371 149t-80 410l140 887h125l-138 -881
q-35 -215 53 -334t287 -119q196 0 324 119.5t162 333.5z" />
    <glyph glyph-name="uogonek" unicode="&#x173;" horiz-adv-x="1095" 
d="M807 252q-15 -34 -49 -75t-86.5 -84.5t-129 -73t-159.5 -29.5q-67 0 -121 13.5t-99.5 44.5t-71 80.5t-35.5 121.5t7 168l103 647h121l-103 -649q-50 -318 230 -318q81 0 154.5 31t124.5 79.5t85 97.5t51 95zM1057 1065l-168 -1065h-76l49 -2q-121 -41 -199 -106.5
t-88 -141.5q-9 -63 38.5 -86t144.5 -6l-6 -68q-45 -18 -99 -20t-102 13t-76 57t-18 104q8 59 59.5 113.5t115 89t132.5 55.5h4l168 1063h121z" />
    <glyph glyph-name="Wcircumflex" unicode="&#x174;" horiz-adv-x="2027" 
d="M1333 1563l-166 188l-229 -188h-102l235 258h203l158 -258h-99zM1956 1434h133l-643 -1434h-121l-213 1262l-614 -1262h-121l-193 1434h131l154 -1250l598 1250h137l199 -1250z" />
    <glyph glyph-name="wcircumflex" unicode="&#x175;" horiz-adv-x="1599" 
d="M1081 1194l-166 188l-229 -188h-102l235 258h203l158 -258h-99zM1632 1065l-487 -1065h-123l-182 913l-473 -913h-121l-152 1065h121l123 -918l469 918h104l181 -918l415 918h125z" />
    <glyph glyph-name="Ycircumflex" unicode="&#x176;" horiz-adv-x="1304" 
d="M997 1563l-166 188l-229 -188h-102l235 258h203l158 -258h-99zM709 571l-93 -571h-127l93 571l-398 863h140l333 -740l564 740h145z" />
    <glyph glyph-name="ycircumflex" unicode="&#x177;" horiz-adv-x="1030" 
d="M797 1194l-166 188l-230 -188h-102l236 258h202l158 -258h-98zM936 1065h127l-653 -1174q-91 -163 -197 -226.5t-242 -43.5l19 105q194 -28 315 190q27 51 35 75t4 46l-250 1028h121l213 -934z" />
    <glyph glyph-name="Ydieresis" unicode="&#x178;" horiz-adv-x="1304" 
d="M584 1821h129l-27 -172h-127zM1008 1821h129l-27 -172h-129zM709 571l-93 -571h-127l93 571l-398 863h140l333 -740l564 740h145z" />
    <glyph glyph-name="Zacute" unicode="&#x179;" horiz-adv-x="1220" 
d="M707 1559h100l260 262h-168zM1071 113l-18 -113h-1076l17 109l1110 1212h-889l16 113h1041l-19 -109l-1108 -1212h926z" />
    <glyph glyph-name="zacute" unicode="&#x17a;" horiz-adv-x="995" 
d="M520 1190h101l260 262h-168zM127 104h707l-17 -104h-848l15 104l843 857h-686l17 104h827l-14 -104z" />
    <glyph glyph-name="Zdotaccent" unicode="&#x17b;" horiz-adv-x="1220" 
d="M741 1821h129l-26 -172h-127zM1071 113l-18 -113h-1076l17 109l1110 1212h-889l16 113h1041l-19 -109l-1108 -1212h926z" />
    <glyph glyph-name="zdotaccent" unicode="&#x17c;" horiz-adv-x="995" 
d="M555 1452h129l-27 -172h-127zM127 104h707l-17 -104h-848l15 104l843 857h-686l17 104h827l-14 -104z" />
    <glyph glyph-name="Zcaron" unicode="&#x17d;" horiz-adv-x="1220" 
d="M997 1821h103l-238 -258h-203l-155 258h98l166 -189zM1071 113l-18 -113h-1076l17 109l1110 1212h-889l16 113h1041l-19 -109l-1108 -1212h926z" />
    <glyph glyph-name="zcaron" unicode="&#x17e;" horiz-adv-x="995" 
d="M811 1452h102l-237 -258h-203l-156 258h99l166 -188zM127 104h707l-17 -104h-848l15 104l843 857h-686l17 104h827l-14 -104z" />
    <glyph glyph-name="florin" unicode="&#x192;" horiz-adv-x="595" 
d="M633 1337q-94 0 -150 -50.5t-77 -174.5l-37 -233h188l-16 -107h-189l-133 -844q-16 -94 -50 -159t-84 -99t-105 -47.5t-123 -11.5l14 106q90 0 150.5 54.5t78.5 173.5l131 827h-170l19 107h170l39 249q14 93 45.5 157t79.5 99t104.5 49.5t130.5 12.5z" />
    <glyph glyph-name="uni01CD" unicode="&#x1cd;" horiz-adv-x="1361" 
d="M930 1563h-203l-156 258h99l166 -189l229 189h102zM1079 0l-92 397h-674l-217 -397h-139l799 1434h112l349 -1434h-138zM369 498h596l-177 766z" />
    <glyph glyph-name="uni01CE" unicode="&#x1ce;" horiz-adv-x="1110" 
d="M731 1194h-203l-155 258h98l166 -188l229 188h103zM967 692l-86 -540q-6 -42 11.5 -57.5t65.5 -12.5l-14 -82q-27 -8 -57 -8q-73 0 -103.5 36t-15.5 117l14 80q-19 -31 -53 -67t-89 -77t-137 -68t-173 -27q-142 0 -226 71.5t-84 198.5q0 82 29.5 143t87 100t129.5 62
t170 37q6 1 48.5 7t56.5 8t54 8t59.5 10t53 10t54 11.5t43.5 12t39 13.5l4 20q26 153 -31.5 217t-212.5 64q-135 0 -207.5 -44.5t-103.5 -129.5h-117q43 140 148.5 205t287.5 65q210 0 298.5 -91.5t56.5 -291.5zM788 340l43 256q-15 -6 -35 -12t-48.5 -12.5t-52 -11.5
t-64 -12t-63 -11t-71 -12t-67.5 -11q-150 -24 -219.5 -80t-69.5 -168q0 -88 57.5 -138t157.5 -50q87 0 166.5 30.5t132.5 76t85.5 85t47.5 70.5z" />
    <glyph glyph-name="uni01CF" unicode="&#x1cf;" horiz-adv-x="362" 
d="M563 1821h103l-238 -258h-203l-155 258h98l166 -189zM145 0h-125l226 1434h125z" />
    <glyph glyph-name="uni01D0" unicode="&#x1d0;" horiz-adv-x="333" 
d="M492 1452h102l-238 -258h-202l-156 258h98l166 -188zM176 1065h121l-168 -1065h-121z" />
    <glyph glyph-name="uni01D1" unicode="&#x1d1;" horiz-adv-x="1431" 
d="M1120 1821h103l-238 -258h-203l-155 258h98l166 -189zM842 1452q244 0 388 -142.5t144 -406.5q0 -123 -23.5 -239t-67.5 -218.5t-111 -187.5t-151 -146.5t-190 -95.5t-225 -34q-244 0 -388 141.5t-144 404.5q0 148 32.5 285t98 253t156.5 202.5t214.5 135t266.5 48.5z
M621 96q147 0 267.5 67.5t196.5 180.5t117 254.5t41 296.5q0 218 -111 330t-307 112q-99 0 -186.5 -31t-155 -86.5t-120.5 -130.5t-87.5 -164.5t-52.5 -188t-18 -201.5q0 -215 110.5 -327t305.5 -112z" />
    <glyph glyph-name="uni01D2" unicode="&#x1d2;" horiz-adv-x="1099" 
d="M868 1452h103l-238 -258h-203l-155 258h98l166 -188zM610 1075q66 0 126.5 -17t113.5 -52.5t92 -86.5t61.5 -123.5t22.5 -158.5q0 -129 -43 -248t-118 -208t-183 -142t-231 -53q-83 0 -157 27t-133 79.5t-93.5 137t-34.5 190.5q0 129 43.5 249t118.5 209.5t183.5 143
t231.5 53.5zM909 639q0 163 -87.5 248.5t-217.5 85.5q-133 0 -238 -78.5t-159.5 -203.5t-54.5 -269q0 -82 24.5 -147.5t67 -105.5t96.5 -60.5t115 -20.5q101 0 188 46.5t144.5 123t89.5 176t32 205.5z" />
    <glyph glyph-name="uni01D3" unicode="&#x1d3;" horiz-adv-x="1314" 
d="M1063 1821h102l-237 -258h-203l-156 258h99l166 -189zM1323 1434l-139 -887q-41 -261 -209 -410t-418 -149t-371 149t-80 410l140 887h125l-138 -881q-35 -215 53 -334t287 -119q196 0 324 119.5t162 333.5l139 881h125z" />
    <glyph glyph-name="uni01D4" unicode="&#x1d4;" horiz-adv-x="1095" 
d="M727 1194h-203l-155 258h98l166 -188l229 188h103zM936 1065h121l-168 -1065h-121l59 373l-20 -121q-15 -34 -49 -75t-86.5 -85.5t-129 -74t-159.5 -29.5q-84 0 -148 22t-112 72.5t-62 132.5t2 203l103 647h121l-103 -649q-51 -320 230 -320q81 0 155 31t125 79.5
t85.5 98.5t51.5 96z" />
    <glyph glyph-name="uni01EA" unicode="&#x1ea;" horiz-adv-x="1431" 
d="M758 -4q-119 -40 -195 -105.5t-88 -140.5q-9 -63 39 -86t145 -6l-6 -68q-45 -18 -99 -20t-102.5 13t-76 57t-17.5 104q11 75 77 137t157 101q-238 5 -378 146.5t-140 399.5q0 148 32.5 285t98 253t156.5 202.5t214.5 135t266.5 48.5q244 0 388 -142.5t144 -406.5
q0 -221 -71.5 -411t-213 -323.5t-331.5 -172.5zM205 535q0 -215 110.5 -327t305.5 -112q147 0 267.5 67.5t196.5 180.5t117 254.5t41 296.5q0 218 -111 330t-307 112q-99 0 -186.5 -31t-155 -86.5t-120.5 -130.5t-87.5 -164.5t-52.5 -188t-18 -201.5z" />
    <glyph glyph-name="uni01EB" unicode="&#x1eb;" horiz-adv-x="1091" 
d="M604 1077q74 0 141 -21.5t123.5 -65.5t93.5 -110t51 -155.5t-5 -202.5q-35 -216 -156 -349t-281 -175h2q-120 -41 -198 -106.5t-88 -141.5q-9 -63 38.5 -86t143.5 -6l-4 -68q-45 -18 -99 -20t-102.5 13t-77 57t-18.5 104q13 74 85 137.5t167 100.5q-88 5 -164 41.5
t-132.5 102.5t-80 172.5t-2.5 238.5q21 134 79.5 240t138 170t168 97t177.5 33zM893 537q17 110 0 196.5t-60 138t-102 77.5t-129 26q-73 0 -143 -28t-131.5 -82t-106.5 -142.5t-63 -200.5q-16 -114 -0.5 -197t59 -136.5t101.5 -79t128 -25.5q73 0 143 28t132 82t108 142.5
t64 200.5z" />
    <glyph glyph-name="Scommaaccent" unicode="&#x218;" horiz-adv-x="1210" 
d="M731 774q183 -39 274 -117t91 -227q0 -207 -160.5 -327.5t-415.5 -120.5q-244 0 -360.5 115.5t-108.5 301.5h129q1 -65 17.5 -117t54 -96.5t108.5 -69t172 -24.5q193 0 312 88.5t119 239.5q0 58 -19.5 101.5t-57.5 71t-79.5 44t-99.5 29.5l-207 47q-316 70 -316 321
q0 186 138 302t393 116q218 0 330 -98.5t110 -263.5h-127q-2 53 -20 96.5t-55 79.5t-101.5 56.5t-151.5 20.5q-187 0 -286 -83t-99 -211q0 -95 54.5 -151.5t175.5 -82.5zM371 -553l8 43q43 25 63.5 63.5t30.5 114.5l8 62h-65l26 168h156l-39 -242q-32 -201 -188 -209z" />
    <glyph glyph-name="scommaaccent" unicode="&#x219;" horiz-adv-x="966" 
d="M797 807q-17 91 -83.5 131.5t-181.5 40.5q-140 0 -220.5 -60.5t-80.5 -150.5q0 -65 41 -104t136 -62l159 -39q59 -15 96.5 -26.5t76.5 -30.5t60.5 -41.5t35.5 -56.5t14 -78q0 -89 -39 -157.5t-106 -108t-146 -59t-168 -19.5q-180 0 -286.5 79t-100.5 236h113
q1 -61 23 -105t62 -68t87.5 -35t105.5 -11q90 0 163.5 23.5t122 79t48.5 134.5q0 67 -44.5 99t-139.5 55l-187 47q-121 30 -184 89.5t-63 156.5q0 139 121.5 224t306.5 85q162 0 259 -68.5t109 -199.5h-110zM242 -553l8 43q43 25 63.5 63.5t30.5 114.5l8 62h-65l26 168h156
l-39 -242q-32 -201 -188 -209z" />
    <glyph glyph-name="uni021A" unicode="&#x21a;" horiz-adv-x="1167" 
d="M1237 1434l-16 -113h-463l-211 -1321h-127l211 1321h-463l16 113h1053zM352 -578l4 46q38 26 55.5 65t28.5 115l11 57h-58l25 158h162l-37 -236q-17 -107 -67.5 -152.5t-123.5 -52.5z" />
    <glyph glyph-name="uni021B" unicode="&#x21b;" horiz-adv-x="614" 
d="M377 965l-127 -799q-6 -42 11.5 -59t62.5 -17q69 0 141 16l-16 -100q-67 -20 -156 -20q-90 0 -134 41t-28 141l127 797h-168l14 100h168l43 266h119l-43 -266h217l-14 -100h-217zM172 -270l27 168h155l-39 -242q-32 -201 -188 -209l8 43q43 25 63.5 63.5t30.5 114.5l9 62
h-66z" />
    <glyph glyph-name="uni0237" unicode="&#x237;" horiz-adv-x="399" 
d="M-291 -295q70 -45 152 -45q138 0 166 182l194 1223h121l-197 -1241q-24 -148 -93 -211.5t-181 -63.5q-106 0 -180 56z" />
    <glyph glyph-name="circumflex" unicode="&#x2c6;" horiz-adv-x="595" 
d="M602 1194l-166 188l-229 -188h-103l236 258h203l157 -258h-98z" />
    <glyph glyph-name="caron" unicode="&#x2c7;" horiz-adv-x="595" 
d="M639 1452h102l-237 -258h-203l-156 258h99l166 -188z" />
    <glyph glyph-name="breve" unicode="&#x2d8;" horiz-adv-x="557" 
d="M618 1452h84q-15 -107 -93 -176.5t-224 -69.5q-72 0 -124.5 21.5t-79 57.5t-35.5 78t-1 89h84q-5 -76 33.5 -118t130.5 -42q180 0 225 160z" />
    <glyph glyph-name="dotaccent" unicode="&#x2d9;" horiz-adv-x="131" 
d="M145 1452h129l-26 -172h-127z" />
    <glyph glyph-name="ring" unicode="&#x2da;" horiz-adv-x="333" 
d="M281 1190q-66 0 -109 42t-43 103q0 76 55.5 131.5t134.5 55.5q64 0 106 -43t42 -105q0 -74 -55.5 -129t-130.5 -55zM287 1257q43 0 76.5 33t33.5 78q0 36 -25 61t-61 25q-45 0 -78.5 -33t-33.5 -78q0 -36 25 -61t63 -25z" />
    <glyph glyph-name="ogonek" unicode="&#x2db;" horiz-adv-x="346" 
d="M195 -408q-43 -18 -96 -20.5t-103.5 10.5t-84.5 53t-34 101q0 91 82 163.5t186 100.5h97q-114 -40 -181 -104t-67 -138q0 -65 53 -91t148 -9v-66z" />
    <glyph glyph-name="tilde" unicode="&#x2dc;" horiz-adv-x="665" 
d="M739 1434h66q0 -87 -55.5 -137t-135.5 -50q-47 0 -91 23t-72.5 50t-67.5 50t-78 23q-58 0 -87.5 -30.5t-27.5 -66.5h-65q0 88 55 137.5t135 49.5q39 0 74.5 -15t62.5 -36t53 -42t57 -36t63 -15q58 0 87 29.5t27 65.5z" />
    <glyph glyph-name="hungarumlaut" unicode="&#x2dd;" horiz-adv-x="591" 
d="M104 1190h105l219 262h-172zM414 1190h104l219 262h-172z" />
    <glyph glyph-name="uni0326" unicode="&#x326;" horiz-adv-x="0" 
d="M-328 -553l9 43q43 25 63.5 63.5t30.5 114.5l8 62h-66l27 168h156l-39 -242q-17 -108 -68 -157t-121 -52z" />
    <glyph glyph-name="uni0394" unicode="&#x394;" horiz-adv-x="1499" 
d="M1284 0h-1296l854 1434h41zM1137 109l-306 1114l-661 -1114h967z" />
    <glyph glyph-name="uni03A9" unicode="&#x3a9;" horiz-adv-x="1585" 
d="M1055 117h311l-18 -117h-402l31 199q160 111 250.5 205t133 196.5t42.5 233.5q0 147 -70 262.5t-183 176t-245 60.5q-176 0 -337.5 -93t-261 -250.5t-99.5 -334.5q0 -105 24 -176.5t75.5 -132.5t156.5 -147l-31 -199h-403l18 117h313l2 12q-276 204 -276 522
q0 158 69.5 306t183.5 255t265 171.5t307 64.5q167 0 306.5 -76.5t222 -217t82.5 -316.5q0 -121 -33.5 -227t-97 -193t-145 -158t-187.5 -135z" />
    <glyph glyph-name="uni03BC" unicode="&#x3bc;" horiz-adv-x="1097" 
d="M938 1065h121l-168 -1065h-121l39 248q-17 -34 -51.5 -74.5t-87 -83.5t-128.5 -71.5t-157 -28.5q-171 0 -254 86l-74 -465h-120l231 1454h121l-103 -649q-27 -173 36 -245.5t194 -72.5q81 0 155 31t125.5 79.5t86 97.5t51.5 95z" />
    <glyph glyph-name="pi" unicode="&#x3c0;" horiz-adv-x="1323" 
d="M1053 958l-121 -755q-10 -60 7 -83.5t58 -23.5q58 0 148 33l-12 -106q-75 -35 -150 -35q-103 0 -146 48.5t-24 164.5l119 757h-469l-152 -958h-121l152 958h-205l17 107h1118l-17 -107h-202z" />
    <glyph glyph-name="uni0401" unicode="&#x401;" horiz-adv-x="1101" 
d="M494 1821h129l-27 -172h-127zM918 1821h129l-27 -172h-129zM1135 1321h-781l-84 -528h678l-18 -105h-676l-92 -575h801l-19 -113h-926l228 1434h905z" />
    <glyph glyph-name="uni0403" unicode="&#x403;" horiz-adv-x="997" 
d="M602 1559h100l261 262h-168zM1069 1434l-18 -113h-699l-209 -1321h-125l228 1434h823z" />
    <glyph glyph-name="uni0404" unicode="&#x404;" horiz-adv-x="1306" 
d="M614 94q158 0 273.5 64t175.5 176h131q-71 -166 -231 -259t-367 -93q-116 0 -210.5 34t-164 101.5t-107.5 174.5t-38 245q0 144 31.5 278.5t95.5 250t153 202t211.5 135.5t263.5 49q206 0 334.5 -93t147.5 -259h-127q-26 112 -119.5 175.5t-251.5 63.5q-112 0 -209.5 -43
t-169 -118.5t-122 -173t-78.5 -211.5h536l-14 -105h-541q-10 -78 -10 -145q0 -223 110 -336t297 -113z" />
    <glyph glyph-name="uni0407" unicode="&#x407;" horiz-adv-x="362" 
d="M92 1821h129l-26 -172h-127zM516 1821h129l-27 -172h-129zM145 0h-125l226 1434h125z" />
    <glyph glyph-name="uni040C" unicode="&#x40c;" horiz-adv-x="1261" 
d="M1100 1821l-260 -262h-101l193 262h168zM1298 1434l-723 -670l551 -764h-145l-496 682l-274 -254l-68 -428h-125l228 1434h125l-131 -826l903 826h155z" />
    <glyph glyph-name="uni040E" unicode="&#x40e;" horiz-adv-x="1130" 
d="M963 1821h84q-15 -107 -93 -176.5t-225 -69.5q-72 0 -124.5 21.5t-79 57.5t-35.5 78t-1 89h84q-5 -76 33.5 -118t130.5 -42q181 0 226 160zM1055 1434h137l-666 -1170q-94 -164 -201 -228.5t-245 -47.5l18 116q104 -13 178 33t130 150q28 53 37.5 86.5t2.5 66.5l-262 994
h135l232 -908z" />
    <glyph glyph-name="uni0410" unicode="&#x410;" horiz-adv-x="1361" 
d="M1079 0l-92 397h-674l-217 -397h-139l799 1434h112l349 -1434h-138zM369 498h596l-177 766z" />
    <glyph glyph-name="uni0411" unicode="&#x411;" horiz-adv-x="1210" 
d="M662 899q215 0 327.5 -94t112.5 -266q0 -250 -156 -394.5t-420 -144.5h-508l228 1434h823l-18 -113h-699l-67 -422h377zM543 115q199 0 313.5 113t114.5 302q0 254 -316 254h-387l-106 -669h381z" />
    <glyph glyph-name="uni0412" unicode="&#x412;" horiz-adv-x="1236" 
d="M852 782q129 -32 197.5 -113.5t68.5 -201.5q0 -226 -155 -346.5t-416 -120.5h-529l228 1434h516q191 0 284 -77t93 -210q0 -134 -75.5 -230.5t-211.5 -134.5zM758 1325h-404l-80 -500h410q143 0 234.5 89t91.5 221q0 86 -61 138t-191 52zM563 111q195 0 310.5 95.5
t115.5 264.5q0 116 -85.5 184t-252.5 68h-393l-96 -612h401z" />
    <glyph glyph-name="uni0413" unicode="&#x413;" horiz-adv-x="997" 
d="M1069 1434l-18 -113h-699l-209 -1321h-125l228 1434h823z" />
    <glyph glyph-name="uni0414" unicode="&#x414;" horiz-adv-x="1470" 
d="M1378 1434l-211 -1325h164l-39 -250h-121l23 141h-1116l-23 -141h-121l39 250h111q114 114 180 337.5t142 692.5l47 295h925zM223 109h819l193 1212h-676l-31 -191q-73 -476 -134 -692.5t-171 -328.5z" />
    <glyph glyph-name="uni0415" unicode="&#x415;" horiz-adv-x="1101" 
d="M1135 1321h-781l-84 -528h678l-18 -105h-676l-92 -575h801l-19 -113h-926l228 1434h905z" />
    <glyph glyph-name="uni0416" unicode="&#x416;" horiz-adv-x="1748" 
d="M1806 1434l-747 -701l555 -733h-146l-518 678l-108 -678h-127l108 680l-735 -680h-151l790 733l-522 701h145l490 -648l102 648h127l-102 -646l688 646h151z" />
    <glyph glyph-name="uni0417" unicode="&#x417;" horiz-adv-x="1157" 
d="M786 776q116 -20 194.5 -100.5t78.5 -210.5q0 -144 -77 -257t-206.5 -173t-286.5 -60q-231 0 -347.5 129.5t-82.5 348.5h113q-26 -172 59.5 -270.5t260.5 -98.5q192 0 321 106t129 277q0 125 -96.5 191.5t-272.5 66.5h-47l15 90h39q174 0 282.5 88.5t108.5 226.5
q0 97 -75.5 156.5t-201.5 59.5q-151 0 -255.5 -90.5t-129.5 -266.5h-114q33 226 168 344.5t337 118.5q182 0 284.5 -89t102.5 -226q0 -126 -77.5 -222.5t-223.5 -138.5z" />
    <glyph glyph-name="uni0418" unicode="&#x418;" horiz-adv-x="1327" 
d="M246 1434h125l-197 -1248h2l1014 1248h147l-227 -1434h-125l197 1245h-4l-1012 -1245h-148z" />
    <glyph glyph-name="uni0419" unicode="&#x419;" horiz-adv-x="1327" 
d="M1055 1821h84q-15 -107 -93 -176.5t-225 -69.5q-72 0 -124.5 21.5t-78.5 57.5t-35 78t-1 89h84q-5 -77 33 -118.5t130 -41.5q181 0 226 160zM246 1434h125l-197 -1248h2l1014 1248h147l-227 -1434h-125l197 1245h-4l-1012 -1245h-148z" />
    <glyph glyph-name="uni041A" unicode="&#x41a;" horiz-adv-x="1261" 
d="M1298 1434l-723 -670l551 -764h-145l-496 682l-274 -254l-68 -428h-125l228 1434h125l-131 -826l903 826h155z" />
    <glyph glyph-name="uni041B" unicode="&#x41b;" horiz-adv-x="1392" 
d="M1403 1434l-227 -1434h-125l209 1321h-701l-139 -875q-20 -130 -64.5 -224t-107.5 -145.5t-136.5 -73.5t-160.5 -17l10 112q61 -1 111.5 16t96.5 56.5t79 112.5t49 176l156 975h950z" />
    <glyph glyph-name="uni041C" unicode="&#x41c;" horiz-adv-x="1677" 
d="M246 1434h135l385 -1280l776 1280h146l-228 -1434h-125l189 1184h-6l-713 -1184h-113l-354 1184h-6l-189 -1184h-125z" />
    <glyph glyph-name="uni041D" unicode="&#x41d;" horiz-adv-x="1302" 
d="M1188 1434h125l-228 -1434h-124l102 645h-817l-103 -645h-125l228 1434h125l-109 -682h817z" />
    <glyph glyph-name="uni041E" unicode="&#x41e;" horiz-adv-x="1431" 
d="M842 1452q244 0 388 -142.5t144 -406.5q0 -123 -23.5 -239t-67.5 -218.5t-111 -187.5t-151 -146.5t-190 -95.5t-225 -34q-244 0 -388 141.5t-144 404.5q0 148 32.5 285t98 253t156.5 202.5t214.5 135t266.5 48.5zM621 96q147 0 267.5 67.5t196.5 180.5t117 254.5
t41 296.5q0 218 -111 330t-307 112q-99 0 -186.5 -31t-155 -86.5t-120.5 -130.5t-87.5 -164.5t-52.5 -188t-18 -201.5q0 -215 110.5 -327t305.5 -112z" />
    <glyph glyph-name="uni041F" unicode="&#x41f;" horiz-adv-x="1302" 
d="M1313 1434l-228 -1434h-124l208 1321h-817l-209 -1321h-125l228 1434h1067z" />
    <glyph glyph-name="uni0420" unicode="&#x420;" horiz-adv-x="1204" 
d="M743 1434q213 0 324 -93.5t111 -267.5q0 -253 -156 -398t-422 -145h-371l-86 -530h-125l228 1434h497zM618 643q201 0 313.5 110.5t112.5 303.5q0 264 -315 264h-375l-108 -678h372z" />
    <glyph glyph-name="uni0421" unicode="&#x421;" horiz-adv-x="1306" 
d="M614 94q158 0 273.5 64t175.5 176h131q-71 -166 -231 -259t-367 -93q-116 0 -210.5 34t-164 101.5t-107.5 174.5t-38 245q0 144 31.5 278.5t95.5 250t153 202t211.5 135.5t263.5 49q206 0 334.5 -93t147.5 -259h-127q-26 112 -119.5 175.5t-251.5 63.5q-114 0 -213 -45
t-170.5 -122t-123 -178.5t-76.5 -216.5t-25 -234q0 -223 110 -336t297 -113z" />
    <glyph glyph-name="uni0422" unicode="&#x422;" horiz-adv-x="1167" 
d="M1237 1434l-16 -113h-463l-211 -1321h-127l211 1321h-463l16 113h1053z" />
    <glyph glyph-name="uni0423" unicode="&#x423;" horiz-adv-x="1130" 
d="M1055 1434h137l-666 -1170q-94 -164 -201 -228.5t-245 -47.5l18 116q104 -13 178 33t130 150q28 53 37.5 86.5t2.5 66.5l-262 994h135l232 -908z" />
    <glyph glyph-name="uni0424" unicode="&#x424;" horiz-adv-x="1392" 
d="M1348 836q0 -308 -184.5 -504t-489.5 -213l-25 -150h-125l25 150q-228 18 -358 140t-130 337q0 310 184 506t492 213l25 149h125l-25 -149q226 -18 356 -140t130 -339zM688 219q247 23 394 192t147 423q0 177 -101.5 274t-279.5 109zM180 600q0 -177 101.5 -274
t281.5 -109l160 1000q-249 -23 -396 -192.5t-147 -424.5z" />
    <glyph glyph-name="uni0425" unicode="&#x425;" horiz-adv-x="1257" 
d="M1325 1434l-602 -695l410 -739h-140l-356 641l-555 -641h-145l645 743l-383 691h139l328 -592l514 592h145z" />
    <glyph glyph-name="uni0426" unicode="&#x426;" horiz-adv-x="1308" 
d="M1313 1434l-209 -1321h76l-64 -402h-121l45 289h-1022l228 1434h125l-209 -1321h815l211 1321h125z" />
    <glyph glyph-name="uni0427" unicode="&#x427;" horiz-adv-x="1239" 
d="M1124 1434h125l-227 -1434h-125l96 614q-16 -35 -61 -79.5t-112 -89.5t-164 -75t-199 -30q-86 0 -156 25t-123.5 76t-75.5 139.5t-4 205.5l105 648h127l-105 -652q-51 -327 283 -327q93 0 182 30.5t153 77.5t108.5 97t64.5 94z" />
    <glyph glyph-name="uni0428" unicode="&#x428;" horiz-adv-x="1574" 
d="M1460 1434h125l-227 -1434h-1340l228 1434h125l-209 -1321h481l209 1321h127l-211 -1321h481z" />
    <glyph glyph-name="uni0429" unicode="&#x429;" horiz-adv-x="1597" 
d="M1585 1434l-209 -1321h92l-63 -402h-123l45 289h-1309l228 1434h125l-209 -1321h481l209 1321h127l-211 -1321h481l211 1321h125z" />
    <glyph glyph-name="uni042A" unicode="&#x42a;" horiz-adv-x="1294" 
d="M745 899q215 0 328 -94t113 -266q0 -250 -156 -394.5t-420 -144.5h-499l208 1321h-155l18 113h281l-84 -535h366zM627 115q199 0 313.5 113t114.5 302q0 254 -316 254h-379l-106 -669h373z" />
    <glyph glyph-name="uni042B" unicode="&#x42b;" horiz-adv-x="1525" 
d="M653 899q215 0 328 -94t113 -266q0 -250 -156 -394.5t-420 -144.5h-500l228 1434h125l-84 -535h366zM1309 0h-125l225 1434h125zM535 115q199 0 313.5 113t114.5 302q0 254 -316 254h-379l-106 -669h373z" />
    <glyph glyph-name="uni042C" unicode="&#x42c;" horiz-adv-x="1202" 
d="M653 899q215 0 328 -94t113 -266q0 -250 -156 -394.5t-420 -144.5h-500l228 1434h125l-84 -535h366zM535 115q199 0 313.5 113t114.5 302q0 254 -316 254h-379l-106 -669h373z" />
    <glyph glyph-name="uni042D" unicode="&#x42d;" horiz-adv-x="1368" 
d="M782 1452q240 0 384.5 -142.5t144.5 -412.5q0 -145 -31.5 -280t-95 -250t-152.5 -201t-210.5 -135t-262.5 -49q-207 0 -338.5 94.5t-150.5 257.5h125q27 -114 119.5 -177t248.5 -63q122 0 225.5 47t177.5 129.5t124 188.5t73 229h-559l19 105h555q4 70 4 104
q0 217 -109.5 329.5t-294.5 112.5q-159 0 -274 -64.5t-176 -174.5h-131q71 169 225.5 260.5t359.5 91.5z" />
    <glyph glyph-name="uni042E" unicode="&#x42e;" horiz-adv-x="1822" 
d="M1233 1452q244 0 388 -142.5t144 -406.5q0 -123 -23.5 -239t-67.5 -218.5t-111 -187.5t-151 -146.5t-190 -95.5t-225 -34q-244 0 -388 141.5t-144 404.5q0 58 6 117h-223l-103 -645h-125l226 1434h125l-107 -682h221q27 148 90 274.5t156 222t222 149.5t280 54zM1012 96
q147 0 267.5 67.5t196.5 180.5t117 254.5t41 296.5q0 218 -111 330t-306 112q-118 0 -220 -44t-174.5 -120.5t-124.5 -178.5t-77 -219t-25 -240q0 -215 110.5 -327t305.5 -112z" />
    <glyph glyph-name="uni042F" unicode="&#x42f;" horiz-adv-x="1243" 
d="M1253 1434l-227 -1434h-127l96 606h-481q-57 0 -106.5 -12t-95.5 -38.5t-77.5 -76.5t-41.5 -119l-19 -124q-24 -182 -78 -236h-129q57 57 84 244l19 125q17 127 86.5 201t197.5 100q-93 39 -141.5 119t-48.5 190q0 214 146.5 334.5t391.5 120.5h551zM553 711h459l96 612
h-414q-193 0 -300 -93.5t-107 -258.5q0 -124 73.5 -192t192.5 -68z" />
    <glyph glyph-name="uni0430" unicode="&#x430;" horiz-adv-x="1110" 
d="M967 692l-86 -540q-6 -42 11.5 -57.5t65.5 -12.5l-14 -82q-27 -8 -57 -8q-73 0 -103.5 36t-15.5 117l14 80q-19 -31 -53 -67t-89 -77t-137 -68t-173 -27q-142 0 -226 71.5t-84 198.5q0 82 29.5 143t87 100t129.5 62t170 37q6 1 48.5 7t56.5 8t54 8t59.5 10t53 10t54 11.5
t43.5 12t39 13.5l4 20q26 153 -31.5 217t-212.5 64q-135 0 -207.5 -44.5t-103.5 -129.5h-117q43 140 148.5 205t287.5 65q210 0 298.5 -91.5t56.5 -291.5zM788 340l43 256q-15 -6 -35 -12t-48.5 -12.5t-52 -11.5t-64 -12t-63 -11t-71 -12t-67.5 -11q-150 -24 -219.5 -80
t-69.5 -168q0 -88 57.5 -138t157.5 -50q87 0 166.5 30.5t132.5 76t85.5 85t47.5 70.5z" />
    <glyph glyph-name="uni0431" unicode="&#x431;" horiz-adv-x="1099" 
d="M631 1075q80 0 150 -26.5t125.5 -78t87.5 -134.5t32 -189q0 -134 -43 -255.5t-117.5 -212t-182 -144t-230.5 -53.5q-155 0 -254.5 81t-133 214.5t-6.5 302.5l62 401q37 226 167 339.5t347 113.5h166q112 0 164 45h125q-51 -84 -118 -115t-196 -31h-149q-158 0 -257.5 -83
t-125.5 -234l-29 -174q70 118 184 175.5t232 57.5zM459 86q132 0 236 79t158 205t54 273q0 164 -84 248t-215 84q-99 0 -184 -45.5t-142.5 -122t-89.5 -175.5t-32 -206q0 -166 83.5 -253t215.5 -87z" />
    <glyph glyph-name="uni0432" unicode="&#x432;" horiz-adv-x="1062" 
d="M768 584q99 -27 149 -89.5t50 -144.5q0 -93 -35.5 -161.5t-101.5 -109t-153 -60t-198 -19.5h-481l168 1065h121l-84 -533l-68 -426h357q172 0 265 62t93 192q0 172 -279 172h-368l14 89h363q130 0 201 52.5t71 151.5q0 133 -221 133h-361l17 107h356q157 0 240.5 -57.5
t83.5 -163.5q0 -92 -52.5 -160.5t-146.5 -99.5z" />
    <glyph glyph-name="uni0433" unicode="&#x433;" horiz-adv-x="829" 
d="M842 1065l-15 -100h-555l-153 -965h-121l168 1065h676z" />
    <glyph glyph-name="uni0434" unicode="&#x434;" horiz-adv-x="1167" 
d="M1124 1065l-151 -965h63l-37 -239h-110l22 139h-843l-23 -139h-111l37 239h43q47 35 80 91t60.5 158t47 208.5t48.5 298.5l33 209h841zM141 100h711l137 865h-600l-20 -119q-3 -17 -8 -51q-58 -348 -91 -464q-49 -172 -129 -231z" />
    <glyph glyph-name="uni0435" unicode="&#x435;" horiz-adv-x="1085" 
d="M993 479h-843q-3 -30 -3 -61q0 -171 87 -253.5t235 -82.5q109 0 182 30t140 103h124q-89 -124 -196.5 -176.5t-259.5 -52.5q-191 0 -308.5 111.5t-117.5 320.5q0 180 72.5 330t206 238.5t300.5 88.5q115 0 204.5 -46t143.5 -142.5t54 -231.5q0 -33 -7 -91t-14 -85z
M604 979q-87 0 -162 -32.5t-130 -89.5t-92.5 -130.5t-55.5 -159.5h727q10 41 10 99q0 149 -82.5 231t-214.5 82z" />
    <glyph glyph-name="uni0436" unicode="&#x436;" horiz-adv-x="1435" 
d="M1468 1065l-612 -526l457 -539h-146l-403 477l-76 -477h-121l76 475l-549 -475h-160l635 541l-438 524h143l390 -461l71 461h121l-72 -461l525 461h159z" />
    <glyph glyph-name="uni0437" unicode="&#x437;" horiz-adv-x="1007" 
d="M645 563q103 -13 174.5 -72.5t71.5 -158.5q0 -83 -41 -150t-110 -110.5t-158.5 -66.5t-188.5 -23q-194 0 -298 102.5t-75 265.5h111q-12 -131 61 -201.5t205 -70.5q165 0 270 72t105 186q0 94 -90 141t-240 45l7 78q149 2 246.5 61t97.5 162q0 72 -66 117t-170 45
q-127 0 -215 -66t-102 -157h-113q24 139 139.5 228t292.5 89q159 0 251.5 -68t92.5 -175t-68.5 -176.5t-189.5 -96.5z" />
    <glyph glyph-name="uni0438" unicode="&#x438;" horiz-adv-x="1130" 
d="M166 1065h121l-146 -911h4l805 911h142l-168 -1065h-121l143 911h-4l-799 -911h-145z" />
    <glyph glyph-name="uni0439" unicode="&#x439;" horiz-adv-x="1130" 
d="M901 1452h84q-15 -107 -93 -176.5t-224 -69.5q-72 0 -124.5 21.5t-79 57.5t-35.5 78t-1 89h84q-5 -76 33.5 -118t130.5 -42q180 0 225 160zM166 1065h121l-146 -911h4l805 911h142l-168 -1065h-121l143 911h-4l-799 -911h-145z" />
    <glyph glyph-name="uni043A" unicode="&#x43a;" horiz-adv-x="942" 
d="M975 1065l-649 -526l493 -539h-145l-465 508l-80 -508h-121l168 1065h121l-78 -490l598 490h158z" />
    <glyph glyph-name="uni043B" unicode="&#x43b;" horiz-adv-x="1200" 
d="M1161 1065l-168 -1065h-121l154 965h-547l-84 -529q-20 -131 -60 -221.5t-98 -140t-127 -69t-157 -15.5l16 102q125 -2 199.5 75t107.5 282l99 616h786z" />
    <glyph glyph-name="uni043C" unicode="&#x43c;" horiz-adv-x="1376" 
d="M176 1065h129l303 -926l600 926h129l-168 -1065h-120l131 834h-2l-539 -834h-98l-273 844h-6l-133 -844h-121z" />
    <glyph glyph-name="uni043D" unicode="&#x43d;" horiz-adv-x="1019" 
d="M166 1065h121l-72 -463h571l72 463h121l-166 -1065h-121l78 504h-571l-80 -504h-121z" />
    <glyph glyph-name="uni043E" unicode="&#x43e;" horiz-adv-x="1099" 
d="M610 1075q66 0 126.5 -17t113.5 -52.5t92 -86.5t61.5 -123.5t22.5 -158.5q0 -129 -43 -248t-118 -208t-183 -142t-231 -53q-83 0 -157 27t-133 79.5t-93.5 137t-34.5 190.5q0 129 43.5 249t118.5 209.5t183.5 143t231.5 53.5zM909 639q0 163 -87.5 248.5t-217.5 85.5
q-133 0 -238 -78.5t-159.5 -203.5t-54.5 -269q0 -82 24.5 -147.5t67 -105.5t96.5 -60.5t115 -20.5q101 0 188 46.5t144.5 123t89.5 176t32 205.5z" />
    <glyph glyph-name="uni043F" unicode="&#x43f;" horiz-adv-x="1036" 
d="M997 1065l-168 -1065h-120l153 965h-590l-153 -965h-121l168 1065h831z" />
    <glyph glyph-name="uni0440" unicode="&#x440;" horiz-adv-x="1144" 
d="M295 1065l-37 -229q74 119 181.5 179t238.5 60q170 0 281.5 -108.5t111.5 -313.5q0 -132 -40 -253.5t-111 -213t-177 -146t-229 -54.5q-135 0 -225 67t-121 191l-100 -633h-121l229 1454h119zM496 88q109 0 197.5 47.5t144 127t85 179t29.5 207.5q0 160 -84.5 242
t-216.5 82q-140 0 -245.5 -78t-157 -201.5t-51.5 -271.5q0 -162 84.5 -248t214.5 -86z" />
    <glyph glyph-name="uni0441" unicode="&#x441;" horiz-adv-x="1050" 
d="M457 88q124 0 207 52t139 161h119q-136 -315 -469 -315q-68 0 -130 16.5t-115 51t-92 84.5t-61 122t-22 158q0 178 71.5 327.5t204.5 239.5t301 90q337 0 385 -317h-112q-23 113 -89.5 164t-187.5 51q-84 0 -158 -31.5t-127.5 -85.5t-92.5 -124.5t-58.5 -150.5
t-19.5 -161q0 -164 86.5 -248t220.5 -84z" />
    <glyph glyph-name="uni0442" unicode="&#x442;" horiz-adv-x="917" 
d="M928 1065l-15 -100h-348l-151 -965h-121l151 965h-344l15 100h813z" />
    <glyph glyph-name="uni0443" unicode="&#x443;" horiz-adv-x="1030" 
d="M936 1065h127l-653 -1174q-91 -163 -197 -226.5t-242 -43.5l19 105q194 -28 315 190q27 51 35 75t4 46l-250 1028h121l213 -934z" />
    <glyph glyph-name="uni0444" unicode="&#x444;" horiz-adv-x="1171" 
d="M1098 641q0 -268 -154.5 -453t-406.5 -204l-58 -363h-112l57 363q-173 18 -282 129t-109 307q0 266 156.5 452t406.5 205l57 365h113l-57 -367q173 -18 281 -129t108 -305zM551 82q203 23 322.5 179t119.5 382q0 155 -81 240t-218 98zM137 420q0 -157 81.5 -242
t219.5 -98l142 899q-204 -23 -323.5 -180.5t-119.5 -378.5z" />
    <glyph glyph-name="uni0445" unicode="&#x445;" horiz-adv-x="976" 
d="M999 1065l-462 -526l307 -539h-129l-254 453l-395 -453h-140l482 547l-293 518h127l243 -432l375 432h139z" />
    <glyph glyph-name="uni0446" unicode="&#x446;" horiz-adv-x="1064" 
d="M997 1065l-151 -965h69l-59 -387h-115l43 287h-786l168 1065h121l-154 -965h590l154 965h120z" />
    <glyph glyph-name="uni0447" unicode="&#x447;" horiz-adv-x="1054" 
d="M895 1065h121l-168 -1065h-121l84 535q-15 -34 -49.5 -74.5t-87 -82t-129 -69.5t-158.5 -28q-83 0 -147 22t-110.5 69t-63.5 128t0 190l59 375h121l-60 -381q-25 -161 39 -230t199 -69q63 0 122 20t103 50.5t82 69.5t61.5 75t38.5 70z" />
    <glyph glyph-name="uni0448" unicode="&#x448;" horiz-adv-x="1499" 
d="M1339 1065h121l-168 -1065h-1284l168 1065h121l-154 -965h463l154 965h117l-154 -965h463z" />
    <glyph glyph-name="uni0449" unicode="&#x449;" horiz-adv-x="1507" 
d="M1450 1065l-152 -965h58l-60 -387h-114l43 287h-1227l168 1065h121l-154 -965h463l154 965h116l-153 -965h463l153 965h121z" />
    <glyph glyph-name="uni044A" unicode="&#x44a;" horiz-adv-x="1185" 
d="M696 668q183 0 282 -74t99 -207q0 -186 -132 -286.5t-349 -100.5h-442l151 965h-194l14 100h317l-63 -397h317zM608 100q167 0 260 72.5t93 206.5q0 91 -63.5 139.5t-207.5 48.5h-328l-71 -467h317z" />
    <glyph glyph-name="uni044B" unicode="&#x44b;" horiz-adv-x="1335" 
d="M551 668q183 0 282 -74t99 -207q0 -186 -132 -286.5t-349 -100.5h-443l168 1065h121l-64 -397h318zM1176 1065h120l-168 -1065h-120zM463 100q167 0 259.5 72.5t92.5 206.5q0 91 -63 139.5t-207 48.5h-328l-72 -467h318z" />
    <glyph glyph-name="uni044C" unicode="&#x44c;" horiz-adv-x="1040" 
d="M551 668q183 0 282 -74t99 -207q0 -186 -132 -286.5t-349 -100.5h-443l168 1065h121l-64 -397h318zM463 100q167 0 259.5 72.5t92.5 206.5q0 91 -63 139.5t-207 48.5h-328l-72 -467h318z" />
    <glyph glyph-name="uni044D" unicode="&#x44d;" horiz-adv-x="1040" 
d="M547 1075q68 0 130 -16.5t115 -51t92 -84.5t61 -122t22 -158q0 -133 -42.5 -253t-117 -209.5t-183.5 -142t-235 -52.5q-337 0 -385 317h113q23 -113 89 -164t187 -51q88 0 164.5 34t131.5 92.5t92.5 133.5t54.5 160h-404l12 84h404q2 16 2 49q0 164 -86.5 248t-220.5 84
q-124 0 -207 -52t-139 -161h-119q136 315 469 315z" />
    <glyph glyph-name="uni044E" unicode="&#x44e;" horiz-adv-x="1427" 
d="M938 1075q66 0 126.5 -17t113.5 -52.5t92 -86.5t61.5 -123.5t22.5 -158.5q0 -173 -73 -322t-206 -239t-297 -90q-83 0 -157 27t-133 79.5t-93.5 137t-34.5 190.5q0 41 2 61h-157l-76 -483h-121l168 1065h121l-76 -483h156q47 213 200.5 354t360.5 141zM782 88
q135 0 240.5 79t160 204t54.5 268q0 163 -87.5 248.5t-217.5 85.5q-100 0 -186.5 -46t-144 -122.5t-90 -176t-32.5 -206.5q0 -82 24.5 -147.5t67 -105.5t96.5 -60.5t115 -20.5z" />
    <glyph glyph-name="uni044F" unicode="&#x44f;" horiz-adv-x="1060" 
d="M580 1065h442l-168 -1065h-121l64 397h-400q-102 0 -148.5 -33t-60.5 -110l-16 -96q-14 -75 -25 -108t-30 -50h-121q19 17 30 50t25 108l17 96q13 76 49.5 124t113.5 71q-133 73 -133 229q0 185 132.5 286t349.5 101zM813 498l72 467h-318q-167 0 -259.5 -72.5
t-92.5 -206.5q0 -91 63 -139.5t207 -48.5h328z" />
    <glyph glyph-name="uni0451" unicode="&#x451;" horiz-adv-x="1085" 
d="M541 1452l-27 -172h-127l25 172h129zM965 1452l-27 -172h-129l27 172h129zM993 479h-843q-3 -30 -3 -61q0 -171 87 -253.5t235 -82.5q109 0 182 30t140 103h124q-89 -124 -196.5 -176.5t-259.5 -52.5q-191 0 -308.5 111.5t-117.5 320.5q0 180 72.5 330t206 238.5
t300.5 88.5q115 0 204.5 -46t143.5 -142.5t54 -231.5q0 -33 -7 -91t-14 -85zM604 979q-87 0 -162 -32.5t-130 -89.5t-92.5 -130.5t-55.5 -159.5h727q10 41 10 99q0 149 -82.5 231t-214.5 82z" />
    <glyph glyph-name="uni0453" unicode="&#x453;" horiz-adv-x="829" 
d="M461 1190h100l260 262h-168zM842 1065l-15 -100h-555l-153 -965h-121l168 1065h676z" />
    <glyph glyph-name="uni0454" unicode="&#x454;" horiz-adv-x="1050" 
d="M457 88q124 0 207 52t139 161h119q-136 -315 -469 -315q-68 0 -130 16.5t-115 51t-92 84.5t-61 122t-22 158q0 178 71.5 327.5t204.5 239.5t301 90q337 0 385 -317h-112q-23 113 -89.5 164t-187.5 51q-162 0 -276 -108t-158 -273h401l-14 -84h-403q-6 -44 -6 -88
q0 -164 86.5 -248t220.5 -84z" />
    <glyph glyph-name="uni0457" unicode="&#x457;" horiz-adv-x="333" 
d="M20 1452h130l-27 -172h-127zM444 1452h129l-26 -172h-129zM176 1065h121l-168 -1065h-121z" />
    <glyph glyph-name="uni045C" unicode="&#x45c;" horiz-adv-x="942" 
d="M879 1452l-261 -262h-100l193 262h168zM975 1065l-649 -526l493 -539h-145l-465 508l-80 -508h-121l168 1065h121l-78 -490l598 490h158z" />
    <glyph glyph-name="uni045E" unicode="&#x45e;" horiz-adv-x="1030" 
d="M852 1452h84q-15 -107 -93 -176.5t-225 -69.5q-72 0 -124.5 21.5t-78.5 57.5t-35 78t-1 89h84q-5 -76 33.5 -118t130.5 -42q180 0 225 160zM936 1065h127l-653 -1174q-91 -163 -197 -226.5t-242 -43.5l19 105q194 -28 315 190q27 51 35 75t4 46l-250 1028h121l213 -934z
" />
    <glyph glyph-name="uni0490" unicode="&#x490;" horiz-adv-x="997" 
d="M977 1638h125l-51 -317h-699l-209 -1321h-125l228 1434h698z" />
    <glyph glyph-name="uni0491" unicode="&#x491;" horiz-adv-x="829" 
d="M758 1200h106l-37 -235h-555l-153 -965h-121l168 1065h569z" />
    <glyph glyph-name="Wgrave" unicode="&#x1e80;" horiz-adv-x="2027" 
d="M1194 1559l-152 262h-172l220 -262h104zM1956 1434h133l-643 -1434h-121l-213 1262l-614 -1262h-121l-193 1434h131l154 -1250l598 1250h137l199 -1250z" />
    <glyph glyph-name="wgrave" unicode="&#x1e81;" horiz-adv-x="1599" 
d="M942 1190l-151 262h-173l220 -262h104zM1632 1065l-487 -1065h-123l-182 913l-473 -913h-121l-152 1065h121l123 -918l469 918h104l181 -918l415 918h125z" />
    <glyph glyph-name="Wacute" unicode="&#x1e82;" horiz-adv-x="2027" 
d="M1100 1559h100l260 262h-168zM1956 1434h133l-643 -1434h-121l-213 1262l-614 -1262h-121l-193 1434h131l154 -1250l598 1250h137l199 -1250z" />
    <glyph glyph-name="wacute" unicode="&#x1e83;" horiz-adv-x="1599" 
d="M848 1190h100l260 262h-168zM1632 1065l-487 -1065h-123l-182 913l-473 -913h-121l-152 1065h121l123 -918l469 918h104l181 -918l415 918h125z" />
    <glyph glyph-name="Wdieresis" unicode="&#x1e84;" horiz-adv-x="2027" 
d="M920 1821h129l-27 -172h-127zM1343 1821h130l-27 -172h-129zM1956 1434h133l-643 -1434h-121l-213 1262l-614 -1262h-121l-193 1434h131l154 -1250l598 1250h137l199 -1250z" />
    <glyph glyph-name="wdieresis" unicode="&#x1e85;" horiz-adv-x="1599" 
d="M668 1452h129l-27 -172h-127zM1092 1452h129l-27 -172h-129zM1632 1065l-487 -1065h-123l-182 913l-473 -913h-121l-152 1065h121l123 -918l469 918h104l181 -918l415 918h125z" />
    <glyph glyph-name="uni1E9E" unicode="&#x1e9e;" horiz-adv-x="1280" 
d="M772 870q184 -15 294 -118t110 -265q0 -220 -140.5 -363.5t-361.5 -143.5q-173 0 -268.5 88t-92.5 247h121q0 -98 64.5 -160.5t187.5 -62.5q159 0 260 111.5t101 269.5q0 141 -121 221.5t-344 77.5l442 567h-465q-114 0 -165.5 -51t-69.5 -162l-179 -1126h-125l179 1139
q30 176 114.5 244.5t253.5 68.5h680z" />
    <glyph glyph-name="Ygrave" unicode="&#x1ef2;" horiz-adv-x="1304" 
d="M858 1559l-151 262h-172l219 -262h104zM709 571l-93 -571h-127l93 571l-398 863h140l333 -740l564 740h145z" />
    <glyph glyph-name="ygrave" unicode="&#x1ef3;" horiz-adv-x="1030" 
d="M657 1190l-151 262h-172l219 -262h104zM936 1065h127l-653 -1174q-91 -163 -197 -226.5t-242 -43.5l19 105q194 -28 315 190q27 51 35 75t4 46l-250 1028h121l213 -934z" />
    <glyph glyph-name="endash" unicode="&#x2013;" horiz-adv-x="1228" 
d="M78 625h1044l-16 -97h-1045z" />
    <glyph glyph-name="emdash" unicode="&#x2014;" horiz-adv-x="1351" 
d="M78 625h1167l-16 -97h-1168z" />
    <glyph glyph-name="quoteleft" unicode="&#x2018;" horiz-adv-x="319" 
d="M381 1436l-8 -43q-43 -25 -63 -63.5t-31 -115.5l-9 -61h66l-27 -168h-155l39 242q32 201 188 209z" />
    <glyph glyph-name="quoteright" unicode="&#x2019;" horiz-adv-x="329" 
d="M162 993l2 47q38 24 55.5 62.5t30.5 116.5l8 57h-55l22 158h164l-37 -236q-17 -107 -66.5 -151.5t-123.5 -53.5z" />
    <glyph glyph-name="quotesinglbase" unicode="&#x201a;" horiz-adv-x="329" 
d="M-55 -369l2 45q40 25 57.5 64t28.5 117l10 57h-57l24 158h164l-37 -236q-17 -108 -67.5 -153t-124.5 -52z" />
    <glyph glyph-name="quotedblleft" unicode="&#x201c;" horiz-adv-x="593" 
d="M381 1436l-8 -43q-43 -25 -63 -63.5t-31 -115.5l-9 -61h66l-27 -168h-155l39 242q32 201 188 209zM655 1436l-8 -43q-43 -25 -63 -63.5t-31 -115.5l-8 -61h65l-26 -168h-156l39 242q32 201 188 209z" />
    <glyph glyph-name="quotedblright" unicode="&#x201d;" horiz-adv-x="593" 
d="M154 981l8 43q43 25 63.5 63.5t30.5 114.5l8 62h-65l26 168h156l-39 -242q-32 -201 -188 -209zM428 981l8 43q43 25 63.5 63.5t30.5 114.5l9 62h-66l27 168h155l-39 -242q-32 -201 -188 -209z" />
    <glyph glyph-name="quotedblbase" unicode="&#x201e;" horiz-adv-x="593" 
d="M-47 -283l8 43q43 25 63 63.5t31 115.5l8 61h-65l27 168h155l-39 -242q-32 -201 -188 -209zM227 -283l9 43q43 25 63 63.5t31 115.5l8 61h-66l27 168h156l-39 -242q-17 -108 -68 -157t-121 -52z" />
    <glyph glyph-name="dagger" unicode="&#x2020;" horiz-adv-x="636" 
d="M610 1202l-14 -96h-166l-82 -526h-100l84 526h-168l14 96h168l37 232h98l-37 -232h166z" />
    <glyph glyph-name="daggerdbl" unicode="&#x2021;" horiz-adv-x="636" 
d="M582 1016h-166l-94 -598h165l-14 -96h-166l-51 -322h-98l51 322h-168l14 96h168l94 598h-167l14 96h168l51 322h98l-51 -322h166z" />
    <glyph glyph-name="bullet" unicode="&#x2022;" horiz-adv-x="522" 
d="M215 381q-69 0 -109.5 49.5t-29.5 118.5q9 62 60.5 105.5t115.5 43.5q69 0 109.5 -49t29.5 -117q-10 -64 -61.5 -107.5t-114.5 -43.5z" />
    <glyph glyph-name="ellipsis" unicode="&#x2026;" horiz-adv-x="1343" 
d="M45 170h148l-27 -170h-146zM551 170h147l-26 -170h-146zM1057 170h147l-26 -170h-146z" />
    <glyph glyph-name="perthousand" unicode="&#x2030;" horiz-adv-x="2107" 
d="M371 834q-100 0 -158.5 63.5t-58.5 177.5q0 152 83 260.5t218 108.5q98 0 157.5 -64.5t59.5 -177.5q0 -150 -84.5 -259t-216.5 -109zM150 0l1069 1436l100 -2l-1069 -1434h-100zM375 922q98 0 156.5 81t58.5 193q0 77 -39.5 119.5t-104.5 42.5q-66 0 -115.5 -42.5
t-72 -104.5t-22.5 -132q0 -76 38 -116.5t101 -40.5zM1012 -10q-100 0 -158.5 63.5t-58.5 177.5q0 97 36 180.5t106 136t159 52.5q98 0 158.5 -65t60.5 -179q0 -150 -84.5 -258t-218.5 -108zM1667 -10q-100 0 -158.5 63.5t-58.5 177.5q0 98 35.5 181t105.5 135.5t160 52.5
q98 0 158.5 -65t60.5 -179q0 -150 -84.5 -258t-218.5 -108zM1018 76q98 0 155.5 81t57.5 195q0 78 -38 119t-103 41q-99 0 -155 -84t-56 -195q0 -76 37 -116.5t102 -40.5zM1673 76q98 0 155.5 81t57.5 195q0 78 -38.5 119t-104.5 41t-115 -42.5t-71.5 -104.5t-22.5 -132
q0 -76 37 -116.5t102 -40.5z" />
    <glyph glyph-name="guilsinglleft" unicode="&#x2039;" horiz-adv-x="450" 
d="M408 776l-224 -170l170 -174l-20 -117l-248 248l16 96l324 248z" />
    <glyph glyph-name="guilsinglright" unicode="&#x203a;" horiz-adv-x="448" 
d="M123 786l18 121l246 -248l-14 -96l-326 -248l21 129l223 174z" />
    <glyph glyph-name="fraction" unicode="&#x2044;" horiz-adv-x="245" 
d="M-371 0h-71l1118 1434h72z" />
    <glyph glyph-name="Euro" unicode="&#x20ac;" horiz-adv-x="1394" 
d="M702 94q158 0 273.5 64t175.5 176h131q-71 -166 -231 -259t-367 -93q-116 0 -210.5 34t-164 101.5t-107.5 174.5t-38 245v8h-121l14 82h111q3 72 18 143h-106l12 80h113q35 129 98.5 237.5t152.5 190.5t208 128t256 46q205 0 333.5 -93t147.5 -259h-127
q-26 112 -119.5 175.5t-251.5 63.5q-105 0 -197.5 -38t-162 -105t-121 -154.5t-82.5 -191.5h410l-13 -80h-418q-18 -82 -20 -143h416l-15 -82h-405v-2q0 -223 110 -336t297 -113z" />
    <glyph glyph-name="trademark" unicode="&#x2122;" horiz-adv-x="1095" 
d="M569 1372h-131l-49 -307h-67l47 307h-131l8 62h334zM1075 1434l-57 -369h-68l41 248l-155 -248h-56l-75 248l-41 -248h-68l57 369h68l94 -297l191 297h69z" />
    <glyph glyph-name="partialdiff" unicode="&#x2202;" horiz-adv-x="1191" 
d="M614 954q156 0 255.5 -72t121.5 -202q20 116 24 213t-11 183t-50.5 145.5t-99.5 94t-154 34.5q-137 0 -234.5 -73.5t-129.5 -174.5h-107q17 68 56 128.5t97.5 110t142.5 78.5t182 29q112 0 194 -39t130.5 -107.5t72 -166.5t23 -211.5t-22.5 -247.5q-53 -332 -207.5 -514
t-398.5 -182q-196 0 -310 108.5t-114 294.5q0 158 69 288.5t193 206.5t278 76zM500 84q120 0 223 69t161 179t58 231q0 138 -85 218.5t-222 80.5q-128 0 -230.5 -65t-158.5 -172.5t-56 -235.5q0 -141 83 -223t227 -82z" />
    <glyph glyph-name="product" unicode="&#x220f;" horiz-adv-x="1345" 
d="M238 1638h1161l-322 -2027h-112l305 1919h-936l-305 -1919h-113z" />
    <glyph glyph-name="summation" unicode="&#x2211;" horiz-adv-x="1337" 
d="M1372 1526h-958l362 -901l-645 -901h956l-18 -113h-1155l727 1014l-401 1013h1151z" />
    <glyph glyph-name="minus" unicode="&#x2212;" horiz-adv-x="860" 
d="M68 582h739l-14 -90h-738z" />
    <glyph glyph-name="radical" unicode="&#x221a;" horiz-adv-x="1464" 
d="M1518 1638l-887 -2027h-125l-217 958h-221l20 125h299l199 -909l815 1853h117z" />
    <glyph glyph-name="infinity" unicode="&#x221e;" horiz-adv-x="1615" 
d="M1225 870q130 0 212.5 -79.5t82.5 -204.5q0 -158 -115 -273.5t-275 -115.5q-113 0 -197.5 67t-156.5 187q-106 -121 -209 -187.5t-213 -66.5q-131 0 -214 80.5t-83 207.5q0 159 117.5 272t274.5 113q111 0 194 -65.5t158 -183.5q221 249 424 249zM365 299q92 0 180 64.5
t182 173.5q-116 231 -274 231q-119 0 -200 -79t-81 -197q0 -85 52.5 -139t140.5 -54zM1124 299q119 0 201 84.5t82 194.5q0 84 -52.5 137t-142.5 53q-93 0 -179.5 -62t-180.5 -169q116 -238 272 -238z" />
    <glyph glyph-name="integral" unicode="&#x222b;" horiz-adv-x="595" 
d="M289 1128q14 93 45.5 157t79.5 99t104.5 49.5t130.5 12.5l-16 -109q-94 0 -150 -50.5t-77 -174.5l-187 -1184q-16 -94 -50 -159t-84 -99t-105 -47.5t-123 -11.5l14 106q90 0 150.5 54.5t78.5 173.5z" />
    <glyph glyph-name="approxequal" unicode="&#x2248;" horiz-adv-x="837" 
d="M750 813l69 -8q-14 -91 -77.5 -142t-143.5 -51q-40 0 -75 16t-60.5 38.5t-50.5 45t-56.5 38.5t-66.5 16q-60 0 -97.5 -34.5t-41.5 -72.5l-66 11q13 91 75 141.5t142 50.5q40 0 75 -16t61 -38t51 -44.5t56.5 -38.5t65.5 -16q63 0 99.5 33t40.5 71zM698 485l68 -8
q-14 -91 -77 -141.5t-144 -50.5q-40 0 -74.5 16t-60 38.5t-50.5 44.5t-56 38t-66 16q-60 0 -98 -34t-42 -72l-67 8q14 93 76 144t141 51q41 0 76.5 -16t61.5 -38.5t51 -45t56.5 -38.5t65.5 -16q63 0 99 33t40 71z" />
    <glyph glyph-name="notequal" unicode="&#x2260;" horiz-adv-x="860" 
d="M825 694h-286l-129 -237h376l-14 -90h-412l-200 -367h-88l200 367h-237l14 90h273l129 237h-363l14 90h398l198 365h88l-198 -365h252z" />
    <glyph glyph-name="lessequal" unicode="&#x2264;" horiz-adv-x="825" 
d="M748 432l-564 336l670 336l16 110l-761 -391l-19 -112l639 -389zM2 55h686l-14 -90h-686z" />
    <glyph glyph-name="greaterequal" unicode="&#x2265;" horiz-adv-x="827" 
d="M49 432l-20 -110l766 389l18 112l-641 391l-18 -110l563 -336zM676 55l-17 -90h-688l15 90h690z" />
    <glyph glyph-name="lozenge" unicode="&#x25ca;" horiz-adv-x="974" 
d="M676 1434l207 -717l-430 -717h-156l-205 717l430 717h154zM391 109l367 608l-174 610l-367 -610z" />
    <glyph glyph-name="G.ss01" horiz-adv-x="1339" 
d="M815 711h469l-110 -711h-117l39 244q-174 -273 -502 -273q-239 0 -378.5 140.5t-139.5 416.5q0 151 31 289.5t94 256t151.5 204t210 135.5t262.5 49q200 0 323 -88t148 -244h-127q-60 220 -348 220q-119 0 -220.5 -45t-173.5 -122.5t-123.5 -181t-76 -222t-24.5 -244.5
q0 -227 109 -339t298 -112q208 0 352 119t175 311l12 90h-350z" />
    <glyph glyph-name="R.ss01" horiz-adv-x="1208" 
d="M1178 1073q0 -201 -100.5 -335.5t-280.5 -182.5l237 -555h-129l-227 535q-62 -5 -78 -5h-371l-86 -530h-125l228 1434h497q213 0 324 -93.5t111 -267.5zM246 643h372q201 0 313.5 110.5t112.5 303.5q0 264 -315 264h-375z" />
    <glyph glyph-name="G.ss05" horiz-adv-x="1339" 
d="M815 711h469l-110 -711h-117l39 244q-174 -273 -502 -273q-239 0 -378.5 140.5t-139.5 416.5q0 151 31 289.5t94 256t151.5 204t210 135.5t262.5 49q200 0 323 -88t148 -244h-127q-60 220 -348 220q-119 0 -220.5 -45t-173.5 -122.5t-123.5 -181t-76 -222t-24.5 -244.5
q0 -227 109 -339t298 -112q208 0 352 119t175 311l12 90h-350z" />
    <glyph glyph-name="i.loclTRK" horiz-adv-x="333" 
d="M236 1452h129l-27 -172h-127zM176 1065h121l-168 -1065h-121z" />
    <glyph glyph-name="a.ss01" 
d="M1090 1065l-168 -1065h-121l37 227q-72 -119 -178 -182t-234 -63q-80 0 -150 26.5t-125 77.5t-86.5 135t-31.5 191q0 179 67.5 329.5t196 243t291.5 92.5q130 0 218 -59t126 -172l35 219h123zM449 84q133 0 238 81t159.5 209t54.5 275q0 163 -85.5 244.5t-217.5 81.5
q-102 0 -187.5 -46.5t-141.5 -124.5t-86.5 -178.5t-30.5 -209.5q0 -165 83 -248.5t214 -83.5z" />
    <glyph glyph-name="aacute.ss01" 
d="M623 1190h100l260 262h-168zM1090 1065l-168 -1065h-121l37 227q-72 -119 -178 -182t-234 -63q-80 0 -150 26.5t-125 77.5t-86.5 135t-31.5 191q0 179 67.5 329.5t196 243t291.5 92.5q130 0 218 -59t126 -172l35 219h123zM449 84q133 0 238 81t159.5 209t54.5 275
q0 163 -85.5 244.5t-217.5 81.5q-102 0 -187.5 -46.5t-141.5 -124.5t-86.5 -178.5t-30.5 -209.5q0 -165 83 -248.5t214 -83.5z" />
    <glyph glyph-name="abreve.ss01" 
d="M911 1452h84q-15 -107 -93 -176.5t-224 -69.5q-72 0 -124.5 21.5t-79 57.5t-35.5 78t-1 89h84q-5 -76 33.5 -118t130.5 -42q180 0 225 160zM1090 1065l-168 -1065h-121l37 227q-72 -119 -178 -182t-234 -63q-80 0 -150 26.5t-125 77.5t-86.5 135t-31.5 191
q0 179 67.5 329.5t196 243t291.5 92.5q130 0 218 -59t126 -172l35 219h123zM449 84q133 0 238 81t159.5 209t54.5 275q0 163 -85.5 244.5t-217.5 81.5q-102 0 -187.5 -46.5t-141.5 -124.5t-86.5 -178.5t-30.5 -209.5q0 -165 83 -248.5t214 -83.5z" />
    <glyph glyph-name="uni01CE.ss01" 
d="M913 1452h103l-238 -258h-203l-155 258h98l166 -188zM1090 1065l-168 -1065h-121l37 227q-72 -119 -178 -182t-234 -63q-80 0 -150 26.5t-125 77.5t-86.5 135t-31.5 191q0 179 67.5 329.5t196 243t291.5 92.5q130 0 218 -59t126 -172l35 219h123zM449 84q133 0 238 81
t159.5 209t54.5 275q0 163 -85.5 244.5t-217.5 81.5q-102 0 -187.5 -46.5t-141.5 -124.5t-86.5 -178.5t-30.5 -209.5q0 -165 83 -248.5t214 -83.5z" />
    <glyph glyph-name="acircumflex.ss01" 
d="M856 1194l-166 188l-229 -188h-103l236 258h203l157 -258h-98zM1090 1065l-168 -1065h-121l37 227q-72 -119 -178 -182t-234 -63q-80 0 -150 26.5t-125 77.5t-86.5 135t-31.5 191q0 179 67.5 329.5t196 243t291.5 92.5q130 0 218 -59t126 -172l35 219h123zM449 84
q133 0 238 81t159.5 209t54.5 275q0 163 -85.5 244.5t-217.5 81.5q-102 0 -187.5 -46.5t-141.5 -124.5t-86.5 -178.5t-30.5 -209.5q0 -165 83 -248.5t214 -83.5z" />
    <glyph glyph-name="adieresis.ss01" 
d="M442 1452h129l-26 -172h-127zM866 1452h129l-26 -172h-129zM1090 1065l-168 -1065h-121l37 227q-72 -119 -178 -182t-234 -63q-80 0 -150 26.5t-125 77.5t-86.5 135t-31.5 191q0 179 67.5 329.5t196 243t291.5 92.5q130 0 218 -59t126 -172l35 219h123zM449 84
q133 0 238 81t159.5 209t54.5 275q0 163 -85.5 244.5t-217.5 81.5q-102 0 -187.5 -46.5t-141.5 -124.5t-86.5 -178.5t-30.5 -209.5q0 -165 83 -248.5t214 -83.5z" />
    <glyph glyph-name="agrave.ss01" 
d="M717 1190l-152 262h-172l219 -262h105zM1090 1065l-168 -1065h-121l37 227q-72 -119 -178 -182t-234 -63q-80 0 -150 26.5t-125 77.5t-86.5 135t-31.5 191q0 179 67.5 329.5t196 243t291.5 92.5q130 0 218 -59t126 -172l35 219h123zM449 84q133 0 238 81t159.5 209
t54.5 275q0 163 -85.5 244.5t-217.5 81.5q-102 0 -187.5 -46.5t-141.5 -124.5t-86.5 -178.5t-30.5 -209.5q0 -165 83 -248.5t214 -83.5z" />
    <glyph glyph-name="amacron.ss01" 
d="M434 1452h594l-12 -82h-594zM1090 1065l-168 -1065h-121l37 227q-72 -119 -178 -182t-234 -63q-80 0 -150 26.5t-125 77.5t-86.5 135t-31.5 191q0 179 67.5 329.5t196 243t291.5 92.5q130 0 218 -59t126 -172l35 219h123zM449 84q133 0 238 81t159.5 209t54.5 275
q0 163 -85.5 244.5t-217.5 81.5q-102 0 -187.5 -46.5t-141.5 -124.5t-86.5 -178.5t-30.5 -209.5q0 -165 83 -248.5t214 -83.5z" />
    <glyph glyph-name="aogonek.ss01" 
d="M967 1065h123l-168 -1065h-25q-114 -40 -181 -104t-67 -138q0 -65 53 -91t148 -9v-66q-43 -18 -96 -20.5t-103.5 10.5t-84.5 53t-34 101q0 91 82.5 163.5t186.5 100.5l37 227q-72 -119 -178 -182t-234 -63q-80 0 -150 26.5t-125 77.5t-86.5 135t-31.5 191
q0 179 67.5 329.5t196 243t291.5 92.5q130 0 218 -59t126 -172zM449 84q133 0 238 81t159.5 209t54.5 275q0 163 -85.5 244.5t-217.5 81.5q-102 0 -187.5 -46.5t-141.5 -124.5t-86.5 -178.5t-30.5 -209.5q0 -165 83 -248.5t214 -83.5z" />
    <glyph glyph-name="aring.ss01" 
d="M686 1190q-66 0 -108.5 42t-42.5 103q0 76 55.5 131.5t134.5 55.5q64 0 105.5 -43t41.5 -105q0 -74 -55.5 -129t-130.5 -55zM692 1257q43 0 77 33t34 78q0 36 -25 61t-61 25q-46 0 -79.5 -33.5t-33.5 -77.5q0 -36 25 -61t63 -25zM1090 1065l-168 -1065h-121l37 227
q-72 -119 -178 -182t-234 -63q-80 0 -150 26.5t-125 77.5t-86.5 135t-31.5 191q0 179 67.5 329.5t196 243t291.5 92.5q130 0 218 -59t126 -172l35 219h123zM449 84q133 0 238 81t159.5 209t54.5 275q0 163 -85.5 244.5t-217.5 81.5q-102 0 -187.5 -46.5t-141.5 -124.5
t-86.5 -178.5t-30.5 -209.5q0 -165 83 -248.5t214 -83.5z" />
    <glyph glyph-name="atilde.ss01" 
d="M930 1434h65q0 -87 -55 -137t-135 -50q-47 0 -91 23t-72.5 50t-67.5 50t-78 23q-58 0 -87.5 -30.5t-27.5 -66.5h-66q0 88 55.5 137.5t135.5 49.5q47 0 91 -22.5t72.5 -49.5t67.5 -49.5t78 -22.5q58 0 87.5 29.5t27.5 65.5zM1090 1065l-168 -1065h-121l37 227
q-72 -119 -178 -182t-234 -63q-80 0 -150 26.5t-125 77.5t-86.5 135t-31.5 191q0 179 67.5 329.5t196 243t291.5 92.5q130 0 218 -59t126 -172l35 219h123zM449 84q133 0 238 81t159.5 209t54.5 275q0 163 -85.5 244.5t-217.5 81.5q-102 0 -187.5 -46.5t-141.5 -124.5
t-86.5 -178.5t-30.5 -209.5q0 -165 83 -248.5t214 -83.5z" />
    <glyph glyph-name="g.ss01" horiz-adv-x="1046" 
d="M1018 971q-88 0 -133 -56q28 -58 28 -131q0 -180 -123.5 -295.5t-312.5 -115.5q-133 0 -219 59q-57 -4 -89 -32.5t-32 -65.5q0 -84 172 -84h142q83 0 155.5 -17.5t131.5 -52t93.5 -94t34.5 -137.5q0 -129 -73 -221.5t-188 -135.5t-257 -43q-82 0 -153 17t-129.5 51.5
t-92.5 94.5t-34 138q0 127 73.5 216t206.5 131q-81 5 -132.5 40.5t-51.5 96.5q0 56 44.5 97.5t121.5 51.5q-62 75 -62 185q0 180 122.5 294.5t313.5 114.5q177 0 269 -100q59 91 190 88zM481 467q148 0 238 87.5t90 225.5q0 95 -61.5 149t-176.5 54q-149 0 -237 -86
t-88 -227q0 -95 60.5 -149t174.5 -54zM438 156q-169 0 -276 -79.5t-107 -221.5q0 -108 84 -159.5t215 -51.5q180 0 288 78.5t108 222.5q0 108 -86 159.5t-226 51.5z" />
    <glyph glyph-name="l.ss01" horiz-adv-x="395" 
d="M219 -4q-109 -11 -155 29t-29 143l201 1266h120l-202 -1270q-6 -41 12 -59t70 -17z" />
    <glyph glyph-name="a.ss02" 
d="M1090 1065l-168 -1065h-121l37 227q-72 -119 -178 -182t-234 -63q-80 0 -150 26.5t-125 77.5t-86.5 135t-31.5 191q0 179 67.5 329.5t196 243t291.5 92.5q130 0 218 -59t126 -172l35 219h123zM449 84q133 0 238 81t159.5 209t54.5 275q0 163 -85.5 244.5t-217.5 81.5
q-102 0 -187.5 -46.5t-141.5 -124.5t-86.5 -178.5t-30.5 -209.5q0 -165 83 -248.5t214 -83.5z" />
    <glyph glyph-name="aacute.ss02" 
d="M623 1190h100l260 262h-168zM1090 1065l-168 -1065h-121l37 227q-72 -119 -178 -182t-234 -63q-80 0 -150 26.5t-125 77.5t-86.5 135t-31.5 191q0 179 67.5 329.5t196 243t291.5 92.5q130 0 218 -59t126 -172l35 219h123zM449 84q133 0 238 81t159.5 209t54.5 275
q0 163 -85.5 244.5t-217.5 81.5q-102 0 -187.5 -46.5t-141.5 -124.5t-86.5 -178.5t-30.5 -209.5q0 -165 83 -248.5t214 -83.5z" />
    <glyph glyph-name="abreve.ss02" 
d="M911 1452h84q-15 -107 -93 -176.5t-224 -69.5q-72 0 -124.5 21.5t-79 57.5t-35.5 78t-1 89h84q-5 -76 33.5 -118t130.5 -42q180 0 225 160zM1090 1065l-168 -1065h-121l37 227q-72 -119 -178 -182t-234 -63q-80 0 -150 26.5t-125 77.5t-86.5 135t-31.5 191
q0 179 67.5 329.5t196 243t291.5 92.5q130 0 218 -59t126 -172l35 219h123zM449 84q133 0 238 81t159.5 209t54.5 275q0 163 -85.5 244.5t-217.5 81.5q-102 0 -187.5 -46.5t-141.5 -124.5t-86.5 -178.5t-30.5 -209.5q0 -165 83 -248.5t214 -83.5z" />
    <glyph glyph-name="uni01CE.ss02" 
d="M913 1452h103l-238 -258h-203l-155 258h98l166 -188zM1090 1065l-168 -1065h-121l37 227q-72 -119 -178 -182t-234 -63q-80 0 -150 26.5t-125 77.5t-86.5 135t-31.5 191q0 179 67.5 329.5t196 243t291.5 92.5q130 0 218 -59t126 -172l35 219h123zM449 84q133 0 238 81
t159.5 209t54.5 275q0 163 -85.5 244.5t-217.5 81.5q-102 0 -187.5 -46.5t-141.5 -124.5t-86.5 -178.5t-30.5 -209.5q0 -165 83 -248.5t214 -83.5z" />
    <glyph glyph-name="acircumflex.ss02" 
d="M856 1194l-166 188l-229 -188h-103l236 258h203l157 -258h-98zM1090 1065l-168 -1065h-121l37 227q-72 -119 -178 -182t-234 -63q-80 0 -150 26.5t-125 77.5t-86.5 135t-31.5 191q0 179 67.5 329.5t196 243t291.5 92.5q130 0 218 -59t126 -172l35 219h123zM449 84
q133 0 238 81t159.5 209t54.5 275q0 163 -85.5 244.5t-217.5 81.5q-102 0 -187.5 -46.5t-141.5 -124.5t-86.5 -178.5t-30.5 -209.5q0 -165 83 -248.5t214 -83.5z" />
    <glyph glyph-name="adieresis.ss02" 
d="M442 1452h129l-26 -172h-127zM866 1452h129l-26 -172h-129zM1090 1065l-168 -1065h-121l37 227q-72 -119 -178 -182t-234 -63q-80 0 -150 26.5t-125 77.5t-86.5 135t-31.5 191q0 179 67.5 329.5t196 243t291.5 92.5q130 0 218 -59t126 -172l35 219h123zM449 84
q133 0 238 81t159.5 209t54.5 275q0 163 -85.5 244.5t-217.5 81.5q-102 0 -187.5 -46.5t-141.5 -124.5t-86.5 -178.5t-30.5 -209.5q0 -165 83 -248.5t214 -83.5z" />
    <glyph glyph-name="agrave.ss02" 
d="M717 1190l-152 262h-172l219 -262h105zM1090 1065l-168 -1065h-121l37 227q-72 -119 -178 -182t-234 -63q-80 0 -150 26.5t-125 77.5t-86.5 135t-31.5 191q0 179 67.5 329.5t196 243t291.5 92.5q130 0 218 -59t126 -172l35 219h123zM449 84q133 0 238 81t159.5 209
t54.5 275q0 163 -85.5 244.5t-217.5 81.5q-102 0 -187.5 -46.5t-141.5 -124.5t-86.5 -178.5t-30.5 -209.5q0 -165 83 -248.5t214 -83.5z" />
    <glyph glyph-name="amacron.ss02" 
d="M434 1452h594l-12 -82h-594zM1090 1065l-168 -1065h-121l37 227q-72 -119 -178 -182t-234 -63q-80 0 -150 26.5t-125 77.5t-86.5 135t-31.5 191q0 179 67.5 329.5t196 243t291.5 92.5q130 0 218 -59t126 -172l35 219h123zM449 84q133 0 238 81t159.5 209t54.5 275
q0 163 -85.5 244.5t-217.5 81.5q-102 0 -187.5 -46.5t-141.5 -124.5t-86.5 -178.5t-30.5 -209.5q0 -165 83 -248.5t214 -83.5z" />
    <glyph glyph-name="aogonek.ss02" 
d="M967 1065h123l-168 -1065h-25q-114 -40 -181 -104t-67 -138q0 -65 53 -91t148 -9v-66q-43 -18 -96 -20.5t-103.5 10.5t-84.5 53t-34 101q0 91 82.5 163.5t186.5 100.5l37 227q-72 -119 -178 -182t-234 -63q-80 0 -150 26.5t-125 77.5t-86.5 135t-31.5 191
q0 179 67.5 329.5t196 243t291.5 92.5q130 0 218 -59t126 -172zM449 84q133 0 238 81t159.5 209t54.5 275q0 163 -85.5 244.5t-217.5 81.5q-102 0 -187.5 -46.5t-141.5 -124.5t-86.5 -178.5t-30.5 -209.5q0 -165 83 -248.5t214 -83.5z" />
    <glyph glyph-name="aring.ss02" 
d="M686 1190q-66 0 -108.5 42t-42.5 103q0 76 55.5 131.5t134.5 55.5q64 0 105.5 -43t41.5 -105q0 -74 -55.5 -129t-130.5 -55zM692 1257q43 0 77 33t34 78q0 36 -25 61t-61 25q-46 0 -79.5 -33.5t-33.5 -77.5q0 -36 25 -61t63 -25zM1090 1065l-168 -1065h-121l37 227
q-72 -119 -178 -182t-234 -63q-80 0 -150 26.5t-125 77.5t-86.5 135t-31.5 191q0 179 67.5 329.5t196 243t291.5 92.5q130 0 218 -59t126 -172l35 219h123zM449 84q133 0 238 81t159.5 209t54.5 275q0 163 -85.5 244.5t-217.5 81.5q-102 0 -187.5 -46.5t-141.5 -124.5
t-86.5 -178.5t-30.5 -209.5q0 -165 83 -248.5t214 -83.5z" />
    <glyph glyph-name="atilde.ss02" 
d="M930 1434h65q0 -87 -55 -137t-135 -50q-47 0 -91 23t-72.5 50t-67.5 50t-78 23q-58 0 -87.5 -30.5t-27.5 -66.5h-66q0 88 55.5 137.5t135.5 49.5q47 0 91 -22.5t72.5 -49.5t67.5 -49.5t78 -22.5q58 0 87.5 29.5t27.5 65.5zM1090 1065l-168 -1065h-121l37 227
q-72 -119 -178 -182t-234 -63q-80 0 -150 26.5t-125 77.5t-86.5 135t-31.5 191q0 179 67.5 329.5t196 243t291.5 92.5q130 0 218 -59t126 -172l35 219h123zM449 84q133 0 238 81t159.5 209t54.5 275q0 163 -85.5 244.5t-217.5 81.5q-102 0 -187.5 -46.5t-141.5 -124.5
t-86.5 -178.5t-30.5 -209.5q0 -165 83 -248.5t214 -83.5z" />
    <glyph glyph-name="g.ss03" horiz-adv-x="1046" 
d="M1018 971q-88 0 -133 -56q28 -58 28 -131q0 -180 -123.5 -295.5t-312.5 -115.5q-133 0 -219 59q-57 -4 -89 -32.5t-32 -65.5q0 -84 172 -84h142q83 0 155.5 -17.5t131.5 -52t93.5 -94t34.5 -137.5q0 -129 -73 -221.5t-188 -135.5t-257 -43q-82 0 -153 17t-129.5 51.5
t-92.5 94.5t-34 138q0 127 73.5 216t206.5 131q-81 5 -132.5 40.5t-51.5 96.5q0 56 44.5 97.5t121.5 51.5q-62 75 -62 185q0 180 122.5 294.5t313.5 114.5q177 0 269 -100q59 91 190 88zM481 467q148 0 238 87.5t90 225.5q0 95 -61.5 149t-176.5 54q-149 0 -237 -86
t-88 -227q0 -95 60.5 -149t174.5 -54zM438 156q-169 0 -276 -79.5t-107 -221.5q0 -108 84 -159.5t215 -51.5q180 0 288 78.5t108 222.5q0 108 -86 159.5t-226 51.5z" />
    <glyph glyph-name="l.ss04" horiz-adv-x="395" 
d="M219 -4q-109 -11 -155 29t-29 143l201 1266h120l-202 -1270q-6 -41 12 -59t70 -17z" />
    <glyph glyph-name="f_t" horiz-adv-x="1232" 
d="M995 965l-127 -799q-6 -42 11.5 -59t62.5 -17q69 0 141 16l-16 -100q-67 -20 -156 -20q-90 0 -133.5 41t-27.5 141l127 797h-531l-151 -965h-121l151 965h-155l14 100h158l20 133q13 80 42.5 135.5t72 83t86.5 38.5t98 11q81 0 156 -20l-17 -92q-58 12 -133 12
q-82 0 -125.5 -38t-58.5 -132l-21 -131h529l43 266h119l-43 -266h217l-15 -100h-217z" />
    <glyph glyph-name="r_t" horiz-adv-x="1232" 
d="M993 965l-127 -799q-6 -42 11.5 -59t62.5 -17q69 0 141 16l-16 -100q-67 -20 -156 -20q-90 0 -133.5 41t-27.5 141l126 797h-167l14 100h168l43 266h119l-43 -266h217l-15 -100h-217zM244 797q44 117 166.5 192.5t310.5 75.5l-16 -100q-194 -1 -310.5 -85.5
t-175.5 -240.5l-100 -639h-121l168 1065h121z" />
    <glyph glyph-name="zero.dnom" horiz-adv-x="575" 
d="M203 -4q110 0 187 91.5t77 238.5q0 97 -49 155t-133 58q-117 0 -187.5 -97.5t-70.5 -234.5q0 -98 45.5 -154.5t130.5 -56.5zM279 485q60 0 95.5 -41.5t35.5 -119.5q0 -123 -60.5 -199t-140.5 -76q-59 0 -92 41t-33 119q0 124 57.5 200t137.5 76z" />
    <glyph glyph-name="one.dnom" horiz-adv-x="350" 
d="M207 532l-84 -532h-55l71 455q-40 -56 -116 -47l6 53q35 -4 71 18.5t52 52.5h55z" />
    <glyph glyph-name="two.dnom" horiz-adv-x="522" 
d="M8 0q9 87 51 142.5t146 115.5q39 22 56 32.5t41.5 31t34 42t9.5 48.5q0 33 -26 54t-68 21q-106 0 -125 -108h-57q11 74 62 119t128 45q64 0 103.5 -34.5t39.5 -88.5q0 -70 -43.5 -113t-136.5 -94q-65 -35 -101.5 -78t-41.5 -82h274l-8 -53h-338z" />
    <glyph glyph-name="three.dnom" horiz-adv-x="548" 
d="M301 283q44 -7 75.5 -34.5t31.5 -76.5q0 -76 -61 -128t-161 -52q-90 0 -131.5 48.5t-29.5 125.5h55q-9 -57 21.5 -90t93.5 -33q68 0 111.5 36t43.5 93q0 84 -133 84h-22l8 45h22q62 0 98.5 34.5t36.5 80.5q0 35 -25.5 55.5t-70.5 20.5q-112 0 -139 -117h-53
q13 79 65.5 123.5t132.5 44.5q70 0 109 -33t39 -86t-34 -90.5t-83 -50.5z" />
    <glyph glyph-name="four.dnom" horiz-adv-x="528" 
d="M383 135h-61l-23 -135h-55l22 135h-246l7 47l303 353h55l-55 -353h61zM272 182l43 275l-233 -275h190z" />
    <glyph glyph-name="five.dnom" horiz-adv-x="491" 
d="M233 356q69 0 111 -49t29 -133q-12 -83 -71 -133.5t-144 -50.5q-82 0 -124.5 49t-31.5 125h55q-6 -49 21.5 -84t85.5 -35q61 0 101.5 35t49.5 94q11 69 -20.5 102t-79.5 33q-75 0 -133 -61h-57l90 287h272l-10 -54h-230l-57 -182q16 20 54 38.5t89 18.5z" />
    <glyph glyph-name="six.dnom" horiz-adv-x="542" 
d="M256 348q63 0 106.5 -34.5t43.5 -102.5q0 -99 -58 -160t-151 -61q-99 0 -139 74t-19 194q21 128 78 205.5t157 77.5q80 0 117 -44t33 -100h-53q-2 39 -26.5 65.5t-76.5 26.5q-36 0 -64.5 -16t-45.5 -36.5t-31 -55.5t-19.5 -56t-13.5 -55q24 31 66.5 54.5t95.5 23.5z
M201 43q68 0 107.5 47t39.5 115q0 46 -29 71t-75 25q-63 0 -108.5 -41t-45.5 -104q0 -52 30 -82.5t81 -30.5z" />
    <glyph glyph-name="seven.dnom" horiz-adv-x="458" 
d="M397 535l-10 -54l-287 -481h-59l289 481h-295l6 54h356z" />
    <glyph glyph-name="eight.dnom" horiz-adv-x="473" 
d="M285 289q77 -39 77 -115q0 -82 -59 -130t-153 -48q-71 0 -115.5 35.5t-44.5 97.5q0 56 33.5 97.5t87.5 64.5q-52 39 -52 96q0 61 48 106.5t129 45.5q64 0 100.5 -33t36.5 -80q0 -82 -88 -137zM109 389q0 -34 28 -57t66 -23q47 0 83 32t36 77q0 74 -95 74q-53 0 -85.5 -31
t-32.5 -72zM154 45q68 0 111.5 33t43.5 94q0 43 -31 66.5t-85 23.5q-59 0 -103.5 -34t-44.5 -93q0 -43 29 -66.5t80 -23.5z" />
    <glyph glyph-name="nine.dnom" horiz-adv-x="542" 
d="M201 182q-63 0 -106.5 34.5t-43.5 102.5q0 99 58.5 160.5t150.5 61.5q99 0 139 -74.5t19 -194.5q-21 -127 -78 -204.5t-158 -77.5q-79 0 -116 44t-33 99h55q4 -92 102 -92q43 0 75.5 21t52 60t29 67.5t18.5 70.5q-24 -31 -67.5 -54.5t-96.5 -23.5zM258 487
q-69 0 -109 -46.5t-40 -114.5q0 -46 30 -71.5t76 -25.5q62 0 107 41.5t45 104.5q0 52 -29.5 82t-79.5 30z" />
    <glyph glyph-name="zero.numr" horiz-adv-x="573" 
d="M344 897q110 0 187 91.5t77 238.5q0 97 -49 155t-133 58q-117 0 -187.5 -97.5t-70.5 -234.5q0 -98 45.5 -154.5t130.5 -56.5zM420 1386q60 0 95.5 -41.5t35.5 -119.5q0 -123 -60.5 -199t-140.5 -76q-59 0 -92 41t-33 119q0 124 57.5 200t137.5 76z" />
    <glyph glyph-name="one.numr" horiz-adv-x="350" 
d="M350 1434l-84 -533h-55l72 455q-40 -56 -117 -47l6 53q35 -4 71 19t52 53h55z" />
    <glyph glyph-name="two.numr" horiz-adv-x="522" 
d="M152 901q9 87 51 143t145 115q39 22 56 32.5t41.5 31t34 42t9.5 48.5q0 33 -26 54.5t-68 21.5q-51 0 -83.5 -28.5t-41.5 -80.5h-57q11 74 62 119t128 45q64 0 104 -34.5t40 -88.5q0 -70 -43.5 -113t-136.5 -94q-65 -35 -102 -78t-42 -82h275l-9 -53h-337z" />
    <glyph glyph-name="three.numr" horiz-adv-x="546" 
d="M442 1184q44 -7 75.5 -34.5t31.5 -76.5q0 -76 -60.5 -128t-160.5 -52q-90 0 -132 48.5t-30 125.5h55q-9 -57 21.5 -90t93.5 -33q68 0 112 36t44 93q0 42 -36 63t-98 21h-22l8 45h23q62 0 98.5 34.5t36.5 80.5q0 35 -25.5 55.5t-70.5 20.5q-113 0 -140 -117h-53
q13 79 66 123.5t133 44.5q70 0 108.5 -33t38.5 -86t-34 -90.5t-83 -50.5z" />
    <glyph glyph-name="four.numr" horiz-adv-x="528" 
d="M526 1036h-61l-23 -135h-55l23 135h-246l6 47l303 353h55l-55 -353h62zM416 1083l43 275l-234 -275h191z" />
    <glyph glyph-name="five.numr" horiz-adv-x="491" 
d="M377 1257q68 0 110 -49t29 -133q-12 -83 -71 -133.5t-144 -50.5q-82 0 -124.5 49t-31.5 125h56q-6 -49 21 -84t85 -35q61 0 102 35t50 94q11 69 -21 102t-80 33q-75 0 -133 -61h-57l90 287h272l-10 -54h-229l-58 -182q16 20 54.5 38.5t89.5 18.5z" />
    <glyph glyph-name="six.numr" horiz-adv-x="542" 
d="M399 1247q63 0 106.5 -34.5t43.5 -102.5q0 -99 -58 -160t-151 -61q-99 0 -139 74t-19 194q21 127 78.5 205t157.5 78q80 0 116.5 -44t32.5 -100h-53q-2 39 -26 66t-76 27q-36 0 -64.5 -16t-45.5 -36.5t-31 -55.5t-19.5 -56t-13.5 -56q24 31 66 54.5t95 23.5zM344 942
q68 0 108 47t40 115q0 46 -29.5 71t-75.5 25q-63 0 -108.5 -41t-45.5 -104q0 -52 30 -82.5t81 -30.5z" />
    <glyph glyph-name="seven.numr" horiz-adv-x="458" 
d="M541 1436l-11 -54l-286 -481h-60l289 481h-295l6 54h357z" />
    <glyph glyph-name="eight.numr" horiz-adv-x="473" 
d="M428 1190q78 -40 78 -115q0 -82 -59.5 -130t-153.5 -48q-71 0 -115.5 35.5t-44.5 97.5q0 56 33.5 97.5t87.5 64.5q-51 39 -51 96q0 61 47.5 106.5t128.5 45.5q64 0 100.5 -33t36.5 -80q0 -82 -88 -137zM252 1290q0 -34 28 -57t66 -23q47 0 83 32t36 77q0 74 -94 74
q-53 0 -86 -31t-33 -72zM297 946q68 0 112 33t44 94q0 43 -31.5 66.5t-85.5 23.5q-59 0 -103.5 -34t-44.5 -93q0 -43 29 -66.5t80 -23.5z" />
    <glyph glyph-name="nine.numr" horiz-adv-x="542" 
d="M344 1083q-62 0 -105.5 35t-43.5 103q0 99 58.5 160t149.5 61q99 0 139 -74t19 -194q-21 -128 -78 -205.5t-157 -77.5q-79 0 -116.5 44t-33.5 99h55q2 -39 25.5 -65.5t77.5 -26.5q35 0 63.5 16t45.5 36.5t31.5 55t20.5 56.5t13 55q-24 -31 -67.5 -54.5t-96.5 -23.5z
M401 1389q-69 0 -109 -47t-40 -115q0 -46 30 -71.5t76 -25.5q62 0 107 41.5t45 104.5q0 52 -29.5 82.5t-79.5 30.5z" />
    <glyph glyph-name="Aacutecy" horiz-adv-x="1361" 
d="M1135 1821l-261 -262h-100l193 262h168zM1079 0l-92 397h-674l-217 -397h-139l799 1434h112l349 -1434h-138zM369 498h596l-177 766z" />
    <glyph glyph-name="Ieacutecy" horiz-adv-x="1101" 
d="M674 1559h100l260 262h-168zM1135 1321h-781l-84 -528h678l-18 -105h-676l-92 -575h801l-19 -113h-926l228 1434h905z" />
    <glyph glyph-name="Iiacutecy" horiz-adv-x="1327" 
d="M766 1559h100l260 262h-168zM246 1434h125l-197 -1248h2l1014 1248h147l-227 -1434h-125l197 1245h-4l-1012 -1245h-148z" />
    <glyph glyph-name="Oacutecy" horiz-adv-x="1431" 
d="M829 1559h101l260 262h-168zM842 1452q244 0 388 -142.5t144 -406.5q0 -123 -23.5 -239t-67.5 -218.5t-111 -187.5t-151 -146.5t-190 -95.5t-225 -34q-244 0 -388 141.5t-144 404.5q0 148 32.5 285t98 253t156.5 202.5t214.5 135t266.5 48.5zM621 96q147 0 267.5 67.5
t196.5 180.5t117 254.5t41 296.5q0 218 -111 330t-307 112q-99 0 -186.5 -31t-155 -86.5t-120.5 -130.5t-87.5 -164.5t-52.5 -188t-18 -201.5q0 -215 110.5 -327t305.5 -112z" />
    <glyph glyph-name="Uacutecy" horiz-adv-x="1130" 
d="M674 1559h100l260 262h-168zM1055 1434h137l-666 -1170q-94 -164 -201 -228.5t-245 -47.5l18 116q104 -13 178 33t130 150q28 53 37.5 86.5t2.5 66.5l-262 994h135l232 -908z" />
    <glyph glyph-name="Yeruacutecy" horiz-adv-x="1525" 
d="M870 1559h101l260 262h-168zM653 899q215 0 328 -94t113 -266q0 -250 -156 -394.5t-420 -144.5h-500l228 1434h125l-84 -535h366zM1309 0h-125l225 1434h125zM535 115q199 0 313.5 113t114.5 302q0 254 -316 254h-379l-106 -669h373z" />
    <glyph glyph-name="Ereversedacutecy" horiz-adv-x="1368" 
d="M1153 1821l-260 -262h-100l192 262h168zM782 1452q240 0 384.5 -142.5t144.5 -412.5q0 -145 -31.5 -280t-95 -250t-152.5 -201t-210.5 -135t-262.5 -49q-207 0 -338.5 94.5t-150.5 257.5h125q27 -114 119.5 -177t248.5 -63q122 0 225.5 47t177.5 129.5t124 188.5t73 229
h-559l19 105h555q4 70 4 104q0 217 -109.5 329.5t-294.5 112.5q-159 0 -274 -64.5t-176 -174.5h-131q71 169 225.5 260.5t359.5 91.5z" />
    <glyph glyph-name="Iuacutecy" horiz-adv-x="1822" 
d="M1378 1821l-260 -262h-100l192 262h168zM1233 1452q244 0 388 -142.5t144 -406.5q0 -123 -23.5 -239t-67.5 -218.5t-111 -187.5t-151 -146.5t-190 -95.5t-225 -34q-244 0 -388 141.5t-144 404.5q0 58 6 117h-223l-103 -645h-125l226 1434h125l-107 -682h221
q27 148 90 274.5t156 222t222 149.5t280 54zM1012 96q147 0 267.5 67.5t196.5 180.5t117 254.5t41 296.5q0 218 -111 330t-306 112q-118 0 -220 -44t-174.5 -120.5t-124.5 -178.5t-77 -219t-25 -240q0 -215 110.5 -327t305.5 -112z" />
    <glyph glyph-name="Iaacutecy" horiz-adv-x="1243" 
d="M1090 1821l-261 -262h-100l193 262h168zM1253 1434l-227 -1434h-127l96 606h-481q-57 0 -106.5 -12t-95.5 -38.5t-77.5 -76.5t-41.5 -119l-19 -124q-24 -182 -78 -236h-129q57 57 84 244l19 125q17 127 86.5 201t197.5 100q-93 39 -141.5 119t-48.5 190
q0 214 146.5 334.5t391.5 120.5h551zM553 711h459l96 612h-414q-193 0 -300 -93.5t-107 -258.5q0 -124 73.5 -192t192.5 -68z" />
    <glyph glyph-name="aacutecy" horiz-adv-x="1110" 
d="M936 1452l-260 -262h-101l193 262h168zM967 692l-86 -540q-6 -42 11.5 -57.5t65.5 -12.5l-14 -82q-27 -8 -57 -8q-73 0 -103.5 36t-15.5 117l14 80q-19 -31 -53 -67t-89 -77t-137 -68t-173 -27q-142 0 -226 71.5t-84 198.5q0 82 29.5 143t87 100t129.5 62t170 37
q6 1 48.5 7t56.5 8t54 8t59.5 10t53 10t54 11.5t43.5 12t39 13.5l4 20q26 153 -31.5 217t-212.5 64q-135 0 -207.5 -44.5t-103.5 -129.5h-117q43 140 148.5 205t287.5 65q210 0 298.5 -91.5t56.5 -291.5zM788 340l43 256q-15 -6 -35 -12t-48.5 -12.5t-52 -11.5t-64 -12
t-63 -11t-71 -12t-67.5 -11q-150 -24 -219.5 -80t-69.5 -168q0 -88 57.5 -138t157.5 -50q87 0 166.5 30.5t132.5 76t85.5 85t47.5 70.5z" />
    <glyph glyph-name="ieacutecy" horiz-adv-x="1085" 
d="M952 1452l-260 -262h-100l192 262h168zM993 479h-843q-3 -30 -3 -61q0 -171 87 -253.5t235 -82.5q109 0 182 30t140 103h124q-89 -124 -196.5 -176.5t-259.5 -52.5q-191 0 -308.5 111.5t-117.5 320.5q0 180 72.5 330t206 238.5t300.5 88.5q115 0 204.5 -46t143.5 -142.5
t54 -231.5q0 -33 -7 -91t-14 -85zM604 979q-87 0 -162 -32.5t-130 -89.5t-92.5 -130.5t-55.5 -159.5h727q10 41 10 99q0 149 -82.5 231t-214.5 82z" />
    <glyph glyph-name="iiacutecy" horiz-adv-x="1130" 
d="M612 1190h101l260 262h-168zM166 1065h121l-146 -911h4l805 911h142l-168 -1065h-121l143 911h-4l-799 -911h-145z" />
    <glyph glyph-name="oacutecy" horiz-adv-x="1099" 
d="M578 1190h100l260 262h-168zM610 1075q66 0 126.5 -17t113.5 -52.5t92 -86.5t61.5 -123.5t22.5 -158.5q0 -129 -43 -248t-118 -208t-183 -142t-231 -53q-83 0 -157 27t-133 79.5t-93.5 137t-34.5 190.5q0 129 43.5 249t118.5 209.5t183.5 143t231.5 53.5zM909 639
q0 163 -87.5 248.5t-217.5 85.5q-133 0 -238 -78.5t-159.5 -203.5t-54.5 -269q0 -82 24.5 -147.5t67 -105.5t96.5 -60.5t115 -20.5q101 0 188 46.5t144.5 123t89.5 176t32 205.5z" />
    <glyph glyph-name="uacutecy" horiz-adv-x="1030" 
d="M563 1190h101l260 262h-168zM936 1065h127l-653 -1174q-91 -163 -197 -226.5t-242 -43.5l19 105q194 -28 315 190q27 51 35 75t4 46l-250 1028h121l213 -934z" />
    <glyph glyph-name="yeruacutecy" horiz-adv-x="1335" 
d="M715 1190h100l260 262h-168zM551 668q183 0 282 -74t99 -207q0 -186 -132 -286.5t-349 -100.5h-443l168 1065h121l-64 -397h318zM1176 1065h120l-168 -1065h-120zM463 100q167 0 259.5 72.5t92.5 206.5q0 91 -63 139.5t-207 48.5h-328l-72 -467h318z" />
    <glyph glyph-name="ereversedacutecy" horiz-adv-x="1040" 
d="M930 1452l-260 -262h-101l193 262h168zM547 1075q68 0 130 -16.5t115 -51t92 -84.5t61 -122t22 -158q0 -133 -42.5 -253t-117 -209.5t-183.5 -142t-235 -52.5q-337 0 -385 317h113q23 -113 89 -164t187 -51q88 0 164.5 34t131.5 92.5t92.5 133.5t54.5 160h-404l12 84h404
q2 16 2 49q0 164 -86.5 248t-220.5 84q-124 0 -207 -52t-139 -161h-119q136 315 469 315z" />
    <glyph glyph-name="iuacutecy" horiz-adv-x="1427" 
d="M1122 1452l-260 -262h-100l192 262h168zM938 1075q66 0 126.5 -17t113.5 -52.5t92 -86.5t61.5 -123.5t22.5 -158.5q0 -173 -73 -322t-206 -239t-297 -90q-83 0 -157 27t-133 79.5t-93.5 137t-34.5 190.5q0 41 2 61h-157l-76 -483h-121l168 1065h121l-76 -483h156
q47 213 200.5 354t360.5 141zM782 88q135 0 240.5 79t160 204t54.5 268q0 163 -87.5 248.5t-217.5 85.5q-100 0 -186.5 -46t-144 -122.5t-90 -176t-32.5 -206.5q0 -82 24.5 -147.5t67 -105.5t96.5 -60.5t115 -20.5z" />
    <glyph glyph-name="iaacutecy" horiz-adv-x="1060" 
d="M938 1452l-260 -262h-100l192 262h168zM580 1065h442l-168 -1065h-121l64 397h-400q-102 0 -148.5 -33t-60.5 -110l-16 -96q-14 -75 -25 -108t-30 -50h-121q19 17 30 50t25 108l17 96q13 76 49.5 124t113.5 71q-133 73 -133 229q0 185 132.5 286t349.5 101zM813 498
l72 467h-318q-167 0 -259.5 -72.5t-92.5 -206.5q0 -91 63 -139.5t207 -48.5h328z" />
    </font>
</defs>
</svg>
