<?xml version="1.0" standalone="no"?>
<!DOCTYPE svg PUBLIC "-//W3C//DTD SVG 1.1//EN" "http://www.w3.org/Graphics/SVG/1.1/DTD/svg11.dtd" >
<svg xmlns="http://www.w3.org/2000/svg" xmlns:xlink="http://www.w3.org/1999/xlink" version="1.1">
<metadata>
Created by FontForge 20170731 at Mon Aug  7 16:11:20 2023
 By Aleksey,,,
(c) 2018 Connary Fagen
</metadata>
<defs>
<font id="ArticulatCF-Medium" horiz-adv-x="1179" >
  <font-face 
    font-family="Articulat CF Medium"
    font-weight="500"
    font-stretch="normal"
    units-per-em="2048"
    panose-1="0 0 6 0 0 0 0 0 0 0"
    ascent="1638"
    descent="-410"
    x-height="1065"
    cap-height="1434"
    bbox="-346 -635 2154 1925"
    underline-thickness="102"
    underline-position="-307"
    unicode-range="U+0020-FB02"
  />
<missing-glyph horiz-adv-x="1044" 
d="M856 1638v-2089h-661v2089h661zM696 1499h-346v-69h137v-78h-139v-68h348v68h-139v78h139v69zM557 1229h-209v-217h348v71h-139v146zM487 1157v-74h-69v74h69zM696 954h-348v-67h139v-78h-139v-70h209v148h139v67zM696 829h-69v-137h-279v-71h348v208zM696 575h-209v-116
h70v47h70v-98h-209v167h-70v-235h348v235zM696 213h-348v-236h348v236zM627 145v-98h-209v98h209zM696 -70h-348v-69h148l-148 -99v-69h348v69h-213l146 99h67v69z" />
    <glyph glyph-name="fi" unicode="fi" horiz-adv-x="1105" 
d="M190 1155q0 80 19 139t47 91.5t71 51.5t80 24t85 5q89 0 157 -22v-154q-72 15 -112 15q-75 0 -107.5 -35.5t-32.5 -118.5v-86h242v-164h-242v-901h-207v901h-149v164h149v90zM784 1452h207v-176h-207v176zM784 0v1065h207v-1065h-207z" />
    <glyph glyph-name="fl" unicode="fl" horiz-adv-x="1105" 
d="M190 1155q0 80 19 139t47 91.5t71 51.5t80 24t85 5q89 0 157 -22v-154q-72 15 -112 15q-75 0 -107.5 -35.5t-32.5 -118.5v-86h242v-164h-242v-901h-207v901h-149v164h149v90zM784 1446h207v-1446h-207v1446z" />
    <glyph glyph-name=".notdef" horiz-adv-x="1044" 
d="M856 1638v-2089h-661v2089h661zM696 1499h-346v-69h137v-78h-139v-68h348v68h-139v78h139v69zM557 1229h-209v-217h348v71h-139v146zM487 1157v-74h-69v74h69zM696 954h-348v-67h139v-78h-139v-70h209v148h139v67zM696 829h-69v-137h-279v-71h348v208zM696 575h-209v-116
h70v47h70v-98h-209v167h-70v-235h348v235zM696 213h-348v-236h348v236zM627 145v-98h-209v98h209zM696 -70h-348v-69h148l-148 -99v-69h348v69h-213l146 99h67v69z" />
    <glyph glyph-name=".null" horiz-adv-x="0" 
 />
    <glyph glyph-name="nonmarkingreturn" horiz-adv-x="682" 
 />
    <glyph glyph-name="space" unicode=" " horiz-adv-x="555" 
 />
    <glyph glyph-name="exclam" unicode="!" horiz-adv-x="464" 
d="M332 426h-199l-6 1008h211zM115 250h235v-250h-235v250z" />
    <glyph glyph-name="quotedbl" unicode="&#x22;" horiz-adv-x="718" 
d="M82 901h197v533h-197v-533zM440 901h197v533h-197v-533z" />
    <glyph glyph-name="numbersign" unicode="#" horiz-adv-x="1218" 
d="M1126 891h-213l-34 -348h196v-164h-213l-39 -379h-157l39 379h-259l-38 -379h-158l39 379h-197v164h213l35 348h-195v164h211l37 379h158l-37 -379h258l37 379h158l-37 -379h196v-164zM721 543l35 348h-258l-35 -348h258z" />
    <glyph glyph-name="dollar" unicode="$" horiz-adv-x="1230" 
d="M1147 399q0 -185 -130.5 -294.5t-350.5 -120.5v-168h-95v168q-220 12 -346 131.5t-141 318.5h215q42 -245 272 -268v489l-75 15q-89 18 -156.5 48t-119 75.5t-78.5 112t-27 151.5q0 168 120.5 277t335.5 118v166h95v-168q195 -15 310 -119t134 -278h-215
q-13 87 -70 144.5t-159 70.5v-453l61 -12q216 -45 318 -137t102 -267zM532 844l39 -8v436q-63 -4 -111 -25.5t-76 -53t-42 -68t-14 -74.5q0 -165 204 -207zM666 166q127 10 196.5 74t69.5 159q0 102 -62 154.5t-182 77.5l-22 4v-469z" />
    <glyph glyph-name="percent" unicode="%" horiz-adv-x="1495" 
d="M365 801q-121 0 -197 84t-76 237q0 154 76 238t197 84t197.5 -84.5t76.5 -237.5t-76.5 -237t-197.5 -84zM248 0l844 1438l153 -4l-839 -1434h-158zM365 936q127 0 127 186q0 185 -127 185t-127 -185q0 -186 127 -186zM1128 -10q-121 0 -196.5 83.5t-75.5 237.5
q0 153 76 237.5t196 84.5q121 0 198 -84.5t77 -237.5t-76.5 -237t-198.5 -84zM1128 127q129 0 129 184q0 187 -129 187q-58 0 -92.5 -45t-34.5 -142q0 -184 127 -184z" />
    <glyph glyph-name="ampersand" unicode="&#x26;" horiz-adv-x="1423" 
d="M1360 0h-232l-118 131q-170 -156 -414 -156q-222 0 -367 115t-145 299q0 74 25 135.5t75.5 111t100 83t125.5 76.5q-83 94 -128.5 177t-45.5 169q0 140 90.5 230.5t271.5 90.5q172 0 263 -91t91 -228q0 -116 -64 -201.5t-222 -177.5l323 -356q76 143 82 335h189
q-20 -289 -140 -479zM598 1307q-89 0 -139.5 -47t-50.5 -125q0 -56 36.5 -112.5t116.5 -145.5q121 67 169 127t48 133q0 76 -48.5 123t-131.5 47zM598 156q162 0 285 114l-369 408q-209 -124 -209 -283q0 -104 82 -171.5t211 -67.5z" />
    <glyph glyph-name="quotesingle" unicode="'" horiz-adv-x="360" 
d="M82 901h197v533h-197v-533z" />
    <glyph glyph-name="parenleft" unicode="(" horiz-adv-x="595" 
d="M309 1526h197q-207 -377 -207 -871q0 -523 207 -921h-197q-217 388 -217 921q0 507 217 871z" />
    <glyph glyph-name="parenright" unicode=")" horiz-adv-x="595" 
d="M289 1526q217 -364 217 -871q0 -533 -217 -921h-197q207 398 207 921q0 494 -207 871h197z" />
    <glyph glyph-name="asterisk" unicode="*" horiz-adv-x="1003" 
d="M850 1143l-215 -58l143 -190l-147 -92l-129 182l-129 -182l-150 92l144 190l-213 58l41 172l225 -68l-6 236h172l-2 -236l223 68zM483 1133l19 -15l16 15l-2 8h-29z" />
    <glyph glyph-name="plus" unicode="+" horiz-adv-x="1107" 
d="M1016 668v-181h-367v-366h-192v366h-365v181h365v366h192v-366h367z" />
    <glyph glyph-name="comma" unicode="," horiz-adv-x="440" 
d="M102 -311v67q95 34 95 181v63h-95v250h236v-281q0 -85 -19.5 -142.5t-55.5 -86t-74 -39.5t-87 -12z" />
    <glyph glyph-name="hyphen" unicode="-" horiz-adv-x="749" 
d="M82 649h586v-157h-586v157z" />
    <glyph glyph-name="period" unicode="." horiz-adv-x="440" 
d="M102 250h236v-250h-236v250z" />
    <glyph glyph-name="slash" unicode="/" horiz-adv-x="886" 
d="M825 1434l-557 -1432h-207l557 1432h207z" />
    <glyph glyph-name="zero" unicode="0" horiz-adv-x="1296" 
d="M647 1452q116 0 216 -44.5t179 -131.5t124.5 -231t45.5 -328q0 -149 -30 -272t-82 -207.5t-124 -143t-154.5 -85.5t-174.5 -27q-115 0 -214.5 44t-178.5 131t-124.5 231t-45.5 329q0 184 45.5 328t124.5 231t178.5 131.5t214.5 44.5zM1006 717q0 166 -39 289.5
t-121 195.5t-199 72q-174 0 -265 -151.5t-91 -405.5q0 -166 38.5 -289t119.5 -194.5t198 -71.5t199 71.5t121 194.5t39 289z" />
    <glyph glyph-name="one" unicode="1" horiz-adv-x="702" 
d="M557 1434v-1434h-207v1167q-44 -51 -117 -81t-159 -31v172q105 9 178 64t98 143h207z" />
    <glyph glyph-name="two" unicode="2" horiz-adv-x="1132" 
d="M82 0v43q0 206 89.5 342t326.5 281q14 8 52 31t51.5 31.5t45 29.5t44 31.5t37 31t34.5 35t26 36.5t22 42t11.5 45.5t5.5 52.5q0 115 -75.5 178.5t-188.5 63.5q-55 0 -102 -16t-85 -48.5t-59.5 -88t-21.5 -128.5v-28h-201v28q0 207 121.5 331t347.5 124q112 0 202.5 -32.5
t148.5 -89.5t89 -132t31 -162q0 -52 -10.5 -97t-29.5 -82t-45 -70t-59 -61t-71 -55t-80.5 -52.5l-87.5 -52.5q-28 -16 -43 -25q-152 -91 -227.5 -172.5t-75.5 -182.5v-12h735v-170h-958z" />
    <glyph glyph-name="three" unicode="3" horiz-adv-x="1204" 
d="M805 770q54 -8 107 -32.5t101.5 -66.5t78.5 -110t30 -151q0 -195 -141.5 -315t-386.5 -120q-244 0 -383 135t-139 357h194q4 -150 95.5 -230.5t232.5 -80.5q86 0 157 27.5t117.5 89t46.5 147.5q0 120 -92 193t-266 73h-57v143h57q82 0 142 21.5t91 57t44.5 73.5t13.5 80
q0 98 -73.5 155.5t-186.5 57.5q-56 0 -104 -16t-87 -49.5t-61 -91.5t-23 -134h-194q0 224 125 346.5t342 122.5q208 0 335.5 -108t127.5 -265q0 -119 -69 -199t-175 -110z" />
    <glyph glyph-name="four" unicode="4" horiz-adv-x="1163" 
d="M1092 367h-164v-367h-207v367h-649v168l649 899h207v-899h164v-168zM721 535v643l-463 -643h463z" />
    <glyph glyph-name="five" unicode="5" horiz-adv-x="1193" 
d="M647 979q131 0 237.5 -58t171 -172.5t64.5 -265.5q0 -236 -141.5 -369.5t-382.5 -133.5q-232 0 -368 129t-136 331h189q4 -137 93 -215t222 -78q63 0 118.5 19t101.5 57.5t72.5 105.5t26.5 154q0 85 -28.5 152t-74.5 105t-98.5 57.5t-107.5 19.5q-177 0 -287 -145h-192
l111 762h755v-166h-614l-64 -428q39 52 125.5 95.5t206.5 43.5z" />
    <glyph glyph-name="six" unicode="6" horiz-adv-x="1202" 
d="M659 946q83 0 162 -28.5t146.5 -83t109 -147.5t41.5 -210q0 -124 -42.5 -221t-114 -155.5t-159.5 -88.5t-186 -30q-117 0 -211.5 42.5t-164.5 128t-108 223.5t-38 320q0 128 16.5 237t56 206.5t99.5 165.5t152 107.5t209 39.5q110 0 198 -33.5t140.5 -88.5t81.5 -119.5
t34 -133.5h-182q-17 98 -90.5 156.5t-179.5 58.5q-84 0 -147.5 -35.5t-99.5 -89.5t-58 -130.5t-29 -145t-6 -146.5q29 83 126.5 142t243.5 59zM618 152q130 0 215 85t85 242q0 154 -87 238t-213 84q-78 0 -145.5 -33.5t-111.5 -103t-44 -162.5q0 -165 87.5 -257.5
t213.5 -92.5z" />
    <glyph glyph-name="seven" unicode="7" horiz-adv-x="1011" 
d="M940 1434v-172q-407 -630 -489 -1262h-213q97 646 510 1262h-687v172h879z" />
    <glyph glyph-name="eight" unicode="8" horiz-adv-x="1187" 
d="M844 805q127 -49 199.5 -145t72.5 -230q0 -106 -41 -192t-112.5 -142t-166 -86t-202.5 -30t-202 30t-165 86t-112 142t-41 192q0 135 71.5 230.5t198.5 144.5q-87 47 -134.5 123t-47.5 168q0 152 115.5 252t316.5 100t316.5 -100t115.5 -252q0 -92 -47.5 -168
t-134.5 -123zM594 1303q-118 0 -184 -60.5t-66 -157.5q0 -99 67 -162t183 -63t183 63t67 162q0 97 -66 157.5t-184 60.5zM594 150q147 0 230 79.5t83 208.5q0 134 -86.5 210.5t-226.5 76.5t-226.5 -76.5t-86.5 -210.5q0 -129 83.5 -208.5t229.5 -79.5z" />
    <glyph glyph-name="nine" unicode="9" horiz-adv-x="1191" 
d="M532 487q-66 0 -129.5 17t-123.5 54.5t-105 91t-72.5 133t-27.5 173.5q0 124 42.5 221t114 156t160 89t187.5 30q239 0 379.5 -178.5t140.5 -536.5q0 -128 -16.5 -237t-56 -206t-99.5 -165t-152 -107.5t-209 -39.5q-89 0 -163.5 22t-125.5 58.5t-87.5 85.5t-55 101
t-22.5 107h182q17 -98 91 -156.5t179 -58.5q71 0 127.5 24t92.5 67t61 95t37.5 117t17.5 122.5t4 121.5q-29 -83 -127 -142t-244 -59zM573 1282q-130 0 -214.5 -85t-84.5 -243q0 -154 86.5 -237.5t214.5 -83.5q121 0 211.5 81t90.5 218q0 165 -89 257.5t-215 92.5z" />
    <glyph glyph-name="colon" unicode=":" horiz-adv-x="522" 
d="M143 1065h236v-250h-236v250zM143 250h236v-250h-236v250z" />
    <glyph glyph-name="semicolon" unicode=";" horiz-adv-x="522" 
d="M143 1065h236v-250h-236v250zM143 -311v67q95 34 95 181v63h-95v250h236v-281q0 -85 -19.5 -142.5t-55.5 -86t-74 -39.5t-87 -12z" />
    <glyph glyph-name="less" unicode="&#x3c;" horiz-adv-x="1038" 
d="M946 197l-667 297l667 297v196l-854 -399v-189l854 -399v197z" />
    <glyph glyph-name="equal" unicode="=" horiz-adv-x="952" 
d="M80 813h635v-158h-635v158zM80 485h635v-157h-635v157z" />
    <glyph glyph-name="greater" unicode="&#x3e;" horiz-adv-x="1038" 
d="M92 197v-197l854 399v189l-854 399v-196l668 -297z" />
    <glyph glyph-name="question" unicode="?" horiz-adv-x="1099" 
d="M559 1448q-101 0 -185 -28.5t-148.5 -84.5t-99.5 -147.5t-34 -210.5h207q0 139 67.5 216t192.5 77q116 0 179 -60t63 -159q0 -46 -19 -83.5t-49 -65.5t-66.5 -55t-73 -59t-66.5 -69.5t-49 -94t-19 -126.5v-76h219v76q0 56 18 100.5t47.5 74.5t64.5 57.5t70 56.5
t64.5 62.5t47.5 85t18 116.5q0 187 -125 292t-324 105zM451 250h235v-250h-235v250z" />
    <glyph glyph-name="at" unicode="@" horiz-adv-x="1572" 
d="M958 1047h140v-392q0 -84 30.5 -129t88.5 -45q64 0 97.5 66t33.5 174q0 129 -44 239.5t-120.5 186t-179.5 118t-220 42.5q-111 0 -211 -40t-178 -114t-124 -189t-46 -255q0 -133 47 -244.5t125 -184t178.5 -113t208.5 -40.5q200 0 330 111l164 -45q-86 -98 -214.5 -152.5
t-279.5 -54.5q-135 0 -260.5 50.5t-223.5 141.5t-157 229.5t-59 301.5q0 136 38.5 255t105 206.5t155 151t191 95t210.5 31.5q139 0 267 -53.5t225 -146.5t155 -231t58 -296q0 -178 -80 -277.5t-195 -99.5q-98 0 -151 53t-68 133q-20 -77 -90 -132.5t-162 -55.5
q-56 0 -109.5 21.5t-100 64t-75 115t-28.5 164.5q0 90 28.5 161t74.5 112.5t99.5 63t108.5 21.5q72 0 136 -43.5t81 -103.5v129zM758 479q83 0 134.5 66t51.5 162q0 94 -51.5 156.5t-134.5 62.5q-78 0 -130.5 -62.5t-52.5 -156.5q0 -97 52.5 -162.5t130.5 -65.5z" />
    <glyph glyph-name="A" unicode="A" horiz-adv-x="1427" 
d="M1141 0l-125 336h-606l-123 -336h-234l565 1434h191l565 -1434h-233zM469 498h487l-243 661z" />
    <glyph glyph-name="B" unicode="B" horiz-adv-x="1304" 
d="M913 786q140 -38 218.5 -137t78.5 -235q0 -197 -132 -305.5t-396 -108.5h-567v1434h555q223 0 335.5 -97t112.5 -262q0 -102 -54.5 -178.5t-150.5 -110.5zM330 1253v-403h346q102 0 159.5 58.5t57.5 152.5q0 89 -56.5 140.5t-162.5 51.5h-344zM680 182q155 0 227 65
t72 175q0 113 -74.5 185.5t-226.5 72.5h-348v-498h350z" />
    <glyph glyph-name="C" unicode="C" horiz-adv-x="1353" 
d="M729 170q263 0 346 225h217q-34 -197 -189.5 -305t-377.5 -108q-141 0 -258 47t-202.5 138t-133 231.5t-47.5 318.5t47.5 318.5t133 231.5t202.5 138t258 47q144 0 262 -46.5t198 -140.5t103 -225h-217q-84 224 -342 224q-194 0 -307 -141.5t-113 -405.5
q0 -262 113 -404.5t307 -142.5z" />
    <glyph glyph-name="D" unicode="D" horiz-adv-x="1366" 
d="M598 1434q343 0 518.5 -185t175.5 -532t-175.5 -532t-518.5 -185h-483v1434h483zM580 188q261 0 379 128t118 401q0 274 -117.5 401t-379.5 127h-250v-1057h250z" />
    <glyph glyph-name="E" unicode="E" horiz-adv-x="1150" 
d="M330 188h760v-188h-975v1434h954v-189h-739v-424h637v-176h-637v-457z" />
    <glyph glyph-name="F" unicode="F" horiz-adv-x="1097" 
d="M1036 1245h-706v-444h581v-176h-581v-625h-215v1434h921v-189z" />
    <glyph glyph-name="G" unicode="G" horiz-adv-x="1427" 
d="M1333 752v-88q0 -682 -598 -682q-145 0 -264 47t-205.5 138t-134 231t-47.5 319q0 178 47.5 318.5t133 231.5t202 138t258.5 47q211 0 360 -101t191 -284h-217q-88 197 -330 197q-194 0 -307 -141.5t-113 -405.5q0 -262 113.5 -404.5t312.5 -142.5q388 0 402 410h-346
v172h542z" />
    <glyph glyph-name="H" unicode="H" horiz-adv-x="1347" 
d="M1018 1434h215v-1434h-215v618h-688v-618h-215v1434h215v-639h688v639z" />
    <glyph glyph-name="I" unicode="I" horiz-adv-x="444" 
d="M330 0h-215v1434h215v-1434z" />
    <glyph glyph-name="J" unicode="J" horiz-adv-x="1040" 
d="M158 305q110 -131 291 -131q56 0 102 15.5t85.5 50.5t62 101t22.5 159v934h217v-942q0 -108 -26 -194t-71 -143.5t-107.5 -96t-132.5 -55.5t-150 -17q-135 0 -238 50.5t-170 133.5z" />
    <glyph glyph-name="K" unicode="K" horiz-adv-x="1353" 
d="M1069 0l-528 627l-211 -236v-391h-215v1434h215v-752l678 752h249l-583 -656l639 -778h-244z" />
    <glyph glyph-name="L" unicode="L" horiz-adv-x="1099" 
d="M330 188h708v-188h-923v1434h215v-1246z" />
    <glyph glyph-name="M" unicode="M" horiz-adv-x="1710" 
d="M115 1434h243l498 -1153l496 1153h245v-1434h-217v1051h-8l-432 -1051h-168l-434 1051h-8v-1051h-215v1434z" />
    <glyph glyph-name="N" unicode="N" horiz-adv-x="1378" 
d="M1264 1434v-1434h-236l-692 1085h-6v-1085h-215v1434h227l698 -1096h7v1096h217z" />
    <glyph glyph-name="O" unicode="O" horiz-adv-x="1480" 
d="M739 1452q146 0 267 -48.5t208 -140t135 -231t48 -315.5q0 -349 -180 -542t-478 -193q-145 0 -265.5 48.5t-207 140.5t-134.5 231.5t-48 314.5q0 350 179 542.5t476 192.5zM739 170q201 0 316.5 141.5t115.5 405.5q0 265 -115 406t-317 141q-200 0 -315 -141t-115 -406
q0 -264 115 -405.5t315 -141.5z" />
    <glyph glyph-name="P" unicode="P" horiz-adv-x="1236" 
d="M649 1434q258 0 391.5 -126t133.5 -350q0 -221 -133.5 -346t-391.5 -125h-319v-487h-215v1434h534zM649 676q145 0 220 73t75 209q0 138 -75 212.5t-220 74.5h-319v-569h319z" />
    <glyph glyph-name="Q" unicode="Q" horiz-adv-x="1484" 
d="M1397 717q0 -299 -140 -492l136 -137l-127 -123l-133 133q-162 -116 -394 -116q-145 0 -265.5 48.5t-207 140.5t-134.5 231.5t-48 314.5q0 350 179 542.5t476 192.5q146 0 267 -48.5t208 -140t135 -231t48 -315.5zM739 170q149 0 250 76l-244 246l127 122l230 -231
q69 132 69 334q0 265 -115 406t-317 141q-200 0 -315 -141t-115 -406q0 -264 115 -405.5t315 -141.5z" />
    <glyph glyph-name="R" unicode="R" horiz-adv-x="1306" 
d="M1202 240q0 -98 9 -151.5t32 -88.5h-215q-23 35 -32 88.5t-9 151.5v108q0 113 -65 164t-172 51h-420v-563h-215v1434h579q251 0 377.5 -112t126.5 -304q0 -247 -219 -354q119 -41 171 -115t52 -195v-114zM707 737q131 0 200.5 66.5t69.5 193.5q0 248 -287 248h-360v-508
h377z" />
    <glyph glyph-name="S" unicode="S" horiz-adv-x="1271" 
d="M752 803q112 -22 191 -53.5t136 -79t84 -114.5t27 -157q0 -194 -151 -305.5t-400 -111.5q-251 0 -394 121t-161 331h223q47 -270 334 -270q153 0 238.5 66t85.5 169q0 102 -63.5 154.5t-188.5 77.5l-201 39q-192 38 -294.5 129t-102.5 258q0 175 135.5 285t372.5 110
q232 0 369 -105t159 -294h-223q-16 101 -91.5 160t-213.5 59q-142 0 -214.5 -66.5t-72.5 -154.5q0 -164 213 -207z" />
    <glyph glyph-name="T" unicode="T" horiz-adv-x="1200" 
d="M1147 1434v-189h-438v-1245h-217v1245h-439v189h1094z" />
    <glyph glyph-name="U" unicode="U" horiz-adv-x="1355" 
d="M1243 547q0 -265 -153.5 -415t-411.5 -150q-259 0 -411 149.5t-152 415.5v887h215v-877q0 -187 91.5 -287t256.5 -100t256.5 100t91.5 287v877h217v-887z" />
    <glyph glyph-name="V" unicode="V" horiz-adv-x="1406" 
d="M1133 1434h231l-565 -1434h-191l-565 1434h231l428 -1160z" />
    <glyph glyph-name="W" unicode="W" horiz-adv-x="2064" 
d="M1786 1434h225l-414 -1434h-202l-363 1112l-362 -1112h-203l-414 1434h226l301 -1110l344 1110h217l344 -1110z" />
    <glyph glyph-name="X" unicode="X" horiz-adv-x="1339" 
d="M1298 0h-243l-385 563l-385 -563h-242l506 739l-475 695h243l355 -516l352 516h242l-473 -693z" />
    <glyph glyph-name="Y" unicode="Y" horiz-adv-x="1370" 
d="M795 549v-549h-222v549l-520 885h242l389 -676l391 676h242z" />
    <glyph glyph-name="Z" unicode="Z" horiz-adv-x="1255" 
d="M1174 188v-188h-1092v170l833 1075h-804v189h1054v-170l-835 -1076h844z" />
    <glyph glyph-name="bracketleft" unicode="[" horiz-adv-x="602" 
d="M322 1348v-1436h165v-178h-372v1792h372v-178h-165z" />
    <glyph glyph-name="backslash" unicode="\" horiz-adv-x="886" 
d="M61 1434h207l557 -1432h-207z" />
    <glyph glyph-name="bracketright" unicode="]" horiz-adv-x="602" 
d="M281 1348h-166v178h372v-1792h-372v178h166v1436z" />
    <glyph glyph-name="asciicircum" unicode="^" horiz-adv-x="997" 
d="M741 952l-241 344l-244 -344h-164l342 482h129l342 -482h-164z" />
    <glyph glyph-name="underscore" unicode="_" horiz-adv-x="1208" 
d="M92 0h1024v-180h-1024v180z" />
    <glyph glyph-name="grave" unicode="`" horiz-adv-x="399" 
d="M399 1190l-174 262h-227l223 -262h178z" />
    <glyph glyph-name="a" unicode="a" horiz-adv-x="1112" 
d="M991 213q0 -44 18.5 -64t59.5 -20v-123q-31 -14 -80 -14q-186 0 -186 158v53q-9 -19 -24 -41t-48.5 -55t-74 -58.5t-104.5 -44t-136 -18.5q-155 0 -254 81.5t-99 237.5q0 76 26 131t78.5 91t118.5 57.5t158 36.5q22 4 74 11.5t81 12.5t68.5 13t68 17.5t48.5 20.5v11
q0 120 -58.5 166.5t-170.5 46.5q-207 0 -231 -146h-197q15 148 125 224.5t305 76.5q227 0 330.5 -97.5t103.5 -320.5v-444zM784 338v229q-16 -8 -38.5 -15.5t-42 -13t-53.5 -12t-53.5 -10.5t-62.5 -11.5t-61 -10.5q-112 -21 -157.5 -63.5t-45.5 -117.5q0 -79 51.5 -127.5
t145.5 -48.5q55 0 105 17t83 39t62 53.5t42.5 51t24.5 40.5z" />
    <glyph glyph-name="b" unicode="b" horiz-adv-x="1191" 
d="M657 1075q66 0 131.5 -19.5t127 -62.5t108.5 -105t75.5 -154t28.5 -202q0 -112 -28.5 -205t-75 -155t-109 -105t-128.5 -62t-134 -19q-67 0 -125.5 20t-98.5 52.5t-66.5 68t-40.5 72.5v-199h-207v1446h207v-559q43 83 132.5 135.5t202.5 52.5zM618 156q134 0 222 95
t88 281q0 185 -88 279t-222 94q-131 0 -219 -95t-88 -278q0 -182 88.5 -279t218.5 -97z" />
    <glyph glyph-name="c" unicode="c" horiz-adv-x="1083" 
d="M571 156q106 0 169.5 46t93.5 138h188q-17 -80 -51 -142t-77.5 -101.5t-98.5 -65t-110 -35.5t-116 -10q-75 0 -146 19t-137 61t-115 104t-78.5 154.5t-29.5 205.5q0 112 29 204.5t78 155t114.5 105t136.5 61.5t146 19q77 0 144 -17.5t129 -55.5t107.5 -107.5t66.5 -165.5
h-191q-29 87 -90 131.5t-164 44.5q-134 0 -220.5 -97t-86.5 -278q0 -183 87 -278.5t222 -95.5z" />
    <glyph glyph-name="d" unicode="d" horiz-adv-x="1191" 
d="M535 1075q113 0 202.5 -52.5t132.5 -135.5v559h207v-1446h-207v199q-14 -37 -40.5 -72.5t-66.5 -68t-98.5 -52.5t-125.5 -20q-68 0 -134.5 19t-128.5 62t-109 105t-75.5 155t-28.5 205q0 110 28.5 202t75.5 154t109 105t127.5 62.5t131.5 19.5zM573 156q131 0 219.5 97
t88.5 279q0 183 -88.5 278t-219.5 95q-134 0 -221.5 -94t-87.5 -279q0 -186 87.5 -281t221.5 -95z" />
    <glyph glyph-name="e" unicode="e" horiz-adv-x="1116" 
d="M1055 514q0 -35 -2 -53h-791q29 -318 320 -318q93 0 152.5 27.5t99.5 89.5h186q-58 -141 -168.5 -207.5t-282.5 -66.5q-78 0 -151 20t-138 63t-113 105t-76 153t-28 201q0 111 28.5 203.5t77 155t113.5 106t137.5 63t149.5 19.5q79 0 149.5 -20t132.5 -63.5t107 -108
t71 -159t26 -210.5zM262 596h594q-3 153 -79.5 237.5t-207.5 84.5q-127 0 -209.5 -82t-97.5 -240z" />
    <glyph glyph-name="f" unicode="f" horiz-adv-x="690" 
d="M537 1305q-75 0 -107.5 -35.5t-32.5 -118.5v-86h242v-164h-242v-901h-207v901h-149v164h149v90q0 80 19 139t47 91.5t71 51.5t80 24t85 5q89 0 157 -22v-154q-72 15 -112 15z" />
    <glyph glyph-name="g" unicode="g" horiz-adv-x="1187" 
d="M866 1069h207v-1055q0 -110 -32.5 -194.5t-82.5 -134.5t-119 -81.5t-133.5 -43t-134.5 -11.5q-155 0 -274 58t-174 157l129 84q97 -127 301 -127q155 0 234 69t79 224v185q-33 -83 -119 -147t-215 -64q-67 0 -131.5 19t-126 62t-108.5 104.5t-75 154.5t-28 204
q0 110 28 202t74.5 154t107.5 105t125.5 62.5t129.5 19.5q115 0 205 -52.5t133 -135.5v182zM573 158q130 0 217 96t87 278q0 183 -86.5 278t-217.5 95t-218 -94.5t-87 -278.5q0 -94 24.5 -167.5t67.5 -117.5t97 -66.5t116 -22.5z" />
    <glyph glyph-name="h" unicode="h" horiz-adv-x="1181" 
d="M688 1075q84 0 150.5 -22.5t119 -71.5t81 -134.5t28.5 -203.5v-643h-207v635q0 142 -64 204t-180 62q-65 0 -120 -26t-90 -66.5t-56 -81.5t-28 -78v-649h-207v1446h207v-619q11 33 38 72t71 80.5t112 68.5t145 27z" />
    <glyph glyph-name="i" unicode="i" horiz-adv-x="436" 
d="M115 1452h207v-176h-207v176zM115 1065h207v-1065h-207v1065z" />
    <glyph glyph-name="j" unicode="j" horiz-adv-x="462" 
d="M143 1452h207v-176h-207v176zM-135 -238q79 -32 153 -32q66 0 95.5 40.5t29.5 104.5v1190h207v-1215q0 -155 -75 -228t-209 -73q-124 0 -201 41v172z" />
    <glyph glyph-name="k" unicode="k" horiz-adv-x="1130" 
d="M879 0l-406 475l-151 -156v-319h-207v1446h207v-887l485 506h237l-442 -457l506 -608h-229z" />
    <glyph glyph-name="l" unicode="l" horiz-adv-x="436" 
d="M115 1446h207v-1446h-207v1446z" />
    <glyph glyph-name="m" unicode="m" horiz-adv-x="1861" 
d="M1384 1075q79 0 142.5 -23.5t115 -74t79.5 -138t28 -206.5v-633h-207v627q0 274 -225 274q-65 0 -121 -27t-90 -67.5t-53 -84t-19 -79.5v-643h-207v627q0 274 -225 274q-63 0 -116 -26t-86 -66.5t-52.5 -82t-25.5 -79.5v-647h-207v1065h207v-238q8 26 25 56t48 65
t69 62.5t93 46t115 18.5q125 0 214.5 -60t125.5 -190q23 60 71.5 115t129 95t171.5 40z" />
    <glyph glyph-name="n" unicode="n" horiz-adv-x="1181" 
d="M688 1075q84 0 150.5 -22.5t119 -71.5t81 -134.5t28.5 -203.5v-643h-207v635q0 142 -64 204t-180 62q-65 0 -120 -26t-90 -66.5t-56 -81.5t-28 -78v-649h-207v1065h207v-238q11 33 38 72t71 80.5t112 68.5t145 27z" />
    <glyph glyph-name="o" unicode="o" horiz-adv-x="1136" 
d="M569 1075q71 0 140.5 -19.5t135.5 -62.5t116.5 -105t81 -154.5t30.5 -203.5t-30.5 -203.5t-81 -154t-116.5 -104.5t-135.5 -62.5t-140.5 -19.5t-141 19.5t-136.5 62.5t-117 104.5t-81 154t-30.5 203.5t30.5 203.5t81 154.5t117 105t136.5 62.5t141 19.5zM874 530
q0 94 -25 167.5t-68.5 118t-97 67t-114.5 22.5t-115 -22.5t-97.5 -67t-69 -118t-25.5 -167.5t25.5 -167.5t69 -117.5t97.5 -66.5t115 -22.5t114.5 22.5t97 66.5t68.5 117.5t25 167.5z" />
    <glyph glyph-name="p" unicode="p" horiz-adv-x="1191" 
d="M657 1075q66 0 131 -19.5t127 -62.5t109 -105t75.5 -154t28.5 -202q0 -112 -28.5 -205t-76 -155t-110 -105t-128 -62t-132.5 -19q-129 0 -214.5 61t-116.5 141v-577h-207v1454h207v-178q43 83 132.5 135.5t202.5 52.5zM616 156q132 0 222 95t90 281q0 95 -25.5 168.5
t-70 117t-99 65.5t-117.5 22q-131 0 -218 -95t-87 -278q0 -182 87.5 -279t217.5 -97z" />
    <glyph glyph-name="q" unicode="q" horiz-adv-x="1191" 
d="M535 1075q113 0 202.5 -52.5t132.5 -135.5v178h207v-1454h-207v577q-31 -80 -116.5 -141t-214.5 -61q-67 0 -133 19t-128.5 62t-109.5 105t-76 155t-29 205q0 110 28.5 202t76 154t109.5 105t127 62.5t131 19.5zM575 156q130 0 218 97t88 279q0 183 -87.5 278t-218.5 95
q-132 0 -221.5 -94t-89.5 -279q0 -186 89.5 -281t221.5 -95z" />
    <glyph glyph-name="r" unicode="r" horiz-adv-x="804" 
d="M672 1075q47 0 80 -6v-182q-33 2 -66 2q-159 0 -249.5 -75t-114.5 -210v-604h-207v1065h207v-252q26 114 117 188t233 74z" />
    <glyph glyph-name="s" unicode="s" horiz-adv-x="999" 
d="M735 774q-47 144 -237 144q-100 0 -156.5 -40.5t-56.5 -107.5q0 -56 37.5 -89.5t121.5 -53.5l179 -41q44 -10 71 -17t62 -18t56.5 -21.5t45.5 -26.5t38 -35t26.5 -43.5t18 -55t5.5 -68.5q0 -80 -35 -142t-96.5 -99t-140 -55.5t-170.5 -18.5q-192 0 -311 83.5t-140 249.5
h193q37 -176 260 -176q105 0 169 41t64 117q0 64 -38.5 93t-125.5 50l-182 41q-157 36 -230 107.5t-73 183.5q0 139 109.5 219t296.5 80q179 0 288 -78.5t140 -222.5h-189z" />
    <glyph glyph-name="t" unicode="t" horiz-adv-x="694" 
d="M516 152q55 0 115 16v-154q-73 -26 -174 -26q-58 0 -101 10t-80 35t-56 73t-19 119v676h-168v164h168v266h207v-266h208v-164h-208v-653q0 -47 24.5 -71.5t83.5 -24.5z" />
    <glyph glyph-name="u" unicode="u" horiz-adv-x="1171" 
d="M850 1065h207v-1065h-207v236q-8 -26 -26.5 -56.5t-51 -65.5t-72.5 -63t-97.5 -46.5t-119.5 -18.5q-84 0 -150.5 23t-119 72t-81 135t-28.5 204v645h207v-637q0 -268 244 -268q65 0 120.5 26.5t90 67.5t56 82t28.5 78v651z" />
    <glyph glyph-name="v" unicode="v" horiz-adv-x="1155" 
d="M692 0h-229l-420 1065h207l328 -860l327 860h207z" />
    <glyph glyph-name="w" unicode="w" horiz-adv-x="1652" 
d="M1610 1065l-312 -1065h-184l-289 815l-286 -815h-185l-311 1065h209l219 -807l272 807h166l273 -807l219 807h209z" />
    <glyph glyph-name="x" unicode="x" horiz-adv-x="1112" 
d="M1059 0h-230l-274 399l-274 -399h-228l387 551l-362 514h227l250 -363l250 363h229l-364 -514z" />
    <glyph glyph-name="y" unicode="y" horiz-adv-x="1122" 
d="M870 1065h211l-452 -1116q-83 -205 -190.5 -282.5t-280.5 -57.5v178q117 -14 181.5 29t100.5 131q15 40 15 65t-15 62l-397 991h213l303 -817z" />
    <glyph glyph-name="z" unicode="z" horiz-adv-x="1026" 
d="M328 176h616v-176h-862v176l616 713h-596v176h842v-176z" />
    <glyph glyph-name="braceleft" unicode="{" horiz-adv-x="626" 
d="M391 766l-98 -139l98 -135v-512q0 -32 19.5 -50t52.5 -18h72v-178h-158q-35 0 -67.5 10t-61.5 31.5t-46.5 60.5t-17.5 92v553l-92 146l92 149v555q0 53 17.5 92.5t46.5 61t61.5 31.5t67.5 10h158v-178h-72q-33 0 -52.5 -18t-19.5 -50v-514z" />
    <glyph glyph-name="bar" unicode="|" horiz-adv-x="487" 
d="M154 1638h180v-2027h-180v2027z" />
    <glyph glyph-name="braceright" unicode="}" horiz-adv-x="626" 
d="M236 766v514q0 32 -19.5 50t-52.5 18h-72v178h158q77 0 134.5 -47t57.5 -148v-555l93 -149l-93 -146v-553q0 -53 -17 -92t-46 -60.5t-61.5 -31.5t-67.5 -10h-158v178h72q33 0 52.5 18t19.5 50v512l98 135z" />
    <glyph glyph-name="asciitilde" unicode="~" horiz-adv-x="1001" 
d="M805 670h94q0 -106 -62.5 -172t-166.5 -66q-44 0 -85 16.5t-74 40t-65 47t-69.5 40t-75.5 16.5q-47 0 -76.5 -25t-27.5 -57h-95q0 105 63 170t167 65q54 0 105.5 -25t86.5 -54.5t82.5 -54.5t93.5 -25q49 0 78 25.5t27 58.5z" />
    <glyph glyph-name="exclamdown" unicode="&#xa1;" horiz-adv-x="442" 
d="M115 815v250h235v-250h-235zM332 639l6 -1008h-211l6 1008h199z" />
    <glyph glyph-name="cent" unicode="&#xa2;" horiz-adv-x="1083" 
d="M1022 487q-19 -92 -61 -159.5t-100.5 -106.5t-121 -58.5t-135.5 -23.5v-221h-86v223q-89 8 -167.5 43t-144.5 97.5t-104.5 163.5t-38.5 229q0 103 25.5 189t69 146t102.5 103t123.5 65.5t134.5 28.5v228h86v-226q71 -4 133 -23.5t118 -58t97.5 -104.5t61.5 -154h-191
q-52 159 -219 170v-731q91 6 146 51t84 129h188zM262 674q0 -162 70.5 -254.5t185.5 -110.5v727q-115 -18 -185.5 -110.5t-70.5 -251.5z" />
    <glyph glyph-name="sterling" unicode="&#xa3;" horiz-adv-x="1134" 
d="M1042 983h-194v37q0 110 -69.5 180t-194.5 70t-196 -68t-71 -174q0 -41 13 -87.5t22.5 -69t41.5 -83.5t36 -69h264v-121h-215q8 -46 8 -70q0 -115 -47.5 -199t-144.5 -169q72 27 146 31.5t141 -6l134 -21t149 -9t163 24.5v-180q-105 -26 -185 -21.5t-165.5 17.5
t-156.5 26t-157 4.5t-167 -46.5l-103 133q197 194 197 379q0 50 -17 106h-182v121h127q-35 65 -50.5 96.5t-33.5 95t-18 127.5q0 185 131 297.5t336 112.5q195 0 326.5 -115.5t131.5 -312.5v-37z" />
    <glyph glyph-name="currency" unicode="&#xa4;" 
d="M1047 975q0 -125 -64 -234l94 -94l-135 -131l-86 86q-123 -86 -268 -86q-146 0 -266 84l-84 -84l-136 131l93 92q-66 109 -66 236q0 128 68 239l-95 95l136 133l90 -90q119 82 260 82q142 0 264 -82l90 90l135 -133l-96 -97q66 -113 66 -237zM588 688q67 0 123.5 27
t91.5 69.5t54.5 92t19.5 98.5q0 48 -19.5 98t-54.5 92.5t-91.5 69.5t-123.5 27t-123 -27t-91 -70t-54 -92.5t-19 -97.5q0 -49 19 -98.5t54 -92t91 -69.5t123 -27z" />
    <glyph glyph-name="yen" unicode="&#xa5;" horiz-adv-x="1370" 
d="M1317 1434l-520 -881h260v-127h-262v-94h262v-125h-262v-207h-222v207h-258v125h258v94h-258v127h256l-518 881h242l389 -676l391 676h242z" />
    <glyph glyph-name="brokenbar" unicode="&#xa6;" horiz-adv-x="487" 
d="M154 1638h180v-573h-180v573zM154 184h180v-573h-180v573z" />
    <glyph glyph-name="section" unicode="&#xa7;" horiz-adv-x="1339" 
d="M1237 389q0 -140 -86 -239q66 -91 66 -226q0 -134 -71 -226.5t-194 -136.5t-290 -44q-254 0 -396.5 115.5t-163.5 324.5h230q19 -118 96 -183t236 -65q160 0 241.5 57t81.5 160q0 104 -62 157.5t-186 80.5l-200 43q-193 43 -295.5 134.5t-102.5 258.5q0 144 92 242
q-71 90 -71 225q0 175 134.5 279t373.5 104q230 0 364.5 -99.5t157.5 -287.5h-227q-27 194 -295 194q-145 0 -213 -55t-68 -141q0 -78 48.5 -129.5t160.5 -75.5l199 -45q224 -48 332 -145.5t108 -276.5zM578 389l198 -45q116 -24 201 -61q31 45 31 106q0 105 -62.5 160
t-185.5 82l-201 43q-87 21 -141 43q-49 -49 -49 -123q0 -78 48.5 -129.5t160.5 -75.5z" />
    <glyph glyph-name="dieresis" unicode="&#xa8;" horiz-adv-x="663" 
d="M0 1452h213v-197h-213v197zM451 1452h213v-197h-213v197z" />
    <glyph glyph-name="copyright" unicode="&#xa9;" horiz-adv-x="1630" 
d="M815 -14q-200 0 -367 93.5t-265.5 261.5t-98.5 376q0 155 58 291.5t156.5 232t233 150.5t283.5 55t283.5 -55t233 -150.5t156.5 -232t58 -291.5q0 -208 -98.5 -376t-265.5 -261.5t-367 -93.5zM815 113q166 0 304 76.5t219 215.5t81 312q0 129 -47.5 242.5t-129 192
t-192.5 124t-235 45.5q-167 0 -305.5 -77t-219.5 -216t-81 -311q0 -173 81 -312t219.5 -215.5t305.5 -76.5zM815 426q166 0 217 135h148q-21 -73 -60.5 -127t-89.5 -83.5t-103.5 -43.5t-111.5 -14q-107 0 -197.5 48t-149 146.5t-58.5 229.5t58.5 229.5t149 146.5t197.5 48
q79 0 146.5 -24t127 -86t87.5 -157h-148q-50 132 -213 132q-112 0 -187 -75.5t-75 -213.5q0 -139 75 -215t187 -76z" />
    <glyph glyph-name="ordfeminine" unicode="&#xaa;" horiz-adv-x="737" 
d="M649 956q0 -106 47 -176h-129q-40 43 -43 113q-43 -53 -96.5 -85t-138.5 -32q-94 0 -160 51.5t-66 155.5q0 95 64 141t186 56l193 16q0 74 -34.5 106.5t-111.5 32.5q-72 0 -104.5 -20.5t-42.5 -59.5h-127q15 101 88.5 151t190.5 50q157 0 220.5 -74.5t63.5 -236.5v-189z
M324 897q43 0 76 11.5t53.5 32t31.5 37t21 38.5v78q-35 -6 -191 -19q-108 -9 -108 -86q0 -44 30 -68t87 -24z" />
    <glyph glyph-name="guillemotleft" unicode="&#xab;" horiz-adv-x="864" 
d="M401 768l-186 -156l186 -157v-193l-319 266v166l319 267v-193zM782 768l-184 -156l184 -157v-193l-319 266v162l319 271v-193z" />
    <glyph glyph-name="logicalnot" unicode="&#xac;" horiz-adv-x="1026" 
d="M934 639v-387h-207v223h-635v164h842z" />
    <glyph glyph-name="uni00AD" unicode="&#xad;" horiz-adv-x="749" 
d="M82 649h586v-157h-586v157z" />
    <glyph glyph-name="registered" unicode="&#xae;" horiz-adv-x="1630" 
d="M815 -14q-200 0 -367 93.5t-265.5 261.5t-98.5 376q0 155 58 291.5t156.5 232t233 150.5t283.5 55t283.5 -55t233 -150.5t156.5 -232t58 -291.5q0 -208 -98.5 -376t-265.5 -261.5t-367 -93.5zM815 113q166 0 304 76.5t219 215.5t81 312q0 129 -47.5 242.5t-129 192
t-192.5 124t-235 45.5q-167 0 -305.5 -77t-219.5 -216t-81 -311q0 -173 81 -312t219.5 -215.5t305.5 -76.5zM1106 453q0 -113 24 -140h-133q-20 27 -20 144v51q0 74 -35 99.5t-96 25.5h-191v-320h-123v807h306q268 0 268 -227q0 -155 -156 -205q84 -15 120 -56t36 -118v-61z
M836 733q71 0 110 38t39 114q0 135 -147 135h-183v-287h181z" />
    <glyph glyph-name="macron" unicode="&#xaf;" horiz-adv-x="665" 
d="M0 1452h666v-125h-666v125z" />
    <glyph glyph-name="degree" unicode="&#xb0;" horiz-adv-x="788" 
d="M395 870q-127 0 -215 88t-88 213t88 213.5t215 88.5q126 0 213.5 -88.5t87.5 -213.5t-87.5 -213t-213.5 -88zM395 1024q68 0 108 46t40 101q0 56 -40 103t-108 47t-108.5 -47t-40.5 -103q0 -55 40.5 -101t108.5 -46z" />
    <glyph glyph-name="plusminus" unicode="&#xb1;" horiz-adv-x="1107" 
d="M649 887h367v-180h-367v-367h-192v367h-365v180h365v366h192v-366zM215 -35v158h635v-158h-635z" />
    <glyph glyph-name="uni00B2" unicode="&#xb2;" horiz-adv-x="526" 
d="M82 901v17q0 81 32 137t117 108q6 3 21.5 12.5t20.5 12.5t17 11t16 12t12 11.5t10.5 13t7 14t5.5 17.5t1 19q0 36 -24.5 58t-61.5 22q-38 0 -63 -24t-25 -68v-14h-86v14q0 76 45 123t129 47q83 0 129.5 -44.5t46.5 -113.5q0 -33 -11.5 -60t-37 -50.5t-48 -38.5t-63.5 -39
q-94 -56 -94 -113v-6h256v-78h-352z" />
    <glyph glyph-name="uni00B3" unicode="&#xb3;" horiz-adv-x="544" 
d="M344 1186q43 -6 80 -40t37 -95q0 -70 -51.5 -114t-145.5 -44q-91 0 -142.5 48t-51.5 126h84q3 -98 114 -98q48 0 78.5 22.5t30.5 67.5q0 90 -123 90h-23v63h23q51 0 74.5 24.5t23.5 57.5q0 34 -23.5 54t-64.5 20q-44 0 -70 -22.5t-26 -69.5h-80q0 79 47 123.5t127 44.5
q81 0 127.5 -41t46.5 -103q0 -44 -26.5 -74t-65.5 -40z" />
    <glyph glyph-name="acute" unicode="&#xb4;" horiz-adv-x="401" 
d="M0 1190h178l223 262h-227z" />
    <glyph glyph-name="uni00B5" unicode="&#xb5;" horiz-adv-x="1171" 
d="M850 1065h207v-1065h-207v236q-8 -26 -26.5 -56.5t-51 -65.5t-72.5 -63t-97.5 -46.5t-119.5 -18.5q-96 0 -172 30v-405h-207v1454h207v-637q0 -268 244 -268q65 0 120.5 26.5t90 67.5t56 82t28.5 78v651z" />
    <glyph glyph-name="paragraph" unicode="&#xb6;" horiz-adv-x="1282" 
d="M1167 1434v-1885h-170v1756h-182v-1756h-184v1067h-127q-104 0 -188.5 32.5t-139 88.5t-84 129.5t-29.5 157.5q0 175 117.5 292.5t323.5 117.5h663z" />
    <glyph glyph-name="periodcentered" unicode="&#xb7;" horiz-adv-x="440" 
d="M102 709h236v-250h-236v250z" />
    <glyph glyph-name="cedilla" unicode="&#xb8;" horiz-adv-x="360" 
d="M164 -115q79 3 137.5 -39.5t58.5 -121.5q0 -47 -18.5 -82.5t-49.5 -57.5t-77 -35.5t-94.5 -18.5t-108.5 -5v90q189 3 189 102q0 53 -47.5 67.5t-102.5 -20.5l-51 82l96 156h178z" />
    <glyph glyph-name="uni00B9" unicode="&#xb9;" horiz-adv-x="358" 
d="M276 1436v-535h-81v422q-13 -25 -44.5 -36t-68.5 -5v80q36 -3 69 20.5t44 53.5h81z" />
    <glyph glyph-name="ordmasculine" unicode="&#xba;" horiz-adv-x="776" 
d="M389 1450q81 0 154.5 -38t122.5 -116.5t49 -181.5q0 -80 -28.5 -146.5t-75.5 -108t-104.5 -64.5t-117.5 -23q-82 0 -155 38t-122 118t-49 186q0 78 28.5 143t75 106.5t104 64t118.5 22.5zM569 1114q0 94 -51 148.5t-129 54.5t-130 -54.5t-52 -148.5q0 -95 52 -151
t130 -56t129 55t51 152z" />
    <glyph glyph-name="guillemotright" unicode="&#xbb;" horiz-adv-x="845" 
d="M74 768v193l319 -271v-162l-319 -266v193l184 157zM455 768v193l319 -267v-166l-319 -266v193l186 157z" />
    <glyph glyph-name="onequarter" unicode="&#xbc;" horiz-adv-x="1226" 
d="M276 1436v-535h-81v422q-13 -25 -44.5 -36t-68.5 -5v80q36 -3 69 20.5t44 53.5h81zM199 0h-111l895 1434h109zM1124 135h-61v-135h-84v135h-242v68l242 332h84v-332h61v-68zM979 203v229l-166 -229h166z" />
    <glyph glyph-name="onehalf" unicode="&#xbd;" horiz-adv-x="1193" 
d="M268 1436v-535h-82v422q-13 -25 -44 -36t-68 -5v80q36 -3 68.5 20.5t43.5 53.5h82zM207 0h-111l895 1434h109zM748 0v16q0 81 32 137.5t117 108.5q6 3 21.5 12.5t20.5 12.5t17 11t16 12t12 11.5t10.5 13t7 14t5.5 17.5t1 19q0 36 -24.5 58t-61.5 22q-38 0 -63 -24
t-25 -68v-15h-86v15q0 76 45 123t129 47q83 0 129.5 -44.5t46.5 -113.5q0 -33 -11.5 -60t-37 -50.5t-48 -38.5t-63.5 -39q-94 -56 -94 -113v-6h256v-78h-352z" />
    <glyph glyph-name="threequarters" unicode="&#xbe;" horiz-adv-x="1269" 
d="M348 1186q43 -6 80 -40t37 -95q0 -70 -51.5 -114t-145.5 -44q-91 0 -142.5 48t-51.5 126h84q3 -98 114 -98q48 0 78.5 22.5t30.5 67.5q0 90 -123 90h-22v63h22q51 0 74.5 24.5t23.5 57.5q0 34 -23.5 54t-64.5 20q-44 0 -70 -22.5t-26 -69.5h-80q0 79 47 123.5t127 44.5
q81 0 127.5 -41t46.5 -103q0 -44 -26.5 -74t-65.5 -40zM254 0h-111l895 1434h109zM1167 135h-61v-135h-84v135h-242v68l242 332h84v-332h61v-68zM1022 203v229l-166 -229h166z" />
    <glyph glyph-name="questiondown" unicode="&#xbf;" horiz-adv-x="1099" 
d="M649 815h-235v250h235v-250zM541 -383q101 0 185 28.5t148.5 84.5t99.5 147.5t34 210.5h-207q0 -139 -67.5 -216t-192.5 -77q-116 0 -179 60t-63 159q0 46 19 83.5t49 65.5t66.5 55t73 59t66.5 69.5t49 94t19 126.5v76h-219v-76q0 -56 -18 -100.5t-47.5 -74.5
t-64.5 -57.5t-70 -56.5t-64.5 -62.5t-47.5 -85t-18 -116.5q0 -187 125 -292t324 -105z" />
    <glyph glyph-name="Agrave" unicode="&#xc0;" horiz-adv-x="1427" 
d="M829 1559h-178l-223 262h227zM1141 0l-125 336h-606l-123 -336h-234l565 1434h191l565 -1434h-233zM469 498h487l-243 661z" />
    <glyph glyph-name="Aacute" unicode="&#xc1;" horiz-adv-x="1427" 
d="M993 1821l-223 -262h-178l174 262h227zM1141 0l-125 336h-606l-123 -336h-234l565 1434h191l565 -1434h-233zM469 498h487l-243 661z" />
    <glyph glyph-name="Acircumflex" unicode="&#xc2;" horiz-adv-x="1427" 
d="M713 1722l-193 -174h-164l170 273h371l170 -273h-164zM1141 0l-125 336h-606l-123 -336h-234l565 1434h191l565 -1434h-233zM469 498h487l-243 661z" />
    <glyph glyph-name="Atilde" unicode="&#xc3;" horiz-adv-x="1427" 
d="M524 1729q-45 0 -73.5 -23.5t-26.5 -54.5h-90q0 100 60 162.5t159 62.5q42 0 81.5 -16t70.5 -38.5t61.5 -45t66.5 -38.5t72 -16q45 0 73 24.5t26 55.5h92q0 -101 -60.5 -163t-158.5 -62q-42 0 -81.5 15.5t-71.5 38t-62.5 45t-66 38t-71.5 15.5zM1141 0l-125 336h-606
l-123 -336h-234l565 1434h191l565 -1434h-233zM469 498h487l-243 661z" />
    <glyph glyph-name="Adieresis" unicode="&#xc4;" horiz-adv-x="1427" 
d="M594 1821v-197h-213v197h213zM1044 1821v-197h-213v197h213zM1141 0l-125 336h-606l-123 -336h-234l565 1434h191l565 -1434h-233zM469 498h487l-243 661z" />
    <glyph glyph-name="Aring" unicode="&#xc5;" horiz-adv-x="1427" 
d="M713 1556q-77 0 -132 54.5t-55 130.5t55 130t132 54t131.5 -54t54.5 -130t-54.5 -130.5t-131.5 -54.5zM713 1829q-37 0 -62.5 -24.5t-25.5 -63.5q0 -38 25.5 -63t62.5 -25t63.5 25t26.5 63q0 39 -26 63.5t-64 24.5zM1141 0l-125 336h-606l-123 -336h-234l565 1434h191
l565 -1434h-233zM469 498h487l-243 661z" />
    <glyph glyph-name="AE" unicode="&#xc6;" horiz-adv-x="2072" 
d="M1251 188h760v-188h-975v334h-528l-227 -334h-228l981 1434h957v-189h-740v-424h637v-176h-637v-457zM625 504h411v602z" />
    <glyph glyph-name="Ccedilla" unicode="&#xc7;" horiz-adv-x="1353" 
d="M1292 395q-31 -179 -163 -284.5t-326 -124.5l-94 -101q79 3 137.5 -39.5t58.5 -121.5q0 -47 -18.5 -82.5t-49.5 -57.5t-77 -35.5t-94.5 -18.5t-108.5 -5v90q188 3 188 102q0 53 -46.5 67.5t-102.5 -20.5l-51 82l86 142q-250 30 -398.5 218t-148.5 511q0 178 47.5 318.5
t133 231.5t202.5 138t258 47q144 0 262 -46.5t198 -140.5t103 -225h-217q-84 224 -342 224q-194 0 -307 -141.5t-113 -405.5q0 -262 113 -404.5t307 -142.5q263 0 346 225h217z" />
    <glyph glyph-name="Egrave" unicode="&#xc8;" horiz-adv-x="1150" 
d="M707 1559h-179l-223 262h227zM330 188h760v-188h-975v1434h954v-189h-739v-424h637v-176h-637v-457z" />
    <glyph glyph-name="Eacute" unicode="&#xc9;" horiz-adv-x="1150" 
d="M870 1821l-223 -262h-178l174 262h227zM330 188h760v-188h-975v1434h954v-189h-739v-424h637v-176h-637v-457z" />
    <glyph glyph-name="Ecircumflex" unicode="&#xca;" horiz-adv-x="1150" 
d="M590 1722l-193 -174h-164l170 273h371l170 -273h-164zM330 188h760v-188h-975v1434h954v-189h-739v-424h637v-176h-637v-457z" />
    <glyph glyph-name="Edieresis" unicode="&#xcb;" horiz-adv-x="1150" 
d="M471 1821v-197h-213v197h213zM922 1821v-197h-213v197h213zM330 188h760v-188h-975v1434h954v-189h-739v-424h637v-176h-637v-457z" />
    <glyph glyph-name="Igrave" unicode="&#xcc;" horiz-adv-x="444" 
d="M338 1559l-174 262h-227l223 -262h178zM330 0h-215v1434h215v-1434z" />
    <glyph glyph-name="Iacute" unicode="&#xcd;" horiz-adv-x="444" 
d="M100 1559h179l223 262h-228zM330 0h-215v1434h215v-1434z" />
    <glyph glyph-name="Icircumflex" unicode="&#xce;" horiz-adv-x="444" 
d="M412 1548l-191 174l-192 -174h-164l170 273h371l169 -273h-163zM330 0h-215v1434h215v-1434z" />
    <glyph glyph-name="Idieresis" unicode="&#xcf;" horiz-adv-x="444" 
d="M-111 1821h213v-197h-213v197zM340 1821h213v-197h-213v197zM330 0h-215v1434h215v-1434z" />
    <glyph glyph-name="Eth" unicode="&#xd0;" horiz-adv-x="1419" 
d="M653 1434q343 0 519 -185t176 -532t-176 -532t-519 -185h-483v631h-129v157h129v646h483zM635 188q262 0 380 128t118 401q0 274 -118 401t-380 127h-250v-457h242v-157h-242v-443h250z" />
    <glyph glyph-name="Ntilde" unicode="&#xd1;" horiz-adv-x="1378" 
d="M981 1802h92q0 -101 -60.5 -163t-158.5 -62q-42 0 -81.5 15.5t-71 38t-62 45t-66 38t-71.5 15.5q-46 0 -74.5 -23.5t-26.5 -54.5h-90q0 100 60 162.5t159 62.5q42 0 81.5 -16t71 -38.5t62 -45t66.5 -38.5t72 -16q45 0 72.5 24.5t25.5 55.5zM1264 1434v-1434h-236
l-692 1085h-6v-1085h-215v1434h227l698 -1096h7v1096h217z" />
    <glyph glyph-name="Ograve" unicode="&#xd2;" horiz-adv-x="1480" 
d="M856 1559l-174 262h-227l223 -262h178zM739 1452q146 0 267 -48.5t208 -140t135 -231t48 -315.5q0 -349 -180 -542t-478 -193q-145 0 -265.5 48.5t-207 140.5t-134.5 231.5t-48 314.5q0 350 179 542.5t476 192.5zM739 170q201 0 316.5 141.5t115.5 405.5q0 265 -115 406
t-317 141q-200 0 -315 -141t-115 -406q0 -264 115 -405.5t315 -141.5z" />
    <glyph glyph-name="Oacute" unicode="&#xd3;" horiz-adv-x="1480" 
d="M618 1559h179l223 262h-227zM739 1452q146 0 267 -48.5t208 -140t135 -231t48 -315.5q0 -349 -180 -542t-478 -193q-145 0 -265.5 48.5t-207 140.5t-134.5 231.5t-48 314.5q0 350 179 542.5t476 192.5zM739 170q201 0 316.5 141.5t115.5 405.5q0 265 -115 406t-317 141
q-200 0 -315 -141t-115 -406q0 -264 115 -405.5t315 -141.5z" />
    <glyph glyph-name="Ocircumflex" unicode="&#xd4;" horiz-adv-x="1480" 
d="M930 1548l-191 174l-192 -174h-164l170 273h371l170 -273h-164zM739 1452q146 0 267 -48.5t208 -140t135 -231t48 -315.5q0 -349 -180 -542t-478 -193q-145 0 -265.5 48.5t-207 140.5t-134.5 231.5t-48 314.5q0 350 179 542.5t476 192.5zM739 170q201 0 316.5 141.5
t115.5 405.5q0 265 -115 406t-317 141q-200 0 -315 -141t-115 -406q0 -264 115 -405.5t315 -141.5z" />
    <glyph glyph-name="Otilde" unicode="&#xd5;" horiz-adv-x="1480" 
d="M1030 1802h92q0 -101 -60.5 -163t-158.5 -62q-42 0 -81.5 15.5t-71 38t-62 45t-66 38t-71.5 15.5q-45 0 -73.5 -23.5t-26.5 -54.5h-91q0 100 60.5 162.5t159.5 62.5q42 0 81.5 -16t70.5 -38.5t61.5 -45t66.5 -38.5t72 -16q45 0 72.5 24.5t25.5 55.5zM739 1452
q146 0 267 -48.5t208 -140t135 -231t48 -315.5q0 -349 -180 -542t-478 -193q-145 0 -265.5 48.5t-207 140.5t-134.5 231.5t-48 314.5q0 350 179 542.5t476 192.5zM739 170q201 0 316.5 141.5t115.5 405.5q0 265 -115 406t-317 141q-200 0 -315 -141t-115 -406
q0 -264 115 -405.5t315 -141.5z" />
    <glyph glyph-name="Odieresis" unicode="&#xd6;" horiz-adv-x="1480" 
d="M408 1821h213v-197h-213v197zM858 1821h213v-197h-213v197zM739 1452q146 0 267 -48.5t208 -140t135 -231t48 -315.5q0 -349 -180 -542t-478 -193q-145 0 -265.5 48.5t-207 140.5t-134.5 231.5t-48 314.5q0 350 179 542.5t476 192.5zM739 170q201 0 316.5 141.5
t115.5 405.5q0 265 -115 406t-317 141q-200 0 -315 -141t-115 -406q0 -264 115 -405.5t315 -141.5z" />
    <glyph glyph-name="multiply" unicode="&#xd7;" horiz-adv-x="966" 
d="M872 784l-258 -258l258 -260l-127 -127l-260 258l-258 -258l-137 135l260 258l-258 259l127 129l258 -258l260 258z" />
    <glyph glyph-name="Oslash" unicode="&#xd8;" horiz-adv-x="1480" 
d="M1124 1341q131 -91 202 -249t71 -375q0 -349 -180 -542t-478 -193q-133 0 -245 41l-60 -125h-227l108 227q-111 94 -171 244.5t-60 347.5q0 350 179 542.5t476 192.5q104 0 199 -25l47 99h227zM309 717q0 -249 103 -389l442 923q-60 13 -115 13q-200 0 -315 -141
t-115 -406zM739 170q201 0 316.5 141.5t115.5 405.5q0 293 -139 432l-454 -950q79 -29 161 -29z" />
    <glyph glyph-name="Ugrave" unicode="&#xd9;" horiz-adv-x="1355" 
d="M782 1559l-174 262h-227l223 -262h178zM1243 547q0 -265 -153.5 -415t-411.5 -150q-259 0 -411 149.5t-152 415.5v887h215v-877q0 -187 91.5 -287t256.5 -100t256.5 100t91.5 287v877h217v-887z" />
    <glyph glyph-name="Uacute" unicode="&#xda;" horiz-adv-x="1355" 
d="M545 1559h178l223 262h-227zM1243 547q0 -265 -153.5 -415t-411.5 -150q-259 0 -411 149.5t-152 415.5v887h215v-877q0 -187 91.5 -287t256.5 -100t256.5 100t91.5 287v877h217v-887z" />
    <glyph glyph-name="Ucircumflex" unicode="&#xdb;" horiz-adv-x="1355" 
d="M856 1548l-190 174l-193 -174h-164l170 273h371l170 -273h-164zM1243 547q0 -265 -153.5 -415t-411.5 -150q-259 0 -411 149.5t-152 415.5v887h215v-877q0 -187 91.5 -287t256.5 -100t256.5 100t91.5 287v877h217v-887z" />
    <glyph glyph-name="Udieresis" unicode="&#xdc;" horiz-adv-x="1355" 
d="M334 1821h213v-197h-213v197zM784 1821h213v-197h-213v197zM1243 547q0 -265 -153.5 -415t-411.5 -150q-259 0 -411 149.5t-152 415.5v887h215v-877q0 -187 91.5 -287t256.5 -100t256.5 100t91.5 287v877h217v-887z" />
    <glyph glyph-name="Yacute" unicode="&#xdd;" horiz-adv-x="1370" 
d="M563 1559h178l224 262h-228zM795 549v-549h-222v549l-520 885h242l389 -676l391 676h242z" />
    <glyph glyph-name="Thorn" unicode="&#xde;" horiz-adv-x="1251" 
d="M655 1157q262 0 397.5 -113t135.5 -323q0 -221 -133 -328.5t-400 -107.5h-333v-285h-207v1434h207v-277h333zM659 465q77 0 133 12t100.5 40t66.5 79t22 125q0 132 -85 195t-237 63h-337v-514h337z" />
    <glyph glyph-name="germandbls" unicode="&#xdf;" horiz-adv-x="1241" 
d="M842 784q133 -20 220 -119.5t87 -236.5q0 -220 -135.5 -324t-415.5 -104h-106v180h110q340 0 340 252q0 68 -27.5 118.5t-77 80t-112.5 43.5t-139 14h-94v162h94q138 0 202 52.5t64 154.5q0 100 -70 149t-190 49q-140 0 -205 -60t-65 -191v-1004h-207v1004q0 430 467 430
q223 0 350 -91t127 -274q0 -117 -61 -193.5t-156 -91.5z" />
    <glyph glyph-name="agrave" unicode="&#xe0;" horiz-adv-x="1112" 
d="M672 1190h-178l-224 262h228zM991 213q0 -44 18.5 -64t59.5 -20v-123q-31 -14 -80 -14q-186 0 -186 158v53q-9 -19 -24 -41t-48.5 -55t-74 -58.5t-104.5 -44t-136 -18.5q-155 0 -254 81.5t-99 237.5q0 76 26 131t78.5 91t118.5 57.5t158 36.5q22 4 74 11.5t81 12.5
t68.5 13t68 17.5t48.5 20.5v11q0 120 -58.5 166.5t-170.5 46.5q-207 0 -231 -146h-197q15 148 125 224.5t305 76.5q227 0 330.5 -97.5t103.5 -320.5v-444zM784 338v229q-16 -8 -38.5 -15.5t-42 -13t-53.5 -12t-53.5 -10.5t-62.5 -11.5t-61 -10.5q-112 -21 -157.5 -63.5
t-45.5 -117.5q0 -79 51.5 -127.5t145.5 -48.5q55 0 105 17t83 39t62 53.5t42.5 51t24.5 40.5z" />
    <glyph glyph-name="aacute" unicode="&#xe1;" horiz-adv-x="1112" 
d="M836 1452l-224 -262h-178l174 262h228zM991 213q0 -44 18.5 -64t59.5 -20v-123q-31 -14 -80 -14q-186 0 -186 158v53q-9 -19 -24 -41t-48.5 -55t-74 -58.5t-104.5 -44t-136 -18.5q-155 0 -254 81.5t-99 237.5q0 76 26 131t78.5 91t118.5 57.5t158 36.5q22 4 74 11.5
t81 12.5t68.5 13t68 17.5t48.5 20.5v11q0 120 -58.5 166.5t-170.5 46.5q-207 0 -231 -146h-197q15 148 125 224.5t305 76.5q227 0 330.5 -97.5t103.5 -320.5v-444zM784 338v229q-16 -8 -38.5 -15.5t-42 -13t-53.5 -12t-53.5 -10.5t-62.5 -11.5t-61 -10.5
q-112 -21 -157.5 -63.5t-45.5 -117.5q0 -79 51.5 -127.5t145.5 -48.5q55 0 105 17t83 39t62 53.5t42.5 51t24.5 40.5z" />
    <glyph glyph-name="acircumflex" unicode="&#xe2;" horiz-adv-x="1112" 
d="M555 1354l-193 -174h-163l170 272h370l170 -272h-164zM991 213q0 -44 18.5 -64t59.5 -20v-123q-31 -14 -80 -14q-186 0 -186 158v53q-9 -19 -24 -41t-48.5 -55t-74 -58.5t-104.5 -44t-136 -18.5q-155 0 -254 81.5t-99 237.5q0 76 26 131t78.5 91t118.5 57.5t158 36.5
q22 4 74 11.5t81 12.5t68.5 13t68 17.5t48.5 20.5v11q0 120 -58.5 166.5t-170.5 46.5q-207 0 -231 -146h-197q15 148 125 224.5t305 76.5q227 0 330.5 -97.5t103.5 -320.5v-444zM784 338v229q-16 -8 -38.5 -15.5t-42 -13t-53.5 -12t-53.5 -10.5t-62.5 -11.5t-61 -10.5
q-112 -21 -157.5 -63.5t-45.5 -117.5q0 -79 51.5 -127.5t145.5 -48.5q55 0 105 17t83 39t62 53.5t42.5 51t24.5 40.5z" />
    <glyph glyph-name="atilde" unicode="&#xe3;" horiz-adv-x="1112" 
d="M367 1360q-45 0 -74 -23.5t-27 -54.5h-90q0 100 60 162.5t159 62.5q51 0 100.5 -24t83 -52.5t79.5 -52.5t90 -24q45 0 72.5 24.5t25.5 55.5h92q0 -101 -60.5 -163.5t-158.5 -62.5q-51 0 -100.5 24t-83.5 52t-79.5 52t-88.5 24zM991 213q0 -44 18.5 -64t59.5 -20v-123
q-31 -14 -80 -14q-186 0 -186 158v53q-9 -19 -24 -41t-48.5 -55t-74 -58.5t-104.5 -44t-136 -18.5q-155 0 -254 81.5t-99 237.5q0 76 26 131t78.5 91t118.5 57.5t158 36.5q22 4 74 11.5t81 12.5t68.5 13t68 17.5t48.5 20.5v11q0 120 -58.5 166.5t-170.5 46.5
q-207 0 -231 -146h-197q15 148 125 224.5t305 76.5q227 0 330.5 -97.5t103.5 -320.5v-444zM784 338v229q-16 -8 -38.5 -15.5t-42 -13t-53.5 -12t-53.5 -10.5t-62.5 -11.5t-61 -10.5q-112 -21 -157.5 -63.5t-45.5 -117.5q0 -79 51.5 -127.5t145.5 -48.5q55 0 105 17t83 39
t62 53.5t42.5 51t24.5 40.5z" />
    <glyph glyph-name="adieresis" unicode="&#xe4;" horiz-adv-x="1112" 
d="M436 1452v-197h-213v197h213zM887 1452v-197h-213v197h213zM991 213q0 -44 18.5 -64t59.5 -20v-123q-31 -14 -80 -14q-186 0 -186 158v53q-9 -19 -24 -41t-48.5 -55t-74 -58.5t-104.5 -44t-136 -18.5q-155 0 -254 81.5t-99 237.5q0 76 26 131t78.5 91t118.5 57.5
t158 36.5q22 4 74 11.5t81 12.5t68.5 13t68 17.5t48.5 20.5v11q0 120 -58.5 166.5t-170.5 46.5q-207 0 -231 -146h-197q15 148 125 224.5t305 76.5q227 0 330.5 -97.5t103.5 -320.5v-444zM784 338v229q-16 -8 -38.5 -15.5t-42 -13t-53.5 -12t-53.5 -10.5t-62.5 -11.5
t-61 -10.5q-112 -21 -157.5 -63.5t-45.5 -117.5q0 -79 51.5 -127.5t145.5 -48.5q55 0 105 17t83 39t62 53.5t42.5 51t24.5 40.5z" />
    <glyph glyph-name="aring" unicode="&#xe5;" horiz-adv-x="1112" 
d="M555 1188q-77 0 -131.5 54t-54.5 130t54.5 130t131.5 54t131.5 -54t54.5 -130t-54.5 -130t-131.5 -54zM555 1460q-37 0 -62.5 -24.5t-25.5 -63.5q0 -38 25.5 -63t62.5 -25t63.5 25t26.5 63q0 39 -26 63.5t-64 24.5zM991 213q0 -44 18.5 -64t59.5 -20v-123
q-31 -14 -80 -14q-186 0 -186 158v53q-9 -19 -24 -41t-48.5 -55t-74 -58.5t-104.5 -44t-136 -18.5q-155 0 -254 81.5t-99 237.5q0 76 26 131t78.5 91t118.5 57.5t158 36.5q22 4 74 11.5t81 12.5t68.5 13t68 17.5t48.5 20.5v11q0 120 -58.5 166.5t-170.5 46.5
q-207 0 -231 -146h-197q15 148 125 224.5t305 76.5q227 0 330.5 -97.5t103.5 -320.5v-444zM784 338v229q-16 -8 -38.5 -15.5t-42 -13t-53.5 -12t-53.5 -10.5t-62.5 -11.5t-61 -10.5q-112 -21 -157.5 -63.5t-45.5 -117.5q0 -79 51.5 -127.5t145.5 -48.5q55 0 105 17t83 39
t62 53.5t42.5 51t24.5 40.5z" />
    <glyph glyph-name="ae" unicode="&#xe6;" horiz-adv-x="1839" 
d="M1778 514q0 -35 -2 -53h-791q29 -318 320 -318q93 0 152 27.5t99 89.5h187q-58 -141 -168.5 -207.5t-282.5 -66.5q-137 0 -253.5 61t-182.5 182q-73 -111 -183.5 -177t-256.5 -66q-154 0 -253.5 80t-99.5 229q0 270 371 319q16 2 55.5 6.5t59 7t54 7.5t55.5 9.5
t46.5 10.5t45 13t34.5 16v23q0 119 -58.5 166t-172.5 47q-205 0 -229 -140h-197q15 144 125.5 219.5t300.5 75.5q278 0 375 -145q70 72 165 108.5t199 36.5q79 0 149.5 -20t132.5 -63.5t107 -108t71 -159t26 -210.5zM985 596h594q-3 153 -79.5 237.5t-207.5 84.5
q-127 0 -209.5 -82t-97.5 -240zM784 332v223q-16 -9 -37.5 -16t-40.5 -12.5t-52.5 -11.5t-54.5 -9.5t-67.5 -11t-70.5 -11.5q-189 -25 -189 -180q0 -72 51 -119t144 -47q55 0 105 16t83 38t62 52t42.5 49.5t24.5 39.5z" />
    <glyph glyph-name="ccedilla" unicode="&#xe7;" horiz-adv-x="1083" 
d="M1022 340q-23 -114 -82.5 -191.5t-131.5 -112.5t-161 -46l-100 -105q79 3 137.5 -39.5t58.5 -121.5q0 -47 -18.5 -82.5t-49.5 -57.5t-77 -35.5t-94.5 -18.5t-108.5 -5v90q189 3 189 102q0 53 -47 67.5t-103 -20.5l-51 82l90 148q-82 14 -153.5 52.5t-130 102t-92.5 161.5
t-34 220q0 112 29 204.5t78 155t114.5 105t136.5 61.5t146 19q77 0 144 -17.5t129 -55.5t107.5 -107.5t66.5 -165.5h-191q-29 87 -90 131.5t-164 44.5q-134 0 -220.5 -97t-86.5 -278q0 -183 87 -278.5t222 -95.5q106 0 169.5 46t93.5 138h188z" />
    <glyph glyph-name="egrave" unicode="&#xe8;" horiz-adv-x="1116" 
d="M682 1190h-178l-223 262h227zM1055 514q0 -35 -2 -53h-791q29 -318 320 -318q93 0 152.5 27.5t99.5 89.5h186q-58 -141 -168.5 -207.5t-282.5 -66.5q-78 0 -151 20t-138 63t-113 105t-76 153t-28 201q0 111 28.5 203.5t77 155t113.5 106t137.5 63t149.5 19.5
q79 0 149.5 -20t132.5 -63.5t107 -108t71 -159t26 -210.5zM262 596h594q-3 153 -79.5 237.5t-207.5 84.5q-127 0 -209.5 -82t-97.5 -240z" />
    <glyph glyph-name="eacute" unicode="&#xe9;" horiz-adv-x="1116" 
d="M846 1452l-223 -262h-179l174 262h228zM1055 514q0 -35 -2 -53h-791q29 -318 320 -318q93 0 152.5 27.5t99.5 89.5h186q-58 -141 -168.5 -207.5t-282.5 -66.5q-78 0 -151 20t-138 63t-113 105t-76 153t-28 201q0 111 28.5 203.5t77 155t113.5 106t137.5 63t149.5 19.5
q79 0 149.5 -20t132.5 -63.5t107 -108t71 -159t26 -210.5zM262 596h594q-3 153 -79.5 237.5t-207.5 84.5q-127 0 -209.5 -82t-97.5 -240z" />
    <glyph glyph-name="ecircumflex" unicode="&#xea;" horiz-adv-x="1116" 
d="M565 1354l-192 -174h-164l170 272h371l170 -272h-164zM1055 514q0 -35 -2 -53h-791q29 -318 320 -318q93 0 152.5 27.5t99.5 89.5h186q-58 -141 -168.5 -207.5t-282.5 -66.5q-78 0 -151 20t-138 63t-113 105t-76 153t-28 201q0 111 28.5 203.5t77 155t113.5 106t137.5 63
t149.5 19.5q79 0 149.5 -20t132.5 -63.5t107 -108t71 -159t26 -210.5zM262 596h594q-3 153 -79.5 237.5t-207.5 84.5q-127 0 -209.5 -82t-97.5 -240z" />
    <glyph glyph-name="edieresis" unicode="&#xeb;" horiz-adv-x="1116" 
d="M446 1452v-197h-213v197h213zM897 1452v-197h-213v197h213zM1055 514q0 -35 -2 -53h-791q29 -318 320 -318q93 0 152.5 27.5t99.5 89.5h186q-58 -141 -168.5 -207.5t-282.5 -66.5q-78 0 -151 20t-138 63t-113 105t-76 153t-28 201q0 111 28.5 203.5t77 155t113.5 106
t137.5 63t149.5 19.5q79 0 149.5 -20t132.5 -63.5t107 -108t71 -159t26 -210.5zM262 596h594q-3 153 -79.5 237.5t-207.5 84.5q-127 0 -209.5 -82t-97.5 -240z" />
    <glyph glyph-name="igrave" unicode="&#xec;" horiz-adv-x="436" 
d="M334 1190l-174 262h-228l224 -262h178zM115 1065h207v-1065h-207v1065z" />
    <glyph glyph-name="iacute" unicode="&#xed;" horiz-adv-x="436" 
d="M96 1190h178l224 262h-228zM115 1065h207v-1065h-207v1065z" />
    <glyph glyph-name="icircumflex" unicode="&#xee;" horiz-adv-x="436" 
d="M408 1180l-191 174l-192 -174h-164l170 272h370l170 -272h-163zM115 1065h207v-1065h-207v1065z" />
    <glyph glyph-name="idieresis" unicode="&#xef;" horiz-adv-x="436" 
d="M-115 1452h213v-197h-213v197zM336 1452h213v-197h-213v197zM115 1065h207v-1065h-207v1065z" />
    <glyph glyph-name="eth" unicode="&#xf0;" horiz-adv-x="1185" 
d="M846 1192q132 -186 179.5 -324.5t47.5 -332.5q0 -137 -41 -244.5t-112 -174.5t-163.5 -101.5t-199.5 -34.5q-98 0 -186 34.5t-157.5 99.5t-110 169t-40.5 233q0 263 129 406t345 143q148 0 247 -84q-56 103 -118 188l-217 -26v98l149 19q-66 83 -154 174h213
q65 -79 119 -152l195 25v-101zM561 160q130 0 217.5 89.5t87.5 266.5q0 192 -80.5 281.5t-224.5 89.5q-134 0 -213.5 -90.5t-79.5 -280.5q0 -176 84.5 -266t208.5 -90z" />
    <glyph glyph-name="ntilde" unicode="&#xf1;" horiz-adv-x="1181" 
d="M401 1360q-45 0 -73.5 -23.5t-26.5 -54.5h-90q0 100 60 162.5t159 62.5q51 0 100.5 -24t83 -52.5t79 -52.5t89.5 -24q45 0 73 24.5t26 55.5h92q0 -101 -60.5 -163.5t-158.5 -62.5q-51 0 -101 24t-83.5 52t-79.5 52t-89 24zM688 1075q84 0 150.5 -22.5t119 -71.5
t81 -134.5t28.5 -203.5v-643h-207v635q0 142 -64 204t-180 62q-65 0 -120 -26t-90 -66.5t-56 -81.5t-28 -78v-649h-207v1065h207v-238q11 33 38 72t71 80.5t112 68.5t145 27z" />
    <glyph glyph-name="ograve" unicode="&#xf2;" horiz-adv-x="1136" 
d="M686 1190l-174 262h-227l223 -262h178zM569 1075q71 0 140.5 -19.5t135.5 -62.5t116.5 -105t81 -154.5t30.5 -203.5t-30.5 -203.5t-81 -154t-116.5 -104.5t-135.5 -62.5t-140.5 -19.5t-141 19.5t-136.5 62.5t-117 104.5t-81 154t-30.5 203.5t30.5 203.5t81 154.5t117 105
t136.5 62.5t141 19.5zM874 530q0 94 -25 167.5t-68.5 118t-97 67t-114.5 22.5t-115 -22.5t-97.5 -67t-69 -118t-25.5 -167.5t25.5 -167.5t69 -117.5t97.5 -66.5t115 -22.5t114.5 22.5t97 66.5t68.5 117.5t25 167.5z" />
    <glyph glyph-name="oacute" unicode="&#xf3;" horiz-adv-x="1136" 
d="M449 1190h178l223 262h-227zM569 1075q71 0 140.5 -19.5t135.5 -62.5t116.5 -105t81 -154.5t30.5 -203.5t-30.5 -203.5t-81 -154t-116.5 -104.5t-135.5 -62.5t-140.5 -19.5t-141 19.5t-136.5 62.5t-117 104.5t-81 154t-30.5 203.5t30.5 203.5t81 154.5t117 105
t136.5 62.5t141 19.5zM874 530q0 94 -25 167.5t-68.5 118t-97 67t-114.5 22.5t-115 -22.5t-97.5 -67t-69 -118t-25.5 -167.5t25.5 -167.5t69 -117.5t97.5 -66.5t115 -22.5t114.5 22.5t97 66.5t68.5 117.5t25 167.5z" />
    <glyph glyph-name="ocircumflex" unicode="&#xf4;" horiz-adv-x="1136" 
d="M760 1180l-191 174l-192 -174h-164l170 272h371l170 -272h-164zM569 1075q71 0 140.5 -19.5t135.5 -62.5t116.5 -105t81 -154.5t30.5 -203.5t-30.5 -203.5t-81 -154t-116.5 -104.5t-135.5 -62.5t-140.5 -19.5t-141 19.5t-136.5 62.5t-117 104.5t-81 154t-30.5 203.5
t30.5 203.5t81 154.5t117 105t136.5 62.5t141 19.5zM874 530q0 94 -25 167.5t-68.5 118t-97 67t-114.5 22.5t-115 -22.5t-97.5 -67t-69 -118t-25.5 -167.5t25.5 -167.5t69 -117.5t97.5 -66.5t115 -22.5t114.5 22.5t97 66.5t68.5 117.5t25 167.5z" />
    <glyph glyph-name="otilde" unicode="&#xf5;" horiz-adv-x="1136" 
d="M860 1434h92q0 -101 -60.5 -163.5t-158.5 -62.5q-51 0 -100.5 24t-83.5 52t-79.5 52t-88.5 24q-45 0 -73.5 -23.5t-26.5 -54.5h-91q0 100 60.5 162.5t159.5 62.5q51 0 100.5 -24t83 -52.5t79 -52.5t89.5 -24q45 0 72.5 24.5t25.5 55.5zM569 1075q71 0 140.5 -19.5
t135.5 -62.5t116.5 -105t81 -154.5t30.5 -203.5t-30.5 -203.5t-81 -154t-116.5 -104.5t-135.5 -62.5t-140.5 -19.5t-141 19.5t-136.5 62.5t-117 104.5t-81 154t-30.5 203.5t30.5 203.5t81 154.5t117 105t136.5 62.5t141 19.5zM874 530q0 94 -25 167.5t-68.5 118t-97 67
t-114.5 22.5t-115 -22.5t-97.5 -67t-69 -118t-25.5 -167.5t25.5 -167.5t69 -117.5t97.5 -66.5t115 -22.5t114.5 22.5t97 66.5t68.5 117.5t25 167.5z" />
    <glyph glyph-name="odieresis" unicode="&#xf6;" horiz-adv-x="1136" 
d="M238 1452h213v-197h-213v197zM688 1452h213v-197h-213v197zM569 1075q71 0 140.5 -19.5t135.5 -62.5t116.5 -105t81 -154.5t30.5 -203.5t-30.5 -203.5t-81 -154t-116.5 -104.5t-135.5 -62.5t-140.5 -19.5t-141 19.5t-136.5 62.5t-117 104.5t-81 154t-30.5 203.5
t30.5 203.5t81 154.5t117 105t136.5 62.5t141 19.5zM874 530q0 94 -25 167.5t-68.5 118t-97 67t-114.5 22.5t-115 -22.5t-97.5 -67t-69 -118t-25.5 -167.5t25.5 -167.5t69 -117.5t97.5 -66.5t115 -22.5t114.5 22.5t97 66.5t68.5 117.5t25 167.5z" />
    <glyph glyph-name="divide" unicode="&#xf7;" horiz-adv-x="954" 
d="M479 807q-40 0 -68 28t-28 68q0 38 28 66t68 28q38 0 66 -28t28 -66q0 -40 -28 -68t-66 -28zM82 649h635v-157h-635v157zM479 143q-40 0 -68 28.5t-28 68.5q0 38 28 66t68 28q38 0 66 -28t28 -66q0 -40 -28 -68.5t-66 -28.5z" />
    <glyph glyph-name="oslash" unicode="&#xf8;" horiz-adv-x="1136" 
d="M868 979q94 -69 149.5 -181.5t55.5 -267.5q0 -111 -30.5 -203.5t-81 -154t-116.5 -104.5t-135.5 -62.5t-140.5 -19.5q-86 0 -163 26l-56 -114h-182l92 192q-197 150 -197 440q0 111 30.5 203.5t81 154.5t117 105t136.5 62.5t141 19.5q72 0 152 -22l63 131h183zM262 530
q0 -168 80 -268l305 633q-45 10 -78 10q-61 0 -115 -22.5t-97.5 -67t-69 -118t-25.5 -167.5zM569 156q61 0 114.5 22.5t97 66.5t68.5 117.5t25 167.5q0 178 -88 279l-307 -641q43 -12 90 -12z" />
    <glyph glyph-name="ugrave" unicode="&#xf9;" horiz-adv-x="1171" 
d="M694 1190h-178l-223 262h227zM850 1065h207v-1065h-207v236q-8 -26 -26.5 -56.5t-51 -65.5t-72.5 -63t-97.5 -46.5t-119.5 -18.5q-84 0 -150.5 23t-119 72t-81 135t-28.5 204v645h207v-637q0 -268 244 -268q65 0 120.5 26.5t90 67.5t56 82t28.5 78v651z" />
    <glyph glyph-name="uacute" unicode="&#xfa;" horiz-adv-x="1171" 
d="M858 1452l-223 -262h-178l174 262h227zM850 1065h207v-1065h-207v236q-8 -26 -26.5 -56.5t-51 -65.5t-72.5 -63t-97.5 -46.5t-119.5 -18.5q-84 0 -150.5 23t-119 72t-81 135t-28.5 204v645h207v-637q0 -268 244 -268q65 0 120.5 26.5t90 67.5t56 82t28.5 78v651z" />
    <glyph glyph-name="ucircumflex" unicode="&#xfb;" horiz-adv-x="1171" 
d="M578 1354l-193 -174h-164l170 272h371l170 -272h-164zM850 1065h207v-1065h-207v236q-8 -26 -26.5 -56.5t-51 -65.5t-72.5 -63t-97.5 -46.5t-119.5 -18.5q-84 0 -150.5 23t-119 72t-81 135t-28.5 204v645h207v-637q0 -268 244 -268q65 0 120.5 26.5t90 67.5t56 82
t28.5 78v651z" />
    <glyph glyph-name="udieresis" unicode="&#xfc;" horiz-adv-x="1171" 
d="M459 1452v-197h-213v197h213zM909 1452v-197h-213v197h213zM850 1065h207v-1065h-207v236q-8 -26 -26.5 -56.5t-51 -65.5t-72.5 -63t-97.5 -46.5t-119.5 -18.5q-84 0 -150.5 23t-119 72t-81 135t-28.5 204v645h207v-637q0 -268 244 -268q65 0 120.5 26.5t90 67.5t56 82
t28.5 78v651z" />
    <glyph glyph-name="yacute" unicode="&#xfd;" horiz-adv-x="1122" 
d="M442 1190h179l223 262h-228zM870 1065h211l-452 -1116q-83 -205 -190.5 -282.5t-280.5 -57.5v178q117 -14 181.5 29t100.5 131q15 40 15 65t-15 62l-397 991h213l303 -817z" />
    <glyph glyph-name="thorn" unicode="&#xfe;" horiz-adv-x="1191" 
d="M1128 535v-3q0 -112 -28.5 -205t-75 -155t-109 -105t-128.5 -62t-134 -19q-129 0 -214.5 61t-116.5 141v-577h-207v1835h207v-559q43 83 132.5 135.5t202.5 52.5q66 0 131.5 -19.5t127 -62t108.5 -104t75.5 -153t28.5 -201.5zM618 156q131 0 220.5 95t89.5 281
q0 95 -25.5 168.5t-69.5 117t-98.5 65.5t-116.5 22q-131 0 -219 -95t-88 -278q0 -182 88.5 -279t218.5 -97z" />
    <glyph glyph-name="ydieresis" unicode="&#xff;" horiz-adv-x="1122" 
d="M231 1452h213v-197h-213v197zM682 1452h213v-197h-213v197zM870 1065h211l-452 -1116q-83 -205 -190.5 -282.5t-280.5 -57.5v178q117 -14 181.5 29t100.5 131q15 40 15 65t-15 62l-397 991h213l303 -817z" />
    <glyph glyph-name="Amacron" unicode="&#x100;" horiz-adv-x="1427" 
d="M1047 1821v-125h-666v125h666zM1141 0l-125 336h-606l-123 -336h-234l565 1434h191l565 -1434h-233zM469 498h487l-243 661z" />
    <glyph glyph-name="amacron" unicode="&#x101;" horiz-adv-x="1112" 
d="M889 1452v-125h-666v125h666zM991 213q0 -44 18.5 -64t59.5 -20v-123q-31 -14 -80 -14q-186 0 -186 158v53q-9 -19 -24 -41t-48.5 -55t-74 -58.5t-104.5 -44t-136 -18.5q-155 0 -254 81.5t-99 237.5q0 76 26 131t78.5 91t118.5 57.5t158 36.5q22 4 74 11.5t81 12.5
t68.5 13t68 17.5t48.5 20.5v11q0 120 -58.5 166.5t-170.5 46.5q-207 0 -231 -146h-197q15 148 125 224.5t305 76.5q227 0 330.5 -97.5t103.5 -320.5v-444zM784 338v229q-16 -8 -38.5 -15.5t-42 -13t-53.5 -12t-53.5 -10.5t-62.5 -11.5t-61 -10.5q-112 -21 -157.5 -63.5
t-45.5 -117.5q0 -79 51.5 -127.5t145.5 -48.5q55 0 105 17t83 39t62 53.5t42.5 51t24.5 40.5z" />
    <glyph glyph-name="Abreve" unicode="&#x102;" horiz-adv-x="1427" 
d="M713 1540q-156 0 -235 78t-79 203h140q16 -140 174 -140q83 0 125 35.5t51 104.5h139q0 -126 -79 -203.5t-236 -77.5zM1141 0l-125 336h-606l-123 -336h-234l565 1434h191l565 -1434h-233zM469 498h487l-243 661z" />
    <glyph glyph-name="abreve" unicode="&#x103;" horiz-adv-x="1112" 
d="M555 1171q-156 0 -234.5 77.5t-78.5 203.5h139q8 -69 49 -104t125 -35q83 0 125 35t51 104h139q0 -126 -79 -203.5t-236 -77.5zM991 213q0 -44 18.5 -64t59.5 -20v-123q-31 -14 -80 -14q-186 0 -186 158v53q-9 -19 -24 -41t-48.5 -55t-74 -58.5t-104.5 -44t-136 -18.5
q-155 0 -254 81.5t-99 237.5q0 76 26 131t78.5 91t118.5 57.5t158 36.5q22 4 74 11.5t81 12.5t68.5 13t68 17.5t48.5 20.5v11q0 120 -58.5 166.5t-170.5 46.5q-207 0 -231 -146h-197q15 148 125 224.5t305 76.5q227 0 330.5 -97.5t103.5 -320.5v-444zM784 338v229
q-16 -8 -38.5 -15.5t-42 -13t-53.5 -12t-53.5 -10.5t-62.5 -11.5t-61 -10.5q-112 -21 -157.5 -63.5t-45.5 -117.5q0 -79 51.5 -127.5t145.5 -48.5q55 0 105 17t83 39t62 53.5t42.5 51t24.5 40.5z" />
    <glyph glyph-name="Aogonek" unicode="&#x104;" horiz-adv-x="1427" 
d="M1294 0q-134 -42 -197 -103t-63 -128q0 -62 51 -83t136 3v-95q-38 -19 -87 -28.5t-101 -6t-95.5 20t-71.5 56t-28 96.5q0 51 28.5 98t73.5 80t97 56t104 34l-125 336h-606l-123 -336h-234l565 1434h191l565 -1434h-80zM469 498h487l-243 661z" />
    <glyph glyph-name="aogonek" unicode="&#x105;" horiz-adv-x="1112" 
d="M1069 129v-123l-16 -6h8q-134 -42 -197 -103t-63 -128q0 -62 50.5 -83t135.5 3v-95q-38 -19 -87 -28.5t-101 -6t-95.5 20t-71.5 56t-28 96.5q0 51 28.5 98t73.5 80t97 56t104 34h8q-112 29 -112 150v53q-9 -19 -24 -41t-48.5 -55t-74 -58.5t-104.5 -44t-136 -18.5
q-155 0 -254 81.5t-99 237.5q0 76 26 131t78.5 91t118.5 57.5t158 36.5q22 4 74 11.5t81 12.5t68.5 13t68 17.5t48.5 20.5v11q0 120 -58.5 166.5t-170.5 46.5q-207 0 -231 -146h-197q15 148 125 224.5t305 76.5q227 0 330.5 -97.5t103.5 -320.5v-444q0 -44 18.5 -64
t59.5 -20zM784 338v229q-16 -8 -38.5 -15.5t-42 -13t-53.5 -12t-53.5 -10.5t-62.5 -11.5t-61 -10.5q-112 -21 -157.5 -63.5t-45.5 -117.5q0 -79 51.5 -127.5t145.5 -48.5q55 0 105 17t83 39t62 53.5t42.5 51t24.5 40.5z" />
    <glyph glyph-name="Cacute" unicode="&#x106;" horiz-adv-x="1353" 
d="M604 1559h178l224 262h-228zM729 170q263 0 346 225h217q-34 -197 -189.5 -305t-377.5 -108q-141 0 -258 47t-202.5 138t-133 231.5t-47.5 318.5t47.5 318.5t133 231.5t202.5 138t258 47q144 0 262 -46.5t198 -140.5t103 -225h-217q-84 224 -342 224q-194 0 -307 -141.5
t-113 -405.5q0 -262 113 -404.5t307 -142.5z" />
    <glyph glyph-name="cacute" unicode="&#x107;" horiz-adv-x="1083" 
d="M430 1190h178l223 262h-227zM571 156q106 0 169.5 46t93.5 138h188q-17 -80 -51 -142t-77.5 -101.5t-98.5 -65t-110 -35.5t-116 -10q-75 0 -146 19t-137 61t-115 104t-78.5 154.5t-29.5 205.5q0 112 29 204.5t78 155t114.5 105t136.5 61.5t146 19q77 0 144 -17.5
t129 -55.5t107.5 -107.5t66.5 -165.5h-191q-29 87 -90 131.5t-164 44.5q-134 0 -220.5 -97t-86.5 -278q0 -183 87 -278.5t222 -95.5z" />
    <glyph glyph-name="Cdotaccent" unicode="&#x10a;" horiz-adv-x="1353" 
d="M618 1821h213v-197h-213v197zM729 170q263 0 346 225h217q-34 -197 -189.5 -305t-377.5 -108q-141 0 -258 47t-202.5 138t-133 231.5t-47.5 318.5t47.5 318.5t133 231.5t202.5 138t258 47q144 0 262 -46.5t198 -140.5t103 -225h-217q-84 224 -342 224q-194 0 -307 -141.5
t-113 -405.5q0 -262 113 -404.5t307 -142.5z" />
    <glyph glyph-name="cdotaccent" unicode="&#x10b;" horiz-adv-x="1083" 
d="M444 1452h213v-197h-213v197zM571 156q106 0 169.5 46t93.5 138h188q-17 -80 -51 -142t-77.5 -101.5t-98.5 -65t-110 -35.5t-116 -10q-75 0 -146 19t-137 61t-115 104t-78.5 154.5t-29.5 205.5q0 112 29 204.5t78 155t114.5 105t136.5 61.5t146 19q77 0 144 -17.5
t129 -55.5t107.5 -107.5t66.5 -165.5h-191q-29 87 -90 131.5t-164 44.5q-134 0 -220.5 -97t-86.5 -278q0 -183 87 -278.5t222 -95.5z" />
    <glyph glyph-name="Ccaron" unicode="&#x10c;" horiz-adv-x="1353" 
d="M913 1802h164l-170 -272h-370l-170 272h163l193 -174zM729 170q263 0 346 225h217q-34 -197 -189.5 -305t-377.5 -108q-141 0 -258 47t-202.5 138t-133 231.5t-47.5 318.5t47.5 318.5t133 231.5t202.5 138t258 47q144 0 262 -46.5t198 -140.5t103 -225h-217
q-84 224 -342 224q-194 0 -307 -141.5t-113 -405.5q0 -262 113 -404.5t307 -142.5z" />
    <glyph glyph-name="ccaron" unicode="&#x10d;" horiz-adv-x="1083" 
d="M739 1434h164l-170 -273h-371l-169 273h163l193 -174zM571 156q106 0 169.5 46t93.5 138h188q-17 -80 -51 -142t-77.5 -101.5t-98.5 -65t-110 -35.5t-116 -10q-75 0 -146 19t-137 61t-115 104t-78.5 154.5t-29.5 205.5q0 112 29 204.5t78 155t114.5 105t136.5 61.5
t146 19q77 0 144 -17.5t129 -55.5t107.5 -107.5t66.5 -165.5h-191q-29 87 -90 131.5t-164 44.5q-134 0 -220.5 -97t-86.5 -278q0 -183 87 -278.5t222 -95.5z" />
    <glyph glyph-name="Dcaron" unicode="&#x10e;" horiz-adv-x="1366" 
d="M862 1530h-370l-170 272h163l193 -174l190 174h164zM598 1434q343 0 518.5 -185t175.5 -532t-175.5 -532t-518.5 -185h-483v1434h483zM580 188q261 0 379 128t118 401q0 274 -117.5 401t-379.5 127h-250v-1057h250z" />
    <glyph glyph-name="dcaron" unicode="&#x10f;" horiz-adv-x="1499" 
d="M535 1075q113 0 202.5 -52.5t132.5 -135.5v559h207v-1446h-207v199q-14 -37 -40.5 -72.5t-66.5 -68t-98.5 -52.5t-125.5 -20q-68 0 -134.5 19t-128.5 62t-109 105t-75.5 155t-28.5 205q0 110 28.5 202t75.5 154t109 105t127.5 62.5t131.5 19.5zM1139 1184h178l223 262
h-227zM573 156q131 0 219.5 97t88.5 279q0 183 -88.5 278t-219.5 95q-134 0 -221.5 -94t-87.5 -279q0 -186 87.5 -281t221.5 -95z" />
    <glyph glyph-name="Dcroat" unicode="&#x110;" horiz-adv-x="1419" 
d="M653 1434q343 0 519 -185t176 -532t-176 -532t-519 -185h-483v631h-129v157h129v646h483zM635 188q262 0 380 128t118 401q0 274 -118 401t-380 127h-250v-457h242v-157h-242v-443h250z" />
    <glyph glyph-name="dcroat" unicode="&#x111;" horiz-adv-x="1284" 
d="M1251 1321v-125h-174v-1196h-207v199q-14 -37 -40.5 -72.5t-66.5 -68t-98.5 -52.5t-125.5 -20q-68 0 -134.5 19t-128.5 62t-109 105t-75.5 155t-28.5 205q0 110 28.5 202t75.5 154t109 105t127.5 62.5t131.5 19.5q113 0 202.5 -52.5t132.5 -135.5v309h-284v125h284v125
h207v-125h174zM573 156q131 0 219.5 97t88.5 279q0 183 -88.5 278t-219.5 95q-134 0 -221.5 -94t-87.5 -279q0 -186 87.5 -281t221.5 -95z" />
    <glyph glyph-name="Emacron" unicode="&#x112;" horiz-adv-x="1150" 
d="M924 1821v-125h-666v125h666zM330 188h760v-188h-975v1434h954v-189h-739v-424h637v-176h-637v-457z" />
    <glyph glyph-name="emacron" unicode="&#x113;" horiz-adv-x="1116" 
d="M899 1452v-125h-666v125h666zM1055 514q0 -35 -2 -53h-791q29 -318 320 -318q93 0 152.5 27.5t99.5 89.5h186q-58 -141 -168.5 -207.5t-282.5 -66.5q-78 0 -151 20t-138 63t-113 105t-76 153t-28 201q0 111 28.5 203.5t77 155t113.5 106t137.5 63t149.5 19.5
q79 0 149.5 -20t132.5 -63.5t107 -108t71 -159t26 -210.5zM262 596h594q-3 153 -79.5 237.5t-207.5 84.5q-127 0 -209.5 -82t-97.5 -240z" />
    <glyph glyph-name="Edotaccent" unicode="&#x116;" horiz-adv-x="1150" 
d="M696 1821v-197h-213v197h213zM330 188h760v-188h-975v1434h954v-189h-739v-424h637v-176h-637v-457z" />
    <glyph glyph-name="edotaccent" unicode="&#x117;" horiz-adv-x="1116" 
d="M672 1452v-197h-213v197h213zM1055 514q0 -35 -2 -53h-791q29 -318 320 -318q93 0 152.5 27.5t99.5 89.5h186q-58 -141 -168.5 -207.5t-282.5 -66.5q-78 0 -151 20t-138 63t-113 105t-76 153t-28 201q0 111 28.5 203.5t77 155t113.5 106t137.5 63t149.5 19.5
q79 0 149.5 -20t132.5 -63.5t107 -108t71 -159t26 -210.5zM262 596h594q-3 153 -79.5 237.5t-207.5 84.5q-127 0 -209.5 -82t-97.5 -240z" />
    <glyph glyph-name="Eogonek" unicode="&#x118;" horiz-adv-x="1150" 
d="M1090 0q-134 -42 -197.5 -103t-63.5 -128q0 -62 51 -83t136 3v-95q-38 -19 -87 -28.5t-101 -6t-95.5 20t-71.5 56t-28 96.5q0 51 28.5 98t73.5 80t97 56t104 34h-821v1434h954v-189h-739v-424h637v-176h-637v-457h760v-188z" />
    <glyph glyph-name="eogonek" unicode="&#x119;" horiz-adv-x="1116" 
d="M1055 514q0 -35 -2 -53h-791q29 -318 320 -318q93 0 152.5 27.5t99.5 89.5h186q-90 -223 -324 -264h17q-134 -42 -197 -103.5t-63 -128.5q0 -62 50.5 -82.5t135.5 3.5v-95q-38 -19 -87 -28.5t-101 -6t-95.5 20t-71.5 56t-28 96.5q0 91 80.5 160.5t187.5 99.5
q-93 7 -174 43t-146 100t-103 166.5t-38 230.5q0 111 28.5 203.5t77 155t113.5 106t137.5 63t149.5 19.5q79 0 149.5 -20t132.5 -63.5t107 -108t71 -159t26 -210.5zM262 596h594q-3 153 -79.5 237.5t-207.5 84.5q-127 0 -209.5 -82t-97.5 -240z" />
    <glyph glyph-name="Ecaron" unicode="&#x11a;" horiz-adv-x="1150" 
d="M772 1530h-371l-170 272h164l193 -174l190 174h164zM330 188h760v-188h-975v1434h954v-189h-739v-424h637v-176h-637v-457z" />
    <glyph glyph-name="ecaron" unicode="&#x11b;" horiz-adv-x="1116" 
d="M748 1161h-371l-170 273h164l192 -174l191 174h164zM1055 514q0 -35 -2 -53h-791q29 -318 320 -318q93 0 152.5 27.5t99.5 89.5h186q-58 -141 -168.5 -207.5t-282.5 -66.5q-78 0 -151 20t-138 63t-113 105t-76 153t-28 201q0 111 28.5 203.5t77 155t113.5 106t137.5 63
t149.5 19.5q79 0 149.5 -20t132.5 -63.5t107 -108t71 -159t26 -210.5zM262 596h594q-3 153 -79.5 237.5t-207.5 84.5q-127 0 -209.5 -82t-97.5 -240z" />
    <glyph glyph-name="Gbreve" unicode="&#x11e;" horiz-adv-x="1427" 
d="M901 1821h139q0 -126 -79 -203.5t-236 -77.5q-156 0 -234.5 77.5t-78.5 203.5h139q16 -140 174 -140q83 0 125 35.5t51 104.5zM1333 752v-88q0 -682 -598 -682q-145 0 -264 47t-205.5 138t-134 231t-47.5 319q0 178 47.5 318.5t133 231.5t202 138t258.5 47
q211 0 360 -101t191 -284h-217q-88 197 -330 197q-194 0 -307 -141.5t-113 -405.5q0 -262 113.5 -404.5t312.5 -142.5q388 0 402 410h-346v172h542z" />
    <glyph glyph-name="gbreve" unicode="&#x11f;" horiz-adv-x="1187" 
d="M561 1171q-156 0 -234.5 77.5t-78.5 203.5h139q8 -69 49 -104t125 -35q83 0 125 35t51 104h140q0 -126 -79.5 -203.5t-236.5 -77.5zM866 1069h207v-1055q0 -110 -32.5 -194.5t-82.5 -134.5t-119 -81.5t-133.5 -43t-134.5 -11.5q-155 0 -274 58t-174 157l129 84
q97 -127 301 -127q155 0 234 69t79 224v185q-33 -83 -119 -147t-215 -64q-67 0 -131.5 19t-126 62t-108.5 104.5t-75 154.5t-28 204q0 110 28 202t74.5 154t107.5 105t125.5 62.5t129.5 19.5q115 0 205 -52.5t133 -135.5v182zM573 158q130 0 217 96t87 278q0 183 -86.5 278
t-217.5 95t-218 -94.5t-87 -278.5q0 -94 24.5 -167.5t67.5 -117.5t97 -66.5t116 -22.5z" />
    <glyph glyph-name="Gdotaccent" unicode="&#x120;" horiz-adv-x="1427" 
d="M618 1821h213v-197h-213v197zM1333 752v-88q0 -682 -598 -682q-145 0 -264 47t-205.5 138t-134 231t-47.5 319q0 178 47.5 318.5t133 231.5t202 138t258.5 47q211 0 360 -101t191 -284h-217q-88 197 -330 197q-194 0 -307 -141.5t-113 -405.5q0 -262 113.5 -404.5
t312.5 -142.5q388 0 402 410h-346v172h542z" />
    <glyph glyph-name="gdotaccent" unicode="&#x121;" horiz-adv-x="1187" 
d="M668 1452v-197h-213v197h213zM866 1069h207v-1055q0 -110 -32.5 -194.5t-82.5 -134.5t-119 -81.5t-133.5 -43t-134.5 -11.5q-155 0 -274 58t-174 157l129 84q97 -127 301 -127q155 0 234 69t79 224v185q-33 -83 -119 -147t-215 -64q-67 0 -131.5 19t-126 62t-108.5 104.5
t-75 154.5t-28 204q0 110 28 202t74.5 154t107.5 105t125.5 62.5t129.5 19.5q115 0 205 -52.5t133 -135.5v182zM573 158q130 0 217 96t87 278q0 183 -86.5 278t-217.5 95t-218 -94.5t-87 -278.5q0 -94 24.5 -167.5t67.5 -117.5t97 -66.5t116 -22.5z" />
    <glyph glyph-name="Gcommaaccent" unicode="&#x122;" horiz-adv-x="1427" 
d="M1333 752v-88q0 -682 -598 -682q-145 0 -264 47t-205.5 138t-134 231t-47.5 319q0 178 47.5 318.5t133 231.5t202 138t258.5 47q211 0 360 -101t191 -284h-217q-88 197 -330 197q-194 0 -307 -141.5t-113 -405.5q0 -262 113.5 -404.5t312.5 -142.5q388 0 402 410h-346
v172h542zM616 -614v67q95 34 95 180v64h-95v250h236v-281q0 -85 -19.5 -142.5t-55.5 -86t-74 -39.5t-87 -12z" />
    <glyph glyph-name="gcommaaccent" unicode="&#x123;" horiz-adv-x="1187" 
d="M662 1413v-250h-236v281q0 85 19.5 142.5t55.5 86t74 39.5t87 12v-67q-95 -34 -95 -180v-64h95zM866 1069h207v-1055q0 -110 -32.5 -194.5t-82.5 -134.5t-119 -81.5t-133.5 -43t-134.5 -11.5q-155 0 -274 58t-174 157l129 84q97 -127 301 -127q155 0 234 69t79 224v185
q-33 -83 -119 -147t-215 -64q-67 0 -131.5 19t-126 62t-108.5 104.5t-75 154.5t-28 204q0 110 28 202t74.5 154t107.5 105t125.5 62.5t129.5 19.5q115 0 205 -52.5t133 -135.5v182zM573 158q130 0 217 96t87 278q0 183 -86.5 278t-217.5 95t-218 -94.5t-87 -278.5
q0 -94 24.5 -167.5t67.5 -117.5t97 -66.5t116 -22.5z" />
    <glyph glyph-name="Hbar" unicode="&#x126;" horiz-adv-x="1347" 
d="M1018 1434h215v-1434h-215v618h-688v-618h-215v1434h215v-299h688v299zM330 795h688v172h-688v-172z" />
    <glyph glyph-name="hbar" unicode="&#x127;" horiz-adv-x="1243" 
d="M750 1075q378 0 378 -432v-643h-206v635q0 142 -64 204t-180 62q-53 0 -99.5 -17.5t-79 -45t-57.5 -62t-39 -66.5t-20 -61v-649h-207v1112h-143v145h143v189h207v-189h211v-145h-211v-285q11 33 38.5 72.5t71.5 80.5t112 68t145 27z" />
    <glyph glyph-name="Imacron" unicode="&#x12a;" horiz-adv-x="444" 
d="M-111 1821h666v-125h-666v125zM330 0h-215v1434h215v-1434z" />
    <glyph glyph-name="imacron" unicode="&#x12b;" horiz-adv-x="436" 
d="M-115 1452h666v-125h-666v125zM115 1065h207v-1065h-207v1065z" />
    <glyph glyph-name="Iogonek" unicode="&#x12e;" horiz-adv-x="444" 
d="M330 0q-134 -42 -197 -103t-63 -128q0 -62 50.5 -83t135.5 3v-95q-38 -19 -87 -28.5t-101 -6t-95.5 20t-71.5 56t-28 96.5q0 51 28.5 98t73.5 80t97 56t104 34h-61v1434h215v-1434z" />
    <glyph glyph-name="iogonek" unicode="&#x12f;" horiz-adv-x="436" 
d="M111 1452h213v-197h-213v197zM115 0v1065h207v-1065h-54q-134 -42 -197 -103t-63 -128q0 -62 51 -83t136 3v-95q-38 -19 -87 -28.5t-101 -6t-95.5 20t-71.5 56t-28 96.5q0 51 28.5 98t73.5 80t97 56t104 34z" />
    <glyph glyph-name="Idotaccent" unicode="&#x130;" horiz-adv-x="444" 
d="M115 1821h213v-197h-213v197zM330 0h-215v1434h215v-1434z" />
    <glyph glyph-name="dotlessi" unicode="&#x131;" horiz-adv-x="436" 
d="M115 1065h207v-1065h-207v1065z" />
    <glyph glyph-name="IJ" unicode="&#x132;" horiz-adv-x="1484" 
d="M330 0h-215v1434h215v-1434zM602 305q110 -131 291 -131q56 0 102 15.5t85.5 50.5t62 101t22.5 159v934h217v-942q0 -108 -26 -194t-71 -143.5t-107.5 -96t-132.5 -55.5t-150 -17q-135 0 -238 50.5t-170 133.5z" />
    <glyph glyph-name="ij" unicode="&#x133;" horiz-adv-x="878" 
d="M115 1452h207v-176h-207v176zM559 1452h207v-176h-207v176zM115 1065h207v-1065h-207v1065zM281 -238q79 -32 153 -32q66 0 95.5 40.5t29.5 104.5v1190h207v-1215q0 -155 -75.5 -228t-209.5 -73q-123 0 -200 41v172z" />
    <glyph glyph-name="Kcommaaccent" unicode="&#x136;" horiz-adv-x="1353" 
d="M674 778l639 -778h-244l-528 627l-211 -236v-391h-215v1434h215v-752l678 752h249zM559 -303v250h236v-281q0 -85 -19.5 -142.5t-55.5 -86t-74 -39.5t-87 -12v67q51 18 72.5 62.5t21.5 117.5v64h-94z" />
    <glyph glyph-name="kcommaaccent" unicode="&#x137;" horiz-adv-x="1130" 
d="M602 608l506 -608h-229l-406 475l-151 -156v-319h-207v1446h207v-887l485 506h237zM467 -303v250h235v-281q0 -85 -19.5 -142.5t-55 -86t-73.5 -39.5t-87 -12v67q51 18 72.5 62.5t21.5 117.5v64h-94z" />
    <glyph glyph-name="Lacute" unicode="&#x139;" horiz-adv-x="1099" 
d="M131 1554h178l223 263h-227zM330 188h708v-188h-923v1434h215v-1246z" />
    <glyph glyph-name="lacute" unicode="&#x13a;" horiz-adv-x="436" 
d="M96 1571h178l224 262h-228zM115 1446h207v-1446h-207v1446z" />
    <glyph glyph-name="Lcommaaccent" unicode="&#x13b;" horiz-adv-x="1099" 
d="M330 188h708v-188h-923v1434h215v-1246zM432 -625v68q51 18 72.5 62.5t21.5 117.5v64h-94v250h236v-281q0 -68 -13.5 -119.5t-35.5 -81t-54 -48t-63 -25t-70 -7.5z" />
    <glyph glyph-name="lcommaaccent" unicode="&#x13c;" horiz-adv-x="436" 
d="M115 1446h207v-1446h-207v1446zM98 -614v67q95 34 95 180v64h-95v250h236v-281q0 -85 -19.5 -142.5t-55.5 -86t-74 -39.5t-87 -12z" />
    <glyph glyph-name="Lcaron" unicode="&#x13d;" horiz-adv-x="1099" 
d="M330 188h708v-188h-923v1434h215v-1246zM561 872v68q51 18 72.5 62.5t21.5 117.5v64h-94v250h236v-281q0 -68 -13.5 -119.5t-35.5 -81t-54 -48t-63 -25t-70 -7.5z" />
    <glyph glyph-name="lcaron" unicode="&#x13e;" horiz-adv-x="792" 
d="M115 1446h207v-1446h-207v1446zM475 872v68q51 18 72.5 62.5t21.5 117.5v64h-94v250h236v-281q0 -68 -13.5 -119.5t-35.5 -81t-54 -48t-63 -25t-70 -7.5z" />
    <glyph glyph-name="Lslash" unicode="&#x141;" horiz-adv-x="1157" 
d="M387 188h709v-188h-924v465l-139 -148v213l139 148v756h215v-529l207 219h2v-213l-209 -221v-502z" />
    <glyph glyph-name="lslash" unicode="&#x142;" horiz-adv-x="641" 
d="M588 1118v-221l-176 -186v-711h-207v494l-152 -160v223l152 160v729h207v-512l174 184h2z" />
    <glyph glyph-name="Nacute" unicode="&#x143;" horiz-adv-x="1378" 
d="M569 1559h179l223 262h-228zM1264 1434v-1434h-236l-692 1085h-6v-1085h-215v1434h227l698 -1096h7v1096h217z" />
    <glyph glyph-name="nacute" unicode="&#x144;" horiz-adv-x="1181" 
d="M870 1452l-223 -262h-178l174 262h227zM688 1075q84 0 150.5 -22.5t119 -71.5t81 -134.5t28.5 -203.5v-643h-207v635q0 142 -64 204t-180 62q-65 0 -120 -26t-90 -66.5t-56 -81.5t-28 -78v-649h-207v1065h207v-238q11 33 38 72t71 80.5t112 68.5t145 27z" />
    <glyph glyph-name="Ncommaaccent" unicode="&#x145;" horiz-adv-x="1378" 
d="M1264 1434v-1434h-236l-692 1085h-6v-1085h-215v1434h227l698 -1096h7v1096h217zM571 -614v67q95 34 95 180v64h-95v250h236v-281q0 -85 -19.5 -142.5t-55.5 -86t-74 -39.5t-87 -12z" />
    <glyph glyph-name="ncommaaccent" unicode="&#x146;" horiz-adv-x="1181" 
d="M688 1075q84 0 150.5 -22.5t119 -71.5t81 -134.5t28.5 -203.5v-643h-207v635q0 142 -64 204t-180 62q-65 0 -120 -26t-90 -66.5t-56 -81.5t-28 -78v-649h-207v1065h207v-238q11 33 38 72t71 80.5t112 68.5t145 27zM471 -303v250h236v-281q0 -85 -19.5 -142.5t-55.5 -86
t-74 -39.5t-87 -12v67q51 18 72.5 62.5t21.5 117.5v64h-94z" />
    <glyph glyph-name="Ncaron" unicode="&#x147;" horiz-adv-x="1378" 
d="M879 1802h163l-170 -272h-370l-170 272h164l192 -174zM1264 1434v-1434h-236l-692 1085h-6v-1085h-215v1434h227l698 -1096h7v1096h217z" />
    <glyph glyph-name="ncaron" unicode="&#x148;" horiz-adv-x="1181" 
d="M772 1161h-371l-170 273h164l193 -174l190 174h164zM688 1075q84 0 150.5 -22.5t119 -71.5t81 -134.5t28.5 -203.5v-643h-207v635q0 142 -64 204t-180 62q-65 0 -120 -26t-90 -66.5t-56 -81.5t-28 -78v-649h-207v1065h207v-238q11 33 38 72t71 80.5t112 68.5t145 27z" />
    <glyph glyph-name="Eng" unicode="&#x14a;" horiz-adv-x="1378" 
d="M1047 1434h217v-1379q0 -134 -39.5 -234t-108.5 -158t-154 -86t-186 -28q-134 0 -237 51t-170 134l114 135q110 -131 291 -131q49 0 90.5 12t78.5 38.5t62.5 75t34.5 116.5l-704 1105h-6v-1085h-215v1434h227l698 -1098h7v1098z" />
    <glyph glyph-name="eng" unicode="&#x14b;" horiz-adv-x="1181" 
d="M688 1075q84 0 150.5 -22.5t119 -71.5t81 -134.5t28.5 -203.5v-793q0 -155 -74.5 -228t-208.5 -73q-123 0 -200 41v172q79 -32 151 -32q67 0 96 40.5t29 104.5v760q0 142 -64 204t-180 62q-65 0 -120 -26t-90 -66.5t-56 -81.5t-28 -78v-649h-207v1065h207v-238
q11 33 38 72t71 80.5t112 68.5t145 27z" />
    <glyph glyph-name="Omacron" unicode="&#x14c;" horiz-adv-x="1480" 
d="M408 1821h665v-125h-665v125zM739 1452q146 0 267 -48.5t208 -140t135 -231t48 -315.5q0 -349 -180 -542t-478 -193q-145 0 -265.5 48.5t-207 140.5t-134.5 231.5t-48 314.5q0 350 179 542.5t476 192.5zM739 170q201 0 316.5 141.5t115.5 405.5q0 265 -115 406t-317 141
q-200 0 -315 -141t-115 -406q0 -264 115 -405.5t315 -141.5z" />
    <glyph glyph-name="omacron" unicode="&#x14d;" horiz-adv-x="1136" 
d="M238 1452h665v-125h-665v125zM569 1075q71 0 140.5 -19.5t135.5 -62.5t116.5 -105t81 -154.5t30.5 -203.5t-30.5 -203.5t-81 -154t-116.5 -104.5t-135.5 -62.5t-140.5 -19.5t-141 19.5t-136.5 62.5t-117 104.5t-81 154t-30.5 203.5t30.5 203.5t81 154.5t117 105
t136.5 62.5t141 19.5zM874 530q0 94 -25 167.5t-68.5 118t-97 67t-114.5 22.5t-115 -22.5t-97.5 -67t-69 -118t-25.5 -167.5t25.5 -167.5t69 -117.5t97.5 -66.5t115 -22.5t114.5 22.5t97 66.5t68.5 117.5t25 167.5z" />
    <glyph glyph-name="Ohungarumlaut" unicode="&#x150;" horiz-adv-x="1480" 
d="M479 1559h178l224 262h-228zM846 1559h178l223 262h-227zM739 1452q146 0 267 -48.5t208 -140t135 -231t48 -315.5q0 -349 -180 -542t-478 -193q-145 0 -265.5 48.5t-207 140.5t-134.5 231.5t-48 314.5q0 350 179 542.5t476 192.5zM739 170q201 0 316.5 141.5
t115.5 405.5q0 265 -115 406t-317 141q-200 0 -315 -141t-115 -406q0 -264 115 -405.5t315 -141.5z" />
    <glyph glyph-name="ohungarumlaut" unicode="&#x151;" horiz-adv-x="1136" 
d="M309 1190h178l224 262h-228zM676 1190h178l223 262h-227zM569 1075q71 0 140.5 -19.5t135.5 -62.5t116.5 -105t81 -154.5t30.5 -203.5t-30.5 -203.5t-81 -154t-116.5 -104.5t-135.5 -62.5t-140.5 -19.5t-141 19.5t-136.5 62.5t-117 104.5t-81 154t-30.5 203.5t30.5 203.5
t81 154.5t117 105t136.5 62.5t141 19.5zM874 530q0 94 -25 167.5t-68.5 118t-97 67t-114.5 22.5t-115 -22.5t-97.5 -67t-69 -118t-25.5 -167.5t25.5 -167.5t69 -117.5t97.5 -66.5t115 -22.5t114.5 22.5t97 66.5t68.5 117.5t25 167.5z" />
    <glyph glyph-name="OE" unicode="&#x152;" horiz-adv-x="2213" 
d="M1395 188h759v-188h-974v137q-172 -155 -441 -155q-145 0 -265.5 48.5t-207 140.5t-134.5 231.5t-48 314.5q0 350 179 542.5t476 192.5q268 0 441 -156v138h954v-189h-739v-424h637v-176h-637v-457zM739 170q201 0 316.5 141.5t115.5 405.5q0 265 -115 406t-317 141
q-200 0 -315 -141t-115 -406q0 -264 115 -405.5t315 -141.5z" />
    <glyph glyph-name="oe" unicode="&#x153;" horiz-adv-x="1927" 
d="M1866 514q0 -35 -2 -53h-791q29 -318 320 -318q93 0 152.5 27.5t99.5 89.5h186q-58 -141 -168.5 -207.5t-282.5 -66.5q-123 0 -231 50t-178 148q-71 -98 -180 -148t-222 -50q-71 0 -141 19.5t-136.5 62.5t-117 104.5t-81 154t-30.5 203.5t30.5 203.5t81 154.5t117 105
t136.5 62.5t141 19.5q113 0 222 -51t180 -150q71 99 179 150t230 51q79 0 149.5 -20t132.5 -63.5t107 -108t71 -159t26 -210.5zM1073 596h594q-3 153 -79.5 237.5t-207.5 84.5q-127 0 -209.5 -82t-97.5 -240zM569 156q61 0 114.5 22.5t97 66.5t68.5 117.5t25 167.5
t-25 167.5t-68.5 118t-97 67t-114.5 22.5t-115 -22.5t-97.5 -67t-69 -118t-25.5 -167.5t25.5 -167.5t69 -117.5t97.5 -66.5t115 -22.5z" />
    <glyph glyph-name="Racute" unicode="&#x154;" horiz-adv-x="1306" 
d="M891 1821l-223 -262h-179l175 262h227zM1202 240q0 -98 9 -151.5t32 -88.5h-215q-23 35 -32 88.5t-9 151.5v108q0 113 -65 164t-172 51h-420v-563h-215v1434h579q251 0 377.5 -112t126.5 -304q0 -247 -219 -354q119 -41 171 -115t52 -195v-114zM707 737q131 0 200.5 66.5
t69.5 193.5q0 248 -287 248h-360v-508h377z" />
    <glyph glyph-name="racute" unicode="&#x155;" horiz-adv-x="804" 
d="M696 1452l-223 -262h-178l174 262h227zM672 1075q47 0 80 -6v-182q-33 2 -66 2q-159 0 -249.5 -75t-114.5 -210v-604h-207v1065h207v-252q26 114 117 188t233 74z" />
    <glyph glyph-name="Rcommaaccent" unicode="&#x156;" horiz-adv-x="1306" 
d="M1202 240q0 -98 9 -151.5t32 -88.5h-215q-23 35 -32 88.5t-9 151.5v108q0 113 -65 164t-172 51h-420v-563h-215v1434h579q251 0 377.5 -112t126.5 -304q0 -247 -219 -354q119 -41 171 -115t52 -195v-114zM707 737q131 0 200.5 66.5t69.5 193.5q0 248 -287 248h-360v-508
h377zM492 -303v250h235v-281q0 -85 -19.5 -142.5t-55 -86t-73.5 -39.5t-87 -12v67q51 18 72.5 62.5t21.5 117.5v64h-94z" />
    <glyph glyph-name="rcommaaccent" unicode="&#x157;" horiz-adv-x="804" 
d="M672 1075q47 0 80 -6v-182q-33 2 -66 2q-159 0 -249.5 -75t-114.5 -210v-604h-207v1065h207v-252q26 114 117 188t233 74zM100 -303v250h236v-281q0 -85 -19.5 -142.5t-55.5 -86t-74 -39.5t-87 -12v67q95 34 95 180v64h-95z" />
    <glyph glyph-name="Rcaron" unicode="&#x158;" horiz-adv-x="1306" 
d="M793 1530h-371l-170 272h164l192 -174l191 174h164zM1202 240q0 -98 9 -151.5t32 -88.5h-215q-23 35 -32 88.5t-9 151.5v108q0 113 -65 164t-172 51h-420v-563h-215v1434h579q251 0 377.5 -112t126.5 -304q0 -247 -219 -354q119 -41 171 -115t52 -195v-114zM707 737
q131 0 200.5 66.5t69.5 193.5q0 248 -287 248h-360v-508h377z" />
    <glyph glyph-name="rcaron" unicode="&#x159;" horiz-adv-x="804" 
d="M598 1161h-371l-170 273h164l193 -174l190 174h164zM322 813q26 114 117 188t233 74q47 0 80 -6v-182q-33 2 -66 2q-159 0 -249.5 -75t-114.5 -210v-604h-207v1065h207v-252z" />
    <glyph glyph-name="Sacute" unicode="&#x15a;" horiz-adv-x="1271" 
d="M500 1559h178l223 262h-227zM752 803q112 -22 191 -53.5t136 -79t84 -114.5t27 -157q0 -194 -151 -305.5t-400 -111.5q-251 0 -394 121t-161 331h223q47 -270 334 -270q153 0 238.5 66t85.5 169q0 102 -63.5 154.5t-188.5 77.5l-201 39q-192 38 -294.5 129t-102.5 258
q0 175 135.5 285t372.5 110q232 0 369 -105t159 -294h-223q-16 101 -91.5 160t-213.5 59q-142 0 -214.5 -66.5t-72.5 -154.5q0 -164 213 -207z" />
    <glyph glyph-name="sacute" unicode="&#x15b;" horiz-adv-x="999" 
d="M377 1190h178l223 262h-227zM735 774q-47 144 -237 144q-100 0 -156.5 -40.5t-56.5 -107.5q0 -56 37.5 -89.5t121.5 -53.5l179 -41q44 -10 71 -17t62 -18t56.5 -21.5t45.5 -26.5t38 -35t26.5 -43.5t18 -55t5.5 -68.5q0 -80 -35 -142t-96.5 -99t-140 -55.5t-170.5 -18.5
q-192 0 -311 83.5t-140 249.5h193q37 -176 260 -176q105 0 169 41t64 117q0 64 -38.5 93t-125.5 50l-182 41q-157 36 -230 107.5t-73 183.5q0 139 109.5 219t296.5 80q179 0 288 -78.5t140 -222.5h-189z" />
    <glyph glyph-name="Scedilla" unicode="&#x15e;" horiz-adv-x="1271" 
d="M1190 399q0 -182 -133.5 -291.5t-358.5 -123.5l-92 -99q79 3 138 -39.5t59 -121.5q0 -47 -18.5 -82.5t-49.5 -57.5t-77 -35.5t-94.5 -18.5t-108.5 -5v90q188 3 188 102q0 53 -46.5 67.5t-102.5 -20.5l-52 82l88 142q-202 26 -316.5 143t-129.5 303h223q47 -270 334 -270
q153 0 238.5 66t85.5 169q0 102 -63.5 154.5t-188.5 77.5l-201 39q-192 38 -294.5 129t-102.5 258q0 175 135.5 285t372.5 110q232 0 369 -105t159 -294h-223q-16 101 -91.5 160t-213.5 59q-142 0 -214.5 -66.5t-72.5 -154.5q0 -164 213 -207l203 -41q112 -22 191 -53.5
t136 -79t84 -114.5t27 -157z" />
    <glyph glyph-name="scedilla" unicode="&#x15f;" horiz-adv-x="999" 
d="M946 301q0 -139 -99 -217t-261 -94l-99 -105q79 3 138 -39.5t59 -121.5q0 -47 -18.5 -82.5t-49.5 -57.5t-77 -35.5t-94.5 -18.5t-108.5 -5v90q188 3 188 102q0 53 -47 67.5t-102 -20.5l-51 82l90 146q-154 18 -248.5 100t-112.5 227h193q37 -176 260 -176q105 0 169 41
t64 117q0 64 -38.5 93t-125.5 50l-182 41q-157 36 -230 107.5t-73 183.5q0 139 109.5 219t296.5 80q179 0 288 -78.5t140 -222.5h-189q-47 144 -237 144q-100 0 -156.5 -40.5t-56.5 -107.5q0 -56 37.5 -89.5t121.5 -53.5l179 -41q44 -10 71 -17t62 -18t56.5 -21.5
t45.5 -26.5t38 -35t26.5 -43.5t18 -55t5.5 -68.5z" />
    <glyph glyph-name="Scaron" unicode="&#x160;" horiz-adv-x="1271" 
d="M809 1802h164l-170 -272h-371l-170 272h164l192 -174zM752 803q112 -22 191 -53.5t136 -79t84 -114.5t27 -157q0 -194 -151 -305.5t-400 -111.5q-251 0 -394 121t-161 331h223q47 -270 334 -270q153 0 238.5 66t85.5 169q0 102 -63.5 154.5t-188.5 77.5l-201 39
q-192 38 -294.5 129t-102.5 258q0 175 135.5 285t372.5 110q232 0 369 -105t159 -294h-223q-16 101 -91.5 160t-213.5 59q-142 0 -214.5 -66.5t-72.5 -154.5q0 -164 213 -207z" />
    <glyph glyph-name="scaron" unicode="&#x161;" horiz-adv-x="999" 
d="M686 1434h164l-170 -273h-371l-170 273h164l193 -174zM735 774q-47 144 -237 144q-100 0 -156.5 -40.5t-56.5 -107.5q0 -56 37.5 -89.5t121.5 -53.5l179 -41q44 -10 71 -17t62 -18t56.5 -21.5t45.5 -26.5t38 -35t26.5 -43.5t18 -55t5.5 -68.5q0 -80 -35 -142t-96.5 -99
t-140 -55.5t-170.5 -18.5q-192 0 -311 83.5t-140 249.5h193q37 -176 260 -176q105 0 169 41t64 117q0 64 -38.5 93t-125.5 50l-182 41q-157 36 -230 107.5t-73 183.5q0 139 109.5 219t296.5 80q179 0 288 -78.5t140 -222.5h-189z" />
    <glyph glyph-name="uni0162" unicode="&#x162;" horiz-adv-x="1200" 
d="M709 0h-37l-111 -117q79 3 138 -40t59 -122q0 -59 -27 -99t-77.5 -61t-109 -29.5t-134.5 -8.5v90q188 3 188 102q0 53 -47 67.5t-102 -20.5l-52 82l97 156h-2v1245h-439v189h1094v-189h-438v-1245z" />
    <glyph glyph-name="uni0163" unicode="&#x163;" horiz-adv-x="694" 
d="M631 14q-47 -16 -103 -22l-100 -107q79 3 138 -39.5t59 -121.5q0 -47 -18.5 -82.5t-49.5 -57.5t-77 -35.5t-95 -18.5t-109 -5v90q189 3 189 102q0 53 -47.5 67.5t-102.5 -20.5l-51 82l94 152q-157 33 -157 227v676h-168v164h168v266h207v-266h208v-164h-208v-653
q0 -47 24.5 -71.5t83.5 -24.5q55 0 115 16v-154z" />
    <glyph glyph-name="Tcaron" unicode="&#x164;" horiz-adv-x="1200" 
d="M782 1530h-370l-170 272h164l192 -174l190 174h164zM1147 1434v-189h-438v-1245h-217v1245h-439v189h1094z" />
    <glyph glyph-name="tcaron" unicode="&#x165;" horiz-adv-x="679" 
d="M643 1446h227l-223 -262h-178zM408 248q0 -47 24.5 -71.5t83.5 -24.5q55 0 115 16v-154q-73 -26 -174 -26q-58 0 -101 10t-80 35t-56 73t-19 119v676h-168v164h168v266h207v-266h208v-164h-208v-653z" />
    <glyph glyph-name="Tbar" unicode="&#x166;" horiz-adv-x="1200" 
d="M1147 1245h-438v-215h225v-125h-225v-905h-217v905h-224v125h224v215h-439v189h1094v-189z" />
    <glyph glyph-name="tbar" unicode="&#x167;" horiz-adv-x="694" 
d="M516 152q55 0 115 16v-154q-73 -26 -174 -26q-58 0 -101 10t-80 35t-56 73t-19 119v369h-168v168h168v139h-168v164h168v266h207v-266h208v-164h-208v-139h208v-168h-208v-346q0 -47 24.5 -71.5t83.5 -24.5z" />
    <glyph glyph-name="Utilde" unicode="&#x168;" horiz-adv-x="1355" 
d="M956 1802h93q0 -101 -61 -163t-159 -62q-42 0 -81.5 15.5t-71 38t-62 45t-66 38t-71.5 15.5q-45 0 -73.5 -23.5t-26.5 -54.5h-90q0 100 60 162.5t159 62.5q42 0 81.5 -16t70.5 -38.5t61.5 -45t66.5 -38.5t72 -16q45 0 72.5 24.5t25.5 55.5zM1243 547q0 -265 -153.5 -415
t-411.5 -150q-259 0 -411 149.5t-152 415.5v887h215v-877q0 -187 91.5 -287t256.5 -100t256.5 100t91.5 287v877h217v-887z" />
    <glyph glyph-name="utilde" unicode="&#x169;" horiz-adv-x="1171" 
d="M389 1360q-45 0 -73.5 -23.5t-26.5 -54.5h-90q0 100 60 162.5t159 62.5q51 0 100.5 -24t83 -52.5t79 -52.5t89.5 -24q45 0 72.5 24.5t25.5 55.5h93q0 -101 -61 -163.5t-159 -62.5q-51 0 -100.5 24t-83.5 52t-79.5 52t-88.5 24zM850 1065h207v-1065h-207v236
q-8 -26 -26.5 -56.5t-51 -65.5t-72.5 -63t-97.5 -46.5t-119.5 -18.5q-84 0 -150.5 23t-119 72t-81 135t-28.5 204v645h207v-637q0 -268 244 -268q65 0 120.5 26.5t90 67.5t56 82t28.5 78v651z" />
    <glyph glyph-name="Umacron" unicode="&#x16a;" horiz-adv-x="1355" 
d="M334 1821h665v-125h-665v125zM1243 547q0 -265 -153.5 -415t-411.5 -150q-259 0 -411 149.5t-152 415.5v887h215v-877q0 -187 91.5 -287t256.5 -100t256.5 100t91.5 287v877h217v-887z" />
    <glyph glyph-name="umacron" unicode="&#x16b;" horiz-adv-x="1171" 
d="M911 1452v-125h-665v125h665zM850 1065h207v-1065h-207v236q-8 -26 -26.5 -56.5t-51 -65.5t-72.5 -63t-97.5 -46.5t-119.5 -18.5q-84 0 -150.5 23t-119 72t-81 135t-28.5 204v645h207v-637q0 -268 244 -268q65 0 120.5 26.5t90 67.5t56 82t28.5 78v651z" />
    <glyph glyph-name="Ubreve" unicode="&#x16c;" horiz-adv-x="1355" 
d="M842 1821h139q0 -126 -79 -203.5t-236 -77.5q-156 0 -235 78t-79 203h140q16 -140 174 -140q83 0 125 35.5t51 104.5zM1243 547q0 -265 -153.5 -415t-411.5 -150q-259 0 -411 149.5t-152 415.5v887h215v-877q0 -187 91.5 -287t256.5 -100t256.5 100t91.5 287v877h217
v-887z" />
    <glyph glyph-name="ubreve" unicode="&#x16d;" horiz-adv-x="1171" 
d="M578 1171q-156 0 -235 78t-79 203h139q16 -139 175 -139q83 0 125 35t51 104h139q0 -126 -79 -203.5t-236 -77.5zM850 1065h207v-1065h-207v236q-8 -26 -26.5 -56.5t-51 -65.5t-72.5 -63t-97.5 -46.5t-119.5 -18.5q-84 0 -150.5 23t-119 72t-81 135t-28.5 204v645h207
v-637q0 -268 244 -268q65 0 120.5 26.5t90 67.5t56 82t28.5 78v651z" />
    <glyph glyph-name="Uring" unicode="&#x16e;" horiz-adv-x="1355" 
d="M666 1556q-77 0 -132 54.5t-55 130.5t55 130t132 54t131.5 -54t54.5 -130t-54.5 -130.5t-131.5 -54.5zM666 1653q37 0 63.5 25t26.5 63q0 39 -26 63.5t-64 24.5q-37 0 -62.5 -24.5t-25.5 -63.5q0 -38 25.5 -63t62.5 -25zM1243 547q0 -265 -153.5 -415t-411.5 -150
q-259 0 -411 149.5t-152 415.5v887h215v-877q0 -187 91.5 -287t256.5 -100t256.5 100t91.5 287v877h217v-887z" />
    <glyph glyph-name="uring" unicode="&#x16f;" horiz-adv-x="1171" 
d="M578 1188q-77 0 -132 54t-55 130t55 130t132 54t131.5 -54t54.5 -130t-54.5 -130t-131.5 -54zM578 1460q-38 0 -63.5 -24.5t-25.5 -63.5q0 -38 26 -63t63 -25t63.5 25t26.5 63q0 39 -26 63.5t-64 24.5zM850 1065h207v-1065h-207v236q-8 -26 -26.5 -56.5t-51 -65.5
t-72.5 -63t-97.5 -46.5t-119.5 -18.5q-84 0 -150.5 23t-119 72t-81 135t-28.5 204v645h207v-637q0 -268 244 -268q65 0 120.5 26.5t90 67.5t56 82t28.5 78v651z" />
    <glyph glyph-name="Uhungarumlaut" unicode="&#x170;" horiz-adv-x="1355" 
d="M406 1559h178l223 262h-227zM772 1559h178l224 262h-228zM1243 547q0 -265 -153.5 -415t-411.5 -150q-259 0 -411 149.5t-152 415.5v887h215v-877q0 -187 91.5 -287t256.5 -100t256.5 100t91.5 287v877h217v-887z" />
    <glyph glyph-name="uhungarumlaut" unicode="&#x171;" horiz-adv-x="1171" 
d="M719 1452l-223 -262h-179l175 262h227zM862 1190h-178l174 262h227zM850 414v651h207v-1065h-207v236q-8 -26 -26.5 -56.5t-51 -65.5t-72.5 -63t-97.5 -46.5t-119.5 -18.5q-84 0 -150.5 23t-119 72t-81 135t-28.5 204v645h207v-637q0 -268 244 -268q65 0 120.5 26.5
t90 67.5t56 82t28.5 78z" />
    <glyph glyph-name="Uogonek" unicode="&#x172;" horiz-adv-x="1355" 
d="M1026 1434h217v-887q0 -220 -106 -362t-293 -185h6q-134 -42 -197 -103t-63 -128q0 -62 50.5 -83t135.5 3v-95q-38 -19 -87 -28.5t-101 -6t-95.5 20t-71.5 56t-28 96.5q0 85 70.5 151.5t169.5 100.5q-239 12 -378.5 160.5t-139.5 402.5v887h215v-877q0 -187 91.5 -287
t256.5 -100t256.5 100t91.5 287v877z" />
    <glyph glyph-name="uogonek" unicode="&#x173;" horiz-adv-x="1171" 
d="M850 1065h207v-1065h-53q-134 -42 -197.5 -103t-63.5 -128q0 -62 51 -83t136 3v-95q-38 -19 -87 -28.5t-101 -6t-95.5 20t-71.5 56t-28 96.5q0 51 28.5 98t73.5 80t97 56t104 34v236q-8 -26 -26.5 -56.5t-51 -65.5t-72.5 -63t-97.5 -46.5t-119.5 -18.5q-84 0 -150.5 23
t-119 72t-81 135t-28.5 204v645h207v-637q0 -268 244 -268q65 0 120.5 26.5t90 67.5t56 82t28.5 78v651z" />
    <glyph glyph-name="Wcircumflex" unicode="&#x174;" horiz-adv-x="2064" 
d="M1223 1548l-191 174l-192 -174h-164l170 273h371l169 -273h-163zM1786 1434h225l-414 -1434h-202l-363 1112l-362 -1112h-203l-414 1434h226l301 -1110l344 1110h217l344 -1110z" />
    <glyph glyph-name="wcircumflex" unicode="&#x175;" horiz-adv-x="1652" 
d="M1016 1180l-191 174l-192 -174h-164l170 272h371l170 -272h-164zM1610 1065l-312 -1065h-184l-289 815l-286 -815h-185l-311 1065h209l219 -807l272 807h166l273 -807l219 807h209z" />
    <glyph glyph-name="Ycircumflex" unicode="&#x176;" horiz-adv-x="1370" 
d="M874 1548l-190 174l-192 -174h-164l170 273h370l170 -273h-164zM795 549v-549h-222v549l-520 885h242l389 -676l391 676h242z" />
    <glyph glyph-name="ycircumflex" unicode="&#x177;" horiz-adv-x="1122" 
d="M754 1180l-191 174l-192 -174h-164l170 272h371l170 -272h-164zM870 1065h211l-452 -1116q-83 -205 -190.5 -282.5t-280.5 -57.5v178q117 -14 181.5 29t100.5 131q15 40 15 65t-15 62l-397 991h213l303 -817z" />
    <glyph glyph-name="Ydieresis" unicode="&#x178;" horiz-adv-x="1370" 
d="M352 1821h213v-197h-213v197zM803 1821h213v-197h-213v197zM795 549v-549h-222v549l-520 885h242l389 -676l391 676h242z" />
    <glyph glyph-name="Zacute" unicode="&#x179;" horiz-adv-x="1255" 
d="M520 1559h178l224 262h-228zM1174 188v-188h-1092v170l833 1075h-804v189h1054v-170l-835 -1076h844z" />
    <glyph glyph-name="zacute" unicode="&#x17a;" horiz-adv-x="1026" 
d="M385 1190h178l223 262h-227zM328 176h616v-176h-862v176l616 713h-596v176h842v-176z" />
    <glyph glyph-name="Zdotaccent" unicode="&#x17b;" horiz-adv-x="1255" 
d="M535 1821h213v-197h-213v197zM1174 188v-188h-1092v170l833 1075h-804v189h1054v-170l-835 -1076h844z" />
    <glyph glyph-name="zdotaccent" unicode="&#x17c;" horiz-adv-x="1026" 
d="M399 1452h213v-197h-213v197zM328 176h616v-176h-862v176l616 713h-596v176h842v-176z" />
    <glyph glyph-name="Zcaron" unicode="&#x17d;" horiz-adv-x="1255" 
d="M829 1802h164l-170 -272h-370l-170 272h163l193 -174zM1174 188v-188h-1092v170l833 1075h-804v189h1054v-170l-835 -1076h844z" />
    <glyph glyph-name="zcaron" unicode="&#x17e;" horiz-adv-x="1026" 
d="M694 1434h164l-170 -273h-371l-170 273h164l193 -174zM328 176h616v-176h-862v176l616 713h-596v176h842v-176z" />
    <glyph glyph-name="florin" unicode="&#x192;" horiz-adv-x="608" 
d="M567 1257q-83 0 -121 -49.5t-38 -158.5v-177h159v-180h-159v-733q0 -189 -90 -268.5t-277 -79.5v178q85 0 122.5 51.5t37.5 157.5v694h-154v180h154v215q0 183 86 266t280 83v-179z" />
    <glyph glyph-name="uni01CD" unicode="&#x1cd;" horiz-adv-x="1427" 
d="M895 1530h-371l-170 272h164l193 -174l190 174h164zM1141 0l-125 336h-606l-123 -336h-234l565 1434h191l565 -1434h-233zM469 498h487l-243 661z" />
    <glyph glyph-name="uni01CE" unicode="&#x1ce;" horiz-adv-x="1112" 
d="M737 1161h-370l-170 273h163l193 -174l190 174h164zM991 213q0 -44 18.5 -64t59.5 -20v-123q-31 -14 -80 -14q-186 0 -186 158v53q-9 -19 -24 -41t-48.5 -55t-74 -58.5t-104.5 -44t-136 -18.5q-155 0 -254 81.5t-99 237.5q0 76 26 131t78.5 91t118.5 57.5t158 36.5
q22 4 74 11.5t81 12.5t68.5 13t68 17.5t48.5 20.5v11q0 120 -58.5 166.5t-170.5 46.5q-207 0 -231 -146h-197q15 148 125 224.5t305 76.5q227 0 330.5 -97.5t103.5 -320.5v-444zM784 338v229q-16 -8 -38.5 -15.5t-42 -13t-53.5 -12t-53.5 -10.5t-62.5 -11.5t-61 -10.5
q-112 -21 -157.5 -63.5t-45.5 -117.5q0 -79 51.5 -127.5t145.5 -48.5q55 0 105 17t83 39t62 53.5t42.5 51t24.5 40.5z" />
    <glyph glyph-name="uni01CF" unicode="&#x1cf;" horiz-adv-x="444" 
d="M410 1802h163l-170 -272h-370l-170 272h164l192 -174zM330 0h-215v1434h215v-1434z" />
    <glyph glyph-name="uni01D0" unicode="&#x1d0;" horiz-adv-x="436" 
d="M406 1434h163l-170 -273h-370l-170 273h164l192 -174zM115 1065h207v-1065h-207v1065z" />
    <glyph glyph-name="uni01D1" unicode="&#x1d1;" horiz-adv-x="1480" 
d="M928 1802h164l-170 -272h-371l-170 272h164l192 -174zM739 1452q146 0 267 -48.5t208 -140t135 -231t48 -315.5q0 -349 -180 -542t-478 -193q-145 0 -265.5 48.5t-207 140.5t-134.5 231.5t-48 314.5q0 350 179 542.5t476 192.5zM739 170q201 0 316.5 141.5t115.5 405.5
q0 265 -115 406t-317 141q-200 0 -315 -141t-115 -406q0 -264 115 -405.5t315 -141.5z" />
    <glyph glyph-name="uni01D2" unicode="&#x1d2;" horiz-adv-x="1136" 
d="M758 1434h164l-170 -273h-371l-170 273h164l192 -174zM569 1075q71 0 140.5 -19.5t135.5 -62.5t116.5 -105t81 -154.5t30.5 -203.5t-30.5 -203.5t-81 -154t-116.5 -104.5t-135.5 -62.5t-140.5 -19.5t-141 19.5t-136.5 62.5t-117 104.5t-81 154t-30.5 203.5t30.5 203.5
t81 154.5t117 105t136.5 62.5t141 19.5zM874 530q0 94 -25 167.5t-68.5 118t-97 67t-114.5 22.5t-115 -22.5t-97.5 -67t-69 -118t-25.5 -167.5t25.5 -167.5t69 -117.5t97.5 -66.5t115 -22.5t114.5 22.5t97 66.5t68.5 117.5t25 167.5z" />
    <glyph glyph-name="uni01D3" unicode="&#x1d3;" horiz-adv-x="1355" 
d="M854 1802h164l-170 -272h-371l-170 272h164l193 -174zM1243 547q0 -265 -153.5 -415t-411.5 -150q-259 0 -411 149.5t-152 415.5v887h215v-877q0 -187 91.5 -287t256.5 -100t256.5 100t91.5 287v877h217v-887z" />
    <glyph glyph-name="uni01D4" unicode="&#x1d4;" horiz-adv-x="1171" 
d="M760 1161h-371l-170 273h164l192 -174l191 174h164zM850 1065h207v-1065h-207v236q-8 -26 -26.5 -56.5t-51 -65.5t-72.5 -63t-97.5 -46.5t-119.5 -18.5q-84 0 -150.5 23t-119 72t-81 135t-28.5 204v645h207v-637q0 -268 244 -268q65 0 120.5 26.5t90 67.5t56 82t28.5 78
v651z" />
    <glyph glyph-name="uni01EA" unicode="&#x1ea;" horiz-adv-x="1480" 
d="M872 -8q-123 -42 -180 -100.5t-57 -122.5q0 -62 50.5 -83t135.5 3v-95q-38 -19 -87 -28.5t-101 -6t-95.5 20t-71.5 56t-28 96.5q0 86 70.5 151.5t171.5 100.5q-272 19 -434 210.5t-162 522.5q0 350 179 542.5t476 192.5q146 0 267 -48.5t208 -140t135 -231t48 -315.5
q0 -308 -141.5 -496t-383.5 -229zM309 717q0 -264 115 -405.5t315 -141.5q201 0 316.5 141.5t115.5 405.5q0 265 -115 406t-317 141q-200 0 -315 -141t-115 -406z" />
    <glyph glyph-name="uni01EB" unicode="&#x1eb;" horiz-adv-x="1136" 
d="M1073 530q0 -115 -32 -209.5t-87 -158t-122 -104t-144 -58.5h10q-134 -42 -197 -103t-63 -128q0 -62 51 -83t136 3v-95q-38 -19 -87 -28.5t-101 -6t-95.5 20t-71.5 56t-28 96.5q0 61 40.5 115.5t97.5 88.5t124 54q-84 11 -160 48.5t-140.5 101t-102.5 164.5t-38 226
q0 111 30.5 203.5t81 154.5t117 105t136.5 62.5t141 19.5t140.5 -19.5t135.5 -62.5t116.5 -105t81 -154.5t30.5 -203.5zM569 156q61 0 114.5 22.5t97 66.5t68.5 117.5t25 167.5t-25 167.5t-68.5 118t-97 67t-114.5 22.5t-115 -22.5t-97.5 -67t-69 -118t-25.5 -167.5
t25.5 -167.5t69 -117.5t97.5 -66.5t115 -22.5z" />
    <glyph glyph-name="Scommaaccent" unicode="&#x218;" horiz-adv-x="1271" 
d="M752 803q112 -22 191 -53.5t136 -79t84 -114.5t27 -157q0 -194 -151 -305.5t-400 -111.5q-251 0 -394 121t-161 331h223q47 -270 334 -270q153 0 238.5 66t85.5 169q0 102 -63.5 154.5t-188.5 77.5l-201 39q-192 38 -294.5 129t-102.5 258q0 175 135.5 285t372.5 110
q232 0 369 -105t159 -294h-223q-16 101 -91.5 160t-213.5 59q-142 0 -214.5 -66.5t-72.5 -154.5q0 -164 213 -207zM504 -614v67q51 18 72.5 62.5t21.5 117.5v64h-94v250h235v-281q0 -85 -19.5 -142.5t-55 -86t-73.5 -39.5t-87 -12z" />
    <glyph glyph-name="scommaaccent" unicode="&#x219;" horiz-adv-x="999" 
d="M735 774q-47 144 -237 144q-100 0 -156.5 -40.5t-56.5 -107.5q0 -56 37.5 -89.5t121.5 -53.5l179 -41q44 -10 71 -17t62 -18t56.5 -21.5t45.5 -26.5t38 -35t26.5 -43.5t18 -55t5.5 -68.5q0 -80 -35 -142t-96.5 -99t-140 -55.5t-170.5 -18.5q-192 0 -311 83.5t-140 249.5
h193q37 -176 260 -176q105 0 169 41t64 117q0 64 -38.5 93t-125.5 50l-182 41q-157 36 -230 107.5t-73 183.5q0 139 109.5 219t296.5 80q179 0 288 -78.5t140 -222.5h-189zM385 -635v68q51 18 72.5 62.5t21.5 117.5v63h-94v250h236v-280q0 -68 -13.5 -119.5t-35.5 -81
t-54 -48t-63 -25t-70 -7.5z" />
    <glyph glyph-name="uni021A" unicode="&#x21a;" horiz-adv-x="1200" 
d="M1147 1434v-189h-438v-1245h-217v1245h-439v189h1094zM459 -305v250h235v-281q0 -85 -19.5 -142.5t-55 -86t-73.5 -39.5t-87 -12v67q51 18 72.5 62.5t21.5 117.5v64h-94z" />
    <glyph glyph-name="uni021B" unicode="&#x21b;" horiz-adv-x="694" 
d="M516 152q55 0 115 16v-154q-73 -26 -174 -26q-58 0 -101 10t-80 35t-56 73t-19 119v676h-168v164h168v266h207v-266h208v-164h-208v-653q0 -47 24.5 -71.5t83.5 -24.5zM326 -303v250h235v-281q0 -85 -19.5 -142.5t-55 -86t-73.5 -39.5t-87 -12v67q51 18 72.5 62.5
t21.5 117.5v64h-94z" />
    <glyph glyph-name="uni0237" unicode="&#x237;" horiz-adv-x="462" 
d="M-135 -238q79 -32 153 -32q66 0 95.5 40.5t29.5 104.5v1190h207v-1215q0 -155 -75 -228t-209 -73q-124 0 -201 41v172z" />
    <glyph glyph-name="circumflex" unicode="&#x2c6;" horiz-adv-x="710" 
d="M547 1180l-191 174l-192 -174h-164l170 272h371l170 -272h-164z" />
    <glyph glyph-name="caron" unicode="&#x2c7;" horiz-adv-x="710" 
d="M547 1434h164l-170 -273h-371l-170 273h164l192 -174z" />
    <glyph glyph-name="breve" unicode="&#x2d8;" horiz-adv-x="628" 
d="M489 1452h140q0 -126 -79.5 -203.5t-236.5 -77.5q-156 0 -234.5 77.5t-78.5 203.5h139q8 -69 49 -104t125 -35q83 0 125 35t51 104z" />
    <glyph glyph-name="dotaccent" unicode="&#x2d9;" horiz-adv-x="212" 
d="M0 1452h213v-197h-213v197z" />
    <glyph glyph-name="ring" unicode="&#x2da;" horiz-adv-x="372" 
d="M186 1188q-77 0 -131.5 54t-54.5 130t54.5 130t131.5 54t132 -54t55 -130t-55 -130t-132 -54zM186 1284q37 0 63.5 25t26.5 63q0 39 -26 63.5t-64 24.5q-37 0 -62.5 -24.5t-25.5 -63.5q0 -38 25.5 -63t62.5 -25z" />
    <glyph glyph-name="ogonek" unicode="&#x2db;" horiz-adv-x="456" 
d="M383 -406q-38 -19 -87 -28.5t-101 -6t-95.5 20t-71.5 56t-28 96.5q0 51 28.5 98t73.5 80t97 56t104 34h154q-134 -42 -197 -103t-63 -128q0 -62 50.5 -83t135.5 3v-95z" />
    <glyph glyph-name="tilde" unicode="&#x2dc;" horiz-adv-x="761" 
d="M670 1434h92q0 -101 -60.5 -163.5t-158.5 -62.5q-51 0 -101 24t-83.5 52t-79.5 52t-89 24q-45 0 -73.5 -23.5t-26.5 -54.5h-90q0 100 60 162.5t159 62.5q51 0 100.5 -24t83 -52.5t79 -52.5t89.5 -24q45 0 73 24.5t26 55.5z" />
    <glyph glyph-name="hungarumlaut" unicode="&#x2dd;" horiz-adv-x="776" 
d="M0 1190h178l223 262h-227zM367 1190h178l223 262h-227z" />
    <glyph glyph-name="uni0326" unicode="&#x326;" horiz-adv-x="0" 
d="M-236 -614v67q95 34 95 180v64h-95v250h236v-281q0 -85 -19.5 -142.5t-55.5 -86t-74 -39.5t-87 -12z" />
    <glyph glyph-name="uni0394" unicode="&#x394;" horiz-adv-x="1484" 
d="M1391 0h-1297l621 1434h53zM1124 180l-381 914l-385 -914h766z" />
    <glyph glyph-name="uni03A9" unicode="&#x3a9;" horiz-adv-x="1589" 
d="M1505 729q0 -310 -260 -532h209v-197h-442v264l75 60q96 75 151.5 179t55.5 226q0 115 -42 213.5t-111.5 164t-159.5 102t-186 36.5t-186 -36.5t-160 -102t-112 -164t-42 -213.5q0 -122 55 -226t150 -179l78 -60v-264h-443v197h207q-258 223 -258 532q0 153 61.5 289.5
t161.5 229t228 146.5t260 54t259.5 -54t227.5 -146.5t161.5 -229t61.5 -289.5z" />
    <glyph glyph-name="uni03BC" unicode="&#x3bc;" horiz-adv-x="1171" 
d="M850 1065h207v-1065h-207v236q-8 -26 -26.5 -56.5t-51 -65.5t-72.5 -63t-97.5 -46.5t-119.5 -18.5q-96 0 -172 30v-405h-207v1454h207v-637q0 -268 244 -268q65 0 120.5 26.5t90 67.5t56 82t28.5 78v651z" />
    <glyph glyph-name="pi" unicode="&#x3c0;" horiz-adv-x="1404" 
d="M1182 166q63 0 139 39v-180q-32 -16 -90 -26.5t-103 -10.5t-85 10.5t-76 33t-57 64t-21 97.5v694h-383v-887h-207v887h-205v178h1204v-178h-202v-606q0 -68 20 -91.5t66 -23.5z" />
    <glyph glyph-name="uni0401" unicode="&#x401;" horiz-adv-x="1150" 
d="M471 1821v-197h-213v197h213zM922 1821v-197h-213v197h213zM330 188h760v-188h-975v1434h954v-189h-739v-424h637v-176h-637v-457z" />
    <glyph glyph-name="uni0403" unicode="&#x403;" horiz-adv-x="1038" 
d="M393 1559h178l224 262h-228zM987 1434v-189h-657v-1245h-215v1434h872z" />
    <glyph glyph-name="uni0404" unicode="&#x404;" horiz-adv-x="1353" 
d="M1075 395h217q-34 -197 -189.5 -305t-377.5 -108q-141 0 -258 47t-202.5 138t-133 231.5t-47.5 318.5t47.5 318.5t133 231.5t202.5 138t258 47q144 0 262 -46.5t198 -140.5t103 -225h-217q-84 224 -342 224q-173 0 -283 -114t-133 -329h469v-176h-471
q15 -228 126.5 -351.5t291.5 -123.5q263 0 346 225z" />
    <glyph glyph-name="uni0407" unicode="&#x407;" horiz-adv-x="444" 
d="M-111 1821h213v-197h-213v197zM340 1821h213v-197h-213v197zM330 0h-215v1434h215v-1434z" />
    <glyph glyph-name="uni040C" unicode="&#x40c;" horiz-adv-x="1353" 
d="M958 1821l-223 -262h-178l174 262h227zM1069 0l-528 627l-211 -236v-391h-215v1434h215v-752l678 752h249l-583 -656l639 -778h-244z" />
    <glyph glyph-name="uni040E" unicode="&#x40e;" horiz-adv-x="1183" 
d="M768 1821h139q0 -126 -79 -203.5t-236 -77.5q-156 0 -234.5 77.5t-78.5 203.5h139q16 -140 174 -140q83 0 125 35.5t51 104.5zM895 1434h238l-474 -1117q-87 -205 -193 -282.5t-278 -57.5v195q116 -14 174 23t91 118q36 81 -7 185l-393 936h236l301 -772z" />
    <glyph glyph-name="uni0410" unicode="&#x410;" horiz-adv-x="1427" 
d="M1141 0l-125 336h-606l-123 -336h-234l565 1434h191l565 -1434h-233zM469 498h487l-243 661z" />
    <glyph glyph-name="uni0411" unicode="&#x411;" horiz-adv-x="1267" 
d="M649 926q259 0 392 -122t133 -339q0 -220 -133 -342.5t-392 -122.5h-534v1434h872v-189h-657v-319h319zM649 186q145 0 220 71.5t75 207.5q0 133 -75 203.5t-220 70.5h-319v-553h319z" />
    <glyph glyph-name="uni0412" unicode="&#x412;" horiz-adv-x="1304" 
d="M913 786q140 -38 218.5 -137t78.5 -235q0 -197 -132 -305.5t-396 -108.5h-567v1434h555q223 0 335.5 -97t112.5 -262q0 -102 -54.5 -178.5t-150.5 -110.5zM330 1253v-403h346q102 0 159.5 58.5t57.5 152.5q0 89 -56.5 140.5t-162.5 51.5h-344zM680 182q155 0 227 65
t72 175q0 113 -74.5 185.5t-226.5 72.5h-348v-498h350z" />
    <glyph glyph-name="uni0413" unicode="&#x413;" horiz-adv-x="1038" 
d="M987 1434v-189h-657v-1245h-215v1434h872z" />
    <glyph glyph-name="uni0414" unicode="&#x414;" horiz-adv-x="1593" 
d="M1327 180h205v-321h-207v141h-1065v-141h-207v321h137q92 96 132 296.5t40 600.5v357h965v-1254zM422 180h688v1065h-530v-168q0 -400 -37 -600.5t-121 -296.5z" />
    <glyph glyph-name="uni0415" unicode="&#x415;" horiz-adv-x="1150" 
d="M330 188h760v-188h-975v1434h954v-189h-739v-424h637v-176h-637v-457z" />
    <glyph glyph-name="uni0416" unicode="&#x416;" horiz-adv-x="1927" 
d="M1886 0h-250l-563 637v-637h-217v639l-565 -639h-250l639 729l-614 705h247l543 -615v615h217v-613l541 613h248l-617 -705z" />
    <glyph glyph-name="uni0417" unicode="&#x417;" horiz-adv-x="1204" 
d="M805 770q54 -8 107 -32.5t101.5 -66.5t78.5 -110t30 -151q0 -195 -141.5 -315t-386.5 -120q-244 0 -383 135t-139 357h194q4 -150 95.5 -230.5t232.5 -80.5q86 0 157 27.5t117.5 89t46.5 147.5q0 120 -92 193t-266 73h-57v143h57q82 0 142 21.5t91 57t44.5 73.5t13.5 80
q0 98 -73.5 155.5t-186.5 57.5q-56 0 -104 -16t-87 -49.5t-61 -91.5t-23 -134h-194q0 224 125 346.5t342 122.5q208 0 335.5 -108t127.5 -265q0 -119 -69 -199t-175 -110z" />
    <glyph glyph-name="uni0418" unicode="&#x418;" horiz-adv-x="1378" 
d="M115 1434h217v-1096h6l698 1096h228v-1434h-215v1085h-7l-692 -1085h-235v1434z" />
    <glyph glyph-name="uni0419" unicode="&#x419;" horiz-adv-x="1378" 
d="M862 1821h139q0 -126 -79 -203.5t-236 -77.5q-156 0 -234.5 77.5t-78.5 203.5h139q16 -140 174 -140q83 0 125 35.5t51 104.5zM115 1434h217v-1096h6l698 1096h228v-1434h-215v1085h-7l-692 -1085h-235v1434z" />
    <glyph glyph-name="uni041A" unicode="&#x41a;" horiz-adv-x="1353" 
d="M1069 0l-528 627l-211 -236v-391h-215v1434h215v-752l678 752h249l-583 -656l639 -778h-244z" />
    <glyph glyph-name="uni041B" unicode="&#x41b;" horiz-adv-x="1390" 
d="M1276 1434v-1434h-215v1245h-569v-794q0 -129 -34.5 -223.5t-97.5 -149t-145.5 -77.5t-183.5 -15v188q55 -1 95.5 10.5t75.5 41.5t53.5 88.5t18.5 144.5v975h1002z" />
    <glyph glyph-name="uni041C" unicode="&#x41c;" horiz-adv-x="1710" 
d="M115 1434h243l498 -1153l496 1153h245v-1434h-217v1051h-8l-432 -1051h-168l-434 1051h-8v-1051h-215v1434z" />
    <glyph glyph-name="uni041D" unicode="&#x41d;" horiz-adv-x="1347" 
d="M1018 1434h215v-1434h-215v618h-688v-618h-215v1434h215v-639h688v639z" />
    <glyph glyph-name="uni041E" unicode="&#x41e;" horiz-adv-x="1480" 
d="M739 1452q146 0 267 -48.5t208 -140t135 -231t48 -315.5q0 -349 -180 -542t-478 -193q-145 0 -265.5 48.5t-207 140.5t-134.5 231.5t-48 314.5q0 350 179 542.5t476 192.5zM739 170q201 0 316.5 141.5t115.5 405.5q0 265 -115 406t-317 141q-200 0 -315 -141t-115 -406
q0 -264 115 -405.5t315 -141.5z" />
    <glyph glyph-name="uni041F" unicode="&#x41f;" horiz-adv-x="1347" 
d="M1233 1434v-1434h-215v1245h-688v-1245h-215v1434h1118z" />
    <glyph glyph-name="uni0420" unicode="&#x420;" horiz-adv-x="1236" 
d="M649 1434q258 0 391.5 -126t133.5 -350q0 -221 -133.5 -346t-391.5 -125h-319v-487h-215v1434h534zM649 676q145 0 220 73t75 209q0 138 -75 212.5t-220 74.5h-319v-569h319z" />
    <glyph glyph-name="uni0421" unicode="&#x421;" horiz-adv-x="1353" 
d="M729 170q263 0 346 225h217q-34 -197 -189.5 -305t-377.5 -108q-141 0 -258 47t-202.5 138t-133 231.5t-47.5 318.5t47.5 318.5t133 231.5t202.5 138t258 47q144 0 262 -46.5t198 -140.5t103 -225h-217q-84 224 -342 224q-194 0 -307 -141.5t-113 -405.5
q0 -262 113 -404.5t307 -142.5z" />
    <glyph glyph-name="uni0422" unicode="&#x422;" horiz-adv-x="1200" 
d="M1147 1434v-189h-438v-1245h-217v1245h-439v189h1094z" />
    <glyph glyph-name="uni0423" unicode="&#x423;" horiz-adv-x="1183" 
d="M895 1434h238l-474 -1117q-87 -205 -193 -282.5t-278 -57.5v195q116 -14 174 23t91 118q36 81 -7 185l-393 936h236l301 -772z" />
    <glyph glyph-name="uni0424" unicode="&#x424;" horiz-adv-x="1478" 
d="M1395 717q0 -255 -147.5 -409.5t-399.5 -182.5v-156h-217v156q-252 28 -399.5 182.5t-147.5 409.5q0 256 147 410t400 182v155h217v-155q253 -28 400 -182t147 -410zM291 717q0 -178 88.5 -287t251.5 -137v848q-163 -28 -251.5 -137t-88.5 -287zM848 293
q163 28 251.5 137t88.5 287t-88.5 287t-251.5 137v-848z" />
    <glyph glyph-name="uni0425" unicode="&#x425;" horiz-adv-x="1339" 
d="M1298 0h-243l-385 563l-385 -563h-242l506 739l-475 695h243l355 -516l352 516h242l-473 -693z" />
    <glyph glyph-name="uni0426" unicode="&#x426;" horiz-adv-x="1394" 
d="M1233 188h108v-477h-206v289h-1020v1434h215v-1246h688v1246h215v-1246z" />
    <glyph glyph-name="uni0427" unicode="&#x427;" horiz-adv-x="1302" 
d="M971 1434h217v-1434h-217v592q-11 -32 -45.5 -74t-90.5 -86t-144 -74t-187 -30q-90 0 -164 25t-132.5 78t-91 143t-32.5 212v648h215v-639q0 -143 77.5 -210t211.5 -67q82 0 154.5 28t118.5 69.5t75 85t35 79.5v654z" />
    <glyph glyph-name="uni0428" unicode="&#x428;" horiz-adv-x="1646" 
d="M1317 1434h217v-1434h-1419v1434h215v-1246h385v1246h217v-1246h385v1246z" />
    <glyph glyph-name="uni0429" unicode="&#x429;" horiz-adv-x="1695" 
d="M1534 188h108v-477h-206v289h-1321v1434h215v-1246h385v1246h217v-1246h385v1246h217v-1246z" />
    <glyph glyph-name="uni042A" unicode="&#x42a;" horiz-adv-x="1378" 
d="M760 926q259 0 391.5 -122t132.5 -339q0 -220 -132.5 -342.5t-391.5 -122.5h-535v1245h-172v189h389v-189h-2v-319h320zM760 186q145 0 220 71.5t75 207.5q0 133 -75 203.5t-220 70.5h-320v-553h320z" />
    <glyph glyph-name="uni042B" unicode="&#x42b;" horiz-adv-x="1656" 
d="M649 926q259 0 392 -122t133 -339q0 -220 -133 -342.5t-392 -122.5h-534v1434h215v-508h319zM1327 1434h215v-1434h-215v1434zM649 186q145 0 220 71.5t75 207.5q0 133 -75 203.5t-220 70.5h-319v-553h319z" />
    <glyph glyph-name="uni042C" unicode="&#x42c;" horiz-adv-x="1267" 
d="M649 926q259 0 392 -122t133 -339q0 -220 -133 -342.5t-392 -122.5h-534v1434h215v-508h319zM649 186q145 0 220 71.5t75 207.5q0 133 -75 203.5t-220 70.5h-319v-553h319z" />
    <glyph glyph-name="uni042D" unicode="&#x42d;" horiz-adv-x="1376" 
d="M651 1452q141 0 258 -47t202.5 -138t133 -231.5t47.5 -318.5t-47.5 -318.5t-133 -231.5t-202.5 -138t-258 -47q-222 0 -377.5 108t-189.5 305h217q83 -225 346 -225q180 0 291.5 123.5t126.5 351.5h-471v176h469q-23 215 -133 329t-283 114q-258 0 -342 -224h-217
q23 131 103 225t198 140.5t262 46.5z" />
    <glyph glyph-name="uni042E" unicode="&#x42e;" horiz-adv-x="1935" 
d="M1194 1452q299 0 478 -192.5t179 -542.5q0 -349 -179.5 -542t-477.5 -193q-275 0 -450 166t-201 470h-213v-618h-215v1434h215v-639h211q14 210 100.5 359.5t227.5 223.5t325 74zM1194 170q201 0 316.5 141.5t115.5 405.5q0 265 -115 406t-317 141q-200 0 -315 -141
t-115 -406q0 -264 115 -405.5t315 -141.5z" />
    <glyph glyph-name="uni042F" unicode="&#x42f;" horiz-adv-x="1306" 
d="M1192 1434v-1434h-215v563h-420q-107 0 -172.5 -51t-65.5 -164v-108q0 -99 -8.5 -152t-31.5 -88h-216q23 35 32 88.5t9 151.5v114q0 121 52.5 195t171.5 115q-219 107 -219 354q0 192 126 304t377 112h580zM977 737v508h-361q-286 0 -286 -248q0 -127 69.5 -193.5
t200.5 -66.5h377z" />
    <glyph glyph-name="uni0430" unicode="&#x430;" horiz-adv-x="1112" 
d="M991 213q0 -44 18.5 -64t59.5 -20v-123q-31 -14 -80 -14q-186 0 -186 158v53q-9 -19 -24 -41t-48.5 -55t-74 -58.5t-104.5 -44t-136 -18.5q-155 0 -254 81.5t-99 237.5q0 76 26 131t78.5 91t118.5 57.5t158 36.5q22 4 74 11.5t81 12.5t68.5 13t68 17.5t48.5 20.5v11
q0 120 -58.5 166.5t-170.5 46.5q-207 0 -231 -146h-197q15 148 125 224.5t305 76.5q227 0 330.5 -97.5t103.5 -320.5v-444zM784 338v229q-16 -8 -38.5 -15.5t-42 -13t-53.5 -12t-53.5 -10.5t-62.5 -11.5t-61 -10.5q-112 -21 -157.5 -63.5t-45.5 -117.5q0 -79 51.5 -127.5
t145.5 -48.5q55 0 105 17t83 39t62 53.5t42.5 51t24.5 40.5z" />
    <glyph glyph-name="uni0431" unicode="&#x431;" horiz-adv-x="1157" 
d="M631 1071q64 0 127.5 -19t124.5 -61.5t107.5 -104t75 -154t28.5 -204.5q0 -114 -30.5 -207.5t-81 -155t-117 -104t-136 -61t-141.5 -18.5t-141 19.5t-136 66.5t-117 117t-80.5 178.5t-29.5 242.5v326q0 502 463 502h119q108 0 157 45h189q-42 -117 -114 -163t-218 -46
h-133q-124 0 -195 -71.5t-71 -190.5v-125q35 86 131.5 137t218.5 51zM588 152q129 0 218 95.5t89 280.5q0 188 -88.5 284.5t-218.5 96.5q-61 0 -114.5 -22.5t-97 -67.5t-68.5 -120t-25 -171q0 -95 25.5 -169t69 -118t97 -66.5t113.5 -22.5z" />
    <glyph glyph-name="uni0432" unicode="&#x432;" horiz-adv-x="1157" 
d="M866 590q110 -32 169 -106t59 -173q0 -164 -118 -237.5t-343 -73.5h-518v1065h518q179 0 279 -67.5t100 -194.5q0 -74 -36.5 -131t-109.5 -82zM322 895v-260h311q101 0 144.5 37t43.5 96q0 56 -43.5 91.5t-144.5 35.5h-311zM637 170q140 0 195 44t55 118q0 168 -248 168
h-317v-330h315z" />
    <glyph glyph-name="uni0433" unicode="&#x433;" horiz-adv-x="872" 
d="M821 1065v-164h-499v-901h-207v1065h706z" />
    <glyph glyph-name="uni0434" unicode="&#x434;" horiz-adv-x="1271" 
d="M1137 164h82v-289h-189v125h-788v-125h-189v289h78q34 38 54.5 93t29.5 146.5t11.5 173t2.5 232.5v256h908v-901zM332 164h598v737h-494v-92q0 -292 -18 -432.5t-86 -212.5z" />
    <glyph glyph-name="uni0435" unicode="&#x435;" horiz-adv-x="1116" 
d="M1055 514q0 -35 -2 -53h-791q29 -318 320 -318q93 0 152.5 27.5t99.5 89.5h186q-58 -141 -168.5 -207.5t-282.5 -66.5q-78 0 -151 20t-138 63t-113 105t-76 153t-28 201q0 111 28.5 203.5t77 155t113.5 106t137.5 63t149.5 19.5q79 0 149.5 -20t132.5 -63.5t107 -108
t71 -159t26 -210.5zM262 596h594q-3 153 -79.5 237.5t-207.5 84.5q-127 0 -209.5 -82t-97.5 -240z" />
    <glyph glyph-name="uni0436" unicode="&#x436;" horiz-adv-x="1628" 
d="M1608 0h-256l-430 442v-442h-207v440l-428 -440h-256l530 535l-516 530h256l414 -434v434h207v-436l413 436h256l-514 -530z" />
    <glyph glyph-name="uni0437" unicode="&#x437;" horiz-adv-x="1075" 
d="M737 563q42 -6 83.5 -22t84.5 -45t69.5 -78.5t26.5 -112.5q0 -151 -135.5 -237t-347.5 -86q-217 0 -336 104t-119 291h189q0 -106 72.5 -174t193.5 -68q129 0 204 49.5t75 132.5q0 85 -83 134t-231 49v114q137 1 199.5 46.5t62.5 117.5q0 64 -63.5 106t-157.5 42
q-104 0 -168.5 -54.5t-64.5 -140.5h-189q0 158 113 253t305 95q188 0 304 -78.5t116 -203.5q0 -52 -17 -93.5t-47.5 -69t-64.5 -44.5t-74 -27z" />
    <glyph glyph-name="uni0438" unicode="&#x438;" horiz-adv-x="1210" 
d="M115 1065h207v-782h6l549 782h219v-1065h-207v772h-6l-543 -772h-225v1065z" />
    <glyph glyph-name="uni0439" unicode="&#x439;" horiz-adv-x="1210" 
d="M782 1452h140q0 -126 -79.5 -203.5t-236.5 -77.5q-156 0 -234.5 77.5t-78.5 203.5h139q8 -69 49 -104t125 -35q83 0 125 35t51 104zM115 1065h207v-782h6l549 782h219v-1065h-207v772h-6l-543 -772h-225v1065z" />
    <glyph glyph-name="uni043A" unicode="&#x43a;" horiz-adv-x="1130" 
d="M879 0l-406 475l-151 -156v-319h-207v1065h207v-506l485 506h237l-442 -457l506 -608h-229z" />
    <glyph glyph-name="uni043B" unicode="&#x43b;" horiz-adv-x="1236" 
d="M1122 1065v-1065h-198l-6 901h-443v-459q0 -130 -31.5 -222t-92 -143.5t-139.5 -72t-181 -12.5v164q54 -1 94.5 11.5t74 44t51 91.5t17.5 148v614h854z" />
    <glyph glyph-name="uni043C" unicode="&#x43c;" horiz-adv-x="1462" 
d="M115 1065h235l381 -825l381 825h236v-1065h-207v719h-6l-324 -719h-160l-323 719h-6v-719h-207v1065z" />
    <glyph glyph-name="uni043D" unicode="&#x43d;" horiz-adv-x="1114" 
d="M793 1065h206v-1065h-206v471h-471v-471h-207v1065h207v-428h471v428z" />
    <glyph glyph-name="uni043E" unicode="&#x43e;" horiz-adv-x="1136" 
d="M569 1075q71 0 140.5 -19.5t135.5 -62.5t116.5 -105t81 -154.5t30.5 -203.5t-30.5 -203.5t-81 -154t-116.5 -104.5t-135.5 -62.5t-140.5 -19.5t-141 19.5t-136.5 62.5t-117 104.5t-81 154t-30.5 203.5t30.5 203.5t81 154.5t117 105t136.5 62.5t141 19.5zM874 530
q0 94 -25 167.5t-68.5 118t-97 67t-114.5 22.5t-115 -22.5t-97.5 -67t-69 -118t-25.5 -167.5t25.5 -167.5t69 -117.5t97.5 -66.5t115 -22.5t114.5 22.5t97 66.5t68.5 117.5t25 167.5z" />
    <glyph glyph-name="uni043F" unicode="&#x43f;" horiz-adv-x="1118" 
d="M1004 1065v-1065h-207v901h-475v-901h-207v1065h889z" />
    <glyph glyph-name="uni0440" unicode="&#x440;" horiz-adv-x="1191" 
d="M657 1075q66 0 131 -19.5t127 -62.5t109 -105t75.5 -154t28.5 -202q0 -112 -28.5 -205t-76 -155t-110 -105t-128 -62t-132.5 -19q-129 0 -214.5 61t-116.5 141v-577h-207v1454h207v-178q43 83 132.5 135.5t202.5 52.5zM616 156q132 0 222 95t90 281q0 95 -25.5 168.5
t-70 117t-99 65.5t-117.5 22q-131 0 -218 -95t-87 -278q0 -182 87.5 -279t217.5 -97z" />
    <glyph glyph-name="uni0441" unicode="&#x441;" horiz-adv-x="1083" 
d="M571 156q106 0 169.5 46t93.5 138h188q-17 -80 -51 -142t-77.5 -101.5t-98.5 -65t-110 -35.5t-116 -10q-75 0 -146 19t-137 61t-115 104t-78.5 154.5t-29.5 205.5q0 112 29 204.5t78 155t114.5 105t136.5 61.5t146 19q77 0 144 -17.5t129 -55.5t107.5 -107.5t66.5 -165.5
h-191q-29 87 -90 131.5t-164 44.5q-134 0 -220.5 -97t-86.5 -278q0 -183 87 -278.5t222 -95.5z" />
    <glyph glyph-name="uni0442" unicode="&#x442;" horiz-adv-x="1009" 
d="M948 1065v-164h-340v-901h-207v901h-340v164h887z" />
    <glyph glyph-name="uni0443" unicode="&#x443;" horiz-adv-x="1122" 
d="M870 1065h211l-452 -1116q-83 -205 -190.5 -282.5t-280.5 -57.5v178q117 -14 181.5 29t100.5 131q15 40 15 65t-15 62l-397 991h213l303 -817z" />
    <glyph glyph-name="uni0444" unicode="&#x444;" horiz-adv-x="1220" 
d="M1159 528q0 -123 -37 -222t-101 -163t-142.5 -102.5t-169.5 -52.5v-367h-195v369q-92 14 -170.5 52t-143 102t-101 162.5t-36.5 221.5t37 222.5t101 164.5t142.5 104.5t170.5 53.5v373h195v-375q91 -14 169.5 -53t142.5 -103.5t101 -164t37 -222.5zM236 528
q0 -166 74 -260.5t204 -120.5v766q-130 -26 -204 -122.5t-74 -262.5zM709 147q130 26 204 121.5t74 259.5q0 166 -74 262.5t-204 122.5v-766z" />
    <glyph glyph-name="uni0445" unicode="&#x445;" horiz-adv-x="1112" 
d="M1059 0h-230l-274 399l-274 -399h-228l387 551l-362 514h227l250 -363l250 363h229l-364 -514z" />
    <glyph glyph-name="uni0446" unicode="&#x446;" horiz-adv-x="1146" 
d="M1004 164h102v-451h-199v287h-792v1065h207v-901h475v901h207v-901z" />
    <glyph glyph-name="uni0447" unicode="&#x447;" horiz-adv-x="1130" 
d="M809 1065h207v-1065h-207v520q-8 -25 -26.5 -55t-51 -64t-72.5 -61.5t-97.5 -45.5t-119.5 -18q-173 0 -276 99t-103 313v377h207v-369q0 -126 65 -185.5t179 -59.5q66 0 121.5 25.5t90 65t55.5 79t28 75.5v369z" />
    <glyph glyph-name="uni0448" unicode="&#x448;" horiz-adv-x="1579" 
d="M1257 1065h207v-1065h-1349v1065h207v-901h370v901h195v-901h370v901z" />
    <glyph glyph-name="uni0449" unicode="&#x449;" horiz-adv-x="1607" 
d="M1464 164h103v-451h-199v287h-1253v1065h207v-901h370v901h195v-901h370v901h207v-901z" />
    <glyph glyph-name="uni044A" unicode="&#x44a;" horiz-adv-x="1236" 
d="M741 688q203 0 318 -92t115 -252q0 -163 -114.5 -253.5t-318.5 -90.5h-503v901h-185v164h391v-377h297zM741 164q232 0 232 180t-232 180h-297v-360h297z" />
    <glyph glyph-name="uni044B" unicode="&#x44b;" horiz-adv-x="1505" 
d="M618 688q203 0 318 -92t115 -252q0 -163 -114.5 -253.5t-318.5 -90.5h-503v1065h207v-377h296zM1186 1065h207v-1065h-207v1065zM618 164q232 0 232 180t-232 180h-296v-360h296z" />
    <glyph glyph-name="uni044C" unicode="&#x44c;" horiz-adv-x="1114" 
d="M618 688q203 0 318 -92t115 -252q0 -163 -114.5 -253.5t-318.5 -90.5h-503v1065h207v-377h296zM618 164q232 0 232 180t-232 180h-296v-360h296z" />
    <glyph glyph-name="uni044D" unicode="&#x44d;" horiz-adv-x="1085" 
d="M518 1075q75 0 146 -19t136.5 -61.5t114.5 -105t78 -155t29 -204.5q0 -113 -29.5 -205.5t-78.5 -154.5t-115 -104t-137 -61t-146 -19q-61 0 -116 10t-110 35.5t-98.5 65t-77.5 101.5t-51 142h189q30 -92 93 -138t169 -46q125 0 209.5 81.5t97.5 239.5h-344v131h342
q-20 144 -102 220.5t-201 76.5q-103 0 -164 -44.5t-90 -131.5h-190q21 96 66.5 165.5t107 107.5t128.5 55.5t144 17.5z" />
    <glyph glyph-name="uni044E" unicode="&#x44e;" horiz-adv-x="1536" 
d="M969 1075q71 0 140.5 -19.5t135.5 -62.5t116.5 -105t81 -154.5t30.5 -203.5t-30.5 -203.5t-81 -154t-116.5 -104.5t-135.5 -62.5t-140.5 -19.5q-66 0 -131 16.5t-127.5 53.5t-112.5 90t-85 131t-46 172h-145v-451h-207v1065h207v-449h145q11 94 46 172t85 130.5t113 89
t127.5 53t130.5 16.5zM969 156q61 0 114.5 22.5t97 66.5t68.5 117.5t25 167.5t-25 167.5t-68.5 118t-97 67t-114.5 22.5t-115 -22.5t-97.5 -67t-69 -118t-25.5 -167.5t25.5 -167.5t69 -117.5t97.5 -66.5t115 -22.5z" />
    <glyph glyph-name="uni044F" unicode="&#x44f;" horiz-adv-x="1132" 
d="M1018 1065v-1065h-207v377h-358q-82 0 -118 -30t-36 -97v-90q0 -71 -6.5 -101.5t-24.5 -58.5h-207q18 28 24.5 58.5t6.5 101.5v90q0 74 29 123.5t104 75.5q-143 92 -143 272q0 163 114 253.5t318 90.5h504zM811 541v360h-297q-231 0 -231 -180t231 -180h297z" />
    <glyph glyph-name="uni0451" unicode="&#x451;" horiz-adv-x="1116" 
d="M446 1452v-197h-213v197h213zM897 1452v-197h-213v197h213zM1055 514q0 -35 -2 -53h-791q29 -318 320 -318q93 0 152.5 27.5t99.5 89.5h186q-58 -141 -168.5 -207.5t-282.5 -66.5q-78 0 -151 20t-138 63t-113 105t-76 153t-28 201q0 111 28.5 203.5t77 155t113.5 106
t137.5 63t149.5 19.5q79 0 149.5 -20t132.5 -63.5t107 -108t71 -159t26 -210.5zM262 596h594q-3 153 -79.5 237.5t-207.5 84.5q-127 0 -209.5 -82t-97.5 -240z" />
    <glyph glyph-name="uni0453" unicode="&#x453;" horiz-adv-x="872" 
d="M315 1190h179l223 262h-228zM821 1065v-164h-499v-901h-207v1065h706z" />
    <glyph glyph-name="uni0454" unicode="&#x454;" horiz-adv-x="1083" 
d="M834 340h188q-17 -80 -51 -142t-77.5 -101.5t-98.5 -65t-110 -35.5t-116 -10q-75 0 -146 19t-137 61t-115 104t-78.5 154.5t-29.5 205.5q0 112 29 204.5t78 155t114.5 105t136.5 61.5t146 19q77 0 144 -17.5t129 -55.5t107.5 -107.5t66.5 -165.5h-191q-29 87 -90 131.5
t-164 44.5q-119 0 -201 -76.5t-102 -220.5h342v-131h-344q13 -158 97.5 -239.5t209.5 -81.5q106 0 169.5 46t93.5 138z" />
    <glyph glyph-name="uni0457" unicode="&#x457;" horiz-adv-x="436" 
d="M-115 1452h213v-197h-213v197zM336 1452h213v-197h-213v197zM115 1065h207v-1065h-207v1065z" />
    <glyph glyph-name="uni045C" unicode="&#x45c;" horiz-adv-x="1130" 
d="M846 1452l-223 -262h-179l174 262h228zM879 0l-406 475l-151 -156v-319h-207v1065h207v-506l485 506h237l-442 -457l506 -608h-229z" />
    <glyph glyph-name="uni045E" unicode="&#x45e;" horiz-adv-x="1122" 
d="M737 1452h140q0 -126 -79.5 -203.5t-236.5 -77.5q-156 0 -234.5 77.5t-78.5 203.5h139q8 -69 49 -104t125 -35q83 0 125 35t51 104zM870 1065h211l-452 -1116q-83 -205 -190.5 -282.5t-280.5 -57.5v178q117 -14 181.5 29t100.5 131q15 40 15 65t-15 62l-397 991h213
l303 -817z" />
    <glyph glyph-name="uni0490" unicode="&#x490;" horiz-adv-x="1038" 
d="M770 1638h217v-393h-657v-1245h-215v1434h655v204z" />
    <glyph glyph-name="uni0491" unicode="&#x491;" horiz-adv-x="872" 
d="M641 1200h180v-299h-499v-901h-207v1065h526v135z" />
    <glyph glyph-name="Wgrave" unicode="&#x1e80;" horiz-adv-x="2064" 
d="M1149 1559l-174 262h-227l223 -262h178zM1786 1434h225l-414 -1434h-202l-363 1112l-362 -1112h-203l-414 1434h226l301 -1110l344 1110h217l344 -1110z" />
    <glyph glyph-name="wgrave" unicode="&#x1e81;" horiz-adv-x="1652" 
d="M942 1190l-174 262h-227l223 -262h178zM1610 1065l-312 -1065h-184l-289 815l-286 -815h-185l-311 1065h209l219 -807l272 807h166l273 -807l219 807h209z" />
    <glyph glyph-name="Wacute" unicode="&#x1e82;" horiz-adv-x="2064" 
d="M911 1559h179l223 262h-228zM1786 1434h225l-414 -1434h-202l-363 1112l-362 -1112h-203l-414 1434h226l301 -1110l344 1110h217l344 -1110z" />
    <glyph glyph-name="wacute" unicode="&#x1e83;" horiz-adv-x="1652" 
d="M705 1190h178l223 262h-227zM1610 1065l-312 -1065h-184l-289 815l-286 -815h-185l-311 1065h209l219 -807l272 807h166l273 -807l219 807h209z" />
    <glyph glyph-name="Wdieresis" unicode="&#x1e84;" horiz-adv-x="2064" 
d="M700 1821h213v-197h-213v197zM1151 1821h213v-197h-213v197zM1786 1434h225l-414 -1434h-202l-363 1112l-362 -1112h-203l-414 1434h226l301 -1110l344 1110h217l344 -1110z" />
    <glyph glyph-name="wdieresis" unicode="&#x1e85;" horiz-adv-x="1652" 
d="M494 1452h213v-197h-213v197zM944 1452h213v-197h-213v197zM1610 1065l-312 -1065h-184l-289 815l-286 -815h-185l-311 1065h209l219 -807l272 807h166l273 -807l219 807h209z" />
    <glyph glyph-name="uni1E9E" unicode="&#x1e9e;" horiz-adv-x="1398" 
d="M860 887q130 -15 231.5 -71t163.5 -158.5t62 -237.5q0 -203 -122.5 -321.5t-336.5 -118.5q-217 0 -325.5 111.5t-108.5 314.5h209q0 -45 13 -86t39 -76t70.5 -55.5t102.5 -20.5q114 0 174 73t60 177q0 141 -142 224t-381 77l316 547h-377q-99 0 -138.5 -46t-39.5 -145
v-1075h-215v1092q0 193 90 277.5t284 84.5h721z" />
    <glyph glyph-name="Ygrave" unicode="&#x1ef2;" horiz-adv-x="1370" 
d="M801 1559l-174 262h-228l224 -262h178zM795 549v-549h-222v549l-520 885h242l389 -676l391 676h242z" />
    <glyph glyph-name="ygrave" unicode="&#x1ef3;" horiz-adv-x="1122" 
d="M680 1190l-174 262h-227l223 -262h178zM870 1065h211l-452 -1116q-83 -205 -190.5 -282.5t-280.5 -57.5v178q117 -14 181.5 29t100.5 131q15 40 15 65t-15 62l-397 991h213l303 -817z" />
    <glyph glyph-name="endash" unicode="&#x2013;" horiz-adv-x="1228" 
d="M92 649h1045v-157h-1045v157z" />
    <glyph glyph-name="emdash" unicode="&#x2014;" horiz-adv-x="1351" 
d="M92 649h1168v-157h-1168v157z" />
    <glyph glyph-name="quoteleft" unicode="&#x2018;" horiz-adv-x="399" 
d="M317 1434v-68q-51 -18 -72.5 -62.5t-21.5 -117.5v-64h94v-250h-235v281q0 68 13.5 119.5t35 81.5t53.5 48t63 24.5t70 7.5z" />
    <glyph glyph-name="quoteright" unicode="&#x2019;" horiz-adv-x="399" 
d="M82 872v68q51 18 72.5 62.5t21.5 117.5v64h-94v250h235v-281q0 -68 -13.5 -119.5t-35 -81.5t-53.5 -48t-63 -24.5t-70 -7.5z" />
    <glyph glyph-name="quotesinglbase" unicode="&#x201a;" horiz-adv-x="399" 
d="M82 -311v67q51 18 72.5 62.5t21.5 118.5v63h-94v250h235v-281q0 -85 -19.5 -142.5t-55 -86t-73.5 -39.5t-87 -12z" />
    <glyph glyph-name="quotedblleft" unicode="&#x201c;" horiz-adv-x="788" 
d="M317 1436v-68q-51 -18 -72.5 -62.5t-21.5 -117.5v-64h94v-250h-235v281q0 68 13.5 119.5t35 81.5t53.5 48t63 24.5t70 7.5zM707 1436v-68q-95 -34 -95 -180v-64h95v-250h-236v281q0 68 13.5 119.5t35.5 81t54 48t63 25t70 7.5z" />
    <glyph glyph-name="quotedblright" unicode="&#x201d;" horiz-adv-x="788" 
d="M82 872v68q51 18 72.5 62.5t21.5 117.5v64h-94v250h235v-281q0 -68 -13.5 -119.5t-35 -81.5t-53.5 -48t-63 -24.5t-70 -7.5zM471 872v68q51 18 72.5 62.5t21.5 117.5v64h-94v250h236v-281q0 -68 -13.5 -119.5t-35.5 -81t-54 -48t-63 -25t-70 -7.5z" />
    <glyph glyph-name="quotedblbase" unicode="&#x201e;" horiz-adv-x="788" 
d="M82 -311v67q51 18 72.5 62.5t21.5 118.5v63h-94v250h235v-281q0 -85 -19.5 -142.5t-55 -86t-73.5 -39.5t-87 -12zM471 -311v67q51 18 72.5 62.5t21.5 118.5v63h-94v250h236v-281q0 -85 -19.5 -142.5t-55.5 -86t-74 -39.5t-87 -12z" />
    <glyph glyph-name="dagger" unicode="&#x2020;" horiz-adv-x="751" 
d="M649 1167v-157h-188v-516h-168v516h-191v157h191v267h168v-267h188z" />
    <glyph glyph-name="daggerdbl" unicode="&#x2021;" horiz-adv-x="751" 
d="M649 977h-188v-520h188v-158h-188v-299h-168v299h-191v158h191v520h-191v158h191v299h168v-299h188v-158z" />
    <glyph glyph-name="bullet" unicode="&#x2022;" horiz-adv-x="546" 
d="M274 369q-72 0 -122 50.5t-50 121.5q0 69 50 119.5t122 50.5q69 0 119.5 -50.5t50.5 -119.5q0 -70 -50.5 -121t-119.5 -51z" />
    <glyph glyph-name="ellipsis" unicode="&#x2026;" horiz-adv-x="1452" 
d="M102 250h236v-250h-236v250zM608 250h236v-250h-236v250zM1114 250h236v-250h-236v250z" />
    <glyph glyph-name="perthousand" unicode="&#x2030;" horiz-adv-x="2146" 
d="M365 801q-121 0 -197 84t-76 237q0 154 76 238t197 84t197.5 -84.5t76.5 -237.5t-76.5 -237t-197.5 -84zM248 0l844 1438l153 -4l-839 -1434h-158zM365 936q127 0 127 186q0 185 -127 185t-127 -185q0 -186 127 -186zM1782 -6q-121 0 -197 84t-76 237q0 154 76 238
t197 84t196.5 -84t75.5 -238t-75.5 -237.5t-196.5 -83.5zM1128 -10q-121 0 -196.5 83.5t-75.5 237.5q0 153 76 237.5t196 84.5q121 0 198 -84.5t77 -237.5t-76.5 -237t-198.5 -84zM1782 129q127 0 127 186q0 185 -127 185t-127 -185q0 -186 127 -186zM1128 127
q129 0 129 184q0 187 -129 187q-58 0 -92.5 -45t-34.5 -142q0 -184 127 -184z" />
    <glyph glyph-name="guilsinglleft" unicode="&#x2039;" horiz-adv-x="483" 
d="M401 768l-186 -156l186 -157v-193l-319 266v166l319 267v-193z" />
    <glyph glyph-name="guilsinglright" unicode="&#x203a;" horiz-adv-x="462" 
d="M72 768v193l319 -267v-166l-319 -266v193l186 157z" />
    <glyph glyph-name="fraction" unicode="&#x2044;" horiz-adv-x="311" 
d="M-236 0h-110l895 1434h108z" />
    <glyph glyph-name="Euro" unicode="&#x20ac;" horiz-adv-x="1445" 
d="M1167 395h217q-34 -197 -189.5 -305t-377.5 -108q-240 0 -405 134t-215 388h-125v129h106q-2 27 -2 84v39h-104v129h116q40 275 208.5 421t420.5 146q144 0 262 -46.5t198 -140.5t103 -225h-217q-84 224 -342 224q-160 0 -266 -97t-139 -282h342v-129h-357v-39
q0 -17 5 -84h352v-129h-332q39 -163 142.5 -248.5t252.5 -85.5q263 0 346 225z" />
    <glyph glyph-name="trademark" unicode="&#x2122;" horiz-adv-x="1028" 
d="M430 1356h-129v-291h-92v291h-127v78h348v-78zM946 1434v-369h-92v217l-92 -217h-78l-92 217v-217h-92v369h92l131 -287l131 287h92z" />
    <glyph glyph-name="partialdiff" unicode="&#x2202;" horiz-adv-x="1202" 
d="M553 946q146 0 244 -59t127 -142q1 78 -6 146.5t-29 145t-58 130.5t-99.5 89.5t-147.5 35.5q-106 0 -180 -58.5t-91 -156.5h-182q5 69 34 133.5t82 119.5t141 88.5t198 33.5q117 0 209 -39.5t152 -107.5t99 -165.5t55.5 -206.5t16.5 -237q0 -182 -38 -320t-108 -223.5
t-164.5 -128t-211.5 -42.5q-98 0 -186 30t-159.5 88.5t-114 155.5t-42.5 221q0 117 41.5 210t109 147.5t146.5 83t162 28.5zM594 152q126 0 213.5 92.5t87.5 257.5q0 93 -44 162.5t-111.5 103t-145.5 33.5q-126 0 -212.5 -84t-86.5 -238q0 -157 84.5 -242t214.5 -85z" />
    <glyph glyph-name="product" unicode="&#x220f;" horiz-adv-x="1431" 
d="M92 1638h1247v-2027h-196v1839h-854v-1839h-197v2027z" />
    <glyph glyph-name="summation" unicode="&#x2211;" horiz-adv-x="1380" 
d="M1288 1450h-864l457 -825l-457 -826h864v-188h-1196l563 1014l-563 1013h1196v-188z" />
    <glyph glyph-name="minus" unicode="&#x2212;" horiz-adv-x="870" 
d="M80 606h635v-157h-635v157z" />
    <glyph glyph-name="radical" unicode="&#x221a;" horiz-adv-x="1566" 
d="M1475 1638l-549 -2027h-232l-366 919h-236v220h373l334 -865l473 1753h203z" />
    <glyph glyph-name="infinity" unicode="&#x221e;" horiz-adv-x="1669" 
d="M1223 881q155 0 258.5 -96t103.5 -248q0 -156 -103.5 -253.5t-258.5 -97.5q-191 0 -387 220q-202 -220 -390 -220q-155 0 -258.5 97.5t-103.5 253.5q0 152 103.5 248t258.5 96q191 0 390 -217q193 217 387 217zM459 348q134 0 270 189q-136 186 -270 186
q-86 0 -138.5 -54t-52.5 -132q0 -79 52 -134t139 -55zM1210 348q86 0 137.5 54.5t51.5 134.5q0 78 -51.5 132t-137.5 54q-76 0 -141 -49t-129 -137q64 -89 129 -139t141 -50z" />
    <glyph glyph-name="integral" unicode="&#x222b;" horiz-adv-x="608" 
d="M201 1087q0 183 86 266t280 83v-179q-83 0 -121 -49.5t-38 -158.5v-1090q0 -189 -90 -268.5t-277 -79.5v178q85 0 122.5 51.5t37.5 157.5v1089z" />
    <glyph glyph-name="approxequal" unicode="&#x2248;" horiz-adv-x="980" 
d="M795 809h94q0 -106 -63 -172t-167 -66q-44 0 -85 16.5t-73.5 40t-64.5 47t-69.5 40t-75.5 16.5q-48 0 -77.5 -25t-27.5 -57h-94q0 105 63 170.5t167 65.5q54 0 105.5 -25t86.5 -55t82.5 -55t93.5 -25q49 0 78 25.5t27 58.5zM795 481h94q0 -106 -63 -171.5t-167 -65.5
q-53 0 -104.5 25t-86.5 54.5t-83 54.5t-94 25q-48 0 -77.5 -24.5t-27.5 -56.5h-94q0 105 63 170t167 65q54 0 105.5 -25t86.5 -55t82.5 -55t93.5 -25q49 0 78 25.5t27 58.5z" />
    <glyph glyph-name="notequal" unicode="&#x2260;" horiz-adv-x="870" 
d="M727 1149l-131 -336h117v-158h-178l-66 -170h244v-157h-305l-127 -328h-138l127 328h-192v157h254l65 170h-319v158h381l131 336h137z" />
    <glyph glyph-name="lessequal" unicode="&#x2264;" horiz-adv-x="907" 
d="M805 500l-549 270l549 268v179l-703 -363v-170l703 -362v178zM102 160h703v-160h-703v160z" />
    <glyph glyph-name="greaterequal" unicode="&#x2265;" horiz-adv-x="909" 
d="M104 500v-178l703 362v170l-703 363v-179l549 -268zM807 160v-160h-703v160h703z" />
    <glyph glyph-name="lozenge" unicode="&#x25ca;" horiz-adv-x="1103" 
d="M694 1434l318 -717l-318 -717h-284l-318 717l318 717h284zM553 156l248 561l-248 561l-250 -561z" />
    <glyph glyph-name="G.ss01" horiz-adv-x="1406" 
d="M817 733h506v-733h-199v205q-66 -114 -165.5 -168.5t-241.5 -54.5q-139 0 -254.5 47t-200 138t-131.5 231.5t-47 318.5t47.5 318.5t133 231.5t202 138t258.5 47q211 0 360 -101t191 -284h-217q-88 197 -330 197q-194 0 -307 -141.5t-113 -405.5q0 -263 113 -404t313 -143
q179 -1 283 94.5t104 257.5v37h-305v174z" />
    <glyph glyph-name="R.ss01" horiz-adv-x="1249" 
d="M1186 0h-223l-279 487h-35h-319v-487h-215v1434h534q258 0 391.5 -126t133.5 -350q0 -162 -73.5 -274.5t-217.5 -161.5zM330 1245v-569h319q145 0 220 73t75 209q0 138 -75 212.5t-220 74.5h-319z" />
    <glyph glyph-name="G.ss05" horiz-adv-x="1406" 
d="M817 733h506v-733h-199v205q-66 -114 -165.5 -168.5t-241.5 -54.5q-139 0 -254.5 47t-200 138t-131.5 231.5t-47 318.5t47.5 318.5t133 231.5t202 138t258.5 47q211 0 360 -101t191 -284h-217q-88 197 -330 197q-194 0 -307 -141.5t-113 -405.5q0 -263 113 -404t313 -143
q179 -1 283 94.5t104 257.5v37h-305v174z" />
    <glyph glyph-name="i.loclTRK" horiz-adv-x="436" 
d="M111 1452h213v-197h-213v197zM115 1065h207v-1065h-207v1065z" />
    <glyph glyph-name="a.ss01" 
d="M530 1075q233 0 328 -184v174h207v-1065h-207v182q-30 -83 -113 -139.5t-215 -56.5q-66 0 -130 18.5t-125.5 61.5t-108 104.5t-75 155t-28.5 206.5q0 111 28.5 203.5t75 154.5t108 104.5t126 61.5t129.5 19zM569 156q130 0 214.5 94.5t84.5 281.5q0 186 -84 279.5
t-215 93.5t-215 -92t-84 -281q0 -190 84 -283t215 -93z" />
    <glyph glyph-name="aacute.ss01" 
d="M475 1190h178l224 262h-228zM530 1075q233 0 328 -184v174h207v-1065h-207v182q-30 -83 -113 -139.5t-215 -56.5q-66 0 -130 18.5t-125.5 61.5t-108 104.5t-75 155t-28.5 206.5q0 111 28.5 203.5t75 154.5t108 104.5t126 61.5t129.5 19zM569 156q130 0 214.5 94.5
t84.5 281.5q0 186 -84 279.5t-215 93.5t-215 -92t-84 -281q0 -190 84 -283t215 -93z" />
    <glyph glyph-name="abreve.ss01" 
d="M772 1452h139q0 -126 -79 -203.5t-236 -77.5q-156 0 -234.5 77.5t-78.5 203.5h139q8 -69 49 -104t125 -35q83 0 125 35t51 104zM530 1075q233 0 328 -184v174h207v-1065h-207v182q-30 -83 -113 -139.5t-215 -56.5q-66 0 -130 18.5t-125.5 61.5t-108 104.5t-75 155
t-28.5 206.5q0 111 28.5 203.5t75 154.5t108 104.5t126 61.5t129.5 19zM569 156q130 0 214.5 94.5t84.5 281.5q0 186 -84 279.5t-215 93.5t-215 -92t-84 -281q0 -190 84 -283t215 -93z" />
    <glyph glyph-name="uni01CE.ss01" 
d="M784 1434h164l-170 -273h-370l-170 273h163l193 -174zM530 1075q233 0 328 -184v174h207v-1065h-207v182q-30 -83 -113 -139.5t-215 -56.5q-66 0 -130 18.5t-125.5 61.5t-108 104.5t-75 155t-28.5 206.5q0 111 28.5 203.5t75 154.5t108 104.5t126 61.5t129.5 19zM569 156
q130 0 214.5 94.5t84.5 281.5q0 186 -84 279.5t-215 93.5t-215 -92t-84 -281q0 -190 84 -283t215 -93z" />
    <glyph glyph-name="acircumflex.ss01" 
d="M786 1180l-190 174l-193 -174h-163l170 272h370l170 -272h-164zM530 1075q233 0 328 -184v174h207v-1065h-207v182q-30 -83 -113 -139.5t-215 -56.5q-66 0 -130 18.5t-125.5 61.5t-108 104.5t-75 155t-28.5 206.5q0 111 28.5 203.5t75 154.5t108 104.5t126 61.5t129.5 19
zM569 156q130 0 214.5 94.5t84.5 281.5q0 186 -84 279.5t-215 93.5t-215 -92t-84 -281q0 -190 84 -283t215 -93z" />
    <glyph glyph-name="adieresis.ss01" 
d="M264 1452h213v-197h-213v197zM715 1452h213v-197h-213v197zM530 1075q233 0 328 -184v174h207v-1065h-207v182q-30 -83 -113 -139.5t-215 -56.5q-66 0 -130 18.5t-125.5 61.5t-108 104.5t-75 155t-28.5 206.5q0 111 28.5 203.5t75 154.5t108 104.5t126 61.5t129.5 19z
M569 156q130 0 214.5 94.5t84.5 281.5q0 186 -84 279.5t-215 93.5t-215 -92t-84 -281q0 -190 84 -283t215 -93z" />
    <glyph glyph-name="agrave.ss01" 
d="M713 1190l-174 262h-228l224 -262h178zM530 1075q233 0 328 -184v174h207v-1065h-207v182q-30 -83 -113 -139.5t-215 -56.5q-66 0 -130 18.5t-125.5 61.5t-108 104.5t-75 155t-28.5 206.5q0 111 28.5 203.5t75 154.5t108 104.5t126 61.5t129.5 19zM569 156
q130 0 214.5 94.5t84.5 281.5q0 186 -84 279.5t-215 93.5t-215 -92t-84 -281q0 -190 84 -283t215 -93z" />
    <glyph glyph-name="amacron.ss01" 
d="M264 1452h666v-125h-666v125zM530 1075q233 0 328 -184v174h207v-1065h-207v182q-30 -83 -113 -139.5t-215 -56.5q-66 0 -130 18.5t-125.5 61.5t-108 104.5t-75 155t-28.5 206.5q0 111 28.5 203.5t75 154.5t108 104.5t126 61.5t129.5 19zM569 156q130 0 214.5 94.5
t84.5 281.5q0 186 -84 279.5t-215 93.5t-215 -92t-84 -281q0 -190 84 -283t215 -93z" />
    <glyph glyph-name="aogonek.ss01" 
d="M858 1065h207v-1065h-53q-134 -42 -197 -103t-63 -128q0 -62 50.5 -83t135.5 3v-95q-38 -19 -87 -28.5t-101 -6t-95.5 20t-71.5 56t-28 96.5q0 51 28.5 98t73.5 80t97 56t104 34v182q-30 -83 -113 -139.5t-215 -56.5q-66 0 -130 18.5t-125.5 61.5t-108 104.5t-75 155
t-28.5 206.5q0 111 28.5 203.5t75 154.5t108 104.5t126 61.5t129.5 19q233 0 328 -184v174zM569 156q130 0 214.5 94.5t84.5 281.5q0 186 -84 279.5t-215 93.5t-215 -92t-84 -281q0 -190 84 -283t215 -93z" />
    <glyph glyph-name="aring.ss01" 
d="M596 1188q-77 0 -131.5 54t-54.5 130t54.5 130t131.5 54t131.5 -54t54.5 -130t-54.5 -130t-131.5 -54zM596 1284q37 0 63.5 25t26.5 63q0 39 -26 63.5t-64 24.5q-37 0 -62.5 -24.5t-25.5 -63.5q0 -38 25.5 -63t62.5 -25zM530 1075q233 0 328 -184v174h207v-1065h-207v182
q-30 -83 -113 -139.5t-215 -56.5q-66 0 -130 18.5t-125.5 61.5t-108 104.5t-75 155t-28.5 206.5q0 111 28.5 203.5t75 154.5t108 104.5t126 61.5t129.5 19zM569 156q130 0 214.5 94.5t84.5 281.5q0 186 -84 279.5t-215 93.5t-215 -92t-84 -281q0 -190 84 -283t215 -93z" />
    <glyph glyph-name="atilde.ss01" 
d="M887 1434h92q0 -101 -60.5 -163.5t-158.5 -62.5q-51 0 -100.5 24t-83.5 52t-79.5 52t-88.5 24q-46 0 -74.5 -23.5t-26.5 -54.5h-90q0 100 60 162.5t159 62.5q51 0 100.5 -24t83 -52.5t79 -52.5t89.5 -24q45 0 73 24.5t26 55.5zM530 1075q233 0 328 -184v174h207v-1065
h-207v182q-30 -83 -113 -139.5t-215 -56.5q-66 0 -130 18.5t-125.5 61.5t-108 104.5t-75 155t-28.5 206.5q0 111 28.5 203.5t75 154.5t108 104.5t126 61.5t129.5 19zM569 156q130 0 214.5 94.5t84.5 281.5q0 186 -84 279.5t-215 93.5t-215 -92t-84 -281q0 -190 84 -283
t215 -93z" />
    <glyph glyph-name="g.ss01" horiz-adv-x="1116" 
d="M543 264q75 0 143 -11t132.5 -37.5t111.5 -66t75.5 -101.5t28.5 -140q0 -77 -28.5 -139t-75 -102.5t-111 -67.5t-133 -38.5t-143.5 -11.5q-70 0 -136.5 11.5t-129.5 38.5t-110 67.5t-75.5 102.5t-28.5 139q0 200 222 280q-85 10 -144 52t-59 110q0 55 36 92.5t99 49.5
q-80 93 -80 229q0 165 111.5 260.5t288.5 95.5q176 0 286 -96q56 87 183 84v-154q-65 0 -107 -30q35 -68 35 -160q0 -165 -110.5 -259.5t-286.5 -94.5q-131 0 -228 51q-61 -9 -61 -66q0 -48 47 -68t141 -20h107zM537 928q-111 0 -166.5 -58t-55.5 -149t55.5 -148t166.5 -57
t166 57t55 148t-55 149t-166 58zM547 -299q137 0 210.5 53t73.5 154t-73.5 153t-210.5 52q-135 0 -209 -52.5t-74 -152.5t74 -153.5t209 -53.5z" />
    <glyph glyph-name="l.ss01" horiz-adv-x="468" 
d="M420 -2q-78 -9 -135 -3.5t-95 31t-56.5 76t-18.5 131.5v1213h207v-1219q0 -39 22.5 -57.5t75.5 -17.5v-154z" />
    <glyph glyph-name="a.ss02" 
d="M530 1075q233 0 328 -184v174h207v-1065h-207v182q-30 -83 -113 -139.5t-215 -56.5q-66 0 -130 18.5t-125.5 61.5t-108 104.5t-75 155t-28.5 206.5q0 111 28.5 203.5t75 154.5t108 104.5t126 61.5t129.5 19zM569 156q130 0 214.5 94.5t84.5 281.5q0 186 -84 279.5
t-215 93.5t-215 -92t-84 -281q0 -190 84 -283t215 -93z" />
    <glyph glyph-name="aacute.ss02" 
d="M475 1190h178l224 262h-228zM530 1075q233 0 328 -184v174h207v-1065h-207v182q-30 -83 -113 -139.5t-215 -56.5q-66 0 -130 18.5t-125.5 61.5t-108 104.5t-75 155t-28.5 206.5q0 111 28.5 203.5t75 154.5t108 104.5t126 61.5t129.5 19zM569 156q130 0 214.5 94.5
t84.5 281.5q0 186 -84 279.5t-215 93.5t-215 -92t-84 -281q0 -190 84 -283t215 -93z" />
    <glyph glyph-name="abreve.ss02" 
d="M772 1452h139q0 -126 -79 -203.5t-236 -77.5q-156 0 -234.5 77.5t-78.5 203.5h139q8 -69 49 -104t125 -35q83 0 125 35t51 104zM530 1075q233 0 328 -184v174h207v-1065h-207v182q-30 -83 -113 -139.5t-215 -56.5q-66 0 -130 18.5t-125.5 61.5t-108 104.5t-75 155
t-28.5 206.5q0 111 28.5 203.5t75 154.5t108 104.5t126 61.5t129.5 19zM569 156q130 0 214.5 94.5t84.5 281.5q0 186 -84 279.5t-215 93.5t-215 -92t-84 -281q0 -190 84 -283t215 -93z" />
    <glyph glyph-name="uni01CE.ss02" 
d="M784 1434h164l-170 -273h-370l-170 273h163l193 -174zM530 1075q233 0 328 -184v174h207v-1065h-207v182q-30 -83 -113 -139.5t-215 -56.5q-66 0 -130 18.5t-125.5 61.5t-108 104.5t-75 155t-28.5 206.5q0 111 28.5 203.5t75 154.5t108 104.5t126 61.5t129.5 19zM569 156
q130 0 214.5 94.5t84.5 281.5q0 186 -84 279.5t-215 93.5t-215 -92t-84 -281q0 -190 84 -283t215 -93z" />
    <glyph glyph-name="acircumflex.ss02" 
d="M786 1180l-190 174l-193 -174h-163l170 272h370l170 -272h-164zM530 1075q233 0 328 -184v174h207v-1065h-207v182q-30 -83 -113 -139.5t-215 -56.5q-66 0 -130 18.5t-125.5 61.5t-108 104.5t-75 155t-28.5 206.5q0 111 28.5 203.5t75 154.5t108 104.5t126 61.5t129.5 19
zM569 156q130 0 214.5 94.5t84.5 281.5q0 186 -84 279.5t-215 93.5t-215 -92t-84 -281q0 -190 84 -283t215 -93z" />
    <glyph glyph-name="adieresis.ss02" 
d="M264 1452h213v-197h-213v197zM715 1452h213v-197h-213v197zM530 1075q233 0 328 -184v174h207v-1065h-207v182q-30 -83 -113 -139.5t-215 -56.5q-66 0 -130 18.5t-125.5 61.5t-108 104.5t-75 155t-28.5 206.5q0 111 28.5 203.5t75 154.5t108 104.5t126 61.5t129.5 19z
M569 156q130 0 214.5 94.5t84.5 281.5q0 186 -84 279.5t-215 93.5t-215 -92t-84 -281q0 -190 84 -283t215 -93z" />
    <glyph glyph-name="agrave.ss02" 
d="M713 1190l-174 262h-228l224 -262h178zM530 1075q233 0 328 -184v174h207v-1065h-207v182q-30 -83 -113 -139.5t-215 -56.5q-66 0 -130 18.5t-125.5 61.5t-108 104.5t-75 155t-28.5 206.5q0 111 28.5 203.5t75 154.5t108 104.5t126 61.5t129.5 19zM569 156
q130 0 214.5 94.5t84.5 281.5q0 186 -84 279.5t-215 93.5t-215 -92t-84 -281q0 -190 84 -283t215 -93z" />
    <glyph glyph-name="amacron.ss02" 
d="M264 1452h666v-125h-666v125zM530 1075q233 0 328 -184v174h207v-1065h-207v182q-30 -83 -113 -139.5t-215 -56.5q-66 0 -130 18.5t-125.5 61.5t-108 104.5t-75 155t-28.5 206.5q0 111 28.5 203.5t75 154.5t108 104.5t126 61.5t129.5 19zM569 156q130 0 214.5 94.5
t84.5 281.5q0 186 -84 279.5t-215 93.5t-215 -92t-84 -281q0 -190 84 -283t215 -93z" />
    <glyph glyph-name="aogonek.ss02" 
d="M858 1065h207v-1065h-53q-134 -42 -197 -103t-63 -128q0 -62 50.5 -83t135.5 3v-95q-38 -19 -87 -28.5t-101 -6t-95.5 20t-71.5 56t-28 96.5q0 51 28.5 98t73.5 80t97 56t104 34v182q-30 -83 -113 -139.5t-215 -56.5q-66 0 -130 18.5t-125.5 61.5t-108 104.5t-75 155
t-28.5 206.5q0 111 28.5 203.5t75 154.5t108 104.5t126 61.5t129.5 19q233 0 328 -184v174zM569 156q130 0 214.5 94.5t84.5 281.5q0 186 -84 279.5t-215 93.5t-215 -92t-84 -281q0 -190 84 -283t215 -93z" />
    <glyph glyph-name="aring.ss02" 
d="M596 1188q-77 0 -131.5 54t-54.5 130t54.5 130t131.5 54t131.5 -54t54.5 -130t-54.5 -130t-131.5 -54zM596 1284q37 0 63.5 25t26.5 63q0 39 -26 63.5t-64 24.5q-37 0 -62.5 -24.5t-25.5 -63.5q0 -38 25.5 -63t62.5 -25zM530 1075q233 0 328 -184v174h207v-1065h-207v182
q-30 -83 -113 -139.5t-215 -56.5q-66 0 -130 18.5t-125.5 61.5t-108 104.5t-75 155t-28.5 206.5q0 111 28.5 203.5t75 154.5t108 104.5t126 61.5t129.5 19zM569 156q130 0 214.5 94.5t84.5 281.5q0 186 -84 279.5t-215 93.5t-215 -92t-84 -281q0 -190 84 -283t215 -93z" />
    <glyph glyph-name="atilde.ss02" 
d="M887 1434h92q0 -101 -60.5 -163.5t-158.5 -62.5q-51 0 -100.5 24t-83.5 52t-79.5 52t-88.5 24q-46 0 -74.5 -23.5t-26.5 -54.5h-90q0 100 60 162.5t159 62.5q51 0 100.5 -24t83 -52.5t79 -52.5t89.5 -24q45 0 73 24.5t26 55.5zM530 1075q233 0 328 -184v174h207v-1065
h-207v182q-30 -83 -113 -139.5t-215 -56.5q-66 0 -130 18.5t-125.5 61.5t-108 104.5t-75 155t-28.5 206.5q0 111 28.5 203.5t75 154.5t108 104.5t126 61.5t129.5 19zM569 156q130 0 214.5 94.5t84.5 281.5q0 186 -84 279.5t-215 93.5t-215 -92t-84 -281q0 -190 84 -283
t215 -93z" />
    <glyph glyph-name="g.ss03" horiz-adv-x="1116" 
d="M543 264q75 0 143 -11t132.5 -37.5t111.5 -66t75.5 -101.5t28.5 -140q0 -77 -28.5 -139t-75 -102.5t-111 -67.5t-133 -38.5t-143.5 -11.5q-70 0 -136.5 11.5t-129.5 38.5t-110 67.5t-75.5 102.5t-28.5 139q0 200 222 280q-85 10 -144 52t-59 110q0 55 36 92.5t99 49.5
q-80 93 -80 229q0 165 111.5 260.5t288.5 95.5q176 0 286 -96q56 87 183 84v-154q-65 0 -107 -30q35 -68 35 -160q0 -165 -110.5 -259.5t-286.5 -94.5q-131 0 -228 51q-61 -9 -61 -66q0 -48 47 -68t141 -20h107zM537 928q-111 0 -166.5 -58t-55.5 -149t55.5 -148t166.5 -57
t166 57t55 148t-55 149t-166 58zM547 -299q137 0 210.5 53t73.5 154t-73.5 153t-210.5 52q-135 0 -209 -52.5t-74 -152.5t74 -153.5t209 -53.5z" />
    <glyph glyph-name="l.ss04" horiz-adv-x="468" 
d="M420 -2q-78 -9 -135 -3.5t-95 31t-56.5 76t-18.5 131.5v1213h207v-1219q0 -39 22.5 -57.5t75.5 -17.5v-154z" />
    <glyph glyph-name="f_t" horiz-adv-x="1370" 
d="M1192 152q55 0 115 16v-154q-73 -26 -174 -26q-58 0 -101 10t-80 35t-56 73t-19 119v676h-480v-901h-207v901h-149v164h149v90q0 80 19 139t47 91.5t71 51.5t80 24t85 5q89 0 157 -22v-154q-72 15 -112 15q-75 0 -107.5 -35.5t-32.5 -118.5v-86h480v266h206v-266h209
v-164h-209v-653q0 -47 25 -71.5t84 -24.5z" />
    <glyph glyph-name="r_t" horiz-adv-x="1382" 
d="M1204 152q55 0 115 16v-154q-73 -26 -174 -26q-58 0 -101 10t-80 35t-56 73t-19 119v676h-141q-197 0 -297.5 -79t-128.5 -222v-600h-207v1065h207v-256q29 109 136.5 181t262.5 75h168v266h207v-266h209v-164h-209v-653q0 -47 24.5 -71.5t83.5 -24.5z" />
    <glyph glyph-name="zero.dnom" horiz-adv-x="579" 
d="M291 -4q98 0 157.5 71t59.5 187v27q0 116 -59.5 187t-157.5 71t-158.5 -71t-60.5 -187v-27q0 -116 60.5 -187t158.5 -71zM291 459q59 0 95 -48.5t36 -129.5v-27q0 -81 -36 -129.5t-95 -48.5t-96 48.5t-37 129.5v27q0 81 37 129.5t96 48.5z" />
    <glyph glyph-name="one.dnom" horiz-adv-x="368" 
d="M276 535v-535h-81v422q-13 -25 -44.5 -36t-68.5 -5v80q36 -3 69 20.5t44 53.5h81z" />
    <glyph glyph-name="two.dnom" horiz-adv-x="526" 
d="M82 0v16q0 81 32 137.5t117 108.5q6 3 21.5 12.5t20.5 12.5t17 11t16 12t12 11.5t10.5 13t7 14t5.5 17.5t1 19q0 36 -24.5 58t-61.5 22q-38 0 -63 -24t-25 -68v-15h-86v15q0 76 45 123t129 47q83 0 129.5 -44.5t46.5 -113.5q0 -33 -11.5 -60t-37 -50.5t-48 -38.5
t-63.5 -39q-94 -56 -94 -113v-6h256v-78h-352z" />
    <glyph glyph-name="three.dnom" horiz-adv-x="555" 
d="M356 285q43 -6 80 -40t37 -95q0 -70 -51.5 -114t-145.5 -44q-91 0 -142.5 48t-51.5 126h84q3 -98 115 -98q47 0 77.5 22.5t30.5 67.5q0 90 -123 90h-22v63h22q51 0 75 24.5t24 57.5q0 34 -24 54t-65 20q-44 0 -70 -22.5t-26 -69.5h-80q0 79 47 123.5t127 44.5
q81 0 128 -41t47 -103q0 -44 -27 -74t-66 -40z" />
    <glyph glyph-name="four.dnom" horiz-adv-x="550" 
d="M469 135h-61v-135h-84v135h-242v68l242 332h84v-332h61v-68zM324 203v229l-166 -229h166z" />
    <glyph glyph-name="five.dnom" horiz-adv-x="509" 
d="M272 360q74 0 125.5 -48.5t51.5 -131.5q0 -90 -53.5 -140t-145.5 -50q-87 0 -138 48.5t-51 125.5h82q1 -43 31 -69.5t76 -26.5q49 0 79.5 28t30.5 84q0 60 -31.5 87.5t-72.5 27.5q-64 0 -102 -47h-80l43 287h282v-76h-221l-22 -142q11 15 42.5 29t73.5 14z" />
    <glyph glyph-name="six.dnom" horiz-adv-x="563" 
d="M303 352q79 0 128.5 -43t49.5 -129q0 -95 -56.5 -142.5t-137.5 -47.5q-91 0 -148 67.5t-57 202.5q0 124 51.5 202.5t155.5 78.5q82 0 127 -44.5t47 -101.5h-76q-7 30 -31 51t-67 21q-125 0 -125 -186q13 27 52 49t87 22zM287 68q47 0 76.5 29t29.5 85q0 51 -30.5 78
t-77.5 27q-44 0 -77.5 -28.5t-33.5 -76.5q0 -54 33 -84t80 -30z" />
    <glyph glyph-name="seven.dnom" horiz-adv-x="464" 
d="M403 535v-76l-208 -459h-82l213 459h-285v76h362z" />
    <glyph glyph-name="eight.dnom" horiz-adv-x="479" 
d="M338 293q90 -46 90 -135q0 -73 -53.5 -117.5t-134.5 -44.5q-80 0 -134.5 44.5t-54.5 117.5q0 91 92 135q-61 38 -61 108q0 57 43 97.5t115 40.5q74 0 115.5 -40t41.5 -98q0 -71 -59 -108zM156 399q0 -33 24.5 -54t59.5 -21q37 0 60.5 20.5t23.5 54.5q0 33 -21 53.5
t-63 20.5q-40 0 -62 -21t-22 -53zM240 61q51 0 79.5 25.5t28.5 71.5q0 45 -29 70.5t-79 25.5q-46 0 -78.5 -26t-32.5 -70q0 -43 32 -70t79 -27z" />
    <glyph glyph-name="nine.dnom" horiz-adv-x="563" 
d="M260 178q-79 0 -128.5 43t-49.5 129q0 95 56.5 143t137.5 48q91 0 148 -68t57 -203q0 -124 -51 -202t-156 -78q-82 0 -127 44.5t-47 100.5h76q5 -30 29.5 -51t68.5 -21q120 0 125 187q-15 -28 -53.5 -50t-85.5 -22zM276 463q-47 0 -76.5 -29.5t-29.5 -85.5
q0 -51 31 -77.5t78 -26.5q44 0 77 28t33 76q0 54 -33 84.5t-80 30.5z" />
    <glyph glyph-name="zero.numr" horiz-adv-x="579" 
d="M291 897q98 0 157.5 71t59.5 187v27q0 116 -59.5 187t-157.5 71t-158.5 -71t-60.5 -187v-27q0 -116 60.5 -187t158.5 -71zM291 1360q59 0 95 -48.5t36 -129.5v-27q0 -81 -36 -129.5t-95 -48.5t-96 48.5t-37 129.5v27q0 81 37 129.5t96 48.5z" />
    <glyph glyph-name="one.numr" horiz-adv-x="378" 
d="M276 1436v-535h-81v422q-13 -25 -44.5 -36t-68.5 -5v80q36 -3 69 20.5t44 53.5h81z" />
    <glyph glyph-name="two.numr" horiz-adv-x="526" 
d="M82 901v17q0 81 32 137t117 108q6 3 21.5 12.5t20.5 12.5t17 11t16 12t12 11.5t10.5 13t7 14t5.5 17.5t1 19q0 36 -24.5 58t-61.5 22q-38 0 -63 -24t-25 -68v-14h-86v14q0 76 45 123t129 47q83 0 129.5 -44.5t46.5 -113.5q0 -33 -11.5 -60t-37 -50.5t-48 -38.5t-63.5 -39
q-94 -56 -94 -113v-6h256v-78h-352z" />
    <glyph glyph-name="three.numr" horiz-adv-x="561" 
d="M348 1186q43 -6 80 -40t37 -95q0 -70 -51.5 -114t-145.5 -44q-91 0 -142.5 48t-51.5 126h84q3 -98 114 -98q48 0 78.5 22.5t30.5 67.5q0 90 -123 90h-22v63h22q51 0 74.5 24.5t23.5 57.5q0 34 -23.5 54t-64.5 20q-44 0 -70 -22.5t-26 -69.5h-80q0 79 47 123.5t127 44.5
q81 0 127.5 -41t46.5 -103q0 -44 -26.5 -74t-65.5 -40z" />
    <glyph glyph-name="four.numr" horiz-adv-x="550" 
d="M469 1036h-61v-135h-84v135h-242v68l242 332h84v-332h61v-68zM324 1104v229l-166 -229h166z" />
    <glyph glyph-name="five.numr" horiz-adv-x="509" 
d="M272 1262q74 0 125.5 -49t51.5 -132q0 -90 -53.5 -140t-145.5 -50q-87 0 -138 48.5t-51 125.5h82q1 -43 31 -69.5t76 -26.5q49 0 79.5 28t30.5 84q0 60 -31.5 87.5t-72.5 27.5q-64 0 -102 -47h-80l43 287h282v-76h-221l-22 -141q11 15 42.5 29t73.5 14z" />
    <glyph glyph-name="six.numr" horiz-adv-x="563" 
d="M303 1251q79 0 128.5 -43t49.5 -129q0 -95 -56.5 -142.5t-137.5 -47.5q-91 0 -148 67.5t-57 202.5q0 124 51.5 202.5t155.5 78.5q82 0 127 -44.5t47 -101.5h-76q-7 30 -31 51t-67 21q-125 0 -125 -186q13 27 52 49t87 22zM287 967q47 0 76.5 29t29.5 85q0 51 -30.5 78
t-77.5 27q-44 0 -77.5 -28.5t-33.5 -76.5q0 -54 33 -84t80 -30z" />
    <glyph glyph-name="seven.numr" horiz-adv-x="464" 
d="M403 1436v-76l-208 -459h-82l213 459h-285v76h362z" />
    <glyph glyph-name="eight.numr" horiz-adv-x="479" 
d="M338 1194q90 -46 90 -135q0 -73 -53.5 -117.5t-134.5 -44.5q-80 0 -134.5 44.5t-54.5 117.5q0 91 92 135q-61 38 -61 109q0 57 43 97t115 40q74 0 115.5 -39.5t41.5 -97.5q0 -72 -59 -109zM156 1300q0 -33 24.5 -54t59.5 -21q37 0 60.5 20.5t23.5 54.5q0 33 -21 53.5
t-63 20.5q-40 0 -62 -21t-22 -53zM240 963q51 0 79.5 25t28.5 71q0 45 -29 70.5t-79 25.5q-46 0 -78.5 -26t-32.5 -70q0 -43 32 -69.5t79 -26.5z" />
    <glyph glyph-name="nine.numr" horiz-adv-x="563" 
d="M260 1079q-79 0 -128.5 43t-49.5 129q0 95 56.5 143t137.5 48q91 0 148 -68t57 -203q0 -124 -51 -202t-156 -78q-82 0 -127 44.5t-47 100.5h76q5 -30 29.5 -50.5t68.5 -20.5q120 0 125 186q-15 -28 -53.5 -50t-85.5 -22zM276 1364q-47 0 -76.5 -29.5t-29.5 -85.5
q0 -51 31 -77.5t78 -26.5q44 0 77 28t33 76q0 54 -33 84.5t-80 30.5z" />
    <glyph glyph-name="ampersand.001" horiz-adv-x="1423" 
d="M1360 0h-230l-118 131q-173 -156 -416 -156q-222 0 -367 115t-145 299q0 61 18.5 114t45.5 91t74 77t87 64.5t101 59.5q-84 95 -129 177t-45 169q0 140 92 230.5t274 90.5q173 0 264.5 -91t91.5 -228q0 -119 -65.5 -204.5t-226.5 -176.5l323 -354q76 143 82 335h189
q-20 -289 -140 -479zM602 1307q-90 0 -141 -48t-51 -126q0 -58 36 -114t115 -142q123 70 174 129t51 127q0 78 -49 126t-135 48zM598 156q161 0 287 114l-371 408q-209 -121 -209 -283q0 -104 82 -171.5t211 -67.5z" />
    <glyph glyph-name="Aacutecy" horiz-adv-x="1427" 
d="M993 1821l-223 -262h-178l174 262h227zM1141 0l-125 336h-606l-123 -336h-234l565 1434h191l565 -1434h-233zM469 498h487l-243 661z" />
    <glyph glyph-name="Ieacutecy" horiz-adv-x="1150" 
d="M870 1821l-223 -262h-178l174 262h227zM330 188h760v-188h-975v1434h954v-189h-739v-424h637v-176h-637v-457z" />
    <glyph glyph-name="Iiacutecy" horiz-adv-x="1378" 
d="M569 1559h179l223 262h-228zM115 1434h217v-1096h6l698 1096h228v-1434h-215v1085h-7l-692 -1085h-235v1434z" />
    <glyph glyph-name="Oacutecy" horiz-adv-x="1480" 
d="M618 1559h179l223 262h-227zM739 1452q146 0 267 -48.5t208 -140t135 -231t48 -315.5q0 -349 -180 -542t-478 -193q-145 0 -265.5 48.5t-207 140.5t-134.5 231.5t-48 314.5q0 350 179 542.5t476 192.5zM739 170q201 0 316.5 141.5t115.5 405.5q0 265 -115 406t-317 141
q-200 0 -315 -141t-115 -406q0 -264 115 -405.5t315 -141.5z" />
    <glyph glyph-name="Uacutecy" horiz-adv-x="1183" 
d="M471 1559h178l223 262h-227zM895 1434h238l-474 -1117q-87 -205 -193 -282.5t-278 -57.5v195q116 -14 174 23t91 118q36 81 -7 185l-393 936h236l301 -772z" />
    <glyph glyph-name="Yeruacutecy" horiz-adv-x="1656" 
d="M1110 1821l-223 -262h-178l174 262h227zM649 926q259 0 392 -122t133 -339q0 -220 -133 -342.5t-392 -122.5h-534v1434h215v-508h319zM1327 1434h215v-1434h-215v1434zM649 186q145 0 220 71.5t75 207.5q0 133 -75 203.5t-220 70.5h-319v-553h319z" />
    <glyph glyph-name="Ereversedacutecy" horiz-adv-x="1376" 
d="M969 1821l-224 -262h-178l174 262h228zM651 1452q141 0 258 -47t202.5 -138t133 -231.5t47.5 -318.5t-47.5 -318.5t-133 -231.5t-202.5 -138t-258 -47q-222 0 -377.5 108t-189.5 305h217q83 -225 346 -225q180 0 291.5 123.5t126.5 351.5h-471v176h469q-23 215 -133 329
t-283 114q-258 0 -342 -224h-217q23 131 103 225t198 140.5t262 46.5z" />
    <glyph glyph-name="Iuacutecy" horiz-adv-x="1935" 
d="M1249 1821l-223 -262h-178l174 262h227zM1194 1452q299 0 478 -192.5t179 -542.5q0 -349 -179.5 -542t-477.5 -193q-275 0 -450 166t-201 470h-213v-618h-215v1434h215v-639h211q14 210 100.5 359.5t227.5 223.5t325 74zM1194 170q201 0 316.5 141.5t115.5 405.5
q0 265 -115 406t-317 141q-200 0 -315 -141t-115 -406q0 -264 115 -405.5t315 -141.5z" />
    <glyph glyph-name="Iaacutecy" horiz-adv-x="1306" 
d="M934 1821l-223 -262h-179l175 262h227zM1192 1434v-1434h-215v563h-420q-107 0 -172.5 -51t-65.5 -164v-108q0 -99 -8.5 -152t-31.5 -88h-216q23 35 32 88.5t9 151.5v114q0 121 52.5 195t171.5 115q-219 107 -219 354q0 192 126 304t377 112h580zM977 737v508h-361
q-286 0 -286 -248q0 -127 69.5 -193.5t200.5 -66.5h377z" />
    <glyph glyph-name="aacutecy" horiz-adv-x="1112" 
d="M836 1452l-224 -262h-178l174 262h228zM991 213q0 -44 18.5 -64t59.5 -20v-123q-31 -14 -80 -14q-186 0 -186 158v53q-9 -19 -24 -41t-48.5 -55t-74 -58.5t-104.5 -44t-136 -18.5q-155 0 -254 81.5t-99 237.5q0 76 26 131t78.5 91t118.5 57.5t158 36.5q22 4 74 11.5
t81 12.5t68.5 13t68 17.5t48.5 20.5v11q0 120 -58.5 166.5t-170.5 46.5q-207 0 -231 -146h-197q15 148 125 224.5t305 76.5q227 0 330.5 -97.5t103.5 -320.5v-444zM784 338v229q-16 -8 -38.5 -15.5t-42 -13t-53.5 -12t-53.5 -10.5t-62.5 -11.5t-61 -10.5
q-112 -21 -157.5 -63.5t-45.5 -117.5q0 -79 51.5 -127.5t145.5 -48.5q55 0 105 17t83 39t62 53.5t42.5 51t24.5 40.5z" />
    <glyph glyph-name="ieacutecy" horiz-adv-x="1116" 
d="M846 1452l-223 -262h-179l174 262h228zM1055 514q0 -35 -2 -53h-791q29 -318 320 -318q93 0 152.5 27.5t99.5 89.5h186q-58 -141 -168.5 -207.5t-282.5 -66.5q-78 0 -151 20t-138 63t-113 105t-76 153t-28 201q0 111 28.5 203.5t77 155t113.5 106t137.5 63t149.5 19.5
q79 0 149.5 -20t132.5 -63.5t107 -108t71 -159t26 -210.5zM262 596h594q-3 153 -79.5 237.5t-207.5 84.5q-127 0 -209.5 -82t-97.5 -240z" />
    <glyph glyph-name="iiacutecy" horiz-adv-x="1210" 
d="M485 1190h179l223 262h-228zM115 1065h207v-782h6l549 782h219v-1065h-207v772h-6l-543 -772h-225v1065z" />
    <glyph glyph-name="oacutecy" horiz-adv-x="1136" 
d="M449 1190h178l223 262h-227zM569 1075q71 0 140.5 -19.5t135.5 -62.5t116.5 -105t81 -154.5t30.5 -203.5t-30.5 -203.5t-81 -154t-116.5 -104.5t-135.5 -62.5t-140.5 -19.5t-141 19.5t-136.5 62.5t-117 104.5t-81 154t-30.5 203.5t30.5 203.5t81 154.5t117 105
t136.5 62.5t141 19.5zM874 530q0 94 -25 167.5t-68.5 118t-97 67t-114.5 22.5t-115 -22.5t-97.5 -67t-69 -118t-25.5 -167.5t25.5 -167.5t69 -117.5t97.5 -66.5t115 -22.5t114.5 22.5t97 66.5t68.5 117.5t25 167.5z" />
    <glyph glyph-name="uacutecy" horiz-adv-x="1122" 
d="M440 1190h178l224 262h-228zM870 1065h211l-452 -1116q-83 -205 -190.5 -282.5t-280.5 -57.5v178q117 -14 181.5 29t100.5 131q15 40 15 65t-15 62l-397 991h213l303 -817z" />
    <glyph glyph-name="yeruacutecy" horiz-adv-x="1505" 
d="M1034 1452l-223 -262h-178l174 262h227zM618 688q203 0 318 -92t115 -252q0 -163 -114.5 -253.5t-318.5 -90.5h-503v1065h207v-377h296zM1186 1065h207v-1065h-207v1065zM618 164q232 0 232 180t-232 180h-296v-360h296z" />
    <glyph glyph-name="ereversedacutecy" horiz-adv-x="1085" 
d="M823 1452l-223 -262h-178l174 262h227zM518 1075q75 0 146 -19t136.5 -61.5t114.5 -105t78 -155t29 -204.5q0 -113 -29.5 -205.5t-78.5 -154.5t-115 -104t-137 -61t-146 -19q-61 0 -116 10t-110 35.5t-98.5 65t-77.5 101.5t-51 142h189q30 -92 93 -138t169 -46
q125 0 209.5 81.5t97.5 239.5h-344v131h342q-20 144 -102 220.5t-201 76.5q-103 0 -164 -44.5t-90 -131.5h-190q21 96 66.5 165.5t107 107.5t128.5 55.5t144 17.5z" />
    <glyph glyph-name="iuacutecy" horiz-adv-x="1536" 
d="M1049 1452l-224 -262h-178l174 262h228zM969 1075q71 0 140.5 -19.5t135.5 -62.5t116.5 -105t81 -154.5t30.5 -203.5t-30.5 -203.5t-81 -154t-116.5 -104.5t-135.5 -62.5t-140.5 -19.5q-66 0 -131 16.5t-127.5 53.5t-112.5 90t-85 131t-46 172h-145v-451h-207v1065h207
v-449h145q11 94 46 172t85 130.5t113 89t127.5 53t130.5 16.5zM969 156q61 0 114.5 22.5t97 66.5t68.5 117.5t25 167.5t-25 167.5t-68.5 118t-97 67t-114.5 22.5t-115 -22.5t-97.5 -67t-69 -118t-25.5 -167.5t25.5 -167.5t69 -117.5t97.5 -66.5t115 -22.5z" />
    <glyph glyph-name="iaacutecy" horiz-adv-x="1132" 
d="M848 1452l-223 -262h-179l175 262h227zM1018 1065v-1065h-207v377h-358q-82 0 -118 -30t-36 -97v-90q0 -71 -6.5 -101.5t-24.5 -58.5h-207q18 28 24.5 58.5t6.5 101.5v90q0 74 29 123.5t104 75.5q-143 92 -143 272q0 163 114 253.5t318 90.5h504zM811 541v360h-297
q-231 0 -231 -180t231 -180h297z" />
    </font>
</defs>
</svg>
