<?xml version="1.0" standalone="no"?>
<!DOCTYPE svg PUBLIC "-//W3C//DTD SVG 1.1//EN" "http://www.w3.org/Graphics/SVG/1.1/DTD/svg11.dtd" >
<svg xmlns="http://www.w3.org/2000/svg" xmlns:xlink="http://www.w3.org/1999/xlink" version="1.1">
<metadata>
Created by FontForge 20170731 at Mon Aug  7 16:11:20 2023
 By Aleksey,,,
(c) 2017 Connary Fagen
</metadata>
<defs>
<font id="ArticulatCF-MediumOblique" horiz-adv-x="1155" >
  <font-face 
    font-family="Articulat CF Medium"
    font-weight="500"
    font-style="oblique"
    font-stretch="normal"
    units-per-em="2048"
    panose-1="0 0 6 0 0 0 0 0 0 0"
    ascent="1638"
    descent="-410"
    x-height="1065"
    cap-height="1434"
    bbox="-442 -672 2251 1925"
    underline-thickness="102"
    underline-position="-307"
    slope="-9"
    unicode-range="U+0020-FB02"
  />
<missing-glyph horiz-adv-x="1044" 
d="M856 1638v-2089h-661v2089h661zM696 1499h-346v-69h137v-78h-139v-68h348v68h-139v78h139v69zM557 1229h-209v-217h348v71h-139v146zM487 1157v-74h-69v74h69zM696 954h-348v-67h139v-78h-139v-70h209v148h139v67zM696 829h-69v-137h-279v-71h348v208zM696 575h-209v-116
h70v47h70v-98h-209v167h-70v-235h348v235zM696 213h-348v-236h348v236zM627 145v-98h-209v98h209zM696 -70h-348v-69h148l-148 -99v-69h348v69h-213l146 99h67v69z" />
    <glyph glyph-name="fi" unicode="fi" horiz-adv-x="1132" 
d="M469 1151l-14 -86h241l-24 -164h-242l-143 -901h-207l143 901h-164l25 164h166l14 90q12 79 40 137t61.5 91t79.5 52t86.5 25t91.5 6q83 0 145 -16l-25 -158q-76 13 -110 13q-75 0 -113.5 -36t-50.5 -118zM954 1452h207l-26 -176h-207zM727 0l168 1065h207l-168 -1065
h-207z" />
    <glyph glyph-name="fl" unicode="fl" horiz-adv-x="1159" 
d="M633 1305q-75 0 -113.5 -36t-50.5 -118l-14 -86h241l-24 -164h-242l-143 -901h-207l143 901h-164l25 164h166l14 90q12 79 40 137t61.5 91t79.5 52t86.5 25t91.5 6q83 0 145 -16l-25 -158q-76 13 -110 13zM971 1434h207l-226 -1434h-207z" />
    <glyph glyph-name=".notdef" horiz-adv-x="1044" 
d="M856 1638v-2089h-661v2089h661zM696 1499h-346v-69h137v-78h-139v-68h348v68h-139v78h139v69zM557 1229h-209v-217h348v71h-139v146zM487 1157v-74h-69v74h69zM696 954h-348v-67h139v-78h-139v-70h209v148h139v67zM696 829h-69v-137h-279v-71h348v208zM696 575h-209v-116
h70v47h70v-98h-209v167h-70v-235h348v235zM696 213h-348v-236h348v236zM627 145v-98h-209v98h209zM696 -70h-348v-69h148l-148 -99v-69h348v69h-213l146 99h67v69z" />
    <glyph glyph-name=".null" horiz-adv-x="0" 
 />
    <glyph glyph-name="nonmarkingreturn" horiz-adv-x="682" 
 />
    <glyph glyph-name="space" unicode=" " horiz-adv-x="555" 
 />
    <glyph glyph-name="exclam" unicode="!" horiz-adv-x="483" 
d="M311 422h-215l150 1012h231zM59 250h234l-37 -250h-236z" />
    <glyph glyph-name="quotedbl" unicode="&#x22;" horiz-adv-x="737" 
d="M164 1038h207l61 396h-207zM528 1038h207l62 396h-207z" />
    <glyph glyph-name="numbersign" unicode="#" horiz-adv-x="1200" 
d="M1155 891h-211l-90 -348h193l-27 -164h-207l-98 -379h-158l98 379h-266l-98 -379h-158l98 379h-194l26 164h209l90 348h-190l27 164h204l99 379h157l-98 -379h266l99 379h157l-98 -379h197zM696 543l90 348h-266l-90 -348h266z" />
    <glyph glyph-name="dollar" unicode="$" horiz-adv-x="1277" 
d="M999 1053q0 87 -49 144t-151 71l-72 -453l59 -12q195 -40 288 -121.5t93 -235.5q0 -142 -74 -246.5t-202 -158.5t-297 -59l-27 -166h-118l26 170q-212 22 -322 140.5t-98 307.5h226q4 -232 223 -264l78 487l-58 13q-342 74 -342 342q0 195 140.5 313t386.5 127l26 166
h119l-27 -170q197 -17 299.5 -120.5t94.5 -274.5h-222zM596 842l14 -4l70 432q-129 -10 -200.5 -74.5t-71.5 -161.5q0 -153 188 -192zM719 631l-21 4l-75 -469q145 8 229 77.5t84 184.5q0 87 -54.5 133.5t-162.5 69.5z" />
    <glyph glyph-name="percent" unicode="%" horiz-adv-x="1476" 
d="M389 801q-108 0 -172.5 66.5t-64.5 189.5q0 162 86.5 274.5t230.5 112.5q107 0 172.5 -66.5t65.5 -189.5q0 -106 -37.5 -193t-111 -140.5t-169.5 -53.5zM133 0l1071 1438l158 -4l-1069 -1434h-160zM399 936q82 0 126 72t44 168q0 65 -29 98t-81 33q-83 0 -126.5 -72.5
t-43.5 -167.5q0 -65 29 -98t81 -33zM1026 -10q-109 0 -173.5 66.5t-64.5 189.5q0 163 86 275t232 112q107 0 171 -66.5t64 -189.5q0 -105 -37 -192t-110 -141t-168 -54zM1034 127q82 0 127 72.5t45 167.5q0 63 -30 97t-82 34q-42 0 -75.5 -21.5t-53.5 -56.5t-30.5 -76.5
t-10.5 -85.5q0 -64 29.5 -97.5t80.5 -33.5z" />
    <glyph glyph-name="ampersand" unicode="&#x26;" horiz-adv-x="1409" 
d="M1262 745q-54 -294 -213 -491l194 -254h-225l-96 129q-194 -154 -439 -154q-204 0 -329 100.5t-125 268.5q0 69 21 128.5t54 104t87.5 87.5t105 73.5t123.5 67.5q-59 82 -91 153t-32 150q0 149 110.5 251.5t299.5 102.5q159 0 242 -77.5t83 -202.5q0 -75 -25.5 -137
t-77 -114t-112 -92.5t-147.5 -86.5l268 -353q108 143 137 346h187zM690 1303q-96 0 -158.5 -54.5t-62.5 -140.5q0 -53 25 -104t77 -123q72 36 115 62t87 61.5t64.5 75.5t20.5 87q0 64 -43.5 100t-124.5 36zM508 154q159 0 309 116l-299 404q-134 -69 -201 -145.5t-67 -166.5
q0 -95 68.5 -151.5t189.5 -56.5z" />
    <glyph glyph-name="quotesingle" unicode="'" horiz-adv-x="372" 
d="M164 1038h207l61 396h-207z" />
    <glyph glyph-name="parenleft" unicode="(" horiz-adv-x="579" 
d="M434 1526h201q-269 -387 -348 -883q-83 -526 61 -909h-192q-156 401 -72 934q82 511 350 858z" />
    <glyph glyph-name="parenright" unicode=")" horiz-adv-x="579" 
d="M412 1526q163 -378 82 -883q-84 -531 -359 -909h-201q275 414 357 934q78 490 -68 858h189z" />
    <glyph glyph-name="asterisk" unicode="*" horiz-adv-x="1003" 
d="M915 1143l-223 -60l115 -188l-160 -92l-102 182l-154 -182l-137 92l170 190l-205 58l70 172l217 -70l31 238h170l-41 -236l235 68zM549 1130l14 -12l23 17v6h-33z" />
    <glyph glyph-name="plus" unicode="+" horiz-adv-x="1046" 
d="M1008 668l-29 -181h-369l-57 -366h-193l58 366h-363l27 181h364l58 366h192l-57 -366h369z" />
    <glyph glyph-name="comma" unicode="," horiz-adv-x="421" 
d="M-29 -311l11 67q54 18 82.5 63t39.5 118l11 63h-95l39 250h236l-43 -281q-13 -85 -42 -142.5t-69.5 -86t-80.5 -39.5t-89 -12z" />
    <glyph glyph-name="hyphen" unicode="-" horiz-adv-x="894" 
d="M82 643h711l-25 -147h-711z" />
    <glyph glyph-name="period" unicode="." horiz-adv-x="421" 
d="M59 250h234l-37 -250h-236z" />
    <glyph glyph-name="slash" unicode="/" horiz-adv-x="917" 
d="M958 1434l-780 -1432h-211l783 1432h208z" />
    <glyph glyph-name="zero" unicode="0" horiz-adv-x="1280" 
d="M754 1448q102 0 187 -33.5t150 -98.5t101.5 -171t36.5 -242q0 -139 -28.5 -271.5t-86.5 -249.5t-139 -205.5t-192.5 -139.5t-239.5 -51q-101 0 -185.5 32.5t-149.5 97t-101.5 169.5t-36.5 241q0 139 28 272.5t86 251t138 206.5t191.5 140.5t240.5 51.5zM1022 903
q0 173 -71.5 270t-209.5 97q-112 0 -203.5 -65.5t-147.5 -172.5t-86 -236t-30 -264q0 -175 71 -270.5t208 -95.5q113 0 204.5 65t148 172t86.5 236t30 264z" />
    <glyph glyph-name="one" unicode="1" horiz-adv-x="681" 
d="M690 1434l-225 -1434h-207l186 1159q-117 -107 -299 -104l25 172q105 7 188 63.5t125 143.5h207z" />
    <glyph glyph-name="two" unicode="2" horiz-adv-x="1124" 
d="M-10 0l6 49q14 107 44 189.5t87 160t146.5 146t220.5 137.5q168 88 225 127q144 100 164 224q4 24 4 48q0 90 -63.5 139.5t-161.5 49.5q-117 0 -204.5 -69.5t-109.5 -207.5h-201q33 210 170.5 332.5t360.5 122.5q202 0 310 -98.5t108 -255.5q0 -100 -31 -177t-109 -144.5
t-133.5 -103t-178.5 -104.5q-31 -17 -46 -26q-83 -46 -140 -84t-108 -83t-77.5 -93t-28.5 -101v-10h719l-25 -168h-948z" />
    <glyph glyph-name="three" unicode="3" horiz-adv-x="1200" 
d="M840 768q45 -6 89 -27.5t84 -57.5t64.5 -94t24.5 -128q0 -109 -46 -201t-126 -154t-187.5 -96.5t-230.5 -34.5q-241 0 -366 136.5t-85 355.5h189q-22 -142 53 -226.5t223 -84.5q156 0 264.5 86t108.5 227q0 102 -79.5 159.5t-237.5 57.5h-62l23 143h51q86 0 154 25
t106.5 65t58 85.5t19.5 91.5q0 83 -62.5 130.5t-164.5 47.5q-79 0 -144.5 -28.5t-114.5 -95.5t-65 -167h-193q33 228 172.5 348.5t354.5 120.5q194 0 306 -94.5t112 -237.5q0 -126 -80.5 -222t-212.5 -130z" />
    <glyph glyph-name="four" unicode="4" horiz-adv-x="1175" 
d="M1047 367h-164l-58 -367h-207l58 367h-649l24 168l791 899h209l-142 -899h164zM702 535l105 645l-571 -645h466z" />
    <glyph glyph-name="five" unicode="5" horiz-adv-x="1204" 
d="M682 981q184 0 300 -110t116 -300q0 -262 -165.5 -426.5t-430.5 -164.5q-107 0 -196.5 33.5t-150 92.5t-87.5 146t-11 188h189q-17 -124 57 -202t209 -78q166 0 273.5 114.5t107.5 284.5q0 64 -23 114.5t-61 78.5t-81.5 42.5t-88.5 14.5q-179 0 -313 -137h-195l229 762
h756l-29 -172h-610l-127 -416q47 51 134.5 93t197.5 42z" />
    <glyph glyph-name="six" unicode="6" horiz-adv-x="1218" 
d="M700 944q77 0 148.5 -23t131.5 -68t96 -121.5t36 -174.5q0 -161 -74.5 -293t-208 -208t-299.5 -76q-112 0 -196 36t-134 101t-78 156t-27.5 200.5t16.5 233.5q21 125 54.5 232t87.5 202.5t123.5 162t165 105.5t208.5 39q89 0 161.5 -22.5t119 -60t76.5 -86.5t41 -100
t7 -102h-176q1 100 -63.5 156.5t-167.5 56.5q-89 0 -161 -36t-118 -90.5t-80.5 -131.5t-52 -145t-29.5 -146q44 88 148 145.5t245 57.5zM545 154q162 0 263 114t101 279q0 119 -70.5 184.5t-181.5 65.5q-154 0 -259 -108.5t-105 -264.5q0 -126 71.5 -198t180.5 -72z" />
    <glyph glyph-name="seven" unicode="7" horiz-adv-x="1017" 
d="M1055 1434l-25 -179q-499 -621 -688 -1255h-213q213 691 702 1260h-673l26 174h871z" />
    <glyph glyph-name="eight" unicode="8" horiz-adv-x="1212" 
d="M870 801q104 -42 165 -122.5t61 -193.5q0 -147 -79.5 -263.5t-212.5 -179t-294 -62.5q-134 0 -239.5 44t-167.5 132.5t-62 208.5q0 155 89 271t249 175q-66 40 -102.5 103.5t-36.5 138.5q0 172 136 283.5t337 111.5q185 0 288 -87t103 -222q0 -102 -59.5 -192.5
t-174.5 -145.5zM705 1284q-125 0 -204 -68t-79 -174q0 -78 55.5 -130t155.5 -52q122 0 202 74.5t80 181.5q0 76 -55 122t-155 46zM518 160q159 0 264 98t105 242q0 106 -76 165.5t-195 59.5q-156 0 -260 -94.5t-104 -239.5q0 -100 71 -165.5t195 -65.5z" />
    <glyph glyph-name="nine" unicode="9" horiz-adv-x="1218" 
d="M555 483q-77 0 -148.5 23t-131.5 68t-96 121.5t-36 174.5q0 161 74.5 293.5t208 208.5t299.5 76q112 0 196 -36t134 -101t78 -156t28 -200.5t-16 -233.5q-21 -125 -54.5 -232t-87.5 -202.5t-123.5 -162t-165 -105.5t-208.5 -39q-111 0 -195 34t-130 89.5t-66 118.5
t-15 128h176q-1 -100 64 -156.5t168 -56.5q64 0 119.5 19t96.5 49.5t75.5 75.5t58 92.5t42 104t29.5 105.5t19 103q-44 -88 -148 -145.5t-245 -57.5zM711 1274q-162 0 -263.5 -114t-101.5 -279q0 -119 70.5 -184.5t181.5 -65.5q154 0 259.5 108.5t105.5 264.5
q0 126 -71.5 198t-180.5 72z" />
    <glyph glyph-name="colon" unicode=":" horiz-adv-x="421" 
d="M188 1065h236l-41 -250h-236zM59 250h234l-37 -250h-236z" />
    <glyph glyph-name="semicolon" unicode=";" horiz-adv-x="421" 
d="M188 1065h236l-41 -250h-236zM-29 -311l11 67q54 18 82.5 63t39.5 118l11 63h-95l39 250h236l-43 -281q-13 -85 -42 -142.5t-69.5 -86t-80.5 -39.5t-89 -12z" />
    <glyph glyph-name="less" unicode="&#x3c;" horiz-adv-x="1019" 
d="M864 197l-620 297l712 297l33 196l-917 -399l-31 -189l793 -399z" />
    <glyph glyph-name="equal" unicode="=" horiz-adv-x="892" 
d="M106 807h768l-24 -148h-766zM55 479h766l-22 -147h-768z" />
    <glyph glyph-name="greater" unicode="&#x3e;" horiz-adv-x="1019" 
d="M10 197l-30 -197l915 399l29 189l-789 399l-33 -196l623 -297z" />
    <glyph glyph-name="question" unicode="?" horiz-adv-x="1099" 
d="M674 1448q-229 0 -368.5 -117.5t-174.5 -353.5h203q25 143 103.5 218t205.5 75q121 0 173 -62.5t36 -165.5q-9 -50 -41.5 -92.5t-75.5 -71t-94 -66.5t-95.5 -77.5t-81 -106.5t-50.5 -151l-8 -55h221l8 55q10 61 36 109.5t60.5 81.5t74.5 62.5t80.5 60t75.5 65.5t62 88
t37 119q19 122 -25 210t-137.5 131.5t-224.5 43.5zM379 250h235l-39 -250h-235z" />
    <glyph glyph-name="at" unicode="@" horiz-adv-x="1554" 
d="M1012 1047h139q-70 -440 -70 -459q0 -107 86 -107q62 0 107.5 57t65.5 136.5t20 167.5q0 210 -131 337.5t-340 127.5q-189 0 -344.5 -95.5t-242.5 -255.5t-87 -348q0 -144 65.5 -255t173.5 -168.5t240 -57.5q198 0 350 113l164 -54q-209 -200 -510 -200q-174 0 -315 74.5
t-224 217.5t-83 330q0 226 108.5 419.5t296 307t408.5 113.5q127 0 238.5 -44t194 -122.5t130 -194t47.5 -251.5q0 -126 -37.5 -236.5t-114.5 -183t-178 -72.5q-54 0 -94 16.5t-62 44.5t-32.5 59t-11.5 66q-33 -79 -109.5 -133.5t-163.5 -54.5q-110 0 -191 75.5t-81 217.5
q0 177 106.5 303.5t262.5 126.5q74 0 132 -44.5t66 -105.5zM715 479q101 0 167 86.5t66 196.5q0 74 -40 119t-111 45q-98 0 -164 -82t-66 -193q0 -77 41.5 -124.5t106.5 -47.5z" />
    <glyph glyph-name="A" unicode="A" horiz-adv-x="1423" 
d="M1047 0l-70 336h-608l-179 -336h-233l786 1434h197l338 -1434h-231zM453 498h489l-139 661z" />
    <glyph glyph-name="B" unicode="B" horiz-adv-x="1294" 
d="M940 782q117 -32 180.5 -115t63.5 -200q0 -225 -162 -346t-430 -121h-574l228 1434h551q198 0 299.5 -82t101.5 -222q0 -124 -68.5 -216t-189.5 -132zM778 1253h-344l-63 -403h336q117 0 190.5 70t73.5 182q0 71 -48.5 111t-144.5 40zM606 182q161 0 255.5 76.5
t94.5 216.5q0 93 -64.5 149t-197.5 56h-350l-80 -498h342z" />
    <glyph glyph-name="C" unicode="C" horiz-adv-x="1341" 
d="M641 170q270 0 383 225h213q-66 -197 -236.5 -305t-392.5 -108q-250 0 -394 143t-144 416q0 145 33 280t98.5 249.5t157 200t216.5 133.5t269 48q220 0 355 -108t138 -304h-213q-19 108 -96 166t-211 58q-99 0 -185 -40.5t-146.5 -109.5t-103.5 -159.5t-64 -190.5
t-21 -203q0 -193 90.5 -292t253.5 -99z" />
    <glyph glyph-name="D" unicode="D" horiz-adv-x="1345" 
d="M715 1434q286 0 435.5 -144.5t149.5 -419.5q0 -259 -91.5 -454t-273.5 -305.5t-433 -110.5h-482l226 1434h469zM502 197q145 0 258 50.5t184 142t107 213.5t36 269q0 189 -100 277t-309 88h-246l-164 -1040h234z" />
    <glyph glyph-name="E" unicode="E" horiz-adv-x="1148" 
d="M1169 1245h-737l-67 -424h634l-26 -176h-637l-72 -457h760l-31 -188h-975l228 1434h954z" />
    <glyph glyph-name="F" unicode="F" horiz-adv-x="1118" 
d="M1159 1245h-727l-70 -444h603l-29 -176h-602l-98 -625h-218l228 1434h944z" />
    <glyph glyph-name="G" unicode="G" horiz-adv-x="1384" 
d="M797 752h540l-14 -88q-56 -339 -230 -510.5t-477 -171.5q-255 0 -400.5 142t-145.5 413q0 146 32.5 281.5t98 250.5t157 200.5t216.5 134t270 48.5q220 0 355 -108t138 -304h-213q-19 108 -96 166t-211 58q-99 0 -185 -40.5t-146.5 -109t-103.5 -159t-64 -192t-21 -206.5
q0 -191 91.5 -289t258.5 -98q388 0 467 410h-344z" />
    <glyph glyph-name="H" unicode="H" horiz-adv-x="1355" 
d="M1149 1434h217l-227 -1434h-217l98 618h-686l-98 -618h-218l228 1434h217l-101 -639h687z" />
    <glyph glyph-name="I" unicode="I" horiz-adv-x="454" 
d="M238 0h-218l226 1434h217z" />
    <glyph glyph-name="J" unicode="J" horiz-adv-x="1058" 
d="M111 305q87 -129 272 -129q56 0 104 15.5t93 50t77.5 100.5t47.5 158l147 934h217l-149 -942q-21 -135 -73 -235t-127 -158t-162 -85.5t-187 -27.5q-275 0 -398 184z" />
    <glyph glyph-name="K" unicode="K" horiz-adv-x="1353" 
d="M1391 1434l-689 -656l517 -778h-244l-426 631l-252 -238l-61 -393h-218l228 1434h217l-119 -752l793 752h254z" />
    <glyph glyph-name="L" unicode="L" horiz-adv-x="1138" 
d="M264 188h709l-31 -188h-924l228 1434h217z" />
    <glyph glyph-name="M" unicode="M" horiz-adv-x="1718" 
d="M246 1434h243l316 -1153l661 1153h263l-228 -1434h-217l168 1051h-8l-590 -1051h-168l-276 1051h-9l-165 -1051h-218z" />
    <glyph glyph-name="N" unicode="N" horiz-adv-x="1384" 
d="M1395 1434l-228 -1434h-229l-526 1085h-6l-170 -1085h-218l228 1434h221l532 -1096h7l172 1096h217z" />
    <glyph glyph-name="O" unicode="O" horiz-adv-x="1462" 
d="M856 1452q256 0 405.5 -146.5t149.5 -412.5q0 -147 -34.5 -283.5t-102.5 -250t-162 -198t-220.5 -132t-270.5 -47.5q-254 0 -402.5 146t-148.5 411q0 186 54.5 352t153.5 290.5t248.5 197.5t329.5 73zM649 170q103 0 191 39.5t150.5 107.5t107.5 158t66.5 192.5
t21.5 209.5q0 187 -94 287t-263 100q-103 0 -191 -39.5t-150 -108t-106.5 -159t-65.5 -192.5t-21 -210q0 -187 93 -286t261 -99z" />
    <glyph glyph-name="P" unicode="P" horiz-adv-x="1265" 
d="M780 1434q229 0 344 -99.5t115 -281.5q0 -261 -165 -413.5t-443 -152.5h-320l-75 -487h-218l228 1434h534zM662 676q162 0 253 94.5t91 253.5q0 107 -64 164t-190 57h-320l-90 -569h320z" />
    <glyph glyph-name="Q" unicode="Q" horiz-adv-x="1462" 
d="M1411 893q0 -197 -61 -371t-176 -299l116 -139l-143 -123l-117 139q-179 -118 -409 -118q-254 0 -402.5 146t-148.5 411q0 186 54.5 352t153.5 290.5t248.5 197.5t329.5 73q256 0 405.5 -146.5t149.5 -412.5zM649 170q143 0 258 78l-209 250l142 120l202 -239
q70 98 107 229t37 269q0 187 -94 287t-263 100q-103 0 -191 -39.5t-150 -108t-106.5 -159t-65.5 -192.5t-21 -210q0 -187 93 -286t261 -99z" />
    <glyph glyph-name="R" unicode="R" horiz-adv-x="1314" 
d="M979 664q99 -32 144.5 -88t45.5 -144q0 -34 -19.5 -167t-19.5 -173q0 -59 17 -92h-213q-19 31 -19 94q0 42 17.5 160t17.5 147q0 83 -56.5 122.5t-150.5 39.5h-419l-88 -563h-218l228 1434h579q225 0 335 -89t110 -247q0 -154 -76 -265t-215 -169zM731 737
q146 0 229.5 90t83.5 226q0 192 -249 192h-363l-80 -508h379z" />
    <glyph glyph-name="S" unicode="S" horiz-adv-x="1277" 
d="M786 803q195 -40 288 -121.5t93 -235.5q0 -146 -78.5 -252t-214 -159t-311.5 -53q-254 0 -388 122t-120 330h226q1 -58 15.5 -104t47 -85t93 -60t145.5 -21q163 0 258.5 70.5t95.5 193.5q0 87 -54.5 133.5t-162.5 69.5l-195 39q-342 74 -342 342q0 202 151.5 321
t414.5 119q235 0 358.5 -105.5t114.5 -293.5h-222q0 101 -66.5 160t-205.5 59q-151 0 -235 -66t-84 -172q0 -153 188 -192z" />
    <glyph glyph-name="T" unicode="T" horiz-adv-x="1208" 
d="M1280 1434l-31 -189h-440l-197 -1245h-215l197 1245h-440l30 189h1096z" />
    <glyph glyph-name="U" unicode="U" horiz-adv-x="1363" 
d="M1374 1434l-139 -881q-42 -265 -218.5 -415t-434.5 -150q-260 0 -389 149.5t-87 415.5l140 881h217l-139 -871q-29 -188 45 -287.5t241 -99.5q166 0 272.5 99.5t137.5 287.5l137 871h217z" />
    <glyph glyph-name="V" unicode="V" horiz-adv-x="1441" 
d="M1272 1434h231l-776 -1434h-211l-332 1432l222 2l253 -1164z" />
    <glyph glyph-name="W" unicode="W" horiz-adv-x="2080" 
d="M1913 1434h229l-639 -1434h-203l-184 1112l-541 -1112h-202l-189 1434h224l122 -1110l523 1110h215l168 -1110z" />
    <glyph glyph-name="X" unicode="X" horiz-adv-x="1316" 
d="M1389 1434l-586 -695l389 -739h-242l-295 561l-473 -561h-245l622 741l-364 693h243l271 -516l434 516h246z" />
    <glyph glyph-name="Y" unicode="Y" horiz-adv-x="1386" 
d="M803 549l-86 -549h-221l86 549l-398 885h242l283 -676l497 676h242z" />
    <glyph glyph-name="Z" unicode="Z" horiz-adv-x="1234" 
d="M1100 188l-31 -188h-1092l27 170l1000 1075h-811l30 189h1065l-26 -170l-1000 -1076h838z" />
    <glyph glyph-name="bracketleft" unicode="[" horiz-adv-x="610" 
d="M438 1348l-227 -1436h166l-27 -178h-375l285 1792h375l-29 -178h-168z" />
    <glyph glyph-name="backslash" unicode="\" horiz-adv-x="915" 
d="M195 1434h202l332 -1432h-203z" />
    <glyph glyph-name="bracketright" unicode="]" horiz-adv-x="610" 
d="M399 1348h-168l29 178h375l-285 -1792h-375l29 178h166z" />
    <glyph glyph-name="asciicircum" unicode="^" horiz-adv-x="997" 
d="M780 952l-186 344l-299 -344h-168l418 482h129l266 -482h-160z" />
    <glyph glyph-name="underscore" unicode="_" horiz-adv-x="1208" 
d="M-20 0h1024l-29 -180h-1024z" />
    <glyph glyph-name="grave" unicode="`" horiz-adv-x="450" 
d="M555 1190l-117 262h-293l226 -262h184z" />
    <glyph glyph-name="a" unicode="a" horiz-adv-x="1142" 
d="M1004 666l-72 -465q-6 -42 11.5 -60t60.5 -16l-21 -121q-40 -12 -84 -12q-89 0 -135 41.5t-29 116.5l10 47q-14 -20 -30.5 -40t-54.5 -53t-80 -57t-105.5 -42.5t-132.5 -18.5q-146 0 -236 71t-90 207q0 84 29.5 146.5t87 102t129 63t168.5 36.5q15 2 78.5 10t89.5 12
t73 12.5t78 17.5t56 20q22 131 -28.5 182.5t-166.5 51.5q-107 0 -167 -36.5t-87 -111.5h-196q40 157 151 231t312 74q232 0 322.5 -98.5t58.5 -310.5zM745 338l37 221q-18 -7 -41 -13t-42 -10.5t-55.5 -11t-55 -9.5t-68.5 -11.5t-71 -11.5q-116 -19 -171 -67t-55 -134
q0 -73 45.5 -113.5t130.5 -40.5q54 0 105.5 16.5t88.5 39.5t70.5 52.5t51.5 51.5t30 41z" />
    <glyph glyph-name="b" unicode="b" horiz-adv-x="1183" 
d="M723 1075q77 0 145.5 -26t123 -76.5t86.5 -135t32 -192.5q0 -129 -40.5 -248t-111 -210.5t-175 -146t-224.5 -54.5q-137 0 -214.5 64.5t-94.5 154.5l-33 -205h-207l226 1434h206l-88 -553q59 87 152.5 140.5t216.5 53.5zM524 156q91 0 165 40.5t121 108.5t72 153.5
t25 178.5q0 132 -70.5 200t-177.5 68q-117 0 -204.5 -70t-129.5 -177.5t-42 -231.5q0 -131 66.5 -200.5t174.5 -69.5z" />
    <glyph glyph-name="c" unicode="c" horiz-adv-x="1073" 
d="M481 156q198 0 285 178h192q-130 -348 -491 -348q-86 0 -162 25.5t-138 76t-98 135t-36 193.5q0 182 73 332t208.5 238.5t306.5 88.5q363 0 399 -350h-189q-14 93 -65.5 136.5t-153.5 43.5q-88 0 -161.5 -42t-120 -111.5t-72 -155t-25.5 -176.5q0 -129 68.5 -196.5
t179.5 -67.5z" />
    <glyph glyph-name="d" unicode="d" horiz-adv-x="1169" 
d="M584 1075q132 0 212 -65t97 -150l90 574h207l-227 -1434h-207l30 182q-129 -196 -354 -196q-78 0 -148 26t-127 77t-90.5 136t-33.5 193q0 129 40 248.5t111 210t175.5 144.5t224.5 54zM483 156q89 0 162 40.5t119 108.5t71 153t25 177q0 133 -67 201.5t-175 68.5
q-120 0 -209 -69.5t-131 -176.5t-42 -233q0 -133 70 -201.5t177 -68.5z" />
    <glyph glyph-name="e" unicode="e" horiz-adv-x="1118" 
d="M1022 457h-795v-33q0 -143 72.5 -212t198.5 -69q91 0 152 27t110 84h198q-82 -142 -199.5 -205t-285.5 -63q-89 0 -166.5 26.5t-139.5 78.5t-98 137.5t-36 193.5q0 181 75 330t211 236t306 87q87 0 161.5 -26.5t133 -78t91.5 -135.5t33 -192q0 -36 -6.5 -95.5
t-15.5 -90.5zM608 918q-141 0 -233 -92t-127 -236h598q8 33 8 80q0 116 -67.5 182t-178.5 66z" />
    <glyph glyph-name="f" unicode="f" horiz-adv-x="706" 
d="M633 1305q-75 0 -113.5 -36t-50.5 -118l-14 -86h241l-24 -164h-242l-143 -901h-207l143 901h-164l25 164h166l14 90q12 79 40 137t61.5 91t79.5 52t86.5 25t91.5 6q83 0 145 -16l-25 -158q-76 13 -110 13z" />
    <glyph glyph-name="g" unicode="g" horiz-adv-x="1169" 
d="M1130 1065l-165 -1055q-18 -112 -63 -197t-102 -134t-131 -79.5t-140 -40.5t-140 -10q-155 0 -264 61.5t-148 162.5l136 69q31 -56 100.5 -88.5t177.5 -32.5q160 0 250 72.5t119 237.5l26 151q-128 -194 -354 -194q-78 0 -148 26t-127 76.5t-90.5 135t-33.5 192.5
q0 126 40.5 245t111 210.5t175 146.5t224.5 55q69 0 126.5 -19t94.5 -51t59.5 -69t30.5 -76l29 205h206zM483 158q89 0 162 41t119 109.5t71 153t25 175.5q0 131 -67 199.5t-175 68.5q-73 0 -135.5 -27.5t-107 -74t-76.5 -108t-47.5 -130.5t-15.5 -141q0 -131 70 -198.5
t177 -67.5z" />
    <glyph glyph-name="h" unicode="h" horiz-adv-x="1169" 
d="M745 1075q85 0 149 -22t111.5 -73t61.5 -133.5t-2 -203.5l-102 -643h-207l102 645q22 138 -30 197t-162 59q-68 0 -130.5 -26.5t-105 -67.5t-70.5 -82t-41 -78l-102 -647h-207l226 1434h206l-94 -596q16 33 48.5 70.5t81.5 76.5t120 64.5t147 25.5z" />
    <glyph glyph-name="i" unicode="i" horiz-adv-x="415" 
d="M211 1276l27 176h206l-26 -176h-207zM178 1065h207l-168 -1065h-207z" />
    <glyph glyph-name="j" unicode="j" horiz-adv-x="458" 
d="M233 1276l27 176h207l-27 -176h-207zM-272 -229q68 -39 141 -39q65 0 100 44t49 134l183 1155h207l-193 -1219q-48 -297 -309 -297q-124 0 -209 54z" />
    <glyph glyph-name="k" unicode="k" horiz-adv-x="1128" 
d="M1118 1065l-534 -473l428 -592h-226l-344 465l-176 -156l-49 -309h-207l226 1434h206l-137 -869l561 500h252z" />
    <glyph glyph-name="l" unicode="l" horiz-adv-x="423" 
d="M236 1434h206l-225 -1434h-207z" />
    <glyph glyph-name="m" unicode="m" horiz-adv-x="1839" 
d="M1425 1075q81 0 142.5 -23.5t107 -76t59 -137.5t-2.5 -207l-99 -631h-207l101 635q23 144 -23.5 205t-148.5 61q-66 0 -127.5 -27.5t-103 -68.5t-69 -84.5t-34.5 -79.5l-102 -641h-207l102 635q22 144 -25 205t-149 61q-65 0 -125 -27.5t-101 -69t-68 -83.5t-38 -78
l-102 -643h-207l168 1065h207l-37 -229q15 33 46 71t78 77t114.5 65t140.5 26q128 0 210 -60.5t99 -187.5q53 98 162 173t239 75z" />
    <glyph glyph-name="n" unicode="n" horiz-adv-x="1157" 
d="M733 1075q85 0 149 -23t111.5 -74.5t61.5 -134.5t-2 -204l-103 -639h-207l103 641q44 260 -193 260q-68 0 -130 -27t-104.5 -69t-70.5 -83.5t-41 -78.5l-102 -643h-207l168 1065h207l-37 -231q16 33 48.5 71t81.5 78t120 66t147 26z" />
    <glyph glyph-name="o" unicode="o" horiz-adv-x="1140" 
d="M627 1075q83 0 159.5 -27t139.5 -79t101 -139t38 -197q0 -176 -74.5 -323.5t-211 -235.5t-306.5 -88q-66 0 -128 16t-119 51t-99 85.5t-67 125t-25 164.5q0 175 75 323t211.5 236t305.5 88zM866 625q0 136 -72.5 208t-181.5 72q-114 0 -202.5 -70t-132.5 -175.5
t-44 -223.5q0 -135 72.5 -207.5t181.5 -72.5q115 0 203.5 70t132 175.5t43.5 223.5z" />
    <glyph glyph-name="p" unicode="p" horiz-adv-x="1181" 
d="M383 1065l-31 -186q58 88 152 142t217 54q77 0 145.5 -26t123 -76.5t86.5 -135t32 -192.5q0 -128 -40.5 -247t-111 -210.5t-175 -146.5t-224.5 -55q-137 0 -214.5 64.5t-94.5 154.5l-94 -594h-207l229 1454h207zM522 156q91 0 165 41t121 109t72 153.5t25 177.5
q0 132 -70.5 200t-177.5 68q-117 0 -204.5 -69t-129.5 -175.5t-42 -230.5q0 -133 66 -203.5t175 -70.5z" />
    <glyph glyph-name="q" unicode="q" horiz-adv-x="1169" 
d="M584 1075q131 0 211 -64.5t100 -150.5l29 205h206l-229 -1454h-207l92 571q-129 -196 -354 -196q-78 0 -148 26t-127 77t-90.5 135.5t-33.5 191.5q0 174 67.5 323.5t195 242.5t288.5 93zM483 156q89 0 162 41.5t119 110t71 153.5t25 176q0 131 -67 199.5t-175 68.5
q-91 0 -165.5 -40.5t-120.5 -108t-71 -153t-25 -179.5q0 -131 70 -199.5t177 -68.5z" />
    <glyph glyph-name="r" unicode="r" horiz-adv-x="788" 
d="M721 1075q47 0 88 -8l-29 -180q-31 2 -67 2q-166 0 -269.5 -84.5t-148.5 -233.5l-90 -571h-207l168 1065h207l-43 -270q40 123 143.5 201.5t247.5 78.5z" />
    <glyph glyph-name="s" unicode="s" horiz-adv-x="1009" 
d="M760 774q-22 144 -217 144q-108 0 -174 -45.5t-66 -118.5q0 -51 31.5 -81.5t103.5 -49.5l166 -41q59 -14 95.5 -25.5t78 -30.5t63.5 -42t37 -58.5t15 -81.5q0 -90 -38.5 -160t-105.5 -112.5t-153.5 -64t-187.5 -21.5q-195 0 -304.5 83.5t-105.5 247.5h190
q8 -176 232 -176q115 0 190.5 48.5t75.5 134.5q0 51 -33.5 77t-107.5 45l-172 41q-138 34 -205.5 99t-67.5 166q0 146 127.5 234.5t325.5 88.5q184 0 283.5 -79t105.5 -222h-182z" />
    <glyph glyph-name="t" unicode="t" horiz-adv-x="702" 
d="M455 901l-105 -653q-8 -48 8.5 -68t65.5 -20q69 0 141 16l-26 -164q-71 -26 -179 -26q-46 0 -81 7t-66.5 24.5t-48 48t-24.5 76.5t5 110l103 649h-168l24 164h170l41 266h207l-43 -266h215l-26 -164h-213z" />
    <glyph glyph-name="u" unicode="u" horiz-adv-x="1159" 
d="M913 1065h207l-168 -1065h-207l35 219q-20 -35 -53 -71t-81.5 -74t-116 -62t-140.5 -24q-179 0 -269 104t-54 330l102 643h207l-103 -643q-40 -256 187 -256q63 0 123.5 25.5t104.5 64.5t75.5 80t48.5 78z" />
    <glyph glyph-name="v" unicode="v" horiz-adv-x="1120" 
d="M569 0h-229l-246 1065h205l182 -854l459 854h213z" />
    <glyph glyph-name="w" unicode="w" horiz-adv-x="1628" 
d="M1661 1065l-479 -1065h-187l-157 815l-412 -815h-188l-144 1065h205l90 -807l402 807h165l144 -807l348 807h213z" />
    <glyph glyph-name="x" unicode="x" horiz-adv-x="1062" 
d="M1085 1065l-454 -520l305 -545h-219l-219 395l-340 -395h-232l486 553l-291 512h221l199 -363l313 363h231z" />
    <glyph glyph-name="y" unicode="y" horiz-adv-x="1099" 
d="M918 1065h215l-641 -1137q-109 -196 -227 -268t-294 -49l29 174q115 -14 187.5 33t121.5 141q23 43 29 64.5t0 56.5l-244 985h205l182 -813z" />
    <glyph glyph-name="z" unicode="z" horiz-adv-x="1011" 
d="M240 176h620l-26 -176h-863l25 176l735 713h-600l29 176h841l-26 -176z" />
    <glyph glyph-name="braceleft" unicode="{" horiz-adv-x="626" 
d="M401 766l-125 -139l78 -135l-80 -519q-11 -61 56 -61h78l-29 -178h-152q-36 0 -68 11t-58.5 33.5t-38 62.5t-3.5 93l91 547l-72 146l115 149l90 559q9 54 32 93t54.5 59.5t64 29.5t68.5 9h162l-29 -178h-66q-33 0 -59.5 -21t-30.5 -53z" />
    <glyph glyph-name="bar" unicode="|" horiz-adv-x="487" 
d="M299 1638h180l-323 -2027h-179z" />
    <glyph glyph-name="braceright" unicode="}" horiz-adv-x="626" 
d="M246 766l80 520q9 62 -56 62h-77l28 178h152q35 0 67 -11t58.5 -34t38 -63t2.5 -93l-88 -549l69 -149l-112 -146l-91 -557q-12 -71 -48.5 -115.5t-78.5 -59.5t-92 -15h-161l28 178h66q32 0 58 21t32 53l78 506l123 135z" />
    <glyph glyph-name="asciitilde" unicode="~" horiz-adv-x="919" 
d="M786 676l93 -12q-17 -105 -86 -168.5t-168 -63.5q-49 0 -96.5 25t-80 55t-77.5 55t-90 25q-51 0 -88.5 -27.5t-40.5 -60.5l-95 12q17 105 86 167t168 62q49 0 97 -25t80.5 -54.5t78 -54.5t90.5 -25q51 0 87.5 28.5t41.5 61.5z" />
    <glyph glyph-name="exclamdown" unicode="&#xa1;" horiz-adv-x="481" 
d="M145 815l41 250h236l-41 -250h-236zM354 645l-161 -1014h-230l160 1014h231z" />
    <glyph glyph-name="cent" unicode="&#xa2;" horiz-adv-x="1073" 
d="M551 289q158 18 235 176h193q-124 -330 -455 -348l-32 -199h-103l33 203q-160 19 -264.5 127t-104.5 299q0 173 67 318t191.5 236t284.5 103l37 230h102l-37 -230q309 -28 342 -348h-188q-12 84 -54.5 127.5t-125.5 50.5zM254 551q0 -113 52.5 -178.5t142.5 -81.5
l118 739q-97 -19 -170 -93.5t-108 -175t-35 -210.5z" />
    <glyph glyph-name="sterling" unicode="&#xa3;" horiz-adv-x="1114" 
d="M1083 983h-186q17 140 -43 213.5t-192 73.5q-141 0 -220.5 -83t-79.5 -210q0 -26 3 -52t10 -56t12 -47.5t16 -54t15 -48.5h276l-18 -121h-236q2 -10 2 -31q0 -239 -235 -409q96 37 190 37q58 0 174 -19.5t183 -19.5q93 0 184 24l-16 -182q-83 -21 -177 -21
q-82 0 -219.5 27t-206.5 27q-108 0 -231 -54l-94 138q266 226 266 438q0 17 -4 45h-182l18 121h131q-20 54 -28.5 79.5t-18.5 76.5t-10 98q0 143 67.5 252t182.5 166t260 57q221 0 330 -124t77 -341z" />
    <glyph glyph-name="currency" unicode="&#xa4;" horiz-adv-x="1220" 
d="M1126 975q0 -126 -63 -234l94 -94l-133 -131l-88 86q-123 -86 -268 -86q-148 0 -265 84l-86 -84l-133 131l90 92q-65 108 -65 236q0 133 67 242l-92 92l133 133l91 -90q119 82 260 82q144 0 264 -84l92 92l133 -133l-96 -97q65 -111 65 -237zM668 688q88 0 156 46
t100 110.5t32 130.5q0 48 -19.5 97.5t-54.5 92.5t-91 70t-123 27t-123 -27t-91 -70t-54 -92.5t-19 -97.5q0 -49 19 -98.5t54 -92t91 -69.5t123 -27z" />
    <glyph glyph-name="yen" unicode="&#xa5;" horiz-adv-x="1386" 
d="M1448 1434l-637 -875h258l-22 -127h-263l-14 -94h262l-22 -129h-260l-33 -209h-221l32 209h-260l23 129h258l14 94h-258l23 127h250l-394 875h242l283 -676l497 676h242z" />
    <glyph glyph-name="brokenbar" unicode="&#xa6;" horiz-adv-x="487" 
d="M299 1638h180l-90 -573h-180zM70 184h180l-94 -573h-179z" />
    <glyph glyph-name="section" unicode="&#xa7;" horiz-adv-x="1318" 
d="M793 1257q-161 0 -243.5 -68.5t-82.5 -172.5q0 -60 39.5 -100.5t132.5 -61.5l195 -43q192 -45 287.5 -128t95.5 -226q0 -188 -130 -318q35 -62 35 -149q0 -95 -31 -173t-86 -133t-132 -93t-168 -56t-195 -18q-255 0 -377.5 109t-122.5 331h226q0 -121 66.5 -184.5
t223.5 -63.5q169 0 270 70.5t101 200.5q0 79 -53.5 120.5t-159.5 65.5l-192 43q-166 36 -256.5 115t-90.5 217q0 186 136 309q-41 65 -41 158q0 105 43.5 189.5t119.5 139.5t178 84t220 29q233 0 355 -101.5t114 -285.5h-221q0 99 -61.5 146.5t-194.5 47.5zM778 633l-192 43
q-66 13 -133 41q-80 -68 -80 -170q0 -59 40 -99t132 -61l194 -43q114 -25 189 -63q61 67 61 168q0 75 -53.5 118t-157.5 66z" />
    <glyph glyph-name="dieresis" unicode="&#xa8;" horiz-adv-x="665" 
d="M145 1452h213l-28 -197h-215zM596 1452h213l-29 -197h-213z" />
    <glyph glyph-name="copyright" unicode="&#xa9;" horiz-adv-x="1611" 
d="M739 -14q-188 0 -338 82.5t-235.5 232t-85.5 338.5q0 166 65 316t174.5 257t258.5 170.5t311 63.5q188 0 338.5 -82t236.5 -231.5t86 -337.5q0 -166 -65.5 -316.5t-175 -258t-259 -171t-311.5 -63.5zM733 113q146 0 275 55t220 147.5t144 219t53 266.5q0 230 -149 375
t-379 145q-143 0 -271 -54t-220.5 -145.5t-146.5 -219t-54 -269.5q0 -230 149 -375t379 -145zM762 424q176 0 254 137h139q-31 -75 -77.5 -129.5t-100.5 -83.5t-107 -42t-110 -13q-152 0 -254.5 97t-102.5 265q0 200 136.5 343t330.5 143q126 0 214.5 -65.5t109.5 -201.5
h-133q-29 134 -201 134q-96 0 -169.5 -50.5t-110.5 -130t-37 -172.5q0 -109 63 -170t156 -61z" />
    <glyph glyph-name="ordfeminine" unicode="&#xaa;" horiz-adv-x="755" 
d="M700 879q0 -58 23 -103h-119q-32 46 -29 121q-47 -56 -103.5 -88.5t-139.5 -32.5q-87 0 -147 45t-60 133q0 111 69 162t207 64l203 20q9 74 -18.5 104.5t-102.5 30.5q-131 0 -157 -82h-129q52 203 292 203q135 0 195.5 -54t60.5 -165q0 -43 -22.5 -183.5t-22.5 -174.5z
M362 897q138 0 211 121l19 76l-191 -21q-66 -6 -100.5 -33t-34.5 -71q0 -34 24.5 -53t71.5 -19z" />
    <glyph glyph-name="guillemotleft" unicode="&#xab;" horiz-adv-x="876" 
d="M436 756l-209 -156l160 -156l-31 -182l-274 266l24 166l363 267zM829 756l-208 -156l159 -156l-30 -182l-275 266l25 166l362 267z" />
    <glyph glyph-name="logicalnot" unicode="&#xac;" horiz-adv-x="1026" 
d="M922 639l-64 -387h-207l37 223h-635l27 164h842z" />
    <glyph glyph-name="uni00AD" unicode="&#xad;" horiz-adv-x="894" 
d="M82 643h711l-25 -147h-711z" />
    <glyph glyph-name="registered" unicode="&#xae;" horiz-adv-x="1611" 
d="M739 -14q-188 0 -338 82.5t-235.5 232t-85.5 338.5q0 166 65 316t174.5 257t258.5 170.5t311 63.5q188 0 338.5 -82t236.5 -231.5t86 -337.5q0 -166 -65.5 -316.5t-175 -258t-259 -171t-311.5 -63.5zM733 113q146 0 275 55t220 147.5t144 219t53 266.5q0 230 -149 375
t-379 145q-143 0 -271 -54t-220.5 -145.5t-146.5 -219t-54 -269.5q0 -230 149 -375t379 -145zM1069 313h-125q-10 36 -7 72.5t11 92.5t8 71q0 36 -17 55.5t-38.5 24t-56.5 4.5h-195l-49 -320h-125l127 807h299q119 0 180.5 -50t61.5 -144q0 -183 -189 -242q64 -12 93.5 -45
t29.5 -90q0 -19 -5 -58t-10 -71t-4 -63.5t11 -43.5zM840 735q84 0 133 52t49 128q0 105 -125 105h-186l-45 -285h174z" />
    <glyph glyph-name="macron" unicode="&#xaf;" horiz-adv-x="665" 
d="M145 1452h666l-20 -125h-664z" />
    <glyph glyph-name="degree" unicode="&#xb0;" horiz-adv-x="792" 
d="M461 868q-118 0 -193 76t-75 191q0 139 101.5 239.5t240.5 100.5q119 0 194.5 -76t75.5 -191q0 -138 -102 -239t-242 -101zM471 1022q78 0 130 55t52 121q0 51 -34.5 88t-92.5 37q-78 0 -131 -56t-53 -122q0 -49 34.5 -86t94.5 -37z" />
    <glyph glyph-name="plusminus" unicode="&#xb1;" horiz-adv-x="1046" 
d="M659 793h367l-29 -181h-368l-58 -366h-190l57 366h-364l28 181h365l57 366h193zM49 -29l25 148h768l-25 -148h-768z" />
    <glyph glyph-name="uni00B2" unicode="&#xb2;" horiz-adv-x="518" 
d="M121 901q11 94 52 151t138 111q5 3 25 13.5t26 14t22 13.5t22 15.5t17 15.5t15 18.5t7.5 20.5t3.5 24q0 31 -22.5 49.5t-55.5 18.5q-40 0 -69.5 -24t-35.5 -68h-86q11 76 63.5 123t137.5 47q73 0 113.5 -36.5t40.5 -94.5q0 -27 -6.5 -50t-22.5 -43t-29 -33.5t-41.5 -31.5
t-43 -26t-50.5 -27q-53 -28 -82.5 -61.5t-32.5 -61.5h258l-12 -78h-352z" />
    <glyph glyph-name="uni00B3" unicode="&#xb3;" horiz-adv-x="544" 
d="M442 1184q40 -6 72.5 -32.5t32.5 -76.5q0 -77 -60.5 -129.5t-164.5 -52.5q-88 0 -133 50t-33 124h80q-6 -49 21 -73.5t75 -24.5q55 0 92 28t37 78q0 74 -113 74h-22l12 63h22q52 0 81.5 27t29.5 66q0 63 -82 63q-91 0 -108 -92h-80q14 80 66 124t136 44q71 0 111.5 -34
t40.5 -87q0 -54 -33 -91t-80 -48z" />
    <glyph glyph-name="acute" unicode="&#xb4;" horiz-adv-x="405" 
d="M104 1190h181l266 262h-289z" />
    <glyph glyph-name="uni00B5" unicode="&#xb5;" horiz-adv-x="1159" 
d="M913 1065h207l-168 -1065h-207l35 219q-20 -34 -53 -70t-81.5 -73.5t-116 -61.5t-140.5 -24q-109 0 -180 35l-66 -414h-206l126 801q0 2 1.5 5t1.5 5l102 643h207l-103 -649q-20 -135 31.5 -190.5t155.5 -55.5q65 0 127 26.5t106 67t74.5 82t44.5 78.5l-8 -59z" />
    <glyph glyph-name="paragraph" unicode="&#xb6;" horiz-adv-x="1267" 
d="M1286 1434l-18 -129h-2l-277 -1756h-170l277 1756h-183l-276 -1756h-184l168 1067h-121q-137 0 -231 58t-130.5 152.5t-17.5 209.5q26 171 158.5 284.5t336.5 113.5h670z" />
    <glyph glyph-name="periodcentered" unicode="&#xb7;" horiz-adv-x="442" 
d="M100 709h236l-41 -250h-234z" />
    <glyph glyph-name="cedilla" unicode="&#xb8;" horiz-adv-x="382" 
d="M55 -115q79 3 138 -39.5t59 -121.5q0 -47 -18.5 -82.5t-49.5 -57.5t-77 -35.5t-94.5 -18.5t-108.5 -5v90q188 3 188 102q0 53 -47 67.5t-102 -20.5l-52 82l97 156h178z" />
    <glyph glyph-name="uni00B9" unicode="&#xb9;" horiz-adv-x="364" 
d="M385 1434l-84 -533h-86l74 428q-41 -54 -129 -45l12 78q38 -4 74 19t53 53h86z" />
    <glyph glyph-name="ordmasculine" unicode="&#xba;" horiz-adv-x="774" 
d="M500 1450q119 0 202.5 -77.5t83.5 -209.5q0 -162 -110 -276.5t-260 -114.5q-117 0 -202 78t-85 211q0 161 110 275t261 114zM647 1161q0 72 -42.5 114t-108.5 42q-99 0 -162.5 -76t-63.5 -176q0 -73 43 -115.5t109 -42.5q99 0 162 77t63 177z" />
    <glyph glyph-name="guillemotright" unicode="&#xbb;" horiz-adv-x="876" 
d="M72 467l209 156l-160 155l31 183l274 -267l-25 -166l-362 -266zM465 467l209 156l-160 155l31 183l274 -267l-24 -166l-363 -266z" />
    <glyph glyph-name="onequarter" unicode="&#xbc;" horiz-adv-x="1286" 
d="M117 0h-109l1118 1434h109zM385 1434l-84 -533h-86l74 428q-41 -54 -129 -45l12 78q38 -4 74 19t53 53h86zM1141 135h-62l-22 -135h-84l22 135h-241l10 68l295 332h84l-56 -332h62zM1006 203l36 229l-202 -229h166z" />
    <glyph glyph-name="onehalf" unicode="&#xbd;" horiz-adv-x="1269" 
d="M117 0h-109l1118 1434h109zM385 1434l-84 -533h-86l74 428q-41 -54 -129 -45l12 78q38 -4 74 19t53 53h86zM741 0q10 94 52 151t139 111q5 3 22 12t23 12.5t20.5 11.5t20 13t16 13.5t15.5 15.5t10.5 16.5t7.5 19.5t2 21q0 31 -22.5 49.5t-55.5 18.5q-40 0 -69 -24
t-35 -68h-86q11 76 63 123t137 47q73 0 113.5 -36.5t40.5 -94.5q0 -23 -6 -44t-13.5 -36.5t-25 -32.5t-29 -27t-37.5 -25.5t-38.5 -22.5t-42.5 -23q-53 -28 -82.5 -61.5t-32.5 -61.5h258l-12 -78h-353z" />
    <glyph glyph-name="threequarters" unicode="&#xbe;" horiz-adv-x="1390" 
d="M453 1184q40 -6 72 -32.5t32 -76.5q0 -77 -60.5 -129.5t-164.5 -52.5q-88 0 -133 50t-33 124h80q-6 -49 21 -73.5t75 -24.5q55 0 92 28t37 78q0 74 -113 74h-22l12 63h23q52 0 81 27t29 66q0 63 -82 63q-91 0 -108 -92h-80q14 80 66.5 124t136.5 44q71 0 111 -34t40 -87
q0 -54 -33 -91t-79 -48zM221 0h-108l1118 1434h108zM1245 135h-61l-23 -135h-84l23 135h-242l10 68l295 332h84l-55 -332h61zM1110 203l37 229l-203 -229h166z" />
    <glyph glyph-name="questiondown" unicode="&#xbf;" horiz-adv-x="1099" 
d="M659 815h-235l39 250h235zM365 -383q229 0 368 117.5t174 353.5h-202q-25 -143 -104 -218t-206 -75q-121 0 -173 62.5t-36 165.5q7 44 32.5 80.5t60.5 64.5t76.5 55.5t84 60.5t79 72.5t65.5 99t41 132.5l8 55h-221l-9 -55q-10 -61 -36 -109.5t-60.5 -81.5t-74.5 -62.5
t-80.5 -60t-75.5 -65.5t-62 -88t-37 -119q-19 -122 25.5 -210t138 -131.5t224.5 -43.5z" />
    <glyph glyph-name="Agrave" unicode="&#xc0;" horiz-adv-x="1423" 
d="M938 1559h-184l-226 262h293zM1047 0l-70 336h-608l-179 -336h-233l786 1434h197l338 -1434h-231zM453 498h489l-139 661z" />
    <glyph glyph-name="Aacute" unicode="&#xc1;" horiz-adv-x="1423" 
d="M1210 1821l-266 -262h-180l158 262h288zM1047 0l-70 336h-608l-179 -336h-233l786 1434h197l338 -1434h-231zM453 498h489l-139 661z" />
    <glyph glyph-name="Acircumflex" unicode="&#xc2;" horiz-adv-x="1423" 
d="M866 1722l-221 -174h-168l213 273h371l127 -273h-160zM1047 0l-70 336h-608l-179 -336h-233l786 1434h197l338 -1434h-231zM453 498h489l-139 661z" />
    <glyph glyph-name="Atilde" unicode="&#xc3;" horiz-adv-x="1423" 
d="M649 1729q-45 0 -72.5 -23.5t-25.5 -54.5h-92q0 100 60 162.5t159 62.5q42 0 81.5 -16t70.5 -38.5t61.5 -45t66.5 -38.5t72 -16q45 0 72.5 24.5t25.5 55.5h93q0 -101 -61 -163t-159 -62q-42 0 -81.5 15.5t-70.5 38t-61.5 45t-66.5 38t-72 15.5zM1047 0l-70 336h-608
l-179 -336h-233l786 1434h197l338 -1434h-231zM453 498h489l-139 661z" />
    <glyph glyph-name="Adieresis" unicode="&#xc4;" horiz-adv-x="1423" 
d="M772 1821l-29 -197h-215l31 197h213zM1223 1821l-29 -197h-213l29 197h213zM1047 0l-70 336h-608l-179 -336h-233l786 1434h197l338 -1434h-231zM453 498h489l-139 661z" />
    <glyph glyph-name="Aring" unicode="&#xc5;" horiz-adv-x="1423" 
d="M868 1559q-74 0 -122 46.5t-48 116.5q0 82 60.5 142.5t144.5 60.5q70 0 117 -47.5t47 -118.5q0 -79 -61 -139.5t-138 -60.5zM893 1831q-40 0 -70 -29t-30 -69q0 -34 23 -57t61 -23q37 0 66.5 30t29.5 68q0 34 -22.5 57t-57.5 23zM1047 0l-70 336h-608l-179 -336h-233
l786 1434h197l338 -1434h-231zM453 498h489l-139 661z" />
    <glyph glyph-name="AE" unicode="&#xc6;" horiz-adv-x="2058" 
d="M2079 1245h-738l-67 -424h635l-27 -176h-637l-71 -457h759l-30 -188h-975l53 334h-512l-281 -334h-231l1196 1419l2 15h954zM612 504h396l92 579z" />
    <glyph glyph-name="Ccedilla" unicode="&#xc7;" horiz-adv-x="1341" 
d="M641 170q270 0 383 225h213q-61 -183 -212.5 -289.5t-350.5 -121.5l-94 -99q79 3 137.5 -39.5t58.5 -121.5q0 -47 -18.5 -82.5t-49.5 -57.5t-77 -35.5t-94.5 -18.5t-108.5 -5v90q188 3 188 102q0 53 -47 67.5t-102 -20.5l-51 82l88 142q-204 30 -319 170t-115 383
q0 145 33 280t98.5 249.5t157 200t216.5 133.5t269 48q220 0 355 -108t138 -304h-213q-19 108 -96 166t-211 58q-99 0 -185 -40.5t-146.5 -109.5t-103.5 -159.5t-64 -190.5t-21 -203q0 -193 90.5 -292t253.5 -99z" />
    <glyph glyph-name="Egrave" unicode="&#xc8;" horiz-adv-x="1148" 
d="M834 1559l-117 262h-293l225 -262h185zM1169 1245h-737l-67 -424h634l-26 -176h-637l-72 -457h760l-31 -188h-975l228 1434h954z" />
    <glyph glyph-name="Eacute" unicode="&#xc9;" horiz-adv-x="1148" 
d="M659 1559h181l266 262h-289zM1169 1245h-737l-67 -424h634l-26 -176h-637l-72 -457h760l-31 -188h-975l228 1434h954z" />
    <glyph glyph-name="Ecircumflex" unicode="&#xca;" horiz-adv-x="1148" 
d="M924 1548l-162 174l-221 -174h-168l213 273h370l127 -273h-159zM1169 1245h-737l-67 -424h634l-26 -176h-637l-72 -457h760l-31 -188h-975l228 1434h954z" />
    <glyph glyph-name="Edieresis" unicode="&#xcb;" horiz-adv-x="1148" 
d="M455 1821h213l-29 -197h-215zM905 1821h213l-28 -197h-213zM1169 1245h-737l-67 -424h634l-26 -176h-637l-72 -457h760l-31 -188h-975l228 1434h954z" />
    <glyph glyph-name="Igrave" unicode="&#xcc;" horiz-adv-x="454" 
d="M457 1559l-117 262h-293l225 -262h185zM238 0h-218l226 1434h217z" />
    <glyph glyph-name="Iacute" unicode="&#xcd;" horiz-adv-x="454" 
d="M283 1559h180l266 262h-289zM238 0h-218l226 1434h217z" />
    <glyph glyph-name="Icircumflex" unicode="&#xce;" horiz-adv-x="454" 
d="M547 1548l-162 174l-221 -174h-168l213 273h371l127 -273h-160zM238 0h-218l226 1434h217z" />
    <glyph glyph-name="Idieresis" unicode="&#xcf;" horiz-adv-x="454" 
d="M78 1821h213l-29 -197h-215zM528 1821h213l-28 -197h-213zM238 0h-218l226 1434h217z" />
    <glyph glyph-name="Eth" unicode="&#xd0;" horiz-adv-x="1400" 
d="M770 1434q287 0 436.5 -145t149.5 -419q0 -259 -92 -454t-274 -305.5t-433 -110.5h-481l100 635h-108l24 147h107l102 652h469zM557 197q117 0 213 33t165 93t116 144t69.5 186t22.5 219q0 189 -100.5 277t-309.5 88h-246l-71 -455h387l-25 -147h-385l-69 -438h233z" />
    <glyph glyph-name="Ntilde" unicode="&#xd1;" horiz-adv-x="1384" 
d="M1133 1802h92q0 -101 -60.5 -163t-158.5 -62q-42 0 -81.5 15.5t-71 38t-62 45t-66.5 38t-72 15.5q-45 0 -72.5 -23.5t-25.5 -54.5h-92q0 100 60 162.5t159 62.5q42 0 81.5 -16t70.5 -38.5t61.5 -45t66.5 -38.5t72 -16q45 0 73 24.5t26 55.5zM1395 1434l-228 -1434h-229
l-526 1085h-6l-170 -1085h-218l228 1434h221l532 -1096h7l172 1096h217z" />
    <glyph glyph-name="Ograve" unicode="&#xd2;" horiz-adv-x="1462" 
d="M981 1559l-117 262h-293l226 -262h184zM856 1452q256 0 405.5 -146.5t149.5 -412.5q0 -147 -34.5 -283.5t-102.5 -250t-162 -198t-220.5 -132t-270.5 -47.5q-254 0 -402.5 146t-148.5 411q0 186 54.5 352t153.5 290.5t248.5 197.5t329.5 73zM649 170q103 0 191 39.5
t150.5 107.5t107.5 158t66.5 192.5t21.5 209.5q0 187 -94 287t-263 100q-103 0 -191 -39.5t-150 -108t-106.5 -159t-65.5 -192.5t-21 -210q0 -187 93 -286t261 -99z" />
    <glyph glyph-name="Oacute" unicode="&#xd3;" horiz-adv-x="1462" 
d="M807 1559h180l266 262h-288zM856 1452q256 0 405.5 -146.5t149.5 -412.5q0 -147 -34.5 -283.5t-102.5 -250t-162 -198t-220.5 -132t-270.5 -47.5q-254 0 -402.5 146t-148.5 411q0 186 54.5 352t153.5 290.5t248.5 197.5t329.5 73zM649 170q103 0 191 39.5t150.5 107.5
t107.5 158t66.5 192.5t21.5 209.5q0 187 -94 287t-263 100q-103 0 -191 -39.5t-150 -108t-106.5 -159t-65.5 -192.5t-21 -210q0 -187 93 -286t261 -99z" />
    <glyph glyph-name="Ocircumflex" unicode="&#xd4;" horiz-adv-x="1462" 
d="M1071 1548l-162 174l-221 -174h-168l213 273h371l127 -273h-160zM856 1452q256 0 405.5 -146.5t149.5 -412.5q0 -147 -34.5 -283.5t-102.5 -250t-162 -198t-220.5 -132t-270.5 -47.5q-254 0 -402.5 146t-148.5 411q0 186 54.5 352t153.5 290.5t248.5 197.5t329.5 73z
M649 170q103 0 191 39.5t150.5 107.5t107.5 158t66.5 192.5t21.5 209.5q0 187 -94 287t-263 100q-103 0 -191 -39.5t-150 -108t-106.5 -159t-65.5 -192.5t-21 -210q0 -187 93 -286t261 -99z" />
    <glyph glyph-name="Otilde" unicode="&#xd5;" horiz-adv-x="1462" 
d="M1171 1802h93q0 -101 -61 -163t-159 -62q-42 0 -81.5 15.5t-70.5 38t-61.5 45t-66.5 38t-72 15.5q-45 0 -72.5 -23.5t-25.5 -54.5h-92q0 100 60 162.5t159 62.5q42 0 81.5 -16t70.5 -38.5t61.5 -45t66.5 -38.5t72 -16q45 0 72.5 24.5t25.5 55.5zM856 1452
q256 0 405.5 -146.5t149.5 -412.5q0 -147 -34.5 -283.5t-102.5 -250t-162 -198t-220.5 -132t-270.5 -47.5q-254 0 -402.5 146t-148.5 411q0 186 54.5 352t153.5 290.5t248.5 197.5t329.5 73zM649 170q103 0 191 39.5t150.5 107.5t107.5 158t66.5 192.5t21.5 209.5
q0 187 -94 287t-263 100q-103 0 -191 -39.5t-150 -108t-106.5 -159t-65.5 -192.5t-21 -210q0 -187 93 -286t261 -99z" />
    <glyph glyph-name="Odieresis" unicode="&#xd6;" horiz-adv-x="1462" 
d="M602 1821h213l-29 -197h-215zM1053 1821h213l-29 -197h-213zM856 1452q256 0 405.5 -146.5t149.5 -412.5q0 -147 -34.5 -283.5t-102.5 -250t-162 -198t-220.5 -132t-270.5 -47.5q-254 0 -402.5 146t-148.5 411q0 186 54.5 352t153.5 290.5t248.5 197.5t329.5 73zM649 170
q103 0 191 39.5t150.5 107.5t107.5 158t66.5 192.5t21.5 209.5q0 187 -94 287t-263 100q-103 0 -191 -39.5t-150 -108t-106.5 -159t-65.5 -192.5t-21 -210q0 -187 93 -286t261 -99z" />
    <glyph glyph-name="multiply" unicode="&#xd7;" horiz-adv-x="905" 
d="M881 782l-299 -258l219 -256l-146 -129l-219 258l-299 -258l-117 135l299 261l-217 258l144 127l219 -258l297 258z" />
    <glyph glyph-name="Oslash" unicode="&#xd8;" horiz-adv-x="1462" 
d="M1243 1323q168 -149 168 -430q0 -147 -34.5 -283.5t-102.5 -250t-162 -198t-220.5 -132t-270.5 -47.5q-117 0 -211 30l-74 -114h-232l134 211q-168 149 -168 430q0 186 54.5 352t153.5 290.5t248.5 197.5t329.5 73q122 0 217 -33l68 107h231zM295 555q0 -160 67 -254
l601 944q-65 19 -134 19q-103 0 -191 -39.5t-150 -108t-106.5 -159t-65.5 -192.5t-21 -210zM649 170q103 0 191 39.5t150.5 107.5t107.5 158t66.5 192.5t21.5 209.5q0 157 -66 251l-600 -940q58 -18 129 -18z" />
    <glyph glyph-name="Ugrave" unicode="&#xd9;" horiz-adv-x="1363" 
d="M932 1559l-117 262h-293l226 -262h184zM1374 1434l-139 -881q-42 -265 -218.5 -415t-434.5 -150q-260 0 -389 149.5t-87 415.5l140 881h217l-139 -871q-29 -188 45 -287.5t241 -99.5q166 0 272.5 99.5t137.5 287.5l137 871h217z" />
    <glyph glyph-name="Uacute" unicode="&#xda;" horiz-adv-x="1363" 
d="M758 1559h180l266 262h-289zM1374 1434l-139 -881q-42 -265 -218.5 -415t-434.5 -150q-260 0 -389 149.5t-87 415.5l140 881h217l-139 -871q-29 -188 45 -287.5t241 -99.5q166 0 272.5 99.5t137.5 287.5l137 871h217z" />
    <glyph glyph-name="Ucircumflex" unicode="&#xdb;" horiz-adv-x="1363" 
d="M1022 1548l-162 174l-221 -174h-168l213 273h371l127 -273h-160zM1374 1434l-139 -881q-42 -265 -218.5 -415t-434.5 -150q-260 0 -389 149.5t-87 415.5l140 881h217l-139 -871q-29 -188 45 -287.5t241 -99.5q166 0 272.5 99.5t137.5 287.5l137 871h217z" />
    <glyph glyph-name="Udieresis" unicode="&#xdc;" horiz-adv-x="1363" 
d="M553 1821h213l-29 -197h-215zM1004 1821h213l-29 -197h-213zM1374 1434l-139 -881q-42 -265 -218.5 -415t-434.5 -150q-260 0 -389 149.5t-87 415.5l140 881h217l-139 -871q-29 -188 45 -287.5t241 -99.5q166 0 272.5 99.5t137.5 287.5l137 871h217z" />
    <glyph glyph-name="Yacute" unicode="&#xdd;" horiz-adv-x="1386" 
d="M770 1559h180l267 262h-289zM803 549l-86 -549h-221l86 549l-398 885h242l283 -676l497 676h242z" />
    <glyph glyph-name="Thorn" unicode="&#xde;" horiz-adv-x="1282" 
d="M721 1157q251 0 384 -124.5t101 -323.5q-32 -202 -194 -313t-418 -111h-322l29 180h315q80 0 139 10.5t113 38t88.5 82.5t47.5 137q11 71 -5.5 120.5t-59 76t-98.5 38t-134 11.5h-326l-154 -979h-207l226 1434h207l-62 -394l19 117h311z" />
    <glyph glyph-name="germandbls" unicode="&#xdf;" horiz-adv-x="1232" 
d="M868 782q112 -17 183 -101t71 -204q0 -124 -44 -216t-126 -149t-193 -84.5t-251 -27.5h-113l29 180h104q394 0 394 307q0 55 -24 94.5t-67.5 62.5t-98.5 33.5t-124 10.5h-104l26 162h93q143 0 224 64t81 180q0 83 -62 122t-170 39q-140 0 -216.5 -63t-96.5 -195
l-158 -997h-207l160 1010q36 222 168.5 323t355.5 101q206 0 319.5 -80t113.5 -246q0 -122 -73 -214t-194 -112z" />
    <glyph glyph-name="agrave" unicode="&#xe0;" horiz-adv-x="1142" 
d="M733 1190h-184l-225 262h292zM1004 666l-72 -465q-6 -42 11.5 -60t60.5 -16l-21 -121q-40 -12 -84 -12q-89 0 -135 41.5t-29 116.5l10 47q-14 -20 -30.5 -40t-54.5 -53t-80 -57t-105.5 -42.5t-132.5 -18.5q-146 0 -236 71t-90 207q0 84 29.5 146.5t87 102t129 63
t168.5 36.5q15 2 78.5 10t89.5 12t73 12.5t78 17.5t56 20q22 131 -28.5 182.5t-166.5 51.5q-107 0 -167 -36.5t-87 -111.5h-196q40 157 151 231t312 74q232 0 322.5 -98.5t58.5 -310.5zM745 338l37 221q-18 -7 -41 -13t-42 -10.5t-55.5 -11t-55 -9.5t-68.5 -11.5t-71 -11.5
q-116 -19 -171 -67t-55 -134q0 -73 45.5 -113.5t130.5 -40.5q54 0 105.5 16.5t88.5 39.5t70.5 52.5t51.5 51.5t30 41z" />
    <glyph glyph-name="aacute" unicode="&#xe1;" horiz-adv-x="1142" 
d="M1006 1452l-267 -262h-180l158 262h289zM1004 666l-72 -465q-6 -42 11.5 -60t60.5 -16l-21 -121q-40 -12 -84 -12q-89 0 -135 41.5t-29 116.5l10 47q-14 -20 -30.5 -40t-54.5 -53t-80 -57t-105.5 -42.5t-132.5 -18.5q-146 0 -236 71t-90 207q0 84 29.5 146.5t87 102
t129 63t168.5 36.5q15 2 78.5 10t89.5 12t73 12.5t78 17.5t56 20q22 131 -28.5 182.5t-166.5 51.5q-107 0 -167 -36.5t-87 -111.5h-196q40 157 151 231t312 74q232 0 322.5 -98.5t58.5 -310.5zM745 338l37 221q-18 -7 -41 -13t-42 -10.5t-55.5 -11t-55 -9.5t-68.5 -11.5
t-71 -11.5q-116 -19 -171 -67t-55 -134q0 -73 45.5 -113.5t130.5 -40.5q54 0 105.5 16.5t88.5 39.5t70.5 52.5t51.5 51.5t30 41z" />
    <glyph glyph-name="acircumflex" unicode="&#xe2;" horiz-adv-x="1142" 
d="M662 1354l-222 -174h-168l213 272h371l127 -272h-160zM1004 666l-72 -465q-6 -42 11.5 -60t60.5 -16l-21 -121q-40 -12 -84 -12q-89 0 -135 41.5t-29 116.5l10 47q-14 -20 -30.5 -40t-54.5 -53t-80 -57t-105.5 -42.5t-132.5 -18.5q-146 0 -236 71t-90 207
q0 84 29.5 146.5t87 102t129 63t168.5 36.5q15 2 78.5 10t89.5 12t73 12.5t78 17.5t56 20q22 131 -28.5 182.5t-166.5 51.5q-107 0 -167 -36.5t-87 -111.5h-196q40 157 151 231t312 74q232 0 322.5 -98.5t58.5 -310.5zM745 338l37 221q-18 -7 -41 -13t-42 -10.5t-55.5 -11
t-55 -9.5t-68.5 -11.5t-71 -11.5q-116 -19 -171 -67t-55 -134q0 -73 45.5 -113.5t130.5 -40.5q54 0 105.5 16.5t88.5 39.5t70.5 52.5t51.5 51.5t30 41z" />
    <glyph glyph-name="atilde" unicode="&#xe3;" horiz-adv-x="1142" 
d="M444 1360q-45 0 -72.5 -23.5t-25.5 -54.5h-92q0 100 60 162.5t159 62.5q51 0 100.5 -24t83 -52.5t79 -52.5t89.5 -24q45 0 73 24.5t26 55.5h92q0 -101 -60.5 -163.5t-158.5 -62.5q-51 0 -100.5 24t-83 52t-79.5 52t-90 24zM623 1075q232 0 322.5 -98.5t58.5 -310.5
l-72 -465q-6 -42 11.5 -60t60.5 -16l-21 -121q-40 -12 -84 -12q-89 0 -135 41.5t-29 116.5l10 47q-14 -20 -30.5 -40t-54.5 -53t-80 -57t-105.5 -42.5t-132.5 -18.5q-146 0 -236 71t-90 207q0 84 29.5 146.5t87 102t129 63t168.5 36.5q15 2 78.5 10t89.5 12t73 12.5t78 17.5
t56 20q22 131 -28.5 182.5t-166.5 51.5q-107 0 -167 -36.5t-87 -111.5h-196q40 157 151 231t312 74zM745 338l37 221q-18 -7 -41 -13t-42 -10.5t-55.5 -11t-55 -9.5t-68.5 -11.5t-71 -11.5q-116 -19 -171 -67t-55 -134q0 -73 45.5 -113.5t130.5 -40.5q54 0 105.5 16.5
t88.5 39.5t70.5 52.5t51.5 51.5t30 41z" />
    <glyph glyph-name="adieresis" unicode="&#xe4;" horiz-adv-x="1142" 
d="M567 1452l-28 -197h-215l30 197h213zM1018 1452l-29 -197h-213l29 197h213zM623 1075q232 0 322.5 -98.5t58.5 -310.5l-72 -465q-6 -42 11.5 -60t60.5 -16l-21 -121q-40 -12 -84 -12q-89 0 -135 41.5t-29 116.5l10 47q-14 -20 -30.5 -40t-54.5 -53t-80 -57t-105.5 -42.5
t-132.5 -18.5q-146 0 -236 71t-90 207q0 84 29.5 146.5t87 102t129 63t168.5 36.5q15 2 78.5 10t89.5 12t73 12.5t78 17.5t56 20q22 131 -28.5 182.5t-166.5 51.5q-107 0 -167 -36.5t-87 -111.5h-196q40 157 151 231t312 74zM745 338l37 221q-18 -7 -41 -13t-42 -10.5
t-55.5 -11t-55 -9.5t-68.5 -11.5t-71 -11.5q-116 -19 -171 -67t-55 -134q0 -73 45.5 -113.5t130.5 -40.5q54 0 105.5 16.5t88.5 39.5t70.5 52.5t51.5 51.5t30 41z" />
    <glyph glyph-name="aring" unicode="&#xe5;" horiz-adv-x="1142" 
d="M664 1190q-74 0 -122 47t-48 117q0 82 60 142t144 60q70 0 117 -47t47 -118q0 -79 -60.5 -140t-137.5 -61zM688 1462q-40 0 -70 -29t-30 -69q0 -34 23 -57t61 -23q37 0 66.5 30t29.5 68q0 34 -22.5 57t-57.5 23zM1004 666l-72 -465q-6 -42 11.5 -60t60.5 -16l-21 -121
q-40 -12 -84 -12q-89 0 -135 41.5t-29 116.5l10 47q-14 -20 -30.5 -40t-54.5 -53t-80 -57t-105.5 -42.5t-132.5 -18.5q-146 0 -236 71t-90 207q0 84 29.5 146.5t87 102t129 63t168.5 36.5q15 2 78.5 10t89.5 12t73 12.5t78 17.5t56 20q22 131 -28.5 182.5t-166.5 51.5
q-107 0 -167 -36.5t-87 -111.5h-196q40 157 151 231t312 74q232 0 322.5 -98.5t58.5 -310.5zM745 338l37 221q-18 -7 -41 -13t-42 -10.5t-55.5 -11t-55 -9.5t-68.5 -11.5t-71 -11.5q-116 -19 -171 -67t-55 -134q0 -73 45.5 -113.5t130.5 -40.5q54 0 105.5 16.5t88.5 39.5
t70.5 52.5t51.5 51.5t30 41z" />
    <glyph glyph-name="ae" unicode="&#xe6;" horiz-adv-x="1857" 
d="M1761 457h-794v-33q0 -143 72 -212t198 -69q91 0 152 27t110 84h199q-82 -142 -200 -205t-286 -63q-140 0 -250.5 65.5t-158.5 192.5q-188 -256 -461 -256q-148 0 -238 69t-90 203q0 87 30 151.5t88 104.5t129.5 63t168.5 35q19 3 79 10.5t89 11.5t74.5 12t77 16.5
t55.5 19.5q20 130 -33 179.5t-166 49.5q-104 0 -163.5 -33t-86.5 -100h-194q39 152 149.5 223.5t311.5 71.5q280 0 358 -147q160 147 383 147q87 0 161.5 -26.5t133 -78t92 -135.5t33.5 -192q0 -35 -7 -95t-16 -91zM1348 918q-141 0 -233.5 -92t-127.5 -236h598q8 33 8 80
q0 117 -67 182.5t-178 65.5zM393 147q68 0 131 22.5t107.5 57.5t70 61t43.5 50l35 209q-64 -25 -308 -63q-6 -1 -10 -1.5t-9.5 -1.5t-10.5 -2q-217 -29 -217 -194q0 -65 43 -101.5t125 -36.5z" />
    <glyph glyph-name="ccedilla" unicode="&#xe7;" horiz-adv-x="1073" 
d="M481 156q198 0 285 178h192q-117 -316 -423 -344l-99 -105q79 3 138 -39.5t59 -121.5q0 -47 -18.5 -82.5t-49.5 -57.5t-77 -35.5t-94.5 -18.5t-108.5 -5v90q188 3 188 102q0 53 -46.5 67.5t-102.5 -20.5l-52 82l93 150q-147 28 -239.5 134t-92.5 286q0 182 73 332
t208.5 238.5t306.5 88.5q363 0 399 -350h-189q-14 93 -65.5 136.5t-153.5 43.5q-88 0 -161.5 -42t-120 -111.5t-72 -155t-25.5 -176.5q0 -129 68.5 -196.5t179.5 -67.5z" />
    <glyph glyph-name="egrave" unicode="&#xe8;" horiz-adv-x="1118" 
d="M743 1190h-184l-225 262h293zM1022 457h-795v-33q0 -143 72.5 -212t198.5 -69q91 0 152 27t110 84h198q-82 -142 -199.5 -205t-285.5 -63q-89 0 -166.5 26.5t-139.5 78.5t-98 137.5t-36 193.5q0 181 75 330t211 236t306 87q87 0 161.5 -26.5t133 -78t91.5 -135.5t33 -192
q0 -36 -6.5 -95.5t-15.5 -90.5zM608 918q-141 0 -233 -92t-127 -236h598q8 33 8 80q0 116 -67.5 182t-178.5 66z" />
    <glyph glyph-name="eacute" unicode="&#xe9;" horiz-adv-x="1118" 
d="M1016 1452l-266 -262h-181l158 262h289zM1022 457h-795v-33q0 -143 72.5 -212t198.5 -69q91 0 152 27t110 84h198q-82 -142 -199.5 -205t-285.5 -63q-89 0 -166.5 26.5t-139.5 78.5t-98 137.5t-36 193.5q0 181 75 330t211 236t306 87q87 0 161.5 -26.5t133 -78
t91.5 -135.5t33 -192q0 -36 -6.5 -95.5t-15.5 -90.5zM608 918q-141 0 -233 -92t-127 -236h598q8 33 8 80q0 116 -67.5 182t-178.5 66z" />
    <glyph glyph-name="ecircumflex" unicode="&#xea;" horiz-adv-x="1118" 
d="M672 1354l-221 -174h-168l213 272h370l127 -272h-159zM1022 457h-795v-33q0 -143 72.5 -212t198.5 -69q91 0 152 27t110 84h198q-82 -142 -199.5 -205t-285.5 -63q-89 0 -166.5 26.5t-139.5 78.5t-98 137.5t-36 193.5q0 181 75 330t211 236t306 87q87 0 161.5 -26.5
t133 -78t91.5 -135.5t33 -192q0 -36 -6.5 -95.5t-15.5 -90.5zM608 918q-141 0 -233 -92t-127 -236h598q8 33 8 80q0 116 -67.5 182t-178.5 66z" />
    <glyph glyph-name="edieresis" unicode="&#xeb;" horiz-adv-x="1118" 
d="M578 1452l-29 -197h-215l31 197h213zM1028 1452l-29 -197h-213l29 197h213zM1022 457h-795v-33q0 -143 72.5 -212t198.5 -69q91 0 152 27t110 84h198q-82 -142 -199.5 -205t-285.5 -63q-89 0 -166.5 26.5t-139.5 78.5t-98 137.5t-36 193.5q0 181 75 330t211 236t306 87
q87 0 161.5 -26.5t133 -78t91.5 -135.5t33 -192q0 -36 -6.5 -95.5t-15.5 -90.5zM608 918q-141 0 -233 -92t-127 -236h598q8 33 8 80q0 116 -67.5 182t-178.5 66z" />
    <glyph glyph-name="igrave" unicode="&#xec;" horiz-adv-x="413" 
d="M381 1190l-117 262h-293l226 -262h184zM176 1065h207l-168 -1065h-207z" />
    <glyph glyph-name="iacute" unicode="&#xed;" horiz-adv-x="413" 
d="M207 1190h180l266 262h-288zM176 1065h207l-168 -1065h-207z" />
    <glyph glyph-name="icircumflex" unicode="&#xee;" horiz-adv-x="413" 
d="M471 1180l-162 174l-221 -174h-168l213 272h371l127 -272h-160zM176 1065h207l-168 -1065h-207z" />
    <glyph glyph-name="idieresis" unicode="&#xef;" horiz-adv-x="413" 
d="M2 1452h213l-29 -197h-215zM453 1452h213l-29 -197h-213zM176 1065h207l-168 -1065h-207z" />
    <glyph glyph-name="eth" unicode="&#xf0;" horiz-adv-x="1175" 
d="M1057 1206l-133 -16q78 -139 111.5 -245.5t33.5 -221.5q0 -215 -69 -381.5t-208 -264t-331 -97.5q-186 0 -307 113t-121 321q0 131 39 249t109 207.5t176.5 142t232.5 52.5q149 0 244 -82q-40 109 -82 186l-226 -26l17 98l157 19q-57 89 -127 174h203q69 -108 94 -152
l203 25zM471 160q118 0 207 66t133.5 172.5t44.5 234.5q0 254 -246 254q-119 0 -205.5 -68t-126.5 -172.5t-40 -230.5q0 -127 65.5 -191.5t167.5 -64.5z" />
    <glyph glyph-name="ntilde" unicode="&#xf1;" horiz-adv-x="1157" 
d="M961 1434h92q0 -101 -60.5 -163.5t-158.5 -62.5q-51 0 -100.5 24t-83 52t-79.5 52t-90 24q-45 0 -72.5 -23.5t-25.5 -54.5h-92q0 100 60 162.5t159 62.5q51 0 100.5 -24t83 -52.5t79 -52.5t89.5 -24q45 0 73 24.5t26 55.5zM733 1075q85 0 149 -23t111.5 -74.5
t61.5 -134.5t-2 -204l-103 -639h-207l103 641q44 260 -193 260q-68 0 -130 -27t-104.5 -69t-70.5 -83.5t-41 -78.5l-102 -643h-207l168 1065h207l-37 -231q16 33 48.5 71t81.5 78t120 66t147 26z" />
    <glyph glyph-name="ograve" unicode="&#xf2;" horiz-adv-x="1140" 
d="M735 1190l-117 262h-292l225 -262h184zM627 1075q83 0 159.5 -27t139.5 -79t101 -139t38 -197q0 -176 -74.5 -323.5t-211 -235.5t-306.5 -88q-66 0 -128 16t-119 51t-99 85.5t-67 125t-25 164.5q0 175 75 323t211.5 236t305.5 88zM866 625q0 136 -72.5 208t-181.5 72
q-114 0 -202.5 -70t-132.5 -175.5t-44 -223.5q0 -135 72.5 -207.5t181.5 -72.5q115 0 203.5 70t132 175.5t43.5 223.5z" />
    <glyph glyph-name="oacute" unicode="&#xf3;" horiz-adv-x="1140" 
d="M561 1190h180l267 262h-289zM627 1075q83 0 159.5 -27t139.5 -79t101 -139t38 -197q0 -176 -74.5 -323.5t-211 -235.5t-306.5 -88q-66 0 -128 16t-119 51t-99 85.5t-67 125t-25 164.5q0 175 75 323t211.5 236t305.5 88zM866 625q0 136 -72.5 208t-181.5 72
q-114 0 -202.5 -70t-132.5 -175.5t-44 -223.5q0 -135 72.5 -207.5t181.5 -72.5q115 0 203.5 70t132 175.5t43.5 223.5z" />
    <glyph glyph-name="ocircumflex" unicode="&#xf4;" horiz-adv-x="1140" 
d="M825 1180l-161 174l-222 -174h-168l213 272h371l127 -272h-160zM627 1075q83 0 159.5 -27t139.5 -79t101 -139t38 -197q0 -176 -74.5 -323.5t-211 -235.5t-306.5 -88q-66 0 -128 16t-119 51t-99 85.5t-67 125t-25 164.5q0 175 75 323t211.5 236t305.5 88zM866 625
q0 136 -72.5 208t-181.5 72q-114 0 -202.5 -70t-132.5 -175.5t-44 -223.5q0 -135 72.5 -207.5t181.5 -72.5q115 0 203.5 70t132 175.5t43.5 223.5z" />
    <glyph glyph-name="otilde" unicode="&#xf5;" horiz-adv-x="1140" 
d="M926 1434h92q0 -101 -60.5 -163.5t-158.5 -62.5q-51 0 -100.5 24t-83 52t-79.5 52t-90 24q-45 0 -72.5 -23.5t-25.5 -54.5h-92q0 100 60 162.5t159 62.5q51 0 100.5 -24t83 -52.5t79 -52.5t89.5 -24q45 0 73 24.5t26 55.5zM627 1075q83 0 159.5 -27t139.5 -79t101 -139
t38 -197q0 -176 -74.5 -323.5t-211 -235.5t-306.5 -88q-66 0 -128 16t-119 51t-99 85.5t-67 125t-25 164.5q0 175 75 323t211.5 236t305.5 88zM866 625q0 136 -72.5 208t-181.5 72q-114 0 -202.5 -70t-132.5 -175.5t-44 -223.5q0 -135 72.5 -207.5t181.5 -72.5
q115 0 203.5 70t132 175.5t43.5 223.5z" />
    <glyph glyph-name="odieresis" unicode="&#xf6;" horiz-adv-x="1140" 
d="M356 1452h213l-28 -197h-215zM807 1452h213l-29 -197h-213zM627 1075q83 0 159.5 -27t139.5 -79t101 -139t38 -197q0 -176 -74.5 -323.5t-211 -235.5t-306.5 -88q-66 0 -128 16t-119 51t-99 85.5t-67 125t-25 164.5q0 175 75 323t211.5 236t305.5 88zM866 625
q0 136 -72.5 208t-181.5 72q-114 0 -202.5 -70t-132.5 -175.5t-44 -223.5q0 -135 72.5 -207.5t181.5 -72.5q115 0 203.5 70t132 175.5t43.5 223.5z" />
    <glyph glyph-name="divide" unicode="&#xf7;" horiz-adv-x="892" 
d="M504 807q-45 0 -71 31.5t-19 76.5q5 34 33 58t63 24q43 0 68.5 -32t19.5 -76q-4 -34 -32 -58t-62 -24zM80 643h768l-25 -147h-768zM399 143q-44 0 -70.5 32.5t-19.5 78.5q5 32 33.5 56t63.5 24q43 0 69.5 -32t18.5 -75q-4 -35 -32.5 -59.5t-62.5 -24.5z" />
    <glyph glyph-name="oslash" unicode="&#xf8;" horiz-adv-x="1140" 
d="M913 979q152 -122 152 -346q0 -176 -74.5 -323.5t-211 -235.5t-306.5 -88q-90 0 -172 30l-76 -118h-178l125 194q-137 120 -137 336q0 175 75 323t211.5 236t305.5 88q79 0 155 -24l84 133h178zM233 436q0 -103 46 -174l405 635q-31 8 -72 8q-114 0 -202.5 -70
t-132.5 -175.5t-44 -223.5zM487 156q115 0 203.5 70t132 175.5t43.5 223.5q0 121 -57 190l-410 -645q38 -14 88 -14z" />
    <glyph glyph-name="ugrave" unicode="&#xf9;" horiz-adv-x="1159" 
d="M752 1190h-185l-225 262h293zM913 1065h207l-168 -1065h-207l35 219q-20 -35 -53 -71t-81.5 -74t-116 -62t-140.5 -24q-179 0 -269 104t-54 330l102 643h207l-103 -643q-40 -256 187 -256q63 0 123.5 25.5t104.5 64.5t75.5 80t48.5 78z" />
    <glyph glyph-name="uacute" unicode="&#xfa;" horiz-adv-x="1159" 
d="M1024 1452l-266 -262h-180l157 262h289zM913 1065h207l-168 -1065h-207l35 219q-20 -35 -53 -71t-81.5 -74t-116 -62t-140.5 -24q-179 0 -269 104t-54 330l102 643h207l-103 -643q-40 -256 187 -256q63 0 123.5 25.5t104.5 64.5t75.5 80t48.5 78z" />
    <glyph glyph-name="ucircumflex" unicode="&#xfb;" horiz-adv-x="1159" 
d="M680 1354l-221 -174h-168l213 272h370l127 -272h-159zM913 1065h207l-168 -1065h-207l35 219q-20 -35 -53 -71t-81.5 -74t-116 -62t-140.5 -24q-179 0 -269 104t-54 330l102 643h207l-103 -643q-40 -256 187 -256q63 0 123.5 25.5t104.5 64.5t75.5 80t48.5 78z" />
    <glyph glyph-name="udieresis" unicode="&#xfc;" horiz-adv-x="1159" 
d="M586 1452l-29 -197h-215l31 197h213zM1036 1452l-28 -197h-213l28 197h213zM913 1065h207l-168 -1065h-207l35 219q-20 -35 -53 -71t-81.5 -74t-116 -62t-140.5 -24q-179 0 -269 104t-54 330l102 643h207l-103 -643q-40 -256 187 -256q63 0 123.5 25.5t104.5 64.5
t75.5 80t48.5 78z" />
    <glyph glyph-name="yacute" unicode="&#xfd;" horiz-adv-x="1099" 
d="M559 1190h180l267 262h-289zM918 1065h215l-641 -1137q-109 -196 -227 -268t-294 -49l29 174q115 -14 187.5 33t121.5 141q23 43 29 64.5t0 56.5l-244 985h205l182 -813z" />
    <glyph glyph-name="thorn" unicode="&#xfe;" horiz-adv-x="1167" 
d="M707 1077q78 0 146 -25.5t122.5 -76t86.5 -134.5t32 -192q0 -130 -39.5 -251t-108.5 -213t-171.5 -147.5t-221.5 -55.5q-70 0 -127 19t-92.5 50t-56.5 65.5t-29 71.5l-94 -577h-207l289 1823h206l-86 -539q120 182 351 182zM522 152q115 0 201 74.5t127 184.5t41 234
q0 131 -65 196.5t-169 65.5q-118 0 -205.5 -72t-129 -180t-41.5 -233q0 -134 66.5 -202t174.5 -68z" />
    <glyph glyph-name="ydieresis" unicode="&#xff;" horiz-adv-x="1099" 
d="M354 1452h213l-28 -197h-215zM805 1452h213l-29 -197h-213zM918 1065h215l-641 -1137q-109 -196 -227 -268t-294 -49l29 174q115 -14 187.5 33t121.5 141q23 43 29 64.5t0 56.5l-244 985h205l182 -813z" />
    <glyph glyph-name="Amacron" unicode="&#x100;" horiz-adv-x="1423" 
d="M1243 1821l-20 -125h-664l19 125h665zM1047 0l-70 336h-608l-179 -336h-233l786 1434h197l338 -1434h-231zM453 498h489l-139 661z" />
    <glyph glyph-name="amacron" unicode="&#x101;" horiz-adv-x="1142" 
d="M373 1452h665l-20 -125h-664zM623 1075q232 0 322.5 -98.5t58.5 -310.5l-72 -465q-6 -42 11.5 -60t60.5 -16l-21 -121q-40 -12 -84 -12q-89 0 -135 41.5t-29 116.5l10 47q-14 -20 -30.5 -40t-54.5 -53t-80 -57t-105.5 -42.5t-132.5 -18.5q-146 0 -236 71t-90 207
q0 84 29.5 146.5t87 102t129 63t168.5 36.5q15 2 78.5 10t89.5 12t73 12.5t78 17.5t56 20q22 131 -28.5 182.5t-166.5 51.5q-107 0 -167 -36.5t-87 -111.5h-196q40 157 151 231t312 74zM745 338l37 221q-18 -7 -41 -13t-42 -10.5t-55.5 -11t-55 -9.5t-68.5 -11.5t-71 -11.5
q-116 -19 -171 -67t-55 -134q0 -73 45.5 -113.5t130.5 -40.5q54 0 105.5 16.5t88.5 39.5t70.5 52.5t51.5 51.5t30 41z" />
    <glyph glyph-name="Abreve" unicode="&#x102;" horiz-adv-x="1423" 
d="M854 1540q-154 0 -222 79t-48 202h135q-8 -70 28 -108t119 -38q86 0 138 38.5t67 107.5h139q-21 -130 -109 -205.5t-247 -75.5zM1047 0l-70 336h-608l-179 -336h-233l786 1434h197l338 -1434h-231zM453 498h489l-139 661z" />
    <glyph glyph-name="abreve" unicode="&#x103;" horiz-adv-x="1142" 
d="M649 1171q-154 0 -222 79t-48 202h135q-8 -69 28.5 -107t119.5 -38q86 0 137.5 38t66.5 107h140q-21 -130 -109.5 -205.5t-247.5 -75.5zM1004 666l-72 -465q-6 -42 11.5 -60t60.5 -16l-21 -121q-40 -12 -84 -12q-89 0 -135 41.5t-29 116.5l10 47q-14 -20 -30.5 -40
t-54.5 -53t-80 -57t-105.5 -42.5t-132.5 -18.5q-146 0 -236 71t-90 207q0 84 29.5 146.5t87 102t129 63t168.5 36.5q15 2 78.5 10t89.5 12t73 12.5t78 17.5t56 20q22 131 -28.5 182.5t-166.5 51.5q-107 0 -167 -36.5t-87 -111.5h-196q40 157 151 231t312 74
q232 0 322.5 -98.5t58.5 -310.5zM745 338l37 221q-18 -7 -41 -13t-42 -10.5t-55.5 -11t-55 -9.5t-68.5 -11.5t-71 -11.5q-116 -19 -171 -67t-55 -134q0 -73 45.5 -113.5t130.5 -40.5q54 0 105.5 16.5t88.5 39.5t70.5 52.5t51.5 51.5t30 41z" />
    <glyph glyph-name="Aogonek" unicode="&#x104;" horiz-adv-x="1423" 
d="M1208 0q-143 -42 -218 -107.5t-85 -136.5q-9 -57 36.5 -73t133.5 8l-4 -101q-41 -19 -92 -27.5t-103 -3t-93.5 24t-63 60t-12.5 100.5q11 65 68 120.5t128 88.5t144 47l-70 336h-608l-179 -336h-233l786 1434h197l338 -1434h-70zM453 498h489l-139 661z" />
    <glyph glyph-name="aogonek" unicode="&#x105;" horiz-adv-x="1118" 
d="M1004 666l-72 -465q-6 -42 11.5 -60t60.5 -16l-21 -121q-8 -2 -35 -8q-123 -42 -181 -101t-58 -124q0 -62 50.5 -83t135.5 3v-94q-48 -24 -112 -32t-125.5 2.5t-103.5 53.5t-42 113q0 69 50 128t116.5 92t138.5 48h4q-52 15 -75 53.5t-11 94.5l10 47q-14 -20 -30.5 -40
t-54.5 -53t-80 -57t-105.5 -42.5t-132.5 -18.5q-146 0 -236 71t-90 207q0 84 29.5 146.5t87 102t129 63t168.5 36.5q15 2 78.5 10t89.5 12t73 12.5t78 17.5t56 20q22 131 -28.5 182.5t-166.5 51.5q-107 0 -167 -36.5t-87 -111.5h-196q40 157 151 231t312 74
q232 0 322.5 -98.5t58.5 -310.5zM745 338l37 221q-18 -7 -41 -13t-42 -10.5t-55.5 -11t-55 -9.5t-68.5 -11.5t-71 -11.5q-116 -19 -171 -67t-55 -134q0 -73 45.5 -113.5t130.5 -40.5q54 0 105.5 16.5t88.5 39.5t70.5 52.5t51.5 51.5t30 41z" />
    <glyph glyph-name="Cacute" unicode="&#x106;" horiz-adv-x="1341" 
d="M750 1559h180l266 262h-289zM641 170q270 0 383 225h213q-66 -197 -236.5 -305t-392.5 -108q-250 0 -394 143t-144 416q0 145 33 280t98.5 249.5t157 200t216.5 133.5t269 48q220 0 355 -108t138 -304h-213q-19 108 -96 166t-211 58q-99 0 -185 -40.5t-146.5 -109.5
t-103.5 -159.5t-64 -190.5t-21 -203q0 -193 90.5 -292t253.5 -99z" />
    <glyph glyph-name="cacute" unicode="&#x107;" horiz-adv-x="1073" 
d="M537 1190h180l266 262h-289zM481 156q198 0 285 178h192q-130 -348 -491 -348q-86 0 -162 25.5t-138 76t-98 135t-36 193.5q0 182 73 332t208.5 238.5t306.5 88.5q363 0 399 -350h-189q-14 93 -65.5 136.5t-153.5 43.5q-88 0 -161.5 -42t-120 -111.5t-72 -155
t-25.5 -176.5q0 -129 68.5 -196.5t179.5 -67.5z" />
    <glyph glyph-name="Cdotaccent" unicode="&#x10a;" horiz-adv-x="1341" 
d="M778 1821h213l-28 -197h-215zM641 170q270 0 383 225h213q-66 -197 -236.5 -305t-392.5 -108q-250 0 -394 143t-144 416q0 145 33 280t98.5 249.5t157 200t216.5 133.5t269 48q220 0 355 -108t138 -304h-213q-19 108 -96 166t-211 58q-99 0 -185 -40.5t-146.5 -109.5
t-103.5 -159.5t-64 -190.5t-21 -203q0 -193 90.5 -292t253.5 -99z" />
    <glyph glyph-name="cdotaccent" unicode="&#x10b;" horiz-adv-x="1073" 
d="M565 1452h213l-28 -197h-215zM481 156q198 0 285 178h192q-130 -348 -491 -348q-86 0 -162 25.5t-138 76t-98 135t-36 193.5q0 182 73 332t208.5 238.5t306.5 88.5q363 0 399 -350h-189q-14 93 -65.5 136.5t-153.5 43.5q-88 0 -161.5 -42t-120 -111.5t-72 -155
t-25.5 -176.5q0 -129 68.5 -196.5t179.5 -67.5z" />
    <glyph glyph-name="Ccaron" unicode="&#x10c;" horiz-adv-x="1341" 
d="M1065 1821h168l-213 -273h-371l-127 273h160l164 -174zM641 170q270 0 383 225h213q-66 -197 -236.5 -305t-392.5 -108q-250 0 -394 143t-144 416q0 145 33 280t98.5 249.5t157 200t216.5 133.5t269 48q220 0 355 -108t138 -304h-213q-19 108 -96 166t-211 58
q-99 0 -185 -40.5t-146.5 -109.5t-103.5 -159.5t-64 -190.5t-21 -203q0 -193 90.5 -292t253.5 -99z" />
    <glyph glyph-name="ccaron" unicode="&#x10d;" horiz-adv-x="1073" 
d="M852 1452h168l-213 -272h-371l-127 272h160l164 -174zM481 156q198 0 285 178h192q-130 -348 -491 -348q-86 0 -162 25.5t-138 76t-98 135t-36 193.5q0 182 73 332t208.5 238.5t306.5 88.5q363 0 399 -350h-189q-14 93 -65.5 136.5t-153.5 43.5q-88 0 -161.5 -42
t-120 -111.5t-72 -155t-25.5 -176.5q0 -129 68.5 -196.5t179.5 -67.5z" />
    <glyph glyph-name="Dcaron" unicode="&#x10e;" horiz-adv-x="1345" 
d="M1030 1821h168l-213 -273h-371l-127 273h160l164 -174zM715 1434q286 0 435.5 -144.5t149.5 -419.5q0 -259 -91.5 -454t-273.5 -305.5t-433 -110.5h-482l226 1434h469zM502 197q145 0 258 50.5t184 142t107 213.5t36 269q0 189 -100 277t-309 88h-246l-164 -1040h234z
" />
    <glyph glyph-name="dcaron" unicode="&#x10f;" horiz-adv-x="1433" 
d="M584 1075q132 0 212 -65t97 -150l90 574h207l-227 -1434h-207l30 182q-129 -196 -354 -196q-78 0 -148 26t-127 77t-90.5 136t-33.5 193q0 129 40 248.5t111 210t175.5 144.5t224.5 54zM1188 1130h164l247 304h-241zM483 156q89 0 162 40.5t119 108.5t71 153t25 177
q0 133 -67 201.5t-175 68.5q-120 0 -209 -69.5t-131 -176.5t-42 -233q0 -133 70 -201.5t177 -68.5z" />
    <glyph glyph-name="Dcroat" unicode="&#x110;" horiz-adv-x="1400" 
d="M770 1434q287 0 436.5 -145t149.5 -419q0 -259 -92 -454t-274 -305.5t-433 -110.5h-481l100 635h-108l24 147h107l102 652h469zM557 197q117 0 213 33t165 93t116 144t69.5 186t22.5 219q0 189 -100.5 277t-309.5 88h-246l-71 -455h387l-25 -147h-385l-69 -438h233z" />
    <glyph glyph-name="dcroat" unicode="&#x111;" horiz-adv-x="1232" 
d="M1337 1321l-22 -125h-162l-190 -1196h-207l30 182q-129 -196 -354 -196q-78 0 -148 26t-127 77t-90.5 136t-33.5 193q0 129 40 248.5t111 210t175.5 144.5t224.5 54q132 0 212 -65t97 -150l53 336h-278l22 125h275l18 113h207l-19 -113h166zM483 156q89 0 162 40.5
t119 108.5t71 153t25 177q0 133 -67 201.5t-175 68.5q-120 0 -209 -69.5t-131 -176.5t-42 -233q0 -133 70 -201.5t177 -68.5z" />
    <glyph glyph-name="Emacron" unicode="&#x112;" horiz-adv-x="1148" 
d="M473 1821h666l-21 -125h-663zM1169 1245h-737l-67 -424h634l-26 -176h-637l-72 -457h760l-31 -188h-975l228 1434h954z" />
    <glyph glyph-name="emacron" unicode="&#x113;" horiz-adv-x="1118" 
d="M1049 1452l-21 -125h-663l18 125h666zM625 1075q87 0 161.5 -26.5t133 -78t91.5 -135.5t33 -192q0 -36 -6.5 -95.5t-15.5 -90.5h-795v-33q0 -143 72.5 -212t198.5 -69q91 0 152 27t110 84h198q-82 -142 -199.5 -205t-285.5 -63q-89 0 -166.5 26.5t-139.5 78.5t-98 137.5
t-36 193.5q0 181 75 330t211 236t306 87zM846 590q8 33 8 80q0 116 -67.5 182t-178.5 66q-141 0 -233 -92t-127 -236h598z" />
    <glyph glyph-name="Edotaccent" unicode="&#x116;" horiz-adv-x="1148" 
d="M688 1821h213l-29 -197h-215zM1169 1245h-737l-67 -424h634l-26 -176h-637l-72 -457h760l-31 -188h-975l228 1434h954z" />
    <glyph glyph-name="edotaccent" unicode="&#x117;" horiz-adv-x="1118" 
d="M811 1452l-29 -197h-215l31 197h213zM1022 457h-795v-33q0 -143 72.5 -212t198.5 -69q91 0 152 27t110 84h198q-82 -142 -199.5 -205t-285.5 -63q-89 0 -166.5 26.5t-139.5 78.5t-98 137.5t-36 193.5q0 181 75 330t211 236t306 87q87 0 161.5 -26.5t133 -78t91.5 -135.5
t33 -192q0 -36 -6.5 -95.5t-15.5 -90.5zM608 918q-141 0 -233 -92t-127 -236h598q8 33 8 80q0 116 -67.5 182t-178.5 66z" />
    <glyph glyph-name="Eogonek" unicode="&#x118;" horiz-adv-x="1159" 
d="M1169 1245h-737l-67 -424h634l-26 -176h-637l-72 -457h760l-31 -188h11q-143 -42 -220 -107.5t-88 -136.5q-9 -57 37 -73t135 8l-6 -101q-41 -19 -92 -27.5t-103 -3t-93 24t-62.5 60t-11.5 100.5q9 64 65 120.5t122 88.5t132 47h-801l228 1434h954z" />
    <glyph glyph-name="eogonek" unicode="&#x119;" horiz-adv-x="1107" 
d="M618 1077q88 0 162 -26t131.5 -77.5t90 -136t32.5 -194.5q0 -63 -12 -137l-8 -45h-783v-37q0 -138 70.5 -205t187.5 -67q168 0 267 108h202q-71 -122 -162.5 -186.5t-213.5 -83.5q-131 -40 -202 -104t-81 -132q-17 -111 170 -65l-4 -101q-52 -23 -118 -29t-126.5 6.5
t-96.5 58.5t-24 118q14 84 98 149.5t191 96.5q-73 11 -135.5 42.5t-112.5 83.5t-79 131.5t-29 178.5q0 179 74 328t209 237t302 88zM608 907q-131 0 -222 -83.5t-130 -219.5h580q2 18 2 49q0 129 -60 191.5t-170 62.5z" />
    <glyph glyph-name="Ecaron" unicode="&#x11a;" horiz-adv-x="1148" 
d="M975 1821h168l-213 -273h-371l-127 273h160l164 -174zM1169 1245h-737l-67 -424h634l-26 -176h-637l-72 -457h760l-31 -188h-975l228 1434h954z" />
    <glyph glyph-name="ecaron" unicode="&#x11b;" horiz-adv-x="1107" 
d="M825 1161h-372l-127 273h161l162 -174l219 174h168zM618 1077q88 0 162 -26t131.5 -77.5t90 -136t32.5 -194.5q0 -63 -12 -137l-8 -45h-783v-37q0 -138 70.5 -205t187.5 -67q168 0 267 108h202q-86 -149 -204 -213.5t-287 -64.5q-84 0 -160 26.5t-138 78t-99 138.5
t-37 199q0 179 74 328t209 237t302 88zM608 907q-131 0 -222 -83.5t-130 -219.5h580q2 18 2 49q0 129 -60 191.5t-170 62.5z" />
    <glyph glyph-name="Gbreve" unicode="&#x11e;" horiz-adv-x="1384" 
d="M1077 1821h140q-21 -130 -109.5 -205.5t-247.5 -75.5q-154 0 -222 79t-48 202h135q-8 -70 28 -108t119 -38q86 0 138 38.5t67 107.5zM797 752h540l-14 -88q-56 -339 -230 -510.5t-477 -171.5q-255 0 -400.5 142t-145.5 413q0 146 32.5 281.5t98 250.5t157 200.5
t216.5 134t270 48.5q220 0 355 -108t138 -304h-213q-19 108 -96 166t-211 58q-99 0 -185 -40.5t-146.5 -109t-103.5 -159t-64 -192t-21 -206.5q0 -191 91.5 -289t258.5 -98q388 0 467 410h-344z" />
    <glyph glyph-name="gbreve" unicode="&#x11f;" horiz-adv-x="1169" 
d="M922 1452h139q-21 -130 -109 -205.5t-247 -75.5q-154 0 -222.5 79.5t-48.5 201.5h135q-8 -69 28.5 -107t119.5 -38q86 0 138 38t67 107zM1130 1065l-165 -1055q-18 -112 -63 -197t-102 -134t-131 -79.5t-140 -40.5t-140 -10q-155 0 -264 61.5t-148 162.5l136 69
q31 -56 100.5 -88.5t177.5 -32.5q160 0 250 72.5t119 237.5l26 151q-128 -194 -354 -194q-78 0 -148 26t-127 76.5t-90.5 135t-33.5 192.5q0 126 40.5 245t111 210.5t175 146.5t224.5 55q69 0 126.5 -19t94.5 -51t59.5 -69t30.5 -76l29 205h206zM483 158q89 0 162 41
t119 109.5t71 153t25 175.5q0 131 -67 199.5t-175 68.5q-73 0 -135.5 -27.5t-107 -74t-76.5 -108t-47.5 -130.5t-15.5 -141q0 -131 70 -198.5t177 -67.5z" />
    <glyph glyph-name="Gdotaccent" unicode="&#x120;" horiz-adv-x="1384" 
d="M799 1821h213l-29 -197h-215zM797 752h540l-14 -88q-56 -339 -230 -510.5t-477 -171.5q-255 0 -400.5 142t-145.5 413q0 146 32.5 281.5t98 250.5t157 200.5t216.5 134t270 48.5q220 0 355 -108t138 -304h-213q-19 108 -96 166t-211 58q-99 0 -185 -40.5t-146.5 -109
t-103.5 -159t-64 -192t-21 -206.5q0 -191 91.5 -289t258.5 -98q388 0 467 410h-344z" />
    <glyph glyph-name="gdotaccent" unicode="&#x121;" horiz-adv-x="1169" 
d="M643 1452h213l-29 -197h-215zM1130 1065l-165 -1055q-18 -112 -63 -197t-102 -134t-131 -79.5t-140 -40.5t-140 -10q-155 0 -264 61.5t-148 162.5l136 69q31 -56 100.5 -88.5t177.5 -32.5q160 0 250 72.5t119 237.5l26 151q-128 -194 -354 -194q-78 0 -148 26t-127 76.5
t-90.5 135t-33.5 192.5q0 126 40.5 245t111 210.5t175 146.5t224.5 55q69 0 126.5 -19t94.5 -51t59.5 -69t30.5 -76l29 205h206zM483 158q89 0 162 41t119 109.5t71 153t25 175.5q0 131 -67 199.5t-175 68.5q-73 0 -135.5 -27.5t-107 -74t-76.5 -108t-47.5 -130.5
t-15.5 -141q0 -131 70 -198.5t177 -67.5z" />
    <glyph glyph-name="Gcommaaccent" unicode="&#x122;" horiz-adv-x="1384" 
d="M797 752h540l-14 -88q-56 -339 -230 -510.5t-477 -171.5q-255 0 -400.5 142t-145.5 413q0 146 32.5 281.5t98 250.5t157 200.5t216.5 134t270 48.5q220 0 355 -108t138 -304h-213q-19 108 -96 166t-211 58q-99 0 -185 -40.5t-146.5 -109t-103.5 -159t-64 -192t-21 -206.5
q0 -191 91.5 -289t258.5 -98q388 0 467 410h-344zM397 -664l11 68q54 18 82.5 62.5t39.5 117.5l11 64h-95l39 250h236l-43 -281q-13 -85 -42 -142.5t-69.5 -86t-80.5 -40t-89 -12.5z" />
    <glyph glyph-name="gcommaaccent" unicode="&#x123;" horiz-adv-x="1169" 
d="M809 1790l-10 -68q-101 -34 -123 -180l-10 -63h94l-39 -250h-236l43 280q13 85 42 142.5t69.5 86t80.5 40t89 12.5zM1130 1065l-165 -1055q-18 -112 -63 -197t-102 -134t-131 -79.5t-140 -40.5t-140 -10q-155 0 -264 61.5t-148 162.5l136 69q31 -56 100.5 -88.5
t177.5 -32.5q160 0 250 72.5t119 237.5l26 151q-128 -194 -354 -194q-78 0 -148 26t-127 76.5t-90.5 135t-33.5 192.5q0 126 40.5 245t111 210.5t175 146.5t224.5 55q69 0 126.5 -19t94.5 -51t59.5 -69t30.5 -76l29 205h206zM483 158q89 0 162 41t119 109.5t71 153t25 175.5
q0 131 -67 199.5t-175 68.5q-73 0 -135.5 -27.5t-107 -74t-76.5 -108t-47.5 -130.5t-15.5 -141q0 -131 70 -198.5t177 -67.5z" />
    <glyph glyph-name="Hbar" unicode="&#x126;" horiz-adv-x="1355" 
d="M1149 1434h217l-227 -1434h-217l98 618h-686l-98 -618h-218l228 1434h217l-47 -299h686zM362 795h687l26 172h-686z" />
    <glyph glyph-name="hbar" unicode="&#x127;" horiz-adv-x="1259" 
d="M834 1075q67 0 121.5 -14t99.5 -45.5t70.5 -81.5t35 -122.5t-7.5 -168.5l-102 -643h-207l102 645q22 138 -30 197t-162 59q-68 0 -130 -26.5t-104.5 -67.5t-70.5 -82t-41 -78l-103 -647h-207l178 1137h-149l18 120h150l29 177h206l-28 -177h205l-19 -120h-205l-47 -299
q16 33 48.5 70.5t82 76.5t120.5 64.5t147 25.5z" />
    <glyph glyph-name="Imacron" unicode="&#x12a;" horiz-adv-x="454" 
d="M96 1821h666l-21 -125h-663zM238 0h-218l226 1434h217z" />
    <glyph glyph-name="imacron" unicode="&#x12b;" horiz-adv-x="413" 
d="M20 1452h666l-20 -125h-664zM176 1065h207l-168 -1065h-207z" />
    <glyph glyph-name="Iogonek" unicode="&#x12e;" horiz-adv-x="507" 
d="M293 1434h223l-225 -1434h-60q-142 -42 -218 -107t-87 -137q-9 -57 37 -73t135 8l-4 -101q-41 -19 -93 -27.5t-103.5 -3t-93 24t-63 60t-11.5 100.5q9 64 66 120t127.5 88.5t144.5 47.5z" />
    <glyph glyph-name="iogonek" unicode="&#x12f;" horiz-adv-x="544" 
d="M365 1452h213l-33 -197h-213zM102 0l168 1065h207l-168 -1065h-45q-143 -42 -218 -107.5t-85 -136.5q-9 -57 36.5 -73t133.5 8l-4 -101q-41 -19 -92.5 -27.5t-103 -3t-93.5 24t-63.5 60t-12.5 100.5q11 65 68 120.5t128 88.5t144 47z" />
    <glyph glyph-name="Idotaccent" unicode="&#x130;" horiz-adv-x="454" 
d="M311 1821h213l-28 -197h-215zM238 0h-218l226 1434h217z" />
    <glyph glyph-name="dotlessi" unicode="&#x131;" horiz-adv-x="413" 
d="M176 1065h207l-168 -1065h-207z" />
    <glyph glyph-name="IJ" unicode="&#x132;" horiz-adv-x="1488" 
d="M238 0h-218l226 1434h217zM543 305q87 -129 272 -129q56 0 104 15.5t93 50t77.5 100.5t47.5 158l147 934h217l-149 -942q-21 -135 -73 -235t-127 -158t-162 -85.5t-187 -27.5q-274 0 -397 184z" />
    <glyph glyph-name="Kcommaaccent" unicode="&#x136;" horiz-adv-x="1353" 
d="M1391 1434l-689 -656l517 -778h-244l-426 631l-252 -238l-61 -393h-218l228 1434h217l-119 -752l793 752h254zM424 -360l39 251h264l-47 -286q-13 -85 -44.5 -142.5t-76.5 -85t-86.5 -38t-93.5 -11.5v68q50 19 77 64.5t40 121.5l10 58h-82z" />
    <glyph glyph-name="kcommaaccent" unicode="&#x137;" horiz-adv-x="1128" 
d="M1118 1065l-534 -473l428 -592h-226l-344 465l-176 -156l-49 -309h-207l226 1434h206l-137 -869l561 500h252zM311 -352l39 250h236l-43 -281q-13 -85 -42 -142.5t-69.5 -86t-80.5 -40t-89 -12.5l10 68q101 34 123 180l11 64h-95z" />
    <glyph glyph-name="Lacute" unicode="&#x139;" horiz-adv-x="1138" 
d="M274 1559h181l266 262h-289zM264 188h709l-31 -188h-924l228 1434h217z" />
    <glyph glyph-name="lacute" unicode="&#x13a;" horiz-adv-x="436" 
d="M260 1559h178l269 262h-289zM227 1434h207l-225 -1434h-207z" />
    <glyph glyph-name="Lcommaaccent" unicode="&#x13b;" horiz-adv-x="1138" 
d="M264 188h709l-31 -188h-924l228 1434h217zM272 -664l11 68q101 34 123 180l10 64h-94l38 250h236l-43 -281q-13 -85 -42 -142.5t-69.5 -86t-80.5 -40t-89 -12.5z" />
    <glyph glyph-name="lcommaaccent" unicode="&#x13c;" horiz-adv-x="483" 
d="M268 1434h207l-225 -1434h-207zM-88 -672v68q51 19 77.5 64t39.5 122l10 58h-82l39 251h264l-45 -286q-11 -69 -35.5 -120t-53.5 -80t-67.5 -47t-72.5 -23.5t-74 -6.5z" />
    <glyph glyph-name="Lcaron" unicode="&#x13d;" horiz-adv-x="1138" 
d="M264 188h709l-31 -188h-924l228 1434h217zM600 870l-2 70q97 35 119 184l8 58h-82l39 252h264l-47 -287q-11 -69 -35 -120t-52.5 -79.5t-67 -46.5t-71.5 -24t-73 -7z" />
    <glyph glyph-name="lcaron" unicode="&#x13e;" horiz-adv-x="739" 
d="M236 1434h206l-225 -1434h-207zM483 870v70q95 34 117 184l8 58h-82l39 252h264l-45 -287q-11 -69 -35.5 -120t-53 -79.5t-67.5 -46.5t-72 -24t-73 -7z" />
    <glyph glyph-name="Lslash" unicode="&#x141;" horiz-adv-x="1200" 
d="M326 188h708l-30 -188h-924l74 459l-162 -142l28 213l168 148l119 756h217l-84 -533l250 223h4l-30 -213l-261 -229z" />
    <glyph glyph-name="lslash" unicode="&#x142;" horiz-adv-x="620" 
d="M657 1114l-30 -213l-205 -186l-113 -715h-207l78 498l-176 -160l31 215l180 162l113 719h207l-78 -502z" />
    <glyph glyph-name="Nacute" unicode="&#x143;" horiz-adv-x="1384" 
d="M768 1559h180l266 262h-288zM1395 1434l-228 -1434h-229l-526 1085h-6l-170 -1085h-218l228 1434h221l532 -1096h7l172 1096h217z" />
    <glyph glyph-name="nacute" unicode="&#x144;" horiz-adv-x="1157" 
d="M596 1190h180l266 262h-288zM733 1075q85 0 149 -23t111.5 -74.5t61.5 -134.5t-2 -204l-103 -639h-207l103 641q44 260 -193 260q-68 0 -130 -27t-104.5 -69t-70.5 -83.5t-41 -78.5l-102 -643h-207l168 1065h207l-37 -231q16 33 48.5 71t81.5 78t120 66t147 26z" />
    <glyph glyph-name="Ncommaaccent" unicode="&#x145;" horiz-adv-x="1384" 
d="M1395 1434l-228 -1434h-229l-526 1085h-6l-170 -1085h-218l228 1434h221l532 -1096h7l172 1096h217zM395 -664l11 68q54 18 82.5 62.5t39.5 117.5l11 64h-95l39 250h236l-43 -281q-13 -85 -42 -142.5t-69.5 -86t-80.5 -40t-89 -12.5z" />
    <glyph glyph-name="ncommaaccent" unicode="&#x146;" horiz-adv-x="1157" 
d="M733 1075q85 0 149 -23t111.5 -74.5t61.5 -134.5t-2 -204l-103 -639h-207l103 641q44 260 -193 260q-68 0 -130 -27t-104.5 -69t-70.5 -83.5t-41 -78.5l-102 -643h-207l168 1065h207l-37 -231q16 33 48.5 71t81.5 78t120 66t147 26zM283 -664l10 68q101 34 123 180l10 64
h-94l39 250h235l-43 -281q-13 -85 -42 -142.5t-69 -86t-80 -40t-89 -12.5z" />
    <glyph glyph-name="Ncaron" unicode="&#x147;" horiz-adv-x="1384" 
d="M1083 1821h168l-213 -273h-370l-127 273h159l164 -174zM1395 1434l-228 -1434h-229l-526 1085h-6l-170 -1085h-218l228 1434h221l532 -1096h7l172 1096h217z" />
    <glyph glyph-name="ncaron" unicode="&#x148;" horiz-adv-x="1157" 
d="M911 1452h168l-213 -272h-370l-127 272h159l164 -174zM733 1075q85 0 149 -23t111.5 -74.5t61.5 -134.5t-2 -204l-103 -639h-207l103 641q44 260 -193 260q-68 0 -130 -27t-104.5 -69t-70.5 -83.5t-41 -78.5l-102 -643h-207l168 1065h207l-37 -231q16 33 48.5 71t81.5 78
t120 66t147 26z" />
    <glyph glyph-name="Eng" unicode="&#x14a;" horiz-adv-x="1384" 
d="M1178 1434h217l-219 -1379q-21 -135 -73.5 -235t-127 -158t-161.5 -85.5t-187 -27.5q-275 0 -398 185l138 135q87 -129 272 -129q238 0 305 248l-532 1097h-6l-170 -1085h-218l228 1434h221l532 -1096h7l102 659z" />
    <glyph glyph-name="eng" unicode="&#x14b;" horiz-adv-x="1157" 
d="M733 1079q85 0 149 -23t111.5 -74.5t61.5 -134.5t-2 -204l-127 -797q-48 -297 -310 -297q-124 0 -206 54l28 168q68 -39 142 -39q66 0 100.5 44t48.5 134l117 735q44 260 -193 260q-68 0 -130 -27t-104.5 -69t-70.5 -83.5t-41 -78.5l-102 -647h-207l168 1065h207
l-37 -227q16 33 48.5 71t81.5 78t120 66t147 26z" />
    <glyph glyph-name="Omacron" unicode="&#x14c;" horiz-adv-x="1462" 
d="M621 1821h665l-20 -125h-664zM856 1452q256 0 405.5 -146.5t149.5 -412.5q0 -147 -34.5 -283.5t-102.5 -250t-162 -198t-220.5 -132t-270.5 -47.5q-254 0 -402.5 146t-148.5 411q0 186 54.5 352t153.5 290.5t248.5 197.5t329.5 73zM649 170q103 0 191 39.5t150.5 107.5
t107.5 158t66.5 192.5t21.5 209.5q0 187 -94 287t-263 100q-103 0 -191 -39.5t-150 -108t-106.5 -159t-65.5 -192.5t-21 -210q0 -187 93 -286t261 -99z" />
    <glyph glyph-name="omacron" unicode="&#x14d;" horiz-adv-x="1140" 
d="M375 1452h665l-20 -125h-664zM627 1075q83 0 159.5 -27t139.5 -79t101 -139t38 -197q0 -176 -74.5 -323.5t-211 -235.5t-306.5 -88q-66 0 -128 16t-119 51t-99 85.5t-67 125t-25 164.5q0 175 75 323t211.5 236t305.5 88zM866 625q0 136 -72.5 208t-181.5 72
q-114 0 -202.5 -70t-132.5 -175.5t-44 -223.5q0 -135 72.5 -207.5t181.5 -72.5q115 0 203.5 70t132 175.5t43.5 223.5z" />
    <glyph glyph-name="Ohungarumlaut" unicode="&#x150;" horiz-adv-x="1462" 
d="M621 1559h184l225 262h-293zM987 1559h184l226 262h-293zM856 1452q256 0 405.5 -146.5t149.5 -412.5q0 -147 -34.5 -283.5t-102.5 -250t-162 -198t-220.5 -132t-270.5 -47.5q-254 0 -402.5 146t-148.5 411q0 186 54.5 352t153.5 290.5t248.5 197.5t329.5 73zM649 170
q103 0 191 39.5t150.5 107.5t107.5 158t66.5 192.5t21.5 209.5q0 187 -94 287t-263 100q-103 0 -191 -39.5t-150 -108t-106.5 -159t-65.5 -192.5t-21 -210q0 -187 93 -286t261 -99z" />
    <glyph glyph-name="ohungarumlaut" unicode="&#x151;" horiz-adv-x="1140" 
d="M375 1190h184l225 262h-292zM741 1190h185l225 262h-293zM627 1075q83 0 159.5 -27t139.5 -79t101 -139t38 -197q0 -176 -74.5 -323.5t-211 -235.5t-306.5 -88q-66 0 -128 16t-119 51t-99 85.5t-67 125t-25 164.5q0 175 75 323t211.5 236t305.5 88zM866 625
q0 136 -72.5 208t-181.5 72q-114 0 -202.5 -70t-132.5 -175.5t-44 -223.5q0 -135 72.5 -207.5t181.5 -72.5q115 0 203.5 70t132 175.5t43.5 223.5z" />
    <glyph glyph-name="OE" unicode="&#x152;" horiz-adv-x="2199" 
d="M2220 1245h-737l-68 -424h635l-27 -176h-637l-71 -457h760l-31 -188h-975l23 145q-200 -163 -471 -163q-254 0 -402.5 146t-148.5 411q0 186 54.5 352t153.5 290.5t248.5 197.5t329.5 73q270 0 418 -160l22 142h955zM649 170q103 0 191 39.5t150.5 107.5t107.5 158
t66.5 192.5t21.5 209.5q0 187 -94 287t-263 100q-103 0 -191 -39.5t-150 -108t-106.5 -159t-65.5 -192.5t-21 -210q0 -187 93 -286t261 -99z" />
    <glyph glyph-name="oe" unicode="&#x153;" horiz-adv-x="1929" 
d="M1044 457q-1 -2 -2 -7t-2 -8v-18q0 -143 72.5 -212t198.5 -69q91 0 152 27t110 84h199q-82 -142 -200 -205t-286 -63q-123 0 -223.5 49.5t-157.5 146.5q-80 -93 -191 -144.5t-241 -51.5q-66 0 -128 16t-119 51t-99 85.5t-67 125t-25 164.5q0 175 75 323t211.5 236
t305.5 88q114 0 216 -50.5t161 -147.5q79 94 191 146t243 52q87 0 161.5 -26.5t133 -78t92 -135.5t33.5 -192q0 -35 -7 -95t-16 -91h-791zM1421 918q-137 0 -227.5 -86.5t-128.5 -225.5q0 -10 -2 -16h596q8 33 8 80q0 116 -67.5 182t-178.5 66zM487 156q135 0 230 91.5
t131 231.5q3 61 18 117v29q0 136 -72.5 208t-181.5 72q-114 0 -202.5 -70t-132.5 -175.5t-44 -223.5q0 -135 72.5 -207.5t181.5 -72.5z" />
    <glyph glyph-name="Racute" unicode="&#x154;" horiz-adv-x="1314" 
d="M1184 1821l-266 -262h-181l158 262h289zM979 664q99 -32 144.5 -88t45.5 -144q0 -34 -19.5 -167t-19.5 -173q0 -59 17 -92h-213q-19 31 -19 94q0 42 17.5 160t17.5 147q0 83 -56.5 122.5t-150.5 39.5h-419l-88 -563h-218l228 1434h579q225 0 335 -89t110 -247
q0 -154 -76 -265t-215 -169zM731 737q146 0 229.5 90t83.5 226q0 192 -249 192h-363l-80 -508h379z" />
    <glyph glyph-name="racute" unicode="&#x155;" horiz-adv-x="788" 
d="M840 1452l-267 -262h-180l158 262h289zM330 795q40 123 143.5 201.5t247.5 78.5q47 0 88 -8l-29 -180q-31 2 -67 2q-166 0 -269.5 -84.5t-148.5 -233.5l-90 -571h-207l168 1065h207z" />
    <glyph glyph-name="Rcommaaccent" unicode="&#x156;" horiz-adv-x="1314" 
d="M979 664q99 -32 144.5 -88t45.5 -144q0 -34 -19.5 -167t-19.5 -173q0 -59 17 -92h-213q-19 31 -19 94q0 42 17.5 160t17.5 147q0 83 -56.5 122.5t-150.5 39.5h-419l-88 -563h-218l228 1434h579q225 0 335 -89t110 -247q0 -154 -76 -265t-215 -169zM731 737
q146 0 229.5 90t83.5 226q0 192 -249 192h-363l-80 -508h379zM414 -352l39 250h235l-43 -281q-13 -85 -42 -142.5t-69 -86t-80 -40t-89 -12.5l10 68q101 34 123 180l10 64h-94z" />
    <glyph glyph-name="rcommaaccent" unicode="&#x157;" horiz-adv-x="788" 
d="M721 1075q47 0 88 -8l-29 -180q-31 2 -67 2q-166 0 -269.5 -84.5t-148.5 -233.5l-90 -571h-207l168 1065h207l-43 -270q40 123 143.5 201.5t247.5 78.5zM-70 -352l39 250h236l-43 -281q-13 -85 -42 -142.5t-69.5 -86t-80.5 -40t-89 -12.5l10 68q101 34 123 180l11 64h-95
z" />
    <glyph glyph-name="Rcaron" unicode="&#x158;" horiz-adv-x="1314" 
d="M1008 1548h-371l-127 273h160l164 -174l219 174h168zM979 664q99 -32 144.5 -88t45.5 -144q0 -34 -19.5 -167t-19.5 -173q0 -59 17 -92h-213q-19 31 -19 94q0 42 17.5 160t17.5 147q0 83 -56.5 122.5t-150.5 39.5h-419l-88 -563h-218l228 1434h579q225 0 335 -89
t110 -247q0 -154 -76 -265t-215 -169zM731 737q146 0 229.5 90t83.5 226q0 192 -249 192h-363l-80 -508h379z" />
    <glyph glyph-name="rcaron" unicode="&#x159;" horiz-adv-x="788" 
d="M664 1180h-371l-127 272h160l163 -174l220 174h168zM330 795q40 123 143.5 201.5t247.5 78.5q47 0 88 -8l-29 -180q-31 2 -67 2q-166 0 -269.5 -84.5t-148.5 -233.5l-90 -571h-207l168 1065h207z" />
    <glyph glyph-name="Sacute" unicode="&#x15a;" horiz-adv-x="1277" 
d="M698 1559h181l266 262h-289zM786 803q195 -40 288 -121.5t93 -235.5q0 -146 -78.5 -252t-214 -159t-311.5 -53q-254 0 -388 122t-120 330h226q1 -58 15.5 -104t47 -85t93 -60t145.5 -21q163 0 258.5 70.5t95.5 193.5q0 87 -54.5 133.5t-162.5 69.5l-195 39
q-342 74 -342 342q0 202 151.5 321t414.5 119q235 0 358.5 -105.5t114.5 -293.5h-222q0 101 -66.5 160t-205.5 59q-151 0 -235 -66t-84 -172q0 -153 188 -192z" />
    <glyph glyph-name="sacute" unicode="&#x15b;" horiz-adv-x="1009" 
d="M512 1190h180l266 262h-288zM760 774q-22 144 -217 144q-108 0 -174 -45.5t-66 -118.5q0 -51 31.5 -81.5t103.5 -49.5l166 -41q59 -14 95.5 -25.5t78 -30.5t63.5 -42t37 -58.5t15 -81.5q0 -90 -38.5 -160t-105.5 -112.5t-153.5 -64t-187.5 -21.5q-195 0 -304.5 83.5
t-105.5 247.5h190q8 -176 232 -176q115 0 190.5 48.5t75.5 134.5q0 51 -33.5 77t-107.5 45l-172 41q-138 34 -205.5 99t-67.5 166q0 146 127.5 234.5t325.5 88.5q184 0 283.5 -79t105.5 -222h-182z" />
    <glyph glyph-name="Scedilla" unicode="&#x15e;" horiz-adv-x="1277" 
d="M727 1272q-151 0 -235 -66t-84 -172q0 -153 188 -192l190 -39q195 -40 288 -121.5t93 -235.5q0 -202 -143 -322.5t-381 -139.5l-94 -99q79 3 137.5 -39.5t58.5 -121.5q0 -47 -18.5 -82.5t-49.5 -57.5t-77 -35.5t-94.5 -18.5t-108.5 -5v90q189 3 189 102q0 53 -47 67.5
t-103 -20.5l-51 82l86 140q-211 23 -319.5 142t-96.5 306h226q1 -58 15.5 -104t47 -85t93 -60t145.5 -21q163 0 258.5 70.5t95.5 193.5q0 87 -54.5 133.5t-162.5 69.5l-195 39q-342 74 -342 342q0 202 151.5 321t414.5 119q235 0 358.5 -105.5t114.5 -293.5h-222
q0 101 -66.5 160t-205.5 59z" />
    <glyph glyph-name="scedilla" unicode="&#x15f;" horiz-adv-x="1009" 
d="M604 582q59 -14 95.5 -25.5t78 -30.5t63.5 -42t37 -58.5t15 -81.5q0 -155 -107.5 -244.5t-283.5 -109.5l-101 -105q79 3 138 -39.5t59 -121.5q0 -47 -18.5 -82.5t-49.5 -57.5t-77 -35.5t-94.5 -18.5t-108.5 -5v90q188 3 188 102q0 53 -47 67.5t-102 -20.5l-51 82l88 144
q-159 15 -245.5 97.5t-82.5 229.5h190q8 -176 232 -176q115 0 190.5 48.5t75.5 134.5q0 51 -33.5 77t-107.5 45l-172 41q-138 34 -205.5 99t-67.5 166q0 146 127.5 234.5t325.5 88.5q184 0 283.5 -79t105.5 -222h-182q-22 144 -217 144q-108 0 -174 -45.5t-66 -118.5
q0 -51 31.5 -81.5t103.5 -49.5z" />
    <glyph glyph-name="Scaron" unicode="&#x160;" horiz-adv-x="1277" 
d="M1014 1821h168l-213 -273h-371l-127 273h160l164 -174zM786 803q195 -40 288 -121.5t93 -235.5q0 -146 -78.5 -252t-214 -159t-311.5 -53q-254 0 -388 122t-120 330h226q1 -58 15.5 -104t47 -85t93 -60t145.5 -21q163 0 258.5 70.5t95.5 193.5q0 87 -54.5 133.5
t-162.5 69.5l-195 39q-342 74 -342 342q0 202 151.5 321t414.5 119q235 0 358.5 -105.5t114.5 -293.5h-222q0 101 -66.5 160t-205.5 59q-151 0 -235 -66t-84 -172q0 -153 188 -192z" />
    <glyph glyph-name="scaron" unicode="&#x161;" horiz-adv-x="1009" 
d="M827 1452h168l-213 -272h-370l-127 272h159l164 -174zM760 774q-22 144 -217 144q-108 0 -174 -45.5t-66 -118.5q0 -51 31.5 -81.5t103.5 -49.5l166 -41q59 -14 95.5 -25.5t78 -30.5t63.5 -42t37 -58.5t15 -81.5q0 -90 -38.5 -160t-105.5 -112.5t-153.5 -64t-187.5 -21.5
q-195 0 -304.5 83.5t-105.5 247.5h190q8 -176 232 -176q115 0 190.5 48.5t75.5 134.5q0 51 -33.5 77t-107.5 45l-172 41q-138 34 -205.5 99t-67.5 166q0 146 127.5 234.5t325.5 88.5q184 0 283.5 -79t105.5 -222h-182z" />
    <glyph glyph-name="uni0162" unicode="&#x162;" horiz-adv-x="1208" 
d="M184 1434h1096l-31 -189h-440l-197 -1245h11l-140 -115q77 -2 127 -49.5t37 -128.5q-10 -56 -42 -93.5t-85.5 -56.5t-111.5 -26.5t-136 -7.5l4 90q192 3 211 115q9 46 -34.5 55.5t-100.5 -25.5l-45 86l101 156h-11l197 1245h-440z" />
    <glyph glyph-name="uni0163" unicode="&#x163;" horiz-adv-x="702" 
d="M455 901l-105 -653q-8 -48 8.5 -68t65.5 -20q69 0 141 16l-26 -164q-38 -15 -109 -22l-98 -105q79 3 137.5 -39.5t58.5 -121.5q0 -47 -18.5 -82.5t-49.5 -57.5t-77 -35.5t-94.5 -18.5t-108.5 -5v90q189 3 189 102q0 53 -47.5 67.5t-102.5 -20.5l-51 82l94 152
q-73 20 -104.5 79.5t-12.5 174.5l103 649h-168l24 164h170l41 266h207l-43 -266h215l-26 -164h-213z" />
    <glyph glyph-name="Tcaron" unicode="&#x164;" horiz-adv-x="1208" 
d="M973 1821h168l-213 -273h-371l-127 273h160l164 -174zM1280 1434l-31 -189h-440l-197 -1245h-215l197 1245h-440l30 189h1096z" />
    <glyph glyph-name="tcaron" unicode="&#x165;" horiz-adv-x="684" 
d="M737 1434h252l-266 -304h-162zM522 1331l-43 -266h215l-26 -164h-213l-105 -653q-8 -48 8.5 -68t65.5 -20q69 0 141 16l-26 -164q-71 -26 -179 -26q-46 0 -81 7t-66.5 24.5t-48 48t-24.5 76.5t5 110l103 649h-168l24 164h170l41 266h207z" />
    <glyph glyph-name="Tbar" unicode="&#x166;" horiz-adv-x="1208" 
d="M1249 1245h-440l-33 -211h225l-18 -127h-227l-144 -907h-215l144 907h-226l19 127h227l33 211h-440l30 189h1096z" />
    <glyph glyph-name="tbar" unicode="&#x167;" horiz-adv-x="704" 
d="M670 901h-213l-23 -133h213l-24 -164h-213l-58 -356q-8 -48 8.5 -68t65.5 -20q69 0 141 16l-26 -164q-71 -26 -179 -26q-46 0 -81 7t-66.5 24.5t-48 48t-24.5 76.5t5 110l56 352h-168l22 164h172l21 133h-168l24 164h170l41 266h207l-43 -266h215z" />
    <glyph glyph-name="Utilde" unicode="&#x168;" horiz-adv-x="1363" 
d="M1122 1802h92q0 -101 -60.5 -163t-158.5 -62q-42 0 -81.5 15.5t-70.5 38t-61.5 45t-66.5 38t-72 15.5q-45 0 -72.5 -23.5t-25.5 -54.5h-92q0 100 60 162.5t159 62.5q42 0 81.5 -16t70.5 -38.5t61.5 -45t66.5 -38.5t72 -16q45 0 72.5 24.5t25.5 55.5zM1374 1434l-139 -881
q-42 -265 -218.5 -415t-434.5 -150q-260 0 -389 149.5t-87 415.5l140 881h217l-139 -871q-29 -188 45 -287.5t241 -99.5q166 0 272.5 99.5t137.5 287.5l137 871h217z" />
    <glyph glyph-name="utilde" unicode="&#x169;" horiz-adv-x="1159" 
d="M463 1360q-45 0 -72.5 -23.5t-25.5 -54.5h-93q0 100 60.5 162.5t159.5 62.5q51 0 100.5 -24t83 -52.5t79 -52.5t89.5 -24q45 0 72.5 24.5t25.5 55.5h92q0 -101 -60.5 -163.5t-158.5 -62.5q-51 0 -100.5 24t-83 52t-79 52t-89.5 24zM913 1065h207l-168 -1065h-207l35 219
q-20 -35 -53 -71t-81.5 -74t-116 -62t-140.5 -24q-179 0 -269 104t-54 330l102 643h207l-103 -643q-40 -256 187 -256q63 0 123.5 25.5t104.5 64.5t75.5 80t48.5 78z" />
    <glyph glyph-name="Umacron" unicode="&#x16a;" horiz-adv-x="1363" 
d="M571 1821h666l-20 -125h-664zM1374 1434l-139 -881q-42 -265 -218.5 -415t-434.5 -150q-260 0 -389 149.5t-87 415.5l140 881h217l-139 -871q-29 -188 45 -287.5t241 -99.5q166 0 272.5 99.5t137.5 287.5l137 871h217z" />
    <glyph glyph-name="umacron" unicode="&#x16b;" horiz-adv-x="1159" 
d="M1057 1452l-21 -125h-663l18 125h666zM913 1065h207l-168 -1065h-207l35 219q-20 -35 -53 -71t-81.5 -74t-116 -62t-140.5 -24q-179 0 -269 104t-54 330l102 643h207l-103 -643q-40 -256 187 -256q63 0 123.5 25.5t104.5 64.5t75.5 80t48.5 78z" />
    <glyph glyph-name="Ubreve" unicode="&#x16c;" horiz-adv-x="1363" 
d="M1065 1821h139q-21 -130 -109 -205.5t-247 -75.5q-154 0 -222 79t-48 202h135q-8 -70 28 -108t119 -38q86 0 138 38.5t67 107.5zM1374 1434l-139 -881q-42 -265 -218.5 -415t-434.5 -150q-260 0 -389 149.5t-87 415.5l140 881h217l-139 -871q-29 -188 45 -287.5
t241 -99.5q166 0 272.5 99.5t137.5 287.5l137 871h217z" />
    <glyph glyph-name="ubreve" unicode="&#x16d;" horiz-adv-x="1159" 
d="M668 1171q-154 0 -222.5 79.5t-48.5 201.5h135q-8 -69 28.5 -107t119.5 -38q86 0 138 38t67 107h139q-21 -130 -109 -205.5t-247 -75.5zM913 1065h207l-168 -1065h-207l35 219q-20 -35 -53 -71t-81.5 -74t-116 -62t-140.5 -24q-179 0 -269 104t-54 330l102 643h207
l-103 -643q-40 -256 187 -256q63 0 123.5 25.5t104.5 64.5t75.5 80t48.5 78z" />
    <glyph glyph-name="Uring" unicode="&#x16e;" horiz-adv-x="1363" 
d="M862 1559q-74 0 -122 46.5t-48 116.5q0 82 60.5 142.5t144.5 60.5q70 0 117 -47.5t47 -118.5q0 -79 -61 -139.5t-138 -60.5zM870 1653q37 0 67 30t30 68q0 34 -22.5 57t-57.5 23q-40 0 -70.5 -29.5t-30.5 -68.5q0 -34 23 -57t61 -23zM1374 1434l-139 -881
q-42 -265 -218.5 -415t-434.5 -150q-260 0 -389 149.5t-87 415.5l140 881h217l-139 -871q-29 -188 45 -287.5t241 -99.5q166 0 272.5 99.5t137.5 287.5l137 871h217z" />
    <glyph glyph-name="uring" unicode="&#x16f;" horiz-adv-x="1159" 
d="M682 1190q-74 0 -122 47t-48 117q0 82 60.5 142t144.5 60q70 0 117 -47t47 -118q0 -79 -61 -140t-138 -61zM707 1462q-40 0 -70.5 -29.5t-30.5 -68.5q0 -34 23 -57t61 -23q37 0 66.5 30t29.5 68q0 34 -22 57t-57 23zM913 1065h207l-168 -1065h-207l35 219
q-20 -35 -53 -71t-81.5 -74t-116 -62t-140.5 -24q-179 0 -269 104t-54 330l102 643h207l-103 -643q-40 -256 187 -256q63 0 123.5 25.5t104.5 64.5t75.5 80t48.5 78z" />
    <glyph glyph-name="Uhungarumlaut" unicode="&#x170;" horiz-adv-x="1363" 
d="M571 1559h185l225 262h-293zM938 1559h184l226 262h-293zM1374 1434l-139 -881q-42 -265 -218.5 -415t-434.5 -150q-260 0 -389 149.5t-87 415.5l140 881h217l-139 -871q-29 -188 45 -287.5t241 -99.5q166 0 272.5 99.5t137.5 287.5l137 871h217z" />
    <glyph glyph-name="uhungarumlaut" unicode="&#x171;" horiz-adv-x="1159" 
d="M801 1452l-226 -262h-184l117 262h293zM942 1190h-184l116 262h293zM811 414l102 651h207l-168 -1065h-207l35 219q-20 -35 -53 -71t-81.5 -74t-116 -62t-140.5 -24q-179 0 -269 104t-54 330l102 643h207l-103 -643q-40 -256 187 -256q63 0 123.5 25.5t104.5 64.5
t75.5 80t48.5 78z" />
    <glyph glyph-name="Uogonek" unicode="&#x172;" horiz-adv-x="1363" 
d="M1157 1434h217l-139 -881q-36 -230 -174.5 -374.5t-347.5 -180.5h24q-142 -42 -217.5 -106.5t-85.5 -135.5q-9 -57 36.5 -73t133.5 8l-4 -101q-41 -19 -92 -27.5t-103 -3t-93 24t-62.5 60t-11.5 100.5q13 84 96 149.5t190 96.5q-232 17 -344.5 165t-73.5 398l140 881h217
l-139 -871q-29 -188 45 -287.5t241 -99.5q166 0 272.5 99.5t137.5 287.5z" />
    <glyph glyph-name="uogonek" unicode="&#x173;" horiz-adv-x="1159" 
d="M1120 1065l-168 -1065h-129l80 -2q-143 -42 -218.5 -106.5t-86.5 -135.5q-9 -57 37.5 -73.5t134.5 8.5l-4 -101q-41 -19 -92.5 -27.5t-103.5 -3t-94 24t-63.5 60t-11.5 100.5q16 95 119 165t221 93h4l35 217q-20 -34 -53 -70t-81.5 -73.5t-116 -61.5t-140.5 -24
q-86 0 -151 22.5t-112.5 73.5t-61.5 133.5t2 202.5l102 643h207l-103 -643q-22 -138 29 -195t158 -57q65 0 127 26.5t106 67t74.5 82t44.5 78.5l-8 -59l110 700h207z" />
    <glyph glyph-name="Wcircumflex" unicode="&#x174;" horiz-adv-x="2080" 
d="M1352 1548l-162 174l-221 -174h-168l213 273h370l127 -273h-159zM1913 1434h229l-639 -1434h-203l-184 1112l-541 -1112h-202l-189 1434h224l122 -1110l523 1110h215l168 -1110z" />
    <glyph glyph-name="wcircumflex" unicode="&#x175;" horiz-adv-x="1628" 
d="M1090 1180l-162 174l-221 -174h-168l213 272h370l127 -272h-159zM1661 1065l-479 -1065h-187l-157 815l-412 -815h-188l-144 1065h205l90 -807l402 807h165l144 -807l348 807h213z" />
    <glyph glyph-name="Ycircumflex" unicode="&#x176;" horiz-adv-x="1386" 
d="M1034 1548l-162 174l-221 -174h-168l213 273h371l127 -273h-160zM803 549l-86 -549h-221l86 549l-398 885h242l283 -676l497 676h242z" />
    <glyph glyph-name="ycircumflex" unicode="&#x177;" horiz-adv-x="1099" 
d="M823 1180l-161 174l-222 -174h-168l213 272h371l127 -272h-160zM918 1065h215l-641 -1137q-109 -196 -227 -268t-294 -49l29 174q115 -14 187.5 33t121.5 141q23 43 29 64.5t0 56.5l-244 985h205l182 -813z" />
    <glyph glyph-name="Ydieresis" unicode="&#x178;" horiz-adv-x="1386" 
d="M565 1821h213l-28 -197h-215zM1016 1821h213l-29 -197h-213zM803 549l-86 -549h-221l86 549l-398 885h242l283 -676l497 676h242z" />
    <glyph glyph-name="Zacute" unicode="&#x179;" horiz-adv-x="1234" 
d="M678 1559h180l266 262h-288zM1100 188l-31 -188h-1092l27 170l1000 1075h-811l30 189h1065l-26 -170l-1000 -1076h838z" />
    <glyph glyph-name="zacute" unicode="&#x17a;" horiz-adv-x="1011" 
d="M489 1190h181l266 262h-289zM240 176h620l-26 -176h-863l25 176l735 713h-600l29 176h841l-26 -176z" />
    <glyph glyph-name="Zdotaccent" unicode="&#x17b;" horiz-adv-x="1234" 
d="M707 1821h213l-29 -197h-215zM1100 188l-31 -188h-1092l27 170l1000 1075h-811l30 189h1065l-26 -170l-1000 -1076h838z" />
    <glyph glyph-name="zdotaccent" unicode="&#x17c;" horiz-adv-x="1011" 
d="M518 1452h213l-29 -197h-215zM240 176h620l-26 -176h-863l25 176l735 713h-600l29 176h841l-26 -176z" />
    <glyph glyph-name="Zcaron" unicode="&#x17d;" horiz-adv-x="1234" 
d="M993 1821h168l-213 -273h-370l-127 273h159l164 -174zM1100 188l-31 -188h-1092l27 170l1000 1075h-811l30 189h1065l-26 -170l-1000 -1076h838z" />
    <glyph glyph-name="zcaron" unicode="&#x17e;" horiz-adv-x="1011" 
d="M805 1452h168l-213 -272h-371l-127 272h160l164 -174zM240 176h620l-26 -176h-863l25 176l735 713h-600l29 176h841l-26 -176z" />
    <glyph glyph-name="florin" unicode="&#x192;" horiz-adv-x="620" 
d="M653 1257q-83 0 -132 -53t-68 -162l-27 -170h160l-29 -180h-160l-116 -739q-30 -192 -131.5 -271t-292.5 -71l26 178q168 0 199 215l108 688h-153l29 180h153l35 222q29 183 133 267t295 75z" />
    <glyph glyph-name="uni01CD" unicode="&#x1cd;" horiz-adv-x="1423" 
d="M1034 1548h-370l-127 273h159l164 -174l219 174h168zM1047 0l-70 336h-608l-179 -336h-233l786 1434h197l338 -1434h-231zM453 498h489l-139 661z" />
    <glyph glyph-name="uni01CE" unicode="&#x1ce;" horiz-adv-x="1142" 
d="M829 1180h-370l-127 272h160l163 -174l219 174h168zM623 1075q232 0 322.5 -98.5t58.5 -310.5l-72 -465q-6 -42 11.5 -60t60.5 -16l-21 -121q-40 -12 -84 -12q-89 0 -135 41.5t-29 116.5l10 47q-14 -20 -30.5 -40t-54.5 -53t-80 -57t-105.5 -42.5t-132.5 -18.5
q-146 0 -236 71t-90 207q0 84 29.5 146.5t87 102t129 63t168.5 36.5q15 2 78.5 10t89.5 12t73 12.5t78 17.5t56 20q22 131 -28.5 182.5t-166.5 51.5q-107 0 -167 -36.5t-87 -111.5h-196q40 157 151 231t312 74zM745 338l37 221q-18 -7 -41 -13t-42 -10.5t-55.5 -11t-55 -9.5
t-68.5 -11.5t-71 -11.5q-116 -19 -171 -67t-55 -134q0 -73 45.5 -113.5t130.5 -40.5q54 0 105.5 16.5t88.5 39.5t70.5 52.5t51.5 51.5t30 41z" />
    <glyph glyph-name="uni01CF" unicode="&#x1cf;" horiz-adv-x="454" 
d="M598 1821h168l-213 -273h-371l-127 273h160l164 -174zM238 0h-218l226 1434h217z" />
    <glyph glyph-name="uni01D0" unicode="&#x1d0;" horiz-adv-x="413" 
d="M522 1452h168l-213 -272h-371l-126 272h159l164 -174zM176 1065h207l-168 -1065h-207z" />
    <glyph glyph-name="uni01D1" unicode="&#x1d1;" horiz-adv-x="1462" 
d="M1122 1821h168l-213 -273h-370l-127 273h159l164 -174zM856 1452q256 0 405.5 -146.5t149.5 -412.5q0 -147 -34.5 -283.5t-102.5 -250t-162 -198t-220.5 -132t-270.5 -47.5q-254 0 -402.5 146t-148.5 411q0 186 54.5 352t153.5 290.5t248.5 197.5t329.5 73zM649 170
q103 0 191 39.5t150.5 107.5t107.5 158t66.5 192.5t21.5 209.5q0 187 -94 287t-263 100q-103 0 -191 -39.5t-150 -108t-106.5 -159t-65.5 -192.5t-21 -210q0 -187 93 -286t261 -99z" />
    <glyph glyph-name="uni01D2" unicode="&#x1d2;" horiz-adv-x="1140" 
d="M877 1452h167l-213 -272h-370l-127 272h160l163 -174zM627 1075q83 0 159.5 -27t139.5 -79t101 -139t38 -197q0 -176 -74.5 -323.5t-211 -235.5t-306.5 -88q-66 0 -128 16t-119 51t-99 85.5t-67 125t-25 164.5q0 175 75 323t211.5 236t305.5 88zM866 625q0 136 -72.5 208
t-181.5 72q-114 0 -202.5 -70t-132.5 -175.5t-44 -223.5q0 -135 72.5 -207.5t181.5 -72.5q115 0 203.5 70t132 175.5t43.5 223.5z" />
    <glyph glyph-name="uni01D3" unicode="&#x1d3;" horiz-adv-x="1363" 
d="M1073 1821h168l-213 -273h-371l-127 273h160l164 -174zM1374 1434l-139 -881q-42 -265 -218.5 -415t-434.5 -150q-260 0 -389 149.5t-87 415.5l140 881h217l-139 -871q-29 -188 45 -287.5t241 -99.5q166 0 272.5 99.5t137.5 287.5l137 871h217z" />
    <glyph glyph-name="uni01D4" unicode="&#x1d4;" horiz-adv-x="1159" 
d="M848 1180h-371l-127 272h160l164 -174l219 174h168zM913 1065h207l-168 -1065h-207l35 219q-20 -35 -53 -71t-81.5 -74t-116 -62t-140.5 -24q-179 0 -269 104t-54 330l102 643h207l-103 -643q-40 -256 187 -256q63 0 123.5 25.5t104.5 64.5t75.5 80t48.5 78z" />
    <glyph glyph-name="uni01EA" unicode="&#x1ea;" horiz-adv-x="1462" 
d="M1411 893q0 -216 -72.5 -402.5t-214 -317.5t-331.5 -173h6q-146 -42 -223 -107.5t-87 -136.5q-9 -57 36.5 -73t133.5 8l-4 -101q-41 -19 -92 -27.5t-103 -3t-93.5 24t-63 60t-12.5 100.5q13 81 89.5 144.5t176.5 95.5q-227 19 -357 163t-130 392q0 186 54.5 352
t153.5 290.5t248.5 197.5t329.5 73q256 0 405.5 -146.5t149.5 -412.5zM649 170q103 0 191 39.5t150.5 107.5t107.5 158t66.5 192.5t21.5 209.5q0 187 -94 287t-263 100q-103 0 -191 -39.5t-150 -108t-106.5 -159t-65.5 -192.5t-21 -210q0 -187 93 -286t261 -99z" />
    <glyph glyph-name="uni01EB" unicode="&#x1eb;" horiz-adv-x="1126" 
d="M618 1077q73 0 140.5 -20.5t128 -63.5t100.5 -109.5t57 -158t-2 -209.5q-18 -112 -62 -203.5t-106 -153.5t-131.5 -102t-146.5 -59h2q-143 -42 -218.5 -106.5t-86.5 -135.5q-9 -57 37 -73t135 8l-6 -101q-41 -19 -92.5 -27.5t-103 -3t-93 24t-63 60t-11.5 100.5
q13 84 95 148.5t190 97.5q-81 14 -148.5 53.5t-118.5 105t-71 167.5t0 227q17 110 61 201t102 151.5t129.5 102.5t142 60.5t140.5 18.5zM842 543q29 181 -38.5 272.5t-189.5 91.5q-131 0 -235.5 -99t-136.5 -292q-29 -181 38 -272.5t191 -91.5q62 0 120.5 23.5t109.5 69.5
t88 122.5t53 175.5z" />
    <glyph glyph-name="Scommaaccent" unicode="&#x218;" horiz-adv-x="1277" 
d="M786 803q195 -40 288 -121.5t93 -235.5q0 -146 -78.5 -252t-214 -159t-311.5 -53q-254 0 -388 122t-120 330h226q1 -58 15.5 -104t47 -85t93 -60t145.5 -21q163 0 258.5 70.5t95.5 193.5q0 87 -54.5 133.5t-162.5 69.5l-195 39q-342 74 -342 342q0 202 151.5 321
t414.5 119q235 0 358.5 -105.5t114.5 -293.5h-222q0 101 -66.5 160t-205.5 59q-151 0 -235 -66t-84 -172q0 -153 188 -192zM346 -664l10 68q101 34 123 180l10 64h-94l39 250h236l-43 -281q-13 -85 -42 -142.5t-69.5 -86t-80.5 -40t-89 -12.5z" />
    <glyph glyph-name="scommaaccent" unicode="&#x219;" horiz-adv-x="1009" 
d="M760 774q-22 144 -217 144q-108 0 -174 -45.5t-66 -118.5q0 -51 31.5 -81.5t103.5 -49.5l166 -41q59 -14 95.5 -25.5t78 -30.5t63.5 -42t37 -58.5t15 -81.5q0 -90 -38.5 -160t-105.5 -112.5t-153.5 -64t-187.5 -21.5q-195 0 -304.5 83.5t-105.5 247.5h190
q8 -176 232 -176q115 0 190.5 48.5t75.5 134.5q0 51 -33.5 77t-107.5 45l-172 41q-138 34 -205.5 99t-67.5 166q0 146 127.5 234.5t325.5 88.5q184 0 283.5 -79t105.5 -222h-182zM199 -664l10 68q101 34 123 180l10 64h-94l39 250h235l-43 -281q-13 -85 -42 -142.5t-69 -86
t-80 -40t-89 -12.5z" />
    <glyph glyph-name="uni021A" unicode="&#x21a;" horiz-adv-x="1208" 
d="M1280 1434l-31 -189h-440l-197 -1245h-215l197 1245h-440l30 189h1096zM303 -672v68q52 19 79 64.5t38 121.5l10 58h-82l39 251h264l-45 -286q-11 -69 -35.5 -120t-53.5 -80t-67.5 -47t-72.5 -23.5t-74 -6.5z" />
    <glyph glyph-name="uni021B" unicode="&#x21b;" horiz-adv-x="702" 
d="M455 901l-105 -653q-8 -48 8.5 -68t65.5 -20q69 0 141 16l-26 -164q-71 -26 -179 -26q-46 0 -81 7t-66.5 24.5t-48 48t-24.5 76.5t5 110l103 649h-168l24 164h170l41 266h207l-43 -266h215l-26 -164h-213zM178 -352l39 250h236l-43 -281q-13 -85 -42 -142.5t-69.5 -86
t-80.5 -40t-89 -12.5l10 68q101 34 123 180l10 64h-94z" />
    <glyph glyph-name="uni0237" unicode="&#x237;" horiz-adv-x="458" 
d="M-272 -229q68 -39 141 -39q65 0 100 44t49 134l183 1155h207l-193 -1219q-48 -297 -309 -297q-124 0 -209 54z" />
    <glyph glyph-name="circumflex" unicode="&#x2c6;" horiz-adv-x="710" 
d="M653 1180l-161 174l-222 -174h-168l213 272h371l127 -272h-160z" />
    <glyph glyph-name="caron" unicode="&#x2c7;" horiz-adv-x="710" 
d="M688 1452h168l-213 -272h-371l-127 272h160l164 -174z" />
    <glyph glyph-name="breve" unicode="&#x2d8;" horiz-adv-x="626" 
d="M633 1452h139q-21 -130 -109 -205.5t-247 -75.5q-154 0 -222.5 79.5t-48.5 201.5h136q-8 -69 28 -107t119 -38q86 0 138 38t67 107z" />
    <glyph glyph-name="dotaccent" unicode="&#x2d9;" horiz-adv-x="215" 
d="M145 1452h213l-28 -197h-215z" />
    <glyph glyph-name="ring" unicode="&#x2da;" horiz-adv-x="368" 
d="M303 1190q-74 0 -122 47t-48 117q0 82 60.5 142t144.5 60q70 0 117 -47t47 -118q0 -79 -61 -140t-138 -61zM311 1284q37 0 67 30t30 68q0 34 -22.5 57t-57.5 23q-40 0 -70.5 -29.5t-30.5 -68.5q0 -34 23 -57t61 -23z" />
    <glyph glyph-name="ogonek" unicode="&#x2db;" horiz-adv-x="419" 
d="M258 -406q-38 -19 -87 -28.5t-101 -6t-95.5 20t-71.5 56t-28 96.5q0 69 50 128t116.5 92t138.5 48h152q-135 -42 -197.5 -102.5t-62.5 -128.5q0 -62 50.5 -83t135.5 3v-95z" />
    <glyph glyph-name="tilde" unicode="&#x2dc;" horiz-adv-x="745" 
d="M793 1434h92q0 -101 -60.5 -163.5t-158.5 -62.5q-51 0 -100.5 24t-83 52t-79.5 52t-90 24q-45 0 -72.5 -23.5t-25.5 -54.5h-92q0 100 60 162.5t159 62.5q51 0 100.5 -24t83 -52.5t79 -52.5t89.5 -24q45 0 73 24.5t26 55.5z" />
    <glyph glyph-name="hungarumlaut" unicode="&#x2dd;" horiz-adv-x="735" 
d="M104 1190h185l225 262h-293zM471 1190h184l226 262h-293z" />
    <glyph glyph-name="uni0326" unicode="&#x326;" horiz-adv-x="0" 
d="M-424 -664l10 68q101 34 123 180l10 64h-94l39 250h236l-43 -281q-13 -85 -42 -142.5t-69.5 -86t-80.5 -40t-89 -12.5z" />
    <glyph glyph-name="uni0394" unicode="&#x394;" horiz-adv-x="1484" 
d="M1276 0h-1296l847 1434h52zM1042 180l-235 914l-531 -914h766z" />
    <glyph glyph-name="uni03A9" unicode="&#x3a9;" horiz-adv-x="1570" 
d="M1518 831q0 -189 -90 -349t-252 -285h196l-29 -197h-442l39 264q198 142 282.5 268.5t84.5 292.5q0 128 -57.5 225t-151 146t-207.5 49q-117 0 -228 -49t-192 -129t-130.5 -188t-49.5 -220q0 -93 20.5 -156t63 -113t131.5 -126l-41 -264h-440l28 197h215
q-186 186 -186 456q0 157 67 303.5t178 254t262 172.5t312 65q170 0 310 -76.5t223.5 -218.5t83.5 -322z" />
    <glyph glyph-name="uni03BC" unicode="&#x3bc;" horiz-adv-x="1159" 
d="M913 1065h207l-168 -1065h-207l35 219q-20 -34 -53 -70t-81.5 -73.5t-116 -61.5t-140.5 -24q-109 0 -180 35l-66 -414h-206l126 801q0 2 1.5 5t1.5 5l102 643h207l-103 -649q-20 -135 31.5 -190.5t155.5 -55.5q63 0 123.5 24.5t104.5 63t75.5 79t48.5 77.5z" />
    <glyph glyph-name="pi" unicode="&#x3c0;" horiz-adv-x="1398" 
d="M1120 887l-96 -613q-10 -62 4.5 -85t56.5 -23q11 0 22 1t18.5 2t19.5 3.5t17 4t18.5 6l16.5 5.5t18.5 6.5t17.5 6.5l-21 -178q-32 -17 -88 -26t-100 -9q-54 0 -96 11.5t-73.5 37t-44.5 71t-3 107.5l106 672h-383l-139 -887h-207l140 887h-205l28 178h1205l-29 -178h-203z
" />
    <glyph glyph-name="uni0401" unicode="&#x401;" horiz-adv-x="1148" 
d="M455 1821h213l-29 -197h-215zM905 1821h213l-28 -197h-213zM1169 1245h-737l-67 -424h634l-26 -176h-637l-72 -457h760l-31 -188h-975l228 1434h954z" />
    <glyph glyph-name="uni0403" unicode="&#x403;" horiz-adv-x="1046" 
d="M588 1559h180l266 262h-289zM1118 1434l-31 -189h-655l-196 -1245h-218l228 1434h872z" />
    <glyph glyph-name="uni0404" unicode="&#x404;" horiz-adv-x="1341" 
d="M641 170q270 0 383 225h213q-66 -197 -236.5 -305t-392.5 -108q-250 0 -394 143t-144 416q0 145 33 280t98.5 249.5t157 200t216.5 133.5t269 48q220 0 355 -108t138 -304h-213q-19 108 -96 166t-211 58q-92 0 -172.5 -35t-140.5 -96.5t-103 -140t-69 -171.5h465
l-27 -176h-469q-4 -58 -4 -84q0 -193 90.5 -292t253.5 -99z" />
    <glyph glyph-name="uni0407" unicode="&#x407;" horiz-adv-x="454" 
d="M78 1821h213l-29 -197h-215zM528 1821h213l-28 -197h-213zM238 0h-218l226 1434h217z" />
    <glyph glyph-name="uni040C" unicode="&#x40c;" horiz-adv-x="1353" 
d="M1192 1821l-266 -262h-181l158 262h289zM1391 1434l-689 -656l517 -778h-244l-426 631l-252 -238l-61 -393h-218l228 1434h217l-119 -752l793 752h254z" />
    <glyph glyph-name="uni040E" unicode="&#x40e;" horiz-adv-x="1202" 
d="M977 1821h139q-21 -130 -109 -205.5t-247 -75.5q-154 0 -222.5 79.5t-48.5 201.5h136q-8 -70 28 -108t119 -38q86 0 138 38.5t67 107.5zM1022 1434h242l-637 -1115q-118 -209 -241.5 -285.5t-303.5 -56.5l31 195q114 -14 178.5 26t111.5 126q54 96 29 180l-248 930h236
l192 -768z" />
    <glyph glyph-name="uni0410" unicode="&#x410;" horiz-adv-x="1423" 
d="M1047 0l-70 336h-608l-179 -336h-233l786 1434h197l338 -1434h-231zM453 498h489l-139 661z" />
    <glyph glyph-name="uni0411" unicode="&#x411;" horiz-adv-x="1267" 
d="M705 926q229 0 345.5 -99t116.5 -278q0 -259 -160.5 -404t-437.5 -145h-551l228 1434h872l-31 -189h-655l-51 -319h324zM588 186q162 0 256 97.5t94 253.5q0 202 -252 202h-334l-88 -553h324z" />
    <glyph glyph-name="uni0412" unicode="&#x412;" horiz-adv-x="1294" 
d="M940 782q117 -32 180.5 -115t63.5 -200q0 -225 -162 -346t-430 -121h-574l228 1434h551q198 0 299.5 -82t101.5 -222q0 -124 -68.5 -216t-189.5 -132zM778 1253h-344l-63 -403h336q117 0 190.5 70t73.5 182q0 71 -48.5 111t-144.5 40zM606 182q161 0 255.5 76.5
t94.5 216.5q0 93 -64.5 149t-197.5 56h-350l-80 -498h342z" />
    <glyph glyph-name="uni0413" unicode="&#x413;" horiz-adv-x="1046" 
d="M1118 1434l-31 -189h-655l-196 -1245h-218l228 1434h872z" />
    <glyph glyph-name="uni0414" unicode="&#x414;" horiz-adv-x="1591" 
d="M1260 180h204l-51 -321h-207l23 141h-1065l-23 -141h-207l52 321h141q104 105 177.5 309.5t133.5 593.5l58 351h962zM362 180h680l168 1065h-530l-27 -174q-63 -397 -129 -595.5t-162 -295.5z" />
    <glyph glyph-name="uni0415" unicode="&#x415;" horiz-adv-x="1148" 
d="M1169 1245h-737l-67 -424h634l-26 -176h-637l-72 -457h760l-31 -188h-975l228 1434h954z" />
    <glyph glyph-name="uni0416" unicode="&#x416;" horiz-adv-x="1916" 
d="M1989 1434l-732 -705l525 -729h-246l-465 635l-100 -635h-217l102 639l-668 -639h-251l757 729l-504 705h246l447 -615l98 615h217l-96 -611l635 611h252z" />
    <glyph glyph-name="uni0417" unicode="&#x417;" horiz-adv-x="1200" 
d="M840 768q45 -6 89 -27.5t84 -57.5t64.5 -94t24.5 -128q0 -109 -46 -201t-126 -154t-187.5 -96.5t-230.5 -34.5q-241 0 -366 136.5t-85 355.5h189q-22 -142 53 -226.5t223 -84.5q156 0 264.5 86t108.5 227q0 102 -79.5 159.5t-237.5 57.5h-62l23 143h51q86 0 154 25
t106.5 65t58 85.5t19.5 91.5q0 83 -62.5 130.5t-164.5 47.5q-79 0 -144.5 -28.5t-114.5 -95.5t-65 -167h-193q33 228 172.5 348.5t354.5 120.5q194 0 306 -94.5t112 -237.5q0 -126 -80.5 -222t-212.5 -130z" />
    <glyph glyph-name="uni0418" unicode="&#x418;" horiz-adv-x="1384" 
d="M246 1434h217l-176 -1096h4l874 1096h230l-228 -1434h-217l172 1085h-4l-862 -1085h-238z" />
    <glyph glyph-name="uni0419" unicode="&#x419;" horiz-adv-x="1384" 
d="M1065 1821h139q-21 -130 -109 -205.5t-247 -75.5q-154 0 -222 79t-48 202h135q-8 -70 28 -108t119 -38q86 0 138 38.5t67 107.5zM246 1434h217l-176 -1096h4l874 1096h230l-228 -1434h-217l172 1085h-4l-862 -1085h-238z" />
    <glyph glyph-name="uni041A" unicode="&#x41a;" horiz-adv-x="1353" 
d="M1391 1434l-689 -656l517 -778h-244l-426 631l-252 -238l-61 -393h-218l228 1434h217l-119 -752l793 752h254z" />
    <glyph glyph-name="uni041B" unicode="&#x41b;" horiz-adv-x="1415" 
d="M1425 1434l-227 -1434h-217l197 1245h-568l-127 -801q-21 -129 -69.5 -222.5t-118.5 -146.5t-154.5 -75t-185.5 -14l20 188q54 -1 97.5 11.5t84.5 43.5t70 90.5t43 145.5l154 969h1001z" />
    <glyph glyph-name="uni041C" unicode="&#x41c;" horiz-adv-x="1718" 
d="M246 1434h243l316 -1153l661 1153h263l-228 -1434h-217l168 1051h-8l-590 -1051h-168l-276 1051h-9l-165 -1051h-218z" />
    <glyph glyph-name="uni041D" unicode="&#x41d;" horiz-adv-x="1355" 
d="M1149 1434h217l-227 -1434h-217l98 618h-686l-98 -618h-218l228 1434h217l-101 -639h687z" />
    <glyph glyph-name="uni041E" unicode="&#x41e;" horiz-adv-x="1462" 
d="M856 1452q256 0 405.5 -146.5t149.5 -412.5q0 -147 -34.5 -283.5t-102.5 -250t-162 -198t-220.5 -132t-270.5 -47.5q-254 0 -402.5 146t-148.5 411q0 186 54.5 352t153.5 290.5t248.5 197.5t329.5 73zM649 170q103 0 191 39.5t150.5 107.5t107.5 158t66.5 192.5
t21.5 209.5q0 187 -94 287t-263 100q-103 0 -191 -39.5t-150 -108t-106.5 -159t-65.5 -192.5t-21 -210q0 -187 93 -286t261 -99z" />
    <glyph glyph-name="uni041F" unicode="&#x41f;" horiz-adv-x="1355" 
d="M1366 1434l-227 -1434h-217l196 1245h-686l-196 -1245h-218l228 1434h1120z" />
    <glyph glyph-name="uni0420" unicode="&#x420;" horiz-adv-x="1265" 
d="M780 1434q229 0 344 -99.5t115 -281.5q0 -261 -165 -413.5t-443 -152.5h-320l-75 -487h-218l228 1434h534zM662 676q162 0 253 94.5t91 253.5q0 107 -64 164t-190 57h-320l-90 -569h320z" />
    <glyph glyph-name="uni0421" unicode="&#x421;" horiz-adv-x="1341" 
d="M641 170q270 0 383 225h213q-66 -197 -236.5 -305t-392.5 -108q-250 0 -394 143t-144 416q0 145 33 280t98.5 249.5t157 200t216.5 133.5t269 48q220 0 355 -108t138 -304h-213q-19 108 -96 166t-211 58q-99 0 -185 -40.5t-146.5 -109.5t-103.5 -159.5t-64 -190.5
t-21 -203q0 -193 90.5 -292t253.5 -99z" />
    <glyph glyph-name="uni0422" unicode="&#x422;" horiz-adv-x="1208" 
d="M1280 1434l-31 -189h-440l-197 -1245h-215l197 1245h-440l30 189h1096z" />
    <glyph glyph-name="uni0423" unicode="&#x423;" horiz-adv-x="1202" 
d="M1022 1434h242l-637 -1115q-118 -209 -241.5 -285.5t-303.5 -56.5l31 195q114 -14 178.5 26t111.5 126q54 96 29 180l-248 930h236l192 -768z" />
    <glyph glyph-name="uni0424" unicode="&#x424;" horiz-adv-x="1437" 
d="M1391 823q0 -292 -178 -480.5t-470 -219.5l-24 -154h-217l24 156q-218 28 -340.5 153.5t-122.5 331.5q0 293 178.5 482t473.5 219l24 153h217l-24 -157q217 -27 338 -151.5t121 -332.5zM770 295q194 38 305 180.5t111 347.5q0 134 -72.5 216t-208.5 104zM268 612
q0 -135 73.5 -217t211.5 -104l135 848q-194 -37 -307 -179.5t-113 -347.5z" />
    <glyph glyph-name="uni0425" unicode="&#x425;" horiz-adv-x="1316" 
d="M1389 1434l-586 -695l389 -739h-242l-295 561l-473 -561h-245l622 741l-364 693h243l271 -516l434 516h246z" />
    <glyph glyph-name="uni0426" unicode="&#x426;" horiz-adv-x="1390" 
d="M1366 1434l-197 -1246h107l-78 -477h-207l47 289h-1020l228 1434h217l-199 -1246h688l197 1246h217z" />
    <glyph glyph-name="uni0427" unicode="&#x427;" horiz-adv-x="1290" 
d="M1083 1434h217l-227 -1434h-217l90 573q-21 -34 -63 -73.5t-103.5 -79.5t-148 -66t-178.5 -26q-93 0 -165 25.5t-124.5 81t-69.5 143.5t0 213l103 643h215l-103 -646q-45 -270 234 -270q79 0 154.5 25.5t130.5 65.5t93.5 81.5t57.5 79.5z" />
    <glyph glyph-name="uni0428" unicode="&#x428;" horiz-adv-x="1654" 
d="M1448 1434h217l-227 -1434h-1420l228 1434h217l-199 -1246h385l199 1246h215l-197 -1246h385z" />
    <glyph glyph-name="uni0429" unicode="&#x429;" horiz-adv-x="1701" 
d="M1665 1434l-197 -1246h119l-78 -477h-206l47 289h-1332l228 1434h217l-199 -1246h385l199 1246h215l-197 -1246h385l197 1246h217z" />
    <glyph glyph-name="uni042A" unicode="&#x42a;" horiz-adv-x="1349" 
d="M786 926q229 0 346 -99t117 -278q0 -259 -160.5 -404t-437.5 -145h-540l196 1245h-162l31 189h379l-82 -508h313zM670 186q162 0 256 97.5t94 253.5q0 202 -252 202h-326l-86 -553h314z" />
    <glyph glyph-name="uni042B" unicode="&#x42b;" horiz-adv-x="1671" 
d="M694 926q229 0 346 -99t117 -278q0 -259 -160.5 -404t-437.5 -145h-541l228 1434h217l-82 -508h313zM1454 0h-217l225 1434h217zM578 186q162 0 256 97.5t94 253.5q0 202 -252 202h-326l-86 -553h314z" />
    <glyph glyph-name="uni042C" unicode="&#x42c;" horiz-adv-x="1257" 
d="M694 926q229 0 346 -99t117 -278q0 -259 -160.5 -404t-437.5 -145h-541l228 1434h217l-82 -508h313zM578 186q162 0 256 97.5t94 253.5q0 202 -252 202h-326l-86 -553h314z" />
    <glyph glyph-name="uni042D" unicode="&#x42d;" horiz-adv-x="1396" 
d="M797 1452q252 0 399 -145t147 -416q0 -147 -32 -282t-96.5 -249t-154.5 -198.5t-212 -132t-264 -47.5q-225 0 -367 109.5t-145 303.5h211q24 -115 95.5 -170t207.5 -55q99 0 184 37t147 102.5t105.5 150t67.5 185.5h-480l27 176h479q2 23 2 66q0 184 -87.5 280.5
t-246.5 96.5q-263 0 -387 -224h-219q44 133 138.5 227.5t216.5 139.5t264 45z" />
    <glyph glyph-name="uni042E" unicode="&#x42e;" horiz-adv-x="1916" 
d="M1311 1452q256 0 405.5 -146.5t149.5 -412.5q0 -147 -34.5 -283.5t-102.5 -250t-162.5 -198t-221 -132t-270.5 -47.5q-254 0 -402.5 146t-148.5 411q0 52 2 79h-192l-96 -618h-218l226 1434h217l-101 -639h189q32 142 98 261t161.5 208t224 138.5t276.5 49.5zM1104 170
q103 0 191 39.5t150.5 107.5t107 158t66 192.5t21.5 209.5q0 187 -93.5 287t-262.5 100q-103 0 -191 -39.5t-150 -108t-106.5 -159t-65.5 -192.5t-21 -210q0 -187 93 -286t261 -99z" />
    <glyph glyph-name="uni042F" unicode="&#x42f;" horiz-adv-x="1314" 
d="M1325 1434l-227 -1434h-215l90 563h-406q-114 0 -192 -56.5t-96 -180.5l-13 -93q-15 -95 -32.5 -146t-45.5 -87h-221q66 84 86 246l13 98q17 130 85.5 209.5t194.5 116.5q-81 39 -128.5 115.5t-47.5 185.5q0 215 155.5 339t411.5 124h588zM614 737h385l80 508h-354
q-160 0 -249 -80t-89 -213q0 -102 60.5 -158.5t166.5 -56.5z" />
    <glyph glyph-name="uni0430" unicode="&#x430;" horiz-adv-x="1142" 
d="M1004 666l-72 -465q-6 -42 11.5 -60t60.5 -16l-21 -121q-40 -12 -84 -12q-89 0 -135 41.5t-29 116.5l10 47q-14 -20 -30.5 -40t-54.5 -53t-80 -57t-105.5 -42.5t-132.5 -18.5q-146 0 -236 71t-90 207q0 84 29.5 146.5t87 102t129 63t168.5 36.5q15 2 78.5 10t89.5 12
t73 12.5t78 17.5t56 20q22 131 -28.5 182.5t-166.5 51.5q-107 0 -167 -36.5t-87 -111.5h-196q40 157 151 231t312 74q232 0 322.5 -98.5t58.5 -310.5zM745 338l37 221q-18 -7 -41 -13t-42 -10.5t-55.5 -11t-55 -9.5t-68.5 -11.5t-71 -11.5q-116 -19 -171 -67t-55 -134
q0 -73 45.5 -113.5t130.5 -40.5q54 0 105.5 16.5t88.5 39.5t70.5 52.5t51.5 51.5t30 41z" />
    <glyph glyph-name="uni0431" unicode="&#x431;" horiz-adv-x="1144" 
d="M674 1071q73 0 141.5 -25.5t126 -75.5t92.5 -136.5t35 -196.5q0 -181 -75 -330.5t-210.5 -237t-304.5 -87.5q-100 0 -178.5 31.5t-129 89t-81 136.5t-34.5 173.5t10 201.5l51 324q74 496 534 496h119q112 0 166 47h197q-54 -124 -132 -167.5t-231 -43.5h-129
q-133 0 -214 -72t-103 -197l-21 -114q46 87 148.5 135.5t222.5 48.5zM492 152q115 0 203.5 69.5t132.5 175.5t44 228q0 142 -70 213t-179 71q-88 0 -161.5 -40t-121 -106t-74 -150t-26.5 -173q0 -144 71.5 -216t180.5 -72z" />
    <glyph glyph-name="uni0432" unicode="&#x432;" horiz-adv-x="1116" 
d="M838 586q92 -28 142 -91t50 -151q0 -93 -38.5 -161t-109 -107.5t-159.5 -57.5t-201 -18h-524l168 1065h207l-72 -457l4 27h309q110 0 162.5 41.5t52.5 109.5q0 109 -167 109h-316l27 170h305q164 0 256 -59t92 -170q0 -84 -46.5 -151.5t-141.5 -98.5zM543 170
q136 0 210 49t74 148q0 133 -221 133h-323l-52 -330h312z" />
    <glyph glyph-name="uni0433" unicode="&#x433;" horiz-adv-x="872" 
d="M893 1065l-27 -164h-520l-141 -901h-207l168 1065h727z" />
    <glyph glyph-name="uni0434" unicode="&#x434;" horiz-adv-x="1267" 
d="M1208 1065l-141 -901h82l-47 -289h-189l21 125h-789l-20 -125h-188l47 289h55q87 67 131 207.5t92 441.5l39 252h907zM250 164h610l115 737h-494l-14 -98q-44 -284 -90.5 -433.5t-126.5 -205.5z" />
    <glyph glyph-name="uni0435" unicode="&#x435;" horiz-adv-x="1118" 
d="M1022 457h-795v-33q0 -143 72.5 -212t198.5 -69q91 0 152 27t110 84h198q-82 -142 -199.5 -205t-285.5 -63q-89 0 -166.5 26.5t-139.5 78.5t-98 137.5t-36 193.5q0 181 75 330t211 236t306 87q87 0 161.5 -26.5t133 -78t91.5 -135.5t33 -192q0 -36 -6.5 -95.5
t-15.5 -90.5zM608 918q-141 0 -233 -92t-127 -236h598q8 33 8 80q0 116 -67.5 182t-178.5 66z" />
    <glyph glyph-name="uni0436" unicode="&#x436;" horiz-adv-x="1619" 
d="M1661 1065l-600 -530l442 -535h-252l-360 440l-70 -440h-207l70 440l-496 -440h-260l617 535l-428 530h250l348 -434l67 434h207l-67 -432l479 432h260z" />
    <glyph glyph-name="uni0437" unicode="&#x437;" horiz-adv-x="1069" 
d="M727 561q27 -4 55.5 -13.5t59.5 -27.5t55 -42.5t39.5 -62t15.5 -81.5q0 -109 -72 -190.5t-189 -121.5t-261 -40q-215 0 -325.5 105.5t-77.5 289.5h186q-12 -118 49 -180t187 -62q132 0 218.5 59t86.5 154q0 74 -73.5 113t-211.5 39l8 114q129 2 210 50t81 133
q0 59 -54 94t-141 35q-103 0 -177.5 -56t-88.5 -139h-186q25 161 149.5 254.5t313.5 93.5q174 0 277.5 -70.5t103.5 -185.5q0 -101 -63.5 -169t-174.5 -93z" />
    <glyph glyph-name="uni0438" unicode="&#x438;" horiz-adv-x="1185" 
d="M166 1065h207l-123 -782h4l672 782h221l-168 -1065h-207l123 772h-4l-666 -772h-227z" />
    <glyph glyph-name="uni0439" unicode="&#x439;" horiz-adv-x="1185" 
d="M911 1452h140q-21 -130 -109.5 -205.5t-247.5 -75.5q-154 0 -222 79t-48 202h135q-8 -69 28.5 -107t119.5 -38q86 0 137.5 38t66.5 107zM166 1065h207l-123 -782h4l672 782h221l-168 -1065h-207l123 772h-4l-666 -772h-227z" />
    <glyph glyph-name="uni043A" unicode="&#x43a;" horiz-adv-x="1062" 
d="M1104 1065l-608 -530l450 -535h-248l-407 483l-76 -483h-207l168 1065h207l-76 -477l539 477h258z" />
    <glyph glyph-name="uni043B" unicode="&#x43b;" horiz-adv-x="1243" 
d="M1204 1065l-168 -1065h-198l135 901h-441l-73 -465q-77 -477 -512 -444l26 164q112 -2 183.5 64t97.5 237l96 608h854z" />
    <glyph glyph-name="uni043C" unicode="&#x43c;" horiz-adv-x="1447" 
d="M176 1065h236l247 -825l515 825h235l-168 -1065h-207l115 719h-6l-436 -719h-160l-207 721h-10l-115 -721h-207z" />
    <glyph glyph-name="uni043D" unicode="&#x43d;" horiz-adv-x="1091" 
d="M166 1065h207l-68 -428h473l68 428h207l-168 -1065h-207l74 471h-473l-74 -471h-207z" />
    <glyph glyph-name="uni043E" unicode="&#x43e;" horiz-adv-x="1140" 
d="M627 1075q83 0 159.5 -27t139.5 -79t101 -139t38 -197q0 -176 -74.5 -323.5t-211 -235.5t-306.5 -88q-66 0 -128 16t-119 51t-99 85.5t-67 125t-25 164.5q0 175 75 323t211.5 236t305.5 88zM866 625q0 136 -72.5 208t-181.5 72q-114 0 -202.5 -70t-132.5 -175.5
t-44 -223.5q0 -135 72.5 -207.5t181.5 -72.5q115 0 203.5 70t132 175.5t43.5 223.5z" />
    <glyph glyph-name="uni043F" unicode="&#x43f;" horiz-adv-x="1093" 
d="M1055 1065l-168 -1065h-207l141 901h-475l-141 -901h-207l168 1065h889z" />
    <glyph glyph-name="uni0440" unicode="&#x440;" horiz-adv-x="1181" 
d="M383 1065l-31 -186q58 88 152 142t217 54q77 0 145.5 -26t123 -76.5t86.5 -135t32 -192.5q0 -128 -40.5 -247t-111 -210.5t-175 -146.5t-224.5 -55q-137 0 -214.5 64.5t-94.5 154.5l-94 -594h-207l229 1454h207zM522 156q91 0 165 41t121 109t72 153.5t25 177.5
q0 132 -70.5 200t-177.5 68q-117 0 -204.5 -69t-129.5 -175.5t-42 -230.5q0 -133 66 -203.5t175 -70.5z" />
    <glyph glyph-name="uni0441" unicode="&#x441;" horiz-adv-x="1073" 
d="M481 156q198 0 285 178h192q-130 -348 -491 -348q-86 0 -162 25.5t-138 76t-98 135t-36 193.5q0 182 73 332t208.5 238.5t306.5 88.5q363 0 399 -350h-189q-14 93 -65.5 136.5t-153.5 43.5q-88 0 -161.5 -42t-120 -111.5t-72 -155t-25.5 -176.5q0 -129 68.5 -196.5
t179.5 -67.5z" />
    <glyph glyph-name="uni0442" unicode="&#x442;" horiz-adv-x="989" 
d="M1001 1065l-26 -164h-340l-141 -901h-207l141 901h-340l27 164h886z" />
    <glyph glyph-name="uni0443" unicode="&#x443;" horiz-adv-x="1099" 
d="M918 1065h215l-641 -1137q-109 -196 -227 -268t-294 -49l29 174q115 -14 187.5 33t121.5 141q23 43 29 64.5t0 56.5l-244 985h205l182 -813z" />
    <glyph glyph-name="uni0444" unicode="&#x444;" horiz-adv-x="1220" 
d="M1145 627q0 -256 -152 -434t-391 -207l-57 -365h-193l60 369q-79 14 -145.5 46.5t-119.5 85t-82.5 131t-29.5 175.5q0 259 153 438.5t394 208.5l59 371h193l-60 -377q78 -14 143.5 -47t117 -86t81 -132.5t29.5 -176.5zM629 152q163 35 255.5 165.5t92.5 315.5
q0 123 -60 192.5t-167 89.5zM205 424q0 -122 60.5 -191.5t170.5 -87.5l121 766q-166 -35 -259 -167.5t-93 -319.5z" />
    <glyph glyph-name="uni0445" unicode="&#x445;" horiz-adv-x="1062" 
d="M1085 1065l-454 -520l305 -545h-219l-219 395l-340 -395h-232l486 553l-291 512h221l199 -363l313 363h231z" />
    <glyph glyph-name="uni0446" unicode="&#x446;" horiz-adv-x="1146" 
d="M1055 1065l-142 -901h103l-72 -451h-199l46 287h-793l168 1065h207l-142 -901h476l141 901h207z" />
    <glyph glyph-name="uni0447" unicode="&#x447;" horiz-adv-x="1116" 
d="M870 1065h207l-168 -1065h-207l80 502q-21 -35 -54.5 -70.5t-82 -72.5t-115.5 -60t-139 -23q-85 0 -150 23t-112 73t-61.5 129.5t0.5 192.5l57 371h207l-60 -375q-21 -125 32.5 -182t162.5 -57q65 0 124.5 23.5t101.5 61t71 75t47 75.5z" />
    <glyph glyph-name="uni0448" unicode="&#x448;" horiz-adv-x="1564" 
d="M1319 1065h207l-168 -1065h-1350l168 1065h207l-141 -901h370l142 901h194l-141 -901h371z" />
    <glyph glyph-name="uni0449" unicode="&#x449;" horiz-adv-x="1587" 
d="M1516 1065l-142 -901h84l-72 -451h-198l45 287h-1235l168 1065h207l-142 -901h371l141 901h195l-141 -901h370l142 901h207z" />
    <glyph glyph-name="uni044A" unicode="&#x44a;" horiz-adv-x="1263" 
d="M766 688q183 0 286 -78.5t103 -218.5q0 -186 -134 -288.5t-351 -102.5h-510l141 901h-203l27 164h410l-60 -377h291zM686 164q127 0 198.5 56t71.5 157q0 147 -204 147h-301l-58 -360h293z" />
    <glyph glyph-name="uni044B" unicode="&#x44b;" horiz-adv-x="1492" 
d="M614 688q183 0 286.5 -79t103.5 -218q0 -186 -134.5 -288.5t-351.5 -102.5h-510l168 1065h207l-59 -377h290zM1247 1065h207l-168 -1065h-207zM535 164q127 0 198.5 56t71.5 157q0 147 -205 147h-301l-57 -360h293z" />
    <glyph glyph-name="uni044C" unicode="&#x44c;" horiz-adv-x="1112" 
d="M614 688q183 0 286.5 -79t103.5 -218q0 -186 -134.5 -288.5t-351.5 -102.5h-510l168 1065h207l-59 -377h290zM535 164q127 0 198.5 56t71.5 157q0 147 -205 147h-301l-57 -360h293z" />
    <glyph glyph-name="uni044D" unicode="&#x44d;" horiz-adv-x="1073" 
d="M565 1075q86 0 162 -25.5t138 -76t98 -135t36 -193.5q0 -182 -73 -332t-208 -238.5t-306 -88.5q-364 0 -400 350h189q14 -93 65.5 -136.5t153.5 -43.5q133 0 226.5 90.5t129.5 230.5h-350l20 131h353v33q0 129 -68.5 196.5t-179.5 67.5q-198 0 -285 -178h-192
q130 348 491 348z" />
    <glyph glyph-name="uni044E" unicode="&#x44e;" horiz-adv-x="1538" 
d="M1026 1075q83 0 159.5 -27t139.5 -79t101 -139t38 -197q0 -176 -74.5 -323.5t-211 -235.5t-306.5 -88q-66 0 -128 16t-119 51t-99 85.5t-67 125t-25 164.5v21h-147l-72 -451h-207l168 1065h207l-72 -449h148q54 203 207 332t360 129zM887 156q115 0 203.5 70t132 175.5
t43.5 223.5q0 136 -72.5 208t-181.5 72q-114 0 -202.5 -70t-132.5 -175.5t-44 -223.5q0 -135 72.5 -207.5t181.5 -72.5z" />
    <glyph glyph-name="uni044F" unicode="&#x44f;" horiz-adv-x="1118" 
d="M569 1065h510l-168 -1065h-206l59 377h-328q-80 0 -121 -30t-51 -97l-14 -90q-10 -69 -21.5 -100t-33.5 -60h-205q21 28 32 58.5t23 101.5l14 90q10 69 43 116.5t103 75.5q-121 79 -121 232q0 186 134 288.5t351 102.5zM788 541l58 360h-293q-127 0 -198.5 -56
t-71.5 -157q0 -147 204 -147h301z" />
    <glyph glyph-name="uni0451" unicode="&#x451;" horiz-adv-x="1118" 
d="M578 1452l-29 -197h-215l31 197h213zM1028 1452l-29 -197h-213l29 197h213zM1022 457h-795v-33q0 -143 72.5 -212t198.5 -69q91 0 152 27t110 84h198q-82 -142 -199.5 -205t-285.5 -63q-89 0 -166.5 26.5t-139.5 78.5t-98 137.5t-36 193.5q0 181 75 330t211 236t306 87
q87 0 161.5 -26.5t133 -78t91.5 -135.5t33 -192q0 -36 -6.5 -95.5t-15.5 -90.5zM608 918q-141 0 -233 -92t-127 -236h598q8 33 8 80q0 116 -67.5 182t-178.5 66z" />
    <glyph glyph-name="uni0453" unicode="&#x453;" horiz-adv-x="872" 
d="M446 1190h181l266 262h-289zM893 1065l-27 -164h-520l-141 -901h-207l168 1065h727z" />
    <glyph glyph-name="uni0454" unicode="&#x454;" horiz-adv-x="1073" 
d="M481 156q198 0 285 178h192q-130 -348 -491 -348q-86 0 -162 25.5t-138 76t-98 135t-36 193.5q0 182 73 332t208.5 238.5t306.5 88.5q363 0 399 -350h-189q-14 93 -65.5 136.5t-153.5 43.5q-127 0 -218 -83t-132 -214h346l-18 -131h-354q-3 -27 -3 -57
q0 -129 68.5 -196.5t179.5 -67.5z" />
    <glyph glyph-name="uni0457" unicode="&#x457;" horiz-adv-x="413" 
d="M2 1452h213l-29 -197h-215zM453 1452h213l-29 -197h-213zM176 1065h207l-168 -1065h-207z" />
    <glyph glyph-name="uni045C" unicode="&#x45c;" horiz-adv-x="1062" 
d="M989 1452l-266 -262h-180l157 262h289zM1104 1065l-608 -530l450 -535h-248l-407 483l-76 -483h-207l168 1065h207l-76 -477l539 477h258z" />
    <glyph glyph-name="uni045E" unicode="&#x45e;" horiz-adv-x="1099" 
d="M866 1452h140q-21 -130 -109.5 -205.5t-247.5 -75.5q-154 0 -222 79t-48 202h135q-8 -69 28.5 -107t119.5 -38q86 0 137.5 38t66.5 107zM918 1065h215l-641 -1137q-109 -196 -227 -268t-294 -49l29 174q115 -14 187.5 33t121.5 141q23 43 29 64.5t0 56.5l-244 985h205
l182 -813z" />
    <glyph glyph-name="uni0490" unicode="&#x490;" horiz-adv-x="1046" 
d="M934 1638h217l-64 -393h-655l-196 -1245h-218l228 1434h655z" />
    <glyph glyph-name="uni0491" unicode="&#x491;" horiz-adv-x="872" 
d="M735 1200h180l-49 -299h-520l-141 -901h-207l168 1065h547z" />
    <glyph glyph-name="Wgrave" unicode="&#x1e80;" horiz-adv-x="2080" 
d="M1262 1559l-117 262h-293l225 -262h185zM1913 1434h229l-639 -1434h-203l-184 1112l-541 -1112h-202l-189 1434h224l122 -1110l523 1110h215l168 -1110z" />
    <glyph glyph-name="wgrave" unicode="&#x1e81;" horiz-adv-x="1628" 
d="M999 1190l-116 262h-293l225 -262h184zM1661 1065l-479 -1065h-187l-157 815l-412 -815h-188l-144 1065h205l90 -807l402 807h165l144 -807l348 807h213z" />
    <glyph glyph-name="Wacute" unicode="&#x1e82;" horiz-adv-x="2080" 
d="M1087 1559h181l266 262h-289zM1913 1434h229l-639 -1434h-203l-184 1112l-541 -1112h-202l-189 1434h224l122 -1110l523 1110h215l168 -1110z" />
    <glyph glyph-name="wacute" unicode="&#x1e83;" horiz-adv-x="1628" 
d="M825 1190h181l266 262h-289zM1661 1065l-479 -1065h-187l-157 815l-412 -815h-188l-144 1065h205l90 -807l402 807h165l144 -807l348 807h213z" />
    <glyph glyph-name="Wdieresis" unicode="&#x1e84;" horiz-adv-x="2080" 
d="M883 1821h213l-29 -197h-215zM1333 1821h213l-28 -197h-213zM1913 1434h229l-639 -1434h-203l-184 1112l-541 -1112h-202l-189 1434h224l122 -1110l523 1110h215l168 -1110z" />
    <glyph glyph-name="wdieresis" unicode="&#x1e85;" horiz-adv-x="1628" 
d="M621 1452h213l-29 -197h-215zM1071 1452h213l-29 -197h-213zM1661 1065l-479 -1065h-187l-157 815l-412 -815h-188l-144 1065h205l90 -807l402 807h165l144 -807l348 807h213z" />
    <glyph glyph-name="uni1E9E" unicode="&#x1e9e;" horiz-adv-x="1390" 
d="M901 887q173 -20 282 -123t109 -272q0 -225 -145.5 -368.5t-376.5 -143.5q-191 0 -288 95t-91 273h205q0 -77 49.5 -128.5t147.5 -51.5q121 0 196.5 85.5t75.5 205.5q0 126 -125.5 196t-349.5 64l399 547h-373q-98 0 -147.5 -49t-65.5 -148l-167 -1069h-218l175 1098
q30 194 130 275t295 81h730z" />
    <glyph glyph-name="Ygrave" unicode="&#x1ef2;" horiz-adv-x="1386" 
d="M944 1559l-117 262h-292l225 -262h184zM803 549l-86 -549h-221l86 549l-398 885h242l283 -676l497 676h242z" />
    <glyph glyph-name="ygrave" unicode="&#x1ef3;" horiz-adv-x="1099" 
d="M733 1190l-117 262h-292l225 -262h184zM918 1065h215l-641 -1137q-109 -196 -227 -268t-294 -49l29 174q115 -14 187.5 33t121.5 141q23 43 29 64.5t0 56.5l-244 985h205l182 -813z" />
    <glyph glyph-name="endash" unicode="&#x2013;" horiz-adv-x="1228" 
d="M82 653h1044l-26 -168h-1045z" />
    <glyph glyph-name="emdash" unicode="&#x2014;" horiz-adv-x="1351" 
d="M82 653h1167l-26 -168h-1168z" />
    <glyph glyph-name="quoteleft" unicode="&#x2018;" horiz-adv-x="401" 
d="M461 1436l-10 -68q-101 -34 -123 -180l-11 -64h95l-39 -250h-236l43 281q13 85 42 142.5t69.5 86t80.5 40t89 12.5z" />
    <glyph glyph-name="quoteright" unicode="&#x2019;" horiz-adv-x="430" 
d="M147 870v70q92 34 117 184l8 58h-84l41 252h263l-46 -287q-11 -69 -35 -120t-52.5 -79.5t-67 -46.5t-71.5 -24t-73 -7z" />
    <glyph glyph-name="quotesinglbase" unicode="&#x201a;" horiz-adv-x="432" 
d="M-49 -369v70q50 18 77 63t40 121l8 58h-82l41 252h262l-45 -287q-11 -69 -35.5 -120t-53 -79.5t-67.5 -46.5t-72 -24t-73 -7z" />
    <glyph glyph-name="quotedblleft" unicode="&#x201c;" horiz-adv-x="788" 
d="M461 1436l-10 -68q-101 -34 -123 -180l-11 -64h95l-39 -250h-236l43 281q13 85 42 142.5t69.5 86t80.5 40t89 12.5zM848 1436l-10 -68q-101 -34 -123 -180l-10 -64h94l-39 -250h-236l43 281q13 85 42 142.5t69.5 86t80.5 40t89 12.5z" />
    <glyph glyph-name="quotedblright" unicode="&#x201d;" horiz-adv-x="788" 
d="M137 870l10 68q101 34 123 180l11 64h-95l39 250h236l-43 -281q-13 -85 -42 -142.5t-69.5 -86t-80.5 -40t-89 -12.5zM524 870l11 68q54 18 82.5 62.5t39.5 117.5l11 64h-95l39 250h236l-43 -281q-13 -85 -42 -142.5t-69.5 -86t-80.5 -40t-89 -12.5z" />
    <glyph glyph-name="quotedblbase" unicode="&#x201e;" horiz-adv-x="790" 
d="M-49 -311l10 67q101 34 123 181l10 63h-94l39 250h235l-43 -281q-13 -85 -42 -142.5t-69.5 -86t-80 -39.5t-88.5 -12zM338 -311l10 67q101 34 123 181l10 63h-94l39 250h236l-44 -281q-13 -85 -42 -142.5t-69.5 -86t-80 -39.5t-88.5 -12z" />
    <glyph glyph-name="dagger" unicode="&#x2020;" horiz-adv-x="751" 
d="M721 1167l-25 -157h-190l-82 -516h-166l82 516h-190l24 157h191l41 267h167l-43 -267h191z" />
    <glyph glyph-name="daggerdbl" unicode="&#x2021;" horiz-adv-x="751" 
d="M690 977h-188l-82 -520h188l-26 -158h-187l-47 -299h-168l47 299h-192l26 158h191l82 520h-191l27 158h188l48 299h167l-47 -299h191z" />
    <glyph glyph-name="bullet" unicode="&#x2022;" horiz-adv-x="546" 
d="M231 369q-76 0 -121.5 53.5t-33.5 130.5q11 65 65 111.5t121 46.5q74 0 119 -54t33 -129q-10 -66 -64 -112.5t-119 -46.5z" />
    <glyph glyph-name="ellipsis" unicode="&#x2026;" horiz-adv-x="1433" 
d="M59 250h234l-37 -250h-236zM565 250h234l-37 -250h-236zM1071 250h234l-37 -250h-236z" />
    <glyph glyph-name="perthousand" unicode="&#x2030;" horiz-adv-x="2129" 
d="M389 801q-108 0 -172.5 66.5t-64.5 189.5q0 162 86.5 274.5t230.5 112.5q107 0 172.5 -66.5t65.5 -189.5q0 -106 -37.5 -193t-111 -140.5t-169.5 -53.5zM133 0l1071 1438l158 -4l-1069 -1434h-160zM399 936q82 0 126 72t44 168q0 65 -29 98t-81 33q-83 0 -126.5 -72.5
t-43.5 -167.5q0 -65 29 -98t81 -33zM1026 -10q-109 0 -173.5 66.5t-64.5 189.5q0 163 86 275t232 112q107 0 171 -66.5t64 -189.5q0 -105 -37 -192t-110 -141t-168 -54zM1679 -10q-108 0 -172.5 66.5t-64.5 189.5q0 163 86.5 275t230.5 112q107 0 171.5 -66.5t64.5 -189.5
q0 -161 -86.5 -274t-229.5 -113zM1034 127q82 0 127 72.5t45 167.5q0 63 -30 97t-82 34q-42 0 -75.5 -21.5t-53.5 -56.5t-30.5 -76.5t-10.5 -85.5q0 -64 29.5 -97.5t80.5 -33.5zM1688 127q82 0 127 72.5t45 167.5q0 63 -30 97t-81 34q-83 0 -127.5 -72.5t-44.5 -167.5
q0 -64 30 -97.5t81 -33.5z" />
    <glyph glyph-name="guilsinglleft" unicode="&#x2039;" horiz-adv-x="485" 
d="M436 756l-209 -156l160 -156l-31 -182l-274 266l24 166l363 267z" />
    <glyph glyph-name="guilsinglright" unicode="&#x203a;" horiz-adv-x="483" 
d="M119 768l31 193l276 -267l-27 -166l-360 -266l33 195l207 155z" />
    <glyph glyph-name="fraction" unicode="&#x2044;" horiz-adv-x="282" 
d="M-334 0h-108l1118 1434h108z" />
    <glyph glyph-name="Euro" unicode="&#x20ac;" horiz-adv-x="1429" 
d="M729 170q270 0 383 225h213q-66 -197 -236.5 -305t-392.5 -108q-241 0 -384.5 133.5t-153.5 388.5h-119l20 129h103q2 41 14 123h-98l20 129h111q80 255 268 411t455 156q220 0 355 -108t138 -304h-213q-19 108 -96 166t-211 58q-165 0 -284 -104.5t-181 -274.5h344
l-20 -129h-358q-14 -72 -19 -123h358l-20 -129h-338q13 -165 102.5 -249.5t239.5 -84.5z" />
    <glyph glyph-name="trademark" unicode="&#x2122;" horiz-adv-x="1130" 
d="M582 1356h-129l-45 -291h-93l47 291h-129l13 78h348zM1110 1434l-57 -369h-92l34 217l-127 -217h-75l-60 217l-35 -217h-92l58 369h90l84 -287l178 287h94z" />
    <glyph glyph-name="partialdiff" unicode="&#x2202;" horiz-adv-x="1216" 
d="M604 944q147 0 238 -62t106 -147q23 118 20 219t-28 175.5t-85.5 116.5t-152.5 42q-105 0 -189.5 -59t-117.5 -152h-182q15 70 53.5 134t99 118t151 86.5t198.5 32.5q96 0 172 -26t127.5 -75.5t84.5 -117.5t46.5 -155t11 -184t-19.5 -208q-57 -352 -222 -527t-403 -175
q-90 0 -168.5 25t-140.5 73.5t-97.5 128t-35.5 180.5q0 242 151.5 399.5t382.5 157.5zM514 154q155 0 265 121.5t110 281.5q0 116 -71.5 178t-176.5 62q-160 0 -265.5 -116t-105.5 -284q0 -117 69 -180t175 -63z" />
    <glyph glyph-name="product" unicode="&#x220f;" horiz-adv-x="1431" 
d="M238 1638h1247l-322 -2027h-196l290 1839h-851l-293 -1839h-197z" />
    <glyph glyph-name="summation" unicode="&#x2211;" horiz-adv-x="1380" 
d="M1403 1450h-866l329 -825l-585 -826h860l-29 -188h-1198l727 1014l-401 1013h1194z" />
    <glyph glyph-name="minus" unicode="&#x2212;" horiz-adv-x="892" 
d="M74 600h766l-23 -147h-768z" />
    <glyph glyph-name="radical" unicode="&#x221a;" horiz-adv-x="1566" 
d="M1622 1638l-870 -2027h-232l-219 919h-238l33 220h371l195 -865l753 1753h207z" />
    <glyph glyph-name="infinity" unicode="&#x221e;" horiz-adv-x="1650" 
d="M1239 881q141 0 231.5 -82.5t90.5 -214.5q0 -164 -120.5 -281t-289.5 -117q-109 0 -195.5 60.5t-164.5 165.5q-222 -226 -416 -226q-144 0 -234 82.5t-90 218.5q0 165 121 279.5t291 114.5q192 0 358 -224q224 224 418 224zM389 348q79 0 156.5 50.5t161.5 138.5
q-92 186 -236 186q-100 0 -167.5 -65.5t-67.5 -159.5q0 -63 40.5 -106.5t112.5 -43.5zM1141 348q101 0 167 65t66 158q0 65 -39.5 108.5t-111.5 43.5q-138 0 -320 -186q97 -189 238 -189z" />
    <glyph glyph-name="integral" unicode="&#x222b;" horiz-adv-x="620" 
d="M254 1094q29 183 133 267t295 75l-29 -179q-83 0 -132 -53t-68 -162l-172 -1089q-30 -192 -131.5 -271t-292.5 -71l26 178q168 0 199 215z" />
    <glyph glyph-name="approxequal" unicode="&#x2248;" horiz-adv-x="919" 
d="M809 815l92 -12q-17 -105 -86 -168.5t-168 -63.5q-49 0 -96.5 25t-80 55t-77.5 55t-90 25q-51 0 -88.5 -27.5t-40.5 -60.5l-94 12q17 105 86 167.5t168 62.5q40 0 78.5 -16.5t69 -40t60 -47t65.5 -40t73 -16.5q51 0 87.5 28.5t41.5 61.5zM756 487l92 -12
q-15 -104 -84.5 -167.5t-167.5 -63.5q-49 0 -97 25t-80.5 54.5t-78 54.5t-90.5 25q-51 0 -87.5 -27.5t-39.5 -60.5l-94 13q17 105 86 167t168 62q40 0 78 -16.5t68.5 -40t60.5 -47t66 -40t73 -16.5q51 0 87.5 28.5t39.5 61.5z" />
    <glyph glyph-name="notequal" unicode="&#x2260;" horiz-adv-x="874" 
d="M842 659h-287l-98 -180h356l-22 -147h-416l-180 -332h-142l180 332h-210l22 147h270l99 180h-340l22 148h398l186 342h141l-186 -342h229z" />
    <glyph glyph-name="lessequal" unicode="&#x2264;" horiz-adv-x="827" 
d="M760 500l-508 270l592 268l30 179l-761 -363l-29 -170l645 -362zM12 117h688l-24 -148h-688z" />
    <glyph glyph-name="greaterequal" unicode="&#x2265;" horiz-adv-x="833" 
d="M63 500l-30 -178l760 362l28 170l-645 363l-29 -179l508 -268zM690 117l-24 -148h-693l25 148h692z" />
    <glyph glyph-name="lozenge" unicode="&#x25ca;" horiz-adv-x="1103" 
d="M805 1434l207 -717l-430 -717h-283l-207 717l428 717h285zM463 156l338 561l-160 559l-338 -559z" />
    <glyph glyph-name="G.ss01" horiz-adv-x="1376" 
d="M821 733h506l-117 -733h-198l32 190q-85 -115 -191.5 -167t-258.5 -52q-116 0 -211 36.5t-164.5 107t-108 180t-38.5 248.5q0 151 32 288.5t96 252t154 199t212.5 132t264.5 47.5q216 0 352 -102.5t148 -282.5h-211q-29 99 -98.5 148t-194.5 49q-102 0 -189.5 -40.5
t-149.5 -110t-106 -162t-65.5 -197t-21.5 -215.5q0 -191 90 -290t256 -99q181 0 303 99.5t150 268.5l4 31h-305z" />
    <glyph glyph-name="R.ss01" horiz-adv-x="1259" 
d="M1239 1053q0 -197 -97 -335t-270 -196l220 -522h-220l-202 487h-39h-320l-75 -487h-218l228 1434h534q229 0 344 -99.5t115 -281.5zM432 1245l-90 -569h320q162 0 253 94.5t91 253.5q0 107 -64 164t-190 57h-320z" />
    <glyph glyph-name="G.ss05" horiz-adv-x="1376" 
d="M821 733h506l-117 -733h-198l32 190q-85 -115 -191.5 -167t-258.5 -52q-116 0 -211 36.5t-164.5 107t-108 180t-38.5 248.5q0 151 32 288.5t96 252t154 199t212.5 132t264.5 47.5q216 0 352 -102.5t148 -282.5h-211q-29 99 -98.5 148t-194.5 49q-102 0 -189.5 -40.5
t-149.5 -110t-106 -162t-65.5 -197t-21.5 -215.5q0 -191 90 -290t256 -99q181 0 303 99.5t150 268.5l4 31h-305z" />
    <glyph glyph-name="i.loclTRK" horiz-adv-x="413" 
d="M236 1452h213l-29 -197h-215zM176 1065h207l-168 -1065h-207z" />
    <glyph glyph-name="a.ss01" 
d="M1116 1067l-168 -1067h-207l29 176q-44 -80 -133.5 -137t-214.5 -57q-73 0 -140.5 26t-124 77t-90.5 137t-34 196q0 129 38 248t106 210.5t171 146t225 54.5q124 0 200 -52.5t106 -139.5l28 182h209zM473 152q114 0 201 72.5t129.5 182t42.5 232.5q0 134 -67 201t-175 67
q-71 0 -131.5 -27.5t-103.5 -74t-73.5 -109t-45 -132t-14.5 -142.5q0 -133 65.5 -201.5t171.5 -68.5z" />
    <glyph glyph-name="aacute.ss01" 
d="M600 1190h180l267 262h-289zM1116 1067l-168 -1067h-207l29 176q-44 -80 -133.5 -137t-214.5 -57q-73 0 -140.5 26t-124 77t-90.5 137t-34 196q0 129 38 248t106 210.5t171 146t225 54.5q124 0 200 -52.5t106 -139.5l28 182h209zM473 152q114 0 201 72.5t129.5 182
t42.5 232.5q0 134 -67 201t-175 67q-71 0 -131.5 -27.5t-103.5 -74t-73.5 -109t-45 -132t-14.5 -142.5q0 -133 65.5 -201.5t171.5 -68.5z" />
    <glyph glyph-name="abreve.ss01" 
d="M907 1452h140q-21 -130 -109.5 -205.5t-247.5 -75.5q-154 0 -222 79t-48 202h135q-8 -69 28 -107t119 -38q86 0 138 38t67 107zM1116 1067l-168 -1067h-207l29 176q-44 -80 -133.5 -137t-214.5 -57q-73 0 -140.5 26t-124 77t-90.5 137t-34 196q0 129 38 248t106 210.5
t171 146t225 54.5q124 0 200 -52.5t106 -139.5l28 182h209zM473 152q114 0 201 72.5t129.5 182t42.5 232.5q0 134 -67 201t-175 67q-71 0 -131.5 -27.5t-103.5 -74t-73.5 -109t-45 -132t-14.5 -142.5q0 -133 65.5 -201.5t171.5 -68.5z" />
    <glyph glyph-name="uni01CE.ss01" 
d="M915 1452h168l-213 -272h-370l-127 272h159l164 -174zM1116 1067l-168 -1067h-207l29 176q-44 -80 -133.5 -137t-214.5 -57q-73 0 -140.5 26t-124 77t-90.5 137t-34 196q0 129 38 248t106 210.5t171 146t225 54.5q124 0 200 -52.5t106 -139.5l28 182h209zM473 152
q114 0 201 72.5t129.5 182t42.5 232.5q0 134 -67 201t-175 67q-71 0 -131.5 -27.5t-103.5 -74t-73.5 -109t-45 -132t-14.5 -142.5q0 -133 65.5 -201.5t171.5 -68.5z" />
    <glyph glyph-name="acircumflex.ss01" 
d="M864 1180l-162 174l-221 -174h-168l213 272h371l127 -272h-160zM1116 1067l-168 -1067h-207l29 176q-44 -80 -133.5 -137t-214.5 -57q-73 0 -140.5 26t-124 77t-90.5 137t-34 196q0 129 38 248t106 210.5t171 146t225 54.5q124 0 200 -52.5t106 -139.5l28 182h209z
M473 152q114 0 201 72.5t129.5 182t42.5 232.5q0 134 -67 201t-175 67q-71 0 -131.5 -27.5t-103.5 -74t-73.5 -109t-45 -132t-14.5 -142.5q0 -133 65.5 -201.5t171.5 -68.5z" />
    <glyph glyph-name="adieresis.ss01" 
d="M395 1452h213l-28 -197h-215zM846 1452h213l-29 -197h-213zM1116 1067l-168 -1067h-207l29 176q-44 -80 -133.5 -137t-214.5 -57q-73 0 -140.5 26t-124 77t-90.5 137t-34 196q0 129 38 248t106 210.5t171 146t225 54.5q124 0 200 -52.5t106 -139.5l28 182h209zM473 152
q114 0 201 72.5t129.5 182t42.5 232.5q0 134 -67 201t-175 67q-71 0 -131.5 -27.5t-103.5 -74t-73.5 -109t-45 -132t-14.5 -142.5q0 -133 65.5 -201.5t171.5 -68.5z" />
    <glyph glyph-name="agrave.ss01" 
d="M774 1190l-117 262h-292l225 -262h184zM1116 1067l-168 -1067h-207l29 176q-44 -80 -133.5 -137t-214.5 -57q-73 0 -140.5 26t-124 77t-90.5 137t-34 196q0 129 38 248t106 210.5t171 146t225 54.5q124 0 200 -52.5t106 -139.5l28 182h209zM473 152q114 0 201 72.5
t129.5 182t42.5 232.5q0 134 -67 201t-175 67q-71 0 -131.5 -27.5t-103.5 -74t-73.5 -109t-45 -132t-14.5 -142.5q0 -133 65.5 -201.5t171.5 -68.5z" />
    <glyph glyph-name="amacron.ss01" 
d="M414 1452h665l-20 -125h-664zM1116 1067l-168 -1067h-207l29 176q-44 -80 -133.5 -137t-214.5 -57q-73 0 -140.5 26t-124 77t-90.5 137t-34 196q0 129 38 248t106 210.5t171 146t225 54.5q124 0 200 -52.5t106 -139.5l28 182h209zM473 152q114 0 201 72.5t129.5 182
t42.5 232.5q0 134 -67 201t-175 67q-71 0 -131.5 -27.5t-103.5 -74t-73.5 -109t-45 -132t-14.5 -142.5q0 -133 65.5 -201.5t171.5 -68.5z" />
    <glyph glyph-name="aogonek.ss01" 
d="M907 1067h209l-168 -1067h-55q-135 -42 -197.5 -102.5t-62.5 -128.5q0 -62 50.5 -83t135.5 3v-95q-38 -19 -87 -28.5t-101 -6t-95.5 20t-71.5 56t-28 96.5q0 69 50 128t116.5 92t138.5 48l29 176q-44 -80 -133.5 -137t-214.5 -57q-73 0 -140.5 26t-124 77t-90.5 137
t-34 196q0 129 38 248t106 210.5t171 146t225 54.5q124 0 200 -52.5t106 -139.5zM473 152q114 0 201 72.5t129.5 182t42.5 232.5q0 134 -67 201t-175 67q-71 0 -131.5 -27.5t-103.5 -74t-73.5 -109t-45 -132t-14.5 -142.5q0 -133 65.5 -201.5t171.5 -68.5z" />
    <glyph glyph-name="aring.ss01" 
d="M705 1190q-74 0 -122 47t-48 117q0 82 60 142t144 60q70 0 117 -47t47 -118q0 -79 -60.5 -140t-137.5 -61zM713 1284q37 0 66.5 30t29.5 68q0 34 -22.5 57t-57.5 23q-40 0 -70 -29t-30 -69q0 -34 23 -57t61 -23zM1116 1067l-168 -1067h-207l29 176q-44 -80 -133.5 -137
t-214.5 -57q-73 0 -140.5 26t-124 77t-90.5 137t-34 196q0 129 38 248t106 210.5t171 146t225 54.5q124 0 200 -52.5t106 -139.5l28 182h209zM473 152q114 0 201 72.5t129.5 182t42.5 232.5q0 134 -67 201t-175 67q-71 0 -131.5 -27.5t-103.5 -74t-73.5 -109t-45 -132
t-14.5 -142.5q0 -133 65.5 -201.5t171.5 -68.5z" />
    <glyph glyph-name="atilde.ss01" 
d="M965 1434h92q0 -101 -60.5 -163.5t-158.5 -62.5q-51 0 -100.5 24t-83 52t-79.5 52t-90 24q-45 0 -72.5 -23.5t-25.5 -54.5h-92q0 100 60 162.5t159 62.5q51 0 100.5 -24t83 -52.5t79 -52.5t89.5 -24q45 0 73 24.5t26 55.5zM1116 1067l-168 -1067h-207l29 176
q-44 -80 -133.5 -137t-214.5 -57q-73 0 -140.5 26t-124 77t-90.5 137t-34 196q0 129 38 248t106 210.5t171 146t225 54.5q124 0 200 -52.5t106 -139.5l28 182h209zM473 152q114 0 201 72.5t129.5 182t42.5 232.5q0 134 -67 201t-175 67q-71 0 -131.5 -27.5t-103.5 -74
t-73.5 -109t-45 -132t-14.5 -142.5q0 -133 65.5 -201.5t171.5 -68.5z" />
    <glyph glyph-name="g.ss01" horiz-adv-x="1093" 
d="M1073 1065l-26 -154q-67 0 -117 -37q16 -50 16 -100q0 -181 -126 -294t-320 -113q-129 0 -217 51q-38 -5 -63 -25.5t-25 -52.5q0 -43 40.5 -59.5t131.5 -16.5h106q86 0 162 -16.5t140.5 -51.5t102 -97t37.5 -144q0 -83 -29 -151t-79.5 -114.5t-119 -78.5t-146.5 -47
t-164 -15q-84 0 -159 17.5t-138.5 53t-101 98.5t-37.5 145q0 240 268 330q-73 6 -125.5 45.5t-52.5 101.5q0 60 43.5 102t118.5 56q-50 73 -50 170q0 182 126.5 295.5t320.5 113.5q175 0 274 -96q67 86 209 84zM512 516q117 0 187.5 69t70.5 175q0 75 -47 121.5t-148 46.5
q-120 0 -189 -69.5t-69 -176.5q0 -74 47.5 -120t147.5 -46zM457 113q-142 0 -230 -62t-88 -174q0 -84 66 -130t184 -46q150 0 239 62t89 178q0 84 -67.5 128t-192.5 44z" />
    <glyph glyph-name="l.ss01" horiz-adv-x="483" 
d="M309 -2q-65 -7 -111 -4.5t-82.5 17t-53 43.5t-23.5 74.5t6 111.5l191 1194h206l-192 -1213q-6 -38 14 -54t74 -15z" />
    <glyph glyph-name="a.ss02" 
d="M1116 1067l-168 -1067h-207l29 176q-44 -80 -133.5 -137t-214.5 -57q-73 0 -140.5 26t-124 77t-90.5 137t-34 196q0 129 38 248t106 210.5t171 146t225 54.5q124 0 200 -52.5t106 -139.5l28 182h209zM473 152q114 0 201 72.5t129.5 182t42.5 232.5q0 134 -67 201t-175 67
q-71 0 -131.5 -27.5t-103.5 -74t-73.5 -109t-45 -132t-14.5 -142.5q0 -133 65.5 -201.5t171.5 -68.5z" />
    <glyph glyph-name="aacute.ss02" 
d="M600 1190h180l267 262h-289zM1116 1067l-168 -1067h-207l29 176q-44 -80 -133.5 -137t-214.5 -57q-73 0 -140.5 26t-124 77t-90.5 137t-34 196q0 129 38 248t106 210.5t171 146t225 54.5q124 0 200 -52.5t106 -139.5l28 182h209zM473 152q114 0 201 72.5t129.5 182
t42.5 232.5q0 134 -67 201t-175 67q-71 0 -131.5 -27.5t-103.5 -74t-73.5 -109t-45 -132t-14.5 -142.5q0 -133 65.5 -201.5t171.5 -68.5z" />
    <glyph glyph-name="abreve.ss02" 
d="M907 1452h140q-21 -130 -109.5 -205.5t-247.5 -75.5q-154 0 -222 79t-48 202h135q-8 -69 28 -107t119 -38q86 0 138 38t67 107zM1116 1067l-168 -1067h-207l29 176q-44 -80 -133.5 -137t-214.5 -57q-73 0 -140.5 26t-124 77t-90.5 137t-34 196q0 129 38 248t106 210.5
t171 146t225 54.5q124 0 200 -52.5t106 -139.5l28 182h209zM473 152q114 0 201 72.5t129.5 182t42.5 232.5q0 134 -67 201t-175 67q-71 0 -131.5 -27.5t-103.5 -74t-73.5 -109t-45 -132t-14.5 -142.5q0 -133 65.5 -201.5t171.5 -68.5z" />
    <glyph glyph-name="uni01CE.ss02" 
d="M915 1452h168l-213 -272h-370l-127 272h159l164 -174zM1116 1067l-168 -1067h-207l29 176q-44 -80 -133.5 -137t-214.5 -57q-73 0 -140.5 26t-124 77t-90.5 137t-34 196q0 129 38 248t106 210.5t171 146t225 54.5q124 0 200 -52.5t106 -139.5l28 182h209zM473 152
q114 0 201 72.5t129.5 182t42.5 232.5q0 134 -67 201t-175 67q-71 0 -131.5 -27.5t-103.5 -74t-73.5 -109t-45 -132t-14.5 -142.5q0 -133 65.5 -201.5t171.5 -68.5z" />
    <glyph glyph-name="acircumflex.ss02" 
d="M864 1180l-162 174l-221 -174h-168l213 272h371l127 -272h-160zM1116 1067l-168 -1067h-207l29 176q-44 -80 -133.5 -137t-214.5 -57q-73 0 -140.5 26t-124 77t-90.5 137t-34 196q0 129 38 248t106 210.5t171 146t225 54.5q124 0 200 -52.5t106 -139.5l28 182h209z
M473 152q114 0 201 72.5t129.5 182t42.5 232.5q0 134 -67 201t-175 67q-71 0 -131.5 -27.5t-103.5 -74t-73.5 -109t-45 -132t-14.5 -142.5q0 -133 65.5 -201.5t171.5 -68.5z" />
    <glyph glyph-name="adieresis.ss02" 
d="M395 1452h213l-28 -197h-215zM846 1452h213l-29 -197h-213zM1116 1067l-168 -1067h-207l29 176q-44 -80 -133.5 -137t-214.5 -57q-73 0 -140.5 26t-124 77t-90.5 137t-34 196q0 129 38 248t106 210.5t171 146t225 54.5q124 0 200 -52.5t106 -139.5l28 182h209zM473 152
q114 0 201 72.5t129.5 182t42.5 232.5q0 134 -67 201t-175 67q-71 0 -131.5 -27.5t-103.5 -74t-73.5 -109t-45 -132t-14.5 -142.5q0 -133 65.5 -201.5t171.5 -68.5z" />
    <glyph glyph-name="agrave.ss02" 
d="M774 1190l-117 262h-292l225 -262h184zM1116 1067l-168 -1067h-207l29 176q-44 -80 -133.5 -137t-214.5 -57q-73 0 -140.5 26t-124 77t-90.5 137t-34 196q0 129 38 248t106 210.5t171 146t225 54.5q124 0 200 -52.5t106 -139.5l28 182h209zM473 152q114 0 201 72.5
t129.5 182t42.5 232.5q0 134 -67 201t-175 67q-71 0 -131.5 -27.5t-103.5 -74t-73.5 -109t-45 -132t-14.5 -142.5q0 -133 65.5 -201.5t171.5 -68.5z" />
    <glyph glyph-name="amacron.ss02" 
d="M414 1452h665l-20 -125h-664zM1116 1067l-168 -1067h-207l29 176q-44 -80 -133.5 -137t-214.5 -57q-73 0 -140.5 26t-124 77t-90.5 137t-34 196q0 129 38 248t106 210.5t171 146t225 54.5q124 0 200 -52.5t106 -139.5l28 182h209zM473 152q114 0 201 72.5t129.5 182
t42.5 232.5q0 134 -67 201t-175 67q-71 0 -131.5 -27.5t-103.5 -74t-73.5 -109t-45 -132t-14.5 -142.5q0 -133 65.5 -201.5t171.5 -68.5z" />
    <glyph glyph-name="aogonek.ss02" 
d="M907 1067h209l-168 -1067h-55q-135 -42 -197.5 -102.5t-62.5 -128.5q0 -62 50.5 -83t135.5 3v-95q-38 -19 -87 -28.5t-101 -6t-95.5 20t-71.5 56t-28 96.5q0 69 50 128t116.5 92t138.5 48l29 176q-44 -80 -133.5 -137t-214.5 -57q-73 0 -140.5 26t-124 77t-90.5 137
t-34 196q0 129 38 248t106 210.5t171 146t225 54.5q124 0 200 -52.5t106 -139.5zM473 152q114 0 201 72.5t129.5 182t42.5 232.5q0 134 -67 201t-175 67q-71 0 -131.5 -27.5t-103.5 -74t-73.5 -109t-45 -132t-14.5 -142.5q0 -133 65.5 -201.5t171.5 -68.5z" />
    <glyph glyph-name="aring.ss02" 
d="M705 1190q-74 0 -122 47t-48 117q0 82 60 142t144 60q70 0 117 -47t47 -118q0 -79 -60.5 -140t-137.5 -61zM713 1284q37 0 66.5 30t29.5 68q0 34 -22.5 57t-57.5 23q-40 0 -70 -29t-30 -69q0 -34 23 -57t61 -23zM1116 1067l-168 -1067h-207l29 176q-44 -80 -133.5 -137
t-214.5 -57q-73 0 -140.5 26t-124 77t-90.5 137t-34 196q0 129 38 248t106 210.5t171 146t225 54.5q124 0 200 -52.5t106 -139.5l28 182h209zM473 152q114 0 201 72.5t129.5 182t42.5 232.5q0 134 -67 201t-175 67q-71 0 -131.5 -27.5t-103.5 -74t-73.5 -109t-45 -132
t-14.5 -142.5q0 -133 65.5 -201.5t171.5 -68.5z" />
    <glyph glyph-name="atilde.ss02" 
d="M965 1434h92q0 -101 -60.5 -163.5t-158.5 -62.5q-51 0 -100.5 24t-83 52t-79.5 52t-90 24q-45 0 -72.5 -23.5t-25.5 -54.5h-92q0 100 60 162.5t159 62.5q51 0 100.5 -24t83 -52.5t79 -52.5t89.5 -24q45 0 73 24.5t26 55.5zM1116 1067l-168 -1067h-207l29 176
q-44 -80 -133.5 -137t-214.5 -57q-73 0 -140.5 26t-124 77t-90.5 137t-34 196q0 129 38 248t106 210.5t171 146t225 54.5q124 0 200 -52.5t106 -139.5l28 182h209zM473 152q114 0 201 72.5t129.5 182t42.5 232.5q0 134 -67 201t-175 67q-71 0 -131.5 -27.5t-103.5 -74
t-73.5 -109t-45 -132t-14.5 -142.5q0 -133 65.5 -201.5t171.5 -68.5z" />
    <glyph glyph-name="g.ss03" horiz-adv-x="1093" 
d="M1073 1065l-26 -154q-67 0 -117 -37q16 -50 16 -100q0 -181 -126 -294t-320 -113q-129 0 -217 51q-38 -5 -63 -25.5t-25 -52.5q0 -43 40.5 -59.5t131.5 -16.5h106q86 0 162 -16.5t140.5 -51.5t102 -97t37.5 -144q0 -83 -29 -151t-79.5 -114.5t-119 -78.5t-146.5 -47
t-164 -15q-84 0 -159 17.5t-138.5 53t-101 98.5t-37.5 145q0 240 268 330q-73 6 -125.5 45.5t-52.5 101.5q0 60 43.5 102t118.5 56q-50 73 -50 170q0 182 126.5 295.5t320.5 113.5q175 0 274 -96q67 86 209 84zM512 516q117 0 187.5 69t70.5 175q0 75 -47 121.5t-148 46.5
q-120 0 -189 -69.5t-69 -176.5q0 -74 47.5 -120t147.5 -46zM457 113q-142 0 -230 -62t-88 -174q0 -84 66 -130t184 -46q150 0 239 62t89 178q0 84 -67.5 128t-192.5 44z" />
    <glyph glyph-name="l.ss04" horiz-adv-x="483" 
d="M309 -2q-65 -7 -111 -4.5t-82.5 17t-53 43.5t-23.5 74.5t6 111.5l191 1194h206l-192 -1213q-6 -38 14 -54t74 -15z" />
    <glyph glyph-name="f_t" horiz-adv-x="1382" 
d="M1135 901l-105 -653q-8 -48 8.5 -68t65.5 -20q69 0 141 16l-26 -164q-71 -26 -179 -26q-46 0 -81 7t-66.5 24.5t-48 48t-24.5 76.5t5 110l103 649h-498l-143 -901h-207l143 901h-164l25 164h166l14 90q12 79 40 137t61.5 91t79.5 52t86.5 25t91.5 6q83 0 145 -16
l-25 -158q-76 13 -110 13q-75 0 -113.5 -36t-50.5 -118l-14 -86h499l41 266h207l-43 -266h215l-26 -164h-213z" />
    <glyph glyph-name="r_t" horiz-adv-x="1370" 
d="M1124 901l-104 -653q-8 -48 8.5 -68t65.5 -20q69 0 141 16l-27 -164q-71 -26 -178 -26q-46 0 -81 7t-66.5 24.5t-48 48t-24.5 76.5t5 110l103 649h-168l24 164h170l41 266h207l-43 -266h215l-27 -164h-213zM334 815q45 109 165.5 179.5t274.5 70.5l-26 -164
q-346 0 -451 -317l-92 -584h-207l168 1065h207z" />
    <glyph glyph-name="zero.dnom" horiz-adv-x="581" 
d="M207 -4q113 0 188.5 90t75.5 240q0 100 -49 156.5t-135 56.5q-81 0 -141.5 -47t-89.5 -121.5t-29 -163.5q0 -99 47 -155t133 -56zM276 461q51 0 80 -38.5t29 -105.5q0 -110 -50.5 -176.5t-119.5 -66.5q-49 0 -75.5 36.5t-26.5 104.5q0 112 47 179t116 67z" />
    <glyph glyph-name="one.dnom" horiz-adv-x="385" 
d="M242 532l-84 -532h-86l73 428q-41 -54 -129 -45l13 78q38 -4 74 18.5t53 52.5h86z" />
    <glyph glyph-name="two.dnom" horiz-adv-x="536" 
d="M8 0q10 94 52 151t139 111q5 3 22 12t23 12.5t20.5 11.5t20 13t16 13.5t15.5 15.5t10.5 16.5t7.5 19.5t2 21q0 31 -22.5 49.5t-55.5 18.5q-40 0 -69 -24t-35 -68h-86q11 76 63 123t137 47q73 0 113.5 -36.5t40.5 -94.5q0 -27 -6.5 -50t-22.5 -43t-29 -33.5t-41.5 -31.5
t-43 -26t-50.5 -27q-52 -28 -81.5 -61.5t-32.5 -61.5h258l-13 -78h-352z" />
    <glyph glyph-name="three.dnom" horiz-adv-x="557" 
d="M311 283q40 -6 72.5 -32.5t32.5 -76.5q0 -77 -61 -129.5t-165 -52.5q-88 0 -132.5 50t-32.5 124h79q-6 -49 21.5 -73.5t75.5 -24.5q55 0 92 28t37 78q0 74 -113 74h-22l12 63h22q52 0 81.5 26.5t29.5 65.5q0 64 -82 64q-91 0 -108 -92h-80q14 80 66 124t136 44
q71 0 111.5 -34t40.5 -87q0 -54 -33 -91t-80 -48z" />
    <glyph glyph-name="four.dnom" horiz-adv-x="552" 
d="M408 135h-62l-22 -135h-84l22 135h-242l11 68l295 332h84l-56 -332h62zM272 203l37 229l-203 -229h166z" />
    <glyph glyph-name="five.dnom" horiz-adv-x="512" 
d="M248 362q74 0 117 -49.5t30 -132.5q-15 -90 -76.5 -140t-152.5 -50q-87 0 -131 48.5t-33 125.5h86q-5 -43 20 -69.5t70 -26.5q48 0 83 28.5t44 83.5q8 60 -19 87.5t-67 27.5q-63 0 -110 -47h-78l88 287h282l-12 -76h-223l-41 -142q14 16 46.5 30.5t76.5 14.5z" />
    <glyph glyph-name="six.dnom" horiz-adv-x="567" 
d="M274 354q69 0 112.5 -36t43.5 -107q0 -104 -66 -162.5t-155 -58.5q-107 0 -147.5 74.5t-22.5 199.5q20 124 82.5 200.5t167.5 76.5q80 0 118.5 -44.5t34.5 -99.5h-84q-2 29 -23 48.5t-59 19.5q-121 0 -155 -182q19 28 61 49.5t92 21.5zM215 66q51 0 89 37t38 100
q0 42 -26 63t-66 21q-50 0 -88.5 -34.5t-38.5 -90.5q0 -45 26.5 -70.5t65.5 -25.5z" />
    <glyph glyph-name="seven.dnom" horiz-adv-x="462" 
d="M401 535l-12 -76l-285 -459h-88l291 459h-278l14 76h358z" />
    <glyph glyph-name="eight.dnom" horiz-adv-x="485" 
d="M299 293q78 -40 78 -113q0 -83 -60.5 -133.5t-158.5 -50.5q-72 0 -119 37t-47 100q0 113 114 160q-49 34 -49 92q0 60 49 107t132 47q67 0 105 -34.5t38 -84.5q0 -82 -82 -127zM133 389q0 -30 22.5 -47.5t55.5 -17.5q39 0 67.5 25t28.5 63q0 27 -19.5 44t-58.5 17
q-43 0 -69.5 -25.5t-26.5 -58.5zM166 63q57 0 93 31t36 78q0 38 -28 59t-72 21q-49 0 -87 -29.5t-38 -79.5q0 -38 26.5 -59t69.5 -21z" />
    <glyph glyph-name="nine.dnom" horiz-adv-x="565" 
d="M207 176q-69 0 -112.5 36t-43.5 107q0 104 65.5 163t155.5 59q107 0 147.5 -75t22.5 -200q-20 -124 -82 -200t-167 -76q-82 0 -120 44t-34 99h82q2 -29 24 -48t60 -19q39 0 67.5 17t45 47.5t25 57t15.5 60.5q-20 -28 -60.5 -50t-90.5 -22zM264 465q-49 0 -87 -37
t-38 -100q0 -42 25.5 -63t64.5 -21q52 0 90.5 34.5t38.5 90.5q0 45 -27 70.5t-67 25.5z" />
    <glyph glyph-name="zero.numr" horiz-adv-x="579" 
d="M348 897q113 0 188.5 90t75.5 240q0 100 -49 156.5t-135 56.5q-81 0 -141.5 -47t-89.5 -121.5t-29 -163.5q0 -99 47 -155t133 -56zM418 1362q51 0 79.5 -37.5t28.5 -105.5q0 -110 -50.5 -177t-119.5 -67q-49 0 -75.5 36.5t-26.5 104.5q0 112 47.5 179t116.5 67z" />
    <glyph glyph-name="one.numr" horiz-adv-x="385" 
d="M385 1434l-84 -533h-86l74 428q-41 -54 -129 -45l12 78q38 -4 74 19t53 53h86z" />
    <glyph glyph-name="two.numr" horiz-adv-x="536" 
d="M152 901q11 94 52 151t138 111q5 3 22 12t23 12.5t20.5 11.5t20 13t16 13.5t15.5 15.5t10.5 16.5t7.5 19.5t2 21q0 31 -22.5 49.5t-55.5 18.5q-40 0 -69 -24t-35 -68h-86q11 76 63.5 123t137.5 47q73 0 113 -36.5t40 -94.5q0 -23 -6 -44t-13.5 -36.5t-25 -32.5t-29 -27
t-37.5 -25.5t-38.5 -22.5t-42.5 -23q-53 -28 -82.5 -61.5t-32.5 -61.5h258l-12 -78h-352z" />
    <glyph glyph-name="three.numr" horiz-adv-x="555" 
d="M453 1184q40 -6 72 -32.5t32 -76.5q0 -77 -60.5 -129.5t-164.5 -52.5q-88 0 -133 50t-33 124h80q-6 -49 21 -73.5t75 -24.5q55 0 92 28t37 78q0 74 -113 74h-22l12 63h23q52 0 81 27t29 66q0 63 -82 63q-91 0 -108 -92h-80q14 80 66.5 124t136.5 44q71 0 111 -34t40 -87
q0 -54 -33 -91t-79 -48z" />
    <glyph glyph-name="four.numr" horiz-adv-x="552" 
d="M551 1036h-62l-22 -135h-84l23 135h-242l10 68l295 332h84l-55 -332h61zM416 1104l37 229l-203 -229h166z" />
    <glyph glyph-name="five.numr" horiz-adv-x="514" 
d="M391 1264q74 0 117.5 -50t30.5 -133q-15 -89 -77 -139.5t-153 -50.5q-87 0 -131 48.5t-33 125.5h86q-5 -43 20 -69.5t71 -26.5q48 0 83 28.5t44 83.5q8 60 -19 87.5t-68 27.5q-63 0 -110 -47h-78l88 287h283l-13 -76h-223l-41 -141q14 16 46.5 30.5t76.5 14.5z" />
    <glyph glyph-name="six.numr" horiz-adv-x="567" 
d="M418 1253q69 0 112 -36t43 -107q0 -104 -66 -162.5t-155 -58.5q-107 0 -147.5 74.5t-22.5 199.5q20 124 82.5 200.5t167.5 76.5q80 0 118.5 -44.5t35.5 -99.5h-84q-2 29 -23 48.5t-59 19.5q-122 0 -156 -182q19 28 61.5 49.5t92.5 21.5zM358 965q51 0 89 37t38 100
q0 42 -26 63t-66 21q-50 0 -88.5 -34.5t-38.5 -90.5q0 -45 26.5 -70.5t65.5 -25.5z" />
    <glyph glyph-name="seven.numr" horiz-adv-x="462" 
d="M545 1436l-13 -76l-284 -459h-88l291 459h-279l14 76h359z" />
    <glyph glyph-name="eight.numr" horiz-adv-x="485" 
d="M442 1194q78 -40 78 -113q0 -83 -60.5 -133.5t-158.5 -50.5q-72 0 -119 37t-47 100q0 112 115 160q-49 34 -49 92q0 60 48.5 107t131.5 47q67 0 105 -34.5t38 -84.5q0 -82 -82 -127zM276 1290q0 -30 22.5 -47.5t55.5 -17.5q39 0 68 25.5t29 62.5q0 27 -19.5 44t-58.5 17
q-43 0 -70 -25.5t-27 -58.5zM309 965q58 0 93.5 30.5t35.5 77.5q0 38 -28 59t-72 21q-49 0 -87 -29.5t-38 -79.5q0 -38 26.5 -58.5t69.5 -20.5z" />
    <glyph glyph-name="nine.numr" horiz-adv-x="565" 
d="M350 1077q-69 0 -112 36t-43 108q0 104 65.5 162.5t155.5 58.5q107 0 147.5 -75t22.5 -200q-20 -124 -82.5 -200t-167.5 -76q-82 0 -120 44t-34 99h82q2 -29 24 -48t60 -19q120 0 154 182q-20 -28 -61 -50t-91 -22zM408 1366q-49 0 -87 -37t-38 -100q0 -42 25.5 -63
t64.5 -21q52 0 90.5 34.5t38.5 90.5q0 45 -27 70.5t-67 25.5z" />
    <glyph glyph-name="Aacutecy" horiz-adv-x="1423" 
d="M1210 1821l-266 -262h-180l158 262h288zM1047 0l-70 336h-608l-179 -336h-233l786 1434h197l338 -1434h-231zM453 498h489l-139 661z" />
    <glyph glyph-name="Ieacutecy" horiz-adv-x="1148" 
d="M659 1559h181l266 262h-289zM1169 1245h-737l-67 -424h634l-26 -176h-637l-72 -457h760l-31 -188h-975l228 1434h954z" />
    <glyph glyph-name="Iiacutecy" horiz-adv-x="1384" 
d="M758 1559h180l266 262h-289zM246 1434h217l-176 -1096h4l874 1096h230l-228 -1434h-217l172 1085h-4l-862 -1085h-238z" />
    <glyph glyph-name="Oacutecy" horiz-adv-x="1462" 
d="M807 1559h180l266 262h-288zM856 1452q256 0 405.5 -146.5t149.5 -412.5q0 -147 -34.5 -283.5t-102.5 -250t-162 -198t-220.5 -132t-270.5 -47.5q-254 0 -402.5 146t-148.5 411q0 186 54.5 352t153.5 290.5t248.5 197.5t329.5 73zM649 170q103 0 191 39.5t150.5 107.5
t107.5 158t66.5 192.5t21.5 209.5q0 187 -94 287t-263 100q-103 0 -191 -39.5t-150 -108t-106.5 -159t-65.5 -192.5t-21 -210q0 -187 93 -286t261 -99z" />
    <glyph glyph-name="Uacutecy" horiz-adv-x="1202" 
d="M670 1559h180l266 262h-289zM1022 1434h242l-637 -1115q-118 -209 -241.5 -285.5t-303.5 -56.5l31 195q114 -14 178.5 26t111.5 126q54 96 29 180l-248 930h236l192 -768z" />
    <glyph glyph-name="Yeruacutecy" horiz-adv-x="1671" 
d="M905 1559h180l267 262h-289zM694 926q229 0 346 -99t117 -278q0 -259 -160.5 -404t-437.5 -145h-541l228 1434h217l-82 -508h313zM1454 0h-217l225 1434h217zM578 186q162 0 256 97.5t94 253.5q0 202 -252 202h-326l-86 -553h314z" />
    <glyph glyph-name="Ereversedacutecy" horiz-adv-x="1396" 
d="M1217 1821l-267 -262h-180l158 262h289zM797 1452q252 0 399 -145t147 -416q0 -147 -32 -282t-96.5 -249t-154.5 -198.5t-212 -132t-264 -47.5q-225 0 -367 109.5t-145 303.5h211q24 -115 95.5 -170t207.5 -55q99 0 184 37t147 102.5t105.5 150t67.5 185.5h-480l27 176
h479q2 23 2 66q0 184 -87.5 280.5t-246.5 96.5q-263 0 -387 -224h-219q44 133 138.5 227.5t216.5 139.5t264 45z" />
    <glyph glyph-name="Iuacutecy" horiz-adv-x="1916" 
d="M1475 1821l-267 -262h-180l158 262h289zM1311 1452q256 0 405.5 -146.5t149.5 -412.5q0 -147 -34.5 -283.5t-102.5 -250t-162.5 -198t-221 -132t-270.5 -47.5q-254 0 -402.5 146t-148.5 411q0 52 2 79h-192l-96 -618h-218l226 1434h217l-101 -639h189q32 142 98 261
t161.5 208t224 138.5t276.5 49.5zM1104 170q103 0 191 39.5t150.5 107.5t107 158t66 192.5t21.5 209.5q0 187 -93.5 287t-262.5 100q-103 0 -191 -39.5t-150 -108t-106.5 -159t-65.5 -192.5t-21 -210q0 -187 93 -286t261 -99z" />
    <glyph glyph-name="Iaacutecy" horiz-adv-x="1314" 
d="M1174 1821l-267 -262h-180l158 262h289zM1325 1434l-227 -1434h-215l90 563h-406q-114 0 -192 -56.5t-96 -180.5l-13 -93q-15 -95 -32.5 -146t-45.5 -87h-221q66 84 86 246l13 98q17 130 85.5 209.5t194.5 116.5q-81 39 -128.5 115.5t-47.5 185.5q0 215 155.5 339
t411.5 124h588zM614 737h385l80 508h-354q-160 0 -249 -80t-89 -213q0 -102 60.5 -158.5t166.5 -56.5z" />
    <glyph glyph-name="aacutecy" horiz-adv-x="1142" 
d="M1006 1452l-267 -262h-180l158 262h289zM1004 666l-72 -465q-6 -42 11.5 -60t60.5 -16l-21 -121q-40 -12 -84 -12q-89 0 -135 41.5t-29 116.5l10 47q-14 -20 -30.5 -40t-54.5 -53t-80 -57t-105.5 -42.5t-132.5 -18.5q-146 0 -236 71t-90 207q0 84 29.5 146.5t87 102
t129 63t168.5 36.5q15 2 78.5 10t89.5 12t73 12.5t78 17.5t56 20q22 131 -28.5 182.5t-166.5 51.5q-107 0 -167 -36.5t-87 -111.5h-196q40 157 151 231t312 74q232 0 322.5 -98.5t58.5 -310.5zM745 338l37 221q-18 -7 -41 -13t-42 -10.5t-55.5 -11t-55 -9.5t-68.5 -11.5
t-71 -11.5q-116 -19 -171 -67t-55 -134q0 -73 45.5 -113.5t130.5 -40.5q54 0 105.5 16.5t88.5 39.5t70.5 52.5t51.5 51.5t30 41z" />
    <glyph glyph-name="ieacutecy" horiz-adv-x="1118" 
d="M1016 1452l-266 -262h-181l158 262h289zM1022 457h-795v-33q0 -143 72.5 -212t198.5 -69q91 0 152 27t110 84h198q-82 -142 -199.5 -205t-285.5 -63q-89 0 -166.5 26.5t-139.5 78.5t-98 137.5t-36 193.5q0 181 75 330t211 236t306 87q87 0 161.5 -26.5t133 -78
t91.5 -135.5t33 -192q0 -36 -6.5 -95.5t-15.5 -90.5zM608 918q-141 0 -233 -92t-127 -236h598q8 33 8 80q0 116 -67.5 182t-178.5 66z" />
    <glyph glyph-name="iiacutecy" horiz-adv-x="1185" 
d="M604 1190h180l267 262h-289zM166 1065h207l-123 -782h4l672 782h221l-168 -1065h-207l123 772h-4l-666 -772h-227z" />
    <glyph glyph-name="oacutecy" horiz-adv-x="1140" 
d="M561 1190h180l267 262h-289zM627 1075q83 0 159.5 -27t139.5 -79t101 -139t38 -197q0 -176 -74.5 -323.5t-211 -235.5t-306.5 -88q-66 0 -128 16t-119 51t-99 85.5t-67 125t-25 164.5q0 175 75 323t211.5 236t305.5 88zM866 625q0 136 -72.5 208t-181.5 72
q-114 0 -202.5 -70t-132.5 -175.5t-44 -223.5q0 -135 72.5 -207.5t181.5 -72.5q115 0 203.5 70t132 175.5t43.5 223.5z" />
    <glyph glyph-name="uacutecy" horiz-adv-x="1099" 
d="M559 1190h180l267 262h-289zM918 1065h215l-641 -1137q-109 -196 -227 -268t-294 -49l29 174q115 -14 187.5 33t121.5 141q23 43 29 64.5t0 56.5l-244 985h205l182 -813z" />
    <glyph glyph-name="yeruacutecy" horiz-adv-x="1492" 
d="M758 1190h180l266 262h-289zM614 688q183 0 286.5 -79t103.5 -218q0 -186 -134.5 -288.5t-351.5 -102.5h-510l168 1065h207l-59 -377h290zM1247 1065h207l-168 -1065h-207zM535 164q127 0 198.5 56t71.5 157q0 147 -205 147h-301l-57 -360h293z" />
    <glyph glyph-name="ereversedacutecy" horiz-adv-x="1073" 
d="M993 1452l-266 -262h-180l158 262h288zM565 1075q86 0 162 -25.5t138 -76t98 -135t36 -193.5q0 -182 -73 -332t-208 -238.5t-306 -88.5q-364 0 -400 350h189q14 -93 65.5 -136.5t153.5 -43.5q133 0 226.5 90.5t129.5 230.5h-350l20 131h353v33q0 129 -68.5 196.5
t-179.5 67.5q-198 0 -285 -178h-192q130 348 491 348z" />
    <glyph glyph-name="iuacutecy" horiz-adv-x="1538" 
d="M1227 1452l-266 -262h-181l158 262h289zM1026 1075q83 0 159.5 -27t139.5 -79t101 -139t38 -197q0 -176 -74.5 -323.5t-211 -235.5t-306.5 -88q-66 0 -128 16t-119 51t-99 85.5t-67 125t-25 164.5v21h-147l-72 -451h-207l168 1065h207l-72 -449h148q54 203 207 332
t360 129zM887 156q115 0 203.5 70t132 175.5t43.5 223.5q0 136 -72.5 208t-181.5 72q-114 0 -202.5 -70t-132.5 -175.5t-44 -223.5q0 -135 72.5 -207.5t181.5 -72.5z" />
    <glyph glyph-name="iaacutecy" horiz-adv-x="1118" 
d="M1016 1452l-266 -262h-181l158 262h289zM569 1065h510l-168 -1065h-206l59 377h-328q-80 0 -121 -30t-51 -97l-14 -90q-10 -69 -21.5 -100t-33.5 -60h-205q21 28 32 58.5t23 101.5l14 90q10 69 43 116.5t103 75.5q-121 79 -121 232q0 186 134 288.5t351 102.5zM788 541
l58 360h-293q-127 0 -198.5 -56t-71.5 -157q0 -147 204 -147h301z" />
    </font>
</defs>
</svg>
