<?xml version="1.0" standalone="no"?>
<!DOCTYPE svg PUBLIC "-//W3C//DTD SVG 1.1//EN" "http://www.w3.org/Graphics/SVG/1.1/DTD/svg11.dtd" >
<svg xmlns="http://www.w3.org/2000/svg" xmlns:xlink="http://www.w3.org/1999/xlink" version="1.1">
<metadata>
Created by FontForge 20170731 at Mon Aug  7 16:11:15 2023
 By Aleksey,,,
(c) 2018 Connary Fagen
</metadata>
<defs>
<font id="ArticulatCF-Normal" horiz-adv-x="1167" >
  <font-face 
    font-family="Articulat CF Normal"
    font-weight="400"
    font-stretch="normal"
    units-per-em="2048"
    panose-1="0 0 5 0 0 0 0 0 0 0"
    ascent="1638"
    descent="-410"
    x-height="1065"
    cap-height="1434"
    bbox="-336 -549 2157 1901"
    underline-thickness="102"
    underline-position="-307"
    unicode-range="U+0020-FB02"
  />
<missing-glyph horiz-adv-x="1044" 
d="M856 1638v-2089h-661v2089h661zM696 1499h-346v-69h137v-78h-139v-68h348v68h-139v78h139v69zM557 1229h-209v-217h348v71h-139v146zM487 1157v-74h-69v74h69zM696 954h-348v-67h139v-78h-139v-70h209v148h139v67zM696 829h-69v-137h-279v-71h348v208zM696 575h-209v-116
h70v47h70v-98h-209v167h-70v-235h348v235zM696 213h-348v-236h348v236zM627 145v-98h-209v98h209zM696 -70h-348v-69h148l-148 -99v-69h348v69h-213l146 99h67v69z" />
    <glyph glyph-name="fi" unicode="fi" horiz-adv-x="1019" 
d="M188 1186q0 69 16 120.5t41 81.5t62 48t72.5 24t79.5 6q91 0 155 -22v-111q-70 17 -129 17q-78 0 -114.5 -38t-36.5 -128v-119h268v-119h-268v-946h-146v946h-147v119h147v121zM754 1452h145v-143h-145v143zM754 0v1065h145v-1065h-145z" />
    <glyph glyph-name="fl" unicode="fl" horiz-adv-x="1019" 
d="M188 1186q0 69 16 120.5t41 81.5t62 48t72.5 24t79.5 6q91 0 155 -22v-111q-70 17 -129 17q-78 0 -114.5 -38t-36.5 -128v-119h268v-119h-268v-946h-146v946h-147v119h147v121zM754 1446h145v-1446h-145v1446z" />
    <glyph glyph-name=".notdef" horiz-adv-x="1044" 
d="M856 1638v-2089h-661v2089h661zM696 1499h-346v-69h137v-78h-139v-68h348v68h-139v78h139v69zM557 1229h-209v-217h348v71h-139v146zM487 1157v-74h-69v74h69zM696 954h-348v-67h139v-78h-139v-70h209v148h139v67zM696 829h-69v-137h-279v-71h348v208zM696 575h-209v-116
h70v47h70v-98h-209v167h-70v-235h348v235zM696 213h-348v-236h348v236zM627 145v-98h-209v98h209zM696 -70h-348v-69h148l-148 -99v-69h348v69h-213l146 99h67v69z" />
    <glyph glyph-name=".null" horiz-adv-x="0" 
 />
    <glyph glyph-name="nonmarkingreturn" horiz-adv-x="682" 
 />
    <glyph glyph-name="space" unicode=" " horiz-adv-x="559" 
 />
    <glyph glyph-name="exclam" unicode="!" horiz-adv-x="415" 
d="M279 389h-140l-4 1045h150zM119 190h178v-190h-178v190z" />
    <glyph glyph-name="quotedbl" unicode="&#x22;" horiz-adv-x="575" 
d="M82 946h137v488h-137v-488zM356 946h138v488h-138v-488z" />
    <glyph glyph-name="numbersign" unicode="#" horiz-adv-x="1208" 
d="M1116 920h-225l-41 -406h215v-117h-227l-39 -397h-113l39 397h-311l-39 -397h-113l39 397h-209v117h221l41 406h-211v116h224l39 398h112l-39 -398h312l38 398h113l-39 -398h213v-116zM737 514l41 406h-311l-41 -406h311z" />
    <glyph glyph-name="dollar" unicode="$" horiz-adv-x="1193" 
d="M1106 389q0 -180 -124.5 -289t-344.5 -118v-166h-76v166q-216 12 -334.5 127t-138.5 301h152q46 -277 321 -295v567l-78 16q-364 77 -364 369q0 163 115.5 270.5t326.5 114.5v166h76v-168q191 -12 300.5 -110.5t131.5 -260.5h-149q-19 99 -87.5 165t-195.5 77v-524
l57 -13q100 -21 172 -50.5t128 -75t84 -112.5t28 -157zM512 821l49 -10v512q-75 -4 -133 -27t-92 -60t-51 -80t-17 -91q0 -191 244 -244zM637 113q155 9 236 83.5t81 192.5q0 62 -20.5 109t-59 77.5t-83.5 48.5t-105 31l-49 11v-553z" />
    <glyph glyph-name="percent" unicode="%" horiz-adv-x="1478" 
d="M352 825q-114 0 -187 82.5t-73 227.5q0 144 73 226.5t187 82.5q116 0 189 -82.5t73 -226.5q0 -145 -73 -227.5t-189 -82.5zM262 0l842 1436l113 -2l-840 -1434h-115zM352 926q71 0 113.5 52.5t42.5 156.5t-42.5 156t-113.5 52q-70 0 -111.5 -52t-41.5 -156t42 -156.5
t111 -52.5zM1124 -10q-114 0 -187 82.5t-73 226.5q0 145 73.5 227t186.5 82q116 0 189 -82t73 -227q0 -144 -73 -226.5t-189 -82.5zM1124 90q71 0 114.5 52.5t43.5 156.5t-43.5 156.5t-114.5 52.5q-69 0 -111 -52.5t-42 -156.5t42 -156.5t111 -52.5z" />
    <glyph glyph-name="ampersand" unicode="&#x26;" horiz-adv-x="1382" 
d="M1315 0h-166l-141 158q-89 -93 -200.5 -138t-229.5 -45q-220 0 -355 115.5t-135 286.5q0 59 16 110t43.5 91.5t72.5 80.5t92.5 72.5t115.5 71.5q-87 96 -137.5 181.5t-50.5 174.5q0 133 85.5 218t249.5 85q155 0 242.5 -85t87.5 -214q0 -114 -62 -197.5t-231 -185.5
l377 -420q86 160 92 375h136q-17 -290 -134 -477zM575 1350q-99 0 -156 -52.5t-57 -144.5q0 -63 45 -131t130 -160q132 75 188.5 141.5t56.5 153.5q0 88 -56.5 140.5t-150.5 52.5zM580 104q196 0 338 154l-412 461q-130 -75 -197 -157t-67 -181q0 -121 94 -199t244 -78z" />
    <glyph glyph-name="quotesingle" unicode="'" horiz-adv-x="301" 
d="M82 946h137v488h-137v-488z" />
    <glyph glyph-name="parenleft" unicode="(" horiz-adv-x="524" 
d="M309 1526h135q-206 -375 -206 -871q0 -524 206 -921h-135q-217 388 -217 921q0 507 217 871z" />
    <glyph glyph-name="parenright" unicode=")" horiz-adv-x="524" 
d="M227 1526q217 -364 217 -871q0 -533 -217 -921h-135q207 398 207 921q0 494 -207 871h135z" />
    <glyph glyph-name="asterisk" unicode="*" horiz-adv-x="946" 
d="M793 1161l-228 -61l148 -195l-107 -69l-133 192l-133 -192l-107 69l148 195l-227 61l30 123l232 -72l-6 242h125l-5 -240l232 70zM516 1120l-14 49h-60l-12 -49l43 -37z" />
    <glyph glyph-name="plus" unicode="+" horiz-adv-x="1040" 
d="M948 643v-131h-360v-360h-137v360h-359v131h359v361h137v-361h360z" />
    <glyph glyph-name="comma" unicode="," horiz-adv-x="382" 
d="M102 -291v51q42 21 58 61.5t16 117.5v61h-74v190h179v-251q0 -222 -179 -230z" />
    <glyph glyph-name="hyphen" unicode="-" horiz-adv-x="718" 
d="M82 631h555v-115h-555v115z" />
    <glyph glyph-name="period" unicode="." horiz-adv-x="382" 
d="M102 190h179v-190h-179v190z" />
    <glyph glyph-name="slash" unicode="/" horiz-adv-x="823" 
d="M762 1434l-557 -1434h-144l555 1434h146z" />
    <glyph glyph-name="zero" unicode="0" horiz-adv-x="1286" 
d="M643 1452q118 0 218.5 -47.5t175.5 -138t117 -231.5t42 -318q0 -178 -42 -319t-117 -231t-175.5 -137.5t-218.5 -47.5t-218.5 47.5t-176 137.5t-118 231t-42.5 319q0 177 42.5 318t118 231.5t176 138t218.5 47.5zM1051 717q0 283 -109 445.5t-299 162.5
q-191 0 -300.5 -162.5t-109.5 -445.5q0 -282 109.5 -444t300.5 -162q190 0 299 161.5t109 444.5z" />
    <glyph glyph-name="one" unicode="1" horiz-adv-x="628" 
d="M479 1434v-1434h-145v1233q-40 -47 -106.5 -80.5t-149.5 -36.5v123q94 7 164.5 63t91.5 132h145z" />
    <glyph glyph-name="two" unicode="2" horiz-adv-x="1103" 
d="M82 0v47q0 131 42.5 229.5t132 184.5t249.5 186q157 97 207 137q118 95 138 208q5 26 5 55q0 126 -86.5 201t-222.5 75q-138 0 -222.5 -81.5t-84.5 -235.5v-31h-144v31q0 201 120 321.5t331 120.5q210 0 332 -113.5t122 -287.5q-1 -71 -24 -132.5t-52.5 -104t-93 -92.5
t-107 -78t-132.5 -81q-87 -53 -145.5 -96.5t-109 -95.5t-75 -109t-24.5 -121v-14h774v-123h-930z" />
    <glyph glyph-name="three" unicode="3" horiz-adv-x="1173" 
d="M766 776q62 -11 118 -38.5t104 -71.5t76 -111t28 -149q0 -194 -139 -312.5t-375 -118.5q-234 0 -369 132.5t-137 349.5h137q4 -164 104.5 -258.5t264.5 -94.5q160 0 264 82t104 224t-105 223.5t-294 81.5h-49v104h49q88 0 153.5 22.5t101 61t52 82.5t16.5 94
q0 110 -83.5 178t-215.5 68q-139 0 -224.5 -84t-86.5 -254h-137q0 225 119.5 345t326.5 120q201 0 322 -105.5t121 -259.5q0 -114 -64.5 -195.5t-181.5 -115.5z" />
    <glyph glyph-name="four" unicode="4" horiz-adv-x="1120" 
d="M1049 387h-164v-387h-146v387h-667v121l667 926h146v-926h164v-121zM739 508v739l-532 -739h532z" />
    <glyph glyph-name="five" unicode="5" horiz-adv-x="1165" 
d="M621 971q198 0 332 -134.5t134 -359.5q0 -231 -135.5 -364t-365.5 -133q-226 0 -358.5 126.5t-135.5 323.5h133q5 -148 103.5 -239t257.5 -91t258.5 98t99.5 279q0 178 -101 277.5t-247 99.5q-197 0 -326 -160h-139l111 740h723v-117h-623l-76 -502q49 67 143.5 111.5
t211.5 44.5z" />
    <glyph glyph-name="six" unicode="6" horiz-adv-x="1183" 
d="M637 954q125 0 228 -55.5t166 -165.5t63 -256q0 -228 -137 -361.5t-351 -133.5q-243 0 -375.5 179.5t-132.5 526.5q0 126 14.5 232.5t51.5 207t94.5 170.5t149 112t210.5 42q102 0 184.5 -31t134.5 -82.5t81.5 -114t34.5 -130.5h-129q-14 104 -94 173.5t-209 69.5
q-389 0 -385 -628q39 114 143.5 179.5t257.5 65.5zM606 102q158 0 253 101.5t95 273.5q0 170 -95 270.5t-251 100.5q-145 0 -246.5 -96t-101.5 -242q0 -182 94.5 -295t251.5 -113z" />
    <glyph glyph-name="seven" unicode="7" horiz-adv-x="987" 
d="M915 1434v-123q-417 -651 -509 -1311h-150q107 678 522 1311h-717v123h854z" />
    <glyph glyph-name="eight" unicode="8" horiz-adv-x="1163" 
d="M799 801q133 -48 209.5 -145t76.5 -238q0 -202 -142.5 -320t-360.5 -118q-143 0 -256 51t-180.5 152t-67.5 235q0 141 77.5 238t211.5 145q-94 44 -148.5 122.5t-54.5 180.5q0 147 112 245.5t306 98.5q195 0 307 -98.5t112 -245.5q0 -101 -55 -180t-147 -123zM582 1341
q-136 0 -212.5 -67.5t-76.5 -177.5q0 -113 78.5 -182.5t210.5 -69.5q133 0 211.5 69.5t78.5 182.5q0 110 -76.5 177.5t-213.5 67.5zM582 100q163 0 260.5 87.5t97.5 234.5t-97.5 233t-260.5 86q-162 0 -260.5 -86t-98.5 -233t98 -234.5t261 -87.5z" />
    <glyph glyph-name="nine" unicode="9" horiz-adv-x="1173" 
d="M537 479q-125 0 -228.5 55.5t-167 165.5t-63.5 256q0 228 137.5 362t351.5 134q241 0 373.5 -180t132.5 -527q0 -126 -14.5 -232.5t-51 -207t-94 -170t-149.5 -111.5t-211 -42q-102 0 -184 31t-133.5 82.5t-80.5 114t-34 130.5h127q16 -104 96 -174t209 -70
q91 0 160.5 36t111.5 94.5t68 142.5t35 170t8 186q-37 -114 -141.5 -180t-257.5 -66zM565 1331q-156 0 -251 -101.5t-95 -273.5q0 -170 94.5 -270t251.5 -100q145 0 246.5 96t101.5 242q0 181 -95.5 294t-252.5 113z" />
    <glyph glyph-name="colon" unicode=":" horiz-adv-x="464" 
d="M143 1063h179v-191h-179v191zM143 190h179v-190h-179v190z" />
    <glyph glyph-name="semicolon" unicode=";" horiz-adv-x="464" 
d="M143 1063h179v-191h-179v191zM143 -291v51q42 21 58 61.5t16 117.5v61h-74v190h179v-251q0 -222 -179 -230z" />
    <glyph glyph-name="less" unicode="&#x3c;" horiz-adv-x="1038" 
d="M946 143l-725 349l725 350v143l-854 -422v-141l854 -422v143z" />
    <glyph glyph-name="equal" unicode="=" horiz-adv-x="931" 
d="M82 795h602v-115h-602v115zM82 467h602v-115h-602v115z" />
    <glyph glyph-name="greater" unicode="&#x3e;" horiz-adv-x="1038" 
d="M92 143v-143l854 422v141l-854 422v-143l725 -350z" />
    <glyph glyph-name="question" unicode="?" horiz-adv-x="1060" 
d="M535 1448q-200 0 -322 -118.5t-121 -336.5h146q0 160 81 244t216 84q133 0 210.5 -68t77.5 -192q0 -53 -20 -96t-51.5 -74t-70 -59.5t-77 -60.5t-70 -69.5t-51.5 -94t-20 -126.5v-90h151v90q0 59 19.5 106t51 79.5t69.5 61.5t75.5 59.5t69 65.5t51 88.5t19.5 119.5
q0 183 -120.5 285t-313.5 102zM451 190h178v-190h-178v190z" />
    <glyph glyph-name="at" unicode="@" horiz-adv-x="1581" 
d="M1260 170q-187 -184 -469 -184q-136 0 -262 51t-224.5 142.5t-157.5 230t-59 301.5q0 135 38.5 253.5t105.5 205.5t156 150.5t192 95.5t211 32q110 0 214 -33.5t192 -97.5t154.5 -152t104 -203.5t37.5 -244.5q0 -181 -76 -282t-186 -101q-95 0 -148.5 57t-64.5 150
q-27 -97 -101 -153t-163 -56q-59 0 -114.5 22.5t-103 66.5t-76 118.5t-28.5 169.5q0 91 29 163.5t76.5 114.5t102.5 64t112 22q88 0 162.5 -58.5t78.5 -142.5v183h103v-426q0 -92 35 -143.5t102 -51.5q71 0 114.5 75.5t43.5 207.5q0 140 -48.5 259t-130.5 198.5t-191 124
t-230 44.5q-117 0 -224 -42t-190.5 -120t-133.5 -200t-50 -270q0 -143 50.5 -262.5t135 -196.5t191 -119.5t221.5 -42.5q205 0 350 117zM760 434q94 0 157.5 75.5t63.5 199.5q0 121 -63.5 191.5t-157.5 70.5q-90 0 -155.5 -69.5t-65.5 -192.5q0 -129 65.5 -202t155.5 -73z
" />
    <glyph glyph-name="A" unicode="A" horiz-adv-x="1392" 
d="M1171 0l-147 381h-655l-148 -381h-164l574 1434h131l573 -1434h-164zM414 498h565l-283 735z" />
    <glyph glyph-name="B" unicode="B" horiz-adv-x="1267" 
d="M856 784q151 -38 232 -136.5t81 -244.5q0 -192 -128.5 -297.5t-383.5 -105.5h-538v1434h532q214 0 321 -94.5t107 -254.5q0 -108 -56 -187.5t-167 -113.5zM270 1305v-471h394q121 0 190.5 66t69.5 179q0 101 -65.5 163.5t-203.5 62.5h-385zM659 131q180 0 265.5 75
t85.5 206q0 135 -92 217t-271 82h-377v-580h389z" />
    <glyph glyph-name="C" unicode="C" horiz-adv-x="1327" 
d="M719 117q153 0 251 61.5t142 173.5h154q-42 -176 -189.5 -273t-359.5 -97q-137 0 -250.5 46t-198.5 135.5t-132.5 231t-47.5 322.5t47.5 322.5t132.5 231t198.5 135.5t250.5 46q210 0 356 -97t187 -272h-154q-43 111 -139.5 172.5t-247.5 61.5q-214 0 -343.5 -153
t-129.5 -447q0 -292 129.5 -446t343.5 -154z" />
    <glyph glyph-name="D" unicode="D" horiz-adv-x="1337" 
d="M561 1434q345 0 522 -185.5t177 -531.5t-177 -531.5t-522 -185.5h-442v1434h442zM551 135q287 0 422 143.5t135 438.5q0 296 -135 438.5t-422 142.5h-281v-1163h281z" />
    <glyph glyph-name="E" unicode="E" horiz-adv-x="1120" 
d="M270 135h789v-135h-940v1434h919v-136h-768v-497h666v-125h-666v-541z" />
    <glyph glyph-name="F" unicode="F" horiz-adv-x="1087" 
d="M1026 1298h-756v-520h619v-125h-619v-653h-151v1434h907v-136z" />
    <glyph glyph-name="G" unicode="G" horiz-adv-x="1406" 
d="M1309 727v-80q0 -328 -148 -496.5t-438 -168.5q-140 0 -255 46t-200.5 135.5t-132.5 231t-47 322.5t46.5 322.5t131 231t199 135.5t252.5 46q203 0 341.5 -91t184.5 -255h-153q-93 211 -371 211q-217 0 -345 -152.5t-128 -447.5t129 -447.5t348 -152.5q440 0 446 487
h-378v123h518z" />
    <glyph glyph-name="H" unicode="H" horiz-adv-x="1320" 
d="M1051 1434h151v-1434h-151v637h-781v-637h-151v1434h151v-670h781v670z" />
    <glyph glyph-name="I" unicode="I" horiz-adv-x="391" 
d="M270 0h-151v1434h151v-1434z" />
    <glyph glyph-name="J" unicode="J" horiz-adv-x="1015" 
d="M131 260q115 -139 311 -139q51 0 95 11t85 37.5t70 68.5t46.5 107.5t17.5 150.5v938h151v-942q0 -135 -37.5 -235.5t-104 -158t-147 -85t-176.5 -27.5q-253 0 -395 180z" />
    <glyph glyph-name="K" unicode="K" horiz-adv-x="1294" 
d="M1077 0l-583 662l-224 -244v-418h-151v1434h151v-809l748 809h180l-608 -666l663 -768h-176z" />
    <glyph glyph-name="L" unicode="L" horiz-adv-x="1081" 
d="M270 135h744v-135h-895v1434h151v-1299z" />
    <glyph glyph-name="M" unicode="M" horiz-adv-x="1691" 
d="M119 1434h166l561 -1244l561 1244h166v-1434h-152v1145h-6l-506 -1145h-127l-506 1145h-6v-1145h-151v1434z" />
    <glyph glyph-name="N" unicode="N" horiz-adv-x="1347" 
d="M1227 1434v-1434h-172l-779 1200h-6v-1200h-151v1434h170l782 -1205h4v1205h152z" />
    <glyph glyph-name="O" unicode="O" horiz-adv-x="1458" 
d="M729 1452q141 0 257.5 -47t202 -137.5t132.5 -231t47 -319.5q0 -178 -47 -318.5t-132.5 -231.5t-202 -138t-257.5 -47t-258 47t-202.5 138t-133 231.5t-47.5 318.5q0 179 47.5 319.5t133.5 231t202.5 137.5t257.5 47zM729 117q223 0 353 151.5t130 448.5t-130 448.5
t-353 151.5q-224 0 -353.5 -151.5t-129.5 -448.5t129.5 -448.5t353.5 -151.5z" />
    <glyph glyph-name="P" unicode="P" horiz-adv-x="1202" 
d="M627 1434q248 0 378 -120.5t130 -338.5q0 -217 -130.5 -337t-377.5 -120h-357v-518h-151v1434h508zM631 653q167 0 255.5 83t88.5 239q0 157 -88.5 240t-255.5 83h-361v-645h361z" />
    <glyph glyph-name="Q" unicode="Q" horiz-adv-x="1478" 
d="M1386 61l-90 -88l-149 152q-169 -143 -418 -143q-141 0 -258 47t-202.5 138t-133 231.5t-47.5 318.5q0 179 47.5 319.5t133.5 231t202.5 137.5t257.5 47t257.5 -47t202 -137.5t132.5 -231t47 -319.5q0 -310 -137 -498zM729 117q194 0 315 112l-268 271l90 88l258 -260
q88 154 88 389q0 297 -130 448.5t-353 151.5q-224 0 -353.5 -151.5t-129.5 -448.5t129.5 -448.5t353.5 -151.5z" />
    <glyph glyph-name="R" unicode="R" horiz-adv-x="1263" 
d="M1155 240q0 -188 41 -240h-152q-40 51 -40 240v116q0 238 -265 238h-469v-594h-151v1434h555q240 0 361.5 -107.5t121.5 -298.5q0 -130 -60.5 -222t-172.5 -140q122 -32 176.5 -105t54.5 -203v-118zM702 719q138 0 220 77.5t82 217.5q0 286 -332 286h-402v-581h432z" />
    <glyph glyph-name="S" unicode="S" horiz-adv-x="1234" 
d="M719 784q104 -21 179 -50.5t133 -75t87 -112.5t29 -157q0 -187 -140 -297t-384 -110q-124 0 -222.5 32t-163 90t-102 135t-47.5 171h158q51 -297 377 -297q177 0 271.5 76t94.5 200q0 62 -21.5 109t-62 77.5t-87 48.5t-109.5 31l-211 43q-379 77 -379 369
q0 168 128 276.5t361 108.5q221 0 348.5 -100.5t151.5 -272.5h-156q-21 109 -104.5 176.5t-239.5 67.5q-167 0 -250.5 -75.5t-83.5 -182.5q0 -191 254 -244z" />
    <glyph glyph-name="T" unicode="T" horiz-adv-x="1181" 
d="M1122 1434v-136h-456v-1298h-152v1298h-457v136h1065z" />
    <glyph glyph-name="U" unicode="U" horiz-adv-x="1331" 
d="M1212 543q0 -262 -147 -411.5t-399 -149.5q-253 0 -400 149t-147 412v891h151v-885q0 -205 104.5 -318.5t291.5 -113.5q185 0 289 113.5t104 318.5v885h153v-891z" />
    <glyph glyph-name="V" unicode="V" horiz-adv-x="1372" 
d="M1161 1434h164l-573 -1434h-131l-574 1434h164l475 -1233z" />
    <glyph glyph-name="W" unicode="W" horiz-adv-x="2035" 
d="M1819 1434h159l-417 -1434h-144l-399 1219l-400 -1219h-143l-418 1434h158l340 -1211l383 1211h160l383 -1211z" />
    <glyph glyph-name="X" unicode="X" horiz-adv-x="1308" 
d="M1262 0h-172l-435 618l-436 -618h-172l522 741l-487 693h170l403 -572l402 572h170l-488 -693z" />
    <glyph glyph-name="Y" unicode="Y" horiz-adv-x="1320" 
d="M737 565v-565h-153v565l-527 869h170l432 -721l435 721h170z" />
    <glyph glyph-name="Z" unicode="Z" horiz-adv-x="1243" 
d="M1161 135v-135h-1079v125l897 1173h-862v136h1036v-125l-897 -1174h905z" />
    <glyph glyph-name="bracketleft" unicode="[" horiz-adv-x="561" 
d="M264 1399v-1538h178v-127h-323v1792h323v-127h-178z" />
    <glyph glyph-name="backslash" unicode="\" horiz-adv-x="823" 
d="M61 1434h146l555 -1434h-144z" />
    <glyph glyph-name="bracketright" unicode="]" horiz-adv-x="561" 
d="M297 1399h-178v127h323v-1792h-323v127h178v1538z" />
    <glyph glyph-name="asciicircum" unicode="^" horiz-adv-x="976" 
d="M764 952l-275 383l-276 -383h-121l346 482h101l346 -482h-121z" />
    <glyph glyph-name="underscore" unicode="_" horiz-adv-x="1208" 
d="M92 0h1024v-129h-1024v129z" />
    <glyph glyph-name="grave" unicode="`" horiz-adv-x="342" 
d="M342 1190l-182 262h-160l215 -262h127z" />
    <glyph glyph-name="a" unicode="a" horiz-adv-x="1087" 
d="M961 170q0 -42 17.5 -59.5t61.5 -16.5v-92q-25 -10 -61 -10q-76 0 -114 34t-38 115v84q-11 -23 -29 -49t-54 -61t-79.5 -62.5t-110 -47t-140.5 -19.5q-155 0 -250.5 82t-95.5 233q0 135 90 209t282 102q14 2 65.5 10t74 11.5t66.5 11.5t68.5 14.5t53.5 15.5t47 19v17
q0 138 -65 195t-205 57q-245 0 -271 -164h-139q17 136 123.5 206t288.5 70q213 0 313.5 -92t100.5 -307v-506zM815 340v258q-27 -15 -90 -31t-116 -25t-150 -24q-136 -23 -191 -73t-55 -140q0 -96 61.5 -152.5t169.5 -56.5q65 0 124.5 20.5t98.5 48.5t72 65t49 62.5t27 47.5
z" />
    <glyph glyph-name="b" unicode="b" horiz-adv-x="1173" 
d="M633 1075q89 0 171 -33t150 -97t109 -171t41 -242q0 -137 -40.5 -244.5t-109 -171.5t-151.5 -97t-174 -33q-127 0 -222 65t-143 172v-223h-145v1446h145v-588q52 103 149.5 160t219.5 57zM608 109q72 0 134.5 25.5t112.5 75.5t79 133t29 189t-29 188t-79 131.5t-112.5 75
t-134.5 25.5q-70 0 -131.5 -25t-111.5 -74t-78.5 -131.5t-28.5 -189.5q0 -104 29 -186.5t78 -133t111 -77t132 -26.5z" />
    <glyph glyph-name="c" unicode="c" horiz-adv-x="1064" 
d="M563 106q119 0 193.5 51t111.5 156h136q-23 -89 -67 -154t-104 -102t-126.5 -54t-143.5 -17q-75 0 -146 20t-134.5 63t-111 105.5t-75.5 154t-28 201.5t27.5 201.5t75 154.5t111 106t134 63t145.5 20q159 0 274 -76.5t160 -244.5h-135q-74 200 -299 200q-71 0 -133 -26
t-111.5 -77t-78.5 -133.5t-29 -187.5q0 -106 29 -189t79 -133.5t112.5 -76t133.5 -25.5z" />
    <glyph glyph-name="d" unicode="d" horiz-adv-x="1173" 
d="M541 1075q122 0 219 -57t149 -160v588h146v-1446h-146v223q-48 -107 -142.5 -172t-221.5 -65q-91 0 -174 33t-151.5 97t-109 171.5t-40.5 244.5q0 135 41 242t109 171t150 97t171 33zM565 109q70 0 132 26.5t111 77t78 133t29 186.5q0 107 -28.5 189.5t-78.5 131.5
t-111.5 74t-131.5 25q-72 0 -134.5 -25.5t-112 -75t-78.5 -131.5t-29 -188t29 -189t78.5 -133t112 -75.5t134.5 -25.5z" />
    <glyph glyph-name="e" unicode="e" horiz-adv-x="1097" 
d="M1030 528q0 -33 -2 -51h-817q12 -191 106.5 -284t253.5 -93q102 0 168.5 29t116.5 100h137q-65 -128 -169 -185.5t-261 -57.5q-102 0 -190 34t-157 99t-108.5 171t-39.5 240q0 135 41 241.5t110.5 171.5t156 98.5t183.5 33.5q98 0 182 -33.5t149 -99t102.5 -171.5
t37.5 -243zM211 580h680q-3 184 -93 282.5t-239 98.5q-145 0 -240.5 -97t-107.5 -284z" />
    <glyph glyph-name="f" unicode="f" horiz-adv-x="655" 
d="M485 1350q-78 0 -114.5 -38t-36.5 -128v-119h268v-119h-268v-946h-146v946h-147v119h147v121q0 69 16 120.5t41 81.5t62 48t72.5 24t79.5 6q91 0 155 -22v-111q-70 17 -129 17z" />
    <glyph glyph-name="g" unicode="g" horiz-adv-x="1171" 
d="M905 1067h146v-1065q0 -105 -30 -186.5t-77 -131t-112.5 -81t-129.5 -43t-135 -11.5q-148 0 -264 54t-170 149l94 60q48 -66 133 -103t195 -37q350 0 350 330v221q-46 -107 -140.5 -171t-223.5 -64q-89 0 -171.5 33t-151 97t-109.5 171t-41 243q0 135 41 242t109 171
t150 97t171 33q122 0 218.5 -57t147.5 -160v209zM563 109q70 0 132 26.5t111 77t78 133t29 186.5q0 107 -29 190t-78.5 132.5t-111 74.5t-131.5 25t-132 -25.5t-112 -75t-79 -132.5t-29 -189t29 -189t79 -133t112 -75.5t132 -25.5z" />
    <glyph glyph-name="h" unicode="h" horiz-adv-x="1146" 
d="M649 1075q83 0 149 -22t119 -70.5t82 -134t29 -203.5v-645h-145v641q0 166 -72 237.5t-207 71.5q-74 0 -137 -29.5t-103 -75.5t-65 -92t-35 -89v-664h-145v1446h145v-635q8 26 26.5 57.5t52.5 69t76 67.5t103 50t127 20z" />
    <glyph glyph-name="i" unicode="i" horiz-adv-x="385" 
d="M119 1452h145v-143h-145v143zM119 1065h145v-1065h-145v1065z" />
    <glyph glyph-name="j" unicode="j" horiz-adv-x="417" 
d="M154 1452h145v-143h-145v143zM-139 -283q86 -39 162 -39q66 0 98.5 43.5t32.5 116.5v1227h145v-1237q0 -279 -250 -279q-116 0 -188 45v123z" />
    <glyph glyph-name="k" unicode="k" horiz-adv-x="1091" 
d="M897 0l-444 508l-189 -195v-313h-145v1446h145v-961l561 580h170l-448 -461l516 -604h-166z" />
    <glyph glyph-name="l" unicode="l" horiz-adv-x="385" 
d="M119 1446h145v-1446h-145v1446z" />
    <glyph glyph-name="m" unicode="m" horiz-adv-x="1843" 
d="M1362 1075q79 0 142 -23t113.5 -72t78.5 -134.5t28 -202.5v-643h-145v637q0 167 -67 240t-191 73q-60 0 -113.5 -20t-91 -53t-66 -73t-42 -80.5t-13.5 -76.5v-647h-145v637q0 313 -258 313q-72 0 -133.5 -30t-100 -76.5t-62.5 -94t-32 -90.5v-659h-145v1065h145v-254
q8 33 35.5 75t72 86t114 73.5t147.5 29.5q128 0 219.5 -63t124.5 -201q16 46 49.5 91t81 84.5t114.5 64t140 24.5z" />
    <glyph glyph-name="n" unicode="n" horiz-adv-x="1146" 
d="M649 1075q83 0 149 -22t119 -70.5t82 -134t29 -203.5v-645h-145v641q0 166 -72 237.5t-207 71.5q-74 0 -137 -29.5t-103 -75.5t-65 -92t-35 -89v-664h-145v1065h145v-254q8 26 26.5 57.5t52.5 69t76 67.5t103 50t127 20z" />
    <glyph glyph-name="o" unicode="o" horiz-adv-x="1116" 
d="M559 1075q90 0 175.5 -33.5t156.5 -98t114.5 -171t43.5 -240.5q0 -109 -28.5 -201t-76.5 -154.5t-112 -106.5t-132.5 -64t-140.5 -20t-141.5 20t-133 64t-111.5 106.5t-76.5 154.5t-28.5 201q0 134 43 240.5t114.5 171t157 98t176.5 33.5zM907 532q0 105 -29 187
t-78.5 132t-110.5 75.5t-130 25.5t-130.5 -25.5t-111 -75.5t-79 -132t-29.5 -187q0 -106 29.5 -189t79 -133t111 -75.5t130.5 -25.5t130 25.5t110.5 75.5t78.5 133t29 189z" />
    <glyph glyph-name="p" unicode="p" horiz-adv-x="1173" 
d="M633 1075q70 0 136.5 -20t127.5 -63.5t106.5 -106t73 -153.5t27.5 -200q0 -137 -41 -244.5t-109.5 -171.5t-151.5 -97t-173 -33q-128 0 -223 63.5t-142 171.5v-610h-145v1454h145v-209q52 104 149.5 161.5t219.5 57.5zM608 109q70 0 132.5 25.5t113 75t80 132.5t29.5 190
q0 106 -29.5 188.5t-80 132t-113 74.5t-132.5 25t-131.5 -25t-111.5 -74t-78.5 -131.5t-28.5 -189.5q0 -104 29 -186.5t78 -133t111 -77t132 -26.5z" />
    <glyph glyph-name="q" unicode="q" horiz-adv-x="1173" 
d="M541 1075q122 0 219 -57.5t149 -161.5v209h146v-1454h-146v610q-47 -108 -141.5 -171.5t-222.5 -63.5q-90 0 -173 33t-151.5 97t-109.5 171.5t-41 244.5q0 109 27.5 200t73 153.5t106.5 106t127.5 63.5t136.5 20zM565 109q70 0 132 26.5t111 77t78 133t29 186.5
q0 107 -28.5 189.5t-78.5 131.5t-111.5 74t-131.5 25t-132.5 -25t-112.5 -74.5t-79.5 -132t-29.5 -188.5q0 -107 29.5 -190t79.5 -132.5t112.5 -75t132.5 -25.5z" />
    <glyph glyph-name="r" unicode="r" horiz-adv-x="768" 
d="M637 1075q45 0 72 -4v-131q-27 2 -62 2q-161 0 -258 -81.5t-125 -229.5v-631h-145v1065h145v-268q25 117 123.5 197.5t249.5 80.5z" />
    <glyph glyph-name="s" unicode="s" horiz-adv-x="974" 
d="M760 799q-55 162 -275 162q-118 0 -185 -49.5t-67 -127.5q0 -68 45.5 -108.5t149.5 -65.5l170 -39q69 -16 111 -29t86.5 -35t68 -49t39 -69t15.5 -98q0 -79 -34.5 -139.5t-95 -95.5t-134 -52.5t-158.5 -17.5q-182 0 -300 80t-139 241h138q44 -207 301 -207
q120 0 198 48.5t78 142.5q0 34 -9.5 59.5t-24.5 42.5t-42.5 30.5t-54 21.5t-68.5 18l-190 45q-144 34 -215.5 102t-71.5 176q0 134 106.5 211.5t282.5 77.5q162 0 269 -70.5t139 -205.5h-133z" />
    <glyph glyph-name="t" unicode="t" horiz-adv-x="636" 
d="M451 106q52 0 116 17v-113q-71 -22 -161 -22q-97 0 -151 42.5t-54 149.5v766h-164v119h164v266h145v-266h205v-119h-205v-751q0 -45 23.5 -67t81.5 -22z" />
    <glyph glyph-name="u" unicode="u" horiz-adv-x="1136" 
d="M872 1065h146v-1065h-146v252q-8 -26 -26.5 -58t-52.5 -69.5t-76 -67.5t-103 -50.5t-127 -20.5q-83 0 -149 22.5t-118.5 71.5t-81.5 134.5t-29 203.5v647h145v-643q0 -167 72 -239t206 -72q60 0 113 20t90 51t66.5 71t46 76t24.5 70v666z" />
    <glyph glyph-name="v" unicode="v" horiz-adv-x="1112" 
d="M639 0h-166l-426 1065h146l362 -924l363 924h145z" />
    <glyph glyph-name="w" unicode="w" horiz-adv-x="1642" 
d="M1593 1065l-317 -1065h-137l-318 885l-319 -885h-135l-320 1065h148l254 -887l313 887h119l311 -887l254 887h147z" />
    <glyph glyph-name="x" unicode="x" horiz-adv-x="1060" 
d="M1001 0h-163l-308 438l-309 -438h-164l394 547l-373 518h162l290 -408l289 408h164l-373 -518z" />
    <glyph glyph-name="y" unicode="y" horiz-adv-x="1083" 
d="M887 1065h149l-461 -1153q-71 -176 -169.5 -245t-243.5 -50v127q108 -14 175.5 31.5t106.5 144.5q19 47 21.5 69t-8.5 54l-410 1022h152l342 -903z" />
    <glyph glyph-name="z" unicode="z" horiz-adv-x="1015" 
d="M254 125h680v-125h-852v125l680 815h-660v125h832v-125z" />
    <glyph glyph-name="braceleft" unicode="{" horiz-adv-x="565" 
d="M330 766l-88 -139l88 -135v-562q0 -32 19.5 -50.5t51.5 -18.5h72v-127h-121q-70 0 -119 44.5t-49 125.5v577l-92 146l92 149v580q0 81 49 125.5t119 44.5h121v-127h-72q-32 0 -51.5 -19t-19.5 -51v-563z" />
    <glyph glyph-name="bar" unicode="|" horiz-adv-x="436" 
d="M154 1638h129v-2027h-129v2027z" />
    <glyph glyph-name="braceright" unicode="}" horiz-adv-x="565" 
d="M236 766v563q0 32 -20 51t-52 19h-72v127h121q70 0 119 -44.5t49 -125.5v-580l92 -149l-92 -146v-577q0 -81 -49 -125.5t-119 -44.5h-121v127h72q33 0 52.5 18.5t19.5 50.5v562l88 135z" />
    <glyph glyph-name="asciitilde" unicode="~" horiz-adv-x="942" 
d="M764 670h76q0 -96 -59 -152.5t-148 -56.5q-42 0 -80.5 16t-68.5 38.5t-58.5 45.5t-63 39t-69.5 16q-56 0 -86.5 -30t-28.5 -66h-76q0 96 59 152.5t148 56.5q52 0 100 -24.5t79.5 -53.5t74.5 -53.5t86 -24.5q57 0 87 30t28 67z" />
    <glyph glyph-name="exclamdown" unicode="&#xa1;" horiz-adv-x="370" 
d="M119 874v191h178v-191h-178zM279 676l6 -1045h-150l4 1045h140z" />
    <glyph glyph-name="cent" unicode="&#xa2;" horiz-adv-x="1064" 
d="M1004 461q-43 -163 -154 -240t-264 -82v-221h-72v223q-89 8 -167 44t-141.5 99.5t-100.5 164t-37 225.5t37 225.5t100.5 163.5t141.5 99t167 44v228h72v-226q97 -4 175 -35.5t141.5 -102.5t92.5 -177h-135q-71 185 -274 197v-832q108 4 177.5 54t104.5 149h136zM209 674
q0 -185 86.5 -290.5t218.5 -121.5v825q-133 -18 -219 -123.5t-86 -289.5z" />
    <glyph glyph-name="sterling" unicode="&#xa3;" horiz-adv-x="1095" 
d="M1004 983h-138v37q0 141 -84.5 221t-220.5 80q-135 0 -218 -74.5t-83 -202.5q0 -45 13 -95.5t26.5 -82.5t41.5 -89.5t38 -80.5h285v-94h-250q14 -58 14 -98q0 -207 -188 -395q75 28 152.5 32.5t146.5 -6t138 -21.5t150.5 -9.5t159.5 24.5v-129q-98 -25 -175.5 -21.5
t-163 15.5t-157 24.5t-157.5 4.5t-164 -43l-76 102q195 207 195 407q0 52 -21 113h-176v94h137q-3 6 -24 49.5t-27 56.5t-21.5 51.5t-21 63t-11 61.5t-5.5 73q0 180 123 288.5t319 108.5q192 0 317.5 -115.5t125.5 -312.5v-37z" />
    <glyph glyph-name="currency" unicode="&#xa4;" horiz-adv-x="1146" 
d="M1030 975q0 -144 -84 -264l94 -95l-96 -96l-92 92q-123 -96 -281 -96q-156 0 -280 94l-88 -90l-99 96l95 93q-86 116 -86 266q0 145 86 268l-95 94l99 97l92 -93q124 93 276 93q153 0 279 -95l94 95l96 -97l-94 -96q84 -120 84 -266zM571 639q142 0 240 102t98 234
q0 84 -43 161t-122 126t-173 49q-140 0 -236.5 -102.5t-96.5 -233.5q0 -85 42 -162t120 -125.5t171 -48.5z" />
    <glyph glyph-name="yen" unicode="&#xa5;" horiz-adv-x="1320" 
d="M737 565v-2h275v-94h-275v-113h275v-92h-275v-264h-153v264h-273v92h273v113h-273v94h273v2l-527 869h170l432 -721l435 721h170z" />
    <glyph glyph-name="brokenbar" unicode="&#xa6;" horiz-adv-x="436" 
d="M154 1638h129v-573h-129v573zM154 184h129v-573h-129v573z" />
    <glyph glyph-name="section" unicode="&#xa7;" horiz-adv-x="1286" 
d="M1184 379q0 -147 -88 -244q67 -89 67 -223q0 -188 -139 -291.5t-389 -103.5q-247 0 -378.5 110.5t-154.5 304.5h158q11 -63 34 -111t65.5 -87.5t112 -60.5t163.5 -21q187 0 278 68.5t91 193.5q0 120 -73.5 183t-205.5 91l-211 45q-375 80 -375 377q0 151 97 244
q-76 88 -76 223q0 167 124.5 270t356.5 103q224 0 347 -94.5t147 -265.5h-158q-16 107 -94.5 166t-241.5 59q-168 0 -246 -67t-78 -173q0 -196 250 -248l187 -41q103 -21 178.5 -52t134 -78.5t88 -117t29.5 -159.5zM733 319q154 -32 248 -86q43 61 43 146q0 63 -21 111
t-60 80t-87 52t-111 33l-210 45q-101 21 -179 62q-59 -62 -59 -154q0 -196 250 -248z" />
    <glyph glyph-name="dieresis" unicode="&#xa8;" horiz-adv-x="583" 
d="M0 1452h154v-178h-154v178zM432 1452h152v-178h-152v178z" />
    <glyph glyph-name="copyright" unicode="&#xa9;" horiz-adv-x="1640" 
d="M819 -14q-200 0 -367 93.5t-265.5 261.5t-98.5 376q0 155 58 291.5t156.5 232t233 150.5t283.5 55t283.5 -55t233 -150.5t156.5 -232t58 -291.5q0 -208 -98.5 -376t-265.5 -261.5t-367 -93.5zM819 82q131 0 248 47.5t202.5 130.5t136 202t50.5 255q0 181 -85.5 327
t-231 227t-320.5 81q-174 0 -319 -81t-230.5 -227t-85.5 -327t85.5 -327.5t230.5 -227t319 -80.5zM819 381q189 0 256 154h109q-43 -130 -140.5 -191t-224.5 -61q-81 0 -154.5 29t-131 82.5t-91.5 137.5t-34 185t34 185t91.5 137.5t131 82.5t154.5 29q125 0 221.5 -61
t139.5 -189h-109q-64 150 -252 150q-129 0 -217 -88t-88 -246q0 -159 88 -247.5t217 -88.5z" />
    <glyph glyph-name="ordfeminine" unicode="&#xaa;" horiz-adv-x="718" 
d="M627 967q0 -112 45 -179h-103q-13 17 -25.5 49.5t-15.5 65.5q-41 -54 -95 -86.5t-144 -32.5q-92 0 -156.5 51.5t-64.5 149.5q0 170 235 191l215 16q-2 85 -38.5 123.5t-121.5 38.5q-79 0 -117 -22.5t-51 -67.5h-96q13 91 81 137.5t185 46.5q147 0 207 -72t60 -231v-178z
M315 881q45 0 82.5 13t61 34t37 39.5t22.5 38.5v104q-27 -5 -106.5 -11t-104.5 -9q-129 -13 -129 -103q0 -52 36 -79t101 -27z" />
    <glyph glyph-name="guillemotleft" unicode="&#xab;" horiz-adv-x="806" 
d="M377 778l-193 -166l193 -168v-143l-295 252v117l295 252v-144zM725 778l-193 -166l193 -168v-143l-295 252v115l295 254v-144z" />
    <glyph glyph-name="logicalnot" unicode="&#xac;" horiz-adv-x="995" 
d="M903 639v-356h-145v237h-666v119h811z" />
    <glyph glyph-name="uni00AD" unicode="&#xad;" horiz-adv-x="718" 
d="M82 631h555v-115h-555v115z" />
    <glyph glyph-name="registered" unicode="&#xae;" horiz-adv-x="1640" 
d="M819 -14q-200 0 -367 93.5t-265.5 261.5t-98.5 376q0 155 58 291.5t156.5 232t233 150.5t283.5 55t283.5 -55t233 -150.5t156.5 -232t58 -291.5q0 -208 -98.5 -376t-265.5 -261.5t-367 -93.5zM819 82q131 0 248 47.5t202.5 130.5t136 202t50.5 255q0 181 -85.5 327
t-231 227t-320.5 81q-174 0 -319 -81t-230.5 -227t-85.5 -327t85.5 -327.5t230.5 -227t319 -80.5zM1110 451q0 -112 25 -140h-99q-22 29 -22 142v59q0 41 -11.5 68.5t-33 40.5t-44 17.5t-53.5 4.5h-241v-332h-94v811h307q268 0 268 -227q0 -155 -145 -207q76 -15 109.5 -56
t33.5 -118v-63zM856 723q77 0 119.5 42t42.5 126q0 77 -42 115t-132 38h-213v-321h225z" />
    <glyph glyph-name="macron" unicode="&#xaf;" horiz-adv-x="614" 
d="M0 1452h614v-94h-614v94z" />
    <glyph glyph-name="degree" unicode="&#xb0;" horiz-adv-x="784" 
d="M393 872q-126 0 -213.5 88.5t-87.5 213.5t87.5 212t213.5 87q125 0 212 -87.5t87 -211.5q0 -125 -87.5 -213.5t-211.5 -88.5zM393 987q81 0 134 55t53 132q0 76 -53 131t-134 55t-133.5 -55t-52.5 -131q0 -77 52.5 -132t133.5 -55z" />
    <glyph glyph-name="plusminus" unicode="&#xb1;" horiz-adv-x="1040" 
d="M588 782h360v-131h-360v-360h-137v360h-359v131h359v361h137v-361zM199 -37v115h602v-115h-602z" />
    <glyph glyph-name="uni00B2" unicode="&#xb2;" horiz-adv-x="516" 
d="M82 901v19q0 75 34.5 130.5t116.5 108.5q73 44 90 63q27 28 27 70q0 40 -27.5 65t-72.5 25q-47 0 -73.5 -27t-26.5 -77v-12h-68v12q0 75 45 120.5t123 45.5t123 -43t45 -109q0 -59 -37.5 -98.5t-114.5 -85.5q-112 -66 -112 -139v-6h270v-62h-342z" />
    <glyph glyph-name="uni00B3" unicode="&#xb3;" horiz-adv-x="536" 
d="M336 1186q48 -9 83.5 -43t35.5 -94q0 -68 -49.5 -112t-141.5 -44q-91 0 -141.5 47.5t-50.5 126.5h65q3 -115 129 -115q56 0 90.5 25.5t34.5 77.5q0 50 -36 75t-101 25h-23v51h23q55 0 84 27t29 65q0 40 -27 63t-76 23q-112 0 -112 -108h-62q0 79 46 123.5t126 44.5
q79 0 123.5 -40t44.5 -101q0 -44 -26.5 -75t-67.5 -42z" />
    <glyph glyph-name="acute" unicode="&#xb4;" horiz-adv-x="342" 
d="M0 1190h127l215 262h-160z" />
    <glyph glyph-name="uni00B5" unicode="&#xb5;" horiz-adv-x="1136" 
d="M872 1065h146v-1065h-146v252q-8 -26 -26.5 -58t-52.5 -69.5t-76 -67.5t-103 -50.5t-127 -20.5q-146 0 -233 65v-440h-145v1454h145v-643q0 -167 72 -239t206 -72q60 0 113 20t90 51t66.5 71t46 76t24.5 70v666z" />
    <glyph glyph-name="paragraph" unicode="&#xb6;" horiz-adv-x="1183" 
d="M1065 1434v-1885h-121v1786h-178v-1786h-129v1080h-148q-196 0 -308.5 112t-112.5 289q0 178 112.5 291t308.5 113h576z" />
    <glyph glyph-name="periodcentered" unicode="&#xb7;" horiz-adv-x="382" 
d="M102 680h179v-191h-179v191z" />
    <glyph glyph-name="cedilla" unicode="&#xb8;" horiz-adv-x="313" 
d="M123 -111q74 8 132 -32.5t58 -116.5q0 -186 -303 -186v69q187 3 187 113q0 57 -48.5 75t-109.5 -14l-25 37l-14 23l94 145h133z" />
    <glyph glyph-name="uni00B9" unicode="&#xb9;" horiz-adv-x="335" 
d="M254 1436v-535h-64v445q-29 -52 -108 -46v62q35 -1 66 21.5t42 52.5h64z" />
    <glyph glyph-name="ordmasculine" unicode="&#xba;" horiz-adv-x="772" 
d="M387 1450q59 0 115 -22t101.5 -63t73.5 -106t28 -143q0 -79 -28 -144.5t-73.5 -107t-101.5 -64t-115 -22.5q-126 0 -222.5 91.5t-96.5 246.5q0 78 27.5 143t73.5 106t102.5 63t115.5 22zM592 1116q0 109 -60 170.5t-145 61.5q-87 0 -147 -61.5t-60 -170.5
q0 -110 60 -171.5t147 -61.5q85 0 145 61.5t60 171.5z" />
    <glyph glyph-name="guillemotright" unicode="&#xbb;" horiz-adv-x="774" 
d="M59 778v144l295 -254v-115l-295 -252v143l193 168zM408 778v144l294 -252v-117l-294 -252v143l192 168z" />
    <glyph glyph-name="onequarter" unicode="&#xbc;" horiz-adv-x="1210" 
d="M254 1436v-535h-64v445q-29 -52 -108 -46v62q35 -1 66 21.5t42 52.5h64zM182 0h-84l895 1434h82zM1108 135h-61v-135h-66v135h-244v53l244 347h66v-347h61v-53zM981 188v261l-182 -261h182z" />
    <glyph glyph-name="onehalf" unicode="&#xbd;" horiz-adv-x="1185" 
d="M250 1436v-535h-64v445q-29 -52 -108 -46v62q35 -1 66 21.5t42 52.5h64zM195 0h-84l895 1434h81zM752 0v18q0 75 34.5 131t116.5 109q73 44 90 63q27 29 27 70q0 40 -27.5 65t-72.5 25q-47 0 -74 -27t-27 -77v-12h-67v12q0 75 45 120.5t123 45.5q77 0 122 -43t45 -109
q0 -59 -37.5 -99t-113.5 -85q-113 -67 -113 -139v-7h271v-61h-342z" />
    <glyph glyph-name="threequarters" unicode="&#xbe;" horiz-adv-x="1290" 
d="M350 1186q48 -9 83.5 -43t35.5 -94q0 -68 -49.5 -112t-140.5 -44t-142 47.5t-51 126.5h66q3 -115 129 -115q56 0 90.5 25.5t34.5 77.5q0 50 -36.5 75t-101.5 25h-22v51h22q55 0 84 27t29 65q0 40 -26.5 63t-75.5 23q-113 0 -113 -108h-62q0 79 46 123.5t126 44.5
q79 0 123.5 -40t44.5 -101q0 -44 -26.5 -75t-67.5 -42zM279 0h-84l895 1434h81zM1151 135h-61v-135h-66v135h-244v53l244 347h66v-347h61v-53zM1024 188v261l-182 -261h182z" />
    <glyph glyph-name="questiondown" unicode="&#xbf;" horiz-adv-x="1060" 
d="M610 874h-178v191h178v-191zM526 -383q200 0 322 118.5t121 336.5h-146q0 -160 -81 -244t-216 -84q-133 0 -210.5 68t-77.5 192q0 53 20 96t51.5 74t70 59.5t77 60.5t70 69.5t51.5 94t20 126.5v90h-152v-90q0 -59 -19.5 -106t-50.5 -79.5t-69 -61.5t-76 -59.5t-69 -65.5
t-50.5 -88.5t-19.5 -119.5q0 -183 120.5 -285t313.5 -102z" />
    <glyph glyph-name="Agrave" unicode="&#xc0;" horiz-adv-x="1392" 
d="M797 1559h-127l-215 262h159zM1171 0l-147 381h-655l-148 -381h-164l574 1434h131l573 -1434h-164zM414 498h565l-283 735z" />
    <glyph glyph-name="Aacute" unicode="&#xc1;" horiz-adv-x="1392" 
d="M934 1821l-215 -262h-127l182 262h160zM1171 0l-147 381h-655l-148 -381h-164l574 1434h131l573 -1434h-164zM414 498h565l-283 735z" />
    <glyph glyph-name="Acircumflex" unicode="&#xc2;" horiz-adv-x="1392" 
d="M696 1743l-196 -184h-119l188 262h252l189 -262h-119zM1171 0l-147 381h-655l-148 -381h-164l574 1434h131l573 -1434h-164zM414 498h565l-283 735z" />
    <glyph glyph-name="Atilde" unicode="&#xc3;" horiz-adv-x="1392" 
d="M524 1751q-54 0 -82 -27.5t-26 -62.5h-74q0 91 56.5 145t142.5 54q39 0 75.5 -15t65 -37t55.5 -44t59.5 -37t65.5 -15q54 0 83.5 28t27.5 62h74q0 -91 -57 -143.5t-142 -52.5q-40 0 -77 15t-65 36t-55.5 42.5t-60 36.5t-66.5 15zM1171 0l-147 381h-655l-148 -381h-164
l574 1434h131l573 -1434h-164zM414 498h565l-283 735z" />
    <glyph glyph-name="Adieresis" unicode="&#xc4;" horiz-adv-x="1392" 
d="M557 1821v-179h-154v179h154zM987 1821v-179h-151v179h151zM1171 0l-147 381h-655l-148 -381h-164l574 1434h131l573 -1434h-164zM414 498h565l-283 735z" />
    <glyph glyph-name="Aring" unicode="&#xc5;" horiz-adv-x="1392" 
d="M696 1559q-73 0 -123.5 49.5t-50.5 120.5t50.5 121.5t123.5 50.5t123.5 -50.5t50.5 -121.5t-50.5 -120.5t-123.5 -49.5zM696 1825q-41 0 -69.5 -27.5t-28.5 -68.5t28.5 -69t69.5 -28t70 28t29 69t-28.5 68.5t-70.5 27.5zM1171 0l-147 381h-655l-148 -381h-164l574 1434
h131l573 -1434h-164zM414 498h565l-283 735z" />
    <glyph glyph-name="AE" unicode="&#xc6;" horiz-adv-x="2041" 
d="M1190 135h788v-135h-940v379h-563l-258 -379h-160l981 1434h920v-136h-768v-497h665v-125h-665v-541zM559 502h479v700z" />
    <glyph glyph-name="Ccedilla" unicode="&#xc7;" horiz-adv-x="1327" 
d="M1266 352q-39 -165 -173 -261t-329 -107l-86 -95q74 8 132 -32.5t58 -116.5q0 -186 -303 -186v69q187 3 187 113q0 57 -48 75t-110 -14l-25 37l-14 23l84 129q-251 26 -401 212.5t-150 518.5q0 181 47.5 322.5t132.5 231t198.5 135.5t250.5 46q210 0 356 -97t187 -272
h-154q-43 111 -139.5 172.5t-247.5 61.5q-214 0 -343.5 -153t-129.5 -447q0 -292 129.5 -446t343.5 -154q153 0 251 61.5t142 173.5h154z" />
    <glyph glyph-name="Egrave" unicode="&#xc8;" horiz-adv-x="1120" 
d="M670 1559h-127l-215 262h159zM270 135h789v-135h-940v1434h919v-136h-768v-497h666v-125h-666v-541z" />
    <glyph glyph-name="Eacute" unicode="&#xc9;" horiz-adv-x="1120" 
d="M807 1821l-215 -262h-127l182 262h160zM270 135h789v-135h-940v1434h919v-136h-768v-497h666v-125h-666v-541z" />
    <glyph glyph-name="Ecircumflex" unicode="&#xca;" horiz-adv-x="1120" 
d="M569 1743l-196 -184h-119l188 262h252l189 -262h-119zM270 135h789v-135h-940v1434h919v-136h-768v-497h666v-125h-666v-541z" />
    <glyph glyph-name="Edieresis" unicode="&#xcb;" horiz-adv-x="1120" 
d="M430 1821v-179h-154v179h154zM860 1821v-179h-151v179h151zM270 135h789v-135h-940v1434h919v-136h-768v-497h666v-125h-666v-541z" />
    <glyph glyph-name="Igrave" unicode="&#xcc;" horiz-adv-x="391" 
d="M295 1559l-182 262h-160l215 -262h127zM270 0h-151v1434h151v-1434z" />
    <glyph glyph-name="Iacute" unicode="&#xcd;" horiz-adv-x="391" 
d="M90 1559h127l215 262h-160zM270 0h-151v1434h151v-1434z" />
    <glyph glyph-name="Icircumflex" unicode="&#xce;" horiz-adv-x="391" 
d="M389 1559l-194 184l-197 -184h-119l189 262h251l189 -262h-119zM270 0h-151v1434h151v-1434z" />
    <glyph glyph-name="Idieresis" unicode="&#xcf;" horiz-adv-x="391" 
d="M-98 1821h153v-179h-153v179zM334 1821h151v-179h-151v179zM270 0h-151v1434h151v-1434z" />
    <glyph glyph-name="Eth" unicode="&#xd0;" horiz-adv-x="1380" 
d="M606 1434q345 0 522 -185.5t177 -531.5t-177 -531.5t-522 -185.5h-442v655h-123v115h123v664h442zM596 135q287 0 422 143.5t135 438.5q0 296 -135 438.5t-422 142.5h-281v-528h281v-115h-281v-520h281z" />
    <glyph glyph-name="Ntilde" unicode="&#xd1;" horiz-adv-x="1347" 
d="M950 1802h74q0 -91 -57 -143.5t-142 -52.5q-40 0 -76.5 15t-65 36t-55.5 42.5t-59.5 36.5t-66.5 15q-54 0 -82.5 -27.5t-26.5 -62.5h-74q0 91 56.5 145t142.5 54q39 0 76 -15t65 -37t55.5 -44t60 -37t65.5 -15q54 0 83 27.5t27 62.5zM1227 1434v-1434h-172l-779 1200h-6
v-1200h-151v1434h170l782 -1205h4v1205h152z" />
    <glyph glyph-name="Ograve" unicode="&#xd2;" horiz-adv-x="1458" 
d="M829 1559l-182 262h-160l215 -262h127zM729 1452q141 0 257.5 -47t202 -137.5t132.5 -231t47 -319.5q0 -178 -47 -318.5t-132.5 -231.5t-202 -138t-257.5 -47t-258 47t-202.5 138t-133 231.5t-47.5 318.5q0 179 47.5 319.5t133.5 231t202.5 137.5t257.5 47zM729 117
q223 0 353 151.5t130 448.5t-130 448.5t-353 151.5q-224 0 -353.5 -151.5t-129.5 -448.5t129.5 -448.5t353.5 -151.5z" />
    <glyph glyph-name="Oacute" unicode="&#xd3;" horiz-adv-x="1458" 
d="M625 1559h127l215 262h-160zM729 1452q141 0 257.5 -47t202 -137.5t132.5 -231t47 -319.5q0 -178 -47 -318.5t-132.5 -231.5t-202 -138t-257.5 -47t-258 47t-202.5 138t-133 231.5t-47.5 318.5q0 179 47.5 319.5t133.5 231t202.5 137.5t257.5 47zM729 117
q223 0 353 151.5t130 448.5t-130 448.5t-353 151.5q-224 0 -353.5 -151.5t-129.5 -448.5t129.5 -448.5t353.5 -151.5z" />
    <glyph glyph-name="Ocircumflex" unicode="&#xd4;" horiz-adv-x="1458" 
d="M924 1559l-195 184l-197 -184h-118l188 262h252l188 -262h-118zM729 1452q141 0 257.5 -47t202 -137.5t132.5 -231t47 -319.5q0 -178 -47 -318.5t-132.5 -231.5t-202 -138t-257.5 -47t-258 47t-202.5 138t-133 231.5t-47.5 318.5q0 179 47.5 319.5t133.5 231t202.5 137.5
t257.5 47zM729 117q223 0 353 151.5t130 448.5t-130 448.5t-353 151.5q-224 0 -353.5 -151.5t-129.5 -448.5t129.5 -448.5t353.5 -151.5z" />
    <glyph glyph-name="Otilde" unicode="&#xd5;" horiz-adv-x="1458" 
d="M1006 1802h73q0 -91 -56.5 -143.5t-141.5 -52.5q-40 0 -77 15t-65 36t-55.5 42.5t-60 36.5t-66.5 15q-54 0 -82 -27.5t-26 -62.5h-74q0 91 56 145t142 54q39 0 76 -15t65 -37t55.5 -44t60 -37t65.5 -15q54 0 83.5 28t27.5 62zM729 1452q141 0 257.5 -47t202 -137.5
t132.5 -231t47 -319.5q0 -178 -47 -318.5t-132.5 -231.5t-202 -138t-257.5 -47t-258 47t-202.5 138t-133 231.5t-47.5 318.5q0 179 47.5 319.5t133.5 231t202.5 137.5t257.5 47zM729 117q223 0 353 151.5t130 448.5t-130 448.5t-353 151.5q-224 0 -353.5 -151.5
t-129.5 -448.5t129.5 -448.5t353.5 -151.5z" />
    <glyph glyph-name="Odieresis" unicode="&#xd6;" horiz-adv-x="1458" 
d="M436 1821h154v-179h-154v179zM868 1821h152v-179h-152v179zM729 1452q141 0 257.5 -47t202 -137.5t132.5 -231t47 -319.5q0 -178 -47 -318.5t-132.5 -231.5t-202 -138t-257.5 -47t-258 47t-202.5 138t-133 231.5t-47.5 318.5q0 179 47.5 319.5t133.5 231t202.5 137.5
t257.5 47zM729 117q223 0 353 151.5t130 448.5t-130 448.5t-353 151.5q-224 0 -353.5 -151.5t-129.5 -448.5t129.5 -448.5t353.5 -151.5z" />
    <glyph glyph-name="multiply" unicode="&#xd7;" horiz-adv-x="882" 
d="M791 788l-254 -256l254 -253l-93 -95l-256 256l-254 -256l-96 99l254 254l-252 254l92 92l254 -252l254 254z" />
    <glyph glyph-name="Oslash" unicode="&#xd8;" horiz-adv-x="1458" 
d="M1085 1354q134 -87 208.5 -248.5t74.5 -388.5q0 -178 -47 -318.5t-132.5 -231.5t-202 -138t-257.5 -47q-150 0 -274 53l-66 -137h-156l101 208q-246 193 -246 611q0 179 47.5 319.5t133.5 231t202.5 137.5t257.5 47q125 0 229 -37l54 111h155zM246 717q0 -320 153 -473
l500 1046q-77 27 -170 27q-224 0 -353.5 -151.5t-129.5 -448.5zM729 117q223 0 353 151.5t130 448.5q0 356 -190 506l-508 -1063q93 -43 215 -43z" />
    <glyph glyph-name="Ugrave" unicode="&#xd9;" horiz-adv-x="1331" 
d="M762 1559l-182 262h-160l215 -262h127zM1212 543q0 -262 -147 -411.5t-399 -149.5q-253 0 -400 149t-147 412v891h151v-885q0 -205 104.5 -318.5t291.5 -113.5q185 0 289 113.5t104 318.5v885h153v-891z" />
    <glyph glyph-name="Uacute" unicode="&#xda;" horiz-adv-x="1331" 
d="M557 1559h127l215 262h-160zM1212 543q0 -262 -147 -411.5t-399 -149.5q-253 0 -400 149t-147 412v891h151v-885q0 -205 104.5 -318.5t291.5 -113.5q185 0 289 113.5t104 318.5v885h153v-891z" />
    <glyph glyph-name="Ucircumflex" unicode="&#xdb;" horiz-adv-x="1331" 
d="M856 1559l-194 184l-197 -184h-119l189 262h251l189 -262h-119zM1212 543q0 -262 -147 -411.5t-399 -149.5q-253 0 -400 149t-147 412v891h151v-885q0 -205 104.5 -318.5t291.5 -113.5q185 0 289 113.5t104 318.5v885h153v-891z" />
    <glyph glyph-name="Udieresis" unicode="&#xdc;" horiz-adv-x="1331" 
d="M369 1821h153v-179h-153v179zM801 1821h151v-179h-151v179zM1212 543q0 -262 -147 -411.5t-399 -149.5q-253 0 -400 149t-147 412v891h151v-885q0 -205 104.5 -318.5t291.5 -113.5q185 0 289 113.5t104 318.5v885h153v-891z" />
    <glyph glyph-name="Yacute" unicode="&#xdd;" horiz-adv-x="1320" 
d="M555 1559h127l215 262h-160zM737 565v-565h-153v565l-527 869h170l432 -721l435 721h170z" />
    <glyph glyph-name="Thorn" unicode="&#xde;" horiz-adv-x="1210" 
d="M618 1157q251 0 388 -116t137 -320q0 -216 -134.5 -326t-390.5 -110h-354v-285h-145v1434h145v-277h354zM623 414q183 0 278.5 73.5t95.5 233.5q0 149 -98 229t-276 80h-359v-616h359z" />
    <glyph glyph-name="germandbls" unicode="&#xdf;" horiz-adv-x="1202" 
d="M791 786q147 -29 230 -128.5t83 -239.5q0 -418 -537 -418h-133v129h135q389 0 389 293q0 145 -106 220t-289 75h-129v119h129q157 0 232 57t75 182q0 112 -79.5 172t-221.5 60q-161 0 -233 -63.5t-72 -203.5v-1040h-145v1040q0 394 444 394q211 0 332 -90.5t121 -262.5
q0 -119 -58 -195.5t-167 -99.5z" />
    <glyph glyph-name="agrave" unicode="&#xe0;" horiz-adv-x="1087" 
d="M641 1190h-127l-215 262h160zM961 170q0 -42 17.5 -59.5t61.5 -16.5v-92q-25 -10 -61 -10q-76 0 -114 34t-38 115v84q-11 -23 -29 -49t-54 -61t-79.5 -62.5t-110 -47t-140.5 -19.5q-155 0 -250.5 82t-95.5 233q0 135 90 209t282 102q14 2 65.5 10t74 11.5t66.5 11.5
t68.5 14.5t53.5 15.5t47 19v17q0 138 -65 195t-205 57q-245 0 -271 -164h-139q17 136 123.5 206t288.5 70q213 0 313.5 -92t100.5 -307v-506zM815 340v258q-27 -15 -90 -31t-116 -25t-150 -24q-136 -23 -191 -73t-55 -140q0 -96 61.5 -152.5t169.5 -56.5q65 0 124.5 20.5
t98.5 48.5t72 65t49 62.5t27 47.5z" />
    <glyph glyph-name="aacute" unicode="&#xe1;" horiz-adv-x="1087" 
d="M778 1452l-215 -262h-127l182 262h160zM961 170q0 -42 17.5 -59.5t61.5 -16.5v-92q-25 -10 -61 -10q-76 0 -114 34t-38 115v84q-11 -23 -29 -49t-54 -61t-79.5 -62.5t-110 -47t-140.5 -19.5q-155 0 -250.5 82t-95.5 233q0 135 90 209t282 102q14 2 65.5 10t74 11.5
t66.5 11.5t68.5 14.5t53.5 15.5t47 19v17q0 138 -65 195t-205 57q-245 0 -271 -164h-139q17 136 123.5 206t288.5 70q213 0 313.5 -92t100.5 -307v-506zM815 340v258q-27 -15 -90 -31t-116 -25t-150 -24q-136 -23 -191 -73t-55 -140q0 -96 61.5 -152.5t169.5 -56.5
q65 0 124.5 20.5t98.5 48.5t72 65t49 62.5t27 47.5z" />
    <glyph glyph-name="acircumflex" unicode="&#xe2;" horiz-adv-x="1087" 
d="M541 1374l-197 -184h-119l189 262h252l188 -262h-119zM961 170q0 -42 17.5 -59.5t61.5 -16.5v-92q-25 -10 -61 -10q-76 0 -114 34t-38 115v84q-11 -23 -29 -49t-54 -61t-79.5 -62.5t-110 -47t-140.5 -19.5q-155 0 -250.5 82t-95.5 233q0 135 90 209t282 102q14 2 65.5 10
t74 11.5t66.5 11.5t68.5 14.5t53.5 15.5t47 19v17q0 138 -65 195t-205 57q-245 0 -271 -164h-139q17 136 123.5 206t288.5 70q213 0 313.5 -92t100.5 -307v-506zM815 340v258q-27 -15 -90 -31t-116 -25t-150 -24q-136 -23 -191 -73t-55 -140q0 -96 61.5 -152.5t169.5 -56.5
q65 0 124.5 20.5t98.5 48.5t72 65t49 62.5t27 47.5z" />
    <glyph glyph-name="atilde" unicode="&#xe3;" horiz-adv-x="1087" 
d="M369 1382q-54 0 -82.5 -27.5t-26.5 -62.5h-74q0 91 56.5 145t142.5 54q39 0 76 -15t65 -37t55.5 -44t60 -37t65.5 -15q54 0 83 28t27 63h74q0 -91 -57 -144t-142 -53q-40 0 -76.5 15t-65 36.5t-55.5 42.5t-59.5 36t-66.5 15zM961 170q0 -42 17.5 -59.5t61.5 -16.5v-92
q-25 -10 -61 -10q-76 0 -114 34t-38 115v84q-11 -23 -29 -49t-54 -61t-79.5 -62.5t-110 -47t-140.5 -19.5q-155 0 -250.5 82t-95.5 233q0 135 90 209t282 102q14 2 65.5 10t74 11.5t66.5 11.5t68.5 14.5t53.5 15.5t47 19v17q0 138 -65 195t-205 57q-245 0 -271 -164h-139
q17 136 123.5 206t288.5 70q213 0 313.5 -92t100.5 -307v-506zM815 340v258q-27 -15 -90 -31t-116 -25t-150 -24q-136 -23 -191 -73t-55 -140q0 -96 61.5 -152.5t169.5 -56.5q65 0 124.5 20.5t98.5 48.5t72 65t49 62.5t27 47.5z" />
    <glyph glyph-name="adieresis" unicode="&#xe4;" horiz-adv-x="1087" 
d="M401 1452v-178h-153v178h153zM831 1452v-178h-151v178h151zM961 170q0 -42 17.5 -59.5t61.5 -16.5v-92q-25 -10 -61 -10q-76 0 -114 34t-38 115v84q-11 -23 -29 -49t-54 -61t-79.5 -62.5t-110 -47t-140.5 -19.5q-155 0 -250.5 82t-95.5 233q0 135 90 209t282 102
q14 2 65.5 10t74 11.5t66.5 11.5t68.5 14.5t53.5 15.5t47 19v17q0 138 -65 195t-205 57q-245 0 -271 -164h-139q17 136 123.5 206t288.5 70q213 0 313.5 -92t100.5 -307v-506zM815 340v258q-27 -15 -90 -31t-116 -25t-150 -24q-136 -23 -191 -73t-55 -140q0 -96 61.5 -152.5
t169.5 -56.5q65 0 124.5 20.5t98.5 48.5t72 65t49 62.5t27 47.5z" />
    <glyph glyph-name="aring" unicode="&#xe5;" horiz-adv-x="1087" 
d="M541 1190q-73 0 -123.5 49.5t-50.5 120.5t50.5 121.5t123.5 50.5t123.5 -50.5t50.5 -121.5t-50.5 -120.5t-123.5 -49.5zM541 1456q-42 0 -70.5 -27.5t-28.5 -68.5t28.5 -68.5t70.5 -27.5q41 0 69.5 27.5t28.5 68.5t-28.5 68.5t-69.5 27.5zM961 170q0 -42 17.5 -59.5
t61.5 -16.5v-92q-25 -10 -61 -10q-76 0 -114 34t-38 115v84q-11 -23 -29 -49t-54 -61t-79.5 -62.5t-110 -47t-140.5 -19.5q-155 0 -250.5 82t-95.5 233q0 135 90 209t282 102q14 2 65.5 10t74 11.5t66.5 11.5t68.5 14.5t53.5 15.5t47 19v17q0 138 -65 195t-205 57
q-245 0 -271 -164h-139q17 136 123.5 206t288.5 70q213 0 313.5 -92t100.5 -307v-506zM815 340v258q-27 -15 -90 -31t-116 -25t-150 -24q-136 -23 -191 -73t-55 -140q0 -96 61.5 -152.5t169.5 -56.5q65 0 124.5 20.5t98.5 48.5t72 65t49 62.5t27 47.5z" />
    <glyph glyph-name="ae" unicode="&#xe6;" horiz-adv-x="1847" 
d="M1780 528q0 -33 -2 -51h-817q12 -191 106.5 -284t253.5 -93q102 0 168.5 29t116.5 100h137q-65 -128 -169 -185.5t-261 -57.5q-146 0 -264 69t-179 201q-67 -119 -183.5 -194.5t-272.5 -75.5q-154 0 -250 80.5t-96 224.5q0 138 92.5 215t277.5 102q12 2 54 7t61.5 8
t58.5 8.5t62.5 10.5t52.5 11.5t50.5 14.5t37.5 16v27q0 138 -65 195t-207 57q-123 0 -190 -42t-79 -118h-139q17 133 124 202.5t286 69.5q151 0 244 -43.5t135 -140.5q67 91 168.5 137.5t216.5 46.5q98 0 182 -33.5t149 -99t102.5 -171.5t37.5 -243zM961 580h679
q-3 184 -92.5 282.5t-238.5 98.5q-145 0 -240.5 -97t-107.5 -284zM815 334v252q-12 -7 -29 -13.5t-43 -12.5t-46.5 -10.5t-58.5 -11t-59 -10t-68 -10.5t-67 -10q-122 -18 -175.5 -70.5t-53.5 -142.5q0 -89 61.5 -144t167.5 -55q65 0 124.5 19.5t98.5 47t72 63.5t49.5 61
t26.5 47z" />
    <glyph glyph-name="ccedilla" unicode="&#xe7;" horiz-adv-x="1064" 
d="M1004 313q-77 -297 -383 -325l-93 -99q74 8 132.5 -32.5t58.5 -116.5q0 -186 -303 -186v69q186 3 186 113q0 57 -48 75t-110 -14l-24 37l-14 23l86 133q-85 12 -159 50t-134.5 102.5t-95.5 164t-35 223.5q0 110 27.5 201.5t75 154.5t111 106t134 63t145.5 20
q159 0 274 -76.5t160 -244.5h-135q-74 200 -299 200q-71 0 -133 -26t-111.5 -77t-78.5 -133.5t-29 -187.5q0 -106 29 -189t79 -133.5t112.5 -76t133.5 -25.5q119 0 193.5 51t111.5 156h136z" />
    <glyph glyph-name="egrave" unicode="&#xe8;" horiz-adv-x="1097" 
d="M655 1190h-127l-215 262h160zM1030 528q0 -33 -2 -51h-817q12 -191 106.5 -284t253.5 -93q102 0 168.5 29t116.5 100h137q-65 -128 -169 -185.5t-261 -57.5q-102 0 -190 34t-157 99t-108.5 171t-39.5 240q0 135 41 241.5t110.5 171.5t156 98.5t183.5 33.5q98 0 182 -33.5
t149 -99t102.5 -171.5t37.5 -243zM211 580h680q-3 184 -93 282.5t-239 98.5q-145 0 -240.5 -97t-107.5 -284z" />
    <glyph glyph-name="eacute" unicode="&#xe9;" horiz-adv-x="1097" 
d="M793 1452l-215 -262h-127l182 262h160zM1030 528q0 -33 -2 -51h-817q12 -191 106.5 -284t253.5 -93q102 0 168.5 29t116.5 100h137q-65 -128 -169 -185.5t-261 -57.5q-102 0 -190 34t-157 99t-108.5 171t-39.5 240q0 135 41 241.5t110.5 171.5t156 98.5t183.5 33.5
q98 0 182 -33.5t149 -99t102.5 -171.5t37.5 -243zM211 580h680q-3 184 -93 282.5t-239 98.5q-145 0 -240.5 -97t-107.5 -284z" />
    <glyph glyph-name="ecircumflex" unicode="&#xea;" horiz-adv-x="1097" 
d="M555 1374l-197 -184h-118l188 262h252l188 -262h-118zM1030 528q0 -33 -2 -51h-817q12 -191 106.5 -284t253.5 -93q102 0 168.5 29t116.5 100h137q-65 -128 -169 -185.5t-261 -57.5q-102 0 -190 34t-157 99t-108.5 171t-39.5 240q0 135 41 241.5t110.5 171.5t156 98.5
t183.5 33.5q98 0 182 -33.5t149 -99t102.5 -171.5t37.5 -243zM211 580h680q-3 184 -93 282.5t-239 98.5q-145 0 -240.5 -97t-107.5 -284z" />
    <glyph glyph-name="edieresis" unicode="&#xeb;" horiz-adv-x="1097" 
d="M416 1452v-178h-154v178h154zM846 1452v-178h-152v178h152zM1030 528q0 -33 -2 -51h-817q12 -191 106.5 -284t253.5 -93q102 0 168.5 29t116.5 100h137q-65 -128 -169 -185.5t-261 -57.5q-102 0 -190 34t-157 99t-108.5 171t-39.5 240q0 135 41 241.5t110.5 171.5
t156 98.5t183.5 33.5q98 0 182 -33.5t149 -99t102.5 -171.5t37.5 -243zM211 580h680q-3 184 -93 282.5t-239 98.5q-145 0 -240.5 -97t-107.5 -284z" />
    <glyph glyph-name="igrave" unicode="&#xec;" horiz-adv-x="385" 
d="M293 1190l-182 262h-160l215 -262h127zM119 1065h145v-1065h-145v1065z" />
    <glyph glyph-name="iacute" unicode="&#xed;" horiz-adv-x="385" 
d="M88 1190h127l215 262h-160zM119 1065h145v-1065h-145v1065z" />
    <glyph glyph-name="icircumflex" unicode="&#xee;" horiz-adv-x="385" 
d="M387 1190l-194 184l-197 -184h-119l189 262h251l189 -262h-119zM119 1065h145v-1065h-145v1065z" />
    <glyph glyph-name="idieresis" unicode="&#xef;" horiz-adv-x="385" 
d="M-100 1452h153v-178h-153v178zM332 1452h151v-178h-151v178zM119 1065h145v-1065h-145v1065z" />
    <glyph glyph-name="eth" unicode="&#xf0;" 
d="M799 1198q146 -198 198 -339t52 -333q0 -132 -39 -237t-107 -172t-159 -102t-197 -35q-98 0 -184 35t-152 101t-104.5 169t-38.5 231q0 263 124 406t345 143q175 0 278 -100q-66 109 -145 217l-226 -29v76l172 22q-82 102 -155 183h153q51 -62 131 -166l203 26v-77z
M551 109q154 0 253 103t99 304q0 422 -352 422q-161 0 -249.5 -103t-88.5 -319q0 -102 28 -181.5t75.5 -128t107 -73t127.5 -24.5z" />
    <glyph glyph-name="ntilde" unicode="&#xf1;" horiz-adv-x="1146" 
d="M401 1382q-54 0 -82 -27.5t-26 -62.5h-74q0 91 56.5 145t142.5 54q39 0 75.5 -15t65 -37t55.5 -44t59.5 -37t65.5 -15q54 0 83.5 28t27.5 63h74q0 -91 -57 -144t-142 -53q-40 0 -77 15t-65 36.5t-55.5 42.5t-60 36t-66.5 15zM649 1075q83 0 149 -22t119 -70.5t82 -134
t29 -203.5v-645h-145v641q0 166 -72 237.5t-207 71.5q-74 0 -137 -29.5t-103 -75.5t-65 -92t-35 -89v-664h-145v1065h145v-254q8 26 26.5 57.5t52.5 69t76 67.5t103 50t127 20z" />
    <glyph glyph-name="ograve" unicode="&#xf2;" horiz-adv-x="1116" 
d="M659 1190l-182 262h-160l215 -262h127zM559 1075q90 0 175.5 -33.5t156.5 -98t114.5 -171t43.5 -240.5q0 -109 -28.5 -201t-76.5 -154.5t-112 -106.5t-132.5 -64t-140.5 -20t-141.5 20t-133 64t-111.5 106.5t-76.5 154.5t-28.5 201q0 134 43 240.5t114.5 171t157 98
t176.5 33.5zM907 532q0 105 -29 187t-78.5 132t-110.5 75.5t-130 25.5t-130.5 -25.5t-111 -75.5t-79 -132t-29.5 -187q0 -106 29.5 -189t79 -133t111 -75.5t130.5 -25.5t130 25.5t110.5 75.5t78.5 133t29 189z" />
    <glyph glyph-name="oacute" unicode="&#xf3;" horiz-adv-x="1116" 
d="M455 1190h127l215 262h-160zM559 1075q90 0 175.5 -33.5t156.5 -98t114.5 -171t43.5 -240.5q0 -109 -28.5 -201t-76.5 -154.5t-112 -106.5t-132.5 -64t-140.5 -20t-141.5 20t-133 64t-111.5 106.5t-76.5 154.5t-28.5 201q0 134 43 240.5t114.5 171t157 98t176.5 33.5z
M907 532q0 105 -29 187t-78.5 132t-110.5 75.5t-130 25.5t-130.5 -25.5t-111 -75.5t-79 -132t-29.5 -187q0 -106 29.5 -189t79 -133t111 -75.5t130.5 -25.5t130 25.5t110.5 75.5t78.5 133t29 189z" />
    <glyph glyph-name="ocircumflex" unicode="&#xf4;" horiz-adv-x="1116" 
d="M754 1190l-195 184l-197 -184h-118l188 262h252l188 -262h-118zM559 1075q90 0 175.5 -33.5t156.5 -98t114.5 -171t43.5 -240.5q0 -109 -28.5 -201t-76.5 -154.5t-112 -106.5t-132.5 -64t-140.5 -20t-141.5 20t-133 64t-111.5 106.5t-76.5 154.5t-28.5 201
q0 134 43 240.5t114.5 171t157 98t176.5 33.5zM907 532q0 105 -29 187t-78.5 132t-110.5 75.5t-130 25.5t-130.5 -25.5t-111 -75.5t-79 -132t-29.5 -187q0 -106 29.5 -189t79 -133t111 -75.5t130.5 -25.5t130 25.5t110.5 75.5t78.5 133t29 189z" />
    <glyph glyph-name="otilde" unicode="&#xf5;" horiz-adv-x="1116" 
d="M836 1434h73q0 -91 -56.5 -144t-141.5 -53q-40 0 -77 15t-65 36.5t-55.5 42.5t-60 36t-66.5 15q-54 0 -82 -27.5t-26 -62.5h-74q0 91 56 145t142 54q39 0 76 -15t65 -37t55.5 -44t60 -37t65.5 -15q54 0 83.5 28t27.5 63zM559 1075q90 0 175.5 -33.5t156.5 -98t114.5 -171
t43.5 -240.5q0 -109 -28.5 -201t-76.5 -154.5t-112 -106.5t-132.5 -64t-140.5 -20t-141.5 20t-133 64t-111.5 106.5t-76.5 154.5t-28.5 201q0 134 43 240.5t114.5 171t157 98t176.5 33.5zM907 532q0 105 -29 187t-78.5 132t-110.5 75.5t-130 25.5t-130.5 -25.5t-111 -75.5
t-79 -132t-29.5 -187q0 -106 29.5 -189t79 -133t111 -75.5t130.5 -25.5t130 25.5t110.5 75.5t78.5 133t29 189z" />
    <glyph glyph-name="odieresis" unicode="&#xf6;" horiz-adv-x="1116" 
d="M266 1452h154v-178h-154v178zM698 1452h152v-178h-152v178zM559 1075q90 0 175.5 -33.5t156.5 -98t114.5 -171t43.5 -240.5q0 -109 -28.5 -201t-76.5 -154.5t-112 -106.5t-132.5 -64t-140.5 -20t-141.5 20t-133 64t-111.5 106.5t-76.5 154.5t-28.5 201q0 134 43 240.5
t114.5 171t157 98t176.5 33.5zM907 532q0 105 -29 187t-78.5 132t-110.5 75.5t-130 25.5t-130.5 -25.5t-111 -75.5t-79 -132t-29.5 -187q0 -106 29.5 -189t79 -133t111 -75.5t130.5 -25.5t130 25.5t110.5 75.5t78.5 133t29 189z" />
    <glyph glyph-name="divide" unicode="&#xf7;" horiz-adv-x="937" 
d="M471 819q-29 0 -50.5 22.5t-21.5 51.5t21.5 51.5t50.5 22.5q30 0 52 -22t22 -52t-22 -52t-52 -22zM86 631h602v-115h-602v115zM471 180q-29 0 -50.5 22.5t-21.5 51.5t21.5 50.5t50.5 21.5q31 0 52.5 -21.5t21.5 -50.5q0 -30 -22 -52t-52 -22z" />
    <glyph glyph-name="oslash" unicode="&#xf8;" horiz-adv-x="1116" 
d="M836 989q98 -69 155.5 -184t57.5 -273q0 -109 -28.5 -201t-76.5 -154.5t-112 -106.5t-132.5 -64t-140.5 -20q-98 0 -188 37l-60 -125h-133l88 184q-198 152 -198 450q0 134 43 240.5t114.5 171t157 98t176.5 33.5q86 0 168 -31l68 140h133zM209 532q0 -211 115 -329
l350 729q-53 20 -115 20q-69 0 -130.5 -25.5t-111 -75.5t-79 -132t-29.5 -187zM559 109q69 0 130 25.5t110.5 75.5t78.5 133t29 189q0 228 -129 340l-352 -737q59 -26 133 -26z" />
    <glyph glyph-name="ugrave" unicode="&#xf9;" horiz-adv-x="1136" 
d="M659 1190h-127l-215 262h160zM872 1065h146v-1065h-146v252q-8 -26 -26.5 -58t-52.5 -69.5t-76 -67.5t-103 -50.5t-127 -20.5q-83 0 -149 22.5t-118.5 71.5t-81.5 134.5t-29 203.5v647h145v-643q0 -167 72 -239t206 -72q60 0 113 20t90 51t66.5 71t46 76t24.5 70v666z
" />
    <glyph glyph-name="uacute" unicode="&#xfa;" horiz-adv-x="1136" 
d="M797 1452l-215 -262h-127l182 262h160zM872 1065h146v-1065h-146v252q-8 -26 -26.5 -58t-52.5 -69.5t-76 -67.5t-103 -50.5t-127 -20.5q-83 0 -149 22.5t-118.5 71.5t-81.5 134.5t-29 203.5v647h145v-643q0 -167 72 -239t206 -72q60 0 113 20t90 51t66.5 71t46 76
t24.5 70v666z" />
    <glyph glyph-name="ucircumflex" unicode="&#xfb;" horiz-adv-x="1136" 
d="M559 1374l-197 -184h-118l188 262h252l188 -262h-118zM872 1065h146v-1065h-146v252q-8 -26 -26.5 -58t-52.5 -69.5t-76 -67.5t-103 -50.5t-127 -20.5q-83 0 -149 22.5t-118.5 71.5t-81.5 134.5t-29 203.5v647h145v-643q0 -167 72 -239t206 -72q60 0 113 20t90 51
t66.5 71t46 76t24.5 70v666z" />
    <glyph glyph-name="udieresis" unicode="&#xfc;" horiz-adv-x="1136" 
d="M420 1452v-178h-154v178h154zM850 1452v-178h-152v178h152zM872 1065h146v-1065h-146v252q-8 -26 -26.5 -58t-52.5 -69.5t-76 -67.5t-103 -50.5t-127 -20.5q-83 0 -149 22.5t-118.5 71.5t-81.5 134.5t-29 203.5v647h145v-643q0 -167 72 -239t206 -72q60 0 113 20t90 51
t66.5 71t46 76t24.5 70v666z" />
    <glyph glyph-name="yacute" unicode="&#xfd;" horiz-adv-x="1083" 
d="M442 1190h127l215 262h-159zM887 1065h149l-461 -1153q-71 -176 -169.5 -245t-243.5 -50v127q108 -14 175.5 31.5t106.5 144.5q19 47 21.5 69t-8.5 54l-410 1022h152l342 -903z" />
    <glyph glyph-name="thorn" unicode="&#xfe;" horiz-adv-x="1173" 
d="M633 1075q89 0 171 -33t150 -97t109 -171t41 -242v-2q0 -136 -40.5 -243t-109 -171t-151.5 -97t-174 -33q-128 0 -223 63.5t-142 171.5v-610h-145v1835h145v-588q51 101 145.5 157.5t213.5 59.5h10zM258 532q0 -104 29 -186.5t78 -133t111 -77t132 -26.5t132.5 25.5
t113 75t80 132.5t29.5 190q0 106 -29.5 188.5t-80 132t-113 74.5t-132.5 25t-131.5 -25t-111.5 -74t-78.5 -131.5t-28.5 -189.5z" />
    <glyph glyph-name="ydieresis" unicode="&#xff;" horiz-adv-x="1083" 
d="M254 1452h154v-178h-154v178zM686 1452h152v-178h-152v178zM887 1065h149l-461 -1153q-71 -176 -169.5 -245t-243.5 -50v127q108 -14 175.5 31.5t106.5 144.5q19 47 21.5 69t-8.5 54l-410 1022h152l342 -903z" />
    <glyph glyph-name="Amacron" unicode="&#x100;" horiz-adv-x="1392" 
d="M1004 1821v-95h-615v95h615zM1171 0l-147 381h-655l-148 -381h-164l574 1434h131l573 -1434h-164zM414 498h565l-283 735z" />
    <glyph glyph-name="amacron" unicode="&#x101;" horiz-adv-x="1087" 
d="M848 1452v-94h-615v94h615zM961 170q0 -42 17.5 -59.5t61.5 -16.5v-92q-25 -10 -61 -10q-76 0 -114 34t-38 115v84q-11 -23 -29 -49t-54 -61t-79.5 -62.5t-110 -47t-140.5 -19.5q-155 0 -250.5 82t-95.5 233q0 135 90 209t282 102q14 2 65.5 10t74 11.5t66.5 11.5
t68.5 14.5t53.5 15.5t47 19v17q0 138 -65 195t-205 57q-245 0 -271 -164h-139q17 136 123.5 206t288.5 70q213 0 313.5 -92t100.5 -307v-506zM815 340v258q-27 -15 -90 -31t-116 -25t-150 -24q-136 -23 -191 -73t-55 -140q0 -96 61.5 -152.5t169.5 -56.5q65 0 124.5 20.5
t98.5 48.5t72 65t49 62.5t27 47.5z" />
    <glyph glyph-name="Abreve" unicode="&#x102;" horiz-adv-x="1392" 
d="M696 1565q-75 0 -132 21t-90 57.5t-49.5 81t-16.5 96.5h102q17 -152 186 -152q172 0 189 152h102q0 -110 -72 -183t-219 -73zM1171 0l-147 381h-655l-148 -381h-164l574 1434h131l573 -1434h-164zM414 498h565l-283 735z" />
    <glyph glyph-name="abreve" unicode="&#x103;" horiz-adv-x="1087" 
d="M541 1196q-99 0 -166 37t-95 93t-28 126h102q17 -152 187 -152q171 0 188 152h102q0 -110 -71.5 -183t-218.5 -73zM961 170q0 -42 17.5 -59.5t61.5 -16.5v-92q-25 -10 -61 -10q-76 0 -114 34t-38 115v84q-11 -23 -29 -49t-54 -61t-79.5 -62.5t-110 -47t-140.5 -19.5
q-155 0 -250.5 82t-95.5 233q0 135 90 209t282 102q14 2 65.5 10t74 11.5t66.5 11.5t68.5 14.5t53.5 15.5t47 19v17q0 138 -65 195t-205 57q-245 0 -271 -164h-139q17 136 123.5 206t288.5 70q213 0 313.5 -92t100.5 -307v-506zM815 340v258q-27 -15 -90 -31t-116 -25
t-150 -24q-136 -23 -191 -73t-55 -140q0 -96 61.5 -152.5t169.5 -56.5q65 0 124.5 20.5t98.5 48.5t72 65t49 62.5t27 47.5z" />
    <glyph glyph-name="Aogonek" unicode="&#x104;" horiz-adv-x="1392" 
d="M1284 0q-121 -41 -186.5 -104t-65.5 -136q0 -64 52.5 -88.5t144.5 -5.5v-74q-44 -19 -100.5 -23t-109.5 8.5t-89.5 53.5t-36.5 105q0 62 44.5 118.5t105.5 91.5t128 54l-147 381h-655l-148 -381h-164l574 1434h131l573 -1434h-51zM414 498h565l-283 735z" />
    <glyph glyph-name="aogonek" unicode="&#x105;" horiz-adv-x="1087" 
d="M1040 94v-92q-2 -1 -6 -2t-6 -2h8q-121 -41 -186.5 -104t-65.5 -136q0 -64 52.5 -88.5t144.5 -5.5v-74q-44 -19 -100.5 -23t-109.5 8.5t-89.5 53.5t-36.5 105q0 62 44.5 118.5t105 91.5t127.5 54q-95 23 -95 143v84q-11 -23 -29 -49t-54 -61t-79.5 -62.5t-110 -47
t-140.5 -19.5q-155 0 -250.5 82t-95.5 233q0 135 90 209t282 102q14 2 65.5 10t74 11.5t66.5 11.5t68.5 14.5t53.5 15.5t47 19v17q0 138 -65 195t-205 57q-245 0 -271 -164h-139q17 136 123.5 206t288.5 70q213 0 313.5 -92t100.5 -307v-506q0 -42 17.5 -59.5t61.5 -16.5z
M815 340v258q-27 -15 -90 -31t-116 -25t-150 -24q-136 -23 -191 -73t-55 -140q0 -96 61.5 -152.5t169.5 -56.5q65 0 124.5 20.5t98.5 48.5t72 65t49 62.5t27 47.5z" />
    <glyph glyph-name="Cacute" unicode="&#x106;" horiz-adv-x="1327" 
d="M606 1559h127l215 262h-160zM719 117q153 0 251 61.5t142 173.5h154q-42 -176 -189.5 -273t-359.5 -97q-137 0 -250.5 46t-198.5 135.5t-132.5 231t-47.5 322.5t47.5 322.5t132.5 231t198.5 135.5t250.5 46q210 0 356 -97t187 -272h-154q-43 111 -139.5 172.5
t-247.5 61.5q-214 0 -343.5 -153t-129.5 -447q0 -292 129.5 -446t343.5 -154z" />
    <glyph glyph-name="cacute" unicode="&#x107;" horiz-adv-x="1064" 
d="M449 1190h126l216 262h-160zM563 106q119 0 193.5 51t111.5 156h136q-23 -89 -67 -154t-104 -102t-126.5 -54t-143.5 -17q-75 0 -146 20t-134.5 63t-111 105.5t-75.5 154t-28 201.5t27.5 201.5t75 154.5t111 106t134 63t145.5 20q159 0 274 -76.5t160 -244.5h-135
q-74 200 -299 200q-71 0 -133 -26t-111.5 -77t-78.5 -133.5t-29 -187.5q0 -106 29 -189t79 -133.5t112.5 -76t133.5 -25.5z" />
    <glyph glyph-name="Cdotaccent" unicode="&#x10a;" horiz-adv-x="1327" 
d="M635 1821h153v-179h-153v179zM719 117q153 0 251 61.5t142 173.5h154q-42 -176 -189.5 -273t-359.5 -97q-137 0 -250.5 46t-198.5 135.5t-132.5 231t-47.5 322.5t47.5 322.5t132.5 231t198.5 135.5t250.5 46q210 0 356 -97t187 -272h-154q-43 111 -139.5 172.5
t-247.5 61.5q-214 0 -343.5 -153t-129.5 -447q0 -292 129.5 -446t343.5 -154z" />
    <glyph glyph-name="cdotaccent" unicode="&#x10b;" horiz-adv-x="1064" 
d="M477 1452h154v-178h-154v178zM563 106q119 0 193.5 51t111.5 156h136q-23 -89 -67 -154t-104 -102t-126.5 -54t-143.5 -17q-75 0 -146 20t-134.5 63t-111 105.5t-75.5 154t-28 201.5t27.5 201.5t75 154.5t111 106t134 63t145.5 20q159 0 274 -76.5t160 -244.5h-135
q-74 200 -299 200q-71 0 -133 -26t-111.5 -77t-78.5 -133.5t-29 -187.5q0 -106 29 -189t79 -133.5t112.5 -76t133.5 -25.5z" />
    <glyph glyph-name="Ccaron" unicode="&#x10c;" horiz-adv-x="1327" 
d="M903 1802h119l-188 -262h-252l-189 262h119l197 -184zM719 117q153 0 251 61.5t142 173.5h154q-42 -176 -189.5 -273t-359.5 -97q-137 0 -250.5 46t-198.5 135.5t-132.5 231t-47.5 322.5t47.5 322.5t132.5 231t198.5 135.5t250.5 46q210 0 356 -97t187 -272h-154
q-43 111 -139.5 172.5t-247.5 61.5q-214 0 -343.5 -153t-129.5 -447q0 -292 129.5 -446t343.5 -154z" />
    <glyph glyph-name="ccaron" unicode="&#x10d;" horiz-adv-x="1064" 
d="M745 1434h119l-188 -263h-252l-188 263h118l197 -185zM563 106q119 0 193.5 51t111.5 156h136q-23 -89 -67 -154t-104 -102t-126.5 -54t-143.5 -17q-75 0 -146 20t-134.5 63t-111 105.5t-75.5 154t-28 201.5t27.5 201.5t75 154.5t111 106t134 63t145.5 20
q159 0 274 -76.5t160 -244.5h-135q-74 200 -299 200q-71 0 -133 -26t-111.5 -77t-78.5 -133.5t-29 -187.5q0 -106 29 -189t79 -133.5t112.5 -76t133.5 -25.5z" />
    <glyph glyph-name="Dcaron" unicode="&#x10e;" horiz-adv-x="1337" 
d="M799 1540h-252l-189 262h119l197 -184l194 184h119zM561 1434q345 0 522 -185.5t177 -531.5t-177 -531.5t-522 -185.5h-442v1434h442zM551 135q287 0 422 143.5t135 438.5q0 296 -135 438.5t-422 142.5h-281v-1163h281z" />
    <glyph glyph-name="dcaron" unicode="&#x10f;" horiz-adv-x="1413" 
d="M541 1075q122 0 219 -57t149 -160v588h146v-1446h-146v223q-48 -107 -142.5 -172t-221.5 -65q-91 0 -174 33t-151.5 97t-109 171.5t-40.5 244.5q0 135 41 242t109 171t150 97t171 33zM1110 1184h127l215 262h-160zM565 109q70 0 132 26.5t111 77t78 133t29 186.5
q0 107 -28.5 189.5t-78.5 131.5t-111.5 74t-131.5 25q-72 0 -134.5 -25.5t-112 -75t-78.5 -131.5t-29 -188t29 -189t78.5 -133t112 -75.5t134.5 -25.5z" />
    <glyph glyph-name="Dcroat" unicode="&#x110;" horiz-adv-x="1380" 
d="M606 1434q345 0 522 -185.5t177 -531.5t-177 -531.5t-522 -185.5h-442v655h-123v115h123v664h442zM596 135q287 0 422 143.5t135 438.5q0 296 -135 438.5t-422 142.5h-281v-528h281v-115h-281v-520h281z" />
    <glyph glyph-name="dcroat" unicode="&#x111;" horiz-adv-x="1273" 
d="M1237 1321v-94h-182v-1227h-146v223q-48 -107 -142.5 -172t-221.5 -65q-91 0 -174 33t-151.5 97t-109 171.5t-40.5 244.5q0 135 41 242t109 171t150 97t171 33q122 0 219 -57t149 -160v369h-286v94h286v125h146v-125h182zM565 109q70 0 132 26.5t111 77t78 133t29 186.5
q0 107 -28.5 189.5t-78.5 131.5t-111.5 74t-131.5 25q-72 0 -134.5 -25.5t-112 -75t-78.5 -131.5t-29 -188t29 -189t78.5 -133t112 -75.5t134.5 -25.5z" />
    <glyph glyph-name="Emacron" unicode="&#x112;" horiz-adv-x="1120" 
d="M877 1821v-95h-615v95h615zM270 135h789v-135h-940v1434h919v-136h-768v-497h666v-125h-666v-541z" />
    <glyph glyph-name="emacron" unicode="&#x113;" horiz-adv-x="1097" 
d="M862 1452v-94h-614v94h614zM1030 528q0 -33 -2 -51h-817q12 -191 106.5 -284t253.5 -93q102 0 168.5 29t116.5 100h137q-65 -128 -169 -185.5t-261 -57.5q-102 0 -190 34t-157 99t-108.5 171t-39.5 240q0 135 41 241.5t110.5 171.5t156 98.5t183.5 33.5q98 0 182 -33.5
t149 -99t102.5 -171.5t37.5 -243zM211 580h680q-3 184 -93 282.5t-239 98.5q-145 0 -240.5 -97t-107.5 -284z" />
    <glyph glyph-name="Edotaccent" unicode="&#x116;" horiz-adv-x="1120" 
d="M647 1821v-179h-153v179h153zM270 135h789v-135h-940v1434h919v-136h-768v-497h666v-125h-666v-541z" />
    <glyph glyph-name="edotaccent" unicode="&#x117;" horiz-adv-x="1097" 
d="M633 1452v-178h-154v178h154zM1030 528q0 -33 -2 -51h-817q12 -191 106.5 -284t253.5 -93q102 0 168.5 29t116.5 100h137q-65 -128 -169 -185.5t-261 -57.5q-102 0 -190 34t-157 99t-108.5 171t-39.5 240q0 135 41 241.5t110.5 171.5t156 98.5t183.5 33.5q98 0 182 -33.5
t149 -99t102.5 -171.5t37.5 -243zM211 580h680q-3 184 -93 282.5t-239 98.5q-145 0 -240.5 -97t-107.5 -284z" />
    <glyph glyph-name="Eogonek" unicode="&#x118;" horiz-adv-x="1120" 
d="M809 -240q0 -64 52.5 -88.5t144.5 -5.5v-74q-44 -19 -100.5 -23t-109.5 8.5t-89.5 53.5t-36.5 105q0 62 44.5 118.5t105.5 91.5t128 54h-829v1434h919v-136h-768v-497h666v-125h-666v-541h789v-135h2q-121 -41 -186.5 -104t-65.5 -136z" />
    <glyph glyph-name="eogonek" unicode="&#x119;" horiz-adv-x="1097" 
d="M1030 528q0 -33 -2 -51h-817q12 -191 106.5 -284t253.5 -93q102 0 168.5 29t116.5 100h137q-107 -208 -331 -237h26q-121 -41 -186.5 -104t-65.5 -136q0 -64 52.5 -88.5t144.5 -5.5v-74q-44 -19 -100.5 -23t-109.5 8.5t-89.5 53.5t-36.5 105q0 87 77.5 156t180.5 102
q-100 2 -187 36.5t-154.5 99.5t-106.5 170t-39 238q0 135 41 241.5t110.5 171.5t156 98.5t183.5 33.5q98 0 182 -33.5t149 -99t102.5 -171.5t37.5 -243zM211 580h680q-3 184 -93 282.5t-239 98.5q-145 0 -240.5 -97t-107.5 -284z" />
    <glyph glyph-name="Ecaron" unicode="&#x11a;" horiz-adv-x="1120" 
d="M692 1540h-252l-188 262h119l196 -184l195 184h119zM270 135h789v-135h-940v1434h919v-136h-768v-497h666v-125h-666v-541z" />
    <glyph glyph-name="ecaron" unicode="&#x11b;" horiz-adv-x="1097" 
d="M678 1171h-252l-188 263h118l197 -185l195 185h118zM1030 528q0 -33 -2 -51h-817q12 -191 106.5 -284t253.5 -93q102 0 168.5 29t116.5 100h137q-65 -128 -169 -185.5t-261 -57.5q-102 0 -190 34t-157 99t-108.5 171t-39.5 240q0 135 41 241.5t110.5 171.5t156 98.5
t183.5 33.5q98 0 182 -33.5t149 -99t102.5 -171.5t37.5 -243zM211 580h680q-3 184 -93 282.5t-239 98.5q-145 0 -240.5 -97t-107.5 -284z" />
    <glyph glyph-name="Gbreve" unicode="&#x11e;" horiz-adv-x="1406" 
d="M905 1821h103q0 -110 -72 -183t-219 -73q-99 0 -166 37t-95 93t-28 126h102q17 -152 187 -152q171 0 188 152zM1309 727v-80q0 -328 -148 -496.5t-438 -168.5q-140 0 -255 46t-200.5 135.5t-132.5 231t-47 322.5t46.5 322.5t131 231t199 135.5t252.5 46q203 0 341.5 -91
t184.5 -255h-153q-93 211 -371 211q-217 0 -345 -152.5t-128 -447.5t129 -447.5t348 -152.5q440 0 446 487h-378v123h518z" />
    <glyph glyph-name="gbreve" unicode="&#x11f;" horiz-adv-x="1171" 
d="M559 1196q-99 0 -166 37t-95 93t-28 126h103q17 -152 186 -152q172 0 189 152h102q0 -110 -72 -183t-219 -73zM905 1067h146v-1065q0 -105 -30 -186.5t-77 -131t-112.5 -81t-129.5 -43t-135 -11.5q-148 0 -264 54t-170 149l94 60q48 -66 133 -103t195 -37q350 0 350 330
v221q-46 -107 -140.5 -171t-223.5 -64q-89 0 -171.5 33t-151 97t-109.5 171t-41 243q0 135 41 242t109 171t150 97t171 33q122 0 218.5 -57t147.5 -160v209zM563 109q70 0 132 26.5t111 77t78 133t29 186.5q0 107 -29 190t-78.5 132.5t-111 74.5t-131.5 25t-132 -25.5
t-112 -75t-79 -132.5t-29 -189t29 -189t79 -133t112 -75.5t132 -25.5z" />
    <glyph glyph-name="Gdotaccent" unicode="&#x120;" horiz-adv-x="1406" 
d="M641 1821h154v-179h-154v179zM1309 727v-80q0 -328 -148 -496.5t-438 -168.5q-140 0 -255 46t-200.5 135.5t-132.5 231t-47 322.5t46.5 322.5t131 231t199 135.5t252.5 46q203 0 341.5 -91t184.5 -255h-153q-93 211 -371 211q-217 0 -345 -152.5t-128 -447.5t129 -447.5
t348 -152.5q440 0 446 487h-378v123h518z" />
    <glyph glyph-name="gdotaccent" unicode="&#x121;" horiz-adv-x="1171" 
d="M637 1452v-178h-154v178h154zM905 1067h146v-1065q0 -105 -30 -186.5t-77 -131t-112.5 -81t-129.5 -43t-135 -11.5q-148 0 -264 54t-170 149l94 60q48 -66 133 -103t195 -37q350 0 350 330v221q-46 -107 -140.5 -171t-223.5 -64q-89 0 -171.5 33t-151 97t-109.5 171
t-41 243q0 135 41 242t109 171t150 97t171 33q122 0 218.5 -57t147.5 -160v209zM563 109q70 0 132 26.5t111 77t78 133t29 186.5q0 107 -29 190t-78.5 132.5t-111 74.5t-131.5 25t-132 -25.5t-112 -75t-79 -132.5t-29 -189t29 -189t79 -133t112 -75.5t132 -25.5z" />
    <glyph glyph-name="Gcommaaccent" unicode="&#x122;" horiz-adv-x="1406" 
d="M1309 727v-80q0 -328 -148 -496.5t-438 -168.5q-140 0 -255 46t-200.5 135.5t-132.5 231t-47 322.5t46.5 322.5t131 231t199 135.5t252.5 46q203 0 341.5 -91t184.5 -255h-153q-93 211 -371 211q-217 0 -345 -152.5t-128 -447.5t129 -447.5t348 -152.5q440 0 446 487
h-378v123h518zM633 -526v51q42 21 58 61t16 117v61h-74v191h178v-252q0 -221 -178 -229z" />
    <glyph glyph-name="gcommaaccent" unicode="&#x123;" horiz-adv-x="1171" 
d="M637 1356v-191h-178v252q0 222 178 230v-52q-42 -21 -58 -61t-16 -117v-61h74zM905 1067h146v-1065q0 -105 -30 -186.5t-77 -131t-112.5 -81t-129.5 -43t-135 -11.5q-148 0 -264 54t-170 149l94 60q48 -66 133 -103t195 -37q350 0 350 330v221q-46 -107 -140.5 -171
t-223.5 -64q-89 0 -171.5 33t-151 97t-109.5 171t-41 243q0 135 41 242t109 171t150 97t171 33q122 0 218.5 -57t147.5 -160v209zM563 109q70 0 132 26.5t111 77t78 133t29 186.5q0 107 -29 190t-78.5 132.5t-111 74.5t-131.5 25t-132 -25.5t-112 -75t-79 -132.5t-29 -189
t29 -189t79 -133t112 -75.5t132 -25.5z" />
    <glyph glyph-name="Hbar" unicode="&#x126;" horiz-adv-x="1320" 
d="M1051 1434h151v-1434h-151v637h-781v-637h-151v1434h151v-340h781v340zM270 764h781v213h-781v-213z" />
    <glyph glyph-name="hbar" unicode="&#x127;" horiz-adv-x="1204" 
d="M707 1075q83 0 149 -22t118.5 -70.5t81.5 -134t29 -203.5v-645h-145v641q0 166 -72 237.5t-206 71.5q-74 0 -137 -29.5t-103 -75.5t-65 -92t-35 -89v-664h-146v1153h-139v104h139v189h146v-189h235v-104h-235v-342q8 26 26.5 57.5t52.5 69t76 67.5t103 50t127 20z" />
    <glyph glyph-name="Imacron" unicode="&#x12a;" horiz-adv-x="391" 
d="M-113 1821h615v-95h-615v95zM270 0h-151v1434h151v-1434z" />
    <glyph glyph-name="imacron" unicode="&#x12b;" horiz-adv-x="385" 
d="M-115 1452h615v-94h-615v94zM119 1065h145v-1065h-145v1065z" />
    <glyph glyph-name="Iogonek" unicode="&#x12e;" horiz-adv-x="391" 
d="M270 0q-121 -41 -186.5 -104t-65.5 -136q0 -64 52.5 -88.5t144.5 -5.5v-74q-44 -19 -100.5 -23t-109.5 8.5t-89.5 53.5t-36.5 105q0 62 45 118.5t106 91.5t128 54h-39v1434h151v-1434z" />
    <glyph glyph-name="iogonek" unicode="&#x12f;" horiz-adv-x="385" 
d="M117 1452h153v-178h-153v178zM119 0v1065h145v-1065h-33q-120 -41 -185.5 -104t-65.5 -136q0 -64 52 -88.5t144 -5.5v-74q-44 -19 -100.5 -23t-109.5 8.5t-89.5 53.5t-36.5 105q0 62 45 118.5t106 91.5t128 54z" />
    <glyph glyph-name="Idotaccent" unicode="&#x130;" horiz-adv-x="391" 
d="M119 1821h153v-179h-153v179zM270 0h-151v1434h151v-1434z" />
    <glyph glyph-name="dotlessi" unicode="&#x131;" horiz-adv-x="385" 
d="M119 1065h145v-1065h-145v1065z" />
    <glyph glyph-name="IJ" unicode="&#x132;" horiz-adv-x="1406" 
d="M270 0h-151v1434h151v-1434zM522 260q115 -139 312 -139q65 0 118 18.5t98.5 59.5t71 116.5t25.5 180.5v938h151v-942q0 -135 -37.5 -235.5t-103.5 -158t-146.5 -85t-176.5 -27.5q-254 0 -396 180z" />
    <glyph glyph-name="ij" unicode="&#x133;" horiz-adv-x="782" 
d="M119 1452h145v-143h-145v143zM518 1452h146v-143h-146v143zM119 1065h145v-1065h-145v1065zM225 -283q86 -39 162 -39q66 0 98.5 43.5t32.5 116.5v1227h146v-1237q0 -279 -250 -279q-117 0 -189 45v123z" />
    <glyph glyph-name="Kcommaaccent" unicode="&#x136;" horiz-adv-x="1294" 
d="M590 768l663 -768h-176l-583 662l-224 -244v-418h-151v1434h151v-809l748 809h180zM563 -236v191h178v-252q0 -221 -178 -229v51q42 21 58 61t16 117v61h-74z" />
    <glyph glyph-name="kcommaaccent" unicode="&#x137;" horiz-adv-x="1091" 
d="M547 604l516 -604h-166l-444 508l-189 -195v-313h-145v1446h145v-961l561 580h170zM469 -236v191h178v-252q0 -221 -178 -229v51q42 21 58 61t16 117v61h-74z" />
    <glyph glyph-name="Lacute" unicode="&#x139;" horiz-adv-x="1081" 
d="M133 1554h127l215 263h-160zM270 135h744v-135h-895v1434h151v-1299z" />
    <glyph glyph-name="lacute" unicode="&#x13a;" horiz-adv-x="385" 
d="M88 1571h127l215 262h-160zM119 1446h145v-1446h-145v1446z" />
    <glyph glyph-name="Lcommaaccent" unicode="&#x13b;" horiz-adv-x="1081" 
d="M270 135h744v-135h-895v1434h151v-1299zM451 -537v52q42 21 57.5 61t15.5 117v61h-73v191h178v-252q0 -222 -178 -230z" />
    <glyph glyph-name="lcommaaccent" unicode="&#x13c;" horiz-adv-x="385" 
d="M119 1446h145v-1446h-145v1446zM102 -526v51q42 21 58 61t16 117v61h-74v191h179v-252q0 -221 -179 -229z" />
    <glyph glyph-name="Lcaron" unicode="&#x13d;" horiz-adv-x="1081" 
d="M270 135h744v-135h-895v1434h151v-1299zM528 952v52q42 21 58 61t16 117v61h-74v191h179v-252q0 -222 -179 -230z" />
    <glyph glyph-name="lcaron" unicode="&#x13e;" horiz-adv-x="702" 
d="M119 1446h145v-1446h-145v1446zM444 952v52q42 21 58 61t16 117v61h-74v191h179v-252q0 -222 -179 -230z" />
    <glyph glyph-name="Lslash" unicode="&#x141;" horiz-adv-x="1148" 
d="M338 135h743v-135h-895v508l-149 -158v156l149 158v770h152v-611l244 256h2v-151l-246 -260v-533z" />
    <glyph glyph-name="lslash" unicode="&#x142;" horiz-adv-x="651" 
d="M592 1087v-169l-217 -230v-688h-146v537l-172 -183v172l172 183v737h146v-586l215 227h2z" />
    <glyph glyph-name="Nacute" unicode="&#x143;" horiz-adv-x="1347" 
d="M569 1559h127l215 262h-159zM1227 1434v-1434h-172l-779 1200h-6v-1200h-151v1434h170l782 -1205h4v1205h152z" />
    <glyph glyph-name="nacute" unicode="&#x144;" horiz-adv-x="1146" 
d="M811 1452l-215 -262h-127l182 262h160zM649 1075q83 0 149 -22t119 -70.5t82 -134t29 -203.5v-645h-145v641q0 166 -72 237.5t-207 71.5q-74 0 -137 -29.5t-103 -75.5t-65 -92t-35 -89v-664h-145v1065h145v-254q8 26 26.5 57.5t52.5 69t76 67.5t103 50t127 20z" />
    <glyph glyph-name="Ncommaaccent" unicode="&#x145;" horiz-adv-x="1347" 
d="M1227 1434v-1434h-172l-779 1200h-6v-1200h-151v1434h170l782 -1205h4v1205h152zM584 -526v51q42 21 57.5 61t15.5 117v61h-73v191h178v-252q0 -221 -178 -229z" />
    <glyph glyph-name="ncommaaccent" unicode="&#x146;" horiz-adv-x="1146" 
d="M649 1075q83 0 149 -22t119 -70.5t82 -134t29 -203.5v-645h-145v641q0 166 -72 237.5t-207 71.5q-74 0 -137 -29.5t-103 -75.5t-65 -92t-35 -89v-664h-145v1065h145v-254q8 26 26.5 57.5t52.5 69t76 67.5t103 50t127 20zM483 -236v191h179v-252q0 -221 -179 -229v51
q42 21 58 61t16 117v61h-74z" />
    <glyph glyph-name="Ncaron" unicode="&#x147;" horiz-adv-x="1347" 
d="M866 1802h119l-188 -262h-252l-189 262h119l197 -184zM1227 1434v-1434h-172l-779 1200h-6v-1200h-151v1434h170l782 -1205h4v1205h152z" />
    <glyph glyph-name="ncaron" unicode="&#x148;" horiz-adv-x="1146" 
d="M696 1171h-252l-188 263h119l196 -185l195 185h119zM649 1075q83 0 149 -22t119 -70.5t82 -134t29 -203.5v-645h-145v641q0 166 -72 237.5t-207 71.5q-74 0 -137 -29.5t-103 -75.5t-65 -92t-35 -89v-664h-145v1065h145v-254q8 26 26.5 57.5t52.5 69t76 67.5t103 50
t127 20z" />
    <glyph glyph-name="Eng" unicode="&#x14a;" horiz-adv-x="1347" 
d="M1075 1434h152v-1379q0 -135 -37.5 -235.5t-104 -158t-147 -85t-176.5 -27.5q-252 0 -395 181l84 94q115 -139 311 -139q57 0 105.5 14.5t91.5 46t72.5 89.5t39.5 138l-795 1227h-6v-1200h-151v1434h170l782 -1207h4v1207z" />
    <glyph glyph-name="eng" unicode="&#x14b;" horiz-adv-x="1146" 
d="M649 1075q83 0 149 -22t119 -70.5t82 -134t29 -203.5v-817q0 -279 -252 -279q-113 0 -188 45v123q86 -39 162 -39q67 0 100 43.5t33 116.5v803q0 166 -72 237.5t-207 71.5q-74 0 -137 -29.5t-103 -75.5t-65 -92t-35 -89v-664h-145v1065h145v-254q8 26 26.5 57.5t52.5 69
t76 67.5t103 50t127 20z" />
    <glyph glyph-name="Omacron" unicode="&#x14c;" horiz-adv-x="1458" 
d="M422 1821h614v-95h-614v95zM729 1452q141 0 257.5 -47t202 -137.5t132.5 -231t47 -319.5q0 -178 -47 -318.5t-132.5 -231.5t-202 -138t-257.5 -47t-258 47t-202.5 138t-133 231.5t-47.5 318.5q0 179 47.5 319.5t133.5 231t202.5 137.5t257.5 47zM729 117q223 0 353 151.5
t130 448.5t-130 448.5t-353 151.5q-224 0 -353.5 -151.5t-129.5 -448.5t129.5 -448.5t353.5 -151.5z" />
    <glyph glyph-name="omacron" unicode="&#x14d;" horiz-adv-x="1116" 
d="M252 1452h614v-94h-614v94zM559 1075q90 0 175.5 -33.5t156.5 -98t114.5 -171t43.5 -240.5q0 -109 -28.5 -201t-76.5 -154.5t-112 -106.5t-132.5 -64t-140.5 -20t-141.5 20t-133 64t-111.5 106.5t-76.5 154.5t-28.5 201q0 134 43 240.5t114.5 171t157 98t176.5 33.5z
M907 532q0 105 -29 187t-78.5 132t-110.5 75.5t-130 25.5t-130.5 -25.5t-111 -75.5t-79 -132t-29.5 -187q0 -106 29.5 -189t79 -133t111 -75.5t130.5 -25.5t130 25.5t110.5 75.5t78.5 133t29 189z" />
    <glyph glyph-name="Ohungarumlaut" unicode="&#x150;" horiz-adv-x="1458" 
d="M469 1559h127l215 262h-160zM795 1559h127l215 262h-160zM729 1452q141 0 257.5 -47t202 -137.5t132.5 -231t47 -319.5q0 -178 -47 -318.5t-132.5 -231.5t-202 -138t-257.5 -47t-258 47t-202.5 138t-133 231.5t-47.5 318.5q0 179 47.5 319.5t133.5 231t202.5 137.5
t257.5 47zM729 117q223 0 353 151.5t130 448.5t-130 448.5t-353 151.5q-224 0 -353.5 -151.5t-129.5 -448.5t129.5 -448.5t353.5 -151.5z" />
    <glyph glyph-name="ohungarumlaut" unicode="&#x151;" horiz-adv-x="1116" 
d="M299 1190h127l215 262h-160zM625 1190h127l215 262h-160zM559 1075q90 0 175.5 -33.5t156.5 -98t114.5 -171t43.5 -240.5q0 -109 -28.5 -201t-76.5 -154.5t-112 -106.5t-132.5 -64t-140.5 -20t-141.5 20t-133 64t-111.5 106.5t-76.5 154.5t-28.5 201q0 134 43 240.5
t114.5 171t157 98t176.5 33.5zM907 532q0 105 -29 187t-78.5 132t-110.5 75.5t-130 25.5t-130.5 -25.5t-111 -75.5t-79 -132t-29.5 -187q0 -106 29.5 -189t79 -133t111 -75.5t130.5 -25.5t130 25.5t110.5 75.5t78.5 133t29 189z" />
    <glyph glyph-name="OE" unicode="&#x152;" horiz-adv-x="2217" 
d="M1368 135h789v-135h-940v201q-174 -219 -488 -219q-141 0 -258 47t-202.5 138t-133 231.5t-47.5 318.5q0 179 47.5 319.5t133.5 231t202.5 137.5t257.5 47q313 0 488 -217v199h919v-136h-768v-497h666v-125h-666v-541zM729 117q223 0 353 151.5t130 448.5t-130 448.5
t-353 151.5q-224 0 -353.5 -151.5t-129.5 -448.5t129.5 -448.5t353.5 -151.5z" />
    <glyph glyph-name="oe" unicode="&#x153;" horiz-adv-x="1937" 
d="M1870 528q0 -33 -2 -51h-817q12 -191 106.5 -284t253.5 -93q102 0 168.5 29t116.5 100h137q-65 -128 -169 -185.5t-261 -57.5q-138 0 -251 61t-177 180q-66 -119 -178.5 -180t-237.5 -61q-72 0 -141.5 20t-133 64t-111.5 106.5t-76.5 154.5t-28.5 201q0 134 43 240.5
t114.5 171t157 98t176.5 33.5q125 0 238.5 -61.5t179.5 -179.5q64 119 176.5 180t245.5 61q98 0 182 -33.5t149 -99t102.5 -171.5t37.5 -243zM1051 580h680q-3 184 -93 282.5t-239 98.5q-145 0 -240.5 -97t-107.5 -284zM559 109q69 0 130 25.5t110.5 75.5t78.5 133t29 189
q0 105 -29 187t-78.5 132t-110.5 75.5t-130 25.5t-130.5 -25.5t-111 -75.5t-79 -132t-29.5 -187q0 -106 29.5 -189t79 -133t111 -75.5t130.5 -25.5z" />
    <glyph glyph-name="Racute" unicode="&#x154;" horiz-adv-x="1263" 
d="M860 1821l-215 -262h-127l182 262h160zM1155 240q0 -188 41 -240h-152q-40 51 -40 240v116q0 238 -265 238h-469v-594h-151v1434h555q240 0 361.5 -107.5t121.5 -298.5q0 -130 -60.5 -222t-172.5 -140q122 -32 176.5 -105t54.5 -203v-118zM702 719q138 0 220 77.5
t82 217.5q0 286 -332 286h-402v-581h432z" />
    <glyph glyph-name="racute" unicode="&#x155;" horiz-adv-x="768" 
d="M625 1452l-215 -262h-127l182 262h160zM637 1075q45 0 72 -4v-131q-27 2 -62 2q-161 0 -258 -81.5t-125 -229.5v-631h-145v1065h145v-268q25 117 123.5 197.5t249.5 80.5z" />
    <glyph glyph-name="Rcommaaccent" unicode="&#x156;" horiz-adv-x="1263" 
d="M1155 240q0 -188 41 -240h-152q-40 51 -40 240v116q0 238 -265 238h-469v-594h-151v1434h555q240 0 361.5 -107.5t121.5 -298.5q0 -130 -60.5 -222t-172.5 -140q122 -32 176.5 -105t54.5 -203v-118zM702 719q138 0 220 77.5t82 217.5q0 286 -332 286h-402v-581h432z
M532 -236v191h179v-252q0 -221 -179 -229v51q42 21 58 61t16 117v61h-74z" />
    <glyph glyph-name="rcommaaccent" unicode="&#x157;" horiz-adv-x="768" 
d="M637 1075q45 0 72 -4v-131q-27 2 -62 2q-161 0 -258 -81.5t-125 -229.5v-631h-145v1065h145v-268q25 117 123.5 197.5t249.5 80.5zM102 -236v191h179v-252q0 -221 -179 -229v51q42 21 58 61t16 117v61h-74z" />
    <glyph glyph-name="Rcaron" unicode="&#x158;" horiz-adv-x="1263" 
d="M745 1540h-251l-189 262h119l197 -184l194 184h119zM1155 240q0 -188 41 -240h-152q-40 51 -40 240v116q0 238 -265 238h-469v-594h-151v1434h555q240 0 361.5 -107.5t121.5 -298.5q0 -130 -60.5 -222t-172.5 -140q122 -32 176.5 -105t54.5 -203v-118zM702 719
q138 0 220 77.5t82 217.5q0 286 -332 286h-402v-581h432z" />
    <glyph glyph-name="rcaron" unicode="&#x159;" horiz-adv-x="768" 
d="M510 1171h-252l-188 263h118l197 -185l195 185h118zM637 1075q45 0 72 -4v-131q-27 2 -62 2q-161 0 -258 -81.5t-125 -229.5v-631h-145v1065h145v-268q25 117 123.5 197.5t249.5 80.5z" />
    <glyph glyph-name="Sacute" unicode="&#x15a;" horiz-adv-x="1234" 
d="M498 1559h127l215 262h-160zM719 784q104 -21 179 -50.5t133 -75t87 -112.5t29 -157q0 -187 -140 -297t-384 -110q-124 0 -222.5 32t-163 90t-102 135t-47.5 171h158q51 -297 377 -297q177 0 271.5 76t94.5 200q0 62 -21.5 109t-62 77.5t-87 48.5t-109.5 31l-211 43
q-379 77 -379 369q0 168 128 276.5t361 108.5q221 0 348.5 -100.5t151.5 -272.5h-156q-21 109 -104.5 176.5t-239.5 67.5q-167 0 -250.5 -75.5t-83.5 -182.5q0 -191 254 -244z" />
    <glyph glyph-name="sacute" unicode="&#x15b;" horiz-adv-x="974" 
d="M383 1190h127l215 262h-160zM760 799q-55 162 -275 162q-118 0 -185 -49.5t-67 -127.5q0 -68 45.5 -108.5t149.5 -65.5l170 -39q69 -16 111 -29t86.5 -35t68 -49t39 -69t15.5 -98q0 -79 -34.5 -139.5t-95 -95.5t-134 -52.5t-158.5 -17.5q-182 0 -300 80t-139 241h138
q44 -207 301 -207q120 0 198 48.5t78 142.5q0 34 -9.5 59.5t-24.5 42.5t-42.5 30.5t-54 21.5t-68.5 18l-190 45q-144 34 -215.5 102t-71.5 176q0 134 106.5 211.5t282.5 77.5q162 0 269 -70.5t139 -205.5h-133z" />
    <glyph glyph-name="Scedilla" unicode="&#x15e;" horiz-adv-x="1234" 
d="M1147 389q0 -179 -128.5 -288t-354.5 -119l-86 -93q74 8 132 -32.5t58 -116.5q0 -186 -303 -186v69q186 3 186 113q0 57 -47.5 75t-109.5 -14l-25 37l-14 23l84 129q-206 21 -318.5 134t-132.5 290h158q51 -297 377 -297q177 0 271.5 76t94.5 200q0 62 -21.5 109
t-62 77.5t-87 48.5t-109.5 31l-211 43q-379 77 -379 369q0 168 128 276.5t361 108.5q221 0 348.5 -100.5t151.5 -272.5h-156q-21 109 -104.5 176.5t-239.5 67.5q-167 0 -250.5 -75.5t-83.5 -182.5q0 -191 254 -244l191 -37q104 -21 179 -50.5t133 -75t87 -112.5t29 -157z
" />
    <glyph glyph-name="scedilla" unicode="&#x15f;" horiz-adv-x="974" 
d="M918 291q0 -72 -28.5 -129t-79 -92.5t-114 -56t-139.5 -25.5l-94 -101q74 8 132 -32.5t58 -116.5q0 -187 -303 -187v70q187 3 187 113q0 57 -48.5 75t-109.5 -14l-25 37l-14 23l86 133q-154 14 -251.5 93.5t-117.5 225.5h138q44 -207 301 -207q120 0 198 48.5t78 142.5
q0 34 -9.5 59.5t-24.5 42.5t-42.5 30.5t-54 21.5t-68.5 18l-190 45q-144 34 -215.5 102t-71.5 176q0 134 106.5 211.5t282.5 77.5q162 0 269 -70.5t139 -205.5h-133q-55 162 -275 162q-118 0 -185 -49.5t-67 -127.5q0 -68 45.5 -108.5t149.5 -65.5l170 -39q69 -16 111 -29
t86.5 -35t68 -49t39 -69t15.5 -98z" />
    <glyph glyph-name="Scaron" unicode="&#x160;" horiz-adv-x="1234" 
d="M795 1802h118l-188 -262h-252l-188 262h118l197 -184zM719 784q104 -21 179 -50.5t133 -75t87 -112.5t29 -157q0 -187 -140 -297t-384 -110q-124 0 -222.5 32t-163 90t-102 135t-47.5 171h158q51 -297 377 -297q177 0 271.5 76t94.5 200q0 62 -21.5 109t-62 77.5
t-87 48.5t-109.5 31l-211 43q-379 77 -379 369q0 168 128 276.5t361 108.5q221 0 348.5 -100.5t151.5 -272.5h-156q-21 109 -104.5 176.5t-239.5 67.5q-167 0 -250.5 -75.5t-83.5 -182.5q0 -191 254 -244z" />
    <glyph glyph-name="scaron" unicode="&#x161;" horiz-adv-x="974" 
d="M680 1434h119l-189 -263h-252l-188 263h119l196 -185zM760 799q-55 162 -275 162q-118 0 -185 -49.5t-67 -127.5q0 -68 45.5 -108.5t149.5 -65.5l170 -39q69 -16 111 -29t86.5 -35t68 -49t39 -69t15.5 -98q0 -79 -34.5 -139.5t-95 -95.5t-134 -52.5t-158.5 -17.5
q-182 0 -300 80t-139 241h138q44 -207 301 -207q120 0 198 48.5t78 142.5q0 34 -9.5 59.5t-24.5 42.5t-42.5 30.5t-54 21.5t-68.5 18l-190 45q-144 34 -215.5 102t-71.5 176q0 134 106.5 211.5t282.5 77.5q162 0 269 -70.5t139 -205.5h-133z" />
    <glyph glyph-name="uni0162" unicode="&#x162;" horiz-adv-x="1181" 
d="M666 0h-19l-104 -113q74 8 132 -32.5t58 -116.5q0 -187 -303 -187v70q186 3 186 113q0 57 -48 75t-109 -14l-25 37l-14 23l94 145v1298h-457v136h1065v-136h-456v-1298z" />
    <glyph glyph-name="uni0163" unicode="&#x163;" horiz-adv-x="636" 
d="M567 10q-42 -14 -104 -20l-94 -101q74 8 132 -32.5t58 -116.5q0 -186 -303 -186v69q186 3 186 113q0 57 -48 75t-109 -14l-25 37l-14 23l88 137q-133 27 -133 186v766h-164v119h164v266h145v-266h205v-119h-205v-751q0 -45 23.5 -67t81.5 -22q52 0 116 17v-113z" />
    <glyph glyph-name="Tcaron" unicode="&#x164;" horiz-adv-x="1181" 
d="M713 1540h-252l-189 262h119l197 -184l194 184h119zM1122 1434v-136h-456v-1298h-152v1298h-457v136h1065z" />
    <glyph glyph-name="tcaron" unicode="&#x165;" horiz-adv-x="610" 
d="M754 1446l-215 -262h-127l182 262h160zM346 195q0 -45 23.5 -67t81.5 -22q52 0 116 17v-113q-71 -22 -161 -22q-97 0 -151 42.5t-54 149.5v766h-164v119h164v266h145v-266h205v-119h-205v-751z" />
    <glyph glyph-name="Tbar" unicode="&#x166;" horiz-adv-x="1181" 
d="M1122 1298h-456v-247h233v-95h-233v-956h-152v956h-229v95h229v247h-457v136h1065v-136z" />
    <glyph glyph-name="tbar" unicode="&#x167;" horiz-adv-x="636" 
d="M451 106q52 0 116 17v-113q-71 -22 -161 -22q-97 0 -151 42.5t-54 149.5v490h-164v121h164v155h-164v119h164v266h145v-266h205v-119h-205v-155h205v-121h-205v-475q0 -45 23.5 -67t81.5 -22z" />
    <glyph glyph-name="Utilde" unicode="&#x168;" horiz-adv-x="1331" 
d="M938 1802h74q0 -91 -57 -143.5t-142 -52.5q-40 0 -77 15t-65 36t-55.5 42.5t-60 36.5t-66.5 15q-54 0 -82 -27.5t-26 -62.5h-74q0 91 56.5 145t142.5 54q39 0 75.5 -15t65 -37t55.5 -44t59.5 -37t65.5 -15q54 0 83.5 28t27.5 62zM1212 543q0 -262 -147 -411.5
t-399 -149.5q-253 0 -400 149t-147 412v891h151v-885q0 -205 104.5 -318.5t291.5 -113.5q185 0 289 113.5t104 318.5v885h153v-891z" />
    <glyph glyph-name="utilde" unicode="&#x169;" horiz-adv-x="1136" 
d="M387 1382q-54 0 -82 -27.5t-26 -62.5h-74q0 91 56 145t142 54q39 0 76 -15t65 -37t55.5 -44t60 -37t65.5 -15q54 0 83.5 28t27.5 63h73q0 -91 -56.5 -144t-141.5 -53q-40 0 -77 15t-65 36.5t-55.5 42.5t-60 36t-66.5 15zM872 1065h146v-1065h-146v252q-8 -26 -26.5 -58
t-52.5 -69.5t-76 -67.5t-103 -50.5t-127 -20.5q-83 0 -149 22.5t-118.5 71.5t-81.5 134.5t-29 203.5v647h145v-643q0 -167 72 -239t206 -72q60 0 113 20t90 51t66.5 71t46 76t24.5 70v666z" />
    <glyph glyph-name="Umacron" unicode="&#x16a;" horiz-adv-x="1331" 
d="M354 1821h615v-95h-615v95zM1212 543q0 -262 -147 -411.5t-399 -149.5q-253 0 -400 149t-147 412v891h151v-885q0 -205 104.5 -318.5t291.5 -113.5q185 0 289 113.5t104 318.5v885h153v-891z" />
    <glyph glyph-name="umacron" unicode="&#x16b;" horiz-adv-x="1136" 
d="M866 1452v-94h-614v94h614zM872 1065h146v-1065h-146v252q-8 -26 -26.5 -58t-52.5 -69.5t-76 -67.5t-103 -50.5t-127 -20.5q-83 0 -149 22.5t-118.5 71.5t-81.5 134.5t-29 203.5v647h145v-643q0 -167 72 -239t206 -72q60 0 113 20t90 51t66.5 71t46 76t24.5 70v666z" />
    <glyph glyph-name="Ubreve" unicode="&#x16c;" horiz-adv-x="1331" 
d="M850 1821h102q0 -110 -71.5 -183t-218.5 -73q-99 0 -166 37t-95 93t-28 126h102q17 -152 187 -152q171 0 188 152zM1212 543q0 -262 -147 -411.5t-399 -149.5q-253 0 -400 149t-147 412v891h151v-885q0 -205 104.5 -318.5t291.5 -113.5q185 0 289 113.5t104 318.5v885
h153v-891z" />
    <glyph glyph-name="ubreve" unicode="&#x16d;" horiz-adv-x="1136" 
d="M559 1196q-99 0 -166 37t-95 93t-28 126h103q17 -152 186 -152q172 0 189 152h102q0 -110 -72 -183t-219 -73zM872 1065h146v-1065h-146v252q-8 -26 -26.5 -58t-52.5 -69.5t-76 -67.5t-103 -50.5t-127 -20.5q-83 0 -149 22.5t-118.5 71.5t-81.5 134.5t-29 203.5v647h145
v-643q0 -167 72 -239t206 -72q60 0 113 20t90 51t66.5 71t46 76t24.5 70v666z" />
    <glyph glyph-name="Uring" unicode="&#x16e;" horiz-adv-x="1331" 
d="M662 1559q-73 0 -124 49.5t-51 120.5t51 121.5t124 50.5t123.5 -50.5t50.5 -121.5t-50.5 -120.5t-123.5 -49.5zM662 1632q41 0 69.5 28t28.5 69t-28.5 68.5t-69.5 27.5q-42 0 -70.5 -27.5t-28.5 -68.5t29 -69t70 -28zM1212 543q0 -262 -147 -411.5t-399 -149.5
q-253 0 -400 149t-147 412v891h151v-885q0 -205 104.5 -318.5t291.5 -113.5q185 0 289 113.5t104 318.5v885h153v-891z" />
    <glyph glyph-name="uring" unicode="&#x16f;" horiz-adv-x="1136" 
d="M559 1190q-73 0 -123.5 49.5t-50.5 120.5t50.5 121.5t123.5 50.5t123.5 -50.5t50.5 -121.5t-50.5 -120.5t-123.5 -49.5zM559 1456q-41 0 -69.5 -27.5t-28.5 -68.5t28.5 -68.5t69.5 -27.5t69.5 27.5t28.5 68.5t-28.5 68.5t-69.5 27.5zM872 1065h146v-1065h-146v252
q-8 -26 -26.5 -58t-52.5 -69.5t-76 -67.5t-103 -50.5t-127 -20.5q-83 0 -149 22.5t-118.5 71.5t-81.5 134.5t-29 203.5v647h145v-643q0 -167 72 -239t206 -72q60 0 113 20t90 51t66.5 71t46 76t24.5 70v666z" />
    <glyph glyph-name="Uhungarumlaut" unicode="&#x170;" horiz-adv-x="1331" 
d="M401 1559h127l215 262h-159zM727 1559h127l215 262h-160zM1212 543q0 -262 -147 -411.5t-399 -149.5q-253 0 -400 149t-147 412v891h151v-885q0 -205 104.5 -318.5t291.5 -113.5q185 0 289 113.5t104 318.5v885h153v-891z" />
    <glyph glyph-name="uhungarumlaut" unicode="&#x171;" horiz-adv-x="1136" 
d="M641 1452l-215 -262h-127l182 262h160zM752 1190h-127l182 262h160zM872 1065h146v-1065h-146v252q-8 -26 -26.5 -58t-52.5 -69.5t-76 -67.5t-103 -50.5t-127 -20.5q-83 0 -149 22.5t-118.5 71.5t-81.5 134.5t-29 203.5v647h145v-643q0 -167 72 -239t206 -72q60 0 113 20
t90 51t66.5 71t46 76t24.5 70v666z" />
    <glyph glyph-name="Uogonek" unicode="&#x172;" horiz-adv-x="1331" 
d="M1059 1434h153v-891q0 -217 -102 -358.5t-283 -184.5h7q-121 -41 -186.5 -104t-65.5 -136q0 -64 52 -88.5t144 -5.5v-74q-44 -19 -100.5 -23t-109.5 8.5t-89.5 53.5t-36.5 105q0 79 65.5 143.5t160.5 102.5h-2q-253 0 -400 149t-147 412v891h151v-885
q0 -205 104.5 -318.5t291.5 -113.5q185 0 289 113.5t104 318.5v885z" />
    <glyph glyph-name="uogonek" unicode="&#x173;" horiz-adv-x="1136" 
d="M872 1065h146v-1065h-35q-121 -41 -186.5 -104t-65.5 -136q0 -64 52.5 -88.5t144.5 -5.5v-74q-44 -19 -100.5 -23t-109.5 8.5t-89.5 53.5t-36.5 105q0 62 44.5 118.5t105.5 91.5t128 54h2v252q-8 -26 -26.5 -58t-52.5 -69.5t-76 -67.5t-103 -50.5t-127 -20.5
q-83 0 -149 22.5t-118.5 71.5t-81.5 134.5t-29 203.5v647h145v-643q0 -167 72 -239t206 -72q60 0 113 20t90 51t66.5 71t46 76t24.5 70v666z" />
    <glyph glyph-name="Wcircumflex" unicode="&#x174;" horiz-adv-x="2035" 
d="M1212 1559l-194 184l-197 -184h-119l189 262h252l188 -262h-119zM1819 1434h159l-417 -1434h-144l-399 1219l-400 -1219h-143l-418 1434h158l340 -1211l383 1211h160l383 -1211z" />
    <glyph glyph-name="wcircumflex" unicode="&#x175;" horiz-adv-x="1642" 
d="M1016 1190l-195 184l-196 -184h-119l188 262h252l189 -262h-119zM1593 1065l-317 -1065h-137l-318 885l-319 -885h-135l-320 1065h148l254 -887l313 887h119l311 -887l254 887h147z" />
    <glyph glyph-name="Ycircumflex" unicode="&#x176;" horiz-adv-x="1320" 
d="M854 1559l-195 184l-196 -184h-119l188 262h252l189 -262h-119zM737 565v-565h-153v565l-527 869h170l432 -721l435 721h170z" />
    <glyph glyph-name="ycircumflex" unicode="&#x177;" horiz-adv-x="1083" 
d="M741 1190l-194 184l-197 -184h-119l189 262h252l188 -262h-119zM887 1065h149l-461 -1153q-71 -176 -169.5 -245t-243.5 -50v127q108 -14 175.5 31.5t106.5 144.5q19 47 21.5 69t-8.5 54l-410 1022h152l342 -903z" />
    <glyph glyph-name="Ydieresis" unicode="&#x178;" horiz-adv-x="1320" 
d="M367 1821h153v-179h-153v179zM799 1821h151v-179h-151v179zM737 565v-565h-153v565l-527 869h170l432 -721l435 721h170z" />
    <glyph glyph-name="Zacute" unicode="&#x179;" horiz-adv-x="1243" 
d="M526 1559h127l215 262h-159zM1161 135v-135h-1079v125l897 1173h-862v136h1036v-125l-897 -1174h905z" />
    <glyph glyph-name="zacute" unicode="&#x17a;" horiz-adv-x="1015" 
d="M399 1190h127l215 262h-159zM254 125h680v-125h-852v125l680 815h-660v125h832v-125z" />
    <glyph glyph-name="Zdotaccent" unicode="&#x17b;" horiz-adv-x="1243" 
d="M555 1821h154v-179h-154v179zM1161 135v-135h-1079v125l897 1173h-862v136h1036v-125l-897 -1174h905z" />
    <glyph glyph-name="zdotaccent" unicode="&#x17c;" horiz-adv-x="1015" 
d="M428 1452h154v-178h-154v178zM254 125h680v-125h-852v125l680 815h-660v125h832v-125z" />
    <glyph glyph-name="Zcaron" unicode="&#x17d;" horiz-adv-x="1243" 
d="M823 1802h119l-188 -262h-252l-189 262h119l197 -184zM1161 135v-135h-1079v125l897 1173h-862v136h1036v-125l-897 -1174h905z" />
    <glyph glyph-name="zcaron" unicode="&#x17e;" horiz-adv-x="1015" 
d="M696 1434h119l-188 -263h-252l-189 263h119l197 -185zM254 125h680v-125h-852v125l680 815h-660v125h832v-125z" />
    <glyph glyph-name="florin" unicode="&#x192;" horiz-adv-x="587" 
d="M547 1315q-91 0 -135.5 -49t-44.5 -168v-221h180v-127h-180v-809q0 -95 -24 -161t-70 -102t-102 -51.5t-130 -15.5v127q89 0 134.5 51t45.5 168v793h-164v127h164v237q0 181 81 255.5t245 74.5v-129z" />
    <glyph glyph-name="uni01CD" unicode="&#x1cd;" horiz-adv-x="1392" 
d="M819 1540h-252l-188 262h119l196 -184l195 184h119zM1171 0l-147 381h-655l-148 -381h-164l574 1434h131l573 -1434h-164zM414 498h565l-283 735z" />
    <glyph glyph-name="uni01CE" unicode="&#x1ce;" horiz-adv-x="1087" 
d="M664 1171h-252l-189 263h119l197 -185l194 185h119zM961 170q0 -42 17.5 -59.5t61.5 -16.5v-92q-25 -10 -61 -10q-76 0 -114 34t-38 115v84q-11 -23 -29 -49t-54 -61t-79.5 -62.5t-110 -47t-140.5 -19.5q-155 0 -250.5 82t-95.5 233q0 135 90 209t282 102q14 2 65.5 10
t74 11.5t66.5 11.5t68.5 14.5t53.5 15.5t47 19v17q0 138 -65 195t-205 57q-245 0 -271 -164h-139q17 136 123.5 206t288.5 70q213 0 313.5 -92t100.5 -307v-506zM815 340v258q-27 -15 -90 -31t-116 -25t-150 -24q-136 -23 -191 -73t-55 -140q0 -96 61.5 -152.5t169.5 -56.5
q65 0 124.5 20.5t98.5 48.5t72 65t49 62.5t27 47.5z" />
    <glyph glyph-name="uni01CF" unicode="&#x1cf;" horiz-adv-x="391" 
d="M387 1802h119l-189 -262h-251l-189 262h119l197 -184zM270 0h-151v1434h151v-1434z" />
    <glyph glyph-name="uni01D0" unicode="&#x1d0;" horiz-adv-x="385" 
d="M385 1434h119l-189 -263h-252l-188 263h119l196 -185zM119 1065h145v-1065h-145v1065z" />
    <glyph glyph-name="uni01D1" unicode="&#x1d1;" horiz-adv-x="1458" 
d="M922 1802h118l-188 -262h-252l-188 262h118l197 -184zM729 1452q141 0 257.5 -47t202 -137.5t132.5 -231t47 -319.5q0 -178 -47 -318.5t-132.5 -231.5t-202 -138t-257.5 -47t-258 47t-202.5 138t-133 231.5t-47.5 318.5q0 179 47.5 319.5t133.5 231t202.5 137.5t257.5 47
zM729 117q223 0 353 151.5t130 448.5t-130 448.5t-353 151.5q-224 0 -353.5 -151.5t-129.5 -448.5t129.5 -448.5t353.5 -151.5z" />
    <glyph glyph-name="uni01D2" unicode="&#x1d2;" horiz-adv-x="1116" 
d="M752 1434h118l-188 -263h-252l-188 263h118l197 -185zM559 1075q90 0 175.5 -33.5t156.5 -98t114.5 -171t43.5 -240.5q0 -109 -28.5 -201t-76.5 -154.5t-112 -106.5t-132.5 -64t-140.5 -20t-141.5 20t-133 64t-111.5 106.5t-76.5 154.5t-28.5 201q0 134 43 240.5
t114.5 171t157 98t176.5 33.5zM907 532q0 105 -29 187t-78.5 132t-110.5 75.5t-130 25.5t-130.5 -25.5t-111 -75.5t-79 -132t-29.5 -187q0 -106 29.5 -189t79 -133t111 -75.5t130.5 -25.5t130 25.5t110.5 75.5t78.5 133t29 189z" />
    <glyph glyph-name="uni01D3" unicode="&#x1d3;" horiz-adv-x="1331" 
d="M854 1802h119l-189 -262h-252l-188 262h119l196 -184zM1212 543q0 -262 -147 -411.5t-399 -149.5q-253 0 -400 149t-147 412v891h151v-885q0 -205 104.5 -318.5t291.5 -113.5q185 0 289 113.5t104 318.5v885h153v-891z" />
    <glyph glyph-name="uni01D4" unicode="&#x1d4;" horiz-adv-x="1136" 
d="M682 1171h-252l-188 263h118l197 -185l195 185h118zM872 1065h146v-1065h-146v252q-8 -26 -26.5 -58t-52.5 -69.5t-76 -67.5t-103 -50.5t-127 -20.5q-83 0 -149 22.5t-118.5 71.5t-81.5 134.5t-29 203.5v647h145v-643q0 -167 72 -239t206 -72q60 0 113 20t90 51t66.5 71
t46 76t24.5 70v666z" />
    <glyph glyph-name="uni01EA" unicode="&#x1ea;" horiz-adv-x="1458" 
d="M864 -6q-111 -41 -172 -102.5t-61 -131.5q0 -64 52 -88.5t144 -5.5v-74q-44 -19 -100 -23t-109.5 8.5t-89.5 53.5t-36 105q0 79 65.5 143.5t159.5 102.5q-284 5 -456.5 195.5t-172.5 539.5q0 179 47.5 319.5t133.5 231t202.5 137.5t257.5 47t257.5 -47t202 -137.5
t132.5 -231t47 -319.5q0 -310 -136 -496t-368 -227zM246 717q0 -297 129.5 -448.5t353.5 -151.5q223 0 353 151.5t130 448.5t-130 448.5t-353 151.5q-224 0 -353.5 -151.5t-129.5 -448.5z" />
    <glyph glyph-name="uni01EB" unicode="&#x1eb;" horiz-adv-x="1116" 
d="M1049 532q0 -113 -30.5 -207.5t-83.5 -159t-118.5 -106t-140.5 -59.5h14q-121 -41 -186.5 -104t-65.5 -136q0 -64 52.5 -88.5t144.5 -5.5v-74q-44 -19 -100.5 -23t-109.5 8.5t-89.5 53.5t-36.5 105q0 81 69.5 147.5t166.5 102.5q-88 5 -169 40t-149 99.5t-108.5 170
t-40.5 236.5q0 134 43 240.5t114.5 171t157 98t176.5 33.5q90 0 175.5 -33.5t156.5 -98t114.5 -171t43.5 -240.5zM559 109q69 0 130 25.5t110.5 75.5t78.5 133t29 189q0 105 -29 187t-78.5 132t-110.5 75.5t-130 25.5t-130.5 -25.5t-111 -75.5t-79 -132t-29.5 -187
q0 -106 29.5 -189t79 -133t111 -75.5t130.5 -25.5z" />
    <glyph glyph-name="Scommaaccent" unicode="&#x218;" horiz-adv-x="1234" 
d="M719 784q104 -21 179 -50.5t133 -75t87 -112.5t29 -157q0 -187 -140 -297t-384 -110q-124 0 -222.5 32t-163 90t-102 135t-47.5 171h158q51 -297 377 -297q177 0 271.5 76t94.5 200q0 62 -21.5 109t-62 77.5t-87 48.5t-109.5 31l-211 43q-379 77 -379 369
q0 168 128 276.5t361 108.5q221 0 348.5 -100.5t151.5 -272.5h-156q-21 109 -104.5 176.5t-239.5 67.5q-167 0 -250.5 -75.5t-83.5 -182.5q0 -191 254 -244zM520 -526v51q42 21 58 61t16 117v61h-74v191h178v-252q0 -221 -178 -229z" />
    <glyph glyph-name="scommaaccent" unicode="&#x219;" horiz-adv-x="974" 
d="M760 799q-55 162 -275 162q-118 0 -185 -49.5t-67 -127.5q0 -68 45.5 -108.5t149.5 -65.5l170 -39q69 -16 111 -29t86.5 -35t68 -49t39 -69t15.5 -98q0 -79 -34.5 -139.5t-95 -95.5t-134 -52.5t-158.5 -17.5q-182 0 -300 80t-139 241h138q44 -207 301 -207
q120 0 198 48.5t78 142.5q0 34 -9.5 59.5t-24.5 42.5t-42.5 30.5t-54 21.5t-68.5 18l-190 45q-144 34 -215.5 102t-71.5 176q0 134 106.5 211.5t282.5 77.5q162 0 269 -70.5t139 -205.5h-133zM403 -549v51q42 21 58 61.5t16 117.5v61h-74v190h179v-251q0 -222 -179 -230z
" />
    <glyph glyph-name="uni021A" unicode="&#x21a;" horiz-adv-x="1181" 
d="M1122 1434v-136h-456v-1298h-152v1298h-457v136h1065zM485 -238v191h179v-252q0 -221 -179 -229v51q42 21 58 61t16 117v61h-74z" />
    <glyph glyph-name="uni021B" unicode="&#x21b;" horiz-adv-x="636" 
d="M451 106q52 0 116 17v-113q-71 -22 -161 -22q-97 0 -151 42.5t-54 149.5v766h-164v119h164v266h145v-266h205v-119h-205v-751q0 -45 23.5 -67t81.5 -22zM311 -236v191h178v-252q0 -221 -178 -229v51q42 21 58 61t16 117v61h-74z" />
    <glyph glyph-name="uni0237" unicode="&#x237;" horiz-adv-x="417" 
d="M-139 -283q86 -39 162 -39q66 0 98.5 43.5t32.5 116.5v1227h145v-1237q0 -279 -250 -279q-116 0 -188 45v123z" />
    <glyph glyph-name="circumflex" unicode="&#x2c6;" horiz-adv-x="628" 
d="M510 1190l-195 184l-196 -184h-119l188 262h252l189 -262h-119z" />
    <glyph glyph-name="caron" unicode="&#x2c7;" horiz-adv-x="628" 
d="M510 1434h119l-189 -263h-252l-188 263h119l196 -185z" />
    <glyph glyph-name="breve" unicode="&#x2d8;" horiz-adv-x="579" 
d="M477 1452h103q0 -110 -72 -183t-219 -73q-99 0 -166 37t-95 93t-28 126h102q17 -152 187 -152q171 0 188 152z" />
    <glyph glyph-name="dotaccent" unicode="&#x2d9;" horiz-adv-x="153" 
d="M0 1452h154v-178h-154v178z" />
    <glyph glyph-name="ring" unicode="&#x2da;" horiz-adv-x="348" 
d="M174 1190q-73 0 -123.5 49.5t-50.5 120.5t50.5 121.5t123.5 50.5t123.5 -50.5t50.5 -121.5t-50.5 -120.5t-123.5 -49.5zM174 1264q41 0 69.5 27.5t28.5 68.5t-28.5 68.5t-69.5 27.5t-69.5 -27.5t-28.5 -68.5t28.5 -68.5t69.5 -27.5z" />
    <glyph glyph-name="ogonek" unicode="&#x2db;" horiz-adv-x="391" 
d="M336 -408q-44 -19 -100.5 -23t-109.5 8.5t-89.5 53.5t-36.5 105q0 62 45 118.5t106 91.5t128 54h112q-121 -41 -186.5 -104t-65.5 -136q0 -64 52.5 -88.5t144.5 -5.5v-74z" />
    <glyph glyph-name="tilde" unicode="&#x2dc;" horiz-adv-x="704" 
d="M631 1434h74q0 -91 -57 -144t-142 -53q-40 0 -77 15t-65 36.5t-55.5 42.5t-60 36t-66.5 15q-54 0 -82 -27.5t-26 -62.5h-74q0 91 56.5 145t142.5 54q39 0 75.5 -15t65 -37t55.5 -44t59.5 -37t65.5 -15q54 0 83.5 28t27.5 63z" />
    <glyph glyph-name="hungarumlaut" unicode="&#x2dd;" horiz-adv-x="673" 
d="M0 1190h127l215 262h-160zM326 1190h127l215 262h-160z" />
    <glyph glyph-name="uni0326" unicode="&#x326;" horiz-adv-x="0" 
d="M-178 -526v51q42 21 58 61t16 117v61h-74v191h178v-252q0 -221 -178 -229z" />
    <glyph glyph-name="uni0394" unicode="&#x394;" horiz-adv-x="1495" 
d="M1395 0h-1297l627 1434h45zM1202 129l-454 1057l-455 -1057h909z" />
    <glyph glyph-name="uni03A9" unicode="&#x3a9;" horiz-adv-x="1599" 
d="M1509 731q0 -356 -344 -592h293v-139h-414v217l86 66q108 84 171 198.5t63 249.5q0 126 -48.5 236t-128 183.5t-181 116t-207.5 42.5q-85 0 -167.5 -26.5t-153.5 -77.5t-125.5 -120.5t-85.5 -161t-31 -192.5q0 -136 62 -250.5t171 -197.5l86 -66v-217h-416v139h293
q-344 236 -344 592q0 152 61 287.5t161 228.5t228 147t261 54t261 -54t227.5 -147t160.5 -228.5t61 -287.5z" />
    <glyph glyph-name="uni03BC" unicode="&#x3bc;" horiz-adv-x="1136" 
d="M872 1065h146v-1065h-146v252q-8 -26 -26.5 -58t-52.5 -69.5t-76 -67.5t-103 -50.5t-127 -20.5q-146 0 -233 65v-440h-145v1454h145v-643q0 -167 72 -239t206 -72q60 0 113 20t90 51t66.5 71t46 76t24.5 70v666z" />
    <glyph glyph-name="pi" unicode="&#x3c0;" horiz-adv-x="1353" 
d="M1124 117q68 0 140 37v-129q-72 -37 -160 -37q-93 0 -152 48t-59 157v745h-444v-938h-146v938h-205v127h1143v-127h-203v-709q0 -68 20 -90t66 -22z" />
    <glyph glyph-name="uni0401" unicode="&#x401;" horiz-adv-x="1120" 
d="M430 1821v-179h-154v179h154zM860 1821v-179h-151v179h151zM270 135h789v-135h-940v1434h919v-136h-768v-497h666v-125h-666v-541z" />
    <glyph glyph-name="uni0403" unicode="&#x403;" horiz-adv-x="1013" 
d="M395 1559h127l215 262h-159zM956 1434v-136h-686v-1298h-151v1434h837z" />
    <glyph glyph-name="uni0404" unicode="&#x404;" horiz-adv-x="1327" 
d="M1112 352h154q-42 -176 -189.5 -273t-359.5 -97q-137 0 -250.5 46t-198.5 135.5t-132.5 231t-47.5 322.5t47.5 322.5t132.5 231t198.5 135.5t250.5 46q210 0 356 -97t187 -272h-154q-43 111 -139.5 172.5t-247.5 61.5q-197 0 -324 -131.5t-147 -384.5h522v-125h-524
q10 -274 138.5 -416.5t334.5 -142.5q153 0 251 61.5t142 173.5z" />
    <glyph glyph-name="uni0407" unicode="&#x407;" horiz-adv-x="391" 
d="M-98 1821h153v-179h-153v179zM334 1821h151v-179h-151v179zM270 0h-151v1434h151v-1434z" />
    <glyph glyph-name="uni040C" unicode="&#x40c;" horiz-adv-x="1294" 
d="M885 1821l-215 -262h-127l182 262h160zM1077 0l-583 662l-224 -244v-418h-151v1434h151v-809l748 809h180l-608 -666l663 -768h-176z" />
    <glyph glyph-name="uni040E" unicode="&#x40e;" horiz-adv-x="1144" 
d="M762 1821h102q0 -110 -72 -183t-219 -73q-75 0 -132 21t-90 57.5t-49.5 81t-16.5 96.5h102q17 -152 186 -152q172 0 189 152zM924 1434h163l-481 -1153q-73 -176 -171 -245t-242 -50v137q107 -13 169 29t101 137q20 51 21.5 88t-15.5 78l-412 979h164l350 -869z" />
    <glyph glyph-name="uni0410" unicode="&#x410;" horiz-adv-x="1392" 
d="M1171 0l-147 381h-655l-148 -381h-164l574 1434h131l573 -1434h-164zM414 498h565l-283 735z" />
    <glyph glyph-name="uni0411" unicode="&#x411;" horiz-adv-x="1232" 
d="M627 907q248 0 378 -118.5t130 -333.5q0 -216 -130 -335.5t-378 -119.5h-508v1434h837v-136h-686v-391h357zM631 135q168 0 256 82t88 238q0 154 -88.5 235.5t-255.5 81.5h-361v-637h361z" />
    <glyph glyph-name="uni0412" unicode="&#x412;" horiz-adv-x="1267" 
d="M856 784q151 -38 232 -136.5t81 -244.5q0 -192 -128.5 -297.5t-383.5 -105.5h-538v1434h532q214 0 321 -94.5t107 -254.5q0 -108 -56 -187.5t-167 -113.5zM270 1305v-471h394q121 0 190.5 66t69.5 179q0 101 -65.5 163.5t-203.5 62.5h-385zM659 131q180 0 265.5 75
t85.5 206q0 135 -92 217t-271 82h-377v-580h389z" />
    <glyph glyph-name="uni0413" unicode="&#x413;" horiz-adv-x="1013" 
d="M956 1434v-136h-686v-1298h-151v1434h837z" />
    <glyph glyph-name="uni0414" unicode="&#x414;" horiz-adv-x="1511" 
d="M1276 129h174v-270h-145v141h-1102v-141h-146v270h115q97 106 131.5 323.5t34.5 665.5v316h938v-1305zM336 129h786v1169h-633v-180q0 -454 -30.5 -669t-122.5 -320z" />
    <glyph glyph-name="uni0415" unicode="&#x415;" horiz-adv-x="1120" 
d="M270 135h789v-135h-940v1434h919v-136h-768v-497h666v-125h-666v-541z" />
    <glyph glyph-name="uni0416" unicode="&#x416;" horiz-adv-x="1808" 
d="M1767 0h-178l-608 668v-668h-154v668l-608 -668h-178l664 733l-629 701h176l575 -635v635h154v-635l575 635h177l-631 -701z" />
    <glyph glyph-name="uni0417" unicode="&#x417;" horiz-adv-x="1173" 
d="M766 776q62 -11 118 -38.5t104 -71.5t76 -111t28 -149q0 -194 -139 -312.5t-375 -118.5q-234 0 -369 132.5t-137 349.5h137q4 -164 104.5 -258.5t264.5 -94.5q160 0 264 82t104 224t-105 223.5t-294 81.5h-49v104h49q88 0 153.5 22.5t101 61t52 82.5t16.5 94
q0 110 -83.5 178t-215.5 68q-139 0 -224.5 -84t-86.5 -254h-137q0 225 119.5 345t326.5 120q201 0 322 -105.5t121 -259.5q0 -114 -64.5 -195.5t-181.5 -115.5z" />
    <glyph glyph-name="uni0418" unicode="&#x418;" horiz-adv-x="1347" 
d="M121 1434h151v-1205h4l783 1205h170v-1434h-152v1200h-6l-778 -1200h-172v1434z" />
    <glyph glyph-name="uni0419" unicode="&#x419;" horiz-adv-x="1347" 
d="M860 1821h103q0 -110 -72 -183t-219 -73q-99 0 -166 37t-95 93t-28 126h102q17 -152 187 -152q171 0 188 152zM121 1434h151v-1205h4l783 1205h170v-1434h-152v1200h-6l-778 -1200h-172v1434z" />
    <glyph glyph-name="uni041A" unicode="&#x41a;" horiz-adv-x="1294" 
d="M1077 0l-583 662l-224 -244v-418h-151v1434h151v-809l748 809h180l-608 -666l663 -768h-176z" />
    <glyph glyph-name="uni041B" unicode="&#x41b;" horiz-adv-x="1382" 
d="M1264 1434v-1434h-152v1298h-663v-847q0 -130 -31.5 -224.5t-89.5 -147.5t-132 -75.5t-165 -17.5v135q59 -1 104 14t83.5 50.5t58.5 103.5t20 166v979h967z" />
    <glyph glyph-name="uni041C" unicode="&#x41c;" horiz-adv-x="1691" 
d="M119 1434h166l561 -1244l561 1244h166v-1434h-152v1145h-6l-506 -1145h-127l-506 1145h-6v-1145h-151v1434z" />
    <glyph glyph-name="uni041D" unicode="&#x41d;" horiz-adv-x="1320" 
d="M1051 1434h151v-1434h-151v637h-781v-637h-151v1434h151v-670h781v670z" />
    <glyph glyph-name="uni041E" unicode="&#x41e;" horiz-adv-x="1458" 
d="M729 1452q141 0 257.5 -47t202 -137.5t132.5 -231t47 -319.5q0 -178 -47 -318.5t-132.5 -231.5t-202 -138t-257.5 -47t-258 47t-202.5 138t-133 231.5t-47.5 318.5q0 179 47.5 319.5t133.5 231t202.5 137.5t257.5 47zM729 117q223 0 353 151.5t130 448.5t-130 448.5
t-353 151.5q-224 0 -353.5 -151.5t-129.5 -448.5t129.5 -448.5t353.5 -151.5z" />
    <glyph glyph-name="uni041F" unicode="&#x41f;" horiz-adv-x="1320" 
d="M1202 1434v-1434h-151v1298h-781v-1298h-151v1434h1083z" />
    <glyph glyph-name="uni0420" unicode="&#x420;" horiz-adv-x="1202" 
d="M627 1434q248 0 378 -120.5t130 -338.5q0 -217 -130.5 -337t-377.5 -120h-357v-518h-151v1434h508zM631 653q167 0 255.5 83t88.5 239q0 157 -88.5 240t-255.5 83h-361v-645h361z" />
    <glyph glyph-name="uni0421" unicode="&#x421;" horiz-adv-x="1327" 
d="M719 117q153 0 251 61.5t142 173.5h154q-42 -176 -189.5 -273t-359.5 -97q-137 0 -250.5 46t-198.5 135.5t-132.5 231t-47.5 322.5t47.5 322.5t132.5 231t198.5 135.5t250.5 46q210 0 356 -97t187 -272h-154q-43 111 -139.5 172.5t-247.5 61.5q-214 0 -343.5 -153
t-129.5 -447q0 -292 129.5 -446t343.5 -154z" />
    <glyph glyph-name="uni0422" unicode="&#x422;" horiz-adv-x="1181" 
d="M1122 1434v-136h-456v-1298h-152v1298h-457v136h1065z" />
    <glyph glyph-name="uni0423" unicode="&#x423;" horiz-adv-x="1144" 
d="M924 1434h163l-481 -1153q-73 -176 -171 -245t-242 -50v137q107 -13 169 29t101 137q20 51 21.5 88t-15.5 78l-412 979h164l350 -869z" />
    <glyph glyph-name="uni0424" unicode="&#x424;" horiz-adv-x="1456" 
d="M1368 717q0 -269 -152 -423t-411 -175v-150h-152v150q-259 21 -412 175.5t-153 422.5q0 270 152.5 423.5t412.5 174.5v149h152v-149q259 -21 411 -174.5t152 -423.5zM233 717q0 -213 112 -334.5t308 -142.5v954q-196 -19 -308 -141t-112 -336zM805 240
q195 21 306.5 142.5t111.5 334.5q0 214 -111.5 336t-306.5 141v-954z" />
    <glyph glyph-name="uni0425" unicode="&#x425;" horiz-adv-x="1308" 
d="M1262 0h-172l-435 618l-436 -618h-172l522 741l-487 693h170l403 -572l402 572h170l-488 -693z" />
    <glyph glyph-name="uni0426" unicode="&#x426;" horiz-adv-x="1345" 
d="M1202 135h86v-424h-145v289h-1024v1434h151v-1299h781v1299h151v-1299z" />
    <glyph glyph-name="uni0427" unicode="&#x427;" horiz-adv-x="1271" 
d="M999 1434h152v-1434h-152v614q-6 -25 -29.5 -58.5t-67.5 -72t-99 -70.5t-132.5 -53.5t-160.5 -21.5q-87 0 -160.5 24t-133.5 75t-94 139t-34 206v652h152v-646q0 -166 89 -240.5t238 -74.5q73 0 140.5 20.5t116.5 52.5t87.5 71.5t60 77t27.5 69.5v670z" />
    <glyph glyph-name="uni0428" unicode="&#x428;" horiz-adv-x="1601" 
d="M1329 1434h154v-1434h-1364v1434h151v-1299h455v1299h152v-1299h452v1299z" />
    <glyph glyph-name="uni0429" unicode="&#x429;" horiz-adv-x="1630" 
d="M1483 135h90v-424h-148v289h-1306v1434h151v-1299h455v1299h152v-1299h452v1299h154v-1299z" />
    <glyph glyph-name="uni042A" unicode="&#x42a;" horiz-adv-x="1339" 
d="M733 907q248 0 378 -118.5t130 -333.5q0 -216 -130 -335.5t-378 -119.5h-508v1298h-168v136h320v-527h356zM737 135q168 0 256 82t88 238q0 154 -88.5 235.5t-255.5 81.5h-360v-637h360z" />
    <glyph glyph-name="uni042B" unicode="&#x42b;" horiz-adv-x="1560" 
d="M627 907q248 0 378 -118.5t130 -333.5q0 -216 -130 -335.5t-378 -119.5h-508v1434h151v-527h357zM1288 1434h152v-1434h-152v1434zM631 135q168 0 256 82t88 238q0 154 -88.5 235.5t-255.5 81.5h-361v-637h361z" />
    <glyph glyph-name="uni042C" unicode="&#x42c;" horiz-adv-x="1232" 
d="M627 907q248 0 378 -118.5t130 -333.5q0 -216 -130 -335.5t-378 -119.5h-508v1434h151v-527h357zM631 135q168 0 256 82t88 238q0 154 -88.5 235.5t-255.5 81.5h-361v-637h361z" />
    <glyph glyph-name="uni042D" unicode="&#x42d;" horiz-adv-x="1353" 
d="M637 1452q137 0 250.5 -46t198.5 -135.5t132.5 -231t47.5 -322.5t-47.5 -322.5t-132.5 -231t-198.5 -135.5t-250.5 -46q-212 0 -359.5 97t-189.5 273h154q44 -112 142 -173.5t251 -61.5q206 0 334.5 142.5t138.5 416.5h-524v125h522q-20 253 -147 384.5t-324 131.5
q-151 0 -247.5 -61.5t-139.5 -172.5h-154q41 175 187 272t356 97z" />
    <glyph glyph-name="uni042E" unicode="&#x42e;" horiz-adv-x="1865" 
d="M1139 1452q141 0 257.5 -47t202 -137.5t132.5 -231t47 -319.5q0 -178 -47 -318.5t-132.5 -231.5t-202 -138t-257.5 -47q-178 0 -315.5 72.5t-223.5 222t-100 360.5h-230v-637h-151v1434h151v-670h228q7 168 57 299.5t135.5 216t199 128.5t249.5 44zM1139 117
q223 0 353 151.5t130 448.5t-130 448.5t-353 151.5q-224 0 -354 -151.5t-130 -448.5t130 -448.5t354 -151.5z" />
    <glyph glyph-name="uni042F" unicode="&#x42f;" horiz-adv-x="1263" 
d="M1145 1434v-1434h-152v594h-469q-264 0 -264 -238v-116q0 -188 -41 -240h-151q41 52 41 240v118q0 130 54.5 203t176.5 105q-112 48 -173 140t-61 222q0 191 122 298.5t362 107.5h555zM993 719v581h-401q-332 0 -332 -286q0 -140 81.5 -217.5t219.5 -77.5h432z" />
    <glyph glyph-name="uni0430" unicode="&#x430;" horiz-adv-x="1087" 
d="M961 170q0 -42 17.5 -59.5t61.5 -16.5v-92q-25 -10 -61 -10q-76 0 -114 34t-38 115v84q-11 -23 -29 -49t-54 -61t-79.5 -62.5t-110 -47t-140.5 -19.5q-155 0 -250.5 82t-95.5 233q0 135 90 209t282 102q14 2 65.5 10t74 11.5t66.5 11.5t68.5 14.5t53.5 15.5t47 19v17
q0 138 -65 195t-205 57q-245 0 -271 -164h-139q17 136 123.5 206t288.5 70q213 0 313.5 -92t100.5 -307v-506zM815 340v258q-27 -15 -90 -31t-116 -25t-150 -24q-136 -23 -191 -73t-55 -140q0 -96 61.5 -152.5t169.5 -56.5q65 0 124.5 20.5t98.5 48.5t72 65t49 62.5t27 47.5
z" />
    <glyph glyph-name="uni0431" unicode="&#x431;" horiz-adv-x="1134" 
d="M602 1075q69 0 135 -20t126 -63.5t105 -106t72 -154.5t27 -201q0 -111 -28.5 -203.5t-76.5 -155t-111.5 -106t-132 -63.5t-140.5 -20q-73 0 -142 20.5t-133 67.5t-111.5 115.5t-76 171.5t-27.5 229v377q1 234 116.5 352.5t334.5 118.5h151q109 0 158 45h139
q-41 -93 -106.5 -128.5t-196.5 -35.5h-145q-145 0 -228.5 -79.5t-83.5 -217.5v-166q32 74 93.5 125.5t132.5 74.5t149 23zM578 104q69 0 130 25.5t110.5 76t78.5 134t29 190.5t-29 190.5t-78 134t-110.5 76t-130.5 25.5t-130 -25.5t-111 -76t-79 -134t-29 -190.5
q0 -106 29.5 -189.5t79.5 -134t111 -76.5t129 -26z" />
    <glyph glyph-name="uni0432" unicode="&#x432;" horiz-adv-x="1120" 
d="M823 588q115 -32 172.5 -107t57.5 -172q0 -159 -109 -234t-334 -75h-491v1065h491q176 0 269.5 -68t93.5 -194q0 -73 -37.5 -131.5t-112.5 -83.5zM264 940v-315h348q226 0 226 161q0 154 -228 154h-346zM612 125q167 0 232 50.5t65 143.5q0 203 -295 203h-350v-397h348z
" />
    <glyph glyph-name="uni0433" unicode="&#x433;" horiz-adv-x="847" 
d="M791 1065v-119h-527v-946h-145v1065h672z" />
    <glyph glyph-name="uni0434" unicode="&#x434;" horiz-adv-x="1208" 
d="M1081 119h70v-254h-133v135h-828v-135h-133v254h68q28 33 46 83.5t28 103t15 148t6 169.5t1 217v225h860v-946zM268 119h668v827h-569v-106q0 -340 -16.5 -492.5t-82.5 -228.5z" />
    <glyph glyph-name="uni0435" unicode="&#x435;" horiz-adv-x="1097" 
d="M1030 528q0 -33 -2 -51h-817q12 -191 106.5 -284t253.5 -93q102 0 168.5 29t116.5 100h137q-65 -128 -169 -185.5t-261 -57.5q-102 0 -190 34t-157 99t-108.5 171t-39.5 240q0 135 41 241.5t110.5 171.5t156 98.5t183.5 33.5q98 0 182 -33.5t149 -99t102.5 -171.5
t37.5 -243zM211 580h680q-3 184 -93 282.5t-239 98.5q-145 0 -240.5 -97t-107.5 -284z" />
    <glyph glyph-name="uni0436" unicode="&#x436;" horiz-adv-x="1495" 
d="M1468 0h-180l-467 471v-471h-145v469l-465 -469h-180l540 539l-522 526h180l447 -455v455h145v-457l449 457h180l-522 -526z" />
    <glyph glyph-name="uni0437" unicode="&#x437;" horiz-adv-x="1040" 
d="M684 565q51 -7 98.5 -26t89 -50t66.5 -80.5t25 -109.5q0 -147 -128 -232t-333 -85q-202 0 -318 102t-116 274h135q0 -116 82 -190t217 -74q144 0 230.5 57.5t86.5 153.5q0 103 -96.5 157t-255.5 54v88q148 1 221.5 51.5t73.5 139.5q0 74 -72 124t-182 50
q-118 0 -191 -62.5t-73 -152.5h-133q0 142 106.5 233.5t288.5 91.5q178 0 285.5 -78t107.5 -198q0 -94 -56.5 -154t-158.5 -84z" />
    <glyph glyph-name="uni0438" unicode="&#x438;" horiz-adv-x="1179" 
d="M119 1065h145v-875h6l629 875h162v-1065h-146v870h-4l-624 -870h-168v1065z" />
    <glyph glyph-name="uni0439" unicode="&#x439;" horiz-adv-x="1179" 
d="M778 1452h103q0 -110 -72 -183t-219 -73q-99 0 -166 37t-95 93t-28 126h102q17 -152 187 -152q171 0 188 152zM119 1065h145v-875h6l629 875h162v-1065h-146v870h-4l-624 -870h-168v1065z" />
    <glyph glyph-name="uni043A" unicode="&#x43a;" horiz-adv-x="1091" 
d="M897 0l-444 508l-189 -195v-313h-145v1065h145v-580l561 580h170l-448 -461l516 -604h-166z" />
    <glyph glyph-name="uni043B" unicode="&#x43b;" horiz-adv-x="1210" 
d="M1092 1065v-1065h-144l-2 946h-516v-506q0 -130 -28.5 -222t-83 -142.5t-125 -70.5t-162.5 -15v119q59 -1 102.5 13.5t79 51t54 104.5t18.5 168v619h807z" />
    <glyph glyph-name="uni043C" unicode="&#x43c;" horiz-adv-x="1421" 
d="M119 1065h160l432 -897l432 897h160v-1065h-146v801h-6l-379 -801h-123l-379 801h-6v-801h-145v1065z" />
    <glyph glyph-name="uni043D" unicode="&#x43d;" horiz-adv-x="1073" 
d="M809 1065h145v-1065h-145v494h-545v-494h-145v1065h145v-453h545v453z" />
    <glyph glyph-name="uni043E" unicode="&#x43e;" horiz-adv-x="1116" 
d="M559 1075q90 0 175.5 -33.5t156.5 -98t114.5 -171t43.5 -240.5q0 -109 -28.5 -201t-76.5 -154.5t-112 -106.5t-132.5 -64t-140.5 -20t-141.5 20t-133 64t-111.5 106.5t-76.5 154.5t-28.5 201q0 134 43 240.5t114.5 171t157 98t176.5 33.5zM907 532q0 105 -29 187
t-78.5 132t-110.5 75.5t-130 25.5t-130.5 -25.5t-111 -75.5t-79 -132t-29.5 -187q0 -106 29.5 -189t79 -133t111 -75.5t130.5 -25.5t130 25.5t110.5 75.5t78.5 133t29 189z" />
    <glyph glyph-name="uni043F" unicode="&#x43f;" horiz-adv-x="1087" 
d="M967 1065v-1065h-146v946h-557v-946h-145v1065h848z" />
    <glyph glyph-name="uni0440" unicode="&#x440;" horiz-adv-x="1173" 
d="M633 1075q70 0 136.5 -20t127.5 -63.5t106.5 -106t73 -153.5t27.5 -200q0 -137 -41 -244.5t-109.5 -171.5t-151.5 -97t-173 -33q-128 0 -223 63.5t-142 171.5v-610h-145v1454h145v-209q52 104 149.5 161.5t219.5 57.5zM608 109q70 0 132.5 25.5t113 75t80 132.5t29.5 190
q0 106 -29.5 188.5t-80 132t-113 74.5t-132.5 25t-131.5 -25t-111.5 -74t-78.5 -131.5t-28.5 -189.5q0 -104 29 -186.5t78 -133t111 -77t132 -26.5z" />
    <glyph glyph-name="uni0441" unicode="&#x441;" horiz-adv-x="1064" 
d="M563 106q119 0 193.5 51t111.5 156h136q-23 -89 -67 -154t-104 -102t-126.5 -54t-143.5 -17q-75 0 -146 20t-134.5 63t-111 105.5t-75.5 154t-28 201.5t27.5 201.5t75 154.5t111 106t134 63t145.5 20q159 0 274 -76.5t160 -244.5h-135q-74 200 -299 200q-71 0 -133 -26
t-111.5 -77t-78.5 -133.5t-29 -187.5q0 -106 29 -189t79 -133.5t112.5 -76t133.5 -25.5z" />
    <glyph glyph-name="uni0442" unicode="&#x442;" horiz-adv-x="958" 
d="M897 1065v-119h-346v-946h-145v946h-345v119h836z" />
    <glyph glyph-name="uni0443" unicode="&#x443;" horiz-adv-x="1083" 
d="M887 1065h149l-461 -1153q-71 -176 -169.5 -245t-243.5 -50v127q108 -14 175.5 31.5t106.5 144.5q19 47 21.5 69t-8.5 54l-410 1022h152l342 -903z" />
    <glyph glyph-name="uni0444" unicode="&#x444;" horiz-adv-x="1196" 
d="M1128 530q0 -126 -37 -227t-102 -166t-146.5 -103t-176.5 -48v-365h-136v365q-95 10 -176.5 48t-146.5 103t-102 166t-37 227t37 227t102 166t146.5 103.5t176.5 48.5v369h136v-369q95 -10 176.5 -48.5t146.5 -103.5t102 -166t37 -227zM193 530q0 -196 91.5 -303
t245.5 -127v861q-154 -20 -245.5 -128.5t-91.5 -302.5zM666 100q155 20 247.5 127.5t92.5 302.5q0 194 -93 302.5t-247 128.5v-861z" />
    <glyph glyph-name="uni0445" unicode="&#x445;" horiz-adv-x="1060" 
d="M1001 0h-163l-308 438l-309 -438h-164l394 547l-373 518h162l290 -408l289 408h164l-373 -518z" />
    <glyph glyph-name="uni0446" unicode="&#x446;" horiz-adv-x="1095" 
d="M967 119h82v-406h-140v287h-790v1065h145v-946h557v946h146v-946z" />
    <glyph glyph-name="uni0447" unicode="&#x447;" horiz-adv-x="1095" 
d="M831 1065h146v-1065h-146v537q-10 -33 -38 -74t-73.5 -84t-117 -71.5t-153.5 -28.5q-83 0 -150 22t-120 68.5t-82 126.5t-29 190v379h145v-375q0 -151 75 -219t204 -68q61 0 114.5 19.5t90 49t65.5 68t45 73t24 67.5v385z" />
    <glyph glyph-name="uni0448" unicode="&#x448;" horiz-adv-x="1542" 
d="M1276 1065h145v-1065h-1302v1065h145v-946h438v946h138v-946h436v946z" />
    <glyph glyph-name="uni0449" unicode="&#x449;" horiz-adv-x="1550" 
d="M1421 119h82v-406h-139v287h-1245v1065h145v-946h438v946h138v-946h436v946h145v-946z" />
    <glyph glyph-name="uni044A" unicode="&#x44a;" horiz-adv-x="1196" 
d="M700 674q205 0 316.5 -89t111.5 -249t-111.5 -248t-316.5 -88h-458v946h-185v119h330v-391h313zM702 119q283 0 283 217q0 219 -283 219h-315v-436h315z" />
    <glyph glyph-name="uni044B" unicode="&#x44b;" horiz-adv-x="1402" 
d="M578 674q205 0 316.5 -89t111.5 -249t-111.5 -248t-316.5 -88h-459v1065h145v-391h314zM1139 1065h145v-1065h-145v1065zM580 119q282 0 282 217q0 219 -282 219h-316v-436h316z" />
    <glyph glyph-name="uni044C" unicode="&#x44c;" horiz-adv-x="1073" 
d="M578 674q205 0 316.5 -89t111.5 -249t-111.5 -248t-316.5 -88h-459v1065h145v-391h314zM580 119q282 0 282 217q0 219 -282 219h-316v-436h316z" />
    <glyph glyph-name="uni044D" unicode="&#x44d;" horiz-adv-x="1071" 
d="M510 1075q75 0 145.5 -20t134.5 -63t111 -106t75 -154.5t28 -201.5q0 -137 -42.5 -244t-114 -171t-158 -96.5t-181.5 -32.5q-77 0 -143.5 17t-126 54t-103.5 102t-67 154h135q37 -105 111.5 -156t193.5 -51q144 0 244.5 101t109.5 293h-379v96h377q-18 174 -116 266
t-234 92q-225 0 -299 -200h-135q45 168 160 244.5t274 76.5z" />
    <glyph glyph-name="uni044E" unicode="&#x44e;" horiz-adv-x="1464" 
d="M907 1075q90 0 175.5 -33.5t156.5 -98t114.5 -171t43.5 -240.5q0 -109 -28.5 -201t-76.5 -154.5t-112 -106.5t-132.5 -64t-140.5 -20q-86 0 -167 29.5t-150.5 87t-115.5 152.5t-56 216h-154v-473h-145v1065h145v-473h154q9 120 55 215t115.5 152.5t151 87.5t167.5 30z
M907 109q69 0 130 25.5t110.5 75.5t78.5 133t29 189q0 105 -29 187t-78.5 132t-110.5 75.5t-130 25.5t-130.5 -25.5t-111 -75.5t-79 -132t-29.5 -187q0 -106 29.5 -189t79 -133t111 -75.5t130.5 -25.5z" />
    <glyph glyph-name="uni044F" unicode="&#x44f;" horiz-adv-x="1083" 
d="M965 1065v-1065h-146v391h-403q-97 0 -137.5 -32.5t-40.5 -106.5v-94q0 -70 -7.5 -103t-23.5 -55h-146q16 22 23.5 55t7.5 103v94q0 78 31 127t108 72q-153 87 -153 278q0 160 111.5 248t316.5 88h459zM819 510v436h-315q-283 0 -283 -217q0 -219 283 -219h315z" />
    <glyph glyph-name="uni0451" unicode="&#x451;" horiz-adv-x="1097" 
d="M416 1452v-178h-154v178h154zM846 1452v-178h-152v178h152zM1030 528q0 -33 -2 -51h-817q12 -191 106.5 -284t253.5 -93q102 0 168.5 29t116.5 100h137q-65 -128 -169 -185.5t-261 -57.5q-102 0 -190 34t-157 99t-108.5 171t-39.5 240q0 135 41 241.5t110.5 171.5
t156 98.5t183.5 33.5q98 0 182 -33.5t149 -99t102.5 -171.5t37.5 -243zM211 580h680q-3 184 -93 282.5t-239 98.5q-145 0 -240.5 -97t-107.5 -284z" />
    <glyph glyph-name="uni0453" unicode="&#x453;" horiz-adv-x="847" 
d="M319 1190h127l216 262h-160zM791 1065v-119h-527v-946h-145v1065h672z" />
    <glyph glyph-name="uni0454" unicode="&#x454;" horiz-adv-x="1064" 
d="M868 313h136q-23 -89 -67 -154t-104 -102t-126.5 -54t-143.5 -17q-75 0 -146 20t-134.5 63t-111 105.5t-75.5 154t-28 201.5t27.5 201.5t75 154.5t111 106t134 63t145.5 20q159 0 274 -76.5t160 -244.5h-135q-74 200 -299 200q-136 0 -234 -92t-116 -266h377v-96h-379
q9 -192 110 -293t244 -101q119 0 193.5 51t111.5 156z" />
    <glyph glyph-name="uni0457" unicode="&#x457;" horiz-adv-x="385" 
d="M-100 1452h153v-178h-153v178zM332 1452h151v-178h-151v178zM119 1065h145v-1065h-145v1065z" />
    <glyph glyph-name="uni045C" unicode="&#x45c;" horiz-adv-x="1091" 
d="M784 1452l-215 -262h-127l183 262h159zM897 0l-444 508l-189 -195v-313h-145v1065h145v-580l561 580h170l-448 -461l516 -604h-166z" />
    <glyph glyph-name="uni045E" unicode="&#x45e;" horiz-adv-x="1083" 
d="M731 1452h103q0 -110 -72 -183t-219 -73q-99 0 -166 37t-95 93t-28 126h102q17 -152 187 -152q171 0 188 152zM887 1065h149l-461 -1153q-71 -176 -169.5 -245t-243.5 -50v127q108 -14 175.5 31.5t106.5 144.5q19 47 21.5 69t-8.5 54l-410 1022h152l342 -903z" />
    <glyph glyph-name="uni0490" unicode="&#x490;" horiz-adv-x="1013" 
d="M805 1638h151v-340h-686v-1298h-151v1434h686v204z" />
    <glyph glyph-name="uni0491" unicode="&#x491;" horiz-adv-x="847" 
d="M662 1200h129v-254h-527v-946h-145v1065h543v135z" />
    <glyph glyph-name="Wgrave" unicode="&#x1e80;" horiz-adv-x="2035" 
d="M1118 1559l-182 262h-160l215 -262h127zM1819 1434h159l-417 -1434h-144l-399 1219l-400 -1219h-143l-418 1434h158l340 -1211l383 1211h160l383 -1211z" />
    <glyph glyph-name="wgrave" unicode="&#x1e81;" horiz-adv-x="1642" 
d="M922 1190l-183 262h-159l215 -262h127zM1593 1065l-317 -1065h-137l-318 885l-319 -885h-135l-320 1065h148l254 -887l313 887h119l311 -887l254 887h147z" />
    <glyph glyph-name="Wacute" unicode="&#x1e82;" horiz-adv-x="2035" 
d="M913 1559h127l215 262h-159zM1819 1434h159l-417 -1434h-144l-399 1219l-400 -1219h-143l-418 1434h158l340 -1211l383 1211h160l383 -1211z" />
    <glyph glyph-name="wacute" unicode="&#x1e83;" horiz-adv-x="1642" 
d="M717 1190h127l215 262h-160zM1593 1065l-317 -1065h-137l-318 885l-319 -885h-135l-320 1065h148l254 -887l313 887h119l311 -887l254 887h147z" />
    <glyph glyph-name="Wdieresis" unicode="&#x1e84;" horiz-adv-x="2035" 
d="M725 1821h154v-179h-154v179zM1157 1821h152v-179h-152v179zM1819 1434h159l-417 -1434h-144l-399 1219l-400 -1219h-143l-418 1434h158l340 -1211l383 1211h160l383 -1211z" />
    <glyph glyph-name="wdieresis" unicode="&#x1e85;" horiz-adv-x="1642" 
d="M528 1452h154v-178h-154v178zM961 1452h151v-178h-151v178zM1593 1065l-317 -1065h-137l-318 885l-319 -885h-135l-320 1065h148l254 -887l313 887h119l311 -887l254 887h147z" />
    <glyph glyph-name="uni1E9E" unicode="&#x1e9e;" horiz-adv-x="1327" 
d="M774 874q206 -19 335.5 -141t129.5 -315q0 -203 -119.5 -320.5t-322.5 -117.5q-200 0 -311 108t-111 301h147q0 -114 71.5 -194t203.5 -80q138 0 211 85.5t73 215.5q0 157 -138.5 251t-379.5 91l342 561h-442q-110 0 -151.5 -48.5t-41.5 -156.5v-1114h-151v1122
q0 181 80.5 255.5t257.5 74.5h686z" />
    <glyph glyph-name="Ygrave" unicode="&#x1ef2;" horiz-adv-x="1320" 
d="M760 1559l-182 262h-160l215 -262h127zM737 565v-565h-153v565l-527 869h170l432 -721l435 721h170z" />
    <glyph glyph-name="ygrave" unicode="&#x1ef3;" horiz-adv-x="1083" 
d="M647 1190l-182 262h-160l215 -262h127zM887 1065h149l-461 -1153q-71 -176 -169.5 -245t-243.5 -50v127q108 -14 175.5 31.5t106.5 144.5q19 47 21.5 69t-8.5 54l-410 1022h152l342 -903z" />
    <glyph glyph-name="endash" unicode="&#x2013;" horiz-adv-x="1228" 
d="M92 631h1045v-115h-1045v115z" />
    <glyph glyph-name="emdash" unicode="&#x2014;" horiz-adv-x="1351" 
d="M92 631h1168v-115h-1168v115z" />
    <glyph glyph-name="quoteleft" unicode="&#x2018;" horiz-adv-x="342" 
d="M260 1434v-52q-42 -21 -58 -61t-16 -117v-61h74v-191h-178v252q0 222 178 230z" />
    <glyph glyph-name="quoteright" unicode="&#x2019;" horiz-adv-x="342" 
d="M82 952v52q42 21 58 61t16 117v61h-74v191h178v-252q0 -222 -178 -230z" />
    <glyph glyph-name="quotesinglbase" unicode="&#x201a;" horiz-adv-x="342" 
d="M82 -291v51q42 21 58 61.5t16 117.5v61h-74v190h178v-251q0 -222 -178 -230z" />
    <glyph glyph-name="quotedblleft" unicode="&#x201c;" horiz-adv-x="655" 
d="M260 1436v-52q-42 -21 -58 -61t-16 -117v-61h74v-191h-178v252q0 222 178 230zM573 1436v-52q-42 -21 -57.5 -61t-15.5 -117v-61h73v-191h-178v252q0 222 178 230z" />
    <glyph glyph-name="quotedblright" unicode="&#x201d;" horiz-adv-x="655" 
d="M82 952v52q42 21 58 61t16 117v61h-74v191h178v-252q0 -222 -178 -230zM395 952v52q42 21 58 61t16 117v61h-74v191h178v-252q0 -222 -178 -230z" />
    <glyph glyph-name="quotedblbase" unicode="&#x201e;" horiz-adv-x="655" 
d="M82 -291v51q42 21 58 61.5t16 117.5v61h-74v190h178v-251q0 -222 -178 -230zM395 -291v51q42 21 58 61.5t16 117.5v61h-74v190h178v-251q0 -222 -178 -230z" />
    <glyph glyph-name="dagger" unicode="&#x2020;" horiz-adv-x="669" 
d="M567 1192v-113h-172v-524h-119v524h-174v113h174v242h119v-242h172z" />
    <glyph glyph-name="daggerdbl" unicode="&#x2021;" horiz-adv-x="669" 
d="M567 1006h-172v-578h172v-113h-172v-315h-119v315h-174v113h174v578h-174v112h174v316h119v-316h172v-112z" />
    <glyph glyph-name="bullet" unicode="&#x2022;" horiz-adv-x="530" 
d="M266 377q-69 0 -116.5 48t-47.5 116q0 66 47.5 113.5t116.5 47.5q66 0 114 -47.5t48 -113.5q0 -67 -48 -115.5t-114 -48.5z" />
    <glyph glyph-name="ellipsis" unicode="&#x2026;" horiz-adv-x="1394" 
d="M102 190h179v-190h-179v190zM608 190h178v-190h-178v190zM1114 190h178v-190h-178v190z" />
    <glyph glyph-name="perthousand" unicode="&#x2030;" horiz-adv-x="2134" 
d="M352 825q-114 0 -187 82.5t-73 227.5q0 144 73 226.5t187 82.5q116 0 189 -82.5t73 -226.5q0 -145 -73 -227.5t-189 -82.5zM262 0l842 1436l113 -2l-840 -1434h-115zM352 926q71 0 113.5 52.5t42.5 156.5t-42.5 156t-113.5 52q-70 0 -111.5 -52t-41.5 -156t42 -156.5
t111 -52.5zM1780 -8q-116 0 -188 81.5t-72 227.5q0 144 73 226.5t187 82.5t188 -82.5t74 -226.5q0 -145 -74 -227t-188 -82zM1124 -10q-114 0 -187 82.5t-73 226.5q0 145 73.5 227t186.5 82q116 0 189 -82t73 -227q0 -144 -73 -226.5t-189 -82.5zM1780 92q71 0 113 52
t42 157t-42 157t-113 52t-113.5 -52.5t-42.5 -156.5t42.5 -156.5t113.5 -52.5zM1124 90q71 0 114.5 52.5t43.5 156.5t-43.5 156.5t-114.5 52.5q-69 0 -111 -52.5t-42 -156.5t42 -156.5t111 -52.5z" />
    <glyph glyph-name="guilsinglleft" unicode="&#x2039;" horiz-adv-x="458" 
d="M377 778l-193 -166l193 -168v-143l-295 252v117l295 252v-144z" />
    <glyph glyph-name="guilsinglright" unicode="&#x203a;" horiz-adv-x="423" 
d="M57 778v144l295 -252v-117l-295 -252v143l193 168z" />
    <glyph glyph-name="fraction" unicode="&#x2044;" horiz-adv-x="305" 
d="M-252 0h-84l895 1434h82z" />
    <glyph glyph-name="Euro" unicode="&#x20ac;" horiz-adv-x="1419" 
d="M1204 352h154q-42 -176 -189.5 -273t-359.5 -97q-241 0 -406 140.5t-208 409.5h-123v97h110q-2 29 -2 88v49h-108v94h116q23 194 110 329t216.5 199t294.5 64q210 0 356 -97t187 -272h-154q-43 111 -139.5 172.5t-247.5 61.5q-186 0 -309.5 -116.5t-153.5 -340.5h389v-94
h-399v-49q0 -30 4 -88h395v-97h-383q37 -204 158.5 -309.5t298.5 -105.5q153 0 251 61.5t142 173.5z" />
    <glyph glyph-name="trademark" unicode="&#x2122;" horiz-adv-x="1003" 
d="M420 1368h-131v-303h-76v303h-131v66h338v-66zM922 1434v-369h-76v240l-109 -240h-61l-109 240v-240h-75v369h75l140 -295l139 295h76z" />
    <glyph glyph-name="partialdiff" unicode="&#x2202;" horiz-adv-x="1183" 
d="M557 954q153 0 257.5 -65.5t143.5 -179.5q4 628 -385 628q-129 0 -209 -69.5t-94 -173.5h-129q5 68 34.5 130.5t81 114t134 82.5t184.5 31q119 0 210.5 -42t149.5 -112t95 -170.5t51.5 -207t14.5 -232.5q0 -347 -132.5 -526.5t-375.5 -179.5q-214 0 -351 133.5
t-137 361.5q0 146 63 256t166 165.5t228 55.5zM588 102q157 0 251.5 113t94.5 295q0 146 -101.5 242t-246.5 96q-156 0 -251 -100.5t-95 -270.5q0 -172 95 -273.5t253 -101.5z" />
    <glyph glyph-name="product" unicode="&#x220f;" horiz-adv-x="1370" 
d="M92 1638h1186v-2027h-137v1896h-912v-1896h-137v2027z" />
    <glyph glyph-name="summation" unicode="&#x2211;" horiz-adv-x="1349" 
d="M1257 1503h-931l489 -878l-489 -879h931v-135h-1165l563 1014l-563 1013h1165v-135z" />
    <glyph glyph-name="minus" unicode="&#x2212;" horiz-adv-x="870" 
d="M80 592h602v-115h-602v115z" />
    <glyph glyph-name="radical" unicode="&#x221a;" horiz-adv-x="1492" 
d="M1401 1638l-561 -2027h-154l-369 948h-225v152h320l342 -897l506 1824h141z" />
    <glyph glyph-name="infinity" unicode="&#x221e;" horiz-adv-x="1646" 
d="M1212 872q146 0 245 -95t99 -240q0 -149 -99 -245.5t-245 -96.5q-201 0 -389 239q-91 -113 -185 -176t-202 -63q-148 0 -248 96.5t-100 245.5q0 145 100 240t248 95q108 0 202 -62t185 -173q187 235 389 235zM444 313q86 0 158.5 60t142.5 164q-69 101 -142 160t-159 59
q-99 0 -160 -62t-61 -157q0 -97 61.5 -160.5t159.5 -63.5zM1202 313q98 0 158.5 63.5t60.5 160.5q0 95 -60.5 157t-158.5 62q-86 0 -159 -59t-142 -160q70 -104 142.5 -164t158.5 -60z" />
    <glyph glyph-name="integral" unicode="&#x222b;" horiz-adv-x="587" 
d="M221 1114q0 181 81 255.5t245 74.5v-129q-91 0 -135.5 -49t-44.5 -168v-1157q0 -95 -24 -161t-70 -102t-102 -51.5t-130 -15.5v127q89 0 134.5 51t45.5 168v1157z" />
    <glyph glyph-name="approxequal" unicode="&#x2248;" horiz-adv-x="921" 
d="M754 809h75q0 -96 -58.5 -152.5t-147.5 -56.5q-42 0 -80.5 16t-68.5 39t-58.5 46t-63 39t-69.5 16q-56 0 -86.5 -30.5t-28.5 -66.5h-76q0 96 59 152.5t148 56.5q42 0 81 -16t69 -39t58.5 -45.5t62.5 -38.5t69 -16q57 0 87 29.5t28 66.5zM754 481h75q0 -96 -58.5 -152.5
t-147.5 -56.5q-42 0 -80.5 16t-68.5 39t-58.5 46t-63 39t-69.5 16q-56 0 -86.5 -30t-28.5 -66h-76q0 96 59 152.5t148 56.5q52 0 100 -24.5t79.5 -53.5t74.5 -53.5t86 -24.5q57 0 87 29.5t28 66.5z" />
    <glyph glyph-name="notequal" unicode="&#x2260;" horiz-adv-x="870" 
d="M709 1149l-138 -354h111v-115h-156l-82 -213h238v-115h-283l-137 -352h-100l137 352h-219v115h264l82 213h-346v115h391l137 354h101z" />
    <glyph glyph-name="lessequal" unicode="&#x2264;" horiz-adv-x="909" 
d="M805 451l-596 317l596 317v129l-703 -383v-126l703 -383v129zM102 115h705v-115h-705v115z" />
    <glyph glyph-name="greaterequal" unicode="&#x2265;" horiz-adv-x="909" 
d="M104 451v-129l703 383v126l-703 383v-129l596 -317zM807 115v-115h-705v115h705z" />
    <glyph glyph-name="lozenge" unicode="&#x25ca;" horiz-adv-x="1011" 
d="M602 1434l318 -717l-318 -717h-192l-318 717l318 717h192zM506 121l264 596l-264 596l-264 -596z" />
    <glyph glyph-name="G.ss01" horiz-adv-x="1384" 
d="M817 717h479v-717h-139v238q-137 -256 -444 -256q-137 0 -250 46t-197 135t-131 230.5t-47 323.5q0 181 46.5 322.5t131 231t199 135.5t252.5 46q203 0 341.5 -91t184.5 -255h-153q-93 211 -371 211q-217 0 -345 -152.5t-128 -447.5q0 -296 129 -448t348 -152
q196 -1 314 108.5t118 288.5v78h-338v125z" />
    <glyph glyph-name="R.ss01" horiz-adv-x="1212" 
d="M1145 0h-158l-303 520q-18 -2 -57 -2h-357v-518h-151v1434h508q248 0 378 -120.5t130 -338.5q0 -167 -78.5 -278.5t-229.5 -153.5zM270 653h361q167 0 255.5 83t88.5 239q0 157 -88.5 240t-255.5 83h-361v-645z" />
    <glyph glyph-name="G.ss05" horiz-adv-x="1384" 
d="M817 717h479v-717h-139v238q-137 -256 -444 -256q-137 0 -250 46t-197 135t-131 230.5t-47 323.5q0 181 46.5 322.5t131 231t199 135.5t252.5 46q203 0 341.5 -91t184.5 -255h-153q-93 211 -371 211q-217 0 -345 -152.5t-128 -447.5q0 -296 129 -448t348 -152
q196 -1 314 108.5t118 288.5v78h-338v125z" />
    <glyph glyph-name="i.loclTRK" horiz-adv-x="385" 
d="M117 1452h153v-178h-153v178zM119 1065h145v-1065h-145v1065z" />
    <glyph glyph-name="a.ss01" 
d="M541 1075q254 0 362 -215v205h146v-1065h-146v215q-47 -108 -139 -168.5t-223 -60.5q-90 0 -172 32.5t-150.5 96t-109.5 171.5t-41 246q0 110 27.5 201.5t73 153.5t107 105.5t128.5 63t137 19.5zM561 106q70 0 132 26t111 76.5t78 134t29 189.5q0 108 -28.5 191.5
t-78.5 132.5t-111 73.5t-132 24.5q-70 0 -131.5 -25t-110.5 -74t-77.5 -132t-28.5 -191q0 -211 100 -318.5t248 -107.5z" />
    <glyph glyph-name="aacute.ss01" 
d="M481 1190h127l215 262h-159zM541 1075q254 0 362 -215v205h146v-1065h-146v215q-47 -108 -139 -168.5t-223 -60.5q-90 0 -172 32.5t-150.5 96t-109.5 171.5t-41 246q0 110 27.5 201.5t73 153.5t107 105.5t128.5 63t137 19.5zM561 106q70 0 132 26t111 76.5t78 134
t29 189.5q0 108 -28.5 191.5t-78.5 132.5t-111 73.5t-132 24.5q-70 0 -131.5 -25t-110.5 -74t-77.5 -132t-28.5 -191q0 -211 100 -318.5t248 -107.5z" />
    <glyph glyph-name="abreve.ss01" 
d="M774 1452h103q0 -110 -72 -183t-219 -73q-99 0 -166 37t-95 93t-28 126h102q17 -152 187 -152q171 0 188 152zM541 1075q254 0 362 -215v205h146v-1065h-146v215q-47 -108 -139 -168.5t-223 -60.5q-90 0 -172 32.5t-150.5 96t-109.5 171.5t-41 246q0 110 27.5 201.5
t73 153.5t107 105.5t128.5 63t137 19.5zM561 106q70 0 132 26t111 76.5t78 134t29 189.5q0 108 -28.5 191.5t-78.5 132.5t-111 73.5t-132 24.5q-70 0 -131.5 -25t-110.5 -74t-77.5 -132t-28.5 -191q0 -211 100 -318.5t248 -107.5z" />
    <glyph glyph-name="uni01CE.ss01" 
d="M778 1434h119l-188 -263h-252l-189 263h119l197 -185zM541 1075q254 0 362 -215v205h146v-1065h-146v215q-47 -108 -139 -168.5t-223 -60.5q-90 0 -172 32.5t-150.5 96t-109.5 171.5t-41 246q0 110 27.5 201.5t73 153.5t107 105.5t128.5 63t137 19.5zM561 106
q70 0 132 26t111 76.5t78 134t29 189.5q0 108 -28.5 191.5t-78.5 132.5t-111 73.5t-132 24.5q-70 0 -131.5 -25t-110.5 -74t-77.5 -132t-28.5 -191q0 -211 100 -318.5t248 -107.5z" />
    <glyph glyph-name="acircumflex.ss01" 
d="M780 1190l-194 184l-197 -184h-119l189 262h252l188 -262h-119zM541 1075q254 0 362 -215v205h146v-1065h-146v215q-47 -108 -139 -168.5t-223 -60.5q-90 0 -172 32.5t-150.5 96t-109.5 171.5t-41 246q0 110 27.5 201.5t73 153.5t107 105.5t128.5 63t137 19.5zM561 106
q70 0 132 26t111 76.5t78 134t29 189.5q0 108 -28.5 191.5t-78.5 132.5t-111 73.5t-132 24.5q-70 0 -131.5 -25t-110.5 -74t-77.5 -132t-28.5 -191q0 -211 100 -318.5t248 -107.5z" />
    <glyph glyph-name="adieresis.ss01" 
d="M293 1452h153v-178h-153v178zM725 1452h152v-178h-152v178zM541 1075q254 0 362 -215v205h146v-1065h-146v215q-47 -108 -139 -168.5t-223 -60.5q-90 0 -172 32.5t-150.5 96t-109.5 171.5t-41 246q0 110 27.5 201.5t73 153.5t107 105.5t128.5 63t137 19.5zM561 106
q70 0 132 26t111 76.5t78 134t29 189.5q0 108 -28.5 191.5t-78.5 132.5t-111 73.5t-132 24.5q-70 0 -131.5 -25t-110.5 -74t-77.5 -132t-28.5 -191q0 -211 100 -318.5t248 -107.5z" />
    <glyph glyph-name="agrave.ss01" 
d="M686 1190l-182 262h-160l215 -262h127zM541 1075q254 0 362 -215v205h146v-1065h-146v215q-47 -108 -139 -168.5t-223 -60.5q-90 0 -172 32.5t-150.5 96t-109.5 171.5t-41 246q0 110 27.5 201.5t73 153.5t107 105.5t128.5 63t137 19.5zM561 106q70 0 132 26t111 76.5
t78 134t29 189.5q0 108 -28.5 191.5t-78.5 132.5t-111 73.5t-132 24.5q-70 0 -131.5 -25t-110.5 -74t-77.5 -132t-28.5 -191q0 -211 100 -318.5t248 -107.5z" />
    <glyph glyph-name="amacron.ss01" 
d="M279 1452h614v-94h-614v94zM541 1075q254 0 362 -215v205h146v-1065h-146v215q-47 -108 -139 -168.5t-223 -60.5q-90 0 -172 32.5t-150.5 96t-109.5 171.5t-41 246q0 110 27.5 201.5t73 153.5t107 105.5t128.5 63t137 19.5zM561 106q70 0 132 26t111 76.5t78 134
t29 189.5q0 108 -28.5 191.5t-78.5 132.5t-111 73.5t-132 24.5q-70 0 -131.5 -25t-110.5 -74t-77.5 -132t-28.5 -191q0 -211 100 -318.5t248 -107.5z" />
    <glyph glyph-name="aogonek.ss01" 
d="M903 1065h146v-1065h-33q-121 -41 -186.5 -104t-65.5 -136q0 -64 52.5 -88.5t144.5 -5.5v-74q-44 -19 -100.5 -23t-109.5 8.5t-89.5 53.5t-36.5 105q0 62 44.5 118.5t105.5 91.5t128 54v215q-47 -108 -139 -168.5t-223 -60.5q-90 0 -172 32.5t-150.5 96t-109.5 171.5
t-41 246q0 110 27.5 201.5t73 153.5t107 105.5t128.5 63t137 19.5q254 0 362 -215v205zM561 106q70 0 132 26t111 76.5t78 134t29 189.5q0 108 -28.5 191.5t-78.5 132.5t-111 73.5t-132 24.5q-70 0 -131.5 -25t-110.5 -74t-77.5 -132t-28.5 -191q0 -211 100 -318.5
t248 -107.5z" />
    <glyph glyph-name="aring.ss01" 
d="M586 1190q-73 0 -123.5 49.5t-50.5 120.5t50.5 121.5t123.5 50.5t123.5 -50.5t50.5 -121.5t-50.5 -120.5t-123.5 -49.5zM586 1264q41 0 69.5 27.5t28.5 68.5t-28.5 68.5t-69.5 27.5q-42 0 -70.5 -27.5t-28.5 -68.5t28.5 -68.5t70.5 -27.5zM541 1075q254 0 362 -215v205
h146v-1065h-146v215q-47 -108 -139 -168.5t-223 -60.5q-90 0 -172 32.5t-150.5 96t-109.5 171.5t-41 246q0 110 27.5 201.5t73 153.5t107 105.5t128.5 63t137 19.5zM561 106q70 0 132 26t111 76.5t78 134t29 189.5q0 108 -28.5 191.5t-78.5 132.5t-111 73.5t-132 24.5
q-70 0 -131.5 -25t-110.5 -74t-77.5 -132t-28.5 -191q0 -211 100 -318.5t248 -107.5z" />
    <glyph glyph-name="atilde.ss01" 
d="M862 1434h74q0 -91 -57 -144t-142 -53q-40 0 -76.5 15t-65 36.5t-55.5 42.5t-59.5 36t-66.5 15q-54 0 -82.5 -27.5t-26.5 -62.5h-74q0 91 56.5 145t142.5 54q39 0 76 -15t65 -37t55.5 -44t60 -37t65.5 -15q54 0 83 28t27 63zM541 1075q254 0 362 -215v205h146v-1065h-146
v215q-47 -108 -139 -168.5t-223 -60.5q-90 0 -172 32.5t-150.5 96t-109.5 171.5t-41 246q0 110 27.5 201.5t73 153.5t107 105.5t128.5 63t137 19.5zM561 106q70 0 132 26t111 76.5t78 134t29 189.5q0 108 -28.5 191.5t-78.5 132.5t-111 73.5t-132 24.5q-70 0 -131.5 -25
t-110.5 -74t-77.5 -132t-28.5 -191q0 -211 100 -318.5t248 -107.5z" />
    <glyph glyph-name="g.ss01" horiz-adv-x="1085" 
d="M532 254q72 0 138 -11.5t127.5 -38t107 -66t72.5 -100t27 -134.5q0 -76 -27 -136.5t-72 -101t-106.5 -67.5t-128.5 -38.5t-140 -11.5q-69 0 -133.5 11.5t-125 38.5t-105 67t-71.5 101.5t-27 136.5q0 209 229 289q-90 8 -147.5 48t-57.5 107q0 52 36 88.5t101 48.5
q-88 94 -88 240q0 165 108 258.5t279 93.5q174 0 283 -98q49 89 172 86v-111q-77 0 -117 -43q49 -81 49 -186q0 -166 -108 -260t-279 -94q-136 0 -231 59q-42 -6 -63 -27.5t-21 -52.5q0 -96 188 -96h131zM528 967q-126 0 -194 -66t-68 -176q0 -112 68 -178t194 -66t193 66
t67 178q0 110 -67 176t-193 66zM535 -340q148 0 237.5 60t89.5 184q0 121 -90 180t-237 59q-145 0 -234.5 -59t-89.5 -180q0 -124 89.5 -184t234.5 -60z" />
    <glyph glyph-name="l.ss01" horiz-adv-x="403" 
d="M358 -4q-124 -13 -181.5 28t-57.5 160v1260h145v-1260q0 -40 21.5 -59.5t72.5 -18.5v-110z" />
    <glyph glyph-name="a.ss02" 
d="M541 1075q254 0 362 -215v205h146v-1065h-146v215q-47 -108 -139 -168.5t-223 -60.5q-90 0 -172 32.5t-150.5 96t-109.5 171.5t-41 246q0 110 27.5 201.5t73 153.5t107 105.5t128.5 63t137 19.5zM561 106q70 0 132 26t111 76.5t78 134t29 189.5q0 108 -28.5 191.5
t-78.5 132.5t-111 73.5t-132 24.5q-70 0 -131.5 -25t-110.5 -74t-77.5 -132t-28.5 -191q0 -211 100 -318.5t248 -107.5z" />
    <glyph glyph-name="aacute.ss02" 
d="M481 1190h127l215 262h-159zM541 1075q254 0 362 -215v205h146v-1065h-146v215q-47 -108 -139 -168.5t-223 -60.5q-90 0 -172 32.5t-150.5 96t-109.5 171.5t-41 246q0 110 27.5 201.5t73 153.5t107 105.5t128.5 63t137 19.5zM561 106q70 0 132 26t111 76.5t78 134
t29 189.5q0 108 -28.5 191.5t-78.5 132.5t-111 73.5t-132 24.5q-70 0 -131.5 -25t-110.5 -74t-77.5 -132t-28.5 -191q0 -211 100 -318.5t248 -107.5z" />
    <glyph glyph-name="abreve.ss02" 
d="M774 1452h103q0 -110 -72 -183t-219 -73q-99 0 -166 37t-95 93t-28 126h102q17 -152 187 -152q171 0 188 152zM541 1075q254 0 362 -215v205h146v-1065h-146v215q-47 -108 -139 -168.5t-223 -60.5q-90 0 -172 32.5t-150.5 96t-109.5 171.5t-41 246q0 110 27.5 201.5
t73 153.5t107 105.5t128.5 63t137 19.5zM561 106q70 0 132 26t111 76.5t78 134t29 189.5q0 108 -28.5 191.5t-78.5 132.5t-111 73.5t-132 24.5q-70 0 -131.5 -25t-110.5 -74t-77.5 -132t-28.5 -191q0 -211 100 -318.5t248 -107.5z" />
    <glyph glyph-name="uni01CE.ss02" 
d="M778 1434h119l-188 -263h-252l-189 263h119l197 -185zM541 1075q254 0 362 -215v205h146v-1065h-146v215q-47 -108 -139 -168.5t-223 -60.5q-90 0 -172 32.5t-150.5 96t-109.5 171.5t-41 246q0 110 27.5 201.5t73 153.5t107 105.5t128.5 63t137 19.5zM561 106
q70 0 132 26t111 76.5t78 134t29 189.5q0 108 -28.5 191.5t-78.5 132.5t-111 73.5t-132 24.5q-70 0 -131.5 -25t-110.5 -74t-77.5 -132t-28.5 -191q0 -211 100 -318.5t248 -107.5z" />
    <glyph glyph-name="acircumflex.ss02" 
d="M780 1190l-194 184l-197 -184h-119l189 262h252l188 -262h-119zM541 1075q254 0 362 -215v205h146v-1065h-146v215q-47 -108 -139 -168.5t-223 -60.5q-90 0 -172 32.5t-150.5 96t-109.5 171.5t-41 246q0 110 27.5 201.5t73 153.5t107 105.5t128.5 63t137 19.5zM561 106
q70 0 132 26t111 76.5t78 134t29 189.5q0 108 -28.5 191.5t-78.5 132.5t-111 73.5t-132 24.5q-70 0 -131.5 -25t-110.5 -74t-77.5 -132t-28.5 -191q0 -211 100 -318.5t248 -107.5z" />
    <glyph glyph-name="adieresis.ss02" 
d="M293 1452h153v-178h-153v178zM725 1452h152v-178h-152v178zM541 1075q254 0 362 -215v205h146v-1065h-146v215q-47 -108 -139 -168.5t-223 -60.5q-90 0 -172 32.5t-150.5 96t-109.5 171.5t-41 246q0 110 27.5 201.5t73 153.5t107 105.5t128.5 63t137 19.5zM561 106
q70 0 132 26t111 76.5t78 134t29 189.5q0 108 -28.5 191.5t-78.5 132.5t-111 73.5t-132 24.5q-70 0 -131.5 -25t-110.5 -74t-77.5 -132t-28.5 -191q0 -211 100 -318.5t248 -107.5z" />
    <glyph glyph-name="agrave.ss02" 
d="M686 1190l-182 262h-160l215 -262h127zM541 1075q254 0 362 -215v205h146v-1065h-146v215q-47 -108 -139 -168.5t-223 -60.5q-90 0 -172 32.5t-150.5 96t-109.5 171.5t-41 246q0 110 27.5 201.5t73 153.5t107 105.5t128.5 63t137 19.5zM561 106q70 0 132 26t111 76.5
t78 134t29 189.5q0 108 -28.5 191.5t-78.5 132.5t-111 73.5t-132 24.5q-70 0 -131.5 -25t-110.5 -74t-77.5 -132t-28.5 -191q0 -211 100 -318.5t248 -107.5z" />
    <glyph glyph-name="amacron.ss02" 
d="M279 1452h614v-94h-614v94zM541 1075q254 0 362 -215v205h146v-1065h-146v215q-47 -108 -139 -168.5t-223 -60.5q-90 0 -172 32.5t-150.5 96t-109.5 171.5t-41 246q0 110 27.5 201.5t73 153.5t107 105.5t128.5 63t137 19.5zM561 106q70 0 132 26t111 76.5t78 134
t29 189.5q0 108 -28.5 191.5t-78.5 132.5t-111 73.5t-132 24.5q-70 0 -131.5 -25t-110.5 -74t-77.5 -132t-28.5 -191q0 -211 100 -318.5t248 -107.5z" />
    <glyph glyph-name="aogonek.ss02" 
d="M903 1065h146v-1065h-33q-121 -41 -186.5 -104t-65.5 -136q0 -64 52.5 -88.5t144.5 -5.5v-74q-44 -19 -100.5 -23t-109.5 8.5t-89.5 53.5t-36.5 105q0 62 44.5 118.5t105.5 91.5t128 54v215q-47 -108 -139 -168.5t-223 -60.5q-90 0 -172 32.5t-150.5 96t-109.5 171.5
t-41 246q0 110 27.5 201.5t73 153.5t107 105.5t128.5 63t137 19.5q254 0 362 -215v205zM561 106q70 0 132 26t111 76.5t78 134t29 189.5q0 108 -28.5 191.5t-78.5 132.5t-111 73.5t-132 24.5q-70 0 -131.5 -25t-110.5 -74t-77.5 -132t-28.5 -191q0 -211 100 -318.5
t248 -107.5z" />
    <glyph glyph-name="aring.ss02" 
d="M586 1190q-73 0 -123.5 49.5t-50.5 120.5t50.5 121.5t123.5 50.5t123.5 -50.5t50.5 -121.5t-50.5 -120.5t-123.5 -49.5zM586 1264q41 0 69.5 27.5t28.5 68.5t-28.5 68.5t-69.5 27.5q-42 0 -70.5 -27.5t-28.5 -68.5t28.5 -68.5t70.5 -27.5zM541 1075q254 0 362 -215v205
h146v-1065h-146v215q-47 -108 -139 -168.5t-223 -60.5q-90 0 -172 32.5t-150.5 96t-109.5 171.5t-41 246q0 110 27.5 201.5t73 153.5t107 105.5t128.5 63t137 19.5zM561 106q70 0 132 26t111 76.5t78 134t29 189.5q0 108 -28.5 191.5t-78.5 132.5t-111 73.5t-132 24.5
q-70 0 -131.5 -25t-110.5 -74t-77.5 -132t-28.5 -191q0 -211 100 -318.5t248 -107.5z" />
    <glyph glyph-name="atilde.ss02" 
d="M862 1434h74q0 -91 -57 -144t-142 -53q-40 0 -76.5 15t-65 36.5t-55.5 42.5t-59.5 36t-66.5 15q-54 0 -82.5 -27.5t-26.5 -62.5h-74q0 91 56.5 145t142.5 54q39 0 76 -15t65 -37t55.5 -44t60 -37t65.5 -15q54 0 83 28t27 63zM541 1075q254 0 362 -215v205h146v-1065h-146
v215q-47 -108 -139 -168.5t-223 -60.5q-90 0 -172 32.5t-150.5 96t-109.5 171.5t-41 246q0 110 27.5 201.5t73 153.5t107 105.5t128.5 63t137 19.5zM561 106q70 0 132 26t111 76.5t78 134t29 189.5q0 108 -28.5 191.5t-78.5 132.5t-111 73.5t-132 24.5q-70 0 -131.5 -25
t-110.5 -74t-77.5 -132t-28.5 -191q0 -211 100 -318.5t248 -107.5z" />
    <glyph glyph-name="g.ss03" horiz-adv-x="1085" 
d="M532 254q72 0 138 -11.5t127.5 -38t107 -66t72.5 -100t27 -134.5q0 -76 -27 -136.5t-72 -101t-106.5 -67.5t-128.5 -38.5t-140 -11.5q-69 0 -133.5 11.5t-125 38.5t-105 67t-71.5 101.5t-27 136.5q0 209 229 289q-90 8 -147.5 48t-57.5 107q0 52 36 88.5t101 48.5
q-88 94 -88 240q0 165 108 258.5t279 93.5q174 0 283 -98q49 89 172 86v-111q-77 0 -117 -43q49 -81 49 -186q0 -166 -108 -260t-279 -94q-136 0 -231 59q-42 -6 -63 -27.5t-21 -52.5q0 -96 188 -96h131zM528 967q-126 0 -194 -66t-68 -176q0 -112 68 -178t194 -66t193 66
t67 178q0 110 -67 176t-193 66zM535 -340q148 0 237.5 60t89.5 184q0 121 -90 180t-237 59q-145 0 -234.5 -59t-89.5 -180q0 -124 89.5 -184t234.5 -60z" />
    <glyph glyph-name="l.ss04" horiz-adv-x="403" 
d="M358 -4q-124 -13 -181.5 28t-57.5 160v1260h145v-1260q0 -40 21.5 -59.5t72.5 -18.5v-110z" />
    <glyph glyph-name="f_t" horiz-adv-x="1284" 
d="M1098 106q52 0 116 17v-113q-71 -22 -161 -22q-97 0 -151 42.5t-54 149.5v766h-514v-946h-146v946h-147v119h147v121q0 69 16 120.5t41 81.5t62 48t72.5 24t79.5 6q91 0 155 -22v-111q-70 17 -129 17q-78 0 -114.5 -38t-36.5 -128v-119h514v266h145v-266h205v-119h-205
v-751q0 -45 23.5 -67t81.5 -22z" />
    <glyph glyph-name="r_t" horiz-adv-x="1290" 
d="M1106 106q53 0 117 17v-113q-71 -22 -162 -22q-97 0 -151 42.5t-54 149.5v766h-147q-202 0 -307 -82t-138 -237v-627h-145v1065h145v-268q27 114 137 189.5t291 78.5h164v266h145v-266h205v-119h-205v-751q0 -45 23.5 -67t81.5 -22z" />
    <glyph glyph-name="zero.dnom" horiz-adv-x="575" 
d="M289 -4q96 0 155.5 72t59.5 186v27q0 115 -59.5 186.5t-155.5 71.5q-98 0 -157.5 -71.5t-59.5 -186.5v-27q0 -115 59.5 -186.5t157.5 -71.5zM289 477q66 0 107.5 -52t41.5 -144v-27q0 -92 -41.5 -144.5t-107.5 -52.5t-109 53t-43 144v27q0 91 42.5 143.5t109.5 52.5z" />
    <glyph glyph-name="one.dnom" horiz-adv-x="346" 
d="M254 535v-535h-64v444q-28 -52 -108 -45v62q35 -1 66 21.5t42 52.5h64z" />
    <glyph glyph-name="two.dnom" horiz-adv-x="516" 
d="M82 0v18q0 75 34.5 131t116.5 109q73 44 90 63q27 28 27 70q0 40 -27.5 65t-72.5 25q-47 0 -73.5 -27t-26.5 -77v-12h-68v12q0 75 45 120.5t123 45.5t123 -43t45 -109q0 -59 -37.5 -98.5t-114.5 -85.5q-112 -66 -112 -139v-7h270v-61h-342z" />
    <glyph glyph-name="three.dnom" horiz-adv-x="546" 
d="M346 285q47 -9 83 -43.5t36 -94.5q0 -68 -49.5 -111.5t-141.5 -43.5q-91 0 -141.5 47.5t-50.5 126.5h65q3 -115 129 -115q56 0 90.5 25.5t34.5 77.5q0 50 -36 75t-101 25h-22v51h22q55 0 84 27t29 65q0 40 -27 63t-76 23q-112 0 -112 -108h-62q0 79 46 123.5t126 44.5
q79 0 123.5 -40.5t44.5 -101.5q0 -44 -26 -74.5t-68 -41.5z" />
    <glyph glyph-name="four.dnom" horiz-adv-x="534" 
d="M453 135h-62v-135h-65v135h-244v53l244 347h65v-347h62v-53zM326 188v261l-183 -261h183z" />
    <glyph glyph-name="five.dnom" horiz-adv-x="497" 
d="M264 356q72 0 122 -48t50 -132q0 -86 -51 -136t-139 -50q-85 0 -135 49t-50 125h62q2 -49 34 -82t89 -33q59 0 92 33.5t33 93.5q0 65 -36.5 96t-82.5 31q-71 0 -117 -55h-63l45 287h274v-60h-227l-27 -170q12 18 45.5 34.5t81.5 16.5z" />
    <glyph glyph-name="six.dnom" horiz-adv-x="546" 
d="M291 348q73 0 123.5 -42.5t50.5 -127.5q0 -94 -53.5 -141t-132.5 -47q-87 0 -142 64.5t-55 201.5q0 127 47.5 206t149.5 79q81 0 123.5 -44t46.5 -100h-58q-16 86 -112 86q-29 0 -51 -9.5t-36 -27.5t-23.5 -37.5t-14.5 -46t-6.5 -47t-2.5 -45.5q15 31 54.5 54.5
t91.5 23.5zM281 49q53 0 85.5 32.5t32.5 96.5q0 59 -33 89t-85 30q-53 0 -89 -32t-36 -85q0 -59 35 -95t90 -36z" />
    <glyph glyph-name="seven.dnom" horiz-adv-x="460" 
d="M399 535v-60l-215 -475h-63l217 475h-297v60h358z" />
    <glyph glyph-name="eight.dnom" horiz-adv-x="473" 
d="M328 291q94 -46 94 -137q0 -71 -52.5 -114.5t-133.5 -43.5q-78 0 -131.5 44t-53.5 114q0 93 96 137q-65 45 -65 112q0 56 41 96t113 40q74 0 114.5 -40t40.5 -96q0 -69 -63 -112zM139 403q0 -38 29.5 -64t67.5 -26q43 0 70.5 25t27.5 65q0 37 -23.5 59.5t-74.5 22.5
q-46 0 -71.5 -23.5t-25.5 -58.5zM236 49q58 0 91 27.5t33 79.5q0 51 -33.5 77.5t-90.5 26.5q-53 0 -89 -27t-36 -77q0 -49 36 -78t89 -29z" />
    <glyph glyph-name="nine.dnom" horiz-adv-x="546" 
d="M258 182q-73 0 -124.5 42.5t-51.5 127.5q0 94 53.5 141.5t132.5 47.5q87 0 142 -65t55 -202q0 -126 -47.5 -205t-149.5 -79q-80 0 -123 44t-47 99h60q5 -37 32 -61.5t78 -24.5q42 0 70 20t41 57t17.5 66t6.5 70q-17 -31 -55.5 -54.5t-89.5 -23.5zM266 481
q-53 0 -86 -32.5t-33 -96.5q0 -59 34 -89t87 -30t89 32t36 85q0 59 -35.5 95t-91.5 36z" />
    <glyph glyph-name="zero.numr" horiz-adv-x="575" 
d="M289 897q96 0 155.5 71.5t59.5 186.5v27q0 114 -59.5 186t-155.5 72q-98 0 -157.5 -71.5t-59.5 -186.5v-27q0 -115 59.5 -186.5t157.5 -71.5zM289 1378q66 0 107.5 -52t41.5 -144v-27q0 -92 -41.5 -144.5t-107.5 -52.5t-109 53t-43 144v27q0 91 42.5 143.5t109.5 52.5z
" />
    <glyph glyph-name="one.numr" horiz-adv-x="356" 
d="M254 1436v-535h-64v445q-29 -52 -108 -46v62q35 -1 66 21.5t42 52.5h64z" />
    <glyph glyph-name="two.numr" horiz-adv-x="516" 
d="M82 901v19q0 75 34.5 130.5t116.5 108.5q73 44 90 63q27 28 27 70q0 40 -27.5 65t-72.5 25q-47 0 -73.5 -27t-26.5 -77v-12h-68v12q0 75 45 120.5t123 45.5t123 -43t45 -109q0 -59 -37.5 -98.5t-114.5 -85.5q-112 -66 -112 -139v-6h270v-62h-342z" />
    <glyph glyph-name="three.numr" horiz-adv-x="577" 
d="M350 1186q48 -9 83.5 -43t35.5 -94q0 -68 -49.5 -112t-140.5 -44t-142 47.5t-51 126.5h66q3 -115 129 -115q56 0 90.5 25.5t34.5 77.5q0 50 -36.5 75t-101.5 25h-22v51h22q55 0 84 27t29 65q0 40 -26.5 63t-75.5 23q-113 0 -113 -108h-62q0 79 46 123.5t126 44.5
q79 0 123.5 -40t44.5 -101q0 -44 -26.5 -75t-67.5 -42z" />
    <glyph glyph-name="four.numr" horiz-adv-x="534" 
d="M453 1036h-62v-135h-65v135h-244v54l244 346h65v-346h62v-54zM326 1090v260l-183 -260h183z" />
    <glyph glyph-name="five.numr" horiz-adv-x="497" 
d="M264 1257q72 0 122 -48t50 -132q0 -86 -51 -136t-139 -50q-85 0 -135 49t-50 125h62q2 -49 34 -82t89 -33q59 0 92 33.5t33 93.5q0 65 -36.5 96t-82.5 31q-71 0 -117 -55h-63l45 287h274v-60h-227l-27 -170q12 18 45.5 34.5t81.5 16.5z" />
    <glyph glyph-name="six.numr" horiz-adv-x="546" 
d="M291 1247q73 0 123.5 -42.5t50.5 -127.5q0 -94 -53.5 -141t-132.5 -47q-87 0 -142 64.5t-55 201.5q0 127 47.5 206t149.5 79q81 0 123.5 -44t46.5 -100h-58q-16 86 -112 86q-29 0 -51 -9.5t-36 -27.5t-23.5 -37.5t-14.5 -46t-6.5 -47t-2.5 -45.5q15 31 54.5 54.5
t91.5 23.5zM281 948q53 0 85.5 32.5t32.5 96.5q0 59 -33 89t-85 30q-53 0 -89 -32t-36 -85q0 -59 35 -95t90 -36z" />
    <glyph glyph-name="seven.numr" horiz-adv-x="460" 
d="M399 1436v-60l-215 -475h-63l217 475h-297v60h358z" />
    <glyph glyph-name="eight.numr" horiz-adv-x="473" 
d="M328 1192q94 -46 94 -137q0 -71 -52.5 -114.5t-133.5 -43.5q-78 0 -131.5 44t-53.5 114q0 93 96 137q-65 45 -65 113q0 56 41 95.5t113 39.5q74 0 114.5 -39.5t40.5 -95.5q0 -70 -63 -113zM139 1305q0 -39 29.5 -65t67.5 -26q43 0 70.5 25.5t27.5 65.5q0 81 -98 81
q-46 0 -71.5 -23t-25.5 -58zM236 950q58 0 91 27.5t33 79.5q0 51 -33.5 77.5t-90.5 26.5q-53 0 -89 -27t-36 -77q0 -49 36 -78t89 -29z" />
    <glyph glyph-name="nine.numr" horiz-adv-x="546" 
d="M258 1083q-73 0 -124.5 42.5t-51.5 127.5q0 94 53.5 141.5t132.5 47.5q87 0 142 -64.5t55 -201.5q0 -127 -47.5 -206t-149.5 -79q-80 0 -123 44t-47 99h60q5 -37 32 -61.5t78 -24.5q42 0 70 20t41 57t17.5 66t6.5 70q-17 -31 -55.5 -54.5t-89.5 -23.5zM266 1382
q-53 0 -86 -32.5t-33 -96.5q0 -58 34 -88t87 -30t89 32t36 84q0 59 -35.5 95t-91.5 36z" />
    <glyph glyph-name="ampersand.001" horiz-adv-x="1382" 
d="M1315 0h-166l-141 158q-89 -93 -200.5 -138t-229.5 -45q-220 0 -355 115.5t-135 286.5q0 73 22.5 133.5t71 111.5t104 91t140.5 90q-87 98 -136.5 182t-49.5 174q0 133 88 218t254 85q157 0 244 -85t87 -214q0 -116 -63.5 -199t-235.5 -184l375 -418q86 156 92 373h136
q-17 -290 -134 -477zM582 1350q-101 0 -160.5 -53t-59.5 -144q0 -47 28 -101t58.5 -90t88.5 -98q135 77 194.5 142t59.5 149q0 89 -57 142t-152 53zM580 104q196 0 338 154l-414 461q-262 -150 -262 -338q0 -121 94 -199t244 -78z" />
    <glyph glyph-name="Aacutecy" horiz-adv-x="1392" 
d="M934 1821l-215 -262h-127l182 262h160zM1171 0l-147 381h-655l-148 -381h-164l574 1434h131l573 -1434h-164zM414 498h565l-283 735z" />
    <glyph glyph-name="Ieacutecy" horiz-adv-x="1120" 
d="M807 1821l-215 -262h-127l182 262h160zM270 135h789v-135h-940v1434h919v-136h-768v-497h666v-125h-666v-541z" />
    <glyph glyph-name="Iiacutecy" horiz-adv-x="1347" 
d="M569 1559h127l215 262h-159zM121 1434h151v-1205h4l783 1205h170v-1434h-152v1200h-6l-778 -1200h-172v1434z" />
    <glyph glyph-name="Oacutecy" horiz-adv-x="1458" 
d="M625 1559h127l215 262h-160zM729 1452q141 0 257.5 -47t202 -137.5t132.5 -231t47 -319.5q0 -178 -47 -318.5t-132.5 -231.5t-202 -138t-257.5 -47t-258 47t-202.5 138t-133 231.5t-47.5 318.5q0 179 47.5 319.5t133.5 231t202.5 137.5t257.5 47zM729 117
q223 0 353 151.5t130 448.5t-130 448.5t-353 151.5q-224 0 -353.5 -151.5t-129.5 -448.5t129.5 -448.5t353.5 -151.5z" />
    <glyph glyph-name="Uacutecy" horiz-adv-x="1144" 
d="M469 1559h127l215 262h-160zM924 1434h163l-481 -1153q-73 -176 -171 -245t-242 -50v137q107 -13 169 29t101 137q20 51 21.5 88t-15.5 78l-412 979h164l350 -869z" />
    <glyph glyph-name="Yeruacutecy" horiz-adv-x="1560" 
d="M1018 1821l-215 -262h-127l182 262h160zM627 907q248 0 378 -118.5t130 -333.5q0 -216 -130 -335.5t-378 -119.5h-508v1434h151v-527h357zM1288 1434h152v-1434h-152v1434zM631 135q168 0 256 82t88 238q0 154 -88.5 235.5t-255.5 81.5h-361v-637h361z" />
    <glyph glyph-name="Ereversedacutecy" horiz-adv-x="1353" 
d="M915 1821l-215 -262h-127l183 262h159zM637 1452q137 0 250.5 -46t198.5 -135.5t132.5 -231t47.5 -322.5t-47.5 -322.5t-132.5 -231t-198.5 -135.5t-250.5 -46q-212 0 -359.5 97t-189.5 273h154q44 -112 142 -173.5t251 -61.5q206 0 334.5 142.5t138.5 416.5h-524v125
h522q-20 253 -147 384.5t-324 131.5q-151 0 -247.5 -61.5t-139.5 -172.5h-154q41 175 187 272t356 97z" />
    <glyph glyph-name="Iuacutecy" horiz-adv-x="1865" 
d="M1171 1821l-215 -262h-127l183 262h159zM1139 1452q141 0 257.5 -47t202 -137.5t132.5 -231t47 -319.5q0 -178 -47 -318.5t-132.5 -231.5t-202 -138t-257.5 -47q-178 0 -315.5 72.5t-223.5 222t-100 360.5h-230v-637h-151v1434h151v-670h228q7 168 57 299.5t135.5 216
t199 128.5t249.5 44zM1139 117q223 0 353 151.5t130 448.5t-130 448.5t-353 151.5q-224 0 -354 -151.5t-130 -448.5t130 -448.5t354 -151.5z" />
    <glyph glyph-name="Iaacutecy" horiz-adv-x="1263" 
d="M870 1821l-215 -262h-127l183 262h159zM1145 1434v-1434h-152v594h-469q-264 0 -264 -238v-116q0 -188 -41 -240h-151q41 52 41 240v118q0 130 54.5 203t176.5 105q-112 48 -173 140t-61 222q0 191 122 298.5t362 107.5h555zM993 719v581h-401q-332 0 -332 -286
q0 -140 81.5 -217.5t219.5 -77.5h432z" />
    <glyph glyph-name="aacutecy" horiz-adv-x="1087" 
d="M778 1452l-215 -262h-127l182 262h160zM961 170q0 -42 17.5 -59.5t61.5 -16.5v-92q-25 -10 -61 -10q-76 0 -114 34t-38 115v84q-11 -23 -29 -49t-54 -61t-79.5 -62.5t-110 -47t-140.5 -19.5q-155 0 -250.5 82t-95.5 233q0 135 90 209t282 102q14 2 65.5 10t74 11.5
t66.5 11.5t68.5 14.5t53.5 15.5t47 19v17q0 138 -65 195t-205 57q-245 0 -271 -164h-139q17 136 123.5 206t288.5 70q213 0 313.5 -92t100.5 -307v-506zM815 340v258q-27 -15 -90 -31t-116 -25t-150 -24q-136 -23 -191 -73t-55 -140q0 -96 61.5 -152.5t169.5 -56.5
q65 0 124.5 20.5t98.5 48.5t72 65t49 62.5t27 47.5z" />
    <glyph glyph-name="ieacutecy" horiz-adv-x="1097" 
d="M793 1452l-215 -262h-127l182 262h160zM1030 528q0 -33 -2 -51h-817q12 -191 106.5 -284t253.5 -93q102 0 168.5 29t116.5 100h137q-65 -128 -169 -185.5t-261 -57.5q-102 0 -190 34t-157 99t-108.5 171t-39.5 240q0 135 41 241.5t110.5 171.5t156 98.5t183.5 33.5
q98 0 182 -33.5t149 -99t102.5 -171.5t37.5 -243zM211 580h680q-3 184 -93 282.5t-239 98.5q-145 0 -240.5 -97t-107.5 -284z" />
    <glyph glyph-name="iiacutecy" horiz-adv-x="1179" 
d="M485 1190h127l215 262h-159zM119 1065h145v-875h6l629 875h162v-1065h-146v870h-4l-624 -870h-168v1065z" />
    <glyph glyph-name="oacutecy" horiz-adv-x="1116" 
d="M455 1190h127l215 262h-160zM559 1075q90 0 175.5 -33.5t156.5 -98t114.5 -171t43.5 -240.5q0 -109 -28.5 -201t-76.5 -154.5t-112 -106.5t-132.5 -64t-140.5 -20t-141.5 20t-133 64t-111.5 106.5t-76.5 154.5t-28.5 201q0 134 43 240.5t114.5 171t157 98t176.5 33.5z
M907 532q0 105 -29 187t-78.5 132t-110.5 75.5t-130 25.5t-130.5 -25.5t-111 -75.5t-79 -132t-29.5 -187q0 -106 29.5 -189t79 -133t111 -75.5t130.5 -25.5t130 25.5t110.5 75.5t78.5 133t29 189z" />
    <glyph glyph-name="uacutecy" horiz-adv-x="1083" 
d="M438 1190h127l215 262h-159zM887 1065h149l-461 -1153q-71 -176 -169.5 -245t-243.5 -50v127q108 -14 175.5 31.5t106.5 144.5q19 47 21.5 69t-8.5 54l-410 1022h152l342 -903z" />
    <glyph glyph-name="yeruacutecy" horiz-adv-x="1402" 
d="M940 1452l-215 -262h-127l182 262h160zM578 674q205 0 316.5 -89t111.5 -249t-111.5 -248t-316.5 -88h-459v1065h145v-391h314zM1139 1065h145v-1065h-145v1065zM580 119q282 0 282 217q0 219 -282 219h-316v-436h316z" />
    <glyph glyph-name="ereversedacutecy" horiz-adv-x="1071" 
d="M772 1452l-215 -262h-127l182 262h160zM510 1075q75 0 145.5 -20t134.5 -63t111 -106t75 -154.5t28 -201.5q0 -137 -42.5 -244t-114 -171t-158 -96.5t-181.5 -32.5q-77 0 -143.5 17t-126 54t-103.5 102t-67 154h135q37 -105 111.5 -156t193.5 -51q144 0 244.5 101
t109.5 293h-379v96h377q-18 174 -116 266t-234 92q-225 0 -299 -200h-135q45 168 160 244.5t274 76.5z" />
    <glyph glyph-name="iuacutecy" horiz-adv-x="1464" 
d="M969 1452l-215 -262h-127l182 262h160zM907 1075q90 0 175.5 -33.5t156.5 -98t114.5 -171t43.5 -240.5q0 -109 -28.5 -201t-76.5 -154.5t-112 -106.5t-132.5 -64t-140.5 -20q-86 0 -167 29.5t-150.5 87t-115.5 152.5t-56 216h-154v-473h-145v1065h145v-473h154
q9 120 55 215t115.5 152.5t151 87.5t167.5 30zM907 109q69 0 130 25.5t110.5 75.5t78.5 133t29 189q0 105 -29 187t-78.5 132t-110.5 75.5t-130 25.5t-130.5 -25.5t-111 -75.5t-79 -132t-29.5 -187q0 -106 29.5 -189t79 -133t111 -75.5t130.5 -25.5z" />
    <glyph glyph-name="iaacutecy" horiz-adv-x="1083" 
d="M780 1452l-215 -262h-127l183 262h159zM965 1065v-1065h-146v391h-403q-97 0 -137.5 -32.5t-40.5 -106.5v-94q0 -70 -7.5 -103t-23.5 -55h-146q16 22 23.5 55t7.5 103v94q0 78 31 127t108 72q-153 87 -153 278q0 160 111.5 248t316.5 88h459zM819 510v436h-315
q-283 0 -283 -217q0 -219 283 -219h315z" />
    </font>
</defs>
</svg>
