<?xml version="1.0" standalone="no"?>
<!DOCTYPE svg PUBLIC "-//W3C//DTD SVG 1.1//EN" "http://www.w3.org/Graphics/SVG/1.1/DTD/svg11.dtd" >
<svg xmlns="http://www.w3.org/2000/svg" xmlns:xlink="http://www.w3.org/1999/xlink" version="1.1">
<metadata>
Created by FontForge 20170731 at Mon Aug  7 16:11:17 2023
 By Aleksey,,,
(c) 2017 Connary Fagen
</metadata>
<defs>
<font id="ArticulatCF-NormalOblique" horiz-adv-x="1136" >
  <font-face 
    font-family="Articulat CF Normal"
    font-weight="400"
    font-style="oblique"
    font-stretch="normal"
    units-per-em="2048"
    panose-1="0 0 5 0 0 0 0 0 0 0"
    ascent="1638"
    descent="-410"
    x-height="1065"
    cap-height="1434"
    bbox="-442 -604 2255 1901"
    underline-thickness="102"
    underline-position="-307"
    slope="-9"
    unicode-range="U+0020-FB02"
  />
<missing-glyph horiz-adv-x="1044" 
d="M856 1638v-2089h-661v2089h661zM696 1499h-346v-69h137v-78h-139v-68h348v68h-139v78h139v69zM557 1229h-209v-217h348v71h-139v146zM487 1157v-74h-69v74h69zM696 954h-348v-67h139v-78h-139v-70h209v148h139v67zM696 829h-69v-137h-279v-71h348v208zM696 575h-209v-116
h70v47h70v-98h-209v167h-70v-235h348v235zM696 213h-348v-236h348v236zM627 145v-98h-209v98h209zM696 -70h-348v-69h148l-148 -99v-69h348v69h-213l146 99h67v69z" />
    <glyph glyph-name="fi" unicode="fi" horiz-adv-x="1040" 
d="M408 1184l-19 -119h268l-18 -119h-268l-150 -946h-145l149 946h-157l16 119h160l18 121q13 85 45 143.5t78 86.5t91.5 39t103.5 11q74 0 151 -18l-18 -113q-69 15 -127 15q-80 0 -122.5 -38t-55.5 -128zM920 1452h143l-21 -143h-145zM692 0l168 1065h144l-168 -1065h-144
z" />
    <glyph glyph-name="fl" unicode="fl" horiz-adv-x="1062" 
d="M408 1184l-19 -119h268l-18 -119h-268l-150 -946h-145l149 946h-157l16 119h160l18 121q13 85 45 143.5t78 86.5t91.5 39t103.5 11q74 0 151 -18l-18 -113q-69 15 -127 15q-80 0 -122.5 -38t-55.5 -128zM938 1434h143l-225 -1434h-143z" />
    <glyph glyph-name=".notdef" horiz-adv-x="1044" 
d="M856 1638v-2089h-661v2089h661zM696 1499h-346v-69h137v-78h-139v-68h348v68h-139v78h139v69zM557 1229h-209v-217h348v71h-139v146zM487 1157v-74h-69v74h69zM696 954h-348v-67h139v-78h-139v-70h209v148h139v67zM696 829h-69v-137h-279v-71h348v208zM696 575h-209v-116
h70v47h70v-98h-209v167h-70v-235h348v235zM696 213h-348v-236h348v236zM627 145v-98h-209v98h209zM696 -70h-348v-69h148l-148 -99v-69h348v69h-213l146 99h67v69z" />
    <glyph glyph-name=".null" horiz-adv-x="0" 
 />
    <glyph glyph-name="nonmarkingreturn" horiz-adv-x="682" 
 />
    <glyph glyph-name="space" unicode=" " horiz-adv-x="559" 
 />
    <glyph glyph-name="exclam" unicode="!" horiz-adv-x="419" 
d="M240 391h-148l158 1043h160zM49 193h172l-28 -193h-173z" />
    <glyph glyph-name="quotedbl" unicode="&#x22;" horiz-adv-x="598" 
d="M166 1049h145l60 385h-146zM453 1049h145l59 385h-145z" />
    <glyph glyph-name="numbersign" unicode="#" horiz-adv-x="1187" 
d="M1147 920h-225l-103 -406h211l-18 -117h-224l-102 -397h-113l103 397h-314l-102 -397h-115l103 397h-209l20 117h220l102 406h-207l21 116h217l102 398h115l-103 -398h314l102 398h113l-103 -398h213zM707 514l102 406h-313l-103 -406h314z" />
    <glyph glyph-name="dollar" unicode="$" horiz-adv-x="1228" 
d="M1020 1079q-3 99 -65 165t-193 77l-84 -524l70 -15q186 -39 277 -118t91 -230q0 -138 -73 -240t-200.5 -155.5t-293.5 -56.5l-27 -166h-90l27 168q-211 18 -314 133.5t-94 292.5h158q4 -268 270 -293l92 569l-63 14q-324 71 -324 328q0 184 132 300.5t376 123.5l27 166
h90l-27 -168q195 -13 296 -112.5t96 -258.5h-154zM559 823l33 -6l80 506q-160 -9 -245 -86.5t-85 -192.5q0 -89 51 -143t166 -78zM711 655l-54 13l-88 -555q175 6 280 89t105 220q0 55 -18 95.5t-53 67t-75 42t-97 28.5z" />
    <glyph glyph-name="percent" unicode="%" horiz-adv-x="1460" 
d="M377 825q-103 0 -163 64t-60 180q0 101 36 185.5t106.5 137t162.5 52.5q100 0 161.5 -65.5t61.5 -180.5q0 -153 -85 -263t-220 -110zM145 0l1069 1436l117 -2l-1069 -1434h-117zM383 926q93 0 147 78.5t54 185.5q0 75 -35.5 114t-97.5 39q-64 0 -110.5 -41t-67.5 -100
t-21 -127q0 -73 35 -111t96 -38zM1016 -10q-102 0 -162.5 65t-60.5 181q0 154 84.5 263t220.5 109q102 0 163.5 -65t61.5 -181q0 -153 -85 -262.5t-222 -109.5zM1022 90q94 0 148.5 79t54.5 187q0 73 -36.5 112.5t-98.5 39.5q-63 0 -110 -41t-68 -100t-21 -125
q0 -73 35.5 -112.5t95.5 -39.5z" />
    <glyph glyph-name="ampersand" unicode="&#x26;" horiz-adv-x="1363" 
d="M1219 739q-58 -298 -209 -489l188 -250h-160l-116 158q-101 -93 -220 -138t-237 -45q-201 0 -316.5 101t-115.5 260q0 69 21.5 129.5t54.5 104.5t90 89t108.5 76.5t130.5 73.5q-63 85 -99 160t-36 155q0 148 106 243t279 95q143 0 222 -73t79 -189q0 -58 -18 -109.5
t-47.5 -91.5t-79.5 -81.5t-100.5 -73.5t-125.5 -74l314 -416q118 164 153 385h134zM676 1346q-108 0 -179 -62t-71 -158q0 -61 31 -121.5t90 -140.5q63 34 100.5 56.5t84.5 56.5t72.5 63.5t43.5 69t18 82.5q0 73 -50 113.5t-140 40.5zM477 102q94 0 190.5 40.5t178.5 117.5
l-336 455q-77 -42 -130 -77.5t-100.5 -80.5t-70.5 -97.5t-23 -113.5q0 -111 78 -177.5t213 -66.5z" />
    <glyph glyph-name="quotesingle" unicode="'" horiz-adv-x="311" 
d="M166 1049h145l60 385h-146z" />
    <glyph glyph-name="parenleft" unicode="(" horiz-adv-x="516" 
d="M434 1526h137q-270 -391 -346 -879q-84 -519 60 -913h-131q-156 398 -72 930q81 511 352 862z" />
    <glyph glyph-name="parenright" unicode=")" horiz-adv-x="518" 
d="M352 1526q161 -371 82 -879q-87 -539 -360 -913h-140q275 411 357 930q78 492 -68 862h129z" />
    <glyph glyph-name="asterisk" unicode="*" horiz-adv-x="946" 
d="M862 1161l-237 -61l116 -195l-112 -69l-107 192l-162 -192l-96 69l176 197l-217 59l49 123l224 -72l30 242h123l-39 -242l240 72zM582 1124l-7 45h-61l-20 -51l36 -35z" />
    <glyph glyph-name="plus" unicode="+" horiz-adv-x="978" 
d="M936 643l-21 -131h-362l-57 -360h-138l58 360h-357l19 131h358l58 361h137l-58 -361h363z" />
    <glyph glyph-name="comma" unicode="," horiz-adv-x="364" 
d="M-27 -291l9 51q45 22 68 62.5t34 116.5l8 61h-74l31 190h178l-39 -251q-36 -222 -215 -230z" />
    <glyph glyph-name="hyphen" unicode="-" horiz-adv-x="874" 
d="M78 627h690l-16 -107h-691z" />
    <glyph glyph-name="period" unicode="." horiz-adv-x="358" 
d="M49 193h172l-28 -193h-173z" />
    <glyph glyph-name="slash" unicode="/" horiz-adv-x="851" 
d="M893 1434l-780 -1434h-146l781 1434h145z" />
    <glyph glyph-name="zero" unicode="0" horiz-adv-x="1269" 
d="M752 1448q210 0 335 -140t125 -401q0 -139 -28 -272t-85.5 -250.5t-137 -206.5t-190 -140.5t-236.5 -51.5q-210 0 -335.5 139t-125.5 399q0 139 28.5 273t86 251.5t137 207t190 141t236.5 51.5zM1067 905q0 200 -85 308t-239 108q-100 0 -187 -46t-148 -124t-105 -180
t-65 -215t-21 -228q0 -201 84.5 -307t239.5 -106q101 0 188 46t148 123t104.5 179t64.5 214.5t21 227.5z" />
    <glyph glyph-name="one" unicode="1" horiz-adv-x="595" 
d="M604 1434l-225 -1434h-146l197 1227q-47 -47 -118.5 -80t-155.5 -33l16 125q94 6 174.5 63t114.5 132h143z" />
    <glyph glyph-name="two" unicode="2" horiz-adv-x="1093" 
d="M-12 0l8 53q28 196 142 334.5t362 274.5q175 97 234 139q149 106 177 232q7 33 7 69q0 101 -73 160t-192 59q-140 0 -238 -81.5t-122 -233.5h-141q33 205 167.5 323.5t344.5 118.5q190 0 294.5 -94.5t104.5 -247.5q0 -66 -16.5 -123t-51.5 -106t-73 -87.5t-99 -80
t-108.5 -70t-121.5 -70.5q-7 -4 -11 -6q-97 -55 -162 -98.5t-124.5 -97t-91 -111.5t-38.5 -123l-2 -12h762l-19 -121h-919z" />
    <glyph glyph-name="three" unicode="3" horiz-adv-x="1169" 
d="M803 774q52 -9 98.5 -32.5t85 -60.5t61.5 -93.5t23 -124.5q0 -144 -77.5 -256.5t-208 -172t-289.5 -59.5q-234 0 -353 131.5t-84 350.5h136q-25 -163 57.5 -258t249.5 -95q181 0 304.5 100.5t123.5 262.5q0 119 -92 183.5t-263 64.5h-51l17 104h43q172 0 274.5 87
t102.5 214q0 94 -72.5 149.5t-192.5 55.5q-142 0 -241.5 -85t-124.5 -253h-137q33 227 169.5 346t342.5 119q185 0 290 -90.5t105 -228.5q0 -126 -77.5 -223t-219.5 -136z" />
    <glyph glyph-name="four" unicode="4" horiz-adv-x="1134" 
d="M1010 387h-164l-62 -387h-145l61 387h-669l16 121l815 926h148l-146 -926h164zM719 508l121 743l-656 -743h535z" />
    <glyph glyph-name="five" unicode="5" horiz-adv-x="1181" 
d="M664 973q179 0 292 -109t113 -297q0 -257 -160.5 -422t-416.5 -165q-142 0 -248.5 57.5t-155.5 160.5t-27 232h132q-19 -147 66 -234t239 -87q189 0 308.5 130t119.5 322q0 136 -83.5 211.5t-207.5 75.5q-198 0 -352 -154h-142l228 740h723l-19 -123h-622l-152 -492
q61 67 157.5 110.5t207.5 43.5z" />
    <glyph glyph-name="six" unicode="6" horiz-adv-x="1200" 
d="M684 952q175 0 289 -104t114 -287q0 -162 -72.5 -294.5t-203 -209.5t-293.5 -77q-109 0 -190.5 36t-129.5 100t-74.5 153.5t-25.5 197t17 229.5q19 121 49.5 225t82 203.5t119 169t164.5 112t213 42.5q103 0 182 -31.5t123.5 -83t65.5 -113t16 -126.5h-126
q5 105 -65.5 173t-199.5 68q-94 0 -171.5 -37.5t-129.5 -98t-91 -146t-61 -170.5t-36 -183q57 119 170.5 185.5t263.5 66.5zM524 104q188 0 305 130.5t117 322.5q0 133 -79 210t-214 77q-175 0 -294 -125.5t-119 -300.5q0 -141 75 -227.5t209 -86.5z" />
    <glyph glyph-name="seven" unicode="7" horiz-adv-x="993" 
d="M1030 1434l-16 -127q-514 -643 -717 -1307h-147q217 699 722 1311h-706l18 123h846z" />
    <glyph glyph-name="eight" unicode="8" horiz-adv-x="1175" 
d="M819 799q111 -43 175.5 -125t64.5 -199q0 -143 -77.5 -257t-208 -176t-286.5 -62q-199 0 -323.5 99.5t-124.5 272.5q0 160 94 277.5t260 175.5q-73 38 -116.5 104t-43.5 148q0 166 130.5 278.5t336.5 112.5q178 0 276.5 -84.5t98.5 -214.5q0 -115 -68.5 -207.5
t-187.5 -142.5zM696 1329q-150 0 -240.5 -77.5t-90.5 -198.5q0 -92 65 -151.5t180 -59.5q142 0 237 85.5t95 209.5q0 85 -64 138.5t-182 53.5zM492 109q177 0 298 106.5t121 269.5q0 117 -85 186.5t-222 69.5q-181 0 -299.5 -105t-118.5 -269q0 -117 84 -187.5t222 -70.5z
" />
    <glyph glyph-name="nine" unicode="9" horiz-adv-x="1200" 
d="M553 475q-175 0 -289 104t-114 287q0 162 72.5 295t203 210t293.5 77q109 0 190.5 -36t129.5 -100.5t74.5 -154t25.5 -197t-17 -229.5q-19 -121 -49.5 -225t-82 -203t-119 -169t-164.5 -112t-213 -42q-103 0 -182 31.5t-124 83t-66 113t-16 126.5h127
q-5 -105 65.5 -173.5t199.5 -68.5q94 0 171.5 37.5t129.5 98t91 146t61 170.5t36 183q-57 -119 -170.5 -185.5t-263.5 -66.5zM713 1323q-188 0 -305 -130.5t-117 -322.5q0 -133 79 -209.5t214 -76.5q175 0 294 125.5t119 300.5q0 141 -75 227t-209 86z" />
    <glyph glyph-name="colon" unicode=":" horiz-adv-x="358" 
d="M188 1065h172l-30 -193h-172zM49 193h172l-28 -193h-173z" />
    <glyph glyph-name="semicolon" unicode=";" horiz-adv-x="364" 
d="M188 1065h172l-30 -193h-172zM-27 -291l9 51q45 22 68 62.5t34 116.5l8 61h-74l31 190h178l-39 -251q-36 -222 -215 -230z" />
    <glyph glyph-name="less" unicode="&#x3c;" horiz-adv-x="1019" 
d="M856 143l-670 349l781 350l22 143l-921 -422l-23 -141l789 -422z" />
    <glyph glyph-name="equal" unicode="=" horiz-adv-x="870" 
d="M104 791h746l-16 -107h-746zM51 463h746l-17 -107h-745z" />
    <glyph glyph-name="greater" unicode="&#x3e;" horiz-adv-x="1017" 
d="M0 143l-23 -143l920 422l23 141l-787 422l-22 -143l671 -350z" />
    <glyph glyph-name="question" unicode="?" horiz-adv-x="1067" 
d="M657 1448q-219 0 -353.5 -117t-168.5 -338h141q28 163 123 245.5t234 82.5q140 0 205 -69.5t45 -198.5q-9 -50 -36 -91t-64 -71.5t-80.5 -60t-87.5 -63.5t-82.5 -74t-68.5 -99.5t-42 -132.5l-12 -70h153l12 70q10 62 37.5 112.5t64.5 85t80 66t86.5 64t81 69t66 90.5
t39.5 121q28 179 -76.5 279t-296.5 100zM379 193h172l-29 -193h-172z" />
    <glyph glyph-name="at" unicode="@" horiz-adv-x="1562" 
d="M1180 166q-211 -180 -488 -180q-170 0 -308 72t-221 213t-83 327q0 171 65 328.5t175 271.5t261.5 182t317.5 68q125 0 235 -43.5t191.5 -121t128.5 -193t47 -252.5q0 -126 -35.5 -239t-110.5 -189t-175 -76q-97 0 -147 63t-40 146q-43 -100 -124 -155.5t-169 -55.5
q-53 0 -101 18t-87 53.5t-62.5 94t-23.5 133.5q0 119 48.5 220t135.5 161.5t193 60.5q93 0 159 -60.5t56 -146.5l31 189h100q-12 -79 -23.5 -154t-18.5 -118.5t-13.5 -84t-9.5 -60.5t-5.5 -37.5t-3 -25.5t-0.5 -14q0 -127 105 -127q71 0 122.5 66t74 156t22.5 186
q0 229 -141 365t-359 136q-199 0 -364.5 -102t-259 -273t-93.5 -370q0 -118 40.5 -215.5t110.5 -160.5t162 -97.5t195 -34.5q209 0 373 119zM709 434q79 0 144 49.5t99.5 127t34.5 163.5q0 93 -51 145t-131 52q-120 0 -197.5 -98.5t-77.5 -231.5q0 -99 52.5 -153t126.5 -54z
" />
    <glyph glyph-name="A" unicode="A" horiz-adv-x="1378" 
d="M1071 0l-86 381h-655l-207 -381h-166l797 1434h135l344 -1434h-162zM393 498h565l-165 735z" />
    <glyph glyph-name="B" unicode="B" horiz-adv-x="1253" 
d="M877 782q126 -32 193 -113.5t67 -201.5q0 -226 -157 -346.5t-421 -120.5h-541l228 1434h526q192 0 287.5 -78t95.5 -213q0 -131 -73.5 -227t-204.5 -134zM764 1305h-387l-74 -471h387q136 0 222.5 82.5t86.5 209.5q0 81 -57 130t-178 49zM575 131q186 0 295 89.5
t109 250.5q0 110 -79 175t-236 65h-381l-93 -580h385z" />
    <glyph glyph-name="C" unicode="C" horiz-adv-x="1316" 
d="M623 117q153 0 261.5 61.5t168.5 173.5h153q-70 -176 -232 -273t-374 -97q-242 0 -384 141t-142 414q0 181 52 345.5t146.5 291.5t241 202.5t322.5 75.5q210 0 340 -97t143 -272h-152q-22 111 -110.5 172.5t-241.5 61.5q-136 0 -249 -66.5t-184 -176t-110 -245.5
t-39 -280q0 -215 104.5 -323.5t285.5 -108.5z" />
    <glyph glyph-name="D" unicode="D" horiz-adv-x="1306" 
d="M670 1434q289 0 437 -143t148 -410q0 -195 -54 -357t-154.5 -278.5t-252.5 -181t-341 -64.5h-433l226 1434h424zM451 139q161 0 286.5 55t205.5 155t121.5 235.5t41.5 300.5q0 209 -114.5 309t-346.5 100h-270l-180 -1155h256z" />
    <glyph glyph-name="E" unicode="E" horiz-adv-x="1116" 
d="M1145 1298h-768l-80 -497h666l-21 -125h-666l-86 -541h791l-23 -135h-940l228 1434h919z" />
    <glyph glyph-name="F" unicode="F" horiz-adv-x="1101" 
d="M1151 1298h-774l-84 -520h641l-21 -125h-639l-104 -653h-152l228 1434h928z" />
    <glyph glyph-name="G" unicode="G" horiz-adv-x="1359" 
d="M793 727h516l-13 -80q-54 -330 -227.5 -497.5t-464.5 -167.5q-244 0 -387 140t-143 410q0 146 32 282t96 251.5t154 202t213.5 135.5t266.5 49q210 0 340 -97t143 -272h-152q-22 111 -110.5 172.5t-241.5 61.5q-112 0 -207.5 -43t-163.5 -117t-116 -172.5t-71.5 -209.5
t-23.5 -228q0 -214 104.5 -322t287.5 -108q217 0 351 124t175 363h-377z" />
    <glyph glyph-name="H" unicode="H" horiz-adv-x="1318" 
d="M1178 1434h151l-227 -1434h-152l101 637h-781l-100 -637h-152l228 1434h151l-106 -670h780z" />
    <glyph glyph-name="I" unicode="I" horiz-adv-x="389" 
d="M172 0h-152l226 1434h151z" />
    <glyph glyph-name="J" unicode="J" horiz-adv-x="1024" 
d="M72 260q89 -137 293 -137q64 0 119.5 18.5t107 59t88.5 116t53 179.5l150 938h151l-149 -942q-17 -110 -55 -197t-88 -144.5t-114.5 -95t-133 -53.5t-144.5 -16q-267 0 -379 180z" />
    <glyph glyph-name="K" unicode="K" horiz-adv-x="1288" 
d="M1325 1434l-713 -666l541 -768h-174l-475 668l-268 -250l-66 -418h-152l228 1434h151l-127 -807l871 807h184z" />
    <glyph glyph-name="L" unicode="L" horiz-adv-x="1110" 
d="M193 135h743l-23 -135h-895l228 1434h151z" />
    <glyph glyph-name="M" unicode="M" horiz-adv-x="1689" 
d="M246 1434h166l364 -1244l744 1244h180l-227 -1434h-152l182 1145h-6l-678 -1145h-129l-332 1145h-6l-182 -1145h-152z" />
    <glyph glyph-name="N" unicode="N" horiz-adv-x="1343" 
d="M1354 1434l-228 -1434h-165l-596 1200h-5l-190 -1200h-152l228 1434h162l600 -1205h4l190 1205h152z" />
    <glyph glyph-name="O" unicode="O" horiz-adv-x="1439" 
d="M846 1452q247 0 392.5 -143t145.5 -408q0 -185 -53.5 -351t-150.5 -292.5t-244.5 -201t-325.5 -74.5q-247 0 -391.5 142.5t-144.5 405.5q0 148 33 285t98.5 253t157 201.5t216 134t267.5 48.5zM629 117q114 0 212 43t168 117t120 172.5t74 210t24 229.5
q0 209 -106.5 318.5t-293.5 109.5q-114 0 -211.5 -43t-167.5 -117.5t-119.5 -173.5t-73.5 -211.5t-24 -230.5q0 -208 105.5 -316t292.5 -108z" />
    <glyph glyph-name="P" unicode="P" horiz-adv-x="1220" 
d="M754 1434q217 0 329.5 -95t112.5 -272q0 -255 -159 -402t-429 -147h-356l-82 -518h-152l228 1434h508zM631 653q191 0 297 106t106 290q0 249 -299 249h-358l-105 -645h359z" />
    <glyph glyph-name="Q" unicode="Q" horiz-adv-x="1439" 
d="M1384 901q0 -205 -63 -385.5t-182 -306.5l125 -150l-101 -88l-123 148q-186 -137 -430 -137q-247 0 -391.5 142.5t-144.5 405.5q0 148 33 285t98.5 253t157 201.5t216 134t267.5 48.5q247 0 392.5 -143t145.5 -408zM629 117q184 0 321 108l-233 281l100 86l230 -273
q88 108 134 257.5t46 312.5q0 209 -106.5 318.5t-293.5 109.5q-114 0 -211.5 -43t-167.5 -117.5t-119.5 -173.5t-73.5 -211.5t-24 -230.5q0 -208 105.5 -316t292.5 -108z" />
    <glyph glyph-name="R" unicode="R" horiz-adv-x="1267" 
d="M924 666q194 -50 194 -228q0 -35 -20.5 -172t-20.5 -178q0 -60 19 -88h-152q-18 27 -18 88q0 42 18.5 167.5t18.5 162.5q0 176 -230 176h-469l-94 -594h-152l228 1434h555q213 0 318.5 -85t105.5 -241t-82 -274t-219 -168zM715 719q161 0 257.5 105t96.5 257
q0 217 -291 217h-401l-92 -579h430z" />
    <glyph glyph-name="S" unicode="S" horiz-adv-x="1228" 
d="M748 782q186 -39 277 -118t91 -230q0 -140 -75.5 -243t-207 -156t-301.5 -53q-247 0 -368.5 117.5t-112.5 310.5h158q4 -297 338 -297q184 0 295.5 83.5t111.5 225.5q0 55 -18 95.5t-53 67t-75 42t-97 28.5l-203 45q-324 71 -324 328q0 190 141.5 307t399.5 117
q223 0 338.5 -101t110.5 -272h-154q-3 109 -77.5 176.5t-233.5 67.5q-178 0 -272.5 -78.5t-94.5 -200.5q0 -89 51 -143t166 -78z" />
    <glyph glyph-name="T" unicode="T" horiz-adv-x="1179" 
d="M1249 1434l-20 -136h-457l-207 -1298h-151l207 1298h-457l20 136h1065z" />
    <glyph glyph-name="U" unicode="U" horiz-adv-x="1329" 
d="M1337 1434l-139 -885q-41 -262 -212 -411.5t-423 -149.5t-375 149t-82 412l140 885h151l-139 -879q-32 -206 52 -319t274 -113q187 0 309 113t156 319l137 879h151z" />
    <glyph glyph-name="V" unicode="V" horiz-adv-x="1396" 
d="M1296 1434h162l-788 -1434h-144l-342 1434h154l287 -1237z" />
    <glyph glyph-name="W" unicode="W" horiz-adv-x="2041" 
d="M1944 1434h159l-641 -1434h-145l-203 1219l-594 -1219h-145l-191 1434h158l143 -1211l578 1211h160l190 -1211z" />
    <glyph glyph-name="X" unicode="X" horiz-adv-x="1273" 
d="M1343 1434l-598 -695l404 -739h-168l-338 618l-532 -618h-174l638 741l-378 693h170l311 -572l491 572h174z" />
    <glyph glyph-name="Y" unicode="Y" horiz-adv-x="1327" 
d="M735 565l-90 -565h-153l90 565l-398 869h168l320 -721l545 721h172z" />
    <glyph glyph-name="Z" unicode="Z" horiz-adv-x="1224" 
d="M1079 135l-22 -135h-1080l19 125l1079 1173h-866l20 136h1047l-21 -125l-1077 -1174h901z" />
    <glyph glyph-name="bracketleft" unicode="[" horiz-adv-x="559" 
d="M385 1399l-244 -1538h176l-18 -127h-324l285 1792h324l-23 -127h-176z" />
    <glyph glyph-name="backslash" unicode="\" horiz-adv-x="854" 
d="M195 1434h143l330 -1434h-144z" />
    <glyph glyph-name="bracketright" unicode="]" horiz-adv-x="559" 
d="M418 1399h-178l22 127h322l-285 -1792h-322l19 127h178z" />
    <glyph glyph-name="asciicircum" unicode="^" horiz-adv-x="976" 
d="M803 952l-213 383l-338 -383h-125l422 482h100l271 -482h-117z" />
    <glyph glyph-name="underscore" unicode="_" horiz-adv-x="1208" 
d="M-20 0h1024l-21 -129h-1024z" />
    <glyph glyph-name="grave" unicode="`" horiz-adv-x="389" 
d="M494 1190l-142 262h-207l222 -262h127z" />
    <glyph glyph-name="a" unicode="a" horiz-adv-x="1120" 
d="M977 684l-82 -518q-6 -42 12 -58.5t64 -13.5l-17 -92q-29 -10 -63 -10q-77 0 -112.5 38t-20.5 115l14 72q-14 -23 -36 -48t-62.5 -59t-87 -60.5t-113.5 -45t-139 -18.5q-143 0 -228.5 71.5t-85.5 200.5q0 83 29 144t86.5 100.5t129 62.5t169.5 37q12 2 65.5 9t76 10.5
t69.5 11.5t74.5 14t60 15t54.5 18l2 14q24 147 -31 207t-199 60q-128 0 -197 -42t-98 -124h-139q41 146 147.5 213t294.5 67q217 0 306 -93.5t57 -297.5zM776 340l41 246q-66 -28 -381 -78q-140 -22 -205 -76.5t-65 -159.5q0 -84 53.5 -131t149.5 -47q66 0 128.5 20
t106.5 48.5t81.5 64t58 63.5t32.5 50z" />
    <glyph glyph-name="b" unicode="b" horiz-adv-x="1157" 
d="M692 1075q80 0 149.5 -26t124 -77t86 -133.5t31.5 -187.5q0 -132 -40.5 -252.5t-111.5 -212t-176 -146t-227 -54.5q-136 0 -222 66t-113 181l-37 -233h-146l226 1434h145l-92 -582q67 107 171 165t232 58zM506 106q103 0 187.5 46t137 122.5t81 172t28.5 198.5
q0 153 -80.5 231t-204.5 78q-81 0 -151 -29t-121 -79t-87.5 -117.5t-54.5 -145.5t-18 -161q0 -152 79.5 -234t203.5 -82z" />
    <glyph glyph-name="c" unicode="c" horiz-adv-x="1056" 
d="M465 106q118 0 196.5 50.5t131.5 152.5h139q-49 -119 -125 -192.5t-160.5 -102t-189.5 -28.5q-86 0 -161.5 26.5t-134.5 77.5t-93.5 135.5t-34.5 192.5q0 133 42.5 253.5t117.5 209.5t184 141.5t235 52.5q345 0 392 -325h-136q-20 106 -82.5 155t-177.5 49
q-100 0 -183.5 -46.5t-137.5 -122.5t-83.5 -171t-29.5 -194q0 -154 81 -234t210 -80z" />
    <glyph glyph-name="d" unicode="d" horiz-adv-x="1144" 
d="M588 1075q132 0 221 -66.5t117 -177.5l94 603h145l-227 -1434h-145l36 213q-69 -109 -170 -168t-227 -59q-81 0 -152 26.5t-126.5 77.5t-88 134t-32.5 188q0 132 40 252.5t111 211.5t176 145t228 54zM461 106q101 0 184.5 44t136.5 118t82 169.5t29 201.5
q0 156 -79.5 235.5t-203.5 79.5q-84 0 -155 -30t-122 -81t-86.5 -119.5t-53 -146t-17.5 -159.5q0 -152 80.5 -232t204.5 -80z" />
    <glyph glyph-name="e" unicode="e" horiz-adv-x="1095" 
d="M1001 473h-829q-2 -18 -2 -53q0 -162 83 -241t224 -79q104 0 173.5 28.5t131.5 96.5h146q-88 -128 -198 -183.5t-267 -55.5q-91 0 -168.5 27t-136.5 79.5t-92 136t-33 189.5q0 182 73 331.5t207.5 237.5t302.5 88q178 0 292 -109.5t114 -314.5q0 -33 -7 -91t-14 -87z
M604 961q-161 0 -271 -109.5t-147 -278.5h693q8 41 8 93q0 141 -78 218t-205 77z" />
    <glyph glyph-name="f" unicode="f" horiz-adv-x="673" 
d="M586 1350q-80 0 -122.5 -38t-55.5 -128l-19 -119h268l-18 -119h-268l-150 -946h-145l149 946h-157l16 119h160l18 121q13 85 45 143.5t78 86.5t91.5 39t103.5 11q74 0 151 -18l-18 -113q-69 15 -127 15z" />
    <glyph glyph-name="g" unicode="g" horiz-adv-x="1144" 
d="M1106 1065l-168 -1067q-71 -449 -559 -449q-145 0 -251.5 56t-145.5 151l98 54q34 -65 113 -101.5t188 -36.5q177 0 280 79t134 263l34 199q-68 -109 -169.5 -167t-227.5 -58q-81 0 -151.5 26t-126.5 77t-88.5 133.5t-32.5 187.5q0 175 67.5 325.5t196 244t291.5 93.5
q132 0 221.5 -66.5t116.5 -177.5l35 234h145zM461 109q101 0 184.5 44.5t136.5 119t82 169.5t29 199q0 155 -79.5 234t-203.5 79q-84 0 -155 -30t-122 -82t-86.5 -121t-53 -146.5t-17.5 -158.5q0 -151 80 -229t205 -78z" />
    <glyph glyph-name="h" unicode="h" horiz-adv-x="1124" 
d="M700 1075q67 0 121.5 -13.5t100 -44.5t70.5 -80.5t35 -121.5t-7 -168l-102 -647h-146l102 649q26 165 -34 233t-189 68q-77 0 -146.5 -29.5t-117 -75.5t-79.5 -92t-48 -89l-104 -664h-146l226 1434h145l-96 -615q11 26 33.5 57.5t61 67t84.5 64.5t108.5 48t127.5 19z" />
    <glyph glyph-name="i" unicode="i" horiz-adv-x="358" 
d="M215 1309l23 143h143l-21 -143h-145zM178 1065h144l-168 -1065h-144z" />
    <glyph glyph-name="j" unicode="j" horiz-adv-x="415" 
d="M254 1309l22 143h144l-23 -143h-143zM-285 -276q67 -43 148 -43q134 0 162 180l190 1204h145l-194 -1235q-25 -150 -97.5 -215.5t-187.5 -65.5q-112 0 -188 56z" />
    <glyph glyph-name="k" unicode="k" horiz-adv-x="1077" 
d="M1061 1065l-549 -483l444 -582h-161l-383 492l-207 -183l-49 -309h-146l226 1434h145l-148 -945l648 576h180z" />
    <glyph glyph-name="l" unicode="l" horiz-adv-x="360" 
d="M236 1434h143l-225 -1434h-144z" />
    <glyph glyph-name="m" unicode="m" horiz-adv-x="1810" 
d="M1401 1075q80 0 141 -22.5t106.5 -73.5t58.5 -134t-3 -204l-100 -641h-146l101 643q51 307 -201 307q-74 0 -143 -31t-117.5 -78.5t-80.5 -99t-42 -96.5l-103 -645h-145l102 643q49 307 -202 307q-72 0 -139.5 -31t-114.5 -78t-79 -94.5t-46 -89.5l-105 -657h-145
l168 1065h145l-39 -246q14 33 47 73.5t83 83t122 71t148 28.5q131 0 214.5 -64t94.5 -198q52 102 166.5 182t253.5 80z" />
    <glyph glyph-name="n" unicode="n" horiz-adv-x="1112" 
d="M688 1075q85 0 149 -22t111.5 -73t61.5 -133.5t-2 -203.5l-103 -643h-145l102 645q12 87 4 146t-41.5 94t-78.5 50t-107 15t-120 -20.5t-100.5 -52t-78.5 -71.5t-57.5 -76.5t-34.5 -70.5l-105 -659h-145l168 1065h145l-39 -248q14 33 48 74t85.5 84t127 71.5t155.5 28.5z
" />
    <glyph glyph-name="o" unicode="o" horiz-adv-x="1112" 
d="M614 1075q83 0 157.5 -27.5t134.5 -79.5t95 -137.5t35 -193.5q0 -175 -73 -323.5t-206.5 -238t-299.5 -89.5q-83 0 -158 27t-135 79t-95.5 137t-35.5 193q0 174 74 323.5t208 239.5t299 90zM897 635q0 155 -83 237t-208 82q-127 0 -227.5 -76t-152.5 -195.5t-52 -256.5
q0 -153 84 -236.5t207 -83.5q128 0 228.5 77t152 196.5t51.5 255.5z" />
    <glyph glyph-name="p" unicode="p" horiz-adv-x="1155" 
d="M319 1065l-34 -217q70 110 173.5 168.5t231.5 58.5q80 0 149.5 -26t124 -77t86 -133.5t31.5 -187.5q0 -131 -40 -251.5t-111 -212.5t-176 -146.5t-228 -54.5q-136 0 -222.5 66t-113.5 181l-98 -622h-145l229 1454h143zM504 106q103 0 187.5 46t137 122.5t81 172
t28.5 198.5q0 153 -80.5 231t-204.5 78q-100 0 -183 -44t-137 -118t-83 -169t-29 -199q0 -154 79.5 -236t203.5 -82z" />
    <glyph glyph-name="q" unicode="q" horiz-adv-x="1144" 
d="M588 1075q133 0 221 -66t117 -178l35 234h145l-229 -1454h-146l96 602q-67 -109 -168 -168t-227 -59q-81 0 -152 26.5t-126.5 77.5t-88 134t-32.5 188q0 132 40 252t111 211.5t176 145.5t228 54zM461 106q101 0 184.5 45t136.5 120t82 170.5t29 199.5q0 155 -79.5 234
t-203.5 79q-105 0 -189.5 -45.5t-136.5 -122t-80 -171.5t-28 -199q0 -151 80.5 -230.5t204.5 -79.5z" />
    <glyph glyph-name="r" unicode="r" horiz-adv-x="745" 
d="M684 1075q40 0 80 -6l-21 -127q-27 2 -67 2q-165 -1 -276 -92t-160 -246l-97 -606h-145l168 1065h145l-43 -279q39 121 152 205t264 84z" />
    <glyph glyph-name="s" unicode="s" horiz-adv-x="978" 
d="M786 799q-28 162 -251 162q-130 0 -206.5 -55.5t-76.5 -141.5q0 -61 38 -98t126 -58l162 -39q59 -15 96 -26.5t76.5 -31t61.5 -42t36 -56.5t14 -79q0 -90 -38.5 -158.5t-105.5 -109t-148.5 -60.5t-174.5 -20q-184 0 -291.5 80t-101.5 239h135q3 -111 75 -159t189 -48
q134 0 225 56.5t91 164.5q0 63 -42 94t-130 52l-183 45q-126 31 -189.5 92.5t-63.5 159.5q0 141 122.5 227t311.5 86q168 0 266.5 -71t108.5 -205h-132z" />
    <glyph glyph-name="t" unicode="t" horiz-adv-x="638" 
d="M397 946l-118 -756q-6 -44 10.5 -61.5t62.5 -17.5q70 0 142 16l-19 -119q-67 -22 -164 -22q-98 0 -146.5 46t-29.5 161l119 753h-166l16 119h168l43 266h144l-43 -266h217l-19 -119h-217z" />
    <glyph glyph-name="u" unicode="u" horiz-adv-x="1114" 
d="M930 1065h145l-168 -1065h-145l39 246q-16 -34 -49.5 -74.5t-85 -83.5t-126 -71.5t-155.5 -28.5q-67 0 -121.5 14t-100 45.5t-71.5 81.5t-36 122t7 167l103 647h145l-102 -647q-48 -301 219 -301q75 0 144 29t118.5 74.5t83 91.5t51.5 89z" />
    <glyph glyph-name="v" unicode="v" horiz-adv-x="1069" 
d="M512 0h-164l-254 1065h146l209 -915l501 915h152z" />
    <glyph glyph-name="w" unicode="w" horiz-adv-x="1607" 
d="M1640 1065l-485 -1065h-141l-174 885l-457 -885h-139l-150 1065h146l112 -887l451 887h121l170 -887l397 887h149z" />
    <glyph glyph-name="x" unicode="x" horiz-adv-x="1001" 
d="M1024 1065l-461 -524l307 -541h-155l-244 436l-379 -436h-166l484 549l-293 516h153l232 -412l356 412h166z" />
    <glyph glyph-name="y" unicode="y" horiz-adv-x="1050" 
d="M930 1065h153l-651 -1163q-96 -173 -204.5 -239t-256.5 -44l21 123q199 -27 313 186q27 50 35 73t2 48l-248 1016h146l204 -899z" />
    <glyph glyph-name="z" unicode="z" horiz-adv-x="999" 
d="M160 125h682l-21 -125h-852l19 125l813 815h-662l19 125h831l-18 -125z" />
    <glyph glyph-name="braceleft" unicode="{" horiz-adv-x="565" 
d="M340 766l-119 -139l72 -135l-88 -566q-12 -65 57 -65h76l-21 -127h-118q-69 0 -112 47t-32 129l95 571l-72 146l115 149l94 584q13 82 66.5 124t123.5 42h125l-20 -127h-70q-32 0 -56.5 -22t-29.5 -54z" />
    <glyph glyph-name="bar" unicode="|" horiz-adv-x="436" 
d="M299 1638h129l-322 -2027h-129z" />
    <glyph glyph-name="braceright" unicode="}" horiz-adv-x="565" 
d="M246 766l88 567q4 32 -11.5 49t-48.5 17h-73l20 127h119q69 0 111.5 -47t29.5 -129l-92 -574l70 -149l-113 -146l-94 -581q-13 -82 -66.5 -124t-124.5 -42h-124l20 127h68q32 0 57 22t31 54l86 555l116 135z" />
    <glyph glyph-name="asciitilde" unicode="~" horiz-adv-x="860" 
d="M743 674l76 -8q-15 -95 -79 -150t-150 -55q-40 0 -76 16t-63 38.5t-53.5 45.5t-59.5 39t-68 16q-58 0 -95 -32t-40 -68l-76 10q15 95 79.5 149t150.5 54q49 0 93 -24.5t72.5 -53.5t69.5 -53.5t84 -24.5q59 0 95 32.5t40 68.5z" />
    <glyph glyph-name="exclamdown" unicode="&#xa1;" horiz-adv-x="417" 
d="M156 872l30 193h172l-30 -193h-172zM291 676l-164 -1045h-160l164 1045h160z" />
    <glyph glyph-name="cent" unicode="&#xa2;" horiz-adv-x="1056" 
d="M520 240q195 11 293 200h139q-130 -313 -450 -323l-33 -199h-82l33 201q-77 9 -142.5 39.5t-116 82.5t-79.5 131t-29 177q0 172 67 317.5t191.5 236.5t282.5 101l37 230h82l-37 -230q303 -17 348 -323h-135q-19 100 -75 149t-157 55zM195 551q0 -140 66.5 -218.5
t176.5 -92.5l135 841q-116 -16 -204 -97.5t-131 -194.5t-43 -238z" />
    <glyph glyph-name="sterling" unicode="&#xa3;" horiz-adv-x="1077" 
d="M657 1448q215 0 317 -122.5t73 -342.5h-134q21 164 -44.5 251t-223.5 87q-155 0 -247.5 -94t-92.5 -242q0 -36 6.5 -77.5t13.5 -68t21 -75.5t19 -68h292l-12 -94h-262q0 -8 1 -25.5t1 -25.5q0 -237 -244 -445q100 39 205 39q60 0 179.5 -20.5t187.5 -20.5q89 0 176 25
l-12 -129q-88 -23 -175 -23q-78 0 -208.5 25t-198.5 25q-114 0 -238 -50l-67 107q266 240 266 465q0 21 -4 53h-178l14 94h141q-3 10 -16 49t-18.5 56.5t-13.5 51.5t-11.5 64.5t-3.5 63.5q0 210 137 338.5t354 128.5z" />
    <glyph glyph-name="currency" unicode="&#xa4;" horiz-adv-x="1191" 
d="M1114 975q0 -147 -84 -264l94 -95l-96 -96l-92 92q-123 -96 -281 -96q-156 0 -280 94l-88 -90l-99 96l95 93q-86 116 -86 266q0 145 86 268l-95 94l99 97l92 -93q124 93 276 93q153 0 279 -95l94 95l96 -97l-96 -96q86 -116 86 -266zM655 639q142 0 240 102t98 234
q0 84 -43 161t-122 126t-173 49q-140 0 -236.5 -102.5t-96.5 -233.5q0 -85 42 -162t120 -125.5t171 -48.5z" />
    <glyph glyph-name="yen" unicode="&#xa5;" horiz-adv-x="1327" 
d="M1389 1434l-650 -865h273l-17 -96h-274l-19 -111h277l-18 -96h-273l-43 -266h-153l43 266h-275l19 96h270l18 111h-272l16 96h269l-396 865h168l320 -721l545 721h172z" />
    <glyph glyph-name="brokenbar" unicode="&#xa6;" horiz-adv-x="436" 
d="M299 1638h129l-90 -573h-129zM70 184h129l-93 -573h-129z" />
    <glyph glyph-name="section" unicode="&#xa7;" horiz-adv-x="1269" 
d="M770 1315q-175 0 -275 -79t-100 -210q0 -155 211 -201l182 -39q180 -39 276.5 -120t96.5 -222q0 -191 -133 -315q39 -62 39 -152q0 -113 -44.5 -201t-124 -144.5t-186 -85.5t-233.5 -29q-248 0 -362 109t-111 308h156q1 -65 16.5 -114t51.5 -88t101 -59.5t158 -20.5
q193 0 306.5 82t113.5 235q0 94 -62.5 145.5t-174.5 75.5l-203 43q-157 35 -241.5 114.5t-84.5 205.5q0 184 142 307q-47 68 -47 160q0 133 71.5 232t192.5 148.5t274 49.5q228 0 338 -95.5t105 -264.5h-154q0 53 -14 92.5t-47 70t-91.5 46.5t-142.5 16zM766 657l-203 43
q-95 21 -168 60q-94 -76 -94 -203q0 -153 211 -199l182 -39q148 -32 232 -86q78 84 78 205q0 92 -62.5 143.5t-175.5 75.5z" />
    <glyph glyph-name="dieresis" unicode="&#xa8;" horiz-adv-x="585" 
d="M145 1452h154l-27 -178h-153zM578 1452h151l-27 -178h-151z" />
    <glyph glyph-name="copyright" unicode="&#xa9;" horiz-adv-x="1619" 
d="M735 -14q-140 0 -260.5 47.5t-206.5 131.5t-135 204t-49 260q0 166 66 317.5t176.5 260.5t261.5 174t315 65q186 0 334.5 -81t232.5 -227.5t84 -332.5q0 -167 -65.5 -318.5t-175.5 -261t-261.5 -174.5t-316.5 -65zM731 82q200 0 368.5 97.5t265.5 263.5t97 362
q0 243 -156 395t-399 152q-201 0 -369.5 -99t-265 -266.5t-96.5 -363.5q0 -158 72 -282t198.5 -191.5t284.5 -67.5zM758 379q199 0 291 156h104q-42 -90 -108 -148t-136.5 -81t-152.5 -23q-154 0 -255.5 97.5t-101.5 266.5q0 136 63.5 252t174 184t242.5 68q126 0 212 -62
t111 -188h-98q-40 152 -234 152q-161 0 -264.5 -120t-103.5 -288q0 -125 74 -195.5t182 -70.5z" />
    <glyph glyph-name="ordfeminine" unicode="&#xaa;" horiz-adv-x="737" 
d="M678 881q0 -55 22 -97h-96q-27 55 -24 121q-47 -56 -105.5 -88.5t-146.5 -32.5q-85 0 -142 44.5t-57 127.5q0 106 68.5 157.5t193.5 62.5l223 20q9 85 -20 121.5t-113 36.5q-142 0 -180 -92h-100q54 186 284 186q126 0 182 -51t56 -158q0 -43 -22.5 -182.5t-22.5 -175.5z
M354 881q87 0 143.5 39.5t86.5 87.5l20 102l-211 -20q-155 -16 -155 -125q0 -84 116 -84z" />
    <glyph glyph-name="guillemotleft" unicode="&#xab;" horiz-adv-x="823" 
d="M416 770l-219 -166l165 -168l-22 -135l-254 252l16 117l336 252zM778 770l-219 -166l166 -168l-23 -135l-253 252l16 117l336 252z" />
    <glyph glyph-name="logicalnot" unicode="&#xac;" horiz-adv-x="995" 
d="M80 639h665l-20 -119h-664zM745 639h146l-57 -356h-146z" />
    <glyph glyph-name="uni00AD" unicode="&#xad;" horiz-adv-x="874" 
d="M78 627h690l-16 -107h-691z" />
    <glyph glyph-name="registered" unicode="&#xae;" horiz-adv-x="1619" 
d="M735 -14q-140 0 -260.5 47.5t-206.5 131.5t-135 204t-49 260q0 166 66 317.5t176.5 260.5t261.5 174t315 65q186 0 334.5 -81t232.5 -227.5t84 -332.5q0 -167 -65.5 -318.5t-175.5 -261t-261.5 -174.5t-316.5 -65zM731 82q200 0 368.5 97.5t265.5 263.5t97 362
q0 243 -156 395t-399 152q-201 0 -369.5 -99t-265 -266.5t-96.5 -363.5q0 -158 72 -282t198.5 -191.5t284.5 -67.5zM1077 311h-94q-12 37 -9.5 71t11 92t8.5 79q0 56 -32 74t-89 18h-245l-52 -334h-94l129 811h301q240 0 240 -192q0 -185 -180 -244q59 -12 86.5 -44.5
t27.5 -88.5q0 -18 -5.5 -57.5t-10.5 -73t-4 -66.5t12 -45zM862 725q89 0 143 57t54 144q0 61 -37 89.5t-115 28.5h-215l-51 -319h221z" />
    <glyph glyph-name="macron" unicode="&#xaf;" horiz-adv-x="614" 
d="M145 1452h615l-15 -94h-614z" />
    <glyph glyph-name="degree" unicode="&#xb0;" horiz-adv-x="788" 
d="M457 872q-116 0 -191.5 75t-75.5 186q0 138 104.5 239t242.5 101q115 0 189.5 -75t74.5 -186q0 -137 -103.5 -238.5t-240.5 -101.5zM461 985q93 0 160 67t67 156q0 65 -44 108.5t-114 43.5q-92 0 -159.5 -66.5t-67.5 -156.5q0 -64 44.5 -108t113.5 -44z" />
    <glyph glyph-name="plusminus" unicode="&#xb1;" horiz-adv-x="980" 
d="M586 707h360l-20 -132h-363l-57 -360h-135l57 360h-358l20 132h359l57 360h137zM27 -33l18 107h746l-17 -107h-747z" />
    <glyph glyph-name="uni00B2" unicode="&#xb2;" horiz-adv-x="507" 
d="M121 901q9 88 51 144.5t143 113.5q4 2 21.5 12.5t22 13t19.5 11.5t19.5 13t16 13t15.5 14.5t11 15t9.5 17.5t5 18.5t2.5 21.5q0 32 -25 52.5t-65 20.5q-48 0 -80 -27t-39 -77h-66q11 75 62 120.5t131 45.5q67 0 107 -35t40 -90q0 -38 -13 -68.5t-43 -56.5t-55 -42
t-73 -42q-61 -32 -96.5 -72.5t-38.5 -74.5h270l-10 -62h-342z" />
    <glyph glyph-name="uni00B3" unicode="&#xb3;" horiz-adv-x="538" 
d="M434 1184q43 -7 75 -34t32 -77q0 -76 -61 -128t-161 -52q-90 0 -132.5 49t-30.5 125h61q-7 -55 22.5 -85t88.5 -30q64 0 105.5 33t41.5 88q0 82 -127 82h-22l10 49h22q58 0 92.5 33t34.5 76q0 34 -24 52.5t-68 18.5q-106 0 -129 -108h-61q14 80 65.5 124t132.5 44
q71 0 110.5 -33t39.5 -86t-34 -90.5t-83 -50.5z" />
    <glyph glyph-name="acute" unicode="&#xb4;" horiz-adv-x="344" 
d="M104 1190h123l262 262h-202z" />
    <glyph glyph-name="uni00B5" unicode="&#xb5;" horiz-adv-x="1114" 
d="M930 1065h145l-168 -1065h-145l37 240q-17 -35 -51.5 -75t-85.5 -81t-124 -67.5t-151 -26.5q-149 0 -233 67l-72 -446h-145l231 1454h145l-102 -647q-48 -299 217 -299q62 0 120.5 20t102 51.5t80 71t59 76.5t35.5 70l-6 -43z" />
    <glyph glyph-name="paragraph" unicode="&#xb6;" horiz-adv-x="1161" 
d="M1180 1434l-297 -1885h-123l280 1786h-176l-280 -1786h-129l170 1080h-144q-196 0 -292.5 115.5t-67.5 293.5q27 175 155 285.5t324 110.5h580z" />
    <glyph glyph-name="periodcentered" unicode="&#xb7;" horiz-adv-x="370" 
d="M96 680h172l-30 -191h-172z" />
    <glyph glyph-name="cedilla" unicode="&#xb8;" horiz-adv-x="333" 
d="M16 -111q73 10 132 -31.5t59 -117.5q0 -186 -305 -186v69q188 3 188 113q0 57 -48.5 75t-111.5 -14l-36 60l92 145h135z" />
    <glyph glyph-name="uni00B9" unicode="&#xb9;" horiz-adv-x="339" 
d="M360 1434l-84 -533h-65l74 447q-41 -54 -121 -45l8 59q36 -4 71 18.5t52 53.5h65z" />
    <glyph glyph-name="ordmasculine" unicode="&#xba;" horiz-adv-x="761" 
d="M496 1450q114 0 196 -75.5t82 -205.5q0 -161 -109 -276t-259 -115q-112 0 -194.5 76t-82.5 205q0 162 109 276.5t258 114.5zM666 1169q0 85 -49.5 132t-124.5 47q-109 0 -180.5 -86.5t-71.5 -200.5q0 -86 49 -132t123 -46q109 0 181.5 86t72.5 200z" />
    <glyph glyph-name="guillemotright" unicode="&#xbb;" horiz-adv-x="823" 
d="M70 453l219 165l-166 168l22 136l254 -252l-16 -117l-336 -252zM432 453l219 165l-166 168l23 136l254 -252l-17 -117l-335 -252z" />
    <glyph glyph-name="onequarter" unicode="&#xbc;" horiz-adv-x="1228" 
d="M76 0h-82l1118 1434h82zM360 1434l-84 -533h-65l74 447q-41 -54 -121 -45l8 59q36 -4 71 18.5t52 53.5h65zM1083 135h-61l-23 -135h-65l22 135h-243l8 53l299 347h65l-57 -347h62zM965 188l41 261l-224 -261h183z" />
    <glyph glyph-name="onehalf" unicode="&#xbd;" horiz-adv-x="1218" 
d="M76 0h-82l1118 1434h82zM360 1434l-84 -533h-65l74 447q-41 -54 -121 -45l8 59q36 -4 71 18.5t52 53.5h65zM700 0q9 88 51.5 144.5t143.5 113.5q81 47 102 67q39 36 39 83q0 32 -25 52.5t-65 20.5q-48 0 -80 -27t-39 -77h-65q11 75 61.5 120.5t130.5 45.5q67 0 107.5 -35
t40.5 -90q0 -38 -13 -68.5t-43 -56.5t-55 -42t-73 -42q-62 -32 -97.5 -73t-38.5 -75h271l-11 -61h-342z" />
    <glyph glyph-name="threequarters" unicode="&#xbe;" horiz-adv-x="1341" 
d="M444 1184q43 -7 75 -34t32 -77q0 -76 -60.5 -128t-160.5 -52q-90 0 -133 49t-31 125h61q-7 -55 22.5 -85t88.5 -30q64 0 105.5 33t41.5 88q0 82 -127 82h-22l10 49h23q58 0 92.5 33t34.5 76q0 34 -24.5 52.5t-68.5 18.5q-106 0 -129 -108h-61q14 80 66 124t133 44
q71 0 110 -33t39 -86t-34 -90.5t-83 -50.5zM188 0h-82l1119 1434h82zM1196 135h-61l-23 -135h-65l22 135h-244l9 53l299 347h65l-57 -347h61zM1077 188l41 261l-223 -261h182z" />
    <glyph glyph-name="questiondown" unicode="&#xbf;" horiz-adv-x="1067" 
d="M627 872h-172l28 193h172zM348 -383q219 0 353.5 117t168.5 338h-141q-28 -163 -122.5 -245.5t-233.5 -82.5q-140 0 -205 69.5t-45 198.5q9 50 36 91t64 71.5t80.5 60t87.5 63.5t82.5 74t68.5 99.5t42 132.5l12 70h-154l-12 -70q-10 -62 -37.5 -112.5t-64.5 -85t-80 -66
t-86.5 -64t-81 -69t-66 -90.5t-39.5 -121q-28 -179 76.5 -279t296.5 -100z" />
    <glyph glyph-name="Agrave" unicode="&#xc0;" horiz-adv-x="1378" 
d="M889 1559h-127l-221 262h207zM1071 0l-86 381h-655l-207 -381h-166l797 1434h135l344 -1434h-162zM393 498h565l-165 735z" />
    <glyph glyph-name="Aacute" unicode="&#xc1;" horiz-adv-x="1378" 
d="M1157 1821l-262 -262h-123l182 262h203zM1071 0l-86 381h-655l-207 -381h-166l797 1434h135l344 -1434h-162zM393 498h565l-165 735z" />
    <glyph glyph-name="Acircumflex" unicode="&#xc2;" horiz-adv-x="1378" 
d="M850 1743l-227 -184h-121l229 262h250l149 -262h-116zM1071 0l-86 381h-655l-207 -381h-166l797 1434h135l344 -1434h-162zM393 498h565l-165 735z" />
    <glyph glyph-name="Atilde" unicode="&#xc3;" horiz-adv-x="1378" 
d="M647 1751q-54 0 -82 -27.5t-26 -62.5h-74q0 91 56.5 145t142.5 54q48 0 93 -23t75 -51t71 -51t82 -23q54 0 82.5 27.5t26.5 62.5h73q0 -91 -56 -143.5t-142 -52.5q-39 0 -75.5 15t-65 36t-55.5 42.5t-59.5 36.5t-66.5 15zM1071 0l-86 381h-655l-207 -381h-166l797 1434
h135l344 -1434h-162zM393 498h565l-165 735z" />
    <glyph glyph-name="Adieresis" unicode="&#xc4;" horiz-adv-x="1378" 
d="M739 1821l-26 -179h-154l27 179h153zM1169 1821l-26 -179h-152l27 179h151zM1071 0l-86 381h-655l-207 -381h-166l797 1434h135l344 -1434h-162zM393 498h565l-165 735z" />
    <glyph glyph-name="Aring" unicode="&#xc5;" horiz-adv-x="1378" 
d="M846 1559q-68 0 -112 43.5t-44 107.5q0 77 57 134t138 57q65 0 108 -44.5t43 -109.5q0 -75 -57.5 -131.5t-132.5 -56.5zM874 1825q-43 0 -75.5 -32t-32.5 -75q0 -36 24.5 -60t63.5 -24q40 0 72 32.5t32 74.5q0 36 -24 60t-60 24zM1071 0l-86 381h-655l-207 -381h-166
l797 1434h135l344 -1434h-162zM393 498h565l-165 735z" />
    <glyph glyph-name="AE" unicode="&#xc6;" horiz-adv-x="2025" 
d="M2054 1298h-768l-80 -497h666l-21 -125h-665l-86 -541h790l-22 -135h-940l59 379h-545l-319 -379h-166l1196 1419l2 15h920zM1008 502l106 678l-569 -678h463z" />
    <glyph glyph-name="Ccedilla" unicode="&#xc7;" horiz-adv-x="1316" 
d="M623 117q153 0 261.5 61.5t168.5 173.5h153q-67 -166 -217 -262.5t-348 -107.5l-86 -93q73 10 131.5 -31.5t58.5 -117.5q0 -186 -305 -186v69q189 3 189 113q0 57 -48.5 75t-111.5 -14l-37 60l82 129q-205 26 -322.5 165t-117.5 386q0 181 52 345.5t146.5 291.5
t241 202.5t322.5 75.5q210 0 340 -97t143 -272h-152q-22 111 -110.5 172.5t-241.5 61.5q-136 0 -249 -66.5t-184 -176t-110 -245.5t-39 -280q0 -215 104.5 -323.5t285.5 -108.5z" />
    <glyph glyph-name="Egrave" unicode="&#xc8;" horiz-adv-x="1116" 
d="M786 1559l-141 262h-207l221 -262h127zM1145 1298h-768l-80 -497h666l-21 -125h-666l-86 -541h791l-23 -135h-940l228 1434h919z" />
    <glyph glyph-name="Eacute" unicode="&#xc9;" horiz-adv-x="1116" 
d="M670 1559h123l262 262h-203zM1145 1298h-768l-80 -497h666l-21 -125h-666l-86 -541h791l-23 -135h-940l228 1434h919z" />
    <glyph glyph-name="Ecircumflex" unicode="&#xca;" horiz-adv-x="1116" 
d="M911 1559l-163 184l-228 -184h-121l230 262h250l149 -262h-117zM1145 1298h-768l-80 -497h666l-21 -125h-666l-86 -541h791l-23 -135h-940l228 1434h919z" />
    <glyph glyph-name="Edieresis" unicode="&#xcb;" horiz-adv-x="1116" 
d="M483 1821h154l-27 -179h-153zM915 1821h152l-27 -179h-151zM1145 1298h-768l-80 -497h666l-21 -125h-666l-86 -541h791l-23 -135h-940l228 1434h919z" />
    <glyph glyph-name="Igrave" unicode="&#xcc;" horiz-adv-x="389" 
d="M393 1559l-141 262h-207l221 -262h127zM172 0h-152l226 1434h151z" />
    <glyph glyph-name="Iacute" unicode="&#xcd;" horiz-adv-x="389" 
d="M276 1559h123l263 262h-203zM172 0h-152l226 1434h151z" />
    <glyph glyph-name="Icircumflex" unicode="&#xce;" horiz-adv-x="389" 
d="M518 1559l-164 184l-227 -184h-121l230 262h249l150 -262h-117zM172 0h-152l226 1434h151z" />
    <glyph glyph-name="Idieresis" unicode="&#xcf;" horiz-adv-x="389" 
d="M90 1821h154l-27 -179h-154zM522 1821h152l-27 -179h-151zM172 0h-152l226 1434h151z" />
    <glyph glyph-name="Eth" unicode="&#xd0;" horiz-adv-x="1351" 
d="M717 1434q289 0 437.5 -143t148.5 -410q0 -261 -93 -459t-276 -310t-434 -112h-432l104 659h-100l16 107h100l105 668h424zM498 139q161 0 286.5 55t205.5 155t121.5 235.5t41.5 300.5q0 209 -114.5 309t-346.5 100h-270l-82 -528h438l-16 -107h-438l-82 -520h256z" />
    <glyph glyph-name="Ntilde" unicode="&#xd1;" horiz-adv-x="1343" 
d="M1096 1802h73q0 -91 -56 -143.5t-142 -52.5q-39 0 -75.5 15t-65 36t-55.5 42.5t-59.5 36.5t-66.5 15q-54 0 -82 -27.5t-26 -62.5h-74q0 91 56.5 145t142.5 54q48 0 93 -23t75 -51t71 -51t82 -23q54 0 82.5 27.5t26.5 62.5zM1354 1434l-228 -1434h-165l-596 1200h-5
l-190 -1200h-152l228 1434h162l600 -1205h4l190 1205h152z" />
    <glyph glyph-name="Ograve" unicode="&#xd2;" horiz-adv-x="1439" 
d="M940 1559l-141 262h-207l221 -262h127zM846 1452q247 0 392.5 -143t145.5 -408q0 -185 -53.5 -351t-150.5 -292.5t-244.5 -201t-325.5 -74.5q-247 0 -391.5 142.5t-144.5 405.5q0 148 33 285t98.5 253t157 201.5t216 134t267.5 48.5zM629 117q114 0 212 43t168 117
t120 172.5t74 210t24 229.5q0 209 -106.5 318.5t-293.5 109.5q-114 0 -211.5 -43t-167.5 -117.5t-119.5 -173.5t-73.5 -211.5t-24 -230.5q0 -208 105.5 -316t292.5 -108z" />
    <glyph glyph-name="Oacute" unicode="&#xd3;" horiz-adv-x="1439" 
d="M823 1559h123l262 262h-202zM846 1452q247 0 392.5 -143t145.5 -408q0 -185 -53.5 -351t-150.5 -292.5t-244.5 -201t-325.5 -74.5q-247 0 -391.5 142.5t-144.5 405.5q0 148 33 285t98.5 253t157 201.5t216 134t267.5 48.5zM629 117q114 0 212 43t168 117t120 172.5
t74 210t24 229.5q0 209 -106.5 318.5t-293.5 109.5q-114 0 -211.5 -43t-167.5 -117.5t-119.5 -173.5t-73.5 -211.5t-24 -230.5q0 -208 105.5 -316t292.5 -108z" />
    <glyph glyph-name="Ocircumflex" unicode="&#xd4;" horiz-adv-x="1439" 
d="M1065 1559l-164 184l-227 -184h-121l229 262h250l150 -262h-117zM846 1452q247 0 392.5 -143t145.5 -408q0 -185 -53.5 -351t-150.5 -292.5t-244.5 -201t-325.5 -74.5q-247 0 -391.5 142.5t-144.5 405.5q0 148 33 285t98.5 253t157 201.5t216 134t267.5 48.5zM629 117
q114 0 212 43t168 117t120 172.5t74 210t24 229.5q0 209 -106.5 318.5t-293.5 109.5q-114 0 -211.5 -43t-167.5 -117.5t-119.5 -173.5t-73.5 -211.5t-24 -230.5q0 -208 105.5 -316t292.5 -108z" />
    <glyph glyph-name="Otilde" unicode="&#xd5;" horiz-adv-x="1439" 
d="M1145 1802h74q0 -91 -56.5 -143.5t-142.5 -52.5q-39 0 -75.5 15t-65 36t-55.5 42.5t-59.5 36.5t-66.5 15q-54 0 -82 -27.5t-26 -62.5h-74q0 91 56.5 145t142.5 54q48 0 93 -23t75 -51t71 -51t82 -23q54 0 82.5 27.5t26.5 62.5zM846 1452q247 0 392.5 -143t145.5 -408
q0 -185 -53.5 -351t-150.5 -292.5t-244.5 -201t-325.5 -74.5q-247 0 -391.5 142.5t-144.5 405.5q0 148 33 285t98.5 253t157 201.5t216 134t267.5 48.5zM629 117q114 0 212 43t168 117t120 172.5t74 210t24 229.5q0 209 -106.5 318.5t-293.5 109.5q-114 0 -211.5 -43
t-167.5 -117.5t-119.5 -173.5t-73.5 -211.5t-24 -230.5q0 -208 105.5 -316t292.5 -108z" />
    <glyph glyph-name="Odieresis" unicode="&#xd6;" horiz-adv-x="1439" 
d="M637 1821h154l-27 -179h-154zM1069 1821h152l-27 -179h-152zM846 1452q247 0 392.5 -143t145.5 -408q0 -185 -53.5 -351t-150.5 -292.5t-244.5 -201t-325.5 -74.5q-247 0 -391.5 142.5t-144.5 405.5q0 148 33 285t98.5 253t157 201.5t216 134t267.5 48.5zM629 117
q114 0 212 43t168 117t120 172.5t74 210t24 229.5q0 209 -106.5 318.5t-293.5 109.5q-114 0 -211.5 -43t-167.5 -117.5t-119.5 -173.5t-73.5 -211.5t-24 -230.5q0 -208 105.5 -316t292.5 -108z" />
    <glyph glyph-name="multiply" unicode="&#xd7;" horiz-adv-x="821" 
d="M801 786l-295 -256l215 -251l-107 -95l-215 256l-295 -256l-81 97l294 256l-213 254l103 92l215 -254l293 254z" />
    <glyph glyph-name="Oslash" unicode="&#xd8;" horiz-adv-x="1439" 
d="M1202 1341q182 -146 182 -440q0 -185 -53.5 -351t-150.5 -292.5t-244.5 -201t-325.5 -74.5q-138 0 -243 45l-82 -129h-158l125 196q-178 145 -178 436q0 148 33 285t98.5 253t157 201.5t216 134t267.5 48.5q139 0 241 -45l76 119h158zM231 541q0 -205 105 -316l674 1059
q-76 33 -183 33q-114 0 -211.5 -43t-167.5 -117.5t-119.5 -173.5t-73.5 -211.5t-24 -230.5zM629 117q114 0 212 43t168 117t120 172.5t74 210t24 229.5q0 207 -109 319l-672 -1058q73 -33 183 -33z" />
    <glyph glyph-name="Ugrave" unicode="&#xd9;" horiz-adv-x="1329" 
d="M885 1559l-142 262h-206l221 -262h127zM1337 1434l-139 -885q-41 -262 -212 -411.5t-423 -149.5t-375 149t-82 412l140 885h151l-139 -879q-32 -206 52 -319t274 -113q187 0 309 113t156 319l137 879h151z" />
    <glyph glyph-name="Uacute" unicode="&#xda;" horiz-adv-x="1329" 
d="M768 1559h123l262 262h-203zM1337 1434l-139 -885q-41 -262 -212 -411.5t-423 -149.5t-375 149t-82 412l140 885h151l-139 -879q-32 -206 52 -319t274 -113q187 0 309 113t156 319l137 879h151z" />
    <glyph glyph-name="Ucircumflex" unicode="&#xdb;" horiz-adv-x="1329" 
d="M1010 1559l-164 184l-228 -184h-120l229 262h250l149 -262h-116zM1337 1434l-139 -885q-41 -262 -212 -411.5t-423 -149.5t-375 149t-82 412l140 885h151l-139 -879q-32 -206 52 -319t274 -113q187 0 309 113t156 319l137 879h151z" />
    <glyph glyph-name="Udieresis" unicode="&#xdc;" horiz-adv-x="1329" 
d="M582 1821h153l-26 -179h-154zM1014 1821h151l-26 -179h-152zM1337 1434l-139 -885q-41 -262 -212 -411.5t-423 -149.5t-375 149t-82 412l140 885h151l-139 -879q-32 -206 52 -319t274 -113q187 0 309 113t156 319l137 879h151z" />
    <glyph glyph-name="Yacute" unicode="&#xdd;" horiz-adv-x="1327" 
d="M766 1559h123l262 262h-203zM735 565l-90 -565h-153l90 565l-398 869h168l320 -721l545 721h172z" />
    <glyph glyph-name="Thorn" unicode="&#xde;" horiz-adv-x="1230" 
d="M692 1157q243 0 369 -123t94 -321q-32 -204 -189 -316t-405 -112h-350l20 129h349q383 0 434 315q23 150 -64 225.5t-268 75.5h-354l-162 -1030h-146l226 1434h145l-59 -383l16 106h344z" />
    <glyph glyph-name="germandbls" unicode="&#xdf;" horiz-adv-x="1187" 
d="M813 784q123 -24 191.5 -107t68.5 -202q0 -240 -161 -357.5t-443 -117.5h-135l20 129h129q103 0 183 19.5t140.5 60.5t93 109.5t32.5 162.5q0 117 -93 176.5t-259 59.5h-134l21 119h125q167 0 259.5 72.5t92.5 211.5q0 90 -69.5 138.5t-196.5 48.5q-160 0 -244 -66
t-106 -207l-164 -1034h-146l164 1044q32 199 155.5 294.5t344.5 95.5q194 0 301 -78t107 -232q0 -130 -73.5 -221t-203.5 -119z" />
    <glyph glyph-name="agrave" unicode="&#xe0;" horiz-adv-x="1120" 
d="M688 1190h-127l-221 262h207zM977 684l-82 -518q-6 -42 12 -58.5t64 -13.5l-17 -92q-29 -10 -63 -10q-77 0 -112.5 38t-20.5 115l14 72q-14 -23 -36 -48t-62.5 -59t-87 -60.5t-113.5 -45t-139 -18.5q-143 0 -228.5 71.5t-85.5 200.5q0 83 29 144t86.5 100.5t129 62.5
t169.5 37q12 2 65.5 9t76 10.5t69.5 11.5t74.5 14t60 15t54.5 18l2 14q24 147 -31 207t-199 60q-128 0 -197 -42t-98 -124h-139q41 146 147.5 213t294.5 67q217 0 306 -93.5t57 -297.5zM776 340l41 246q-66 -28 -381 -78q-140 -22 -205 -76.5t-65 -159.5q0 -84 53.5 -131
t149.5 -47q66 0 128.5 20t106.5 48.5t81.5 64t58 63.5t32.5 50z" />
    <glyph glyph-name="aacute" unicode="&#xe1;" horiz-adv-x="1120" 
d="M956 1452l-262 -262h-123l183 262h202zM977 684l-82 -518q-6 -42 12 -58.5t64 -13.5l-17 -92q-29 -10 -63 -10q-77 0 -112.5 38t-20.5 115l14 72q-14 -23 -36 -48t-62.5 -59t-87 -60.5t-113.5 -45t-139 -18.5q-143 0 -228.5 71.5t-85.5 200.5q0 83 29 144t86.5 100.5
t129 62.5t169.5 37q12 2 65.5 9t76 10.5t69.5 11.5t74.5 14t60 15t54.5 18l2 14q24 147 -31 207t-199 60q-128 0 -197 -42t-98 -124h-139q41 146 147.5 213t294.5 67q217 0 306 -93.5t57 -297.5zM776 340l41 246q-66 -28 -381 -78q-140 -22 -205 -76.5t-65 -159.5
q0 -84 53.5 -131t149.5 -47q66 0 128.5 20t106.5 48.5t81.5 64t58 63.5t32.5 50z" />
    <glyph glyph-name="acircumflex" unicode="&#xe2;" horiz-adv-x="1120" 
d="M649 1374l-227 -184h-121l229 262h250l150 -262h-117zM977 684l-82 -518q-6 -42 12 -58.5t64 -13.5l-17 -92q-29 -10 -63 -10q-77 0 -112.5 38t-20.5 115l14 72q-14 -23 -36 -48t-62.5 -59t-87 -60.5t-113.5 -45t-139 -18.5q-143 0 -228.5 71.5t-85.5 200.5q0 83 29 144
t86.5 100.5t129 62.5t169.5 37q12 2 65.5 9t76 10.5t69.5 11.5t74.5 14t60 15t54.5 18l2 14q24 147 -31 207t-199 60q-128 0 -197 -42t-98 -124h-139q41 146 147.5 213t294.5 67q217 0 306 -93.5t57 -297.5zM776 340l41 246q-66 -28 -381 -78q-140 -22 -205 -76.5
t-65 -159.5q0 -84 53.5 -131t149.5 -47q66 0 128.5 20t106.5 48.5t81.5 64t58 63.5t32.5 50z" />
    <glyph glyph-name="atilde" unicode="&#xe3;" horiz-adv-x="1120" 
d="M446 1382q-54 0 -82 -27.5t-26 -62.5h-74q0 91 56.5 145t142.5 54q48 0 93 -23t75 -51t71 -51t82 -23q54 0 82.5 28t26.5 63h74q0 -91 -56.5 -144t-142.5 -53q-39 0 -75.5 15t-65 36.5t-55.5 42.5t-59.5 36t-66.5 15zM977 684l-82 -518q-6 -42 12 -58.5t64 -13.5l-17 -92
q-29 -10 -63 -10q-77 0 -112.5 38t-20.5 115l14 72q-14 -23 -36 -48t-62.5 -59t-87 -60.5t-113.5 -45t-139 -18.5q-143 0 -228.5 71.5t-85.5 200.5q0 83 29 144t86.5 100.5t129 62.5t169.5 37q12 2 65.5 9t76 10.5t69.5 11.5t74.5 14t60 15t54.5 18l2 14q24 147 -31 207
t-199 60q-128 0 -197 -42t-98 -124h-139q41 146 147.5 213t294.5 67q217 0 306 -93.5t57 -297.5zM776 340l41 246q-66 -28 -381 -78q-140 -22 -205 -76.5t-65 -159.5q0 -84 53.5 -131t149.5 -47q66 0 128.5 20t106.5 48.5t81.5 64t58 63.5t32.5 50z" />
    <glyph glyph-name="adieresis" unicode="&#xe4;" horiz-adv-x="1120" 
d="M539 1452l-27 -178h-154l27 178h154zM969 1452l-27 -178h-151l26 178h152zM977 684l-82 -518q-6 -42 12 -58.5t64 -13.5l-17 -92q-29 -10 -63 -10q-77 0 -112.5 38t-20.5 115l14 72q-14 -23 -36 -48t-62.5 -59t-87 -60.5t-113.5 -45t-139 -18.5q-143 0 -228.5 71.5
t-85.5 200.5q0 83 29 144t86.5 100.5t129 62.5t169.5 37q12 2 65.5 9t76 10.5t69.5 11.5t74.5 14t60 15t54.5 18l2 14q24 147 -31 207t-199 60q-128 0 -197 -42t-98 -124h-139q41 146 147.5 213t294.5 67q217 0 306 -93.5t57 -297.5zM776 340l41 246q-66 -28 -381 -78
q-140 -22 -205 -76.5t-65 -159.5q0 -84 53.5 -131t149.5 -47q66 0 128.5 20t106.5 48.5t81.5 64t58 63.5t32.5 50z" />
    <glyph glyph-name="aring" unicode="&#xe5;" horiz-adv-x="1120" 
d="M645 1190q-68 0 -112 43.5t-44 107.5q0 77 57 134t138 57q65 0 108.5 -44.5t43.5 -109.5q0 -75 -58 -131.5t-133 -56.5zM674 1456q-43 0 -76 -32t-33 -74q0 -36 24.5 -60t63.5 -24q40 0 72.5 32t32.5 74q0 36 -24 60t-60 24zM977 684l-82 -518q-6 -42 12 -58.5t64 -13.5
l-17 -92q-29 -10 -63 -10q-77 0 -112.5 38t-20.5 115l14 72q-14 -23 -36 -48t-62.5 -59t-87 -60.5t-113.5 -45t-139 -18.5q-143 0 -228.5 71.5t-85.5 200.5q0 83 29 144t86.5 100.5t129 62.5t169.5 37q12 2 65.5 9t76 10.5t69.5 11.5t74.5 14t60 15t54.5 18l2 14
q24 147 -31 207t-199 60q-128 0 -197 -42t-98 -124h-139q41 146 147.5 213t294.5 67q217 0 306 -93.5t57 -297.5zM776 340l41 246q-66 -28 -381 -78q-140 -22 -205 -76.5t-65 -159.5q0 -84 53.5 -131t149.5 -47q66 0 128.5 20t106.5 48.5t81.5 64t58 63.5t32.5 50z" />
    <glyph glyph-name="ae" unicode="&#xe6;" horiz-adv-x="1863" 
d="M1769 473h-829q-2 -18 -2 -53q0 -162 83 -241t224 -79q104 0 173.5 28.5t131.5 96.5h146q-88 -128 -198 -183.5t-267 -55.5q-150 0 -260 71t-150 207q-197 -276 -489 -276q-144 0 -229 68t-85 194q0 87 29.5 151t87 104.5t129.5 64t170 36.5q12 2 55 7t63.5 8t60.5 8.5
t64.5 10t56 11t55 14t42.5 15.5l3 12q25 148 -31 207t-199 59q-126 0 -195 -39.5t-98 -115.5h-139q40 141 147 206.5t295 65.5q300 0 357 -182q78 87 183.5 134.5t229.5 47.5q178 0 292 -109.5t114 -314.5q0 -33 -7 -91t-14 -87zM1372 961q-161 0 -271 -109.5t-147 -278.5
h693q8 41 8 93q0 141 -78 218t-205 77zM362 102q67 0 130 20t107 47t83.5 64t59 60.5t34.5 46.5l39 238q-63 -27 -350 -70q-25 -4 -37 -6q-262 -37 -262 -236q0 -78 51 -121t145 -43z" />
    <glyph glyph-name="ccedilla" unicode="&#xe7;" horiz-adv-x="1056" 
d="M465 106q118 0 196.5 50.5t131.5 152.5h139q-127 -301 -424 -321l-90 -99q73 10 131.5 -31.5t58.5 -117.5q0 -186 -305 -186v69q189 3 189 113q0 57 -48.5 75t-111.5 -14l-37 60l86 135q-154 22 -251 130.5t-97 295.5q0 133 42.5 253.5t117.5 209.5t184 141.5t235 52.5
q345 0 392 -325h-136q-20 106 -82.5 155t-177.5 49q-100 0 -183.5 -46.5t-137.5 -122.5t-83.5 -171t-29.5 -194q0 -154 81 -234t210 -80z" />
    <glyph glyph-name="egrave" unicode="&#xe8;" horiz-adv-x="1095" 
d="M702 1190h-127l-221 262h207zM1001 473h-829q-2 -18 -2 -53q0 -162 83 -241t224 -79q104 0 173.5 28.5t131.5 96.5h146q-88 -128 -198 -183.5t-267 -55.5q-91 0 -168.5 27t-136.5 79.5t-92 136t-33 189.5q0 182 73 331.5t207.5 237.5t302.5 88q178 0 292 -109.5
t114 -314.5q0 -33 -7 -91t-14 -87zM604 961q-161 0 -271 -109.5t-147 -278.5h693q8 41 8 93q0 141 -78 218t-205 77z" />
    <glyph glyph-name="eacute" unicode="&#xe9;" horiz-adv-x="1095" 
d="M971 1452l-262 -262h-123l182 262h203zM1001 473h-829q-2 -18 -2 -53q0 -162 83 -241t224 -79q104 0 173.5 28.5t131.5 96.5h146q-88 -128 -198 -183.5t-267 -55.5q-91 0 -168.5 27t-136.5 79.5t-92 136t-33 189.5q0 182 73 331.5t207.5 237.5t302.5 88q178 0 292 -109.5
t114 -314.5q0 -33 -7 -91t-14 -87zM604 961q-161 0 -271 -109.5t-147 -278.5h693q8 41 8 93q0 141 -78 218t-205 77z" />
    <glyph glyph-name="ecircumflex" unicode="&#xea;" horiz-adv-x="1095" 
d="M664 1374l-228 -184h-121l230 262h250l149 -262h-117zM1001 473h-829q-2 -18 -2 -53q0 -162 83 -241t224 -79q104 0 173.5 28.5t131.5 96.5h146q-88 -128 -198 -183.5t-267 -55.5q-91 0 -168.5 27t-136.5 79.5t-92 136t-33 189.5q0 182 73 331.5t207.5 237.5t302.5 88
q178 0 292 -109.5t114 -314.5q0 -33 -7 -91t-14 -87zM604 961q-161 0 -271 -109.5t-147 -278.5h693q8 41 8 93q0 141 -78 218t-205 77z" />
    <glyph glyph-name="edieresis" unicode="&#xeb;" horiz-adv-x="1095" 
d="M553 1452l-27 -178h-153l26 178h154zM983 1452l-27 -178h-151l26 178h152zM1001 473h-829q-2 -18 -2 -53q0 -162 83 -241t224 -79q104 0 173.5 28.5t131.5 96.5h146q-88 -128 -198 -183.5t-267 -55.5q-91 0 -168.5 27t-136.5 79.5t-92 136t-33 189.5q0 182 73 331.5
t207.5 237.5t302.5 88q178 0 292 -109.5t114 -314.5q0 -33 -7 -91t-14 -87zM604 961q-161 0 -271 -109.5t-147 -278.5h693q8 41 8 93q0 141 -78 218t-205 77z" />
    <glyph glyph-name="igrave" unicode="&#xec;" horiz-adv-x="356" 
d="M319 1190l-141 262h-207l222 -262h126zM176 1065h146l-168 -1065h-146z" />
    <glyph glyph-name="iacute" unicode="&#xed;" horiz-adv-x="356" 
d="M203 1190h123l262 262h-203zM176 1065h146l-168 -1065h-146z" />
    <glyph glyph-name="icircumflex" unicode="&#xee;" horiz-adv-x="356" 
d="M444 1190l-163 184l-228 -184h-121l230 262h250l149 -262h-117zM176 1065h146l-168 -1065h-146z" />
    <glyph glyph-name="idieresis" unicode="&#xef;" horiz-adv-x="356" 
d="M16 1452h154l-27 -178h-153zM449 1452h151l-27 -178h-151zM176 1065h146l-168 -1065h-146z" />
    <glyph glyph-name="eth" unicode="&#xf0;" horiz-adv-x="1148" 
d="M1032 1217l-155 -19q87 -153 124 -265.5t37 -232.5q0 -208 -68.5 -369.5t-204.5 -256t-321 -94.5q-180 0 -295.5 112.5t-115.5 315.5q0 134 38.5 253.5t108 209t175.5 142t233 52.5q176 0 270 -100q-48 119 -106 217l-234 -29l14 76l179 22q-76 119 -127 183h147
q51 -77 105 -166l208 26zM453 109q137 0 238 76t149.5 196.5t48.5 267.5q0 289 -289 289q-82 0 -151.5 -28t-119 -77t-84 -116t-51 -144.5t-16.5 -162.5q0 -149 77 -225t198 -76z" />
    <glyph glyph-name="ntilde" unicode="&#xf1;" horiz-adv-x="1112" 
d="M922 1434h73q0 -91 -56 -144t-142 -53q-39 0 -75.5 15t-65 36.5t-55.5 42.5t-59.5 36t-66.5 15q-54 0 -82 -27.5t-26 -62.5h-74q0 91 56.5 145t142.5 54q48 0 93 -23t75 -51t71 -51t82 -23q54 0 82.5 28t26.5 63zM688 1075q85 0 149 -22t111.5 -73t61.5 -133.5t-2 -203.5
l-103 -643h-145l102 645q12 87 4 146t-41.5 94t-78.5 50t-107 15t-120 -20.5t-100.5 -52t-78.5 -71.5t-57.5 -76.5t-34.5 -70.5l-105 -659h-145l168 1065h145l-39 -248q14 33 48 74t85.5 84t127 71.5t155.5 28.5z" />
    <glyph glyph-name="ograve" unicode="&#xf2;" horiz-adv-x="1112" 
d="M690 1190l-141 262h-207l221 -262h127zM614 1075q83 0 157.5 -27.5t134.5 -79.5t95 -137.5t35 -193.5q0 -175 -73 -323.5t-206.5 -238t-299.5 -89.5q-83 0 -158 27t-135 79t-95.5 137t-35.5 193q0 174 74 323.5t208 239.5t299 90zM897 635q0 155 -83 237t-208 82
q-127 0 -227.5 -76t-152.5 -195.5t-52 -256.5q0 -153 84 -236.5t207 -83.5q128 0 228.5 77t152 196.5t51.5 255.5z" />
    <glyph glyph-name="oacute" unicode="&#xf3;" horiz-adv-x="1112" 
d="M573 1190h123l262 262h-202zM614 1075q83 0 157.5 -27.5t134.5 -79.5t95 -137.5t35 -193.5q0 -175 -73 -323.5t-206.5 -238t-299.5 -89.5q-83 0 -158 27t-135 79t-95.5 137t-35.5 193q0 174 74 323.5t208 239.5t299 90zM897 635q0 155 -83 237t-208 82q-127 0 -227.5 -76
t-152.5 -195.5t-52 -256.5q0 -153 84 -236.5t207 -83.5q128 0 228.5 77t152 196.5t51.5 255.5z" />
    <glyph glyph-name="ocircumflex" unicode="&#xf4;" horiz-adv-x="1112" 
d="M815 1190l-164 184l-227 -184h-121l229 262h250l150 -262h-117zM614 1075q83 0 157.5 -27.5t134.5 -79.5t95 -137.5t35 -193.5q0 -175 -73 -323.5t-206.5 -238t-299.5 -89.5q-83 0 -158 27t-135 79t-95.5 137t-35.5 193q0 174 74 323.5t208 239.5t299 90zM897 635
q0 155 -83 237t-208 82q-127 0 -227.5 -76t-152.5 -195.5t-52 -256.5q0 -153 84 -236.5t207 -83.5q128 0 228.5 77t152 196.5t51.5 255.5z" />
    <glyph glyph-name="otilde" unicode="&#xf5;" horiz-adv-x="1112" 
d="M895 1434h74q0 -91 -56.5 -144t-142.5 -53q-48 0 -93 22.5t-75 50t-71 50t-82 22.5q-54 0 -82.5 -27.5t-26.5 -62.5h-74q0 91 56.5 145t142.5 54q48 0 93 -23t75 -51t71 -51t82 -23q54 0 82.5 28t26.5 63zM614 1075q83 0 157.5 -27.5t134.5 -79.5t95 -137.5t35 -193.5
q0 -175 -73 -323.5t-206.5 -238t-299.5 -89.5q-83 0 -158 27t-135 79t-95.5 137t-35.5 193q0 174 74 323.5t208 239.5t299 90zM897 635q0 155 -83 237t-208 82q-127 0 -227.5 -76t-152.5 -195.5t-52 -256.5q0 -153 84 -236.5t207 -83.5q128 0 228.5 77t152 196.5t51.5 255.5
z" />
    <glyph glyph-name="odieresis" unicode="&#xf6;" horiz-adv-x="1112" 
d="M387 1452h154l-27 -178h-154zM819 1452h152l-27 -178h-151zM614 1075q83 0 157.5 -27.5t134.5 -79.5t95 -137.5t35 -193.5q0 -175 -73 -323.5t-206.5 -238t-299.5 -89.5q-83 0 -158 27t-135 79t-95.5 137t-35.5 193q0 174 74 323.5t208 239.5t299 90zM897 635
q0 155 -83 237t-208 82q-127 0 -227.5 -76t-152.5 -195.5t-52 -256.5q0 -153 84 -236.5t207 -83.5q128 0 228.5 77t152 196.5t51.5 255.5z" />
    <glyph glyph-name="divide" unicode="&#xf7;" horiz-adv-x="870" 
d="M489 819q-34 0 -53.5 25t-13.5 59q3 26 25 45t49 19q32 0 52 -24.5t15 -57.5q-4 -28 -26 -47t-48 -19zM76 627h747l-18 -107h-746zM389 180q-34 0 -55 25t-15 59q4 26 26 44t48 18q34 0 54.5 -24t15.5 -56q-4 -27 -26.5 -46.5t-47.5 -19.5z" />
    <glyph glyph-name="oslash" unicode="&#xf8;" horiz-adv-x="1112" 
d="M883 987q153 -120 153 -350q0 -175 -73 -323.5t-206.5 -238t-299.5 -89.5q-104 0 -189 39l-80 -127h-131l117 184q-141 121 -141 340q0 174 74 323.5t208 239.5t299 90q96 0 172 -33l91 142h131zM174 426q0 -141 76 -227l469 735q-50 20 -113 20q-127 0 -227.5 -76
t-152.5 -195.5t-52 -256.5zM465 106q128 0 228.5 77t152 196.5t51.5 255.5q0 156 -86 239l-473 -741q58 -27 127 -27z" />
    <glyph glyph-name="ugrave" unicode="&#xf9;" horiz-adv-x="1114" 
d="M690 1190h-127l-221 262h207zM930 1065h145l-168 -1065h-145l39 246q-16 -34 -49.5 -74.5t-85 -83.5t-126 -71.5t-155.5 -28.5q-67 0 -121.5 14t-100 45.5t-71.5 81.5t-36 122t7 167l103 647h145l-102 -647q-48 -301 219 -301q75 0 144 29t118.5 74.5t83 91.5t51.5 89z
" />
    <glyph glyph-name="uacute" unicode="&#xfa;" horiz-adv-x="1114" 
d="M958 1452l-262 -262h-123l183 262h202zM930 1065h145l-168 -1065h-145l39 246q-16 -34 -49.5 -74.5t-85 -83.5t-126 -71.5t-155.5 -28.5q-67 0 -121.5 14t-100 45.5t-71.5 81.5t-36 122t7 167l103 647h145l-102 -647q-48 -301 219 -301q75 0 144 29t118.5 74.5t83 91.5
t51.5 89z" />
    <glyph glyph-name="ucircumflex" unicode="&#xfb;" horiz-adv-x="1114" 
d="M651 1374l-227 -184h-121l229 262h250l150 -262h-117zM930 1065h145l-168 -1065h-145l39 246q-16 -34 -49.5 -74.5t-85 -83.5t-126 -71.5t-155.5 -28.5q-67 0 -121.5 14t-100 45.5t-71.5 81.5t-36 122t7 167l103 647h145l-102 -647q-48 -301 219 -301q75 0 144 29
t118.5 74.5t83 91.5t51.5 89z" />
    <glyph glyph-name="udieresis" unicode="&#xfc;" horiz-adv-x="1114" 
d="M541 1452l-27 -178h-154l27 178h154zM971 1452l-27 -178h-151l26 178h152zM930 1065h145l-168 -1065h-145l39 246q-16 -34 -49.5 -74.5t-85 -83.5t-126 -71.5t-155.5 -28.5q-67 0 -121.5 14t-100 45.5t-71.5 81.5t-36 122t7 167l103 647h145l-102 -647q-48 -301 219 -301
q75 0 144 29t118.5 74.5t83 91.5t51.5 89z" />
    <glyph glyph-name="yacute" unicode="&#xfd;" horiz-adv-x="1050" 
d="M561 1190h123l262 262h-203zM930 1065h153l-651 -1163q-96 -173 -204.5 -239t-256.5 -44l21 123q199 -27 313 186q27 50 35 73t2 48l-248 1016h146l204 -899z" />
    <glyph glyph-name="thorn" unicode="&#xfe;" horiz-adv-x="1146" 
d="M682 1077q80 0 149.5 -26t124 -76.5t86 -133t31.5 -188.5q0 -179 -67 -331t-194 -246t-288 -94q-133 0 -218.5 64.5t-115.5 174.5l-96 -610h-145l287 1823h145l-92 -572q142 215 393 215zM506 102q79 0 148 31t119 84.5t86.5 123t54.5 148.5t18 160q0 153 -79 230
t-200 77q-100 0 -183.5 -45t-137 -120t-82.5 -171t-29 -200q0 -156 80 -237t205 -81z" />
    <glyph glyph-name="ydieresis" unicode="&#xff;" horiz-adv-x="1050" 
d="M375 1452h153l-26 -178h-154zM807 1452h151l-26 -178h-152zM930 1065h153l-651 -1163q-96 -173 -204.5 -239t-256.5 -44l21 123q199 -27 313 186q27 50 35 73t2 48l-248 1016h146l204 -899z" />
    <glyph glyph-name="Amacron" unicode="&#x100;" horiz-adv-x="1378" 
d="M1198 1821l-14 -95h-615l15 95h614zM1071 0l-86 381h-655l-207 -381h-166l797 1434h135l344 -1434h-162zM393 498h565l-165 735z" />
    <glyph glyph-name="amacron" unicode="&#x101;" horiz-adv-x="1120" 
d="M997 1452l-14 -94h-614l14 94h614zM614 1075q217 0 306 -93.5t57 -297.5l-82 -518q-6 -42 12 -58.5t64 -13.5l-17 -92q-29 -10 -63 -10q-77 0 -112.5 38t-20.5 115l14 72q-14 -23 -36 -48t-62.5 -59t-87 -60.5t-113.5 -45t-139 -18.5q-143 0 -228.5 71.5t-85.5 200.5
q0 83 29 144t86.5 100.5t129 62.5t169.5 37q12 2 65.5 9t76 10.5t69.5 11.5t74.5 14t60 15t54.5 18l2 14q24 147 -31 207t-199 60q-128 0 -197 -42t-98 -124h-139q41 146 147.5 213t294.5 67zM776 340l41 246q-66 -28 -381 -78q-140 -22 -205 -76.5t-65 -159.5
q0 -84 53.5 -131t149.5 -47q66 0 128.5 20t106.5 48.5t81.5 64t58 63.5t32.5 50z" />
    <glyph glyph-name="Abreve" unicode="&#x102;" horiz-adv-x="1378" 
d="M836 1565q-74 0 -127.5 21.5t-81 58.5t-37.5 81.5t-2 94.5h98q-5 -75 32.5 -115.5t127.5 -40.5q178 0 219 156h100q-19 -114 -99 -185t-230 -71zM1071 0l-86 381h-655l-207 -381h-166l797 1434h135l344 -1434h-162zM393 498h565l-165 735z" />
    <glyph glyph-name="abreve" unicode="&#x103;" horiz-adv-x="1120" 
d="M635 1196q-74 0 -127.5 21.5t-81 58.5t-37.5 81.5t-2 94.5h98q-5 -75 32.5 -115.5t127.5 -40.5q178 0 219 156h101q-19 -114 -99.5 -185t-230.5 -71zM977 684l-82 -518q-6 -42 12 -58.5t64 -13.5l-17 -92q-29 -10 -63 -10q-77 0 -112.5 38t-20.5 115l14 72
q-14 -23 -36 -48t-62.5 -59t-87 -60.5t-113.5 -45t-139 -18.5q-143 0 -228.5 71.5t-85.5 200.5q0 83 29 144t86.5 100.5t129 62.5t169.5 37q12 2 65.5 9t76 10.5t69.5 11.5t74.5 14t60 15t54.5 18l2 14q24 147 -31 207t-199 60q-128 0 -197 -42t-98 -124h-139
q41 146 147.5 213t294.5 67q217 0 306 -93.5t57 -297.5zM776 340l41 246q-66 -28 -381 -78q-140 -22 -205 -76.5t-65 -159.5q0 -84 53.5 -131t149.5 -47q66 0 128.5 20t106.5 48.5t81.5 64t58 63.5t32.5 50z" />
    <glyph glyph-name="Aogonek" unicode="&#x104;" horiz-adv-x="1378" 
d="M1186 0q-126 -41 -203 -107t-88 -141q-9 -61 37.5 -82.5t140.5 -1.5l-4 -78q-47 -20 -104.5 -23t-109 11.5t-81.5 57.5t-20 108q14 89 109 157.5t208 98.5l-86 381h-655l-207 -381h-166l797 1434h135l344 -1434h-47zM393 498h565l-165 735z" />
    <glyph glyph-name="aogonek" unicode="&#x105;" horiz-adv-x="1089" 
d="M977 684l-82 -518q-6 -42 12 -58.5t64 -13.5l-17 -92q-28 -8 -36 -8q-112 -42 -172 -103.5t-60 -130.5q0 -64 52.5 -88.5t144.5 -5.5v-74q-44 -19 -100.5 -23t-109.5 8.5t-89.5 53.5t-36.5 105t44.5 121t105.5 91.5t128 51.5h2q-92 29 -69 145l14 72q-14 -23 -36 -48
t-62.5 -59t-87 -60.5t-113.5 -45t-139 -18.5q-143 0 -228.5 71.5t-85.5 200.5q0 83 29 144t86.5 100.5t129 62.5t169.5 37q12 2 65.5 9t76 10.5t69.5 11.5t74.5 14t60 15t54.5 18l2 14q24 147 -31 207t-199 60q-128 0 -197 -42t-98 -124h-139q41 146 147.5 213t294.5 67
q217 0 306 -93.5t57 -297.5zM776 340l41 246q-66 -28 -381 -78q-140 -22 -205 -76.5t-65 -159.5q0 -84 53.5 -131t149.5 -47q66 0 128.5 20t106.5 48.5t81.5 64t58 63.5t32.5 50z" />
    <glyph glyph-name="Cacute" unicode="&#x106;" horiz-adv-x="1316" 
d="M766 1559h123l262 262h-203zM623 117q153 0 261.5 61.5t168.5 173.5h153q-70 -176 -232 -273t-374 -97q-242 0 -384 141t-142 414q0 181 52 345.5t146.5 291.5t241 202.5t322.5 75.5q210 0 340 -97t143 -272h-152q-22 111 -110.5 172.5t-241.5 61.5q-136 0 -249 -66.5
t-184 -176t-110 -245.5t-39 -280q0 -215 104.5 -323.5t285.5 -108.5z" />
    <glyph glyph-name="cacute" unicode="&#x107;" horiz-adv-x="1056" 
d="M561 1190h123l262 262h-203zM465 106q118 0 196.5 50.5t131.5 152.5h139q-49 -119 -125 -192.5t-160.5 -102t-189.5 -28.5q-86 0 -161.5 26.5t-134.5 77.5t-93.5 135.5t-34.5 192.5q0 133 42.5 253.5t117.5 209.5t184 141.5t235 52.5q345 0 392 -325h-136
q-20 106 -82.5 155t-177.5 49q-100 0 -183.5 -46.5t-137.5 -122.5t-83.5 -171t-29.5 -194q0 -154 81 -234t210 -80z" />
    <glyph glyph-name="Cdotaccent" unicode="&#x10a;" horiz-adv-x="1316" 
d="M799 1821h153l-26 -179h-154zM623 117q153 0 261.5 61.5t168.5 173.5h153q-70 -176 -232 -273t-374 -97q-242 0 -384 141t-142 414q0 181 52 345.5t146.5 291.5t241 202.5t322.5 75.5q210 0 340 -97t143 -272h-152q-22 111 -110.5 172.5t-241.5 61.5q-136 0 -249 -66.5
t-184 -176t-110 -245.5t-39 -280q0 -215 104.5 -323.5t285.5 -108.5z" />
    <glyph glyph-name="cdotaccent" unicode="&#x10b;" horiz-adv-x="1056" 
d="M594 1452h154l-27 -178h-154zM465 106q118 0 196.5 50.5t131.5 152.5h139q-49 -119 -125 -192.5t-160.5 -102t-189.5 -28.5q-86 0 -161.5 26.5t-134.5 77.5t-93.5 135.5t-34.5 192.5q0 133 42.5 253.5t117.5 209.5t184 141.5t235 52.5q345 0 392 -325h-136
q-20 106 -82.5 155t-177.5 49q-100 0 -183.5 -46.5t-137.5 -122.5t-83.5 -171t-29.5 -194q0 -154 81 -234t210 -80z" />
    <glyph glyph-name="Ccaron" unicode="&#x10c;" horiz-adv-x="1316" 
d="M1063 1821h121l-232 -262h-250l-147 262h115l166 -185zM623 117q153 0 261.5 61.5t168.5 173.5h153q-70 -176 -232 -273t-374 -97q-242 0 -384 141t-142 414q0 181 52 345.5t146.5 291.5t241 202.5t322.5 75.5q210 0 340 -97t143 -272h-152q-22 111 -110.5 172.5
t-241.5 61.5q-136 0 -249 -66.5t-184 -176t-110 -245.5t-39 -280q0 -215 104.5 -323.5t285.5 -108.5z" />
    <glyph glyph-name="ccaron" unicode="&#x10d;" horiz-adv-x="1056" 
d="M858 1452h121l-231 -262h-250l-148 262h115l166 -184zM465 106q118 0 196.5 50.5t131.5 152.5h139q-49 -119 -125 -192.5t-160.5 -102t-189.5 -28.5q-86 0 -161.5 26.5t-134.5 77.5t-93.5 135.5t-34.5 192.5q0 133 42.5 253.5t117.5 209.5t184 141.5t235 52.5
q345 0 392 -325h-136q-20 106 -82.5 155t-177.5 49q-100 0 -183.5 -46.5t-137.5 -122.5t-83.5 -171t-29.5 -194q0 -154 81 -234t210 -80z" />
    <glyph glyph-name="Dcaron" unicode="&#x10e;" horiz-adv-x="1306" 
d="M1026 1821h121l-232 -262h-249l-148 262h115l166 -185zM670 1434q289 0 437 -143t148 -410q0 -195 -54 -357t-154.5 -278.5t-252.5 -181t-341 -64.5h-433l226 1434h424zM451 139q161 0 286.5 55t205.5 155t121.5 235.5t41.5 300.5q0 209 -114.5 309t-346.5 100h-270
l-180 -1155h256z" />
    <glyph glyph-name="dcaron" unicode="&#x10f;" horiz-adv-x="1355" 
d="M588 1075q132 0 221 -66.5t117 -177.5l94 603h145l-227 -1434h-145l36 213q-69 -109 -170 -168t-227 -59q-81 0 -152 26.5t-126.5 77.5t-88 134t-32.5 188q0 132 40 252.5t111 211.5t176 145t228 54zM1167 1130h121l238 304h-178zM461 106q101 0 184.5 44t136.5 118
t82 169.5t29 201.5q0 156 -79.5 235.5t-203.5 79.5q-84 0 -155 -30t-122 -81t-86.5 -119.5t-53 -146t-17.5 -159.5q0 -152 80.5 -232t204.5 -80z" />
    <glyph glyph-name="Dcroat" unicode="&#x110;" horiz-adv-x="1351" 
d="M717 1434q289 0 437.5 -143t148.5 -410q0 -261 -93 -459t-276 -310t-434 -112h-432l104 659h-100l16 107h100l105 668h424zM498 139q161 0 286.5 55t205.5 155t121.5 235.5t41.5 300.5q0 209 -114.5 309t-346.5 100h-270l-82 -528h438l-16 -107h-438l-82 -520h256z" />
    <glyph glyph-name="dcroat" unicode="&#x111;" horiz-adv-x="1222" 
d="M1327 1321l-16 -94h-178l-195 -1227h-145l36 213q-69 -109 -170 -168t-227 -59q-81 0 -152 26.5t-126.5 77.5t-88 134t-32.5 188q0 132 40 252.5t111 211.5t176 145t228 54q132 0 221 -66.5t117 -177.5l61 396h-282l16 94h280l19 113h145l-18 -113h180zM461 106
q101 0 184.5 44t136.5 118t82 169.5t29 201.5q0 156 -79.5 235.5t-203.5 79.5q-84 0 -155 -30t-122 -81t-86.5 -119.5t-53 -146t-17.5 -159.5q0 -152 80.5 -232t204.5 -80z" />
    <glyph glyph-name="Emacron" unicode="&#x112;" horiz-adv-x="1116" 
d="M481 1821h615l-15 -95h-614zM1145 1298h-768l-80 -497h666l-21 -125h-666l-86 -541h791l-23 -135h-940l228 1434h919z" />
    <glyph glyph-name="emacron" unicode="&#x113;" horiz-adv-x="1095" 
d="M1012 1452l-15 -94h-614l14 94h615zM1001 473h-829q-2 -18 -2 -53q0 -162 83 -241t224 -79q104 0 173.5 28.5t131.5 96.5h146q-88 -128 -198 -183.5t-267 -55.5q-91 0 -168.5 27t-136.5 79.5t-92 136t-33 189.5q0 182 73 331.5t207.5 237.5t302.5 88q178 0 292 -109.5
t114 -314.5q0 -33 -7 -91t-14 -87zM604 961q-161 0 -271 -109.5t-147 -278.5h693q8 41 8 93q0 141 -78 218t-205 77z" />
    <glyph glyph-name="Edotaccent" unicode="&#x116;" horiz-adv-x="1116" 
d="M702 1821h154l-27 -179h-153zM1145 1298h-768l-80 -497h666l-21 -125h-666l-86 -541h791l-23 -135h-940l228 1434h919z" />
    <glyph glyph-name="edotaccent" unicode="&#x117;" horiz-adv-x="1095" 
d="M772 1452l-27 -178h-153l26 178h154zM1001 473h-829q-2 -18 -2 -53q0 -162 83 -241t224 -79q104 0 173.5 28.5t131.5 96.5h146q-88 -128 -198 -183.5t-267 -55.5q-91 0 -168.5 27t-136.5 79.5t-92 136t-33 189.5q0 182 73 331.5t207.5 237.5t302.5 88q178 0 292 -109.5
t114 -314.5q0 -33 -7 -91t-14 -87zM604 961q-161 0 -271 -109.5t-147 -278.5h693q8 41 8 93q0 141 -78 218t-205 77z" />
    <glyph glyph-name="Eogonek" unicode="&#x118;" horiz-adv-x="1124" 
d="M1145 1298h-768l-80 -497h666l-21 -125h-666l-86 -541h791l-23 -135h11q-129 -43 -208 -108.5t-89 -139.5q-9 -61 37.5 -82.5t142.5 -1.5l-6 -78q-47 -20 -104.5 -23t-109.5 11.5t-82 57.5t-20 108q14 89 103.5 157.5t197.5 98.5h-813l228 1434h919z" />
    <glyph glyph-name="eogonek" unicode="&#x119;" horiz-adv-x="1085" 
d="M608 1077q85 0 157 -25.5t128.5 -76t88.5 -133t32 -189.5q0 -53 -10 -131l-9 -45h-821q-2 -18 -2 -57q0 -158 84 -238t215 -80q186 0 305 125h148q-75 -114 -169 -171.5t-216 -69.5q-119 -41 -192 -105t-85 -135q-9 -61 38 -83t142 -3l-6 -76q-30 -13 -66.5 -19t-74.5 -5
t-72 13t-59 32t-36.5 54.5t-4.5 78.5q11 81 92 146t186 100q-160 19 -264 130t-104 306q0 132 43 252.5t118 209.5t183 142t231 53zM602 956q-154 0 -262 -105.5t-147 -268.5h675q6 40 6 77q0 147 -74 222t-198 75z" />
    <glyph glyph-name="Ecaron" unicode="&#x11a;" horiz-adv-x="1116" 
d="M967 1821h120l-231 -262h-250l-147 262h114l166 -185zM1145 1298h-768l-80 -497h666l-21 -125h-666l-86 -541h791l-23 -135h-940l228 1434h919z" />
    <glyph glyph-name="ecaron" unicode="&#x11b;" horiz-adv-x="1085" 
d="M754 1171h-250l-150 263h117l166 -185l225 185h121zM608 1077q85 0 157 -25.5t128.5 -76t88.5 -133t32 -189.5q0 -53 -10 -131l-9 -45h-821q-2 -18 -2 -57q0 -158 84 -238t215 -80q186 0 305 125h148q-87 -131 -200 -188t-267 -57q-85 0 -160 26.5t-134.5 79t-94.5 138
t-35 194.5q0 132 43 252.5t118 209.5t183 142t231 53zM602 956q-154 0 -262 -105.5t-147 -268.5h675q6 40 6 77q0 147 -74 222t-198 75z" />
    <glyph glyph-name="Gbreve" unicode="&#x11e;" horiz-adv-x="1359" 
d="M1079 1821h101q-19 -114 -99.5 -185t-230.5 -71q-74 0 -127.5 21.5t-81 58.5t-37.5 81.5t-2 94.5h98q-5 -75 32.5 -115.5t127.5 -40.5q178 0 219 156zM793 727h516l-13 -80q-54 -330 -227.5 -497.5t-464.5 -167.5q-244 0 -387 140t-143 410q0 146 32 282t96 251.5
t154 202t213.5 135.5t266.5 49q210 0 340 -97t143 -272h-152q-22 111 -110.5 172.5t-241.5 61.5q-112 0 -207.5 -43t-163.5 -117t-116 -172.5t-71.5 -209.5t-23.5 -228q0 -214 104.5 -322t287.5 -108q217 0 351 124t175 363h-377z" />
    <glyph glyph-name="gbreve" unicode="&#x11f;" horiz-adv-x="1144" 
d="M918 1452h100q-19 -114 -99.5 -185t-230.5 -71q-74 0 -127.5 21.5t-81 58.5t-37.5 81.5t-2 94.5h99q-5 -75 32 -115.5t127 -40.5q93 0 147 42.5t73 113.5zM1106 1065l-168 -1067q-71 -449 -559 -449q-145 0 -251.5 56t-145.5 151l98 54q34 -65 113 -101.5t188 -36.5
q177 0 280 79t134 263l34 199q-68 -109 -169.5 -167t-227.5 -58q-81 0 -151.5 26t-126.5 77t-88.5 133.5t-32.5 187.5q0 175 67.5 325.5t196 244t291.5 93.5q132 0 221.5 -66.5t116.5 -177.5l35 234h145zM461 109q101 0 184.5 44.5t136.5 119t82 169.5t29 199
q0 155 -79.5 234t-203.5 79q-84 0 -155 -30t-122 -82t-86.5 -121t-53 -146.5t-17.5 -158.5q0 -151 80 -229t205 -78z" />
    <glyph glyph-name="Gdotaccent" unicode="&#x120;" horiz-adv-x="1359" 
d="M819 1821h154l-27 -179h-153zM793 727h516l-13 -80q-54 -330 -227.5 -497.5t-464.5 -167.5q-244 0 -387 140t-143 410q0 146 32 282t96 251.5t154 202t213.5 135.5t266.5 49q210 0 340 -97t143 -272h-152q-22 111 -110.5 172.5t-241.5 61.5q-112 0 -207.5 -43
t-163.5 -117t-116 -172.5t-71.5 -209.5t-23.5 -228q0 -214 104.5 -322t287.5 -108q217 0 351 124t175 363h-377z" />
    <glyph glyph-name="gdotaccent" unicode="&#x121;" horiz-adv-x="1144" 
d="M657 1452h154l-27 -178h-153zM1106 1065l-168 -1067q-71 -449 -559 -449q-145 0 -251.5 56t-145.5 151l98 54q34 -65 113 -101.5t188 -36.5q177 0 280 79t134 263l34 199q-68 -109 -169.5 -167t-227.5 -58q-81 0 -151.5 26t-126.5 77t-88.5 133.5t-32.5 187.5
q0 175 67.5 325.5t196 244t291.5 93.5q132 0 221.5 -66.5t116.5 -177.5l35 234h145zM461 109q101 0 184.5 44.5t136.5 119t82 169.5t29 199q0 155 -79.5 234t-203.5 79q-84 0 -155 -30t-122 -82t-86.5 -121t-53 -146.5t-17.5 -158.5q0 -151 80 -229t205 -78z" />
    <glyph glyph-name="Gcommaaccent" unicode="&#x122;" horiz-adv-x="1359" 
d="M793 727h516l-13 -80q-54 -330 -227.5 -497.5t-464.5 -167.5q-244 0 -387 140t-143 410q0 146 32 282t96 251.5t154 202t213.5 135.5t266.5 49q210 0 340 -97t143 -272h-152q-22 111 -110.5 172.5t-241.5 61.5q-112 0 -207.5 -43t-163.5 -117t-116 -172.5t-71.5 -209.5
t-23.5 -228q0 -214 104.5 -322t287.5 -108q217 0 351 124t175 363h-377zM430 -584l8 52q46 22 69 62.5t34 115.5l8 61h-74l31 191h178l-39 -252q-36 -222 -215 -230z" />
    <glyph glyph-name="gcommaaccent" unicode="&#x123;" horiz-adv-x="1144" 
d="M797 1710l-9 -51q-45 -22 -68 -62.5t-34 -115.5l-8 -62h74l-31 -190h-178l39 252q36 221 215 229zM1106 1065l-168 -1067q-71 -449 -559 -449q-145 0 -251.5 56t-145.5 151l98 54q34 -65 113 -101.5t188 -36.5q177 0 280 79t134 263l34 199q-68 -109 -169.5 -167
t-227.5 -58q-81 0 -151.5 26t-126.5 77t-88.5 133.5t-32.5 187.5q0 175 67.5 325.5t196 244t291.5 93.5q132 0 221.5 -66.5t116.5 -177.5l35 234h145zM461 109q101 0 184.5 44.5t136.5 119t82 169.5t29 199q0 155 -79.5 234t-203.5 79q-84 0 -155 -30t-122 -82t-86.5 -121
t-53 -146.5t-17.5 -158.5q0 -151 80 -229t205 -78z" />
    <glyph glyph-name="Hbar" unicode="&#x126;" horiz-adv-x="1318" 
d="M1178 1434h151l-227 -1434h-152l101 637h-781l-100 -637h-152l228 1434h151l-53 -340h780zM291 764h780l35 213h-780z" />
    <glyph glyph-name="hbar" unicode="&#x127;" horiz-adv-x="1208" 
d="M784 1075q67 0 121.5 -13.5t100 -44.5t70.5 -80.5t35 -121.5t-7 -168l-103 -647h-145l102 649q26 165 -34 233t-189 68q-77 0 -146.5 -29.5t-117 -75.5t-79.5 -92t-48 -89l-104 -664h-146l182 1165h-145l14 92h146l28 177h146l-27 -177h228l-15 -92h-229l-53 -346
q11 26 33.5 57.5t61 67t84.5 64.5t108.5 48t127.5 19z" />
    <glyph glyph-name="Imacron" unicode="&#x12a;" horiz-adv-x="389" 
d="M88 1821h614l-14 -95h-614zM172 0h-152l226 1434h151z" />
    <glyph glyph-name="imacron" unicode="&#x12b;" horiz-adv-x="356" 
d="M14 1452h615l-15 -94h-614zM176 1065h146l-168 -1065h-146z" />
    <glyph glyph-name="Iogonek" unicode="&#x12e;" horiz-adv-x="442" 
d="M297 1434h154l-226 -1434h-37q-127 -41 -204 -107t-88 -141q-9 -61 37.5 -82.5t142.5 -1.5l-6 -78q-47 -20 -104.5 -23t-109.5 11.5t-82 57.5t-20 108q9 61 62.5 115.5t119 88t136.5 52.5z" />
    <glyph glyph-name="iogonek" unicode="&#x12f;" horiz-adv-x="446" 
d="M319 1452h154l-29 -178h-153zM80 0l168 1065h145l-168 -1065h-30q-126 -41 -203 -107t-88 -141q-9 -61 37.5 -82.5t140.5 -1.5l-4 -78q-47 -20 -104.5 -23t-109.5 11.5t-82 57.5t-20 108q9 61 62.5 115.5t119 88t136.5 52.5z" />
    <glyph glyph-name="Idotaccent" unicode="&#x130;" horiz-adv-x="389" 
d="M309 1821h154l-27 -179h-153zM172 0h-152l226 1434h151z" />
    <glyph glyph-name="dotlessi" unicode="&#x131;" horiz-adv-x="356" 
d="M176 1065h146l-168 -1065h-146z" />
    <glyph glyph-name="IJ" unicode="&#x132;" horiz-adv-x="1402" 
d="M172 0h-152l226 1434h151zM453 260q89 -137 292 -137q64 0 119.5 18.5t107 59t89 116t53.5 179.5l150 938h151l-149 -942q-17 -110 -55 -197t-88 -144.5t-114.5 -95t-133 -53.5t-144.5 -16q-267 0 -379 180z" />
    <glyph glyph-name="Kcommaaccent" unicode="&#x136;" horiz-adv-x="1288" 
d="M1325 1434l-713 -666l541 -768h-174l-475 668l-268 -250l-66 -418h-152l228 1434h151l-127 -807l871 807h184zM414 -313l28 184h193l-41 -250q-10 -65 -32.5 -110t-54.5 -68.5t-64 -33.5t-72 -13l4 51q41 24 60 63.5t32 118.5l10 58h-63z" />
    <glyph glyph-name="kcommaaccent" unicode="&#x137;" horiz-adv-x="1077" 
d="M1061 1065l-549 -483l444 -582h-161l-383 492l-207 -183l-49 -309h-146l226 1434h145l-148 -945l648 576h180zM319 -293l31 191h178l-39 -252q-36 -222 -215 -230l9 52q45 22 68 62.5t34 115.5l8 61h-74z" />
    <glyph glyph-name="Lacute" unicode="&#x139;" horiz-adv-x="1110" 
d="M272 1559h123l262 262h-202zM193 135h743l-23 -135h-895l228 1434h151z" />
    <glyph glyph-name="lacute" unicode="&#x13a;" horiz-adv-x="385" 
d="M264 1559h123l262 262h-203zM231 1434h146l-225 -1434h-146z" />
    <glyph glyph-name="Lcommaaccent" unicode="&#x13b;" horiz-adv-x="1110" 
d="M193 135h743l-23 -135h-895l228 1434h151zM299 -584l8 52q46 22 69 62.5t34 115.5l8 61h-74l31 191h178l-39 -252q-36 -222 -215 -230z" />
    <glyph glyph-name="lcommaaccent" unicode="&#x13c;" horiz-adv-x="409" 
d="M260 1434h146l-226 -1434h-145zM-80 -604l2 51q41 24 60.5 63.5t33.5 118.5l11 58h-66l29 184h192l-39 -250q-11 -65 -34 -110t-54.5 -68.5t-63.5 -33.5t-71 -13z" />
    <glyph glyph-name="Lcaron" unicode="&#x13d;" horiz-adv-x="1110" 
d="M193 135h743l-23 -135h-895l228 1434h151zM571 958v54q44 23 65 63.5t32 116.5l8 57h-64l29 185h193l-41 -250q-20 -122 -78.5 -170.5t-143.5 -55.5z" />
    <glyph glyph-name="lcaron" unicode="&#x13e;" horiz-adv-x="612" 
d="M236 1434h145l-225 -1434h-146zM428 958l2 54q42 23 62 62.5t32 117.5l11 57h-66l29 185h192l-39 -250q-11 -65 -34 -110t-55 -68.5t-63 -34t-71 -13.5z" />
    <glyph glyph-name="Lslash" unicode="&#x141;" horiz-adv-x="1183" 
d="M266 135h744l-23 -135h-895l80 506l-170 -156l21 156l176 160l120 768h152l-96 -607l276 252h4l-22 -151l-283 -258z" />
    <glyph glyph-name="lslash" unicode="&#x142;" horiz-adv-x="618" 
d="M653 1085l-24 -163l-242 -220l-111 -702h-145l86 549l-211 -191l25 164l213 193l112 719h146l-88 -566z" />
    <glyph glyph-name="Nacute" unicode="&#x143;" horiz-adv-x="1343" 
d="M774 1559h123l262 262h-203zM1354 1434l-228 -1434h-165l-596 1200h-5l-190 -1200h-152l228 1434h162l600 -1205h4l190 1205h152z" />
    <glyph glyph-name="nacute" unicode="&#x144;" horiz-adv-x="1112" 
d="M600 1190h123l262 262h-203zM688 1075q85 0 149 -22t111.5 -73t61.5 -133.5t-2 -203.5l-103 -643h-145l102 645q12 87 4 146t-41.5 94t-78.5 50t-107 15t-120 -20.5t-100.5 -52t-78.5 -71.5t-57.5 -76.5t-34.5 -70.5l-105 -659h-145l168 1065h145l-39 -248q14 33 48 74
t85.5 84t127 71.5t155.5 28.5z" />
    <glyph glyph-name="Ncommaaccent" unicode="&#x145;" horiz-adv-x="1343" 
d="M1354 1434l-228 -1434h-165l-596 1200h-5l-190 -1200h-152l228 1434h162l600 -1205h4l190 1205h152zM418 -584l8 52q45 22 68 62.5t34 115.5l9 61h-74l31 191h178l-39 -252q-36 -222 -215 -230z" />
    <glyph glyph-name="ncommaaccent" unicode="&#x146;" horiz-adv-x="1112" 
d="M688 1075q85 0 149 -22t111.5 -73t61.5 -133.5t-2 -203.5l-103 -643h-145l102 645q12 87 4 146t-41.5 94t-78.5 50t-107 15t-120 -20.5t-100.5 -52t-78.5 -71.5t-57.5 -76.5t-34.5 -70.5l-105 -659h-145l168 1065h145l-39 -248q14 33 48 74t85.5 84t127 71.5t155.5 28.5z
M303 -584l8 52q46 22 69 62.5t34 115.5l8 61h-74l31 191h178l-39 -252q-36 -222 -215 -230z" />
    <glyph glyph-name="Ncaron" unicode="&#x147;" horiz-adv-x="1343" 
d="M1071 1821h121l-231 -262h-250l-148 262h115l166 -185zM1354 1434l-228 -1434h-165l-596 1200h-5l-190 -1200h-152l228 1434h162l600 -1205h4l190 1205h152z" />
    <glyph glyph-name="ncaron" unicode="&#x148;" horiz-adv-x="1112" 
d="M897 1452h121l-232 -262h-249l-148 262h115l166 -184zM688 1075q85 0 149 -22t111.5 -73t61.5 -133.5t-2 -203.5l-103 -643h-145l102 645q12 87 4 146t-41.5 94t-78.5 50t-107 15t-120 -20.5t-100.5 -52t-78.5 -71.5t-57.5 -76.5t-34.5 -70.5l-105 -659h-145l168 1065
h145l-39 -248q14 33 48 74t85.5 84t127 71.5t155.5 28.5z" />
    <glyph glyph-name="Eng" unicode="&#x14a;" horiz-adv-x="1343" 
d="M1202 1434h152l-219 -1379q-22 -137 -74 -237.5t-125 -157.5t-156.5 -84t-179.5 -27q-266 0 -379 181l101 94q89 -137 292 -137q58 0 109 15t99.5 48t86.5 93t60 143l-604 1214h-5l-190 -1200h-152l228 1434h162l600 -1205h2l123 768z" />
    <glyph glyph-name="eng" unicode="&#x14b;" horiz-adv-x="1112" 
d="M688 1079q85 0 149 -22t111.5 -73t61.5 -133.5t-2 -203.5l-129 -817q-44 -281 -285 -281q-112 0 -188 56l22 119q67 -43 147 -43q134 0 162 180l125 788q12 87 4 146t-41.5 94t-78.5 50t-107 15q-77 0 -146.5 -30t-117 -77t-79.5 -93.5t-48 -89.5l-105 -664h-145
l168 1065h145l-39 -246q11 26 33.5 58t61.5 68t85 65.5t108.5 49t127.5 19.5z" />
    <glyph glyph-name="Omacron" unicode="&#x14c;" horiz-adv-x="1439" 
d="M635 1821h614l-14 -95h-614zM846 1452q247 0 392.5 -143t145.5 -408q0 -185 -53.5 -351t-150.5 -292.5t-244.5 -201t-325.5 -74.5q-247 0 -391.5 142.5t-144.5 405.5q0 148 33 285t98.5 253t157 201.5t216 134t267.5 48.5zM629 117q114 0 212 43t168 117t120 172.5
t74 210t24 229.5q0 209 -106.5 318.5t-293.5 109.5q-114 0 -211.5 -43t-167.5 -117.5t-119.5 -173.5t-73.5 -211.5t-24 -230.5q0 -208 105.5 -316t292.5 -108z" />
    <glyph glyph-name="omacron" unicode="&#x14d;" horiz-adv-x="1112" 
d="M385 1452h614l-14 -94h-614zM614 1075q83 0 157.5 -27.5t134.5 -79.5t95 -137.5t35 -193.5q0 -175 -73 -323.5t-206.5 -238t-299.5 -89.5q-83 0 -158 27t-135 79t-95.5 137t-35.5 193q0 174 74 323.5t208 239.5t299 90zM897 635q0 155 -83 237t-208 82q-127 0 -227.5 -76
t-152.5 -195.5t-52 -256.5q0 -153 84 -236.5t207 -83.5q128 0 228.5 77t152 196.5t51.5 255.5z" />
    <glyph glyph-name="Ohungarumlaut" unicode="&#x150;" horiz-adv-x="1439" 
d="M610 1559h127l221 262h-206zM936 1559h127l221 262h-207zM846 1452q247 0 392.5 -143t145.5 -408q0 -185 -53.5 -351t-150.5 -292.5t-244.5 -201t-325.5 -74.5q-247 0 -391.5 142.5t-144.5 405.5q0 148 33 285t98.5 253t157 201.5t216 134t267.5 48.5zM629 117
q114 0 212 43t168 117t120 172.5t74 210t24 229.5q0 209 -106.5 318.5t-293.5 109.5q-114 0 -211.5 -43t-167.5 -117.5t-119.5 -173.5t-73.5 -211.5t-24 -230.5q0 -208 105.5 -316t292.5 -108z" />
    <glyph glyph-name="ohungarumlaut" unicode="&#x151;" horiz-adv-x="1112" 
d="M360 1190h127l222 262h-207zM686 1190h127l221 262h-207zM614 1075q83 0 157.5 -27.5t134.5 -79.5t95 -137.5t35 -193.5q0 -175 -73 -323.5t-206.5 -238t-299.5 -89.5q-83 0 -158 27t-135 79t-95.5 137t-35.5 193q0 174 74 323.5t208 239.5t299 90zM897 635
q0 155 -83 237t-208 82q-127 0 -227.5 -76t-152.5 -195.5t-52 -256.5q0 -153 84 -236.5t207 -83.5q128 0 228.5 77t152 196.5t51.5 255.5z" />
    <glyph glyph-name="OE" unicode="&#x152;" horiz-adv-x="2203" 
d="M2234 1298h-768l-80 -497h666l-20 -125h-666l-86 -541h791l-23 -135h-940l33 211q-210 -229 -531 -229q-247 0 -391.5 142.5t-144.5 405.5q0 148 33 285t98.5 253t157 201.5t216 134t267.5 48.5q156 0 273 -57t184 -168l32 207h920zM629 117q114 0 212 43t168 117
t120 172.5t74 210t24 229.5q0 209 -106.5 318.5t-293.5 109.5q-114 0 -211.5 -43t-167.5 -117.5t-119.5 -173.5t-73.5 -211.5t-24 -230.5q0 -208 105.5 -316t292.5 -108z" />
    <glyph glyph-name="oe" unicode="&#x153;" horiz-adv-x="1937" 
d="M1018 473q0 -6 -4 -14v-39q0 -162 83 -241t224 -79q104 0 173.5 28.5t131.5 96.5h146q-88 -128 -198 -183.5t-267 -55.5q-139 0 -244.5 61.5t-151.5 179.5q-80 -112 -197.5 -176.5t-256.5 -64.5q-83 0 -158 27t-135 79t-95.5 137t-35.5 193q0 174 74 323.5t208 239.5
t299 90q127 0 231.5 -62t153.5 -179q80 113 199 177t262 64q178 0 292 -109.5t114 -314.5q0 -33 -7 -91t-14 -87h-827zM1448 961q-157 0 -265.5 -103t-148.5 -264v-21h688q9 47 9 93q0 141 -78 218t-205 77zM465 106q155 0 265 107t149 270q8 74 16 109q2 14 2 43
q0 155 -83 237t-208 82q-127 0 -227.5 -76t-152.5 -195.5t-52 -256.5q0 -153 84 -236.5t207 -83.5z" />
    <glyph glyph-name="Racute" unicode="&#x154;" horiz-adv-x="1267" 
d="M1120 1821l-262 -262h-123l183 262h202zM924 666q194 -50 194 -228q0 -35 -20.5 -172t-20.5 -178q0 -60 19 -88h-152q-18 27 -18 88q0 42 18.5 167.5t18.5 162.5q0 176 -230 176h-469l-94 -594h-152l228 1434h555q213 0 318.5 -85t105.5 -241t-82 -274t-219 -168z
M715 719q161 0 257.5 105t96.5 257q0 217 -291 217h-401l-92 -579h430z" />
    <glyph glyph-name="racute" unicode="&#x155;" horiz-adv-x="745" 
d="M772 1452l-262 -262h-123l182 262h203zM268 786q39 121 152 205t264 84q40 0 80 -6l-21 -127q-27 2 -67 2q-165 -1 -276 -92t-160 -246l-97 -606h-145l168 1065h145z" />
    <glyph glyph-name="Rcommaaccent" unicode="&#x156;" horiz-adv-x="1267" 
d="M924 666q194 -50 194 -228q0 -35 -20.5 -172t-20.5 -178q0 -60 19 -88h-152q-18 27 -18 88q0 42 18.5 167.5t18.5 162.5q0 176 -230 176h-469l-94 -594h-152l228 1434h555q213 0 318.5 -85t105.5 -241t-82 -274t-219 -168zM715 719q161 0 257.5 105t96.5 257
q0 217 -291 217h-401l-92 -579h430zM424 -293l31 191h178l-39 -252q-36 -222 -215 -230l8 52q45 22 68 62.5t34 115.5l9 61h-74z" />
    <glyph glyph-name="rcommaaccent" unicode="&#x157;" horiz-adv-x="745" 
d="M684 1075q40 0 80 -6l-21 -127q-27 2 -67 2q-165 -1 -276 -92t-160 -246l-97 -606h-145l168 1065h145l-43 -279q39 121 152 205t264 84zM-61 -293l30 191h178l-38 -252q-36 -222 -215 -230l8 52q45 22 68 62.5t34 115.5l8 61h-73z" />
    <glyph glyph-name="Rcaron" unicode="&#x158;" horiz-adv-x="1267" 
d="M922 1559h-250l-148 262h115l166 -185l227 185h121zM924 666q194 -50 194 -228q0 -35 -20.5 -172t-20.5 -178q0 -60 19 -88h-152q-18 27 -18 88q0 42 18.5 167.5t18.5 162.5q0 176 -230 176h-469l-94 -594h-152l228 1434h555q213 0 318.5 -85t105.5 -241t-82 -274
t-219 -168zM715 719q161 0 257.5 105t96.5 257q0 217 -291 217h-401l-92 -579h430z" />
    <glyph glyph-name="rcaron" unicode="&#x159;" horiz-adv-x="745" 
d="M573 1190h-249l-148 262h115l166 -184l227 184h121zM268 786q39 121 152 205t264 84q40 0 80 -6l-21 -127q-27 2 -67 2q-165 -1 -276 -92t-160 -246l-97 -606h-145l168 1065h145z" />
    <glyph glyph-name="Sacute" unicode="&#x15a;" horiz-adv-x="1228" 
d="M700 1559h123l262 262h-202zM748 782q186 -39 277 -118t91 -230q0 -140 -75.5 -243t-207 -156t-301.5 -53q-247 0 -368.5 117.5t-112.5 310.5h158q4 -297 338 -297q184 0 295.5 83.5t111.5 225.5q0 55 -18 95.5t-53 67t-75 42t-97 28.5l-203 45q-324 71 -324 328
q0 190 141.5 307t399.5 117q223 0 338.5 -101t110.5 -272h-154q-3 109 -77.5 176.5t-233.5 67.5q-178 0 -272.5 -78.5t-94.5 -200.5q0 -89 51 -143t166 -78z" />
    <glyph glyph-name="sacute" unicode="&#x15b;" horiz-adv-x="978" 
d="M526 1190h123l262 262h-202zM786 799q-28 162 -251 162q-130 0 -206.5 -55.5t-76.5 -141.5q0 -61 38 -98t126 -58l162 -39q59 -15 96 -26.5t76.5 -31t61.5 -42t36 -56.5t14 -79q0 -90 -38.5 -158.5t-105.5 -109t-148.5 -60.5t-174.5 -20q-184 0 -291.5 80t-101.5 239h135
q3 -111 75 -159t189 -48q134 0 225 56.5t91 164.5q0 63 -42 94t-130 52l-183 45q-126 31 -189.5 92.5t-63.5 159.5q0 141 122.5 227t311.5 86q168 0 266.5 -71t108.5 -205h-132z" />
    <glyph glyph-name="Scedilla" unicode="&#x15e;" horiz-adv-x="1228" 
d="M709 1323q-178 0 -272.5 -78.5t-94.5 -200.5q0 -89 51 -143t166 -78l189 -41q186 -39 277 -118t91 -230q0 -195 -143 -315t-375 -135l-88 -95q73 10 131.5 -31.5t58.5 -117.5q0 -186 -305 -186v69q189 3 189 113q0 57 -48.5 75t-111.5 -14l-37 60l80 127
q-214 17 -319.5 132t-96.5 294h158q4 -297 338 -297q184 0 295.5 83.5t111.5 225.5q0 55 -18 95.5t-53 67t-75 42t-97 28.5l-203 45q-324 71 -324 328q0 190 141.5 307t399.5 117q223 0 338.5 -101t110.5 -272h-154q-3 109 -77.5 176.5t-233.5 67.5z" />
    <glyph glyph-name="scedilla" unicode="&#x15f;" horiz-adv-x="978" 
d="M578 569q59 -15 96 -26.5t76.5 -31t61.5 -42t36 -56.5t14 -79q0 -157 -111.5 -243t-283.5 -101l-92 -101q73 10 131.5 -31.5t58.5 -117.5q0 -186 -305 -186v69q189 3 189 113q0 57 -48.5 75t-111.5 -14l-37 60l84 131q-159 13 -249.5 92.5t-84.5 224.5h135
q3 -111 75 -159t189 -48q134 0 225 56.5t91 164.5q0 63 -42 94t-130 52l-183 45q-126 31 -189.5 92.5t-63.5 159.5q0 141 122.5 227t311.5 86q168 0 266.5 -71t108.5 -205h-132q-28 162 -251 162q-130 0 -206.5 -55.5t-76.5 -141.5q0 -61 38 -98t126 -58z" />
    <glyph glyph-name="Scaron" unicode="&#x160;" horiz-adv-x="1228" 
d="M997 1821h121l-231 -262h-250l-148 262h115l166 -185zM748 782q186 -39 277 -118t91 -230q0 -140 -75.5 -243t-207 -156t-301.5 -53q-247 0 -368.5 117.5t-112.5 310.5h158q4 -297 338 -297q184 0 295.5 83.5t111.5 225.5q0 55 -18 95.5t-53 67t-75 42t-97 28.5l-203 45
q-324 71 -324 328q0 190 141.5 307t399.5 117q223 0 338.5 -101t110.5 -272h-154q-3 109 -77.5 176.5t-233.5 67.5q-178 0 -272.5 -78.5t-94.5 -200.5q0 -89 51 -143t166 -78z" />
    <glyph glyph-name="scaron" unicode="&#x161;" horiz-adv-x="978" 
d="M823 1452h121l-231 -262h-250l-148 262h115l166 -184zM786 799q-28 162 -251 162q-130 0 -206.5 -55.5t-76.5 -141.5q0 -61 38 -98t126 -58l162 -39q59 -15 96 -26.5t76.5 -31t61.5 -42t36 -56.5t14 -79q0 -90 -38.5 -158.5t-105.5 -109t-148.5 -60.5t-174.5 -20
q-184 0 -291.5 80t-101.5 239h135q3 -111 75 -159t189 -48q134 0 225 56.5t91 164.5q0 63 -42 94t-130 52l-183 45q-126 31 -189.5 92.5t-63.5 159.5q0 141 122.5 227t311.5 86q168 0 266.5 -71t108.5 -205h-132z" />
    <glyph glyph-name="uni0162" unicode="&#x162;" horiz-adv-x="1179" 
d="M184 1434h1065l-20 -136h-457l-207 -1298h10l-124 -111q72 5 122 -39t37 -120q-8 -52 -37 -88t-75 -55.5t-98 -27.5t-119 -8l6 70q94 1 147 33t62 88q10 54 -35 69t-111 -18l-33 62l107 145h-10l207 1298h-457z" />
    <glyph glyph-name="uni0163" unicode="&#x163;" horiz-adv-x="638" 
d="M397 946l-118 -756q-6 -44 10.5 -61.5t62.5 -17.5q70 0 142 16l-19 -119q-57 -17 -110 -20l-91 -99q73 10 132 -31.5t59 -117.5q0 -186 -305 -186v69q188 3 188 113q0 57 -48.5 75t-111.5 -14l-36 60l86 137q-130 27 -103 199l119 753h-166l16 119h168l43 266h144
l-43 -266h217l-19 -119h-217z" />
    <glyph glyph-name="Tcaron" unicode="&#x164;" horiz-adv-x="1179" 
d="M965 1821h120l-231 -262h-250l-147 262h114l166 -185zM1249 1434l-20 -136h-457l-207 -1298h-151l207 1298h-457l20 136h1065z" />
    <glyph glyph-name="tcaron" unicode="&#x165;" horiz-adv-x="612" 
d="M877 1434l-256 -304h-117l190 304h183zM459 1331l-43 -266h217l-19 -119h-217l-118 -756q-6 -44 10.5 -61.5t62.5 -17.5q70 0 142 16l-19 -119q-67 -22 -164 -22q-98 0 -146.5 46t-29.5 161l119 753h-166l16 119h168l43 266h144z" />
    <glyph glyph-name="Tbar" unicode="&#x166;" horiz-adv-x="1179" 
d="M1229 1298h-457l-39 -245h230l-13 -95h-231l-154 -958h-151l153 958h-231l14 95h232l39 245h-457l20 136h1065z" />
    <glyph glyph-name="tbar" unicode="&#x167;" horiz-adv-x="641" 
d="M614 946h-217l-24 -155h217l-19 -119h-217l-75 -482q-6 -44 10.5 -61.5t62.5 -17.5q70 0 142 16l-19 -119q-67 -22 -164 -22q-98 0 -146.5 46t-29.5 161l76 479h-166l16 119h168l25 155h-166l16 119h168l43 266h144l-43 -266h217z" />
    <glyph glyph-name="Utilde" unicode="&#x168;" horiz-adv-x="1329" 
d="M1090 1802h73q0 -91 -56 -143.5t-142 -52.5q-39 0 -75.5 15t-65 36t-55.5 42.5t-59.5 36.5t-66.5 15q-54 0 -82 -27.5t-26 -62.5h-74q0 91 56 145t142 54q39 0 75.5 -15t65 -37t55.5 -44t59.5 -37t66.5 -15q54 0 82.5 27.5t26.5 62.5zM1337 1434l-139 -885
q-41 -262 -212 -411.5t-423 -149.5t-375 149t-82 412l140 885h151l-139 -879q-32 -206 52 -319t274 -113q187 0 309 113t156 319l137 879h151z" />
    <glyph glyph-name="utilde" unicode="&#x169;" horiz-adv-x="1114" 
d="M449 1382q-54 0 -82.5 -27.5t-26.5 -62.5h-74q0 91 56.5 145t142.5 54q48 0 93 -23t75 -51t71 -51t82 -23q54 0 82.5 28t26.5 63h74q0 -91 -56.5 -144t-142.5 -53q-48 0 -93 22.5t-75 50t-71 50t-82 22.5zM930 1065h145l-168 -1065h-145l39 246q-16 -34 -49.5 -74.5
t-85 -83.5t-126 -71.5t-155.5 -28.5q-67 0 -121.5 14t-100 45.5t-71.5 81.5t-36 122t7 167l103 647h145l-102 -647q-48 -301 219 -301q75 0 144 29t118.5 74.5t83 91.5t51.5 89z" />
    <glyph glyph-name="Umacron" unicode="&#x16a;" horiz-adv-x="1329" 
d="M580 1821h614l-14 -95h-615zM1337 1434l-139 -885q-41 -262 -212 -411.5t-423 -149.5t-375 149t-82 412l140 885h151l-139 -879q-32 -206 52 -319t274 -113q187 0 309 113t156 319l137 879h151z" />
    <glyph glyph-name="umacron" unicode="&#x16b;" horiz-adv-x="1114" 
d="M999 1452l-14 -94h-614l14 94h614zM930 1065h145l-168 -1065h-145l39 246q-16 -34 -49.5 -74.5t-85 -83.5t-126 -71.5t-155.5 -28.5q-67 0 -121.5 14t-100 45.5t-71.5 81.5t-36 122t7 167l103 647h145l-102 -647q-48 -301 219 -301q75 0 144 29t118.5 74.5t83 91.5
t51.5 89z" />
    <glyph glyph-name="Ubreve" unicode="&#x16c;" horiz-adv-x="1329" 
d="M1061 1821h100q-19 -114 -99.5 -185t-230.5 -71q-74 0 -127.5 21.5t-81 58.5t-37 81.5t-1.5 94.5h98q-5 -75 32.5 -115.5t127.5 -40.5q178 0 219 156zM1337 1434l-139 -885q-41 -262 -212 -411.5t-423 -149.5t-375 149t-82 412l140 885h151l-139 -879q-32 -206 52 -319
t274 -113q187 0 309 113t156 319l137 879h151z" />
    <glyph glyph-name="ubreve" unicode="&#x16d;" horiz-adv-x="1114" 
d="M637 1196q-74 0 -127.5 21.5t-81 58.5t-37.5 81.5t-2 94.5h98q-5 -75 32.5 -115.5t127.5 -40.5q178 0 219 156h101q-19 -114 -99.5 -185t-230.5 -71zM930 1065h145l-168 -1065h-145l39 246q-16 -34 -49.5 -74.5t-85 -83.5t-126 -71.5t-155.5 -28.5q-67 0 -121.5 14
t-100 45.5t-71.5 81.5t-36 122t7 167l103 647h145l-102 -647q-48 -301 219 -301q75 0 144 29t118.5 74.5t83 91.5t51.5 89z" />
    <glyph glyph-name="Uring" unicode="&#x16e;" horiz-adv-x="1329" 
d="M842 1559q-68 0 -112 43.5t-44 107.5q0 77 57 134t138 57q65 0 108 -44.5t43 -109.5q0 -75 -57.5 -131.5t-132.5 -56.5zM850 1634q40 0 72 32.5t32 74.5q0 36 -24 60t-60 24q-43 0 -75.5 -32t-32.5 -75q0 -36 24.5 -60t63.5 -24zM1337 1434l-139 -885
q-41 -262 -212 -411.5t-423 -149.5t-375 149t-82 412l140 885h151l-139 -879q-32 -206 52 -319t274 -113q187 0 309 113t156 319l137 879h151z" />
    <glyph glyph-name="uring" unicode="&#x16f;" horiz-adv-x="1114" 
d="M647 1190q-68 0 -111.5 43.5t-43.5 107.5q0 77 56.5 134t137.5 57q65 0 108.5 -44.5t43.5 -109.5q0 -75 -58 -131.5t-133 -56.5zM676 1456q-43 0 -76 -32t-33 -74q0 -36 24.5 -60t63.5 -24q40 0 72.5 32t32.5 74q0 36 -24 60t-60 24zM930 1065h145l-168 -1065h-145
l39 246q-16 -34 -49.5 -74.5t-85 -83.5t-126 -71.5t-155.5 -28.5q-67 0 -121.5 14t-100 45.5t-71.5 81.5t-36 122t7 167l103 647h145l-102 -647q-48 -301 219 -301q75 0 144 29t118.5 74.5t83 91.5t51.5 89z" />
    <glyph glyph-name="Uhungarumlaut" unicode="&#x170;" horiz-adv-x="1329" 
d="M555 1559h127l221 262h-207zM881 1559h127l221 262h-207zM1337 1434l-139 -885q-41 -262 -212 -411.5t-423 -149.5t-375 149t-82 412l140 885h151l-139 -879q-32 -206 52 -319t274 -113q187 0 309 113t156 319l137 879h151z" />
    <glyph glyph-name="uhungarumlaut" unicode="&#x171;" horiz-adv-x="1114" 
d="M709 1452l-222 -262h-127l142 262h207zM813 1190h-127l141 262h207zM930 1065h145l-168 -1065h-145l39 246q-16 -34 -49.5 -74.5t-85 -83.5t-126 -71.5t-155.5 -28.5q-67 0 -121.5 14t-100 45.5t-71.5 81.5t-36 122t7 167l103 647h145l-102 -647q-48 -301 219 -301
q75 0 144 29t118.5 74.5t83 91.5t51.5 89z" />
    <glyph glyph-name="Uogonek" unicode="&#x172;" horiz-adv-x="1329" 
d="M1186 1434h151l-139 -885q-35 -226 -169 -370t-337 -181h29q-128 -41 -205.5 -106t-87.5 -140q-9 -61 38.5 -82.5t141.5 -1.5l-6 -78q-30 -13 -66.5 -19t-74.5 -5t-72 13t-59 32t-36.5 54.5t-4.5 78.5q11 80 88 144t180 100q-249 2 -370.5 151t-80.5 410l140 885h151
l-139 -879q-32 -206 52 -319t274 -113q187 0 309 113t156 319z" />
    <glyph glyph-name="uogonek" unicode="&#x173;" horiz-adv-x="1114" 
d="M1075 1065l-168 -1065h-90l57 -2q-127 -41 -204 -106t-88 -140q-9 -61 38.5 -82.5t141.5 -1.5l-6 -78q-36 -16 -81 -22t-90 1t-80.5 26t-54 57.5t-10.5 91.5q14 89 109.5 158.5t208.5 99.5h4l39 244q-16 -34 -49.5 -74.5t-85 -83t-126 -70.5t-155.5 -28q-85 0 -149 22
t-112.5 72.5t-62.5 132t2 201.5l103 647h145l-102 -647q-48 -299 219 -299q76 0 146 30t118.5 76.5t81.5 93t49 89.5l-20 -154l127 811h145z" />
    <glyph glyph-name="Wcircumflex" unicode="&#x174;" horiz-adv-x="2041" 
d="M1337 1559l-163 184l-228 -184h-121l230 262h250l149 -262h-117zM1944 1434h159l-641 -1434h-145l-203 1219l-594 -1219h-145l-191 1434h158l143 -1211l578 1211h160l190 -1211z" />
    <glyph glyph-name="wcircumflex" unicode="&#x175;" horiz-adv-x="1607" 
d="M1083 1190l-163 184l-228 -184h-121l230 262h250l149 -262h-117zM1640 1065l-485 -1065h-141l-174 885l-457 -885h-139l-150 1065h146l112 -887l451 887h121l170 -887l397 887h149z" />
    <glyph glyph-name="Ycircumflex" unicode="&#x176;" horiz-adv-x="1327" 
d="M1008 1559l-164 184l-228 -184h-120l229 262h250l149 -262h-116zM735 565l-90 -565h-153l90 565l-398 869h168l320 -721l545 721h172z" />
    <glyph glyph-name="ycircumflex" unicode="&#x177;" horiz-adv-x="1050" 
d="M803 1190l-164 184l-227 -184h-121l229 262h250l150 -262h-117zM930 1065h153l-651 -1163q-96 -173 -204.5 -239t-256.5 -44l21 123q199 -27 313 186q27 50 35 73t2 48l-248 1016h146l204 -899z" />
    <glyph glyph-name="Ydieresis" unicode="&#x178;" horiz-adv-x="1327" 
d="M580 1821h153l-26 -179h-154zM1012 1821h151l-26 -179h-152zM735 565l-90 -565h-153l90 565l-398 869h168l320 -721l545 721h172z" />
    <glyph glyph-name="Zacute" unicode="&#x179;" horiz-adv-x="1224" 
d="M698 1559h123l262 262h-202zM1079 135l-22 -135h-1080l19 125l1079 1173h-866l20 136h1047l-21 -125l-1077 -1174h901z" />
    <glyph glyph-name="zacute" unicode="&#x17a;" horiz-adv-x="999" 
d="M512 1190h123l262 262h-203zM160 125h682l-21 -125h-852l19 125l813 815h-662l19 125h831l-18 -125z" />
    <glyph glyph-name="Zdotaccent" unicode="&#x17b;" horiz-adv-x="1224" 
d="M731 1821h154l-27 -179h-153zM1079 135l-22 -135h-1080l19 125l1079 1173h-866l20 136h1047l-21 -125l-1077 -1174h901z" />
    <glyph glyph-name="zdotaccent" unicode="&#x17c;" horiz-adv-x="999" 
d="M545 1452h153l-26 -178h-154zM160 125h682l-21 -125h-852l19 125l813 815h-662l19 125h831l-18 -125z" />
    <glyph glyph-name="Zcaron" unicode="&#x17d;" horiz-adv-x="1224" 
d="M995 1821h121l-231 -262h-250l-148 262h115l166 -185zM1079 135l-22 -135h-1080l19 125l1079 1173h-866l20 136h1047l-21 -125l-1077 -1174h901z" />
    <glyph glyph-name="zcaron" unicode="&#x17e;" horiz-adv-x="999" 
d="M809 1452h121l-232 -262h-249l-148 262h115l166 -184zM160 125h682l-21 -125h-852l19 125l813 815h-662l19 125h831l-18 -125z" />
    <glyph glyph-name="florin" unicode="&#x192;" horiz-adv-x="602" 
d="M639 1315q-90 0 -145 -51.5t-74 -171.5l-35 -215h180l-20 -127h-180l-129 -816q-29 -184 -125.5 -256t-253.5 -67l18 127q88 0 145 54.5t74 168.5l125 789h-164l21 127h164l39 241q28 181 122 256t258 70z" />
    <glyph glyph-name="uni01CD" unicode="&#x1cd;" horiz-adv-x="1378" 
d="M958 1559h-249l-148 262h115l166 -185l227 185h121zM1071 0l-86 381h-655l-207 -381h-166l797 1434h135l344 -1434h-162zM393 498h565l-165 735z" />
    <glyph glyph-name="uni01CE" unicode="&#x1ce;" horiz-adv-x="1120" 
d="M758 1190h-250l-148 262h115l166 -184l227 184h121zM614 1075q217 0 306 -93.5t57 -297.5l-82 -518q-6 -42 12 -58.5t64 -13.5l-17 -92q-29 -10 -63 -10q-77 0 -112.5 38t-20.5 115l14 72q-14 -23 -36 -48t-62.5 -59t-87 -60.5t-113.5 -45t-139 -18.5q-143 0 -228.5 71.5
t-85.5 200.5q0 83 29 144t86.5 100.5t129 62.5t169.5 37q12 2 65.5 9t76 10.5t69.5 11.5t74.5 14t60 15t54.5 18l2 14q24 147 -31 207t-199 60q-128 0 -197 -42t-98 -124h-139q41 146 147.5 213t294.5 67zM776 340l41 246q-66 -28 -381 -78q-140 -22 -205 -76.5t-65 -159.5
q0 -84 53.5 -131t149.5 -47q66 0 128.5 20t106.5 48.5t81.5 64t58 63.5t32.5 50z" />
    <glyph glyph-name="uni01CF" unicode="&#x1cf;" horiz-adv-x="389" 
d="M573 1821h121l-231 -262h-250l-147 262h114l166 -185zM172 0h-152l226 1434h151z" />
    <glyph glyph-name="uni01D0" unicode="&#x1d0;" horiz-adv-x="356" 
d="M500 1452h121l-232 -262h-250l-147 262h114l166 -184zM176 1065h146l-168 -1065h-146z" />
    <glyph glyph-name="uni01D1" unicode="&#x1d1;" horiz-adv-x="1439" 
d="M1120 1821h121l-231 -262h-250l-148 262h115l166 -185zM846 1452q247 0 392.5 -143t145.5 -408q0 -185 -53.5 -351t-150.5 -292.5t-244.5 -201t-325.5 -74.5q-247 0 -391.5 142.5t-144.5 405.5q0 148 33 285t98.5 253t157 201.5t216 134t267.5 48.5zM629 117
q114 0 212 43t168 117t120 172.5t74 210t24 229.5q0 209 -106.5 318.5t-293.5 109.5q-114 0 -211.5 -43t-167.5 -117.5t-119.5 -173.5t-73.5 -211.5t-24 -230.5q0 -208 105.5 -316t292.5 -108z" />
    <glyph glyph-name="uni01D2" unicode="&#x1d2;" horiz-adv-x="1112" 
d="M870 1452h121l-231 -262h-250l-148 262h115l166 -184zM614 1075q83 0 157.5 -27.5t134.5 -79.5t95 -137.5t35 -193.5q0 -175 -73 -323.5t-206.5 -238t-299.5 -89.5q-83 0 -158 27t-135 79t-95.5 137t-35.5 193q0 174 74 323.5t208 239.5t299 90zM897 635q0 155 -83 237
t-208 82q-127 0 -227.5 -76t-152.5 -195.5t-52 -256.5q0 -153 84 -236.5t207 -83.5q128 0 228.5 77t152 196.5t51.5 255.5z" />
    <glyph glyph-name="uni01D3" unicode="&#x1d3;" horiz-adv-x="1329" 
d="M1065 1821h121l-232 -262h-249l-148 262h115l166 -185zM1337 1434l-139 -885q-41 -262 -212 -411.5t-423 -149.5t-375 149t-82 412l140 885h151l-139 -879q-32 -206 52 -319t274 -113q187 0 309 113t156 319l137 879h151z" />
    <glyph glyph-name="uni01D4" unicode="&#x1d4;" horiz-adv-x="1114" 
d="M760 1190h-250l-148 262h115l166 -184l227 184h121zM930 1065h145l-168 -1065h-145l39 246q-16 -34 -49.5 -74.5t-85 -83.5t-126 -71.5t-155.5 -28.5q-67 0 -121.5 14t-100 45.5t-71.5 81.5t-36 122t7 167l103 647h145l-102 -647q-48 -301 219 -301q75 0 144 29
t118.5 74.5t83 91.5t51.5 89z" />
    <glyph glyph-name="uni01EA" unicode="&#x1ea;" horiz-adv-x="1439" 
d="M770 -2q-126 -41 -203 -106.5t-88 -139.5q-9 -61 38.5 -82.5t141.5 -1.5l-6 -78q-30 -13 -66.5 -19t-74.5 -5t-72 13t-59 32t-36.5 54.5t-4.5 78.5q11 77 80 140t162 98q-234 9 -371 151t-137 397q0 148 33 285t98.5 253t157 201.5t216 134t267.5 48.5q247 0 392.5 -143
t145.5 -408q0 -164 -42 -314t-119 -270.5t-193.5 -204.5t-259.5 -114zM231 541q0 -208 105.5 -316t292.5 -108q114 0 212 43t168 117t120 172.5t74 210t24 229.5q0 209 -106.5 318.5t-293.5 109.5q-114 0 -211.5 -43t-167.5 -117.5t-119.5 -173.5t-73.5 -211.5t-24 -230.5z
" />
    <glyph glyph-name="uni01EB" unicode="&#x1eb;" horiz-adv-x="1101" 
d="M608 1077q93 0 174.5 -34.5t143 -100.5t88 -175.5t4.5 -246.5q-35 -215 -156.5 -347.5t-281.5 -174.5h2q-128 -41 -205.5 -106t-87.5 -140q-9 -61 37.5 -82.5t142.5 -1.5l-6 -78q-47 -20 -104.5 -23t-109.5 11.5t-82 57.5t-20 108q13 77 87 139.5t174 100.5
q-86 8 -159.5 45.5t-128 103.5t-77 171t-2.5 235q17 108 59.5 198.5t99.5 152.5t126.5 105t140.5 62.5t141 19.5zM879 539q15 109 0.5 188t-55.5 130t-96.5 75t-121.5 24q-70 0 -137 -26.5t-125.5 -78.5t-101.5 -137.5t-60 -193.5q-16 -109 -2 -188t55.5 -130t97 -75.5
t122.5 -24.5q70 0 136.5 27t125 79t101.5 137.5t61 193.5z" />
    <glyph glyph-name="Scommaaccent" unicode="&#x218;" horiz-adv-x="1228" 
d="M748 782q186 -39 277 -118t91 -230q0 -140 -75.5 -243t-207 -156t-301.5 -53q-247 0 -368.5 117.5t-112.5 310.5h158q4 -297 338 -297q184 0 295.5 83.5t111.5 225.5q0 55 -18 95.5t-53 67t-75 42t-97 28.5l-203 45q-324 71 -324 328q0 190 141.5 307t399.5 117
q223 0 338.5 -101t110.5 -272h-154q-3 109 -77.5 176.5t-233.5 67.5q-178 0 -272.5 -78.5t-94.5 -200.5q0 -89 51 -143t166 -78zM365 -584l8 52q45 22 68 62.5t34 115.5l8 61h-73l30 191h178l-38 -252q-36 -222 -215 -230z" />
    <glyph glyph-name="scommaaccent" unicode="&#x219;" horiz-adv-x="978" 
d="M786 799q-28 162 -251 162q-130 0 -206.5 -55.5t-76.5 -141.5q0 -61 38 -98t126 -58l162 -39q59 -15 96 -26.5t76.5 -31t61.5 -42t36 -56.5t14 -79q0 -90 -38.5 -158.5t-105.5 -109t-148.5 -60.5t-174.5 -20q-184 0 -291.5 80t-101.5 239h135q3 -111 75 -159t189 -48
q134 0 225 56.5t91 164.5q0 63 -42 94t-130 52l-183 45q-126 31 -189.5 92.5t-63.5 159.5q0 141 122.5 227t311.5 86q168 0 266.5 -71t108.5 -205h-132zM229 -584l9 52q45 22 68 62.5t34 115.5l8 61h-74l31 191h178l-39 -252q-36 -222 -215 -230z" />
    <glyph glyph-name="uni021A" unicode="&#x21a;" horiz-adv-x="1179" 
d="M1249 1434l-20 -136h-457l-207 -1298h-151l207 1298h-457l20 136h1065zM338 -604l2 51q43 24 63 64.5t31 117.5l10 58h-63l29 184h190l-39 -250q-10 -65 -33 -110t-55 -68.5t-64 -33.5t-71 -13z" />
    <glyph glyph-name="uni021B" unicode="&#x21b;" horiz-adv-x="638" 
d="M397 946l-118 -756q-6 -44 10.5 -61.5t62.5 -17.5q70 0 142 16l-19 -119q-67 -22 -164 -22q-98 0 -146.5 46t-29.5 161l119 753h-166l16 119h168l43 266h144l-43 -266h217l-19 -119h-217zM174 -293l31 191h178l-39 -252q-36 -222 -215 -230l8 52q46 22 69 62.5t34 115.5
l8 61h-74z" />
    <glyph glyph-name="uni0237" unicode="&#x237;" horiz-adv-x="415" 
d="M-285 -276q67 -43 148 -43q134 0 162 180l190 1204h145l-194 -1235q-25 -150 -97.5 -215.5t-187.5 -65.5q-112 0 -188 56z" />
    <glyph glyph-name="circumflex" unicode="&#x2c6;" horiz-adv-x="628" 
d="M616 1190l-163 184l-228 -184h-121l230 262h250l149 -262h-117z" />
    <glyph glyph-name="caron" unicode="&#x2c7;" horiz-adv-x="628" 
d="M653 1452h121l-231 -262h-250l-148 262h115l166 -184z" />
    <glyph glyph-name="breve" unicode="&#x2d8;" horiz-adv-x="577" 
d="M623 1452h100q-19 -114 -99.5 -185t-230.5 -71q-74 0 -127.5 21.5t-81 58.5t-37.5 81.5t-2 94.5h99q-5 -75 32 -115.5t127 -40.5q93 0 147 42.5t73 113.5z" />
    <glyph glyph-name="dotaccent" unicode="&#x2d9;" horiz-adv-x="155" 
d="M145 1452h154l-27 -178h-153z" />
    <glyph glyph-name="ring" unicode="&#x2da;" horiz-adv-x="344" 
d="M287 1190q-68 0 -112 43.5t-44 107.5q0 77 57 134t138 57q65 0 108 -44.5t43 -109.5q0 -75 -57.5 -131.5t-132.5 -56.5zM295 1266q40 0 72 32t32 74q0 36 -24 60t-60 24q-43 0 -75.5 -31.5t-32.5 -74.5q0 -36 24.5 -60t63.5 -24z" />
    <glyph glyph-name="ogonek" unicode="&#x2db;" horiz-adv-x="366" 
d="M213 -408q-44 -19 -100.5 -23t-109.5 8.5t-89.5 53.5t-36.5 105t45 121t106 91.5t128 51.5h110q-119 -41 -184.5 -104.5t-65.5 -135.5q0 -64 52.5 -88.5t144.5 -5.5v-74z" />
    <glyph glyph-name="tilde" unicode="&#x2dc;" horiz-adv-x="688" 
d="M754 1434h73q0 -91 -56 -144t-142 -53q-39 0 -75.5 15t-65 36.5t-55.5 42.5t-59.5 36t-66.5 15q-54 0 -82 -27.5t-26 -62.5h-74q0 91 56.5 145t142.5 54q48 0 93 -23t75 -51t71 -51t82 -23q54 0 82.5 28t26.5 63z" />
    <glyph glyph-name="hungarumlaut" unicode="&#x2dd;" horiz-adv-x="632" 
d="M104 1190h127l222 262h-207zM430 1190h127l221 262h-207z" />
    <glyph glyph-name="uni0326" unicode="&#x326;" horiz-adv-x="0" 
d="M-354 -584l8 52q45 22 68 62.5t34 115.5l8 61h-73l30 191h179l-39 -252q-36 -222 -215 -230z" />
    <glyph glyph-name="uni0394" unicode="&#x394;" horiz-adv-x="1495" 
d="M1282 0h-1296l852 1434h43zM1110 129l-285 1057l-624 -1057h909z" />
    <glyph glyph-name="uni03A9" unicode="&#x3a9;" horiz-adv-x="1581" 
d="M1522 836q0 -419 -437 -697h283l-20 -139h-414l33 217q226 159 317.5 294t91.5 320q0 141 -66.5 251.5t-174 168.5t-234.5 58t-250 -54t-215 -142.5t-148.5 -209.5t-56.5 -248q0 -101 23.5 -170t72 -126.5t148.5 -141.5l-35 -217h-411l20 139h295q-258 199 -258 512
q0 158 68.5 306t181 255t263.5 171.5t310 64.5q167 0 307 -76.5t223 -217.5t83 -318z" />
    <glyph glyph-name="uni03BC" unicode="&#x3bc;" horiz-adv-x="1114" 
d="M930 1065h145l-168 -1065h-145l37 240q-17 -35 -51.5 -75t-85.5 -81t-124 -67.5t-151 -26.5q-149 0 -233 67l-72 -446h-145l231 1454h145l-102 -647q-48 -299 217 -299q75 0 145 29t119 74t82.5 90.5t50.5 88.5z" />
    <glyph glyph-name="pi" unicode="&#x3c0;" horiz-adv-x="1345" 
d="M1071 938l-113 -715q-10 -60 6.5 -83t57.5 -23q57 0 147 33l-14 -127q-72 -35 -160 -35q-106 0 -154.5 50t-29.5 167l115 733h-445l-147 -938h-146l148 938h-205l21 127h1142l-20 -127h-203z" />
    <glyph glyph-name="uni0401" unicode="&#x401;" horiz-adv-x="1116" 
d="M483 1821h154l-27 -179h-153zM915 1821h152l-27 -179h-151zM1145 1298h-768l-80 -497h666l-21 -125h-666l-86 -541h791l-23 -135h-940l228 1434h919z" />
    <glyph glyph-name="uni0403" unicode="&#x403;" horiz-adv-x="1011" 
d="M598 1559h123l262 262h-203zM1083 1434l-22 -136h-686l-205 -1298h-152l228 1434h837z" />
    <glyph glyph-name="uni0404" unicode="&#x404;" horiz-adv-x="1316" 
d="M623 117q153 0 261.5 61.5t168.5 173.5h153q-70 -176 -232 -273t-374 -97q-242 0 -384 141t-142 414q0 181 52 345.5t146.5 291.5t241 202.5t322.5 75.5q210 0 340 -97t143 -272h-152q-22 111 -110.5 172.5t-241.5 61.5q-107 0 -199.5 -40.5t-160.5 -112t-116 -163.5
t-75 -200h516l-18 -125h-520q-9 -65 -9 -127q0 -215 104.5 -323.5t285.5 -108.5z" />
    <glyph glyph-name="uni0407" unicode="&#x407;" horiz-adv-x="389" 
d="M90 1821h154l-27 -179h-154zM522 1821h152l-27 -179h-151zM172 0h-152l226 1434h151z" />
    <glyph glyph-name="uni040C" unicode="&#x40c;" horiz-adv-x="1288" 
d="M1126 1821l-262 -262h-123l183 262h202zM1325 1434l-713 -666l541 -768h-174l-475 668l-268 -250l-66 -418h-152l228 1434h151l-127 -807l871 807h184z" />
    <glyph glyph-name="uni040E" unicode="&#x40e;" horiz-adv-x="1150" 
d="M965 1821h100q-19 -114 -99.5 -185t-230.5 -71q-74 0 -127.5 21.5t-81 58.5t-37.5 81.5t-2 94.5h99q-5 -75 32 -115.5t127 -40.5q93 0 147 42.5t73 113.5zM1044 1434h168l-657 -1153q-100 -178 -212 -246t-263 -49l22 137q108 -13 179 31t125 143q28 50 36.5 84.5
t-0.5 77.5l-258 975h164l219 -867z" />
    <glyph glyph-name="uni0410" unicode="&#x410;" horiz-adv-x="1378" 
d="M1071 0l-86 381h-655l-207 -381h-166l797 1434h135l344 -1434h-162zM393 498h565l-165 735z" />
    <glyph glyph-name="uni0411" unicode="&#x411;" horiz-adv-x="1226" 
d="M674 907q218 0 332 -96t114 -270q0 -252 -157 -396.5t-424 -144.5h-521l228 1434h837l-22 -136h-686l-62 -391h361zM555 135q189 0 297.5 108.5t108.5 288.5q0 240 -297 240h-373l-101 -637h365z" />
    <glyph glyph-name="uni0412" unicode="&#x412;" horiz-adv-x="1253" 
d="M877 782q126 -32 193 -113.5t67 -201.5q0 -226 -157 -346.5t-421 -120.5h-541l228 1434h526q192 0 287.5 -78t95.5 -213q0 -131 -73.5 -227t-204.5 -134zM764 1305h-387l-74 -471h387q136 0 222.5 82.5t86.5 209.5q0 81 -57 130t-178 49zM575 131q186 0 295 89.5
t109 250.5q0 110 -79 175t-236 65h-381l-93 -580h385z" />
    <glyph glyph-name="uni0413" unicode="&#x413;" horiz-adv-x="1011" 
d="M1083 1434l-22 -136h-686l-205 -1298h-152l228 1434h837z" />
    <glyph glyph-name="uni0414" unicode="&#x414;" horiz-adv-x="1505" 
d="M1401 1434l-207 -1305h176l-43 -270h-145l22 141h-1102l-22 -141h-146l43 270h119q111 112 179.5 332.5t138.5 660.5l51 312h936zM264 129h778l185 1169h-633l-31 -184q-69 -448 -131.5 -662.5t-167.5 -322.5z" />
    <glyph glyph-name="uni0415" unicode="&#x415;" horiz-adv-x="1116" 
d="M1145 1298h-768l-80 -497h666l-21 -125h-666l-86 -541h791l-23 -135h-940l228 1434h919z" />
    <glyph glyph-name="uni0416" unicode="&#x416;" horiz-adv-x="1798" 
d="M1858 1434l-742 -701l547 -733h-176l-502 666l-106 -666h-154l106 670l-714 -670h-180l782 733l-518 701h174l477 -637l100 637h154l-100 -633l673 633h179z" />
    <glyph glyph-name="uni0417" unicode="&#x417;" horiz-adv-x="1169" 
d="M803 774q52 -9 98.5 -32.5t85 -60.5t61.5 -93.5t23 -124.5q0 -144 -77.5 -256.5t-208 -172t-289.5 -59.5q-234 0 -353 131.5t-84 350.5h136q-25 -163 57.5 -258t249.5 -95q181 0 304.5 100.5t123.5 262.5q0 119 -92 183.5t-263 64.5h-51l17 104h43q172 0 274.5 87
t102.5 214q0 94 -72.5 149.5t-192.5 55.5q-142 0 -241.5 -85t-124.5 -253h-137q33 227 169.5 346t342.5 119q185 0 290 -90.5t105 -228.5q0 -126 -77.5 -223t-219.5 -136z" />
    <glyph glyph-name="uni0418" unicode="&#x418;" horiz-adv-x="1343" 
d="M246 1434h151l-190 -1205h2l975 1205h170l-228 -1434h-151l190 1200h-4l-968 -1200h-175z" />
    <glyph glyph-name="uni0419" unicode="&#x419;" horiz-adv-x="1343" 
d="M1057 1821h100q-19 -114 -99.5 -185t-230.5 -71q-74 0 -127.5 21.5t-81 58.5t-37 81.5t-1.5 94.5h98q-5 -75 32.5 -115.5t127.5 -40.5q178 0 219 156zM246 1434h151l-190 -1205h2l975 1205h170l-228 -1434h-151l190 1200h-4l-968 -1200h-175z" />
    <glyph glyph-name="uni041A" unicode="&#x41a;" horiz-adv-x="1288" 
d="M1325 1434l-713 -666l541 -768h-174l-475 668l-268 -250l-66 -418h-152l228 1434h151l-127 -807l871 807h184z" />
    <glyph glyph-name="uni041B" unicode="&#x41b;" horiz-adv-x="1398" 
d="M1409 1434l-227 -1434h-152l205 1298h-662l-135 -852q-21 -130 -66.5 -223.5t-110.5 -146t-141.5 -74t-168.5 -16.5l14 135q59 -1 107.5 14.5t93 52t76 106t47.5 167.5l155 973h965z" />
    <glyph glyph-name="uni041C" unicode="&#x41c;" horiz-adv-x="1689" 
d="M246 1434h166l364 -1244l744 1244h180l-227 -1434h-152l182 1145h-6l-678 -1145h-129l-332 1145h-6l-182 -1145h-152z" />
    <glyph glyph-name="uni041D" unicode="&#x41d;" horiz-adv-x="1318" 
d="M1178 1434h151l-227 -1434h-152l101 637h-781l-100 -637h-152l228 1434h151l-106 -670h780z" />
    <glyph glyph-name="uni041E" unicode="&#x41e;" horiz-adv-x="1439" 
d="M846 1452q247 0 392.5 -143t145.5 -408q0 -185 -53.5 -351t-150.5 -292.5t-244.5 -201t-325.5 -74.5q-247 0 -391.5 142.5t-144.5 405.5q0 148 33 285t98.5 253t157 201.5t216 134t267.5 48.5zM629 117q114 0 212 43t168 117t120 172.5t74 210t24 229.5
q0 209 -106.5 318.5t-293.5 109.5q-114 0 -211.5 -43t-167.5 -117.5t-119.5 -173.5t-73.5 -211.5t-24 -230.5q0 -208 105.5 -316t292.5 -108z" />
    <glyph glyph-name="uni041F" unicode="&#x41f;" horiz-adv-x="1318" 
d="M1329 1434l-227 -1434h-152l205 1298h-780l-205 -1298h-152l228 1434h1083z" />
    <glyph glyph-name="uni0420" unicode="&#x420;" horiz-adv-x="1220" 
d="M754 1434q217 0 329.5 -95t112.5 -272q0 -255 -159 -402t-429 -147h-356l-82 -518h-152l228 1434h508zM631 653q191 0 297 106t106 290q0 249 -299 249h-358l-105 -645h359z" />
    <glyph glyph-name="uni0421" unicode="&#x421;" horiz-adv-x="1316" 
d="M623 117q153 0 261.5 61.5t168.5 173.5h153q-70 -176 -232 -273t-374 -97q-242 0 -384 141t-142 414q0 181 52 345.5t146.5 291.5t241 202.5t322.5 75.5q210 0 340 -97t143 -272h-152q-22 111 -110.5 172.5t-241.5 61.5q-136 0 -249 -66.5t-184 -176t-110 -245.5
t-39 -280q0 -215 104.5 -323.5t285.5 -108.5z" />
    <glyph glyph-name="uni0422" unicode="&#x422;" horiz-adv-x="1179" 
d="M1249 1434l-20 -136h-457l-207 -1298h-151l207 1298h-457l20 136h1065z" />
    <glyph glyph-name="uni0423" unicode="&#x423;" horiz-adv-x="1150" 
d="M1044 1434h168l-657 -1153q-100 -178 -212 -246t-263 -49l22 137q108 -13 179 31t125 143q28 50 36.5 84.5t-0.5 77.5l-258 975h164l219 -867z" />
    <glyph glyph-name="uni0424" unicode="&#x424;" horiz-adv-x="1404" 
d="M1360 831q0 -303 -182.5 -496.5t-483.5 -215.5l-24 -150h-152l25 152q-224 19 -353 142.5t-129 336.5q0 305 183 499t487 216l25 149h151l-24 -151q223 -19 350 -143t127 -339zM713 240q231 28 367.5 189.5t136.5 401.5q0 164 -93 256t-260 107zM205 604
q0 -164 94 -257.5t262 -108.5l152 956q-233 -26 -370.5 -188t-137.5 -402z" />
    <glyph glyph-name="uni0425" unicode="&#x425;" horiz-adv-x="1273" 
d="M1343 1434l-598 -695l404 -739h-168l-338 618l-532 -618h-174l638 741l-378 693h170l311 -572l491 572h174z" />
    <glyph glyph-name="uni0426" unicode="&#x426;" horiz-adv-x="1331" 
d="M1329 1434l-207 -1299h84l-67 -424h-146l45 289h-1020l228 1434h151l-207 -1299h781l207 1299h151z" />
    <glyph glyph-name="uni0427" unicode="&#x427;" horiz-adv-x="1253" 
d="M1112 1434h152l-228 -1434h-151l94 600q-19 -35 -63.5 -77t-110 -85t-158.5 -71.5t-190 -28.5q-70 0 -129.5 15.5t-110 48.5t-81 85.5t-43 127t4.5 171.5l103 648h151l-102 -650q-51 -311 268 -311q89 0 174.5 29.5t147 75t104 92.5t62.5 90z" />
    <glyph glyph-name="uni0428" unicode="&#x428;" horiz-adv-x="1597" 
d="M1456 1434h152l-228 -1434h-1362l228 1434h151l-207 -1299h455l207 1299h152l-207 -1299h452z" />
    <glyph glyph-name="uni0429" unicode="&#x429;" horiz-adv-x="1628" 
d="M1608 1434l-207 -1299h102l-67 -424h-148l45 289h-1315l228 1434h151l-207 -1299h455l207 1299h152l-207 -1299h452l207 1299h152z" />
    <glyph glyph-name="uni042A" unicode="&#x42a;" horiz-adv-x="1310" 
d="M758 907q218 0 332 -96t114 -270q0 -252 -157 -396.5t-424 -144.5h-512l206 1298h-159l22 136h309l-83 -527h352zM639 135q188 0 296.5 109t108.5 288q0 240 -296 240h-365l-100 -637h356z" />
    <glyph glyph-name="uni042B" unicode="&#x42b;" horiz-adv-x="1566" 
d="M666 907q218 0 332 -96t114 -270q0 -252 -157.5 -396.5t-424.5 -144.5h-512l228 1434h151l-84 -527h353zM1350 0h-152l225 1434h152zM547 135q188 0 296.5 109t108.5 288q0 240 -297 240h-364l-101 -637h357z" />
    <glyph glyph-name="uni042C" unicode="&#x42c;" horiz-adv-x="1218" 
d="M666 907q218 0 332 -96t114 -270q0 -252 -157.5 -396.5t-424.5 -144.5h-512l228 1434h151l-84 -527h353zM547 135q188 0 296.5 109t108.5 288q0 240 -297 240h-364l-101 -637h357z" />
    <glyph glyph-name="uni042D" unicode="&#x42d;" horiz-adv-x="1376" 
d="M786 1452q244 0 388.5 -143t144.5 -414q0 -145 -31.5 -280t-95 -250t-152.5 -200.5t-210.5 -134t-262.5 -48.5q-214 0 -349 99t-148 271h149q55 -235 350 -235q115 0 213.5 44t169 121.5t118.5 177t71 216.5h-535l21 125h532q4 62 4 94q0 208 -103 315t-280 107
q-154 0 -263 -62.5t-169 -171.5h-158q69 177 228.5 273t367.5 96z" />
    <glyph glyph-name="uni042E" unicode="&#x42e;" horiz-adv-x="1849" 
d="M1255 1452q247 0 393 -143t146 -408q0 -185 -53.5 -351t-150.5 -292.5t-244.5 -201t-325.5 -74.5q-247 0 -392 142.5t-145 405.5q0 37 4 107h-215l-100 -637h-152l226 1434h151l-104 -670h213q28 147 91 271t156.5 217.5t222.5 146.5t279 53zM1038 117q114 0 212 43
t168 117t120 172.5t74 210t24 229.5q0 210 -106 319t-293 109q-114 0 -211.5 -43t-167.5 -117.5t-119.5 -173.5t-73.5 -211.5t-24 -230.5q0 -208 105 -316t292 -108z" />
    <glyph glyph-name="uni042F" unicode="&#x42f;" horiz-adv-x="1263" 
d="M1274 1434l-227 -1434h-152l94 594h-461q-56 0 -104.5 -12t-92.5 -39t-74 -76t-40 -117l-16 -114q-26 -178 -78 -236h-156q61 68 84 244l17 118q17 127 86.5 203t197.5 105q-90 40 -138 118.5t-48 188.5q0 214 149.5 335.5t397.5 121.5h561zM1010 719l92 581h-400
q-183 0 -285 -89.5t-102 -245.5q0 -117 69.5 -181.5t184.5 -64.5h441z" />
    <glyph glyph-name="uni0430" unicode="&#x430;" horiz-adv-x="1120" 
d="M977 684l-82 -518q-6 -42 12 -58.5t64 -13.5l-17 -92q-29 -10 -63 -10q-77 0 -112.5 38t-20.5 115l14 72q-14 -23 -36 -48t-62.5 -59t-87 -60.5t-113.5 -45t-139 -18.5q-143 0 -228.5 71.5t-85.5 200.5q0 83 29 144t86.5 100.5t129 62.5t169.5 37q12 2 65.5 9t76 10.5
t69.5 11.5t74.5 14t60 15t54.5 18l2 14q24 147 -31 207t-199 60q-128 0 -197 -42t-98 -124h-139q41 146 147.5 213t294.5 67q217 0 306 -93.5t57 -297.5zM776 340l41 246q-66 -28 -381 -78q-140 -22 -205 -76.5t-65 -159.5q0 -84 53.5 -131t149.5 -47q66 0 128.5 20
t106.5 48.5t81.5 64t58 63.5t32.5 50z" />
    <glyph glyph-name="uni0431" unicode="&#x431;" horiz-adv-x="1112" 
d="M643 1075q78 0 147.5 -26.5t125.5 -77.5t89 -135t33 -191q0 -180 -73 -331.5t-206 -241.5t-298 -90q-158 0 -259 82.5t-134.5 218t-6.5 307.5l60 379q36 233 167.5 349t350.5 116h154q111 0 163 45h146q-52 -95 -122 -129.5t-206 -34.5h-143q-151 0 -245.5 -79.5
t-119.5 -223.5l-26 -158q64 110 174.5 165.5t228.5 55.5zM469 104q127 0 226.5 76.5t150.5 197t51 259.5q0 158 -80 238.5t-205 80.5q-127 0 -227 -75.5t-151.5 -194.5t-51.5 -256q0 -160 80.5 -243t206.5 -83z" />
    <glyph glyph-name="uni0432" unicode="&#x432;" horiz-adv-x="1077" 
d="M788 584q97 -27 147 -89.5t50 -146.5q0 -93 -36 -161t-103.5 -108.5t-155 -59.5t-198.5 -19h-494l168 1065h145l-69 -440h348q125 0 190.5 49.5t65.5 140.5q0 125 -207 125h-346l18 125h342q158 0 244 -58t86 -165q0 -91 -50.5 -159.5t-144.5 -98.5zM506 125
q338 0 338 237q0 160 -262 160h-357l-61 -397h342z" />
    <glyph glyph-name="uni0433" unicode="&#x433;" horiz-adv-x="841" 
d="M856 1065l-18 -119h-545l-150 -946h-145l168 1065h690z" />
    <glyph glyph-name="uni0434" unicode="&#x434;" horiz-adv-x="1196" 
d="M1149 1065l-150 -946h70l-41 -254h-133l23 135h-828l-22 -135h-134l41 254h48q46 35 78.5 89.5t59.5 154t45.5 199.5t47.5 282l35 221h860zM172 119h682l131 827h-569l-19 -112q-20 -122 -30.5 -185.5t-28 -152.5t-32 -136.5t-35 -101t-45 -85.5t-54.5 -54z" />
    <glyph glyph-name="uni0435" unicode="&#x435;" horiz-adv-x="1095" 
d="M1001 473h-829q-2 -18 -2 -53q0 -162 83 -241t224 -79q104 0 173.5 28.5t131.5 96.5h146q-88 -128 -198 -183.5t-267 -55.5q-91 0 -168.5 27t-136.5 79.5t-92 136t-33 189.5q0 182 73 331.5t207.5 237.5t302.5 88q178 0 292 -109.5t114 -314.5q0 -33 -7 -91t-14 -87z
M604 961q-161 0 -271 -109.5t-147 -278.5h693q8 41 8 93q0 141 -78 218t-205 77z" />
    <glyph glyph-name="uni0436" unicode="&#x436;" horiz-adv-x="1488" 
d="M1524 1065l-609 -526l453 -539h-176l-391 465l-74 -465h-145l73 467l-534 -467h-189l631 539l-436 526h174l377 -455l72 455h145l-72 -453l512 453h189z" />
    <glyph glyph-name="uni0437" unicode="&#x437;" horiz-adv-x="1024" 
d="M668 563q62 -9 113.5 -34t88.5 -76.5t37 -120.5q0 -109 -71 -190t-184 -120.5t-249 -39.5q-199 0 -305 103.5t-75 272.5h133q-13 -128 56 -196t200 -68q156 0 255 68.5t99 177.5q0 88 -84.5 132t-230.5 44l6 88q143 2 235 57.5t92 153.5q0 69 -61.5 111.5t-161.5 42.5
q-119 0 -204 -63.5t-99 -151.5h-133q24 145 142 235t298 90q164 0 260.5 -69.5t96.5 -178.5q0 -105 -67.5 -174t-186.5 -94z" />
    <glyph glyph-name="uni0438" unicode="&#x438;" horiz-adv-x="1146" 
d="M166 1065h145l-139 -875h4l766 875h166l-168 -1065h-145l137 870h-4l-762 -870h-168z" />
    <glyph glyph-name="uni0439" unicode="&#x439;" horiz-adv-x="1146" 
d="M903 1452h101q-19 -114 -99.5 -185t-230.5 -71q-74 0 -127.5 21.5t-81 58.5t-37.5 81.5t-2 94.5h98q-5 -75 32.5 -115.5t127.5 -40.5q178 0 219 156zM166 1065h145l-139 -875h4l766 875h166l-168 -1065h-145l137 870h-4l-762 -870h-168z" />
    <glyph glyph-name="uni043A" unicode="&#x43a;" horiz-adv-x="976" 
d="M1012 1065l-637 -526l481 -539h-174l-449 502l-79 -502h-146l168 1065h146l-78 -487l581 487h187z" />
    <glyph glyph-name="uni043B" unicode="&#x43b;" horiz-adv-x="1212" 
d="M1174 1065l-168 -1065h-144l148 946h-514l-82 -510q-21 -131 -62.5 -221.5t-102.5 -140t-133.5 -69.5t-164.5 -15l20 121q121 -2 195 72t104 268l97 614h807z" />
    <glyph glyph-name="uni043C" unicode="&#x43c;" horiz-adv-x="1396" 
d="M176 1065h160l287 -897l575 897h160l-168 -1065h-146l127 801h-4l-510 -801h-114l-254 809h-8l-127 -809h-146z" />
    <glyph glyph-name="uni043D" unicode="&#x43d;" horiz-adv-x="1040" 
d="M166 1065h145l-71 -453h544l72 453h145l-167 -1065h-146l76 494h-543l-78 -494h-145z" />
    <glyph glyph-name="uni043E" unicode="&#x43e;" horiz-adv-x="1112" 
d="M614 1075q83 0 157.5 -27.5t134.5 -79.5t95 -137.5t35 -193.5q0 -175 -73 -323.5t-206.5 -238t-299.5 -89.5q-83 0 -158 27t-135 79t-95.5 137t-35.5 193q0 174 74 323.5t208 239.5t299 90zM897 635q0 155 -83 237t-208 82q-127 0 -227.5 -76t-152.5 -195.5t-52 -256.5
q0 -153 84 -236.5t207 -83.5q128 0 228.5 77t152 196.5t51.5 255.5z" />
    <glyph glyph-name="uni043F" unicode="&#x43f;" horiz-adv-x="1052" 
d="M1014 1065l-168 -1065h-146l150 946h-557l-150 -946h-145l168 1065h848z" />
    <glyph glyph-name="uni0440" unicode="&#x440;" horiz-adv-x="1155" 
d="M319 1065l-34 -217q70 110 173.5 168.5t231.5 58.5q80 0 149.5 -26t124 -77t86 -133.5t31.5 -187.5q0 -131 -40 -251.5t-111 -212.5t-176 -146.5t-228 -54.5q-136 0 -222.5 66t-113.5 181l-98 -622h-145l229 1454h143zM504 106q103 0 187.5 46t137 122.5t81 172
t28.5 198.5q0 153 -80.5 231t-204.5 78q-100 0 -183 -44t-137 -118t-83 -169t-29 -199q0 -154 79.5 -236t203.5 -82z" />
    <glyph glyph-name="uni0441" unicode="&#x441;" horiz-adv-x="1056" 
d="M465 106q118 0 196.5 50.5t131.5 152.5h139q-49 -119 -125 -192.5t-160.5 -102t-189.5 -28.5q-86 0 -161.5 26.5t-134.5 77.5t-93.5 135.5t-34.5 192.5q0 133 42.5 253.5t117.5 209.5t184 141.5t235 52.5q345 0 392 -325h-136q-20 106 -82.5 155t-177.5 49
q-100 0 -183.5 -46.5t-137.5 -122.5t-83.5 -171t-29.5 -194q0 -154 81 -234t210 -80z" />
    <glyph glyph-name="uni0442" unicode="&#x442;" horiz-adv-x="937" 
d="M950 1065l-18 -119h-346l-150 -946h-145l149 946h-344l19 119h835z" />
    <glyph glyph-name="uni0443" unicode="&#x443;" horiz-adv-x="1050" 
d="M930 1065h153l-651 -1163q-96 -173 -204.5 -239t-256.5 -44l21 123q199 -27 313 186q27 50 35 73t2 48l-248 1016h146l204 -899z" />
    <glyph glyph-name="uni0444" unicode="&#x444;" horiz-adv-x="1185" 
d="M1112 637q0 -264 -155 -447.5t-402 -205.5l-57 -363h-136l58 365q-172 22 -279.5 132t-107.5 304q0 264 156 448.5t405 206.5l57 367h133l-57 -369q170 -22 277.5 -133.5t107.5 -304.5zM573 102q192 27 304 176t112 363q0 147 -75.5 227t-204.5 93zM156 420
q0 -147 76 -227.5t206 -94.5l137 860q-195 -26 -307 -175.5t-112 -362.5z" />
    <glyph glyph-name="uni0445" unicode="&#x445;" horiz-adv-x="1001" 
d="M1024 1065l-461 -524l307 -541h-155l-244 436l-379 -436h-166l484 549l-293 516h153l232 -412l356 412h166z" />
    <glyph glyph-name="uni0446" unicode="&#x446;" horiz-adv-x="1089" 
d="M1014 1065l-150 -946h80l-63 -406h-140l45 287h-788l168 1065h145l-149 -946h557l149 946h146z" />
    <glyph glyph-name="uni0447" unicode="&#x447;" horiz-adv-x="1071" 
d="M887 1065h145l-168 -1065h-145l82 520q-19 -35 -54 -73.5t-86.5 -78t-123 -64.5t-148.5 -25q-84 0 -149 22.5t-111 70.5t-63 129t0 191l59 373h145l-59 -379q-44 -283 225 -283q74 0 141.5 27.5t115.5 71t80.5 87t51.5 85.5z" />
    <glyph glyph-name="uni0448" unicode="&#x448;" horiz-adv-x="1517" 
d="M1333 1065h146l-168 -1065h-1303l168 1065h146l-150 -946h436l150 946h139l-149 -946h436z" />
    <glyph glyph-name="uni0449" unicode="&#x449;" horiz-adv-x="1529" 
d="M1468 1065l-149 -946h67l-63 -406h-139l45 287h-1231l168 1065h145l-149 -946h436l150 946h139l-150 -946h437l149 946h145z" />
    <glyph glyph-name="uni044A" unicode="&#x44a;" horiz-adv-x="1208" 
d="M717 674q182 0 282.5 -75.5t100.5 -211.5q0 -185 -133 -286t-351 -101h-460l149 946h-199l19 119h344l-61 -391h309zM631 119q156 0 243 67.5t87 192.5q0 176 -252 176h-320l-70 -436h312z" />
    <glyph glyph-name="uni044B" unicode="&#x44b;" horiz-adv-x="1380" 
d="M569 674q182 0 282.5 -75.5t100.5 -211.5q0 -185 -133 -286t-350 -101h-461l168 1065h146l-62 -391h309zM1196 1065h145l-167 -1065h-146zM483 119q156 0 243 67.5t87 192.5q0 176 -252 176h-319l-70 -436h311z" />
    <glyph glyph-name="uni044C" unicode="&#x44c;" horiz-adv-x="1060" 
d="M569 674q182 0 282.5 -75.5t100.5 -211.5q0 -185 -133 -286t-350 -101h-461l168 1065h146l-62 -391h309zM483 119q156 0 243 67.5t87 192.5q0 176 -252 176h-319l-70 -436h311z" />
    <glyph glyph-name="uni044D" unicode="&#x44d;" horiz-adv-x="1050" 
d="M553 1075q86 0 161.5 -26.5t134.5 -77.5t93.5 -135.5t34.5 -192.5q0 -179 -72.5 -328.5t-206 -239t-301.5 -89.5q-344 0 -391 325h135q20 -106 82.5 -155.5t177.5 -49.5q162 0 272 112.5t148 281.5h-391l14 96h390q2 14 2 45q0 154 -81 233.5t-210 79.5
q-118 0 -196.5 -50.5t-131.5 -151.5h-139q49 119 125 192.5t160.5 102t189.5 28.5z" />
    <glyph glyph-name="uni044E" unicode="&#x44e;" horiz-adv-x="1458" 
d="M963 1075q83 0 157.5 -27.5t134 -79.5t94.5 -137.5t35 -193.5q0 -175 -73 -323.5t-206.5 -238t-299.5 -89.5q-83 0 -158 27t-135 79t-95.5 137t-35.5 193q0 33 2 49h-156l-73 -473h-146l168 1065h146l-74 -473h151q48 211 202.5 348t361.5 137zM813 106q128 0 228.5 77
t152 196.5t51.5 255.5q0 155 -83 237t-208 82q-127 0 -227.5 -76t-152.5 -195.5t-52 -256.5q0 -153 84 -236.5t207 -83.5z" />
    <glyph glyph-name="uni044F" unicode="&#x44f;" horiz-adv-x="1077" 
d="M578 1065h460l-168 -1065h-145l61 391h-378q-96 0 -140.5 -32.5t-56.5 -106.5l-16 -94q-11 -71 -23.5 -103.5t-32.5 -54.5h-145q21 21 32 52.5t23 105.5l17 94q13 75 48.5 123t108.5 71q-129 75 -129 232q0 185 133 286t351 101zM805 510l69 436h-311q-156 0 -243 -67.5
t-87 -192.5q0 -176 252 -176h320z" />
    <glyph glyph-name="uni0451" unicode="&#x451;" horiz-adv-x="1095" 
d="M553 1452l-27 -178h-153l26 178h154zM983 1452l-27 -178h-151l26 178h152zM1001 473h-829q-2 -18 -2 -53q0 -162 83 -241t224 -79q104 0 173.5 28.5t131.5 96.5h146q-88 -128 -198 -183.5t-267 -55.5q-91 0 -168.5 27t-136.5 79.5t-92 136t-33 189.5q0 182 73 331.5
t207.5 237.5t302.5 88q178 0 292 -109.5t114 -314.5q0 -33 -7 -91t-14 -87zM604 961q-161 0 -271 -109.5t-147 -278.5h693q8 41 8 93q0 141 -78 218t-205 77z" />
    <glyph glyph-name="uni0453" unicode="&#x453;" horiz-adv-x="841" 
d="M457 1190h123l262 262h-203zM856 1065l-18 -119h-545l-150 -946h-145l168 1065h690z" />
    <glyph glyph-name="uni0454" unicode="&#x454;" horiz-adv-x="1056" 
d="M465 106q118 0 196.5 50.5t131.5 152.5h139q-49 -119 -125 -192.5t-160.5 -102t-189.5 -28.5q-86 0 -161.5 26.5t-134.5 77.5t-93.5 135.5t-34.5 192.5q0 133 42.5 253.5t117.5 209.5t184 141.5t235 52.5q345 0 392 -325h-136q-20 106 -82.5 155t-177.5 49
q-152 0 -259.5 -101t-149.5 -257h385l-17 -96h-389q-4 -54 -4 -80q0 -154 81 -234t210 -80z" />
    <glyph glyph-name="uni0457" unicode="&#x457;" horiz-adv-x="356" 
d="M16 1452h154l-27 -178h-153zM449 1452h151l-27 -178h-151zM176 1065h146l-168 -1065h-146z" />
    <glyph glyph-name="uni045C" unicode="&#x45c;" horiz-adv-x="976" 
d="M911 1452l-262 -262h-123l183 262h202zM1012 1065l-637 -526l481 -539h-174l-449 502l-79 -502h-146l168 1065h146l-78 -487l581 487h187z" />
    <glyph glyph-name="uni045E" unicode="&#x45e;" horiz-adv-x="1050" 
d="M854 1452h100q-19 -114 -99 -185t-230 -71q-74 0 -127.5 21.5t-81 58.5t-37.5 81.5t-2 94.5h98q-5 -75 32.5 -115.5t127.5 -40.5q178 0 219 156zM930 1065h153l-651 -1163q-96 -173 -204.5 -239t-256.5 -44l21 123q199 -27 313 186q27 50 35 73t2 48l-248 1016h146
l204 -899z" />
    <glyph glyph-name="uni0490" unicode="&#x490;" horiz-adv-x="1011" 
d="M965 1638h151l-55 -340h-686l-205 -1298h-152l228 1434h686z" />
    <glyph glyph-name="uni0491" unicode="&#x491;" horiz-adv-x="841" 
d="M752 1200h127l-41 -254h-545l-150 -946h-145l168 1065h563z" />
    <glyph glyph-name="Wgrave" unicode="&#x1e80;" horiz-adv-x="2041" 
d="M1212 1559l-141 262h-207l221 -262h127zM1944 1434h159l-641 -1434h-145l-203 1219l-594 -1219h-145l-191 1434h158l143 -1211l578 1211h160l190 -1211z" />
    <glyph glyph-name="wgrave" unicode="&#x1e81;" horiz-adv-x="1607" 
d="M958 1190l-141 262h-207l221 -262h127zM1640 1065l-485 -1065h-141l-174 885l-457 -885h-139l-150 1065h146l112 -887l451 887h121l170 -887l397 887h149z" />
    <glyph glyph-name="Wacute" unicode="&#x1e82;" horiz-adv-x="2041" 
d="M1096 1559h123l262 262h-203zM1944 1434h159l-641 -1434h-145l-203 1219l-594 -1219h-145l-191 1434h158l143 -1211l578 1211h160l190 -1211z" />
    <glyph glyph-name="wacute" unicode="&#x1e83;" horiz-adv-x="1607" 
d="M842 1190h123l262 262h-203zM1640 1065l-485 -1065h-141l-174 885l-457 -885h-139l-150 1065h146l112 -887l451 887h121l170 -887l397 887h149z" />
    <glyph glyph-name="Wdieresis" unicode="&#x1e84;" horiz-adv-x="2041" 
d="M909 1821h154l-27 -179h-153zM1341 1821h152l-27 -179h-151zM1944 1434h159l-641 -1434h-145l-203 1219l-594 -1219h-145l-191 1434h158l143 -1211l578 1211h160l190 -1211z" />
    <glyph glyph-name="wdieresis" unicode="&#x1e85;" horiz-adv-x="1607" 
d="M655 1452h154l-27 -178h-153zM1087 1452h152l-27 -178h-151zM1640 1065l-485 -1065h-141l-174 885l-457 -885h-139l-150 1065h146l112 -887l451 887h121l170 -887l397 887h149z" />
    <glyph glyph-name="uni1E9E" unicode="&#x1e9e;" horiz-adv-x="1312" 
d="M809 874q181 -15 290 -118.5t109 -268.5q0 -220 -142 -363.5t-366 -143.5q-177 0 -272.5 90t-91.5 254h145q0 -91 60 -150t176 -59q148 0 242 103.5t94 250.5q0 136 -122.5 214t-346.5 75l430 561h-439q-109 0 -160 -50.5t-69 -158.5l-174 -1110h-152l177 1126
q30 181 119.5 253.5t265.5 72.5h694z" />
    <glyph glyph-name="Ygrave" unicode="&#x1ef2;" horiz-adv-x="1327" 
d="M883 1559l-142 262h-206l221 -262h127zM735 565l-90 -565h-153l90 565l-398 869h168l320 -721l545 721h172z" />
    <glyph glyph-name="ygrave" unicode="&#x1ef3;" horiz-adv-x="1050" 
d="M678 1190l-141 262h-207l221 -262h127zM930 1065h153l-651 -1163q-96 -173 -204.5 -239t-256.5 -44l21 123q199 -27 313 186q27 50 35 73t2 48l-248 1016h146l204 -899z" />
    <glyph glyph-name="endash" unicode="&#x2013;" horiz-adv-x="1228" 
d="M78 633h1044l-18 -117h-1045z" />
    <glyph glyph-name="emdash" unicode="&#x2014;" horiz-adv-x="1351" 
d="M78 633h1167l-18 -117h-1168z" />
    <glyph glyph-name="quoteleft" unicode="&#x2018;" horiz-adv-x="344" 
d="M403 1436l-8 -52q-45 -22 -68 -62.5t-34 -115.5l-8 -61h73l-30 -191h-178l38 252q36 222 215 230z" />
    <glyph glyph-name="quoteright" unicode="&#x2019;" horiz-adv-x="358" 
d="M158 958l2 54q42 23 62 62.5t32 117.5l8 57h-63l28 185h191l-39 -250q-10 -65 -32.5 -110t-54.5 -68.5t-63 -34t-71 -13.5z" />
    <glyph glyph-name="quotesinglbase" unicode="&#x201a;" horiz-adv-x="358" 
d="M-53 -369l2 54q43 22 62 61.5t32 118.5l8 57h-63l30 184h191l-39 -249q-10 -64 -33 -109t-55 -68.5t-64 -34.5t-71 -14z" />
    <glyph glyph-name="quotedblleft" unicode="&#x201c;" horiz-adv-x="649" 
d="M403 1436l-8 -52q-45 -22 -68 -62.5t-34 -115.5l-8 -61h73l-30 -191h-178l38 252q36 222 215 230zM711 1436l-9 -52q-45 -22 -68 -62.5t-34 -115.5l-8 -61h74l-31 -191h-178l39 252q36 222 215 230z" />
    <glyph glyph-name="quotedblright" unicode="&#x201d;" horiz-adv-x="649" 
d="M147 950l9 51q45 22 68 62.5t34 116.5l8 61h-73l30 191h178l-39 -252q-36 -222 -215 -230zM455 950l8 51q45 22 68 62.5t34 116.5l8 61h-73l30 191h179l-39 -252q-36 -222 -215 -230z" />
    <glyph glyph-name="quotedblbase" unicode="&#x201e;" horiz-adv-x="651" 
d="M-47 -291l8 51q45 22 68 62.5t34 116.5l9 61h-74l31 190h178l-39 -251q-36 -222 -215 -230zM260 -291l8 51q46 22 69 63t34 116l8 61h-74l31 190h178l-39 -251q-36 -222 -215 -230z" />
    <glyph glyph-name="dagger" unicode="&#x2020;" horiz-adv-x="669" 
d="M643 1192l-18 -113h-172l-82 -524h-121l84 524h-174l18 113h172l39 242h119l-37 -242h172z" />
    <glyph glyph-name="daggerdbl" unicode="&#x2021;" horiz-adv-x="669" 
d="M612 1006h-172l-90 -578h172l-18 -113h-172l-49 -315h-119l49 315h-174l18 113h174l91 578h-175l19 112h174l49 316h119l-49 -316h172z" />
    <glyph glyph-name="bullet" unicode="&#x2022;" horiz-adv-x="530" 
d="M221 377q-72 0 -114 50.5t-31 121.5q9 64 61 108.5t117 44.5q70 0 112.5 -50.5t30.5 -119.5q-10 -66 -61.5 -110.5t-114.5 -44.5z" />
    <glyph glyph-name="ellipsis" unicode="&#x2026;" horiz-adv-x="1370" 
d="M49 193h172l-28 -193h-173zM555 193h172l-29 -193h-172zM1061 193h172l-29 -193h-172z" />
    <glyph glyph-name="perthousand" unicode="&#x2030;" horiz-adv-x="2113" 
d="M377 825q-103 0 -163 64t-60 180q0 101 36 185.5t106.5 137t162.5 52.5q100 0 161.5 -65.5t61.5 -180.5q0 -153 -85 -263t-220 -110zM145 0l1069 1436l117 -2l-1069 -1434h-117zM383 926q93 0 147 78.5t54 185.5q0 75 -35.5 114t-97.5 39q-64 0 -110.5 -41t-67.5 -100
t-21 -127q0 -73 35 -111t96 -38zM1016 -10q-102 0 -162.5 65t-60.5 181q0 154 84.5 263t220.5 109q102 0 163.5 -65t61.5 -181q0 -153 -85 -262.5t-222 -109.5zM1671 -10q-103 0 -163 64.5t-60 181.5q0 154 84.5 263t220.5 109q102 0 162.5 -65t60.5 -181q0 -153 -85 -262.5
t-220 -109.5zM1022 90q94 0 148.5 79t54.5 187q0 73 -36.5 112.5t-98.5 39.5q-63 0 -110 -41t-68 -100t-21 -125q0 -73 35.5 -112.5t95.5 -39.5zM1677 90q93 0 147 79t54 187q0 73 -36 112.5t-97 39.5q-63 0 -110 -41t-68 -100t-21 -125q0 -73 35.5 -112.5t95.5 -39.5z" />
    <glyph glyph-name="guilsinglleft" unicode="&#x2039;" horiz-adv-x="460" 
d="M416 770l-219 -166l165 -168l-22 -135l-254 252l16 117l336 252z" />
    <glyph glyph-name="guilsinglright" unicode="&#x203a;" horiz-adv-x="458" 
d="M121 780l22 142l254 -252l-16 -117l-336 -252l25 148l217 167z" />
    <glyph glyph-name="fraction" unicode="&#x2044;" horiz-adv-x="256" 
d="M-360 0h-82l1118 1434h82z" />
    <glyph glyph-name="Euro" unicode="&#x20ac;" horiz-adv-x="1404" 
d="M711 117q153 0 261.5 61.5t168.5 173.5h153q-70 -176 -232 -273t-374 -97q-240 0 -382.5 139.5t-143.5 410.5h-119l14 97h109q3 69 18 137h-104l14 94h113q37 128 101 234.5t153 187t208 125.5t255 45q210 0 340 -97t143 -272h-152q-22 111 -110.5 172.5t-241.5 61.5
q-194 0 -332 -127t-202 -330h391l-15 -94h-401q-14 -61 -20 -137h399l-14 -97h-387q4 -206 108 -310.5t281 -104.5z" />
    <glyph glyph-name="trademark" unicode="&#x2122;" horiz-adv-x="1105" 
d="M573 1368h-131l-47 -303h-76l48 303h-131l10 66h338zM1085 1434l-57 -369h-76l39 240l-147 -240h-60l-71 240l-39 -240h-76l57 369h76l90 -295l187 295h77z" />
    <glyph glyph-name="partialdiff" unicode="&#x2202;" horiz-adv-x="1198" 
d="M612 952q153 0 249.5 -69.5t117.5 -186.5q26 133 23 249t-30.5 202.5t-96.5 136t-175 49.5q-127 0 -221 -69.5t-127 -169.5h-127q34 146 161 250t323 104q113 0 196 -38.5t132.5 -107t73.5 -166.5t23.5 -211t-22.5 -247q-54 -339 -210.5 -518.5t-399.5 -179.5
q-194 0 -311 107t-117 296q0 159 68.5 289t192 205t277.5 75zM504 104q115 0 213.5 65.5t153.5 170.5t55 221q0 132 -80.5 207.5t-208.5 75.5q-184 0 -304 -132.5t-120 -320.5q0 -134 79 -210.5t212 -76.5z" />
    <glyph glyph-name="product" unicode="&#x220f;" horiz-adv-x="1370" 
d="M238 1638h1185l-321 -2027h-137l301 1896h-912l-301 -1896h-137z" />
    <glyph glyph-name="summation" unicode="&#x2211;" horiz-adv-x="1349" 
d="M1380 1503h-931l352 -878l-627 -879h928l-21 -135h-1167l727 1014l-401 1013h1163z" />
    <glyph glyph-name="minus" unicode="&#x2212;" horiz-adv-x="870" 
d="M70 588h745l-16 -107h-746z" />
    <glyph glyph-name="radical" unicode="&#x221a;" horiz-adv-x="1492" 
d="M1548 1638l-882 -2027h-156l-217 948h-225l22 152h320l198 -897l797 1824h143z" />
    <glyph glyph-name="infinity" unicode="&#x221e;" horiz-adv-x="1626" 
d="M1229 872q133 0 218 -80t85 -206q0 -160 -117 -275.5t-278 -115.5q-111 0 -197 64.5t-160 178.5q-222 -243 -420 -243q-135 0 -220 80.5t-85 209.5q0 161 118 274t280 113q110 0 194.5 -63.5t159.5 -175.5q225 239 422 239zM371 313q89 0 173.5 60t176.5 164
q-107 219 -262 219q-114 0 -191.5 -76t-77.5 -186q0 -78 49 -129.5t132 -51.5zM1128 313q114 0 191.5 78.5t77.5 183.5q0 79 -49 130t-134 51q-88 0 -172.5 -59t-175.5 -160q113 -224 262 -224z" />
    <glyph glyph-name="integral" unicode="&#x222b;" horiz-adv-x="602" 
d="M279 1118q28 181 122 256t258 70l-20 -129q-90 0 -145 -51.5t-74 -171.5l-184 -1158q-29 -184 -125.5 -256t-253.5 -67l18 127q88 0 145 54.5t74 168.5z" />
    <glyph glyph-name="approxequal" unicode="&#x2248;" horiz-adv-x="860" 
d="M766 813l76 -8q-15 -95 -79.5 -150t-150.5 -55q-48 0 -92.5 24.5t-73 53.5t-69.5 53.5t-84 24.5q-58 0 -95 -32.5t-40 -68.5l-76 11q15 95 79 148.5t150 53.5q40 0 76 -16t63 -39t53.5 -45.5t59.5 -38.5t68 -16q59 0 95 32t40 68zM715 485l73 -8q-13 -95 -78 -150
t-151 -55q-40 0 -75.5 16t-62.5 39t-53 46t-58.5 39t-67.5 16q-58 0 -95.5 -32t-40.5 -68l-75 10q15 95 78 149t149 54q48 0 93 -24.5t74 -53.5t70.5 -53.5t84.5 -24.5q59 0 95 32t40 68z" />
    <glyph glyph-name="notequal" unicode="&#x2260;" horiz-adv-x="864" 
d="M829 684h-286l-121 -221h373l-17 -107h-413l-195 -356h-104l194 356h-229l16 107h270l121 221h-354l16 107h398l194 358h105l-195 -358h244z" />
    <glyph glyph-name="lessequal" unicode="&#x2264;" horiz-adv-x="825" 
d="M752 451l-549 317l649 317l20 129l-763 -383l-21 -129l641 -380zM4 72h688l-18 -107h-686z" />
    <glyph glyph-name="greaterequal" unicode="&#x2265;" horiz-adv-x="829" 
d="M53 451l-22 -129l764 380l20 129l-643 383l-20 -129l548 -317zM680 72l-18 -107h-691l19 107h690z" />
    <glyph glyph-name="lozenge" unicode="&#x25ca;" horiz-adv-x="1011" 
d="M713 1434l207 -717l-431 -717h-192l-205 717l430 717h191zM412 123l358 594l-170 596l-358 -596z" />
    <glyph glyph-name="G.ss01" horiz-adv-x="1349" 
d="M817 717h479l-112 -717h-140l37 227q-171 -256 -487 -256q-238 0 -378 142.5t-140 418.5q0 190 50 357.5t143 295.5t237 202.5t321 74.5q205 0 331.5 -92t148.5 -254h-152q-60 211 -332 211q-114 0 -211.5 -43.5t-167 -118.5t-118.5 -175.5t-73 -214.5t-24 -236
q0 -217 103 -325t286 -108q200 0 338.5 113.5t167.5 298.5l11 74h-338z" />
    <glyph glyph-name="R.ss01" horiz-adv-x="1222" 
d="M1196 1067q0 -199 -99 -335t-278 -187l232 -545h-156l-219 520q-23 -2 -68 -2h-356l-82 -518h-152l228 1434h508q217 0 329.5 -95t112.5 -272zM272 653h359q191 0 297 106t106 290q0 249 -299 249h-358z" />
    <glyph glyph-name="G.ss05" horiz-adv-x="1349" 
d="M817 717h479l-112 -717h-140l37 227q-171 -256 -487 -256q-238 0 -378 142.5t-140 418.5q0 190 50 357.5t143 295.5t237 202.5t321 74.5q205 0 331.5 -92t148.5 -254h-152q-60 211 -332 211q-114 0 -211.5 -43.5t-167 -118.5t-118.5 -175.5t-73 -214.5t-24 -236
q0 -217 103 -325t286 -108q200 0 338.5 113.5t167.5 298.5l11 74h-338z" />
    <glyph glyph-name="i.loclTRK" horiz-adv-x="356" 
d="M236 1452h153l-27 -178h-153zM176 1065h146l-168 -1065h-146z" />
    <glyph glyph-name="a.ss01" 
d="M1098 1065l-168 -1065h-146l35 213q-65 -108 -166 -169.5t-227 -61.5q-79 0 -148.5 26.5t-124.5 77.5t-87.5 135.5t-32.5 192.5q0 132 39.5 252t109.5 211.5t174.5 145.5t227.5 54q129 0 213 -57.5t118 -163.5l35 209h148zM455 102q128 0 228 79.5t151 202.5t51 263
q0 155 -79.5 232t-205.5 77q-98 0 -179.5 -45.5t-134 -121t-81.5 -171.5t-29 -200q0 -155 78 -235.5t201 -80.5z" />
    <glyph glyph-name="aacute.ss01" 
d="M616 1190h123l262 262h-202zM1098 1065l-168 -1065h-146l35 213q-65 -108 -166 -169.5t-227 -61.5q-79 0 -148.5 26.5t-124.5 77.5t-87.5 135.5t-32.5 192.5q0 132 39.5 252t109.5 211.5t174.5 145.5t227.5 54q129 0 213 -57.5t118 -163.5l35 209h148zM455 102
q128 0 228 79.5t151 202.5t51 263q0 155 -79.5 232t-205.5 77q-98 0 -179.5 -45.5t-134 -121t-81.5 -171.5t-29 -200q0 -155 78 -235.5t201 -80.5z" />
    <glyph glyph-name="abreve.ss01" 
d="M909 1452h101q-19 -114 -99.5 -185t-230.5 -71q-74 0 -127.5 21.5t-81 58.5t-37.5 81.5t-2 94.5h98q-5 -75 32.5 -115.5t127.5 -40.5q178 0 219 156zM1098 1065l-168 -1065h-146l35 213q-65 -108 -166 -169.5t-227 -61.5q-79 0 -148.5 26.5t-124.5 77.5t-87.5 135.5
t-32.5 192.5q0 132 39.5 252t109.5 211.5t174.5 145.5t227.5 54q129 0 213 -57.5t118 -163.5l35 209h148zM455 102q128 0 228 79.5t151 202.5t51 263q0 155 -79.5 232t-205.5 77q-98 0 -179.5 -45.5t-134 -121t-81.5 -171.5t-29 -200q0 -155 78 -235.5t201 -80.5z" />
    <glyph glyph-name="uni01CE.ss01" 
d="M913 1452h121l-231 -262h-250l-147 262h114l166 -184zM1098 1065l-168 -1065h-146l35 213q-65 -108 -166 -169.5t-227 -61.5q-79 0 -148.5 26.5t-124.5 77.5t-87.5 135.5t-32.5 192.5q0 132 39.5 252t109.5 211.5t174.5 145.5t227.5 54q129 0 213 -57.5t118 -163.5
l35 209h148zM455 102q128 0 228 79.5t151 202.5t51 263q0 155 -79.5 232t-205.5 77q-98 0 -179.5 -45.5t-134 -121t-81.5 -171.5t-29 -200q0 -155 78 -235.5t201 -80.5z" />
    <glyph glyph-name="acircumflex.ss01" 
d="M858 1190l-164 184l-227 -184h-121l229 262h250l150 -262h-117zM1098 1065l-168 -1065h-146l35 213q-65 -108 -166 -169.5t-227 -61.5q-79 0 -148.5 26.5t-124.5 77.5t-87.5 135.5t-32.5 192.5q0 132 39.5 252t109.5 211.5t174.5 145.5t227.5 54q129 0 213 -57.5
t118 -163.5l35 209h148zM455 102q128 0 228 79.5t151 202.5t51 263q0 155 -79.5 232t-205.5 77q-98 0 -179.5 -45.5t-134 -121t-81.5 -171.5t-29 -200q0 -155 78 -235.5t201 -80.5z" />
    <glyph glyph-name="adieresis.ss01" 
d="M430 1452h154l-27 -178h-154zM862 1452h152l-27 -178h-151zM1098 1065l-168 -1065h-146l35 213q-65 -108 -166 -169.5t-227 -61.5q-79 0 -148.5 26.5t-124.5 77.5t-87.5 135.5t-32.5 192.5q0 132 39.5 252t109.5 211.5t174.5 145.5t227.5 54q129 0 213 -57.5t118 -163.5
l35 209h148zM455 102q128 0 228 79.5t151 202.5t51 263q0 155 -79.5 232t-205.5 77q-98 0 -179.5 -45.5t-134 -121t-81.5 -171.5t-29 -200q0 -155 78 -235.5t201 -80.5z" />
    <glyph glyph-name="agrave.ss01" 
d="M733 1190l-141 262h-207l221 -262h127zM1098 1065l-168 -1065h-146l35 213q-65 -108 -166 -169.5t-227 -61.5q-79 0 -148.5 26.5t-124.5 77.5t-87.5 135.5t-32.5 192.5q0 132 39.5 252t109.5 211.5t174.5 145.5t227.5 54q129 0 213 -57.5t118 -163.5l35 209h148zM455 102
q128 0 228 79.5t151 202.5t51 263q0 155 -79.5 232t-205.5 77q-98 0 -179.5 -45.5t-134 -121t-81.5 -171.5t-29 -200q0 -155 78 -235.5t201 -80.5z" />
    <glyph glyph-name="amacron.ss01" 
d="M428 1452h614l-14 -94h-614zM1098 1065l-168 -1065h-146l35 213q-65 -108 -166 -169.5t-227 -61.5q-79 0 -148.5 26.5t-124.5 77.5t-87.5 135.5t-32.5 192.5q0 132 39.5 252t109.5 211.5t174.5 145.5t227.5 54q129 0 213 -57.5t118 -163.5l35 209h148zM455 102
q128 0 228 79.5t151 202.5t51 263q0 155 -79.5 232t-205.5 77q-98 0 -179.5 -45.5t-134 -121t-81.5 -171.5t-29 -200q0 -155 78 -235.5t201 -80.5z" />
    <glyph glyph-name="aogonek.ss01" 
d="M950 1065h148l-168 -1065h-35q-119 -41 -184.5 -104.5t-65.5 -135.5q0 -64 52.5 -88.5t144.5 -5.5v-74q-44 -19 -100.5 -23t-109.5 8.5t-89.5 53.5t-36.5 105t44.5 121t105.5 91.5t128 51.5l35 213q-65 -108 -166 -169.5t-227 -61.5q-79 0 -148.5 26.5t-124.5 77.5
t-87.5 135.5t-32.5 192.5q0 132 39.5 252t109.5 211.5t174.5 145.5t227.5 54q129 0 213 -57.5t118 -163.5zM455 102q128 0 228 79.5t151 202.5t51 263q0 155 -79.5 232t-205.5 77q-98 0 -179.5 -45.5t-134 -121t-81.5 -171.5t-29 -200q0 -155 78 -235.5t201 -80.5z" />
    <glyph glyph-name="aring.ss01" 
d="M690 1190q-68 0 -111.5 43.5t-43.5 107.5q0 77 56.5 134t137.5 57q65 0 108.5 -44.5t43.5 -109.5q0 -75 -58 -131.5t-133 -56.5zM698 1266q40 0 72.5 32t32.5 74q0 36 -24 60t-60 24q-43 0 -76 -32t-33 -74q0 -36 24.5 -60t63.5 -24zM1098 1065l-168 -1065h-146l35 213
q-65 -108 -166 -169.5t-227 -61.5q-79 0 -148.5 26.5t-124.5 77.5t-87.5 135.5t-32.5 192.5q0 132 39.5 252t109.5 211.5t174.5 145.5t227.5 54q129 0 213 -57.5t118 -163.5l35 209h148zM455 102q128 0 228 79.5t151 202.5t51 263q0 155 -79.5 232t-205.5 77
q-98 0 -179.5 -45.5t-134 -121t-81.5 -171.5t-29 -200q0 -155 78 -235.5t201 -80.5z" />
    <glyph glyph-name="atilde.ss01" 
d="M938 1434h74q0 -91 -56.5 -144t-142.5 -53q-48 0 -93 22.5t-75 50t-71 50t-82 22.5q-54 0 -82.5 -27.5t-26.5 -62.5h-74q0 91 56.5 145t142.5 54q48 0 93 -23t75 -51t71 -51t82 -23q54 0 82.5 28t26.5 63zM1098 1065l-168 -1065h-146l35 213q-65 -108 -166 -169.5
t-227 -61.5q-79 0 -148.5 26.5t-124.5 77.5t-87.5 135.5t-32.5 192.5q0 132 39.5 252t109.5 211.5t174.5 145.5t227.5 54q129 0 213 -57.5t118 -163.5l35 209h148zM455 102q128 0 228 79.5t151 202.5t51 263q0 155 -79.5 232t-205.5 77q-98 0 -179.5 -45.5t-134 -121
t-81.5 -171.5t-29 -200q0 -155 78 -235.5t201 -80.5z" />
    <glyph glyph-name="g.ss01" horiz-adv-x="1060" 
d="M1026 954q-78 0 -127 -49q25 -58 25 -123q0 -181 -124.5 -296t-316.5 -115q-131 0 -219 57q-51 -4 -80.5 -30t-29.5 -62q0 -44 41.5 -63t130.5 -19h131q84 0 157.5 -17t134.5 -52t96.5 -95t35.5 -139q0 -99 -42.5 -177t-116 -126.5t-166.5 -73.5t-200 -25
q-82 0 -154 17.5t-132.5 52.5t-95.5 95.5t-35 140.5q0 125 73 211.5t205 128.5q-80 6 -131 42.5t-51 98.5q0 58 44 99.5t120 51.5q-58 74 -58 181q0 181 123.5 295t315.5 114q175 0 270 -98q60 89 194 86zM489 481q140 0 225 82t85 211q0 89 -58 141t-170 52
q-139 0 -222 -81t-83 -212q0 -90 56.5 -141.5t166.5 -51.5zM444 143q-162 0 -263 -74.5t-101 -207.5q0 -101 78.5 -151t206.5 -50q170 0 273 74.5t103 210.5q0 100 -81 149t-216 49z" />
    <glyph glyph-name="l.ss01" horiz-adv-x="419" 
d="M244 -4q-124 -12 -174.5 30.5t-32.5 161.5l199 1246h145l-201 -1254q-6 -40 13 -57.5t71 -16.5z" />
    <glyph glyph-name="a.ss02" 
d="M1098 1065l-168 -1065h-146l35 213q-65 -108 -166 -169.5t-227 -61.5q-79 0 -148.5 26.5t-124.5 77.5t-87.5 135.5t-32.5 192.5q0 132 39.5 252t109.5 211.5t174.5 145.5t227.5 54q129 0 213 -57.5t118 -163.5l35 209h148zM455 102q128 0 228 79.5t151 202.5t51 263
q0 155 -79.5 232t-205.5 77q-98 0 -179.5 -45.5t-134 -121t-81.5 -171.5t-29 -200q0 -155 78 -235.5t201 -80.5z" />
    <glyph glyph-name="aacute.ss02" 
d="M616 1190h123l262 262h-202zM1098 1065l-168 -1065h-146l35 213q-65 -108 -166 -169.5t-227 -61.5q-79 0 -148.5 26.5t-124.5 77.5t-87.5 135.5t-32.5 192.5q0 132 39.5 252t109.5 211.5t174.5 145.5t227.5 54q129 0 213 -57.5t118 -163.5l35 209h148zM455 102
q128 0 228 79.5t151 202.5t51 263q0 155 -79.5 232t-205.5 77q-98 0 -179.5 -45.5t-134 -121t-81.5 -171.5t-29 -200q0 -155 78 -235.5t201 -80.5z" />
    <glyph glyph-name="abreve.ss02" 
d="M909 1452h101q-19 -114 -99.5 -185t-230.5 -71q-74 0 -127.5 21.5t-81 58.5t-37.5 81.5t-2 94.5h98q-5 -75 32.5 -115.5t127.5 -40.5q178 0 219 156zM1098 1065l-168 -1065h-146l35 213q-65 -108 -166 -169.5t-227 -61.5q-79 0 -148.5 26.5t-124.5 77.5t-87.5 135.5
t-32.5 192.5q0 132 39.5 252t109.5 211.5t174.5 145.5t227.5 54q129 0 213 -57.5t118 -163.5l35 209h148zM455 102q128 0 228 79.5t151 202.5t51 263q0 155 -79.5 232t-205.5 77q-98 0 -179.5 -45.5t-134 -121t-81.5 -171.5t-29 -200q0 -155 78 -235.5t201 -80.5z" />
    <glyph glyph-name="uni01CE.ss02" 
d="M913 1452h121l-231 -262h-250l-147 262h114l166 -184zM1098 1065l-168 -1065h-146l35 213q-65 -108 -166 -169.5t-227 -61.5q-79 0 -148.5 26.5t-124.5 77.5t-87.5 135.5t-32.5 192.5q0 132 39.5 252t109.5 211.5t174.5 145.5t227.5 54q129 0 213 -57.5t118 -163.5
l35 209h148zM455 102q128 0 228 79.5t151 202.5t51 263q0 155 -79.5 232t-205.5 77q-98 0 -179.5 -45.5t-134 -121t-81.5 -171.5t-29 -200q0 -155 78 -235.5t201 -80.5z" />
    <glyph glyph-name="acircumflex.ss02" 
d="M858 1190l-164 184l-227 -184h-121l229 262h250l150 -262h-117zM1098 1065l-168 -1065h-146l35 213q-65 -108 -166 -169.5t-227 -61.5q-79 0 -148.5 26.5t-124.5 77.5t-87.5 135.5t-32.5 192.5q0 132 39.5 252t109.5 211.5t174.5 145.5t227.5 54q129 0 213 -57.5
t118 -163.5l35 209h148zM455 102q128 0 228 79.5t151 202.5t51 263q0 155 -79.5 232t-205.5 77q-98 0 -179.5 -45.5t-134 -121t-81.5 -171.5t-29 -200q0 -155 78 -235.5t201 -80.5z" />
    <glyph glyph-name="adieresis.ss02" 
d="M430 1452h154l-27 -178h-154zM862 1452h152l-27 -178h-151zM1098 1065l-168 -1065h-146l35 213q-65 -108 -166 -169.5t-227 -61.5q-79 0 -148.5 26.5t-124.5 77.5t-87.5 135.5t-32.5 192.5q0 132 39.5 252t109.5 211.5t174.5 145.5t227.5 54q129 0 213 -57.5t118 -163.5
l35 209h148zM455 102q128 0 228 79.5t151 202.5t51 263q0 155 -79.5 232t-205.5 77q-98 0 -179.5 -45.5t-134 -121t-81.5 -171.5t-29 -200q0 -155 78 -235.5t201 -80.5z" />
    <glyph glyph-name="agrave.ss02" 
d="M733 1190l-141 262h-207l221 -262h127zM1098 1065l-168 -1065h-146l35 213q-65 -108 -166 -169.5t-227 -61.5q-79 0 -148.5 26.5t-124.5 77.5t-87.5 135.5t-32.5 192.5q0 132 39.5 252t109.5 211.5t174.5 145.5t227.5 54q129 0 213 -57.5t118 -163.5l35 209h148zM455 102
q128 0 228 79.5t151 202.5t51 263q0 155 -79.5 232t-205.5 77q-98 0 -179.5 -45.5t-134 -121t-81.5 -171.5t-29 -200q0 -155 78 -235.5t201 -80.5z" />
    <glyph glyph-name="amacron.ss02" 
d="M428 1452h614l-14 -94h-614zM1098 1065l-168 -1065h-146l35 213q-65 -108 -166 -169.5t-227 -61.5q-79 0 -148.5 26.5t-124.5 77.5t-87.5 135.5t-32.5 192.5q0 132 39.5 252t109.5 211.5t174.5 145.5t227.5 54q129 0 213 -57.5t118 -163.5l35 209h148zM455 102
q128 0 228 79.5t151 202.5t51 263q0 155 -79.5 232t-205.5 77q-98 0 -179.5 -45.5t-134 -121t-81.5 -171.5t-29 -200q0 -155 78 -235.5t201 -80.5z" />
    <glyph glyph-name="aogonek.ss02" 
d="M950 1065h148l-168 -1065h-35q-119 -41 -184.5 -104.5t-65.5 -135.5q0 -64 52.5 -88.5t144.5 -5.5v-74q-44 -19 -100.5 -23t-109.5 8.5t-89.5 53.5t-36.5 105t44.5 121t105.5 91.5t128 51.5l35 213q-65 -108 -166 -169.5t-227 -61.5q-79 0 -148.5 26.5t-124.5 77.5
t-87.5 135.5t-32.5 192.5q0 132 39.5 252t109.5 211.5t174.5 145.5t227.5 54q129 0 213 -57.5t118 -163.5zM455 102q128 0 228 79.5t151 202.5t51 263q0 155 -79.5 232t-205.5 77q-98 0 -179.5 -45.5t-134 -121t-81.5 -171.5t-29 -200q0 -155 78 -235.5t201 -80.5z" />
    <glyph glyph-name="aring.ss02" 
d="M690 1190q-68 0 -111.5 43.5t-43.5 107.5q0 77 56.5 134t137.5 57q65 0 108.5 -44.5t43.5 -109.5q0 -75 -58 -131.5t-133 -56.5zM698 1266q40 0 72.5 32t32.5 74q0 36 -24 60t-60 24q-43 0 -76 -32t-33 -74q0 -36 24.5 -60t63.5 -24zM1098 1065l-168 -1065h-146l35 213
q-65 -108 -166 -169.5t-227 -61.5q-79 0 -148.5 26.5t-124.5 77.5t-87.5 135.5t-32.5 192.5q0 132 39.5 252t109.5 211.5t174.5 145.5t227.5 54q129 0 213 -57.5t118 -163.5l35 209h148zM455 102q128 0 228 79.5t151 202.5t51 263q0 155 -79.5 232t-205.5 77
q-98 0 -179.5 -45.5t-134 -121t-81.5 -171.5t-29 -200q0 -155 78 -235.5t201 -80.5z" />
    <glyph glyph-name="atilde.ss02" 
d="M938 1434h74q0 -91 -56.5 -144t-142.5 -53q-48 0 -93 22.5t-75 50t-71 50t-82 22.5q-54 0 -82.5 -27.5t-26.5 -62.5h-74q0 91 56.5 145t142.5 54q48 0 93 -23t75 -51t71 -51t82 -23q54 0 82.5 28t26.5 63zM1098 1065l-168 -1065h-146l35 213q-65 -108 -166 -169.5
t-227 -61.5q-79 0 -148.5 26.5t-124.5 77.5t-87.5 135.5t-32.5 192.5q0 132 39.5 252t109.5 211.5t174.5 145.5t227.5 54q129 0 213 -57.5t118 -163.5l35 209h148zM455 102q128 0 228 79.5t151 202.5t51 263q0 155 -79.5 232t-205.5 77q-98 0 -179.5 -45.5t-134 -121
t-81.5 -171.5t-29 -200q0 -155 78 -235.5t201 -80.5z" />
    <glyph glyph-name="g.ss03" horiz-adv-x="1060" 
d="M1026 954q-78 0 -127 -49q25 -58 25 -123q0 -181 -124.5 -296t-316.5 -115q-131 0 -219 57q-51 -4 -80.5 -30t-29.5 -62q0 -44 41.5 -63t130.5 -19h131q84 0 157.5 -17t134.5 -52t96.5 -95t35.5 -139q0 -99 -42.5 -177t-116 -126.5t-166.5 -73.5t-200 -25
q-82 0 -154 17.5t-132.5 52.5t-95.5 95.5t-35 140.5q0 125 73 211.5t205 128.5q-80 6 -131 42.5t-51 98.5q0 58 44 99.5t120 51.5q-58 74 -58 181q0 181 123.5 295t315.5 114q175 0 270 -98q60 89 194 86zM489 481q140 0 225 82t85 211q0 89 -58 141t-170 52
q-139 0 -222 -81t-83 -212q0 -90 56.5 -141.5t166.5 -51.5zM444 143q-162 0 -263 -74.5t-101 -207.5q0 -101 78.5 -151t206.5 -50q170 0 273 74.5t103 210.5q0 100 -81 149t-216 49z" />
    <glyph glyph-name="l.ss04" horiz-adv-x="419" 
d="M244 -4q-124 -12 -174.5 30.5t-32.5 161.5l199 1246h145l-201 -1254q-6 -40 13 -57.5t71 -16.5z" />
    <glyph glyph-name="f_t" horiz-adv-x="1275" 
d="M1034 946l-119 -756q-6 -44 11 -61.5t63 -17.5q69 0 141 16l-18 -119q-67 -22 -164 -22q-98 0 -146.5 46t-29.5 161l119 753h-520l-150 -946h-145l149 946h-157l16 119h160l18 121q13 85 45 143.5t78 86.5t91.5 39t103.5 11q74 0 151 -18l-18 -113q-69 15 -127 15
q-80 0 -122.5 -38t-55.5 -128l-19 -119h520l43 266h144l-43 -266h217l-19 -119h-217z" />
    <glyph glyph-name="r_t" horiz-adv-x="1271" 
d="M1030 946l-119 -756q-6 -44 11 -61.5t63 -17.5q69 0 141 16l-18 -119q-67 -22 -164 -22q-98 0 -146.5 46t-29.5 161l119 753h-166l16 119h168l43 266h144l-43 -266h217l-19 -119h-217zM270 801q44 115 166 189.5t301 74.5l-20 -119q-361 0 -475 -330l-99 -616h-145
l168 1065h145z" />
    <glyph glyph-name="zero.dnom" horiz-adv-x="577" 
d="M203 -4q112 0 188 90.5t76 239.5q0 99 -48 156t-134 57q-118 0 -188 -97.5t-70 -234.5q0 -98 46 -154.5t130 -56.5zM279 479q56 0 89 -41t33 -116q0 -119 -57 -193t-133 -74q-56 0 -87.5 40t-31.5 116q0 121 55 194.5t132 73.5z" />
    <glyph glyph-name="one.dnom" horiz-adv-x="360" 
d="M217 532l-84 -532h-65l73 446q-41 -54 -121 -45l9 60q36 -4 71.5 18.5t51.5 52.5h65z" />
    <glyph glyph-name="two.dnom" horiz-adv-x="526" 
d="M8 0q9 88 51.5 144.5t143.5 113.5q81 47 102 67q39 36 39 83q0 32 -25 52.5t-65 20.5q-48 0 -80 -27t-39 -77h-65q11 75 61.5 120.5t130.5 45.5q67 0 107.5 -35t40.5 -90q0 -26 -6 -48t-20.5 -41.5t-28 -34t-39 -31t-42.5 -26.5t-49 -28q-61 -32 -96.5 -73t-38.5 -75h270
l-10 -61h-342z" />
    <glyph glyph-name="three.dnom" horiz-adv-x="550" 
d="M303 283q43 -7 75 -34t32 -77q0 -76 -61 -128t-161 -52q-90 0 -132.5 49t-30.5 125h61q-7 -55 22.5 -85t88.5 -30q64 0 105.5 33t41.5 88q0 82 -127 82h-22l10 49h22q58 0 92.5 33t34.5 76q0 34 -24 52.5t-68 18.5q-106 0 -129 -108h-61q14 80 65.5 124t132.5 44
q71 0 110.5 -33t39.5 -86t-34 -90.5t-83 -50.5z" />
    <glyph glyph-name="four.dnom" horiz-adv-x="536" 
d="M391 135h-61l-23 -135h-65l22 135h-244l9 53l299 347h65l-57 -347h61zM272 188l41 261l-223 -261h182z" />
    <glyph glyph-name="five.dnom" horiz-adv-x="497" 
d="M238 358q70 0 112 -49t29 -133q-12 -85 -72 -135.5t-147 -50.5q-83 0 -126 49t-32 125h64q-5 -49 21.5 -81t80.5 -32q57 0 96.5 33.5t48.5 91.5q10 66 -20.5 97.5t-75.5 31.5q-73 0 -127 -57h-63l90 287h274l-10 -60h-227l-54 -170q17 19 53 36t85 17z" />
    <glyph glyph-name="six.dnom" horiz-adv-x="550" 
d="M262 350q64 0 108 -35t44 -104q0 -100 -60.5 -160.5t-152.5 -60.5q-102 0 -142 73.5t-20 196.5q21 127 79.5 204t160.5 77q80 0 117.5 -44t33.5 -100h-63q-2 36 -25 60t-72 24q-34 0 -61.5 -14.5t-44.5 -34.5t-30.5 -51t-19.5 -54t-12 -53q22 29 65 52.5t95 23.5zM205 49
q63 0 102 44.5t39 111.5q0 44 -28.5 68t-71.5 24q-59 0 -102.5 -39t-43.5 -100q0 -50 29 -79.5t76 -29.5z" />
    <glyph glyph-name="seven.dnom" horiz-adv-x="458" 
d="M397 535l-10 -60l-285 -475h-69l291 475h-291l8 60h356z" />
    <glyph glyph-name="eight.dnom" horiz-adv-x="477" 
d="M289 291q78 -40 78 -115q0 -82 -60 -131t-155 -49q-71 0 -116.5 35.5t-45.5 97.5q0 56 33 97.5t88 64.5q-52 37 -52 96q0 60 48.5 106t128.5 46q66 0 102.5 -33t36.5 -82q0 -82 -86 -133zM117 389q0 -33 26 -54.5t62 -21.5q45 0 78.5 30.5t33.5 72.5q0 69 -90 69
q-50 0 -80 -28.5t-30 -67.5zM158 51q64 0 105.5 32t41.5 89q0 42 -30 65t-82 23q-56 0 -99 -33t-43 -90q0 -42 29 -64t78 -22z" />
    <glyph glyph-name="nine.dnom" horiz-adv-x="548" 
d="M203 180q-64 0 -108 35t-44 104q0 101 60.5 161.5t152.5 60.5q102 0 142 -74t20 -197q-20 -126 -80 -203t-162 -77q-79 0 -116 44t-33 99h61q2 -36 25.5 -60t73.5 -24q34 0 61.5 14.5t44 34.5t30 51t19.5 54t12 53q-22 -30 -64.5 -53t-94.5 -23zM260 481
q-64 0 -103.5 -44t-39.5 -111q0 -44 28.5 -68.5t73.5 -24.5q59 0 102.5 39.5t43.5 100.5q0 50 -29 79t-76 29z" />
    <glyph glyph-name="zero.numr" horiz-adv-x="575" 
d="M344 897q112 0 188 90.5t76 239.5q0 99 -48 156t-134 57q-118 0 -188 -97.5t-70 -234.5q0 -98 46 -154.5t130 -56.5zM420 1380q57 0 90 -41t33 -116q0 -119 -57.5 -193t-133.5 -74q-56 0 -87.5 40t-31.5 116q0 121 55 194.5t132 73.5z" />
    <glyph glyph-name="one.numr" horiz-adv-x="360" 
d="M360 1434l-84 -533h-65l74 447q-41 -54 -121 -45l8 59q36 -4 71 18.5t52 53.5h65z" />
    <glyph glyph-name="two.numr" horiz-adv-x="526" 
d="M152 901q9 88 51 144.5t143 113.5q81 47 102 67q39 36 39 83q0 32 -25 52.5t-65 20.5q-48 0 -79.5 -27t-38.5 -77h-66q11 75 62 120.5t131 45.5q67 0 107 -35t40 -90q0 -38 -13 -68.5t-43 -56.5t-55 -42t-73 -42q-62 -32 -97.5 -72.5t-38.5 -74.5h271l-10 -62h-342z" />
    <glyph glyph-name="three.numr" horiz-adv-x="548" 
d="M444 1184q43 -7 75 -34t32 -77q0 -76 -60.5 -128t-160.5 -52q-90 0 -133 49t-31 125h61q-7 -55 22.5 -85t88.5 -30q64 0 105.5 33t41.5 88q0 82 -127 82h-22l10 49h23q58 0 92.5 33t34.5 76q0 34 -24.5 52.5t-68.5 18.5q-106 0 -129 -108h-61q14 80 66 124t133 44
q71 0 110 -33t39 -86t-34 -90.5t-83 -50.5z" />
    <glyph glyph-name="four.numr" horiz-adv-x="536" 
d="M535 1036h-62l-22 -135h-66l23 135h-244l8 54l299 346h66l-58 -346h62zM416 1090l41 260l-224 -260h183z" />
    <glyph glyph-name="five.numr" horiz-adv-x="497" 
d="M381 1260q70 0 112 -49.5t29 -133.5q-12 -85 -72 -135.5t-147 -50.5q-83 0 -126 49t-32 125h64q-5 -49 21.5 -81t80.5 -32q58 0 97.5 33.5t48.5 91.5q10 66 -21 97.5t-76 31.5q-73 0 -127 -57h-63l90 287h275l-11 -60h-227l-53 -170q17 19 52.5 36.5t84.5 17.5z" />
    <glyph glyph-name="six.numr" horiz-adv-x="550" 
d="M406 1249q64 0 107.5 -35t43.5 -104q0 -100 -60.5 -160.5t-152.5 -60.5q-102 0 -142 73.5t-20 196.5q21 127 79.5 204t160.5 77q80 0 117.5 -44t33.5 -100h-63q-2 36 -24.5 60t-71.5 24q-34 0 -61.5 -14.5t-44.5 -34.5t-30.5 -50.5t-19.5 -53.5t-12 -53q22 29 65 52
t95 23zM348 948q63 0 102 44.5t39 111.5q0 44 -28.5 68t-71.5 24q-59 0 -102 -39t-43 -100q0 -50 29 -79.5t75 -29.5z" />
    <glyph glyph-name="seven.numr" horiz-adv-x="458" 
d="M541 1436l-11 -60l-284 -475h-70l291 475h-291l8 60h357z" />
    <glyph glyph-name="eight.numr" horiz-adv-x="477" 
d="M432 1192q78 -40 78 -115q0 -82 -60 -131t-155 -49q-71 0 -116.5 35.5t-45.5 97.5q0 56 33 97.5t88 64.5q-51 36 -51 96t48 106t128 46q66 0 102.5 -33t36.5 -82q0 -82 -86 -133zM260 1290q0 -33 26 -54.5t62 -21.5q45 0 79 30.5t34 72.5q0 69 -90 69q-50 0 -80.5 -28.5
t-30.5 -67.5zM301 952q64 0 106 32t42 89q0 42 -30.5 65t-82.5 23q-55 0 -98 -33t-43 -90q0 -42 28.5 -64t77.5 -22z" />
    <glyph glyph-name="nine.numr" horiz-adv-x="548" 
d="M346 1081q-64 0 -107.5 35.5t-43.5 104.5q0 100 60.5 160.5t152.5 60.5q102 0 141.5 -74t19.5 -197q-20 -126 -79.5 -203t-161.5 -77q-79 0 -116.5 44t-33.5 99h62q2 -37 25 -60.5t73 -23.5q34 0 61.5 14.5t44.5 34.5t30.5 51t19.5 54t12 53q-22 -29 -65 -52.5t-95 -23.5
zM403 1382q-64 0 -103.5 -44t-39.5 -111q0 -44 28.5 -68t73.5 -24q59 0 102.5 39t43.5 100q0 50 -29 79t-76 29z" />
    <glyph glyph-name="Aacutecy" horiz-adv-x="1378" 
d="M1157 1821l-262 -262h-123l182 262h203zM1071 0l-86 381h-655l-207 -381h-166l797 1434h135l344 -1434h-162zM393 498h565l-165 735z" />
    <glyph glyph-name="Ieacutecy" horiz-adv-x="1116" 
d="M670 1559h123l262 262h-203zM1145 1298h-768l-80 -497h666l-21 -125h-666l-86 -541h791l-23 -135h-940l228 1434h919z" />
    <glyph glyph-name="Iiacutecy" horiz-adv-x="1343" 
d="M764 1559h123l262 262h-203zM246 1434h151l-190 -1205h2l975 1205h170l-228 -1434h-151l190 1200h-4l-968 -1200h-175z" />
    <glyph glyph-name="Oacutecy" horiz-adv-x="1439" 
d="M823 1559h123l262 262h-202zM846 1452q247 0 392.5 -143t145.5 -408q0 -185 -53.5 -351t-150.5 -292.5t-244.5 -201t-325.5 -74.5q-247 0 -391.5 142.5t-144.5 405.5q0 148 33 285t98.5 253t157 201.5t216 134t267.5 48.5zM629 117q114 0 212 43t168 117t120 172.5
t74 210t24 229.5q0 209 -106.5 318.5t-293.5 109.5q-114 0 -211.5 -43t-167.5 -117.5t-119.5 -173.5t-73.5 -211.5t-24 -230.5q0 -208 105.5 -316t292.5 -108z" />
    <glyph glyph-name="Uacutecy" horiz-adv-x="1150" 
d="M672 1559h123l262 262h-203zM1044 1434h168l-657 -1153q-100 -178 -212 -246t-263 -49l22 137q108 -13 179 31t125 143q28 50 36.5 84.5t-0.5 77.5l-258 975h164l219 -867z" />
    <glyph glyph-name="Yeruacutecy" horiz-adv-x="1566" 
d="M881 1559h123l262 262h-203zM666 907q218 0 332 -96t114 -270q0 -252 -157.5 -396.5t-424.5 -144.5h-512l228 1434h151l-84 -527h353zM1350 0h-152l225 1434h152zM547 135q188 0 296.5 109t108.5 288q0 240 -297 240h-364l-101 -637h357z" />
    <glyph glyph-name="Ereversedacutecy" horiz-adv-x="1376" 
d="M1171 1821l-262 -262h-123l183 262h202zM786 1452q244 0 388.5 -143t144.5 -414q0 -145 -31.5 -280t-95 -250t-152.5 -200.5t-210.5 -134t-262.5 -48.5q-214 0 -349 99t-148 271h149q55 -235 350 -235q115 0 213.5 44t169 121.5t118.5 177t71 216.5h-535l21 125h532
q4 62 4 94q0 208 -103 315t-280 107q-154 0 -263 -62.5t-169 -171.5h-158q69 177 228.5 273t367.5 96z" />
    <glyph glyph-name="Iuacutecy" horiz-adv-x="1849" 
d="M1407 1821l-262 -262h-123l182 262h203zM1255 1452q247 0 393 -143t146 -408q0 -185 -53.5 -351t-150.5 -292.5t-244.5 -201t-325.5 -74.5q-247 0 -392 142.5t-145 405.5q0 37 4 107h-215l-100 -637h-152l226 1434h151l-104 -670h213q28 147 91 271t156.5 217.5
t222.5 146.5t279 53zM1038 117q114 0 212 43t168 117t120 172.5t74 210t24 229.5q0 210 -106 319t-293 109q-114 0 -211.5 -43t-167.5 -117.5t-119.5 -173.5t-73.5 -211.5t-24 -230.5q0 -208 105 -316t292 -108z" />
    <glyph glyph-name="Iaacutecy" horiz-adv-x="1263" 
d="M1114 1821l-262 -262h-123l182 262h203zM1274 1434l-227 -1434h-152l94 594h-461q-56 0 -104.5 -12t-92.5 -39t-74 -76t-40 -117l-16 -114q-26 -178 -78 -236h-156q61 68 84 244l17 118q17 127 86.5 203t197.5 105q-90 40 -138 118.5t-48 188.5q0 214 149.5 335.5
t397.5 121.5h561zM1010 719l92 581h-400q-183 0 -285 -89.5t-102 -245.5q0 -117 69.5 -181.5t184.5 -64.5h441z" />
    <glyph glyph-name="aacutecy" horiz-adv-x="1120" 
d="M956 1452l-262 -262h-123l183 262h202zM977 684l-82 -518q-6 -42 12 -58.5t64 -13.5l-17 -92q-29 -10 -63 -10q-77 0 -112.5 38t-20.5 115l14 72q-14 -23 -36 -48t-62.5 -59t-87 -60.5t-113.5 -45t-139 -18.5q-143 0 -228.5 71.5t-85.5 200.5q0 83 29 144t86.5 100.5
t129 62.5t169.5 37q12 2 65.5 9t76 10.5t69.5 11.5t74.5 14t60 15t54.5 18l2 14q24 147 -31 207t-199 60q-128 0 -197 -42t-98 -124h-139q41 146 147.5 213t294.5 67q217 0 306 -93.5t57 -297.5zM776 340l41 246q-66 -28 -381 -78q-140 -22 -205 -76.5t-65 -159.5
q0 -84 53.5 -131t149.5 -47q66 0 128.5 20t106.5 48.5t81.5 64t58 63.5t32.5 50z" />
    <glyph glyph-name="ieacutecy" horiz-adv-x="1095" 
d="M971 1452l-262 -262h-123l182 262h203zM1001 473h-829q-2 -18 -2 -53q0 -162 83 -241t224 -79q104 0 173.5 28.5t131.5 96.5h146q-88 -128 -198 -183.5t-267 -55.5q-91 0 -168.5 27t-136.5 79.5t-92 136t-33 189.5q0 182 73 331.5t207.5 237.5t302.5 88q178 0 292 -109.5
t114 -314.5q0 -33 -7 -91t-14 -87zM604 961q-161 0 -271 -109.5t-147 -278.5h693q8 41 8 93q0 141 -78 218t-205 77z" />
    <glyph glyph-name="iiacutecy" horiz-adv-x="1146" 
d="M610 1190h123l262 262h-202zM166 1065h145l-139 -875h4l766 875h166l-168 -1065h-145l137 870h-4l-762 -870h-168z" />
    <glyph glyph-name="oacutecy" horiz-adv-x="1112" 
d="M573 1190h123l262 262h-202zM614 1075q83 0 157.5 -27.5t134.5 -79.5t95 -137.5t35 -193.5q0 -175 -73 -323.5t-206.5 -238t-299.5 -89.5q-83 0 -158 27t-135 79t-95.5 137t-35.5 193q0 174 74 323.5t208 239.5t299 90zM897 635q0 155 -83 237t-208 82q-127 0 -227.5 -76
t-152.5 -195.5t-52 -256.5q0 -153 84 -236.5t207 -83.5q128 0 228.5 77t152 196.5t51.5 255.5z" />
    <glyph glyph-name="uacutecy" horiz-adv-x="1050" 
d="M561 1190h123l262 262h-203zM930 1065h153l-651 -1163q-96 -173 -204.5 -239t-256.5 -44l21 123q199 -27 313 186q27 50 35 73t2 48l-248 1016h146l204 -899z" />
    <glyph glyph-name="yeruacutecy" horiz-adv-x="1380" 
d="M727 1190h123l262 262h-203zM569 674q182 0 282.5 -75.5t100.5 -211.5q0 -185 -133 -286t-350 -101h-461l168 1065h146l-62 -391h309zM1196 1065h145l-167 -1065h-146zM483 119q156 0 243 67.5t87 192.5q0 176 -252 176h-319l-70 -436h311z" />
    <glyph glyph-name="ereversedacutecy" horiz-adv-x="1050" 
d="M948 1452l-262 -262h-123l182 262h203zM553 1075q86 0 161.5 -26.5t134.5 -77.5t93.5 -135.5t34.5 -192.5q0 -179 -72.5 -328.5t-206 -239t-301.5 -89.5q-344 0 -391 325h135q20 -106 82.5 -155.5t177.5 -49.5q162 0 272 112.5t148 281.5h-391l14 96h390q2 14 2 45
q0 154 -81 233.5t-210 79.5q-118 0 -196.5 -50.5t-131.5 -151.5h-139q49 119 125 192.5t160.5 102t189.5 28.5z" />
    <glyph glyph-name="iuacutecy" horiz-adv-x="1458" 
d="M1153 1452l-262 -262h-123l182 262h203zM963 1075q83 0 157.5 -27.5t134 -79.5t94.5 -137.5t35 -193.5q0 -175 -73 -323.5t-206.5 -238t-299.5 -89.5q-83 0 -158 27t-135 79t-95.5 137t-35.5 193q0 33 2 49h-156l-73 -473h-146l168 1065h146l-74 -473h151
q48 211 202.5 348t361.5 137zM813 106q128 0 228.5 77t152 196.5t51.5 255.5q0 155 -83 237t-208 82q-127 0 -227.5 -76t-152.5 -195.5t-52 -256.5q0 -153 84 -236.5t207 -83.5z" />
    <glyph glyph-name="iaacutecy" horiz-adv-x="1077" 
d="M961 1452l-263 -262h-123l183 262h203zM578 1065h460l-168 -1065h-145l61 391h-378q-96 0 -140.5 -32.5t-56.5 -106.5l-16 -94q-11 -71 -23.5 -103.5t-32.5 -54.5h-145q21 21 32 52.5t23 105.5l17 94q13 75 48.5 123t108.5 71q-129 75 -129 232q0 185 133 286t351 101z
M805 510l69 436h-311q-156 0 -243 -67.5t-87 -192.5q0 -176 252 -176h320z" />
    </font>
</defs>
</svg>
