<?xml version="1.0" standalone="no"?>
<!DOCTYPE svg PUBLIC "-//W3C//DTD SVG 1.1//EN" "http://www.w3.org/Graphics/SVG/1.1/DTD/svg11.dtd" >
<svg xmlns="http://www.w3.org/2000/svg" xmlns:xlink="http://www.w3.org/1999/xlink" version="1.1">
<metadata>
Created by FontForge 20170731 at Mon Aug  7 16:11:17 2023
 By Aleksey,,,
(c) 2018 Connary Fagen
</metadata>
<defs>
<font id="ArticulatCF-Regular" horiz-adv-x="1095" >
  <font-face 
    font-family="Articulat CF"
    font-weight="400"
    font-stretch="normal"
    units-per-em="2048"
    panose-1="0 0 5 0 0 0 0 0 0 0"
    ascent="1638"
    descent="-410"
    x-height="1065"
    cap-height="1434"
    bbox="-338 -575 2157 1909"
    underline-thickness="102"
    underline-position="-307"
    unicode-range="U+0020-FB02"
  />
<missing-glyph horiz-adv-x="1044" 
d="M856 1638v-2089h-661v2089h661zM696 1499h-346v-69h137v-78h-139v-68h348v68h-139v78h139v69zM557 1229h-209v-217h348v71h-139v146zM487 1157v-74h-69v74h69zM696 954h-348v-67h139v-78h-139v-70h209v148h139v67zM696 829h-69v-137h-279v-71h348v208zM696 575h-209v-116
h70v47h70v-98h-209v167h-70v-235h348v235zM696 213h-348v-236h348v236zM627 145v-98h-209v98h209zM696 -70h-348v-69h148l-148 -99v-69h348v69h-213l146 99h67v69z" />
    <glyph glyph-name="fi" unicode="fi" horiz-adv-x="1044" 
d="M188 1176q0 73 17 127t42.5 84.5t64.5 49t75.5 24t81.5 5.5q95 0 156 -22v-123q-54 14 -123 14q-79 0 -114.5 -36t-35.5 -125v-109h260v-131h-260v-934h-164v934h-147v131h147v111zM764 1452h164v-152h-164v152zM764 0v1065h164v-1065h-164z" />
    <glyph glyph-name="fl" unicode="fl" horiz-adv-x="1044" 
d="M188 1176q0 73 17 127t42.5 84.5t64.5 49t75.5 24t81.5 5.5q95 0 156 -22v-123q-54 14 -123 14q-79 0 -114.5 -36t-35.5 -125v-109h260v-131h-260v-934h-164v934h-147v131h147v111zM764 1446h164v-1446h-164v1446z" />
    <glyph glyph-name=".notdef" horiz-adv-x="1044" 
d="M856 1638v-2089h-661v2089h661zM696 1499h-346v-69h137v-78h-139v-68h348v68h-139v78h139v69zM557 1229h-209v-217h348v71h-139v146zM487 1157v-74h-69v74h69zM696 954h-348v-67h139v-78h-139v-70h209v148h139v67zM696 829h-69v-137h-279v-71h348v208zM696 575h-209v-116
h70v47h70v-98h-209v167h-70v-235h348v235zM696 213h-348v-236h348v236zM627 145v-98h-209v98h209zM696 -70h-348v-69h148l-148 -99v-69h348v69h-213l146 99h67v69z" />
    <glyph glyph-name=".null" horiz-adv-x="0" 
 />
    <glyph glyph-name="nonmarkingreturn" horiz-adv-x="682" 
 />
    <glyph glyph-name="space" unicode=" " horiz-adv-x="559" 
 />
    <glyph glyph-name="exclam" unicode="!" horiz-adv-x="432" 
d="M295 399h-158l-4 1035h168zM119 209h196v-209h-196v209z" />
    <glyph glyph-name="quotedbl" unicode="&#x22;" horiz-adv-x="618" 
d="M82 934h156v500h-156v-500zM381 934h156v500h-156v-500z" />
    <glyph glyph-name="numbersign" unicode="#" horiz-adv-x="1212" 
d="M1120 911h-221l-39 -389h207v-131h-221l-39 -391h-127l39 391h-295l-39 -391h-127l39 391h-205v131h219l39 389h-205v131h217l39 392h127l-39 -392h295l39 392h127l-39 -392h209v-131zM733 522l39 389h-295l-39 -389h295z" />
    <glyph glyph-name="dollar" unicode="$" horiz-adv-x="1206" 
d="M1118 391q0 -181 -125.5 -289.5t-345.5 -119.5v-166h-84v168q-216 10 -336.5 127.5t-138.5 306.5h170q19 -120 92 -199t213 -90v545l-78 16q-179 38 -273.5 128.5t-94.5 246.5q0 164 117 272t329 115v166h84v-168q191 -13 302 -113t132 -266h-168q-41 210 -266 234v-502
l58 -12q208 -44 310.5 -135t102.5 -265zM518 829l45 -10v488q-138 -8 -208 -79.5t-70 -166.5q0 -185 233 -232zM647 129q145 9 223 80.5t78 183.5q0 60 -19 104.5t-56.5 74t-82 47.5t-104.5 30l-39 8v-528z" />
    <glyph glyph-name="percent" unicode="%" horiz-adv-x="1484" 
d="M356 817q-116 0 -190 83t-74 230q0 148 74 231t190 83q118 0 192.5 -83t74.5 -231q0 -147 -74.5 -230t-192.5 -83zM258 0l844 1438l125 -4l-840 -1434h-129zM356 930q68 0 108 48.5t40 151.5t-40 153t-108 50q-67 0 -106 -50t-39 -153q0 -102 39 -151t106 -49zM1126 -10
q-116 0 -190 83t-74 230q0 148 74 230.5t190 82.5q118 0 192.5 -82.5t74.5 -230.5q0 -147 -74.5 -230t-192.5 -83zM1126 102q68 0 108 49t40 152t-40 153t-108 50q-67 0 -106 -50t-39 -153t39 -152t106 -49z" />
    <glyph glyph-name="ampersand" unicode="&#x26;" horiz-adv-x="1394" 
d="M1329 0h-186l-135 150q-172 -175 -424 -175q-220 0 -358 115.5t-138 290.5q0 59 17 110.5t44 91.5t72 79.5t90.5 70t110.5 68.5q-86 97 -135 181t-49 171q0 137 87.5 223t258.5 86q160 0 248 -86.5t88 -218.5q0 -115 -62.5 -199t-228.5 -182l360 -401q84 153 90 364h150
q-17 -292 -135 -479zM584 1337q-96 0 -151.5 -50.5t-55.5 -137.5q0 -63 42 -127.5t124 -153.5q130 73 184.5 136.5t54.5 146.5q0 85 -54.5 135.5t-143.5 50.5zM586 119q187 0 321 143l-399 445q-123 -71 -184.5 -149t-61.5 -173q0 -116 90 -191t234 -75z" />
    <glyph glyph-name="quotesingle" unicode="'" horiz-adv-x="319" 
d="M82 934h156v500h-156v-500z" />
    <glyph glyph-name="parenleft" unicode="(" horiz-adv-x="544" 
d="M309 1526h154q-207 -377 -207 -871q0 -523 207 -921h-154q-217 388 -217 921q0 507 217 871z" />
    <glyph glyph-name="parenright" unicode=")" horiz-adv-x="544" 
d="M246 1526q217 -364 217 -871q0 -533 -217 -921h-154q207 398 207 921q0 494 -207 871h154z" />
    <glyph glyph-name="asterisk" unicode="*" horiz-adv-x="962" 
d="M809 1157l-223 -59l147 -195l-119 -76l-131 189l-133 -189l-119 76l148 193l-225 61l34 135l230 -69l-6 239h137l-4 -239l231 69zM518 1124l-10 37h-51l-11 -37l37 -30z" />
    <glyph glyph-name="plus" unicode="+" horiz-adv-x="1060" 
d="M969 651v-145h-363v-365h-153v365h-361v145h361v361h153v-361h363z" />
    <glyph glyph-name="comma" unicode="," horiz-adv-x="401" 
d="M102 -297v55q45 21 62.5 62.5t17.5 116.5v63h-80v209h197v-260q0 -242 -197 -246z" />
    <glyph glyph-name="hyphen" unicode="-" horiz-adv-x="727" 
d="M82 637h563v-127h-563v127z" />
    <glyph glyph-name="period" unicode="." horiz-adv-x="401" 
d="M102 209h197v-209h-197v209z" />
    <glyph glyph-name="slash" unicode="/" horiz-adv-x="841" 
d="M780 1434l-555 -1432h-164l557 1432h162z" />
    <glyph glyph-name="zero" unicode="0" horiz-adv-x="1288" 
d="M645 1452q117 0 217.5 -46.5t176.5 -135.5t119.5 -231t43.5 -322t-43.5 -322t-119.5 -231t-176.5 -135.5t-217.5 -46.5t-217.5 46.5t-176.5 135.5t-119.5 231t-43.5 322t43.5 322t119.5 231t176.5 135.5t217.5 46.5zM1038 717q0 273 -103.5 432.5t-289.5 159.5
t-289.5 -159.5t-103.5 -432.5q0 -274 103.5 -433t289.5 -159t289.5 159t103.5 433z" />
    <glyph glyph-name="one" unicode="1" horiz-adv-x="651" 
d="M504 1434v-1434h-164v1212q-42 -47 -110.5 -79t-151.5 -35v137q98 9 169 64t93 135h164z" />
    <glyph glyph-name="two" unicode="2" horiz-adv-x="1112" 
d="M82 0v47q0 195 92.5 327t329.5 279q11 6 31 19q43 27 64.5 40t57.5 37.5t54.5 40t44.5 40t39 45.5t27 48t20 56.5t6 62.5q0 123 -83 195t-212 72q-132 0 -214.5 -77.5t-82.5 -227.5v-31h-160v31q0 202 120.5 323t336.5 121q212 0 335.5 -115t123.5 -291q0 -40 -7.5 -76.5
t-17 -66t-31.5 -61t-37.5 -52.5t-49.5 -49.5t-54 -44.5t-63.5 -44.5t-65.5 -42t-73 -43.5q-4 -2 -5.5 -3l-4.5 -3t-5 -3q-83 -50 -140 -92t-105 -91.5t-71.5 -103t-23.5 -114.5v-15h762v-137h-938z" />
    <glyph glyph-name="three" unicode="3" horiz-adv-x="1181" 
d="M778 774q60 -10 115 -36.5t102.5 -69.5t76 -110.5t28.5 -149.5q0 -194 -139.5 -313.5t-376.5 -119.5q-238 0 -374 133.5t-138 352.5h155q4 -160 101.5 -251t253.5 -91q153 0 253.5 78t100.5 215t-101 216t-286 79h-49v116h49q87 0 151.5 22t98.5 59.5t49.5 79.5t15.5 89
q0 107 -80.5 171.5t-208.5 64.5q-63 0 -116 -18.5t-94 -56t-64.5 -101t-24.5 -146.5h-153q0 224 121 344.5t331 120.5q204 0 326.5 -105.5t122.5 -261.5q0 -115 -66 -196.5t-180 -114.5z" />
    <glyph glyph-name="four" unicode="4" horiz-adv-x="1134" 
d="M1063 381h-164v-381h-164v381h-663v135l663 918h164v-918h164v-135zM735 516v711l-512 -711h512z" />
    <glyph glyph-name="five" unicode="5" horiz-adv-x="1175" 
d="M629 973q200 0 334.5 -134t134.5 -360q0 -232 -137.5 -365.5t-370.5 -133.5q-228 0 -361.5 127t-136.5 327h150q4 -145 100 -232t248 -87q151 0 248.5 93t97.5 271q0 88 -28.5 159.5t-76 115.5t-107 67t-124.5 23q-190 0 -315 -156h-154l111 746h733v-131h-623l-71 -480
q47 63 138.5 106.5t209.5 43.5z" />
    <glyph glyph-name="six" unicode="6" horiz-adv-x="1189" 
d="M643 952q90 0 172 -31.5t146.5 -89.5t102.5 -150t38 -204q0 -155 -67.5 -269t-178 -170t-248.5 -56q-241 0 -375.5 179.5t-134.5 530.5q0 126 15 233t52.5 206.5t96 168.5t150.5 110.5t211 41.5q104 0 188 -31.5t135.5 -84t80.5 -115.5t34 -131h-143q-16 103 -94 169
t-201 66q-375 0 -371 -606q36 106 138 169.5t253 63.5zM610 119q149 0 241.5 96t92.5 264q0 165 -93 260t-239 95q-139 0 -237.5 -91t-98.5 -235q0 -177 93 -283t241 -106z" />
    <glyph glyph-name="seven" unicode="7" horiz-adv-x="995" 
d="M924 1434v-138q-415 -641 -504 -1296h-168q104 671 518 1296h-709v138h863z" />
    <glyph glyph-name="eight" unicode="8" horiz-adv-x="1171" 
d="M813 803q131 -47 207 -145t76 -236q0 -137 -68.5 -238.5t-183 -152.5t-258.5 -51q-143 0 -257 51t-182.5 152.5t-68.5 238.5q0 138 75.5 236t206.5 145q-91 45 -143.5 123t-52.5 176q0 148 113 247t309 99q197 0 310.5 -99t113.5 -247q0 -97 -53.5 -175t-143.5 -124z
M586 1329q-131 0 -204 -65t-73 -172t75 -174.5t202 -67.5t202.5 67.5t75.5 174.5t-73 172t-205 65zM586 117q159 0 252.5 84.5t93.5 226.5t-95 225.5t-251 83.5q-155 0 -249.5 -84t-94.5 -225t93 -226t251 -85z" />
    <glyph glyph-name="nine" unicode="9" horiz-adv-x="1179" 
d="M537 483q-90 0 -172 31t-146.5 89t-102.5 149.5t-38 203.5q0 118 38.5 213t106 156.5t156.5 94t192 32.5q240 0 375 -179.5t135 -529.5q0 -126 -15 -233.5t-52.5 -207t-95.5 -168.5t-150 -110.5t-211 -41.5q-104 0 -188 31.5t-135.5 84.5t-80.5 115.5t-34 130.5h143
q16 -101 94 -167t201 -66q375 0 371 604q-37 -105 -138.5 -168.5t-252.5 -63.5zM569 1317q-149 0 -241 -97t-92 -264q0 -165 92.5 -260.5t238.5 -95.5q139 0 237.5 91.5t98.5 234.5q0 177 -93 284t-241 107z" />
    <glyph glyph-name="colon" unicode=":" horiz-adv-x="483" 
d="M143 1065h197v-209h-197v209zM143 209h197v-209h-197v209z" />
    <glyph glyph-name="semicolon" unicode=";" horiz-adv-x="483" 
d="M143 1065h197v-209h-197v209zM143 -297v55q45 21 62.5 62.5t17.5 116.5v63h-80v209h197v-260q0 -242 -197 -246z" />
    <glyph glyph-name="less" unicode="&#x3c;" horiz-adv-x="1038" 
d="M946 160l-708 334l708 333v160l-854 -416v-155l854 -416v160z" />
    <glyph glyph-name="equal" unicode="=" horiz-adv-x="937" 
d="M80 801h610v-127h-610v127zM80 473h610v-127h-610v127z" />
    <glyph glyph-name="greater" unicode="&#x3e;" horiz-adv-x="1038" 
d="M92 160v-160l854 416v155l-854 416v-160l709 -333z" />
    <glyph glyph-name="question" unicode="?" horiz-adv-x="1073" 
d="M543 1448q-203 0 -327.5 -118t-123.5 -341h164q0 154 77 235t210 81q127 0 200.5 -65.5t73.5 -182.5q0 -50 -19.5 -91.5t-51 -71t-69.5 -58t-76 -60t-69.5 -69t-51 -94t-19.5 -126.5v-88h174v88q0 58 19 104.5t49.5 78t67.5 60t74 58t67.5 64.5t49.5 87t19 118
q0 185 -121.5 288t-316.5 103zM451 209h196v-209h-196v209z" />
    <glyph glyph-name="at" unicode="@" horiz-adv-x="1579" 
d="M983 1053h113v-416q0 -89 34.5 -138.5t98.5 -49.5q69 0 109 72t40 198q0 136 -47.5 252.5t-128 195t-188 122.5t-226.5 44q-116 0 -220.5 -41.5t-186 -118.5t-130 -196.5t-48.5 -265.5q0 -140 49 -257t131.5 -192.5t187 -117.5t217.5 -42q207 0 345 113l133 -39
q-88 -91 -211 -140.5t-267 -49.5q-135 0 -260.5 51t-223.5 142t-157 230t-59 302q0 168 59 309.5t157 233.5t223.5 143t260.5 51q138 0 266 -53t225 -146.5t155.5 -231.5t58.5 -298q0 -181 -78 -281t-188 -100q-96 0 -150 56t-65 145q-24 -91 -97 -147t-163 -56
q-59 0 -114 22t-102 65.5t-75.5 117.5t-28.5 168q0 90 29 162t76 114t101 64t110 22q87 0 159.5 -57t75.5 -135v174zM760 449q91 0 151 72.5t60 187.5q0 112 -60 180.5t-151 68.5q-86 0 -148.5 -67.5t-62.5 -181.5q0 -119 62.5 -189.5t148.5 -70.5z" />
    <glyph glyph-name="A" unicode="A" horiz-adv-x="1402" 
d="M1163 0l-139 367h-643l-139 -367h-185l570 1434h149l572 -1434h-185zM430 498h545l-273 714z" />
    <glyph glyph-name="B" unicode="B" horiz-adv-x="1280" 
d="M872 786q149 -40 229.5 -138.5t80.5 -239.5q0 -194 -129 -301t-387 -107h-547v1434h538q216 0 325.5 -95t109.5 -256q0 -106 -56.5 -185t-163.5 -112zM289 1288v-450h379q115 0 181 64.5t66 170.5q0 98 -62 156.5t-191 58.5h-373zM666 145q173 0 254 72.5t81 198.5
q0 128 -86.5 207t-257.5 79h-368v-557h377z" />
    <glyph glyph-name="C" unicode="C" horiz-adv-x="1335" 
d="M721 133q292 0 381 232h172q-39 -181 -189.5 -282t-365.5 -101q-137 0 -251.5 47t-199.5 136.5t-132.5 231t-47.5 320.5q0 180 47.5 321.5t132.5 231t199.5 136t251.5 46.5q214 0 363 -100t188 -281h-174q-86 232 -375 232q-207 0 -332 -151t-125 -435q0 -283 125 -433.5
t332 -150.5z" />
    <glyph glyph-name="D" unicode="D" horiz-adv-x="1345" 
d="M573 1434q344 0 520.5 -185t176.5 -532q0 -346 -176.5 -531.5t-520.5 -185.5h-454v1434h454zM559 152q279 0 409 138t130 427t-130 428t-409 139h-270v-1132h270z" />
    <glyph glyph-name="E" unicode="E" horiz-adv-x="1130" 
d="M289 152h780v-152h-950v1434h930v-150h-760v-477h657v-139h-657v-516z" />
    <glyph glyph-name="F" unicode="F" horiz-adv-x="1091" 
d="M1030 1284h-741v-498h608v-141h-608v-645h-170v1434h911v-150z" />
    <glyph glyph-name="G" unicode="G" horiz-adv-x="1413" 
d="M1317 735v-82q0 -331 -148 -501t-442 -170q-142 0 -258.5 46.5t-201.5 136t-132 230.5t-47 322t47 322t131.5 230.5t199 136t253.5 46.5q206 0 348 -93.5t186 -262.5h-172q-94 207 -360 207q-209 0 -333 -150.5t-124 -435.5q0 -284 125.5 -434t337.5 -150q423 0 432 463
h-368v139h526z" />
    <glyph glyph-name="H" unicode="H" horiz-adv-x="1329" 
d="M1040 1434h172v-1434h-172v633h-751v-633h-170v1434h170v-660h751v660z" />
    <glyph glyph-name="I" unicode="I" horiz-adv-x="407" 
d="M289 0h-170v1434h170v-1434z" />
    <glyph glyph-name="J" unicode="J" horiz-adv-x="1024" 
d="M139 274q111 -137 305 -137q62 0 113.5 17.5t95 57t68 112.5t24.5 174v936h173v-942q0 -134 -38.5 -234.5t-106 -158.5t-150 -85.5t-179.5 -27.5q-133 0 -233 49.5t-164 132.5z" />
    <glyph glyph-name="K" unicode="K" horiz-adv-x="1312" 
d="M1075 0l-567 651l-219 -241v-410h-170v1434h170v-793l727 793h201l-601 -664l656 -770h-197z" />
    <glyph glyph-name="L" unicode="L" horiz-adv-x="1087" 
d="M289 152h733v-152h-903v1434h170v-1282z" />
    <glyph glyph-name="M" unicode="M" horiz-adv-x="1697" 
d="M119 1434h188l543 -1217l541 1217h190v-1434h-172v1118h-6l-483 -1118h-140l-485 1118h-6v-1118h-170v1434z" />
    <glyph glyph-name="N" unicode="N" horiz-adv-x="1355" 
d="M1239 1434v-1434h-192l-752 1165h-6v-1165h-170v1434h186l758 -1172h4v1172h172z" />
    <glyph glyph-name="O" unicode="O" horiz-adv-x="1464" 
d="M733 1452q142 0 260 -47t204 -138t133.5 -231.5t47.5 -318.5t-47.5 -318t-133.5 -231t-204 -138.5t-260 -47.5q-143 0 -261 47.5t-203.5 138.5t-133 231t-47.5 318t47.5 318.5t133 231.5t203.5 138t261 47zM733 133q217 0 342 149t125 435q0 288 -125 437t-342 149
t-343 -149.5t-126 -436.5q0 -286 126 -435t343 -149z" />
    <glyph glyph-name="P" unicode="P" horiz-adv-x="1212" 
d="M635 1434q250 0 381 -122t131 -341q0 -217 -131 -339t-381 -122h-346v-510h-170v1434h516zM637 659q160 0 245 81t85 231q0 151 -84.5 232t-245.5 81h-348v-625h348z" />
    <glyph glyph-name="Q" unicode="Q" horiz-adv-x="1480" 
d="M1389 70l-101 -99l-145 146q-163 -135 -410 -135q-143 0 -261 47.5t-203.5 138.5t-133 231t-47.5 318t47.5 318.5t133 231.5t203.5 138t261 47q142 0 260 -47t204 -138t133.5 -231.5t47.5 -318.5q0 -307 -139 -498zM733 133q180 0 295 100l-260 265l100 98l250 -252
q82 142 82 373q0 288 -125 437t-342 149t-343 -149.5t-126 -436.5q0 -286 126 -435t343 -149z" />
    <glyph glyph-name="R" unicode="R" horiz-adv-x="1277" 
d="M1169 240q0 -185 41 -240h-170q-41 55 -41 240v114q0 125 -71 178.5t-185 53.5h-454v-586h-170v1434h561q244 0 366.5 -109t122.5 -301q0 -129 -60 -219t-169 -139q122 -35 175.5 -108t53.5 -200v-118zM705 725q135 0 212.5 74.5t77.5 210.5q0 274 -317 274h-389v-559
h416z" />
    <glyph glyph-name="S" unicode="S" horiz-adv-x="1247" 
d="M729 791q216 -44 323 -135t107 -265q0 -189 -142 -299t-388 -110q-247 0 -384 118.5t-157 317.5h176q11 -61 35 -111t65.5 -92t109 -65t155.5 -23q170 0 262 73.5t92 192.5q0 114 -71 172t-201 84l-209 41q-188 38 -286.5 128.5t-98.5 246.5q0 169 130.5 278t364.5 109
q224 0 355 -102t153 -279h-174q-20 107 -101 171.5t-233 64.5q-82 0 -145 -21t-100 -57t-55.5 -78.5t-18.5 -89.5q0 -184 242 -232z" />
    <glyph glyph-name="T" unicode="T" horiz-adv-x="1187" 
d="M1130 1434v-150h-450v-1284h-172v1284h-451v150h1073z" />
    <glyph glyph-name="U" unicode="U" horiz-adv-x="1339" 
d="M1221 545q0 -264 -148.5 -413.5t-402.5 -149.5q-255 0 -403 149.5t-148 413.5v889h170v-881q0 -200 101 -310t280 -110t280 110t101 310v881h170v-889z" />
    <glyph glyph-name="V" unicode="V" horiz-adv-x="1382" 
d="M1153 1434h184l-571 -1434h-150l-569 1434h182l463 -1211z" />
    <glyph glyph-name="W" unicode="W" horiz-adv-x="2043" 
d="M1810 1434h179l-416 -1434h-162l-389 1188l-387 -1188h-162l-416 1434h179l327 -1180l371 1180h176l373 -1180z" />
    <glyph glyph-name="X" unicode="X" horiz-adv-x="1318" 
d="M1272 0h-193l-420 602l-419 -602h-193l516 739l-483 695h192l387 -555l388 555h192l-483 -695z" />
    <glyph glyph-name="Y" unicode="Y" horiz-adv-x="1335" 
d="M756 561v-561h-174v561l-525 873h191l420 -707l419 707h193z" />
    <glyph glyph-name="Z" unicode="Z" horiz-adv-x="1247" 
d="M1165 152v-152h-1083v139l879 1145h-846v150h1042v-140l-878 -1142h886z" />
    <glyph glyph-name="bracketleft" unicode="[" horiz-adv-x="573" 
d="M283 1382v-1505h174v-143h-338v1792h338v-144h-174z" />
    <glyph glyph-name="backslash" unicode="\" horiz-adv-x="841" 
d="M61 1434h162l557 -1432h-164z" />
    <glyph glyph-name="bracketright" unicode="]" horiz-adv-x="573" 
d="M291 1382h-174v144h338v-1792h-338v143h174v1505z" />
    <glyph glyph-name="asciicircum" unicode="^" horiz-adv-x="983" 
d="M758 952l-266 373l-265 -373h-135l346 482h109l344 -482h-133z" />
    <glyph glyph-name="underscore" unicode="_" horiz-adv-x="1208" 
d="M92 0h1024v-143h-1024v143z" />
    <glyph glyph-name="grave" unicode="`" horiz-adv-x="358" 
d="M358 1190l-180 262h-180l217 -262h143z" />
    <glyph glyph-name="a" unicode="a" 
d="M971 184q0 -43 18 -62t60 -18v-100q-28 -12 -68 -12q-78 0 -119 35.5t-41 115.5v76q-11 -22 -28 -46.5t-52.5 -59.5t-78 -61.5t-107.5 -46t-139 -19.5q-155 0 -251.5 82t-96.5 235q0 137 91 210t283 103q235 33 310 56q34 11 55 22v15q0 133 -63 187t-195 54
q-232 0 -260 -159h-156q17 141 124 212.5t294 71.5q217 0 318.5 -94t101.5 -311v-486zM807 340v250q-13 -7 -29.5 -13.5t-42 -13t-43.5 -11t-55.5 -11.5t-53 -10t-62 -11t-58.5 -10q-128 -21 -180 -68.5t-52 -134.5q0 -90 59 -144t163 -54q62 0 118 19.5t93.5 45.5t69.5 61
t47 59t26 46z" />
    <glyph glyph-name="b" unicode="b" horiz-adv-x="1179" 
d="M641 1075q87 0 169 -33t150.5 -96.5t110 -170.5t41.5 -243q0 -111 -27.5 -203t-73.5 -154.5t-108 -105.5t-129 -63t-137 -20q-128 0 -219.5 64.5t-134.5 164.5v-215h-164v1446h164v-580q48 97 142.5 153t215.5 56zM612 123q68 0 128.5 24.5t108 73t75.5 128.5t28 183
t-28 182.5t-76 127.5t-107.5 72t-128.5 24q-68 0 -127.5 -24t-107.5 -71.5t-75.5 -127.5t-27.5 -183q0 -196 98 -302.5t240 -106.5z" />
    <glyph glyph-name="c" unicode="c" horiz-adv-x="1071" 
d="M567 123q114 0 184.5 49t106.5 150h152q-22 -92 -67 -159t-106 -104.5t-128 -55t-144 -17.5q-95 0 -181.5 32.5t-158 96t-114.5 171t-43 244.5q0 111 28 202.5t75.5 154t111.5 106t134.5 63t145.5 19.5q77 0 143 -17t125.5 -54t103.5 -102t66 -154h-151q-69 192 -285 192
q-146 0 -243 -105.5t-97 -304.5q0 -102 27.5 -181.5t75.5 -128t108.5 -73t130.5 -24.5z" />
    <glyph glyph-name="d" unicode="d" horiz-adv-x="1179" 
d="M539 1075q121 0 215.5 -56t142.5 -153v580h164v-1446h-164v215q-43 -100 -134.5 -164.5t-219.5 -64.5q-70 0 -137 20t-129 63t-108 105.5t-73.5 154.5t-27.5 203q0 136 41.5 243t110 170.5t150.5 96.5t169 33zM567 123q142 0 240 106.5t98 302.5q0 103 -27.5 183
t-75.5 127.5t-107.5 71.5t-127.5 24q-69 0 -128.5 -24t-107.5 -72t-76 -127.5t-28 -182.5t28 -183t75.5 -128.5t108 -73t128.5 -24.5z" />
    <glyph glyph-name="e" unicode="e" horiz-adv-x="1103" 
d="M1038 524q0 -33 -2 -51h-809q13 -183 104 -271.5t242 -88.5q100 0 165 29t112 96h151q-62 -131 -168.5 -191.5t-267.5 -60.5q-101 0 -189.5 33.5t-158 98t-109.5 171t-40 241.5q0 136 41.5 242.5t112 171t157.5 98t184 33.5q98 0 182.5 -33t150.5 -98.5t104 -173
t38 -246.5zM227 586h654q-3 175 -89 268.5t-229 93.5q-140 0 -231.5 -92t-104.5 -270z" />
    <glyph glyph-name="f" unicode="f" horiz-adv-x="665" 
d="M502 1335q-79 0 -114.5 -36t-35.5 -125v-109h260v-131h-260v-934h-164v934h-147v131h147v111q0 73 17 127t42.5 84.5t64.5 49t75.5 24t81.5 5.5q95 0 156 -22v-123q-54 14 -123 14z" />
    <glyph glyph-name="g" unicode="g" horiz-adv-x="1175" 
d="M895 1067h164v-1061q0 -107 -30.5 -189.5t-79 -132t-115 -81t-130.5 -43t-135 -11.5q-151 0 -268.5 55t-171.5 150l107 68q48 -63 129 -99t190 -36q164 0 252 75.5t88 243.5v209q-43 -99 -135 -163t-221 -64q-70 0 -136.5 19.5t-127.5 63t-106.5 106t-73 154t-27.5 201.5
q0 109 27.5 200.5t73.5 154t107 105.5t126.5 63t134.5 20q119 0 213.5 -55.5t144.5 -153.5v201zM567 125q142 0 239 105.5t97 301.5q0 103 -27.5 183t-75 128t-106.5 72.5t-127 24.5t-128 -24.5t-107.5 -73t-75 -128t-27.5 -182.5t27.5 -182.5t75 -127.5t107 -72.5
t128.5 -24.5z" />
    <glyph glyph-name="h" unicode="h" horiz-adv-x="1157" 
d="M662 1075q83 0 149.5 -22t119 -70.5t81 -134t28.5 -203.5v-645h-163v639q0 159 -69.5 228t-199.5 69q-58 0 -109.5 -19.5t-87 -49t-63.5 -67.5t-43.5 -73.5t-21.5 -67.5v-659h-164v1446h164v-629q8 26 26 57t51.5 67.5t75.5 65.5t101.5 48.5t124.5 19.5z" />
    <glyph glyph-name="i" unicode="i" horiz-adv-x="399" 
d="M119 1452h164v-152h-164v152zM119 1065h164v-1065h-164v1065z" />
    <glyph glyph-name="j" unicode="j" horiz-adv-x="432" 
d="M152 1452h163v-152h-163v152zM-139 -270q85 -37 159 -37q67 0 99.5 42.5t32.5 112.5v1217h163v-1231q0 -285 -260 -285q-119 0 -194 43v138z" />
    <glyph glyph-name="k" unicode="k" horiz-adv-x="1103" 
d="M891 0l-432 498l-176 -183v-315h-164v1446h164v-938l536 557h193l-449 -461l514 -604h-186z" />
    <glyph glyph-name="l" unicode="l" horiz-adv-x="399" 
d="M119 1446h164v-1446h-164v1446z" />
    <glyph glyph-name="m" unicode="m" horiz-adv-x="1849" 
d="M1368 1075q79 0 142.5 -23t115 -72t79.5 -135t28 -204v-641h-164v635q0 301 -248 301q-71 0 -133 -29.5t-99.5 -74.5t-59 -94t-21.5 -91v-647h-164v635q0 301 -248 301q-70 0 -129 -28.5t-96 -73t-59 -90t-29 -87.5v-657h-164v1065h164v-248q8 33 35 74t70.5 83.5
t111.5 71.5t145 29q127 0 218 -62t126 -196q16 45 49 89t80 82.5t112.5 62.5t137.5 24z" />
    <glyph glyph-name="n" unicode="n" horiz-adv-x="1157" 
d="M662 1075q83 0 149.5 -22t119 -70.5t81 -134t28.5 -203.5v-645h-163v639q0 159 -69.5 228t-199.5 69q-58 0 -109.5 -19.5t-87 -49t-63.5 -67.5t-43.5 -73.5t-21.5 -67.5v-659h-164v1065h164v-248q8 26 26 57t51.5 67.5t75.5 65.5t101.5 48.5t124.5 19.5z" />
    <glyph glyph-name="o" unicode="o" horiz-adv-x="1122" 
d="M561 1075q72 0 141.5 -20t134 -63.5t113 -106t78 -153.5t29.5 -200q0 -110 -29.5 -202t-78 -154.5t-113 -106t-134 -63.5t-141.5 -20t-141 20t-133 63.5t-112.5 106t-77.5 154.5t-29 202q0 135 44 242t116 171t157.5 97t175.5 33zM897 532q0 102 -28 181.5t-76 127.5
t-107 72.5t-125 24.5t-125 -24.5t-107 -72.5t-76 -127.5t-28 -181.5t28 -182.5t76 -129t107 -73t125 -24.5t125 24.5t107 73t76 129t28 182.5z" />
    <glyph glyph-name="p" unicode="p" horiz-adv-x="1179" 
d="M641 1075q69 0 135 -20t127 -63t107.5 -105.5t74 -154t27.5 -200.5q0 -137 -42 -245t-111 -172t-151.5 -96.5t-170.5 -32.5q-129 0 -220.5 63t-133.5 164v-602h-164v1454h164v-201q47 99 142 155t216 56zM610 123q69 0 129 24.5t108.5 72.5t76.5 128.5t28 183.5
q0 201 -98.5 303.5t-243.5 102.5q-68 0 -127 -24t-106.5 -71.5t-75 -127.5t-27.5 -183q0 -100 27.5 -179.5t74.5 -129t107 -75t127 -25.5z" />
    <glyph glyph-name="q" unicode="q" horiz-adv-x="1179" 
d="M539 1075q121 0 216 -56t142 -155v201h164v-1454h-164v602q-42 -101 -133.5 -164t-220.5 -63q-88 0 -170.5 32.5t-151.5 96.5t-111 172t-42 245q0 109 27.5 200.5t74 154t107.5 105.5t127 63t135 20zM569 123q67 0 127 25.5t107 75t74.5 129t27.5 179.5q0 103 -27.5 183
t-75 127.5t-106.5 71.5t-127 24q-145 0 -243.5 -102.5t-98.5 -303.5q0 -103 28 -183.5t76.5 -128.5t108.5 -72.5t129 -24.5z" />
    <glyph glyph-name="r" unicode="r" horiz-adv-x="778" 
d="M647 1075q45 0 76 -4v-145q-31 2 -64 2q-159 0 -254 -80.5t-122 -224.5v-623h-164v1065h164v-258q28 115 123 191.5t241 76.5z" />
    <glyph glyph-name="s" unicode="s" horiz-adv-x="983" 
d="M752 793q-52 155 -263 155q-112 0 -175.5 -47t-63.5 -121q0 -64 43 -102.5t141 -61.5l172 -41q57 -13 93 -23t77 -26t65 -35.5t45.5 -47t30.5 -65t9 -85.5q0 -79 -35 -139t-95.5 -96t-135.5 -54t-162 -18q-185 0 -303 81t-138 244h154q41 -196 289 -196q115 0 188.5 46
t73.5 134q0 74 -44 106.5t-145 57.5l-186 43q-150 36 -221.5 103.5t-71.5 178.5q0 134 107 212.5t288 78.5q167 0 274.5 -72.5t139.5 -209.5h-151z" />
    <glyph glyph-name="t" unicode="t" horiz-adv-x="653" 
d="M471 121q57 0 117 16v-125q-68 -24 -166 -24q-49 0 -87 9.5t-69.5 31.5t-48 64t-16.5 102v739h-164v131h164v266h164v-266h206v-131h-206v-723q0 -45 24 -67.5t82 -22.5z" />
    <glyph glyph-name="u" unicode="u" horiz-adv-x="1146" 
d="M866 1065h164v-1065h-164v248q-10 -33 -38 -74.5t-73 -85t-116.5 -73t-151.5 -29.5q-83 0 -149.5 22.5t-119 71.5t-81 135t-28.5 205v645h163v-641q0 -160 70 -229.5t199 -69.5q57 0 108.5 19.5t86.5 49.5t63 68t44 73.5t23 67.5v662z" />
    <glyph glyph-name="v" unicode="v" horiz-adv-x="1124" 
d="M655 0h-184l-424 1065h164l352 -905l352 905h164z" />
    <glyph glyph-name="w" unicode="w" horiz-adv-x="1644" 
d="M1599 1065l-317 -1065h-152l-307 864l-309 -864h-152l-315 1065h166l244 -862l299 862h133l301 -862l244 862h165z" />
    <glyph glyph-name="x" unicode="x" horiz-adv-x="1075" 
d="M1020 0h-184l-297 428l-299 -428h-183l392 549l-371 516h182l279 -393l276 393h182l-368 -516z" />
    <glyph glyph-name="y" unicode="y" 
d="M883 1065h168l-459 -1143q-74 -185 -175.5 -256.5t-254.5 -52.5v143q110 -14 177 31.5t105 140.5q17 44 19 68t-10 55l-406 1014h170l330 -877z" />
    <glyph glyph-name="z" unicode="z" horiz-adv-x="1019" 
d="M276 141h662v-141h-856v141l661 785h-641v139h836v-139z" />
    <glyph glyph-name="braceleft" unicode="{" horiz-adv-x="583" 
d="M348 766l-92 -139l92 -135v-547q0 -32 19.5 -50t52.5 -18h72v-143h-132q-73 0 -124.5 45t-51.5 133v569l-92 146l92 149v572q0 88 51.5 133t124.5 45h132v-144h-72q-33 0 -52.5 -17.5t-19.5 -49.5v-549z" />
    <glyph glyph-name="bar" unicode="|" horiz-adv-x="450" 
d="M154 1638h143v-2027h-143v2027z" />
    <glyph glyph-name="braceright" unicode="}" horiz-adv-x="583" 
d="M236 766v549q0 32 -19.5 49.5t-52.5 17.5h-72v144h131q73 0 124.5 -45t51.5 -133v-572l93 -149l-93 -146v-569q0 -88 -51.5 -133t-124.5 -45h-131v143h72q33 0 52.5 18t19.5 50v547l92 135z" />
    <glyph glyph-name="asciitilde" unicode="~" horiz-adv-x="960" 
d="M776 670h82q0 -98 -60.5 -157.5t-152.5 -59.5q-52 0 -101.5 24.5t-82 54t-77 54t-87.5 24.5q-54 0 -84.5 -28.5t-28.5 -63.5h-82q0 98 60.5 157.5t154.5 59.5q42 0 81.5 -16t70.5 -39.5t60.5 -46.5t65 -39t71.5 -16q53 0 82.5 28.5t27.5 63.5z" />
    <glyph glyph-name="exclamdown" unicode="&#xa1;" horiz-adv-x="391" 
d="M119 856v209h196v-209h-196zM295 666l6 -1035h-168l4 1035h158z" />
    <glyph glyph-name="cent" unicode="&#xa2;" horiz-adv-x="1071" 
d="M1010 469q-21 -86 -63.5 -150t-99.5 -101.5t-120 -56.5t-135 -22v-221h-76v223q-88 8 -166 43.5t-142.5 99t-102 164t-37.5 226.5t37.5 226.5t102 163.5t142.5 98.5t166 43.5v228h76v-226q150 -7 258.5 -83.5t150.5 -237.5h-151q-67 177 -258 188v-801q103 4 167.5 52
t98.5 143h152zM225 674q0 -177 81.5 -278t209.5 -117v792q-128 -16 -209.5 -118t-81.5 -279z" />
    <glyph glyph-name="sterling" unicode="&#xa3;" horiz-adv-x="1107" 
d="M1016 983h-154v37q0 132 -80.5 208.5t-212.5 76.5t-211 -72t-79 -193q0 -45 13 -95.5t24.5 -78t41.5 -88.5t37 -76h277v-100h-238q12 -44 12 -90q0 -117 -49.5 -209.5t-140.5 -179.5q74 28 151 32.5t145.5 -5.5t136.5 -21t149.5 -9.5t160.5 23.5v-143
q-100 -26 -178.5 -22t-164 16t-156.5 24.5t-157 5t-165 -43.5l-84 110q198 207 195 399q0 47 -19 113h-178v100h135l-18 36l-20 40t-17.5 37t-17.5 42.5t-13 41.5t-12.5 48t-6.5 47t-3 53q0 182 125.5 291.5t324.5 109.5q192 0 319.5 -115.5t127.5 -312.5v-37z" />
    <glyph glyph-name="currency" unicode="&#xa4;" horiz-adv-x="1157" 
d="M1036 975q0 -138 -78 -256l95 -92l-109 -107l-90 88q-123 -92 -276 -92q-151 0 -277 92l-88 -88l-109 107l93 92q-78 118 -78 256q0 139 80 260l-95 94l109 107l92 -90q122 88 273 88t272 -91l94 93l109 -107l-97 -94q80 -116 80 -260zM578 655q137 0 229 98t92 222
q0 123 -92 222t-229 99q-139 0 -230.5 -99t-91.5 -222q0 -125 91.5 -222.5t230.5 -97.5z" />
    <glyph glyph-name="yen" unicode="&#xa5;" horiz-adv-x="1335" 
d="M756 561v-2h270v-102h-270v-107h270v-102h-270v-248h-174v248h-269v102h269v107h-269v102h269v2l-525 873h191l420 -707l419 707h193z" />
    <glyph glyph-name="brokenbar" unicode="&#xa6;" horiz-adv-x="450" 
d="M154 1638h143v-573h-143v573zM154 184h143v-573h-143v573z" />
    <glyph glyph-name="section" unicode="&#xa7;" horiz-adv-x="1302" 
d="M1200 381q0 -146 -88 -240q68 -93 68 -225q0 -193 -142.5 -296t-394.5 -103q-248 0 -383 112t-158 310h181q10 -61 32.5 -108t63.5 -85t108 -58t158 -20q178 0 266 65t88 183q0 117 -70.5 178t-199.5 88l-207 43q-383 82 -383 383q0 145 97 242q-76 92 -76 225
q0 169 128 272t363 103q226 0 352 -96t148 -273h-176q-34 217 -324 217q-161 0 -236 -63t-75 -164q0 -184 235 -235l193 -41q214 -45 323 -141.5t109 -272.5zM748 328q139 -28 233 -80q39 53 39 135q0 115 -70.5 177t-199.5 89l-207 43q-96 21 -170 56q-54 -57 -54 -144
q0 -184 236 -235z" />
    <glyph glyph-name="dieresis" unicode="&#xa8;" horiz-adv-x="608" 
d="M0 1452h172v-184h-172v184zM438 1452h170v-184h-170v184z" />
    <glyph glyph-name="copyright" unicode="&#xa9;" horiz-adv-x="1636" 
d="M819 -14q-200 0 -367 93.5t-265.5 261.5t-98.5 376q0 155 58 291.5t156.5 232t233 150.5t283.5 55t283.5 -55t233 -150.5t156.5 -232t58 -291.5q0 -208 -98.5 -376t-265.5 -261.5t-367 -93.5zM819 90q172 0 315 79.5t227.5 223.5t84.5 324q0 179 -84.5 322.5
t-227.5 222.5t-315 79q-128 0 -243.5 -46.5t-199.5 -128t-133.5 -198.5t-49.5 -251q0 -180 84 -324t227 -223.5t315 -79.5zM817 395q185 0 246 148h119q-42 -134 -139.5 -196t-225.5 -62q-80 0 -153 29t-130.5 82.5t-91.5 137t-34 183.5t34 183t91.5 136t130.5 82t153 29
q81 0 149.5 -24t126.5 -82.5t87 -147.5h-121q-62 145 -242 145q-124 0 -207.5 -84t-83.5 -237q0 -152 84 -237t207 -85z" />
    <glyph glyph-name="ordfeminine" unicode="&#xaa;" horiz-adv-x="724" 
d="M635 965q0 -114 45 -179h-111q-38 49 -41 115q-43 -54 -97 -86.5t-142 -32.5q-93 0 -157 51t-64 152q0 173 237 193l209 16q0 80 -36.5 117t-119.5 37q-76 0 -112 -21.5t-47 -64.5h-107q13 94 82.5 142t187.5 48q150 0 211.5 -73.5t61.5 -233.5v-180zM319 887
q82 0 129 38.5t66 84.5v96q-20 -4 -53 -7t-78 -7t-72 -7q-60 -5 -92.5 -29.5t-32.5 -66.5q0 -50 34.5 -76t98.5 -26z" />
    <glyph glyph-name="guillemotleft" unicode="&#xab;" horiz-adv-x="825" 
d="M385 776l-190 -164l190 -163v-160l-303 258v131l303 256v-158zM743 776l-190 -164l190 -163v-160l-303 258v127l303 260v-158z" />
    <glyph glyph-name="logicalnot" unicode="&#xac;" horiz-adv-x="1003" 
d="M911 639v-367h-163v236h-656v131h819z" />
    <glyph glyph-name="uni00AD" unicode="&#xad;" horiz-adv-x="727" 
d="M82 637h563v-127h-563v127z" />
    <glyph glyph-name="registered" unicode="&#xae;" horiz-adv-x="1636" 
d="M819 -14q-200 0 -367 93.5t-265.5 261.5t-98.5 376q0 155 58 291.5t156.5 232t233 150.5t283.5 55t283.5 -55t233 -150.5t156.5 -232t58 -291.5q0 -208 -98.5 -376t-265.5 -261.5t-367 -93.5zM819 90q172 0 315 79.5t227.5 223.5t84.5 324q0 179 -84.5 322.5
t-227.5 222.5t-315 79q-128 0 -243.5 -46.5t-199.5 -128t-133.5 -198.5t-49.5 -251q0 -180 84 -324t227 -223.5t315 -79.5zM1110 451q0 -112 25 -140h-111q-20 27 -20 144v57q0 40 -11.5 67.5t-33 40t-43.5 17t-52 4.5h-225v-330h-102v811h305q268 0 268 -227
q0 -156 -147 -207q78 -15 112.5 -56t34.5 -118v-63zM850 727q76 0 118 40.5t42 121.5q0 147 -168 147h-203v-309h211z" />
    <glyph glyph-name="macron" unicode="&#xaf;" horiz-adv-x="628" 
d="M0 1452h629v-102h-629v102z" />
    <glyph glyph-name="degree" unicode="&#xb0;" horiz-adv-x="786" 
d="M393 872q-126 0 -213.5 88.5t-87.5 213.5t87.5 212t213.5 87t213.5 -87t87.5 -212t-87.5 -213.5t-213.5 -88.5zM393 997q77 0 126.5 53.5t49.5 123.5q0 69 -49.5 121.5t-126.5 52.5q-76 0 -125 -52.5t-49 -121.5q0 -71 48.5 -124t125.5 -53z" />
    <glyph glyph-name="plusminus" unicode="&#xb1;" horiz-adv-x="1060" 
d="M606 815h363v-145h-363v-365h-153v365h-361v145h361v361h153v-361zM205 -35v127h610v-127h-610z" />
    <glyph glyph-name="uni00B2" unicode="&#xb2;" horiz-adv-x="520" 
d="M82 901v19q0 77 34 132.5t117 108.5q31 19 40.5 24.5t30 20.5t26 24.5t12 25.5t6.5 34q0 38 -26.5 63t-69.5 25t-69.5 -26.5t-26.5 -73.5v-14h-74v14q0 75 45 120.5t125 45.5q79 0 124.5 -43.5t45.5 -110.5q0 -60 -37 -99t-117 -87q-106 -63 -106 -131v-6h266v-66h-346z
" />
    <glyph glyph-name="uni00B3" unicode="&#xb3;" horiz-adv-x="540" 
d="M340 1186q46 -7 82.5 -41t36.5 -94q0 -69 -51 -113.5t-144 -44.5q-89 0 -140.5 48t-51.5 126h71q3 -111 125 -111q53 0 86 25.5t33 75.5q0 47 -34.5 71.5t-98.5 24.5h-23v55h23q55 0 83 26.5t28 63.5t-27 59.5t-74 22.5q-49 0 -77.5 -26t-28.5 -78h-68q0 79 47 123.5
t127 44.5q79 0 124.5 -40t45.5 -101q0 -44 -27 -75t-67 -42z" />
    <glyph glyph-name="acute" unicode="&#xb4;" horiz-adv-x="360" 
d="M0 1190h143l217 262h-180z" />
    <glyph glyph-name="uni00B5" unicode="&#xb5;" horiz-adv-x="1146" 
d="M866 1065h164v-1065h-164v248q-10 -33 -38 -74.5t-73 -85t-116.5 -73t-151.5 -29.5q-128 0 -215 53v-428h-163v1454h163v-641q0 -160 70 -229.5t199 -69.5q57 0 108.5 19.5t86.5 49.5t63 68t44 73.5t23 67.5v662z" />
    <glyph glyph-name="paragraph" unicode="&#xb6;" horiz-adv-x="1214" 
d="M1096 1434v-1885h-135v1776h-179v-1776h-147v1078h-141q-198 0 -312 113.5t-114 287.5q0 177 114 291.5t312 114.5h602z" />
    <glyph glyph-name="periodcentered" unicode="&#xb7;" horiz-adv-x="401" 
d="M102 688h197v-209h-197v209z" />
    <glyph glyph-name="cedilla" unicode="&#xb8;" horiz-adv-x="327" 
d="M137 -113q74 8 132.5 -33.5t58.5 -119.5q0 -191 -318 -191v76q189 6 189 111q0 56 -48 73.5t-108 -16.5l-43 66l94 149h148z" />
    <glyph glyph-name="uni00B9" unicode="&#xb9;" horiz-adv-x="344" 
d="M262 1436v-535h-69v438q-13 -25 -43.5 -36.5t-67.5 -6.5v66q36 -1 68 21.5t43 52.5h69z" />
    <glyph glyph-name="ordmasculine" unicode="&#xba;" horiz-adv-x="774" 
d="M387 1450q60 0 116.5 -22t103 -63t74.5 -106t28 -143q0 -80 -28 -146t-74.5 -107.5t-103 -64t-116.5 -22.5q-59 0 -115.5 22.5t-102.5 64t-73.5 107.5t-27.5 146q0 78 27.5 143t73.5 106t102.5 63t115.5 22zM586 1116q0 104 -57.5 162.5t-141.5 58.5q-83 0 -141 -58.5
t-58 -162.5q0 -105 58 -165t141 -60q84 0 141.5 59.5t57.5 165.5z" />
    <glyph glyph-name="guillemotright" unicode="&#xbb;" horiz-adv-x="794" 
d="M61 776v158l304 -260v-127l-304 -258v160l191 163zM420 776v158l303 -256v-131l-303 -258v160l190 163z" />
    <glyph glyph-name="onequarter" unicode="&#xbc;" horiz-adv-x="1214" 
d="M262 1436v-535h-69v438q-13 -25 -43.5 -36.5t-67.5 -6.5v66q36 -1 68 21.5t43 52.5h69zM186 0h-90l893 1434h90zM1112 135h-61v-135h-70v135h-244v58l244 342h70v-342h61v-58zM981 193v251l-178 -251h178z" />
    <glyph glyph-name="onehalf" unicode="&#xbd;" horiz-adv-x="1187" 
d="M256 1436v-535h-70v438q-13 -25 -43 -36.5t-67 -6.5v66q36 -1 67.5 21.5t42.5 52.5h70zM199 0h-90l892 1434h91zM752 0v18q0 77 34 133t117 109q32 19 41 24.5t29.5 20.5t26 24.5t12 25.5t6.5 34q0 38 -26.5 63t-69.5 25q-44 0 -70.5 -26.5t-26.5 -73.5v-15h-73v15
q0 75 45 120.5t125 45.5q79 0 124.5 -43.5t45.5 -110.5q0 -60 -37 -99t-117 -87q-107 -64 -107 -131v-6h267v-66h-346z" />
    <glyph glyph-name="threequarters" unicode="&#xbe;" horiz-adv-x="1284" 
d="M350 1186q46 -7 82.5 -41t36.5 -94q0 -69 -51 -113.5t-144 -44.5q-89 0 -140.5 48t-51.5 126h72q3 -111 125 -111q53 0 85.5 25.5t32.5 75.5q0 47 -34.5 71.5t-98.5 24.5h-22v55h22q55 0 83 26.5t28 63.5t-27 59.5t-74 22.5q-49 0 -77.5 -26t-28.5 -78h-68q0 79 47 123.5
t127 44.5q79 0 124.5 -40t45.5 -101q0 -44 -27 -75t-67 -42zM270 0h-90l893 1434h90zM1155 135h-61v-135h-70v135h-244v58l244 342h70v-342h61v-58zM1024 193v251l-178 -251h178z" />
    <glyph glyph-name="questiondown" unicode="&#xbf;" horiz-adv-x="1073" 
d="M623 856h-197v209h197v-209zM530 -383q203 0 327.5 118t123.5 341h-164q0 -154 -77 -235t-210 -81q-127 0 -200.5 65.5t-73.5 182.5q0 50 19.5 91.5t51 71t69.5 58t76 60t69.5 69t51 94t19.5 126.5v88h-174v-88q0 -58 -19 -104.5t-49.5 -78t-67.5 -60t-74 -58
t-67.5 -64.5t-49.5 -87t-19 -118q0 -185 121.5 -288t316.5 -103z" />
    <glyph glyph-name="Agrave" unicode="&#xc0;" horiz-adv-x="1402" 
d="M807 1559h-143l-218 262h181zM1163 0l-139 367h-643l-139 -367h-185l570 1434h149l572 -1434h-185zM430 498h545l-273 714z" />
    <glyph glyph-name="Aacute" unicode="&#xc1;" horiz-adv-x="1402" 
d="M952 1821l-217 -262h-143l180 262h180zM1163 0l-139 367h-643l-139 -367h-185l570 1434h149l572 -1434h-185zM430 498h545l-273 714z" />
    <glyph glyph-name="Acircumflex" unicode="&#xc2;" horiz-adv-x="1402" 
d="M702 1737l-194 -183h-133l184 267h287l182 -267h-131zM1163 0l-139 367h-643l-139 -367h-185l570 1434h149l572 -1434h-185zM430 498h545l-273 714z" />
    <glyph glyph-name="Atilde" unicode="&#xc3;" horiz-adv-x="1402" 
d="M526 1745q-52 0 -80 -26.5t-26 -59.5h-80q0 94 57.5 149.5t147.5 55.5q41 0 78.5 -15t66.5 -37t57.5 -44t62 -37t67.5 -15q52 0 80 26.5t26 59.5h78q0 -94 -57.5 -149.5t-147.5 -55.5q-40 0 -77 15t-66.5 37t-57.5 44t-61.5 37t-67.5 15zM1163 0l-139 367h-643l-139 -367
h-185l570 1434h149l572 -1434h-185zM430 498h545l-273 714z" />
    <glyph glyph-name="Adieresis" unicode="&#xc4;" horiz-adv-x="1402" 
d="M569 1821v-185h-172v185h172zM1006 1821v-185h-170v185h170zM1163 0l-139 367h-643l-139 -367h-185l570 1434h149l572 -1434h-185zM430 498h545l-273 714z" />
    <glyph glyph-name="Aring" unicode="&#xc5;" horiz-adv-x="1402" 
d="M702 1559q-74 0 -126 51t-52 123t52.5 124t125.5 52q75 0 127 -52t52 -124t-52 -123t-127 -51zM702 1827q-40 0 -67 -26.5t-27 -67.5q0 -40 27 -67.5t67 -27.5t68.5 27.5t28.5 67.5q0 41 -28.5 67.5t-68.5 26.5zM1163 0l-139 367h-643l-139 -367h-185l570 1434h149
l572 -1434h-185zM430 498h545l-273 714z" />
    <glyph glyph-name="AE" unicode="&#xc6;" horiz-adv-x="2050" 
d="M1210 152h781v-152h-951v367h-553l-249 -367h-181l981 1434h932v-150h-760v-477h658v-139h-658v-516zM582 504h458v672z" />
    <glyph glyph-name="Ccedilla" unicode="&#xc7;" horiz-adv-x="1335" 
d="M1274 365q-36 -169 -170.5 -269t-327.5 -112l-88 -97q74 8 132.5 -33.5t58.5 -119.5q0 -191 -318 -191v76q189 6 189 111q0 56 -48 73.5t-108 -16.5l-43 66l84 133q-249 29 -398 216.5t-149 514.5q0 180 47.5 321.5t132.5 231t199.5 136t251.5 46.5q214 0 363 -100
t188 -281h-174q-86 232 -375 232q-207 0 -332 -151t-125 -435q0 -283 125 -433.5t332 -150.5q292 0 381 232h172z" />
    <glyph glyph-name="Egrave" unicode="&#xc8;" horiz-adv-x="1130" 
d="M680 1559h-143l-218 262h181zM289 152h780v-152h-950v1434h930v-150h-760v-477h657v-139h-657v-516z" />
    <glyph glyph-name="Eacute" unicode="&#xc9;" horiz-adv-x="1130" 
d="M825 1821l-217 -262h-143l180 262h180zM289 152h780v-152h-950v1434h930v-150h-760v-477h657v-139h-657v-516z" />
    <glyph glyph-name="Ecircumflex" unicode="&#xca;" horiz-adv-x="1130" 
d="M575 1737l-194 -183h-133l184 267h287l182 -267h-131zM289 152h780v-152h-950v1434h930v-150h-760v-477h657v-139h-657v-516z" />
    <glyph glyph-name="Edieresis" unicode="&#xcb;" horiz-adv-x="1130" 
d="M442 1821v-185h-172v185h172zM879 1821v-185h-170v185h170zM289 152h780v-152h-950v1434h930v-150h-760v-477h657v-139h-657v-516z" />
    <glyph glyph-name="Igrave" unicode="&#xcc;" horiz-adv-x="407" 
d="M307 1559l-180 262h-180l217 -262h143zM289 0h-170v1434h170v-1434z" />
    <glyph glyph-name="Iacute" unicode="&#xcd;" horiz-adv-x="407" 
d="M92 1559h144l217 262h-181zM289 0h-170v1434h170v-1434z" />
    <glyph glyph-name="Icircumflex" unicode="&#xce;" horiz-adv-x="407" 
d="M397 1554l-194 183l-195 -183h-133l184 267h287l182 -267h-131zM289 0h-170v1434h170v-1434z" />
    <glyph glyph-name="Idieresis" unicode="&#xcf;" horiz-adv-x="407" 
d="M-102 1821h172v-185h-172v185zM336 1821h170v-185h-170v185zM289 0h-170v1434h170v-1434z" />
    <glyph glyph-name="Eth" unicode="&#xd0;" horiz-adv-x="1392" 
d="M621 1434q344 0 520 -184.5t176 -532.5q0 -346 -176 -531.5t-520 -185.5h-455v649h-125v127h125v658h455zM606 152q279 0 409 138t130 427t-130 428t-409 139h-270v-508h268v-127h-268v-497h270z" />
    <glyph glyph-name="Ntilde" unicode="&#xd1;" horiz-adv-x="1355" 
d="M961 1802h77q0 -94 -57.5 -149.5t-146.5 -55.5q-40 0 -77 15t-66.5 37t-57.5 44t-61.5 37t-67.5 15q-52 0 -80.5 -26.5t-26.5 -59.5h-80q0 94 57.5 149.5t147.5 55.5q41 0 78.5 -15t66.5 -37t57.5 -44t62 -37t67.5 -15q52 0 80.5 26.5t26.5 59.5zM1239 1434v-1434h-192
l-752 1165h-6v-1165h-170v1434h186l758 -1172h4v1172h172z" />
    <glyph glyph-name="Ograve" unicode="&#xd2;" horiz-adv-x="1464" 
d="M838 1559l-181 262h-180l217 -262h144zM733 1452q142 0 260 -47t204 -138t133.5 -231.5t47.5 -318.5t-47.5 -318t-133.5 -231t-204 -138.5t-260 -47.5q-143 0 -261 47.5t-203.5 138.5t-133 231t-47.5 318t47.5 318.5t133 231.5t203.5 138t261 47zM733 133q217 0 342 149
t125 435q0 288 -125 437t-342 149t-343 -149.5t-126 -436.5q0 -286 126 -435t343 -149z" />
    <glyph glyph-name="Oacute" unicode="&#xd3;" horiz-adv-x="1464" 
d="M623 1559h143l217 262h-180zM733 1452q142 0 260 -47t204 -138t133.5 -231.5t47.5 -318.5t-47.5 -318t-133.5 -231t-204 -138.5t-260 -47.5q-143 0 -261 47.5t-203.5 138.5t-133 231t-47.5 318t47.5 318.5t133 231.5t203.5 138t261 47zM733 133q217 0 342 149t125 435
q0 288 -125 437t-342 149t-343 -149.5t-126 -436.5q0 -286 126 -435t343 -149z" />
    <glyph glyph-name="Ocircumflex" unicode="&#xd4;" horiz-adv-x="1464" 
d="M928 1554l-195 183l-194 -183h-133l184 267h287l182 -267h-131zM733 1452q142 0 260 -47t204 -138t133.5 -231.5t47.5 -318.5t-47.5 -318t-133.5 -231t-204 -138.5t-260 -47.5q-143 0 -261 47.5t-203.5 138.5t-133 231t-47.5 318t47.5 318.5t133 231.5t203.5 138t261 47z
M733 133q217 0 342 149t125 435q0 288 -125 437t-342 149t-343 -149.5t-126 -436.5q0 -286 126 -435t343 -149z" />
    <glyph glyph-name="Otilde" unicode="&#xd5;" horiz-adv-x="1464" 
d="M1014 1802h78q0 -94 -57.5 -149.5t-147.5 -55.5q-40 0 -77 15t-66.5 37t-57.5 44t-61.5 37t-67.5 15q-52 0 -80 -26.5t-26 -59.5h-80q0 94 57.5 149.5t146.5 55.5q41 0 78.5 -15t66.5 -37t57.5 -44t62 -37t67.5 -15q52 0 80.5 26.5t26.5 59.5zM733 1452q142 0 260 -47
t204 -138t133.5 -231.5t47.5 -318.5t-47.5 -318t-133.5 -231t-204 -138.5t-260 -47.5q-143 0 -261 47.5t-203.5 138.5t-133 231t-47.5 318t47.5 318.5t133 231.5t203.5 138t261 47zM733 133q217 0 342 149t125 435q0 288 -125 437t-342 149t-343 -149.5t-126 -436.5
q0 -286 126 -435t343 -149z" />
    <glyph glyph-name="Odieresis" unicode="&#xd6;" horiz-adv-x="1464" 
d="M428 1821h172v-185h-172v185zM866 1821h170v-185h-170v185zM733 1452q142 0 260 -47t204 -138t133.5 -231.5t47.5 -318.5t-47.5 -318t-133.5 -231t-204 -138.5t-260 -47.5q-143 0 -261 47.5t-203.5 138.5t-133 231t-47.5 318t47.5 318.5t133 231.5t203.5 138t261 47z
M733 133q217 0 342 149t125 435q0 288 -125 437t-342 149t-343 -149.5t-126 -436.5q0 -286 126 -435t343 -149z" />
    <glyph glyph-name="multiply" unicode="&#xd7;" horiz-adv-x="909" 
d="M815 786l-256 -256l256 -256l-102 -102l-256 256l-258 -256l-109 109l258 256l-256 256l105 102l254 -254l256 254z" />
    <glyph glyph-name="Oslash" unicode="&#xd8;" horiz-adv-x="1464" 
d="M1098 1352q134 -90 207 -250t73 -385q0 -178 -47.5 -318t-133.5 -231t-204 -138.5t-260 -47.5q-147 0 -266 49l-64 -133h-178l103 215q-240 194 -240 604q0 178 47.5 318.5t133 231.5t203.5 138t261 47q121 0 219 -33l52 107h178zM264 717q0 -296 137 -449l486 1012
q-77 23 -154 23q-217 0 -343 -149.5t-126 -436.5zM733 133q217 0 342 149t125 435q0 337 -172 485l-493 -1030q85 -39 198 -39z" />
    <glyph glyph-name="Ugrave" unicode="&#xd9;" horiz-adv-x="1339" 
d="M768 1559l-180 262h-180l217 -262h143zM1221 545q0 -264 -148.5 -413.5t-402.5 -149.5q-255 0 -403 149.5t-148 413.5v889h170v-881q0 -200 101 -310t280 -110t280 110t101 310v881h170v-889z" />
    <glyph glyph-name="Uacute" unicode="&#xda;" horiz-adv-x="1339" 
d="M553 1559h143l217 262h-180zM1221 545q0 -264 -148.5 -413.5t-402.5 -149.5q-255 0 -403 149.5t-148 413.5v889h170v-881q0 -200 101 -310t280 -110t280 110t101 310v881h170v-889z" />
    <glyph glyph-name="Ucircumflex" unicode="&#xdb;" horiz-adv-x="1339" 
d="M858 1554l-194 183l-195 -183h-133l184 267h287l182 -267h-131zM1221 545q0 -264 -148.5 -413.5t-402.5 -149.5q-255 0 -403 149.5t-148 413.5v889h170v-881q0 -200 101 -310t280 -110t280 110t101 310v881h170v-889z" />
    <glyph glyph-name="Udieresis" unicode="&#xdc;" horiz-adv-x="1339" 
d="M358 1821h172v-185h-172v185zM797 1821h170v-185h-170v185zM1221 545q0 -264 -148.5 -413.5t-402.5 -149.5q-255 0 -403 149.5t-148 413.5v889h170v-881q0 -200 101 -310t280 -110t280 110t101 310v881h170v-889z" />
    <glyph glyph-name="Yacute" unicode="&#xdd;" horiz-adv-x="1335" 
d="M557 1559h143l218 262h-181zM756 561v-561h-174v561l-525 873h191l420 -707l419 707h193z" />
    <glyph glyph-name="Thorn" unicode="&#xde;" horiz-adv-x="1222" 
d="M631 1157q254 0 390 -115t136 -321q0 -218 -133.5 -327t-392.5 -109h-348v-285h-164v1434h164v-277h348zM635 428q175 0 266.5 69.5t91.5 223.5q0 144 -94 218.5t-264 74.5h-352v-586h352z" />
    <glyph glyph-name="germandbls" unicode="&#xdf;" horiz-adv-x="1214" 
d="M805 786q145 -28 229 -126.5t84 -237.5q0 -215 -134.5 -318.5t-405.5 -103.5h-125v143h127q374 0 374 283q0 141 -104.5 212t-280.5 71h-116v131h116q153 0 224 55.5t71 175.5q0 107 -76.5 163t-212.5 56q-154 0 -223 -61.5t-69 -198.5v-1030h-164v1030q0 207 113 305.5
t337 98.5q216 0 337.5 -90.5t121.5 -266.5q0 -118 -58.5 -193.5t-164.5 -97.5z" />
    <glyph glyph-name="agrave" unicode="&#xe0;" 
d="M649 1190h-143l-217 262h180zM971 184q0 -43 18 -62t60 -18v-100q-28 -12 -68 -12q-78 0 -119 35.5t-41 115.5v76q-11 -22 -28 -46.5t-52.5 -59.5t-78 -61.5t-107.5 -46t-139 -19.5q-155 0 -251.5 82t-96.5 235q0 137 91 210t283 103q235 33 310 56q34 11 55 22v15
q0 133 -63 187t-195 54q-232 0 -260 -159h-156q17 141 124 212.5t294 71.5q217 0 318.5 -94t101.5 -311v-486zM807 340v250q-13 -7 -29.5 -13.5t-42 -13t-43.5 -11t-55.5 -11.5t-53 -10t-62 -11t-58.5 -10q-128 -21 -180 -68.5t-52 -134.5q0 -90 59 -144t163 -54
q62 0 118 19.5t93.5 45.5t69.5 61t47 59t26 46z" />
    <glyph glyph-name="aacute" unicode="&#xe1;" 
d="M795 1452l-217 -262h-144l180 262h181zM971 184q0 -43 18 -62t60 -18v-100q-28 -12 -68 -12q-78 0 -119 35.5t-41 115.5v76q-11 -22 -28 -46.5t-52.5 -59.5t-78 -61.5t-107.5 -46t-139 -19.5q-155 0 -251.5 82t-96.5 235q0 137 91 210t283 103q235 33 310 56q34 11 55 22
v15q0 133 -63 187t-195 54q-232 0 -260 -159h-156q17 141 124 212.5t294 71.5q217 0 318.5 -94t101.5 -311v-486zM807 340v250q-13 -7 -29.5 -13.5t-42 -13t-43.5 -11t-55.5 -11.5t-53 -10t-62 -11t-58.5 -10q-128 -21 -180 -68.5t-52 -134.5q0 -90 59 -144t163 -54
q62 0 118 19.5t93.5 45.5t69.5 61t47 59t26 46z" />
    <glyph glyph-name="acircumflex" unicode="&#xe2;" 
d="M545 1368l-195 -182h-133l184 266h287l182 -266h-131zM971 184q0 -43 18 -62t60 -18v-100q-28 -12 -68 -12q-78 0 -119 35.5t-41 115.5v76q-11 -22 -28 -46.5t-52.5 -59.5t-78 -61.5t-107.5 -46t-139 -19.5q-155 0 -251.5 82t-96.5 235q0 137 91 210t283 103
q235 33 310 56q34 11 55 22v15q0 133 -63 187t-195 54q-232 0 -260 -159h-156q17 141 124 212.5t294 71.5q217 0 318.5 -94t101.5 -311v-486zM807 340v250q-13 -7 -29.5 -13.5t-42 -13t-43.5 -11t-55.5 -11.5t-53 -10t-62 -11t-58.5 -10q-128 -21 -180 -68.5t-52 -134.5
q0 -90 59 -144t163 -54q62 0 118 19.5t93.5 45.5t69.5 61t47 59t26 46z" />
    <glyph glyph-name="atilde" unicode="&#xe3;" 
d="M369 1376q-52 0 -80.5 -26.5t-26.5 -59.5h-80q0 94 57.5 149.5t147.5 55.5q41 0 78.5 -15t66.5 -36.5t57.5 -43.5t62 -37t67.5 -15q52 0 80 26.5t26 59.5h78q0 -94 -57.5 -149.5t-147.5 -55.5q-49 0 -95 23t-77 50.5t-73.5 50.5t-83.5 23zM971 184q0 -43 18 -62t60 -18
v-100q-28 -12 -68 -12q-78 0 -119 35.5t-41 115.5v76q-11 -22 -28 -46.5t-52.5 -59.5t-78 -61.5t-107.5 -46t-139 -19.5q-155 0 -251.5 82t-96.5 235q0 137 91 210t283 103q235 33 310 56q34 11 55 22v15q0 133 -63 187t-195 54q-232 0 -260 -159h-156q17 141 124 212.5
t294 71.5q217 0 318.5 -94t101.5 -311v-486zM807 340v250q-13 -7 -29.5 -13.5t-42 -13t-43.5 -11t-55.5 -11.5t-53 -10t-62 -11t-58.5 -10q-128 -21 -180 -68.5t-52 -134.5q0 -90 59 -144t163 -54q62 0 118 19.5t93.5 45.5t69.5 61t47 59t26 46z" />
    <glyph glyph-name="adieresis" unicode="&#xe4;" 
d="M412 1452v-184h-172v184h172zM848 1452v-184h-170v184h170zM971 184q0 -43 18 -62t60 -18v-100q-28 -12 -68 -12q-78 0 -119 35.5t-41 115.5v76q-11 -22 -28 -46.5t-52.5 -59.5t-78 -61.5t-107.5 -46t-139 -19.5q-155 0 -251.5 82t-96.5 235q0 137 91 210t283 103
q235 33 310 56q34 11 55 22v15q0 133 -63 187t-195 54q-232 0 -260 -159h-156q17 141 124 212.5t294 71.5q217 0 318.5 -94t101.5 -311v-486zM807 340v250q-13 -7 -29.5 -13.5t-42 -13t-43.5 -11t-55.5 -11.5t-53 -10t-62 -11t-58.5 -10q-128 -21 -180 -68.5t-52 -134.5
q0 -90 59 -144t163 -54q62 0 118 19.5t93.5 45.5t69.5 61t47 59t26 46z" />
    <glyph glyph-name="aring" unicode="&#xe5;" 
d="M545 1190q-74 0 -126 51t-52 123t52.5 124t125.5 52q75 0 126.5 -52t51.5 -124t-51.5 -123t-126.5 -51zM545 1458q-40 0 -67 -26.5t-27 -67.5q0 -40 27 -67t67 -27t68 27t28 67q0 41 -28 67.5t-68 26.5zM971 184q0 -43 18 -62t60 -18v-100q-28 -12 -68 -12
q-78 0 -119 35.5t-41 115.5v76q-11 -22 -28 -46.5t-52.5 -59.5t-78 -61.5t-107.5 -46t-139 -19.5q-155 0 -251.5 82t-96.5 235q0 137 91 210t283 103q235 33 310 56q34 11 55 22v15q0 133 -63 187t-195 54q-232 0 -260 -159h-156q17 141 124 212.5t294 71.5q217 0 318.5 -94
t101.5 -311v-486zM807 340v250q-13 -7 -29.5 -13.5t-42 -13t-43.5 -11t-55.5 -11.5t-53 -10t-62 -11t-58.5 -10q-128 -21 -180 -68.5t-52 -134.5q0 -90 59 -144t163 -54q62 0 118 19.5t93.5 45.5t69.5 61t47 59t26 46z" />
    <glyph glyph-name="ae" unicode="&#xe6;" horiz-adv-x="1845" 
d="M1780 524q0 -33 -2 -51h-809q13 -183 104 -271.5t242 -88.5q100 0 164.5 29t111.5 96h152q-62 -131 -168.5 -191.5t-267.5 -60.5q-144 0 -261.5 66.5t-179.5 195.5q-68 -117 -183 -189.5t-267 -72.5q-155 0 -251.5 80.5t-96.5 226.5q0 141 94 217t274 100q12 2 54.5 7
t61.5 7.5t57 8t60.5 10.5t51.5 11.5t49.5 14t36.5 15.5v25q0 133 -63.5 187t-196.5 54q-229 0 -258 -153h-156q17 137 124.5 207.5t289.5 70.5q148 0 241 -41t138 -131q68 85 168 128.5t211 43.5q98 0 182.5 -33t150.5 -98.5t104 -173t38 -246.5zM969 586h653
q-3 175 -88.5 268.5t-228.5 93.5q-140 0 -231.5 -92t-104.5 -270zM807 334v241q-10 -5 -22.5 -10t-29.5 -10t-31.5 -8.5t-39 -8t-39.5 -7.5t-45.5 -7.5t-46 -6.5t-51.5 -7.5t-51 -7.5q-116 -18 -168 -68.5t-52 -134.5q0 -85 59.5 -137.5t162.5 -52.5q62 0 118 18.5
t93.5 44.5t69 59.5t47.5 57.5t26 45z" />
    <glyph glyph-name="ccedilla" unicode="&#xe7;" horiz-adv-x="1071" 
d="M1010 322q-39 -160 -140.5 -240.5t-242.5 -93.5l-92 -101q74 8 132 -33.5t58 -119.5q0 -191 -317 -191v76q188 6 188 111q0 56 -48 73.5t-108 -16.5l-43 66l88 139q-84 13 -157 51t-132.5 102t-93.5 163t-34 222q0 111 28 202.5t75.5 154t111.5 106t134.5 63t145.5 19.5
q77 0 143 -17t125.5 -54t103.5 -102t66 -154h-151q-69 192 -285 192q-146 0 -243 -105.5t-97 -304.5q0 -102 27.5 -181.5t75.5 -128t108.5 -73t130.5 -24.5q114 0 184.5 49t106.5 150h152z" />
    <glyph glyph-name="egrave" unicode="&#xe8;" horiz-adv-x="1103" 
d="M664 1190h-144l-217 262h180zM1038 524q0 -33 -2 -51h-809q13 -183 104 -271.5t242 -88.5q100 0 165 29t112 96h151q-62 -131 -168.5 -191.5t-267.5 -60.5q-101 0 -189.5 33.5t-158 98t-109.5 171t-40 241.5q0 136 41.5 242.5t112 171t157.5 98t184 33.5q98 0 182.5 -33
t150.5 -98.5t104 -173t38 -246.5zM227 586h654q-3 175 -89 268.5t-229 93.5q-140 0 -231.5 -92t-104.5 -270z" />
    <glyph glyph-name="eacute" unicode="&#xe9;" horiz-adv-x="1103" 
d="M809 1452l-217 -262h-143l180 262h180zM1038 524q0 -33 -2 -51h-809q13 -183 104 -271.5t242 -88.5q100 0 165 29t112 96h151q-62 -131 -168.5 -191.5t-267.5 -60.5q-101 0 -189.5 33.5t-158 98t-109.5 171t-40 241.5q0 136 41.5 242.5t112 171t157.5 98t184 33.5
q98 0 182.5 -33t150.5 -98.5t104 -173t38 -246.5zM227 586h654q-3 175 -89 268.5t-229 93.5q-140 0 -231.5 -92t-104.5 -270z" />
    <glyph glyph-name="ecircumflex" unicode="&#xea;" horiz-adv-x="1103" 
d="M559 1368l-194 -182h-134l185 266h286l183 -266h-131zM1038 524q0 -33 -2 -51h-809q13 -183 104 -271.5t242 -88.5q100 0 165 29t112 96h151q-62 -131 -168.5 -191.5t-267.5 -60.5q-101 0 -189.5 33.5t-158 98t-109.5 171t-40 241.5q0 136 41.5 242.5t112 171t157.5 98
t184 33.5q98 0 182.5 -33t150.5 -98.5t104 -173t38 -246.5zM227 586h654q-3 175 -89 268.5t-229 93.5q-140 0 -231.5 -92t-104.5 -270z" />
    <glyph glyph-name="edieresis" unicode="&#xeb;" horiz-adv-x="1103" 
d="M426 1452v-184h-172v184h172zM862 1452v-184h-170v184h170zM1038 524q0 -33 -2 -51h-809q13 -183 104 -271.5t242 -88.5q100 0 165 29t112 96h151q-62 -131 -168.5 -191.5t-267.5 -60.5q-101 0 -189.5 33.5t-158 98t-109.5 171t-40 241.5q0 136 41.5 242.5t112 171
t157.5 98t184 33.5q98 0 182.5 -33t150.5 -98.5t104 -173t38 -246.5zM227 586h654q-3 175 -89 268.5t-229 93.5q-140 0 -231.5 -92t-104.5 -270z" />
    <glyph glyph-name="igrave" unicode="&#xec;" horiz-adv-x="399" 
d="M305 1190l-180 262h-180l217 -262h143zM119 1065h164v-1065h-164v1065z" />
    <glyph glyph-name="iacute" unicode="&#xed;" horiz-adv-x="399" 
d="M90 1190h143l218 262h-181zM119 1065h164v-1065h-164v1065z" />
    <glyph glyph-name="icircumflex" unicode="&#xee;" horiz-adv-x="399" 
d="M395 1186l-194 182l-195 -182h-133l184 266h287l182 -266h-131zM119 1065h164v-1065h-164v1065z" />
    <glyph glyph-name="idieresis" unicode="&#xef;" horiz-adv-x="399" 
d="M-104 1452h172v-184h-172v184zM334 1452h170v-184h-170v184zM119 1065h164v-1065h-164v1065z" />
    <glyph glyph-name="eth" unicode="&#xf0;" horiz-adv-x="1173" 
d="M813 1196q143 -193 193.5 -333t50.5 -333q0 -134 -39.5 -240t-108.5 -173t-160 -102t-198 -35q-98 0 -184.5 35t-153.5 100.5t-106 169t-39 231.5q0 264 124.5 406.5t344.5 142.5q171 0 270 -94q-59 99 -137 207l-224 -29v84l164 20q-75 97 -153 181h172q73 -89 127 -160
l198 24v-84zM555 123q70 0 130 24t107 71t74 123.5t27 174.5q0 406 -338 406q-155 0 -240.5 -98.5t-85.5 -307.5q0 -191 94 -292t232 -101z" />
    <glyph glyph-name="ntilde" unicode="&#xf1;" horiz-adv-x="1157" 
d="M403 1376q-52 0 -80 -26.5t-26 -59.5h-80q0 94 57.5 149.5t147.5 55.5q41 0 78.5 -15t66.5 -36.5t57.5 -43.5t62 -37t67.5 -15q52 0 80 26.5t26 59.5h78q0 -94 -57.5 -149.5t-147.5 -55.5q-40 0 -77 15t-66.5 36.5t-57.5 43.5t-61.5 37t-67.5 15zM662 1075
q83 0 149.5 -22t119 -70.5t81 -134t28.5 -203.5v-645h-163v639q0 159 -69.5 228t-199.5 69q-58 0 -109.5 -19.5t-87 -49t-63.5 -67.5t-43.5 -73.5t-21.5 -67.5v-659h-164v1065h164v-248q8 26 26 57t51.5 67.5t75.5 65.5t101.5 48.5t124.5 19.5z" />
    <glyph glyph-name="ograve" unicode="&#xf2;" horiz-adv-x="1122" 
d="M666 1190l-181 262h-180l217 -262h144zM561 1075q72 0 141.5 -20t134 -63.5t113 -106t78 -153.5t29.5 -200q0 -110 -29.5 -202t-78 -154.5t-113 -106t-134 -63.5t-141.5 -20t-141 20t-133 63.5t-112.5 106t-77.5 154.5t-29 202q0 135 44 242t116 171t157.5 97t175.5 33z
M897 532q0 102 -28 181.5t-76 127.5t-107 72.5t-125 24.5t-125 -24.5t-107 -72.5t-76 -127.5t-28 -181.5t28 -182.5t76 -129t107 -73t125 -24.5t125 24.5t107 73t76 129t28 182.5z" />
    <glyph glyph-name="oacute" unicode="&#xf3;" horiz-adv-x="1122" 
d="M451 1190h143l217 262h-180zM561 1075q72 0 141.5 -20t134 -63.5t113 -106t78 -153.5t29.5 -200q0 -110 -29.5 -202t-78 -154.5t-113 -106t-134 -63.5t-141.5 -20t-141 20t-133 63.5t-112.5 106t-77.5 154.5t-29 202q0 135 44 242t116 171t157.5 97t175.5 33zM897 532
q0 102 -28 181.5t-76 127.5t-107 72.5t-125 24.5t-125 -24.5t-107 -72.5t-76 -127.5t-28 -181.5t28 -182.5t76 -129t107 -73t125 -24.5t125 24.5t107 73t76 129t28 182.5z" />
    <glyph glyph-name="ocircumflex" unicode="&#xf4;" horiz-adv-x="1122" 
d="M756 1186l-195 182l-194 -182h-134l185 266h287l182 -266h-131zM561 1075q72 0 141.5 -20t134 -63.5t113 -106t78 -153.5t29.5 -200q0 -110 -29.5 -202t-78 -154.5t-113 -106t-134 -63.5t-141.5 -20t-141 20t-133 63.5t-112.5 106t-77.5 154.5t-29 202q0 135 44 242
t116 171t157.5 97t175.5 33zM897 532q0 102 -28 181.5t-76 127.5t-107 72.5t-125 24.5t-125 -24.5t-107 -72.5t-76 -127.5t-28 -181.5t28 -182.5t76 -129t107 -73t125 -24.5t125 24.5t107 73t76 129t28 182.5z" />
    <glyph glyph-name="otilde" unicode="&#xf5;" horiz-adv-x="1122" 
d="M842 1434h78q0 -94 -57.5 -149.5t-147.5 -55.5q-40 0 -77 15t-66.5 36.5t-57.5 43.5t-61.5 37t-67.5 15q-52 0 -80 -26.5t-26 -59.5h-80q0 94 57.5 149.5t146.5 55.5q41 0 78.5 -15t66.5 -36.5t57.5 -43.5t62 -37t67.5 -15q52 0 80.5 26.5t26.5 59.5zM561 1075
q72 0 141.5 -20t134 -63.5t113 -106t78 -153.5t29.5 -200q0 -110 -29.5 -202t-78 -154.5t-113 -106t-134 -63.5t-141.5 -20t-141 20t-133 63.5t-112.5 106t-77.5 154.5t-29 202q0 135 44 242t116 171t157.5 97t175.5 33zM897 532q0 102 -28 181.5t-76 127.5t-107 72.5
t-125 24.5t-125 -24.5t-107 -72.5t-76 -127.5t-28 -181.5t28 -182.5t76 -129t107 -73t125 -24.5t125 24.5t107 73t76 129t28 182.5z" />
    <glyph glyph-name="odieresis" unicode="&#xf6;" horiz-adv-x="1122" 
d="M256 1452h172v-184h-172v184zM694 1452h170v-184h-170v184zM561 1075q72 0 141.5 -20t134 -63.5t113 -106t78 -153.5t29.5 -200q0 -110 -29.5 -202t-78 -154.5t-113 -106t-134 -63.5t-141.5 -20t-141 20t-133 63.5t-112.5 106t-77.5 154.5t-29 202q0 135 44 242t116 171
t157.5 97t175.5 33zM897 532q0 102 -28 181.5t-76 127.5t-107 72.5t-125 24.5t-125 -24.5t-107 -72.5t-76 -127.5t-28 -181.5t28 -182.5t76 -129t107 -73t125 -24.5t125 24.5t107 73t76 129t28 182.5z" />
    <glyph glyph-name="divide" unicode="&#xf7;" horiz-adv-x="942" 
d="M475 817q-34 0 -57 23t-23 57q0 32 23 55t57 23q32 0 55 -23t23 -55q0 -34 -23 -57t-55 -23zM84 637h610v-127h-610v127zM475 170q-33 0 -56.5 23.5t-23.5 56.5t23.5 56.5t56.5 23.5q32 0 55 -24t23 -56t-23 -56t-55 -24z" />
    <glyph glyph-name="oslash" unicode="&#xf8;" horiz-adv-x="1122" 
d="M846 985q97 -67 154 -181.5t57 -271.5q0 -110 -29.5 -202t-78 -154.5t-113 -106t-134 -63.5t-141.5 -20q-98 0 -180 32l-57 -120h-148l90 186q-198 152 -198 448q0 135 44 242t116 171t157.5 97t175.5 33q80 0 166 -28l66 137h147zM225 532q0 -200 105 -313l338 703
q-56 16 -107 16q-66 0 -125 -24.5t-107 -72.5t-76 -127.5t-28 -181.5zM561 123q66 0 125 24.5t107 73t76 129t28 182.5q0 208 -115 320l-340 -707q51 -22 119 -22z" />
    <glyph glyph-name="ugrave" unicode="&#xf9;" horiz-adv-x="1146" 
d="M670 1190h-144l-217 262h180zM866 1065h164v-1065h-164v248q-10 -33 -38 -74.5t-73 -85t-116.5 -73t-151.5 -29.5q-83 0 -149.5 22.5t-119 71.5t-81 135t-28.5 205v645h163v-641q0 -160 70 -229.5t199 -69.5q57 0 108.5 19.5t86.5 49.5t63 68t44 73.5t23 67.5v662z" />
    <glyph glyph-name="uacute" unicode="&#xfa;" horiz-adv-x="1146" 
d="M815 1452l-217 -262h-143l180 262h180zM866 1065h164v-1065h-164v248q-10 -33 -38 -74.5t-73 -85t-116.5 -73t-151.5 -29.5q-83 0 -149.5 22.5t-119 71.5t-81 135t-28.5 205v645h163v-641q0 -160 70 -229.5t199 -69.5q57 0 108.5 19.5t86.5 49.5t63 68t44 73.5t23 67.5
v662z" />
    <glyph glyph-name="ucircumflex" unicode="&#xfb;" horiz-adv-x="1146" 
d="M565 1368l-194 -182h-133l184 266h287l182 -266h-131zM866 1065h164v-1065h-164v248q-10 -33 -38 -74.5t-73 -85t-116.5 -73t-151.5 -29.5q-83 0 -149.5 22.5t-119 71.5t-81 135t-28.5 205v645h163v-641q0 -160 70 -229.5t199 -69.5q57 0 108.5 19.5t86.5 49.5t63 68
t44 73.5t23 67.5v662z" />
    <glyph glyph-name="udieresis" unicode="&#xfc;" horiz-adv-x="1146" 
d="M432 1452v-184h-172v184h172zM868 1452v-184h-170v184h170zM866 1065h164v-1065h-164v248q-10 -33 -38 -74.5t-73 -85t-116.5 -73t-151.5 -29.5q-83 0 -149.5 22.5t-119 71.5t-81 135t-28.5 205v645h163v-641q0 -160 70 -229.5t199 -69.5q57 0 108.5 19.5t86.5 49.5
t63 68t44 73.5t23 67.5v662z" />
    <glyph glyph-name="yacute" unicode="&#xfd;" 
d="M440 1190h144l217 262h-180zM883 1065h168l-459 -1143q-74 -185 -175.5 -256.5t-254.5 -52.5v143q110 -14 177 31.5t105 140.5q17 44 19 68t-10 55l-406 1014h170l330 -877z" />
    <glyph glyph-name="thorn" unicode="&#xfe;" horiz-adv-x="1179" 
d="M641 1075q87 0 169 -33t150.5 -96.5t110 -170.5t41.5 -243q0 -111 -27.5 -203t-73.5 -154.5t-108 -105.5t-129 -63t-137 -20q-129 0 -220.5 63t-133.5 164v-602h-164v1835h164v-580q46 95 138 150.5t210 58.5h2h4h4zM952 528v4v5v2v4v2q0 60 -14 125q0 2 -2 2v2v2v2l-2 2
v2q-34 127 -121.5 191.5t-200.5 64.5q-68 0 -127.5 -24t-107.5 -71.5t-75.5 -127.5t-27.5 -183q0 -196 98 -302.5t240 -106.5q114 0 202 66.5t122 197.5v2v2l2 2v2v2q14 65 14 123v2v4v2z" />
    <glyph glyph-name="ydieresis" unicode="&#xff;" 
d="M246 1452h172v-184h-172v184zM684 1452h170v-184h-170v184zM883 1065h168l-459 -1143q-74 -185 -175.5 -256.5t-254.5 -52.5v143q110 -14 177 31.5t105 140.5q17 44 19 68t-10 55l-406 1014h170l330 -877z" />
    <glyph glyph-name="Amacron" unicode="&#x100;" horiz-adv-x="1402" 
d="M1016 1821v-103h-629v103h629zM1163 0l-139 367h-643l-139 -367h-185l570 1434h149l572 -1434h-185zM430 498h545l-273 714z" />
    <glyph glyph-name="amacron" unicode="&#x101;" 
d="M858 1452v-102h-629v102h629zM971 184q0 -43 18 -62t60 -18v-100q-28 -12 -68 -12q-78 0 -119 35.5t-41 115.5v76q-11 -22 -28 -46.5t-52.5 -59.5t-78 -61.5t-107.5 -46t-139 -19.5q-155 0 -251.5 82t-96.5 235q0 137 91 210t283 103q235 33 310 56q34 11 55 22v15
q0 133 -63 187t-195 54q-232 0 -260 -159h-156q17 141 124 212.5t294 71.5q217 0 318.5 -94t101.5 -311v-486zM807 340v250q-13 -7 -29.5 -13.5t-42 -13t-43.5 -11t-55.5 -11.5t-53 -10t-62 -11t-58.5 -10q-128 -21 -180 -68.5t-52 -134.5q0 -90 59 -144t163 -54
q62 0 118 19.5t93.5 45.5t69.5 61t47 59t26 46z" />
    <glyph glyph-name="Abreve" unicode="&#x102;" horiz-adv-x="1402" 
d="M702 1559q-149 0 -222.5 73.5t-73.5 188.5h112q10 -72 53 -110t131 -38q169 0 185 148h112q0 -55 -17 -101t-52 -82.5t-93 -57.5t-135 -21zM1163 0l-139 367h-643l-139 -367h-185l570 1434h149l572 -1434h-185zM430 498h545l-273 714z" />
    <glyph glyph-name="abreve" unicode="&#x103;" 
d="M545 1190q-149 0 -223 74t-74 188h112q10 -71 53.5 -109t131.5 -38q168 0 184 147h113q0 -114 -74 -188t-223 -74zM971 184q0 -43 18 -62t60 -18v-100q-28 -12 -68 -12q-78 0 -119 35.5t-41 115.5v76q-11 -22 -28 -46.5t-52.5 -59.5t-78 -61.5t-107.5 -46t-139 -19.5
q-155 0 -251.5 82t-96.5 235q0 137 91 210t283 103q235 33 310 56q34 11 55 22v15q0 133 -63 187t-195 54q-232 0 -260 -159h-156q17 141 124 212.5t294 71.5q217 0 318.5 -94t101.5 -311v-486zM807 340v250q-13 -7 -29.5 -13.5t-42 -13t-43.5 -11t-55.5 -11.5t-53 -10
t-62 -11t-58.5 -10q-128 -21 -180 -68.5t-52 -134.5q0 -90 59 -144t163 -54q62 0 118 19.5t93.5 45.5t69.5 61t47 59t26 46z" />
    <glyph glyph-name="Aogonek" unicode="&#x104;" horiz-adv-x="1402" 
d="M1288 0q-124 -42 -189 -104.5t-65 -133.5q0 -64 51.5 -87t141.5 -3v-80q-45 -21 -103.5 -26t-114.5 7t-94 53.5t-38 107.5q0 64 46 121t109 92t131 53l-139 367h-643l-139 -367h-185l570 1434h149l572 -1434h-60zM430 498h545l-273 714z" />
    <glyph glyph-name="aogonek" unicode="&#x105;" 
d="M1049 104v-100l-17 -6h12q-124 -42 -188.5 -104.5t-64.5 -133.5q0 -64 51 -87t141 -3v-80q-45 -21 -103.5 -26t-114.5 7t-94 53.5t-38 107.5q0 64 46.5 121t109.5 92t131 53h2q-101 22 -101 145v76q-11 -22 -28 -46.5t-52.5 -59.5t-78 -61.5t-107.5 -46t-139 -19.5
q-155 0 -251.5 82t-96.5 235q0 137 91 210t283 103q235 33 310 56q34 11 55 22v15q0 133 -63 187t-195 54q-232 0 -260 -159h-156q17 141 124 212.5t294 71.5q217 0 318.5 -94t101.5 -311v-486q0 -43 18 -62t60 -18zM807 340v250q-13 -7 -29.5 -13.5t-42 -13t-43.5 -11
t-55.5 -11.5t-53 -10t-62 -11t-58.5 -10q-128 -21 -180 -68.5t-52 -134.5q0 -90 59 -144t163 -54q62 0 118 19.5t93.5 45.5t69.5 61t47 59t26 46z" />
    <glyph glyph-name="Cacute" unicode="&#x106;" horiz-adv-x="1335" 
d="M604 1559h144l217 262h-181zM721 133q292 0 381 232h172q-39 -181 -189.5 -282t-365.5 -101q-137 0 -251.5 47t-199.5 136.5t-132.5 231t-47.5 320.5q0 180 47.5 321.5t132.5 231t199.5 136t251.5 46.5q214 0 363 -100t188 -281h-174q-86 232 -375 232q-207 0 -332 -151
t-125 -435q0 -283 125 -433.5t332 -150.5z" />
    <glyph glyph-name="cacute" unicode="&#x107;" horiz-adv-x="1071" 
d="M442 1190h144l217 262h-180zM567 123q114 0 184.5 49t106.5 150h152q-22 -92 -67 -159t-106 -104.5t-128 -55t-144 -17.5q-95 0 -181.5 32.5t-158 96t-114.5 171t-43 244.5q0 111 28 202.5t75.5 154t111.5 106t134.5 63t145.5 19.5q77 0 143 -17t125.5 -54t103.5 -102
t66 -154h-151q-69 192 -285 192q-146 0 -243 -105.5t-97 -304.5q0 -102 27.5 -181.5t75.5 -128t108.5 -73t130.5 -24.5z" />
    <glyph glyph-name="Cdotaccent" unicode="&#x10a;" horiz-adv-x="1335" 
d="M629 1821h172v-185h-172v185zM721 133q292 0 381 232h172q-39 -181 -189.5 -282t-365.5 -101q-137 0 -251.5 47t-199.5 136.5t-132.5 231t-47.5 320.5q0 180 47.5 321.5t132.5 231t199.5 136t251.5 46.5q214 0 363 -100t188 -281h-174q-86 232 -375 232q-207 0 -332 -151
t-125 -435q0 -283 125 -433.5t332 -150.5z" />
    <glyph glyph-name="cdotaccent" unicode="&#x10b;" horiz-adv-x="1071" 
d="M467 1452h172v-184h-172v184zM567 123q114 0 184.5 49t106.5 150h152q-22 -92 -67 -159t-106 -104.5t-128 -55t-144 -17.5q-95 0 -181.5 32.5t-158 96t-114.5 171t-43 244.5q0 111 28 202.5t75.5 154t111.5 106t134.5 63t145.5 19.5q77 0 143 -17t125.5 -54t103.5 -102
t66 -154h-151q-69 192 -285 192q-146 0 -243 -105.5t-97 -304.5q0 -102 27.5 -181.5t75.5 -128t108.5 -73t130.5 -24.5z" />
    <glyph glyph-name="Ccaron" unicode="&#x10c;" horiz-adv-x="1335" 
d="M907 1802h131l-182 -266h-287l-184 266h133l195 -182zM721 133q292 0 381 232h172q-39 -181 -189.5 -282t-365.5 -101q-137 0 -251.5 47t-199.5 136.5t-132.5 231t-47.5 320.5q0 180 47.5 321.5t132.5 231t199.5 136t251.5 46.5q214 0 363 -100t188 -281h-174
q-86 232 -375 232q-207 0 -332 -151t-125 -435q0 -283 125 -433.5t332 -150.5z" />
    <glyph glyph-name="ccaron" unicode="&#x10d;" horiz-adv-x="1071" 
d="M745 1434h132l-183 -267h-286l-185 267h133l195 -183zM567 123q114 0 184.5 49t106.5 150h152q-22 -92 -67 -159t-106 -104.5t-128 -55t-144 -17.5q-95 0 -181.5 32.5t-158 96t-114.5 171t-43 244.5q0 111 28 202.5t75.5 154t111.5 106t134.5 63t145.5 19.5q77 0 143 -17
t125.5 -54t103.5 -102t66 -154h-151q-69 192 -285 192q-146 0 -243 -105.5t-97 -304.5q0 -102 27.5 -181.5t75.5 -128t108.5 -73t130.5 -24.5z" />
    <glyph glyph-name="Dcaron" unicode="&#x10e;" horiz-adv-x="1345" 
d="M819 1536h-287l-184 266h133l195 -182l194 182h131zM573 1434q344 0 520.5 -185t176.5 -532q0 -346 -176.5 -531.5t-520.5 -185.5h-454v1434h454zM559 152q279 0 409 138t130 427t-130 428t-409 139h-270v-1132h270z" />
    <glyph glyph-name="dcaron" unicode="&#x10f;" horiz-adv-x="1439" 
d="M539 1075q121 0 215.5 -56t142.5 -153v580h164v-1446h-164v215q-43 -100 -134.5 -164.5t-219.5 -64.5q-70 0 -137 20t-129 63t-108 105.5t-73.5 154.5t-27.5 203q0 136 41.5 243t110 170.5t150.5 96.5t169 33zM1120 1184h144l217 262h-181zM567 123q142 0 240 106.5
t98 302.5q0 103 -27.5 183t-75.5 127.5t-107.5 71.5t-127.5 24q-69 0 -128.5 -24t-107.5 -72t-76 -127.5t-28 -182.5t28 -183t75.5 -128.5t108 -73t128.5 -24.5z" />
    <glyph glyph-name="Dcroat" unicode="&#x110;" horiz-adv-x="1392" 
d="M621 1434q344 0 520 -184.5t176 -532.5q0 -346 -176 -531.5t-520 -185.5h-455v649h-125v127h125v658h455zM606 152q279 0 409 138t130 427t-130 428t-409 139h-270v-508h268v-127h-268v-497h270z" />
    <glyph glyph-name="dcroat" unicode="&#x111;" horiz-adv-x="1275" 
d="M1241 1321v-102h-180v-1219h-164v215q-43 -100 -134.5 -164.5t-219.5 -64.5q-70 0 -137 20t-129 63t-108 105.5t-73.5 154.5t-27.5 203q0 136 41.5 243t110 170.5t150.5 96.5t169 33q121 0 215.5 -56t142.5 -153v353h-285v102h285v125h164v-125h180zM567 123
q142 0 240 106.5t98 302.5q0 103 -27.5 183t-75.5 127.5t-107.5 71.5t-127.5 24q-69 0 -128.5 -24t-107.5 -72t-76 -127.5t-28 -182.5t28 -183t75.5 -128.5t108 -73t128.5 -24.5z" />
    <glyph glyph-name="Emacron" unicode="&#x112;" horiz-adv-x="1130" 
d="M889 1821v-103h-629v103h629zM289 152h780v-152h-950v1434h930v-150h-760v-477h657v-139h-657v-516z" />
    <glyph glyph-name="emacron" unicode="&#x113;" horiz-adv-x="1103" 
d="M872 1452v-102h-628v102h628zM1038 524q0 -33 -2 -51h-809q13 -183 104 -271.5t242 -88.5q100 0 165 29t112 96h151q-62 -131 -168.5 -191.5t-267.5 -60.5q-101 0 -189.5 33.5t-158 98t-109.5 171t-40 241.5q0 136 41.5 242.5t112 171t157.5 98t184 33.5q98 0 182.5 -33
t150.5 -98.5t104 -173t38 -246.5zM227 586h654q-3 175 -89 268.5t-229 93.5q-140 0 -231.5 -92t-104.5 -270z" />
    <glyph glyph-name="Edotaccent" unicode="&#x116;" horiz-adv-x="1130" 
d="M662 1821v-185h-173v185h173zM289 152h780v-152h-950v1434h930v-150h-760v-477h657v-139h-657v-516z" />
    <glyph glyph-name="edotaccent" unicode="&#x117;" horiz-adv-x="1103" 
d="M645 1452v-184h-172v184h172zM1038 524q0 -33 -2 -51h-809q13 -183 104 -271.5t242 -88.5q100 0 165 29t112 96h151q-62 -131 -168.5 -191.5t-267.5 -60.5q-101 0 -189.5 33.5t-158 98t-109.5 171t-40 241.5q0 136 41.5 242.5t112 171t157.5 98t184 33.5q98 0 182.5 -33
t150.5 -98.5t104 -173t38 -246.5zM227 586h654q-3 175 -89 268.5t-229 93.5q-140 0 -231.5 -92t-104.5 -270z" />
    <glyph glyph-name="Eogonek" unicode="&#x118;" horiz-adv-x="1130" 
d="M1069 0q-124 -42 -189 -104.5t-65 -133.5q0 -64 51.5 -87t141.5 -3v-80q-45 -21 -103.5 -26t-114.5 7t-94.5 53.5t-38.5 107.5q0 64 46.5 121t109.5 92t131 53h-825v1434h930v-150h-760v-477h657v-139h-657v-516h780v-152z" />
    <glyph glyph-name="eogonek" unicode="&#x119;" horiz-adv-x="1103" 
d="M1038 524q0 -33 -2 -51h-809q13 -183 104 -271.5t242 -88.5q100 0 165 29t112 96h151q-103 -216 -337 -246h32q-124 -42 -189 -104.5t-65 -133.5q0 -64 51.5 -87t141.5 -3v-80q-45 -21 -103.5 -26t-114.5 7t-94 53.5t-38 107.5q0 88 80.5 158t185.5 102
q-99 2 -184.5 36.5t-153 99.5t-106.5 170t-39 238q0 136 41.5 242.5t112 171t157.5 98t184 33.5q98 0 182.5 -33t150.5 -98.5t104 -173t38 -246.5zM227 586h654q-3 175 -89 268.5t-229 93.5q-140 0 -231.5 -92t-104.5 -270z" />
    <glyph glyph-name="Ecaron" unicode="&#x11a;" horiz-adv-x="1130" 
d="M717 1536h-287l-184 266h133l194 -182l195 182h131zM289 152h780v-152h-950v1434h930v-150h-760v-477h657v-139h-657v-516z" />
    <glyph glyph-name="ecaron" unicode="&#x11b;" horiz-adv-x="1103" 
d="M700 1167h-286l-185 267h133l195 -183l195 183h131zM1038 524q0 -33 -2 -51h-809q13 -183 104 -271.5t242 -88.5q100 0 165 29t112 96h151q-62 -131 -168.5 -191.5t-267.5 -60.5q-101 0 -189.5 33.5t-158 98t-109.5 171t-40 241.5q0 136 41.5 242.5t112 171t157.5 98
t184 33.5q98 0 182.5 -33t150.5 -98.5t104 -173t38 -246.5zM227 586h654q-3 175 -89 268.5t-229 93.5q-140 0 -231.5 -92t-104.5 -270z" />
    <glyph glyph-name="Gbreve" unicode="&#x11e;" horiz-adv-x="1413" 
d="M903 1821h113q0 -115 -74 -188.5t-223 -73.5t-223 73.5t-74 188.5h113q10 -72 53 -110t131 -38q168 0 184 148zM1317 735v-82q0 -331 -148 -501t-442 -170q-142 0 -258.5 46.5t-201.5 136t-132 230.5t-47 322t47 322t131.5 230.5t199 136t253.5 46.5q206 0 348 -93.5
t186 -262.5h-172q-94 207 -360 207q-209 0 -333 -150.5t-124 -435.5q0 -284 125.5 -434t337.5 -150q423 0 432 463h-368v139h526z" />
    <glyph glyph-name="gbreve" unicode="&#x11f;" horiz-adv-x="1175" 
d="M561 1190q-149 0 -223 74t-74 188h113q10 -71 53 -109t131 -38q168 0 184 147h113q0 -114 -74 -188t-223 -74zM895 1067h164v-1061q0 -107 -30.5 -189.5t-79 -132t-115 -81t-130.5 -43t-135 -11.5q-151 0 -268.5 55t-171.5 150l107 68q48 -63 129 -99t190 -36
q164 0 252 75.5t88 243.5v209q-43 -99 -135 -163t-221 -64q-70 0 -136.5 19.5t-127.5 63t-106.5 106t-73 154t-27.5 201.5q0 109 27.5 200.5t73.5 154t107 105.5t126.5 63t134.5 20q119 0 213.5 -55.5t144.5 -153.5v201zM567 125q142 0 239 105.5t97 301.5q0 103 -27.5 183
t-75 128t-106.5 72.5t-127 24.5t-128 -24.5t-107.5 -73t-75 -128t-27.5 -182.5t27.5 -182.5t75 -127.5t107 -72.5t128.5 -24.5z" />
    <glyph glyph-name="Gdotaccent" unicode="&#x120;" horiz-adv-x="1413" 
d="M633 1821h172v-185h-172v185zM1317 735v-82q0 -331 -148 -501t-442 -170q-142 0 -258.5 46.5t-201.5 136t-132 230.5t-47 322t47 322t131.5 230.5t199 136t253.5 46.5q206 0 348 -93.5t186 -262.5h-172q-94 207 -360 207q-209 0 -333 -150.5t-124 -435.5
q0 -284 125.5 -434t337.5 -150q423 0 432 463h-368v139h526z" />
    <glyph glyph-name="gdotaccent" unicode="&#x121;" horiz-adv-x="1175" 
d="M647 1452v-184h-172v184h172zM895 1067h164v-1061q0 -107 -30.5 -189.5t-79 -132t-115 -81t-130.5 -43t-135 -11.5q-151 0 -268.5 55t-171.5 150l107 68q48 -63 129 -99t190 -36q164 0 252 75.5t88 243.5v209q-43 -99 -135 -163t-221 -64q-70 0 -136.5 19.5t-127.5 63
t-106.5 106t-73 154t-27.5 201.5q0 109 27.5 200.5t73.5 154t107 105.5t126.5 63t134.5 20q119 0 213.5 -55.5t144.5 -153.5v201zM567 125q142 0 239 105.5t97 301.5q0 103 -27.5 183t-75 128t-106.5 72.5t-127 24.5t-128 -24.5t-107.5 -73t-75 -128t-27.5 -182.5
t27.5 -182.5t75 -127.5t107 -72.5t128.5 -24.5z" />
    <glyph glyph-name="Gcommaaccent" unicode="&#x122;" horiz-adv-x="1413" 
d="M1317 735v-82q0 -331 -148 -501t-442 -170q-142 0 -258.5 46.5t-201.5 136t-132 230.5t-47 322t47 322t131.5 230.5t199 136t253.5 46.5q206 0 348 -93.5t186 -262.5h-172q-94 207 -360 207q-209 0 -333 -150.5t-124 -435.5q0 -284 125.5 -434t337.5 -150q423 0 432 463
h-368v139h526zM627 -553v55q45 21 62.5 62.5t17.5 116.5v63h-80v209h196v-260q0 -242 -196 -246z" />
    <glyph glyph-name="gcommaaccent" unicode="&#x123;" horiz-adv-x="1175" 
d="M645 1372v-209h-196v260q0 242 196 246v-55q-45 -21 -62.5 -62t-17.5 -116v-64h80zM895 1067h164v-1061q0 -107 -30.5 -189.5t-79 -132t-115 -81t-130.5 -43t-135 -11.5q-151 0 -268.5 55t-171.5 150l107 68q48 -63 129 -99t190 -36q164 0 252 75.5t88 243.5v209
q-43 -99 -135 -163t-221 -64q-70 0 -136.5 19.5t-127.5 63t-106.5 106t-73 154t-27.5 201.5q0 109 27.5 200.5t73.5 154t107 105.5t126.5 63t134.5 20q119 0 213.5 -55.5t144.5 -153.5v201zM567 125q142 0 239 105.5t97 301.5q0 103 -27.5 183t-75 128t-106.5 72.5
t-127 24.5t-128 -24.5t-107.5 -73t-75 -128t-27.5 -182.5t27.5 -182.5t75 -127.5t107 -72.5t128.5 -24.5z" />
    <glyph glyph-name="Hbar" unicode="&#x126;" horiz-adv-x="1329" 
d="M1040 1434h172v-1434h-172v633h-751v-633h-170v1434h170v-328h751v328zM289 774h751v199h-751v-199z" />
    <glyph glyph-name="hbar" unicode="&#x127;" horiz-adv-x="1216" 
d="M721 1075q66 0 121.5 -13.5t104 -45t82 -80t52.5 -122.5t19 -169v-645h-164v639q0 159 -69.5 228t-198.5 69q-72 0 -133 -28.5t-99.5 -73t-62 -89.5t-31.5 -86v-659h-164v1141h-141v116h141v189h164v-189h227v-116h-227v-324q8 26 26 57t51.5 67.5t75.5 65.5t101.5 48.5
t124.5 19.5z" />
    <glyph glyph-name="Imacron" unicode="&#x12a;" horiz-adv-x="407" 
d="M-113 1821h629v-103h-629v103zM289 0h-170v1434h170v-1434z" />
    <glyph glyph-name="imacron" unicode="&#x12b;" horiz-adv-x="399" 
d="M-115 1452h629v-102h-629v102zM119 1065h164v-1065h-164v1065z" />
    <glyph glyph-name="Iogonek" unicode="&#x12e;" horiz-adv-x="407" 
d="M289 0q-124 -42 -189 -104.5t-65 -133.5q0 -64 51 -87t141 -3v-80q-45 -21 -103.5 -26t-114.5 7t-94 53.5t-38 107.5q0 64 46.5 121t109.5 92t131 53h-45v1434h170v-1434z" />
    <glyph glyph-name="iogonek" unicode="&#x12f;" horiz-adv-x="399" 
d="M115 1452h172v-184h-172v184zM119 0v1065h164v-1065h-39q-124 -42 -189 -104.5t-65 -133.5q0 -64 51 -87t141 -3v-80q-45 -21 -103.5 -26t-114.5 7t-94 53.5t-38 107.5q0 64 46.5 121t109.5 92t131 53z" />
    <glyph glyph-name="Idotaccent" unicode="&#x130;" horiz-adv-x="407" 
d="M117 1821h172v-185h-172v185zM289 0h-170v1434h170v-1434z" />
    <glyph glyph-name="dotlessi" unicode="&#x131;" horiz-adv-x="399" 
d="M119 1065h164v-1065h-164v1065z" />
    <glyph glyph-name="IJ" unicode="&#x132;" horiz-adv-x="1431" 
d="M289 0h-170v1434h170v-1434zM547 274q111 -137 305 -137q62 0 113.5 17.5t95 57t68 112.5t24.5 174v936h172v-942q0 -134 -38.5 -234.5t-106 -158.5t-149.5 -85.5t-179 -27.5q-133 0 -233 49.5t-164 132.5z" />
    <glyph glyph-name="ij" unicode="&#x133;" horiz-adv-x="811" 
d="M119 1452h164v-152h-164v152zM530 1452h164v-152h-164v152zM119 1065h164v-1065h-164v1065zM240 -270q85 -37 159 -37q67 0 99 42t32 113v1217h164v-1231q0 -285 -260 -285q-119 0 -194 43v138z" />
    <glyph glyph-name="Kcommaaccent" unicode="&#x136;" horiz-adv-x="1312" 
d="M616 770l656 -770h-197l-567 651l-219 -241v-410h-170v1434h170v-793l727 793h201zM561 -256v209h197v-260q0 -242 -197 -246v55q45 21 62.5 62.5t17.5 116.5v63h-80z" />
    <glyph glyph-name="kcommaaccent" unicode="&#x137;" horiz-adv-x="1103" 
d="M563 604l514 -604h-186l-432 498l-176 -183v-315h-164v1446h164v-938l536 557h193zM467 -256v209h197v-260q0 -242 -197 -246v55q45 21 62.5 62.5t17.5 116.5v63h-80z" />
    <glyph glyph-name="Lacute" unicode="&#x139;" horiz-adv-x="1087" 
d="M133 1554h143l218 263h-181zM289 152h733v-152h-903v1434h170v-1282z" />
    <glyph glyph-name="lacute" unicode="&#x13a;" horiz-adv-x="399" 
d="M90 1571h143l218 262h-181zM119 1446h164v-1446h-164v1446z" />
    <glyph glyph-name="Lcommaaccent" unicode="&#x13b;" horiz-adv-x="1087" 
d="M289 152h733v-152h-903v1434h170v-1282zM444 -563v55q45 21 62.5 62t17.5 116v64h-80v209h197v-260q0 -242 -197 -246z" />
    <glyph glyph-name="lcommaaccent" unicode="&#x13c;" horiz-adv-x="399" 
d="M119 1446h164v-1446h-164v1446zM100 -553v55q45 21 62.5 62.5t17.5 116.5v63h-80v209h197v-260q0 -242 -197 -246z" />
    <glyph glyph-name="Lcaron" unicode="&#x13d;" horiz-adv-x="1087" 
d="M289 152h733v-152h-903v1434h170v-1282zM539 928v55q45 21 62 61.5t17 116.5v64h-79v209h196v-260q0 -242 -196 -246z" />
    <glyph glyph-name="lcaron" unicode="&#x13e;" horiz-adv-x="731" 
d="M119 1446h164v-1446h-164v1446zM453 928v55q45 21 62 61.5t17 116.5v64h-79v209h196v-260q0 -242 -196 -246z" />
    <glyph glyph-name="Lslash" unicode="&#x141;" horiz-adv-x="1150" 
d="M352 152h733v-152h-903v496l-145 -154v172l145 154v766h170v-586l234 246h2v-170l-236 -248v-524z" />
    <glyph glyph-name="lslash" unicode="&#x142;" horiz-adv-x="647" 
d="M592 1096v-185l-205 -215v-696h-164v522l-166 -174v187l166 174v737h164v-563l203 213h2z" />
    <glyph glyph-name="Nacute" unicode="&#x143;" horiz-adv-x="1355" 
d="M569 1559h144l217 262h-180zM1239 1434v-1434h-192l-752 1165h-6v-1165h-170v1434h186l758 -1172h4v1172h172z" />
    <glyph glyph-name="nacute" unicode="&#x144;" horiz-adv-x="1157" 
d="M829 1452l-217 -262h-143l180 262h180zM662 1075q83 0 149.5 -22t119 -70.5t81 -134t28.5 -203.5v-645h-163v639q0 159 -69.5 228t-199.5 69q-58 0 -109.5 -19.5t-87 -49t-63.5 -67.5t-43.5 -73.5t-21.5 -67.5v-659h-164v1065h164v-248q8 26 26 57t51.5 67.5t75.5 65.5
t101.5 48.5t124.5 19.5z" />
    <glyph glyph-name="Ncommaaccent" unicode="&#x145;" horiz-adv-x="1355" 
d="M1239 1434v-1434h-192l-752 1165h-6v-1165h-170v1434h186l758 -1172h4v1172h172zM580 -553v55q45 21 62 62t17 117v63h-79v209h196v-260q0 -242 -196 -246z" />
    <glyph glyph-name="ncommaaccent" unicode="&#x146;" horiz-adv-x="1157" 
d="M662 1075q83 0 149.5 -22t119 -70.5t81 -134t28.5 -203.5v-645h-163v639q0 159 -69.5 228t-199.5 69q-58 0 -109.5 -19.5t-87 -49t-63.5 -67.5t-43.5 -73.5t-21.5 -67.5v-659h-164v1065h164v-248q8 26 26 57t51.5 67.5t75.5 65.5t101.5 48.5t124.5 19.5zM479 -256v209
h197v-260q0 -242 -197 -246v55q45 21 62.5 62.5t17.5 116.5v63h-80z" />
    <glyph glyph-name="Ncaron" unicode="&#x147;" horiz-adv-x="1355" 
d="M872 1802h132l-183 -266h-286l-185 266h133l195 -182zM1239 1434v-1434h-192l-752 1165h-6v-1165h-170v1434h186l758 -1172h4v1172h172z" />
    <glyph glyph-name="ncaron" unicode="&#x148;" horiz-adv-x="1157" 
d="M721 1167h-287l-184 267h133l195 -183l194 183h131zM662 1075q83 0 149.5 -22t119 -70.5t81 -134t28.5 -203.5v-645h-163v639q0 159 -69.5 228t-199.5 69q-58 0 -109.5 -19.5t-87 -49t-63.5 -67.5t-43.5 -73.5t-21.5 -67.5v-659h-164v1065h164v-248q8 26 26 57t51.5 67.5
t75.5 65.5t101.5 48.5t124.5 19.5z" />
    <glyph glyph-name="Eng" unicode="&#x14a;" horiz-adv-x="1355" 
d="M1067 1434h172v-1379q0 -109 -25.5 -195.5t-69.5 -144t-105 -95.5t-128.5 -54.5t-144.5 -16.5q-132 0 -232.5 49.5t-164.5 133.5l92 104q114 -137 305 -137q55 0 101.5 13.5t88 44t69.5 86.5t38 134l-768 1188h-6v-1165h-170v1434h186l758 -1174h4v1174z" />
    <glyph glyph-name="eng" unicode="&#x14b;" horiz-adv-x="1157" 
d="M662 1075q83 0 149.5 -22t119 -70.5t81 -134t28.5 -203.5v-811q0 -285 -260 -285q-120 0 -192 43v138q85 -37 157 -37q67 0 99.5 42.5t32.5 112.5v791q0 159 -69.5 228t-199.5 69q-58 0 -109.5 -19.5t-87 -49t-63.5 -67.5t-43.5 -73.5t-21.5 -67.5v-659h-164v1065h164
v-248q8 26 26 57t51.5 67.5t75.5 65.5t101.5 48.5t124.5 19.5z" />
    <glyph glyph-name="Omacron" unicode="&#x14c;" horiz-adv-x="1464" 
d="M418 1821h629v-103h-629v103zM733 1452q142 0 260 -47t204 -138t133.5 -231.5t47.5 -318.5t-47.5 -318t-133.5 -231t-204 -138.5t-260 -47.5q-143 0 -261 47.5t-203.5 138.5t-133 231t-47.5 318t47.5 318.5t133 231.5t203.5 138t261 47zM733 133q217 0 342 149t125 435
q0 288 -125 437t-342 149t-343 -149.5t-126 -436.5q0 -286 126 -435t343 -149z" />
    <glyph glyph-name="omacron" unicode="&#x14d;" horiz-adv-x="1122" 
d="M246 1452h628v-102h-628v102zM561 1075q72 0 141.5 -20t134 -63.5t113 -106t78 -153.5t29.5 -200q0 -110 -29.5 -202t-78 -154.5t-113 -106t-134 -63.5t-141.5 -20t-141 20t-133 63.5t-112.5 106t-77.5 154.5t-29 202q0 135 44 242t116 171t157.5 97t175.5 33zM897 532
q0 102 -28 181.5t-76 127.5t-107 72.5t-125 24.5t-125 -24.5t-107 -72.5t-76 -127.5t-28 -181.5t28 -182.5t76 -129t107 -73t125 -24.5t125 24.5t107 73t76 129t28 182.5z" />
    <glyph glyph-name="Ohungarumlaut" unicode="&#x150;" horiz-adv-x="1464" 
d="M473 1559h143l218 262h-181zM811 1559h143l217 262h-180zM733 1452q142 0 260 -47t204 -138t133.5 -231.5t47.5 -318.5t-47.5 -318t-133.5 -231t-204 -138.5t-260 -47.5q-143 0 -261 47.5t-203.5 138.5t-133 231t-47.5 318t47.5 318.5t133 231.5t203.5 138t261 47z
M733 133q217 0 342 149t125 435q0 288 -125 437t-342 149t-343 -149.5t-126 -436.5q0 -286 126 -435t343 -149z" />
    <glyph glyph-name="ohungarumlaut" unicode="&#x151;" horiz-adv-x="1122" 
d="M301 1190h143l218 262h-181zM639 1190h143l217 262h-180zM561 1075q72 0 141.5 -20t134 -63.5t113 -106t78 -153.5t29.5 -200q0 -110 -29.5 -202t-78 -154.5t-113 -106t-134 -63.5t-141.5 -20t-141 20t-133 63.5t-112.5 106t-77.5 154.5t-29 202q0 135 44 242t116 171
t157.5 97t175.5 33zM897 532q0 102 -28 181.5t-76 127.5t-107 72.5t-125 24.5t-125 -24.5t-107 -72.5t-76 -127.5t-28 -181.5t28 -182.5t76 -129t107 -73t125 -24.5t125 24.5t107 73t76 129t28 182.5z" />
    <glyph glyph-name="OE" unicode="&#x152;" horiz-adv-x="2217" 
d="M1376 152h781v-152h-951v178q-172 -196 -473 -196q-143 0 -261 47.5t-203.5 138.5t-133 231t-47.5 318t47.5 318.5t133 231.5t203.5 138t261 47q300 0 473 -197v179h930v-150h-760v-477h658v-139h-656q-2 -8 -2 -23v-493zM733 133q217 0 342 149t125 435q0 288 -125 437
t-342 149t-343 -149.5t-126 -436.5q0 -286 126 -435t343 -149z" />
    <glyph glyph-name="oe" unicode="&#x153;" horiz-adv-x="1935" 
d="M1870 524q0 -33 -2 -51h-809q13 -183 104 -271.5t242 -88.5q100 0 164.5 29t111.5 96h152q-62 -131 -168.5 -191.5t-267.5 -60.5q-134 0 -245 57.5t-177 169.5q-69 -112 -180.5 -169.5t-233.5 -57.5q-72 0 -141 20t-133 63.5t-112.5 106t-77.5 154.5t-29 202
q0 135 44 242t116 171t157.5 97t175.5 33q123 0 235 -58t181 -171q65 113 176.5 171t241.5 58q98 0 182.5 -33t150.5 -98.5t104 -173t38 -246.5zM1059 586h653q-3 175 -88.5 268.5t-228.5 93.5q-140 0 -231.5 -92t-104.5 -270zM561 123q66 0 125 24.5t107 73t76 129
t28 182.5t-28 181.5t-76 127.5t-107 72.5t-125 24.5t-125 -24.5t-107 -72.5t-76 -127.5t-28 -181.5t28 -182.5t76 -129t107 -73t125 -24.5z" />
    <glyph glyph-name="Racute" unicode="&#x154;" horiz-adv-x="1277" 
d="M868 1821l-217 -262h-143l180 262h180zM1169 240q0 -185 41 -240h-170q-41 55 -41 240v114q0 125 -71 178.5t-185 53.5h-454v-586h-170v1434h561q244 0 366.5 -109t122.5 -301q0 -129 -60 -219t-169 -139q122 -35 175.5 -108t53.5 -200v-118zM705 725q135 0 212.5 74.5
t77.5 210.5q0 274 -317 274h-389v-559h416z" />
    <glyph glyph-name="racute" unicode="&#x155;" horiz-adv-x="778" 
d="M647 1452l-217 -262h-143l180 262h180zM647 1075q45 0 76 -4v-145q-31 2 -64 2q-159 0 -254 -80.5t-122 -224.5v-623h-164v1065h164v-258q28 115 123 191.5t241 76.5z" />
    <glyph glyph-name="Rcommaaccent" unicode="&#x156;" horiz-adv-x="1277" 
d="M1169 240q0 -185 41 -240h-170q-41 55 -41 240v114q0 125 -71 178.5t-185 53.5h-454v-586h-170v1434h561q244 0 366.5 -109t122.5 -301q0 -129 -60 -219t-169 -139q122 -35 175.5 -108t53.5 -200v-118zM705 725q135 0 212.5 74.5t77.5 210.5q0 274 -317 274h-389v-559
h416zM518 -256v209h197v-260q0 -242 -197 -246v55q45 21 62.5 62.5t17.5 116.5v63h-80z" />
    <glyph glyph-name="rcommaaccent" unicode="&#x157;" horiz-adv-x="778" 
d="M647 1075q45 0 76 -4v-145q-31 2 -64 2q-159 0 -254 -80.5t-122 -224.5v-623h-164v1065h164v-258q28 115 123 191.5t241 76.5zM100 -256v209h197v-260q0 -242 -197 -246v55q45 21 62.5 62.5t17.5 116.5v63h-80z" />
    <glyph glyph-name="Rcaron" unicode="&#x158;" horiz-adv-x="1277" 
d="M760 1536h-287l-184 266h133l194 -182l195 182h131zM1169 240q0 -185 41 -240h-170q-41 55 -41 240v114q0 125 -71 178.5t-185 53.5h-454v-586h-170v1434h561q244 0 366.5 -109t122.5 -301q0 -129 -60 -219t-169 -139q122 -35 175.5 -108t53.5 -200v-118zM705 725
q135 0 212.5 74.5t77.5 210.5q0 274 -317 274h-389v-559h416z" />
    <glyph glyph-name="rcaron" unicode="&#x159;" horiz-adv-x="778" 
d="M539 1167h-287l-184 267h133l194 -183l195 183h131zM647 1075q45 0 76 -4v-145q-31 2 -64 2q-159 0 -254 -80.5t-122 -224.5v-623h-164v1065h164v-258q28 115 123 191.5t241 76.5z" />
    <glyph glyph-name="Sacute" unicode="&#x15a;" horiz-adv-x="1247" 
d="M498 1559h143l217 262h-180zM729 791q216 -44 323 -135t107 -265q0 -189 -142 -299t-388 -110q-247 0 -384 118.5t-157 317.5h176q11 -61 35 -111t65.5 -92t109 -65t155.5 -23q170 0 262 73.5t92 192.5q0 114 -71 172t-201 84l-209 41q-188 38 -286.5 128.5t-98.5 246.5
q0 169 130.5 278t364.5 109q224 0 355 -102t153 -279h-174q-20 107 -101 171.5t-233 64.5q-82 0 -145 -21t-100 -57t-55.5 -78.5t-18.5 -89.5q0 -184 242 -232z" />
    <glyph glyph-name="sacute" unicode="&#x15b;" horiz-adv-x="983" 
d="M381 1190h143l217 262h-180zM752 793q-52 155 -263 155q-112 0 -175.5 -47t-63.5 -121q0 -64 43 -102.5t141 -61.5l172 -41q57 -13 93 -23t77 -26t65 -35.5t45.5 -47t30.5 -65t9 -85.5q0 -79 -35 -139t-95.5 -96t-135.5 -54t-162 -18q-185 0 -303 81t-138 244h154
q41 -196 289 -196q115 0 188.5 46t73.5 134q0 74 -44 106.5t-145 57.5l-186 43q-150 36 -221.5 103.5t-71.5 178.5q0 134 107 212.5t288 78.5q167 0 274.5 -72.5t139.5 -209.5h-151z" />
    <glyph glyph-name="Scedilla" unicode="&#x15e;" horiz-adv-x="1247" 
d="M1159 391q0 -180 -129.5 -289t-355.5 -118l-86 -97q74 8 132 -33.5t58 -119.5q0 -191 -317 -191v76q188 6 188 111q0 56 -47.5 73.5t-107.5 -16.5l-43 66l84 133q-204 22 -316.5 137.5t-130.5 294.5h176q11 -61 35 -111t65.5 -92t109 -65t155.5 -23q170 0 262 73.5
t92 192.5q0 114 -71 172t-201 84l-209 41q-188 38 -286.5 128.5t-98.5 246.5q0 169 130.5 278t364.5 109q224 0 355 -102t153 -279h-174q-20 107 -101 171.5t-233 64.5q-82 0 -145 -21t-100 -57t-55.5 -78.5t-18.5 -89.5q0 -184 242 -232l194 -38q216 -44 323 -135t107 -265
z" />
    <glyph glyph-name="scedilla" unicode="&#x15f;" horiz-adv-x="983" 
d="M926 293q0 -94 -50 -161.5t-129 -101.5t-182 -42l-94 -103q74 8 132.5 -33.5t58.5 -119.5q0 -191 -318 -191v76q188 6 188 111q0 56 -47.5 73.5t-107.5 -16.5l-43 65l88 140q-154 16 -250.5 95.5t-114.5 225.5h154q41 -196 289 -196q115 0 188.5 46t73.5 134
q0 74 -44 106.5t-145 57.5l-186 43q-150 36 -221.5 103.5t-71.5 178.5q0 134 107 212.5t288 78.5q167 0 274.5 -72.5t139.5 -209.5h-151q-52 155 -263 155q-112 0 -175.5 -47t-63.5 -121q0 -64 43 -102.5t141 -61.5l172 -41q57 -13 93 -23t77 -26t65 -35.5t45.5 -47
t30.5 -65t9 -85.5z" />
    <glyph glyph-name="Scaron" unicode="&#x160;" horiz-adv-x="1247" 
d="M801 1802h131l-182 -266h-287l-184 266h133l194 -182zM729 791q216 -44 323 -135t107 -265q0 -189 -142 -299t-388 -110q-247 0 -384 118.5t-157 317.5h176q11 -61 35 -111t65.5 -92t109 -65t155.5 -23q170 0 262 73.5t92 192.5q0 114 -71 172t-201 84l-209 41
q-188 38 -286.5 128.5t-98.5 246.5q0 169 130.5 278t364.5 109q224 0 355 -102t153 -279h-174q-20 107 -101 171.5t-233 64.5q-82 0 -145 -21t-100 -57t-55.5 -78.5t-18.5 -89.5q0 -184 242 -232z" />
    <glyph glyph-name="scaron" unicode="&#x161;" horiz-adv-x="983" 
d="M684 1434h131l-182 -267h-287l-184 267h133l194 -183zM752 793q-52 155 -263 155q-112 0 -175.5 -47t-63.5 -121q0 -64 43 -102.5t141 -61.5l172 -41q57 -13 93 -23t77 -26t65 -35.5t45.5 -47t30.5 -65t9 -85.5q0 -79 -35 -139t-95.5 -96t-135.5 -54t-162 -18
q-185 0 -303 81t-138 244h154q41 -196 289 -196q115 0 188.5 46t73.5 134q0 74 -44 106.5t-145 57.5l-186 43q-150 36 -221.5 103.5t-71.5 178.5q0 134 107 212.5t288 78.5q167 0 274.5 -72.5t139.5 -209.5h-151z" />
    <glyph glyph-name="uni0162" unicode="&#x162;" horiz-adv-x="1187" 
d="M680 0h-25l-104 -115q74 8 132 -33.5t58 -119.5q0 -191 -317 -191v76q188 6 188 111q0 56 -47.5 73.5t-107.5 -16.5l-43 65l94 150v1284h-451v150h1073v-150h-450v-1284z" />
    <glyph glyph-name="uni0163" unicode="&#x163;" horiz-adv-x="653" 
d="M588 12q-50 -16 -107 -22l-94 -103q74 8 132.5 -33.5t58.5 -119.5q0 -191 -318 -191v76q189 6 189 111q0 56 -48 73.5t-108 -16.5l-43 66l90 143q-139 31 -139 199v739h-164v131h164v266h164v-266h206v-131h-206v-723q0 -45 24 -67.5t82 -22.5q57 0 117 16v-125z" />
    <glyph glyph-name="Tcaron" unicode="&#x164;" horiz-adv-x="1187" 
d="M733 1536h-287l-184 266h133l195 -182l194 182h131zM1130 1434v-150h-450v-1284h-172v1284h-451v150h1073z" />
    <glyph glyph-name="tcaron" unicode="&#x165;" horiz-adv-x="630" 
d="M791 1446l-218 -262h-143l180 262h181zM365 211q0 -45 24 -67.5t82 -22.5q57 0 117 16v-125q-68 -24 -166 -24q-49 0 -87 9.5t-69.5 31.5t-48 64t-16.5 102v739h-164v131h164v266h164v-266h206v-131h-206v-723z" />
    <glyph glyph-name="Tbar" unicode="&#x166;" horiz-adv-x="1187" 
d="M1130 1284h-450v-240h229v-102h-229v-942h-172v942h-227v102h227v240h-451v150h1073v-150z" />
    <glyph glyph-name="tbar" unicode="&#x167;" horiz-adv-x="653" 
d="M471 121q57 0 117 16v-125q-68 -24 -166 -24q-49 0 -87 9.5t-69.5 31.5t-48 64t-16.5 102v452h-164v135h164v152h-164v131h164v266h164v-266h206v-131h-206v-152h206v-135h-206v-436q0 -45 24 -67.5t82 -22.5z" />
    <glyph glyph-name="Utilde" unicode="&#x168;" horiz-adv-x="1339" 
d="M944 1802h78q0 -94 -57.5 -149.5t-147.5 -55.5q-40 0 -77 15t-66.5 37t-57.5 44t-61.5 37t-67.5 15q-52 0 -80 -26.5t-26 -59.5h-80q0 94 57.5 149.5t147.5 55.5q41 0 78.5 -15t66.5 -37t57.5 -44t62 -37t67.5 -15q52 0 80 26.5t26 59.5zM1221 545q0 -264 -148.5 -413.5
t-402.5 -149.5q-255 0 -403 149.5t-148 413.5v889h170v-881q0 -200 101 -310t280 -110t280 110t101 310v881h170v-889z" />
    <glyph glyph-name="utilde" unicode="&#x169;" horiz-adv-x="1146" 
d="M389 1376q-52 0 -80 -26.5t-26 -59.5h-80q0 94 57.5 149.5t147.5 55.5q49 0 96 -23t78 -50.5t73.5 -50.5t83.5 -23q52 0 80.5 26.5t26.5 59.5h78q0 -94 -57.5 -149.5t-147.5 -55.5q-40 0 -77 15t-66.5 36.5t-57.5 43.5t-61.5 37t-67.5 15zM866 1065h164v-1065h-164v248
q-10 -33 -38 -74.5t-73 -85t-116.5 -73t-151.5 -29.5q-83 0 -149.5 22.5t-119 71.5t-81 135t-28.5 205v645h163v-641q0 -160 70 -229.5t199 -69.5q57 0 108.5 19.5t86.5 49.5t63 68t44 73.5t23 67.5v662z" />
    <glyph glyph-name="Umacron" unicode="&#x16a;" horiz-adv-x="1339" 
d="M348 1821h629v-103h-629v103zM1221 545q0 -264 -148.5 -413.5t-402.5 -149.5q-255 0 -403 149.5t-148 413.5v889h170v-881q0 -200 101 -310t280 -110t280 110t101 310v881h170v-889z" />
    <glyph glyph-name="umacron" unicode="&#x16b;" horiz-adv-x="1146" 
d="M879 1452v-102h-629v102h629zM866 1065h164v-1065h-164v248q-10 -33 -38 -74.5t-73 -85t-116.5 -73t-151.5 -29.5q-83 0 -149.5 22.5t-119 71.5t-81 135t-28.5 205v645h163v-641q0 -160 70 -229.5t199 -69.5q57 0 108.5 19.5t86.5 49.5t63 68t44 73.5t23 67.5v662z" />
    <glyph glyph-name="Ubreve" unicode="&#x16c;" horiz-adv-x="1339" 
d="M848 1821h113q0 -55 -17 -101t-52 -82.5t-93 -57.5t-135 -21t-135 21t-93 57.5t-52 82.5t-17 101h112q20 -148 185 -148q168 0 184 148zM1221 545q0 -264 -148.5 -413.5t-402.5 -149.5q-255 0 -403 149.5t-148 413.5v889h170v-881q0 -200 101 -310t280 -110t280 110
t101 310v881h170v-889z" />
    <glyph glyph-name="ubreve" unicode="&#x16d;" horiz-adv-x="1146" 
d="M565 1190q-149 0 -223 74t-74 188h113q10 -71 53 -109t131 -38q169 0 185 147h112q0 -114 -74 -188t-223 -74zM866 1065h164v-1065h-164v248q-10 -33 -38 -74.5t-73 -85t-116.5 -73t-151.5 -29.5q-83 0 -149.5 22.5t-119 71.5t-81 135t-28.5 205v645h163v-641
q0 -160 70 -229.5t199 -69.5q57 0 108.5 19.5t86.5 49.5t63 68t44 73.5t23 67.5v662z" />
    <glyph glyph-name="Uring" unicode="&#x16e;" horiz-adv-x="1339" 
d="M664 1559q-74 0 -126.5 51t-52.5 123t53 124t126 52q74 0 126 -51.5t52 -124.5q0 -72 -51.5 -123t-126.5 -51zM664 1638q40 0 68 27.5t28 67.5q0 41 -28 67.5t-68 26.5t-67.5 -26.5t-27.5 -67.5q0 -40 27.5 -67.5t67.5 -27.5zM1221 545q0 -264 -148.5 -413.5
t-402.5 -149.5q-255 0 -403 149.5t-148 413.5v889h170v-881q0 -200 101 -310t280 -110t280 110t101 310v881h170v-889z" />
    <glyph glyph-name="uring" unicode="&#x16f;" horiz-adv-x="1146" 
d="M565 1190q-74 0 -126 51t-52 123t52.5 124t125.5 52q75 0 126.5 -52t51.5 -124t-51.5 -123t-126.5 -51zM565 1458q-40 0 -67 -26.5t-27 -67.5q0 -40 27 -67t67 -27t68.5 27.5t28.5 66.5q0 41 -28.5 67.5t-68.5 26.5zM866 1065h164v-1065h-164v248q-10 -33 -38 -74.5
t-73 -85t-116.5 -73t-151.5 -29.5q-83 0 -149.5 22.5t-119 71.5t-81 135t-28.5 205v645h163v-641q0 -160 70 -229.5t199 -69.5q57 0 108.5 19.5t86.5 49.5t63 68t44 73.5t23 67.5v662z" />
    <glyph glyph-name="Uhungarumlaut" unicode="&#x170;" horiz-adv-x="1339" 
d="M403 1559h144l217 262h-180zM741 1559h144l217 262h-180zM1221 545q0 -264 -148.5 -413.5t-402.5 -149.5q-255 0 -403 149.5t-148 413.5v889h170v-881q0 -200 101 -310t280 -110t280 110t101 310v881h170v-889z" />
    <glyph glyph-name="uhungarumlaut" unicode="&#x171;" horiz-adv-x="1146" 
d="M666 1452l-217 -262h-144l180 262h181zM786 1190h-143l180 262h181zM866 1065h164v-1065h-164v248q-10 -33 -38 -74.5t-73 -85t-116.5 -73t-151.5 -29.5q-83 0 -149.5 22.5t-119 71.5t-81 135t-28.5 205v645h163v-641q0 -160 70 -229.5t199 -69.5q57 0 108.5 19.5
t86.5 49.5t63 68t44 73.5t23 67.5v662z" />
    <glyph glyph-name="Uogonek" unicode="&#x172;" horiz-adv-x="1339" 
d="M1051 1434h170v-889q0 -218 -102.5 -360t-284.5 -185h6q-124 -42 -189 -104.5t-65 -133.5q0 -64 51 -87t141 -3v-80q-45 -21 -103.5 -26t-114.5 7t-94 53.5t-38 107.5q0 80 67 146t162 102q-249 3 -393.5 152.5t-144.5 410.5v889h170v-881q0 -200 101 -310t280 -110
t280 110t101 310v881z" />
    <glyph glyph-name="uogonek" unicode="&#x173;" horiz-adv-x="1146" 
d="M866 1065h164v-1065h-39q-124 -42 -189 -104.5t-65 -133.5q0 -64 51.5 -87t141.5 -3v-80q-45 -21 -103.5 -26t-114.5 7t-94 53.5t-38 107.5q0 64 46 121t109 92t131 53v248q-10 -33 -38 -74.5t-73 -85t-116.5 -73t-151.5 -29.5q-83 0 -149.5 22.5t-119 71.5t-81 135
t-28.5 205v645h163v-641q0 -160 70 -229.5t199 -69.5q57 0 108.5 19.5t86.5 49.5t63 68t44 73.5t23 67.5v662z" />
    <glyph glyph-name="Wcircumflex" unicode="&#x174;" horiz-adv-x="2043" 
d="M1217 1554l-195 183l-195 -183h-133l185 267h286l183 -267h-131zM1810 1434h179l-416 -1434h-162l-389 1188l-387 -1188h-162l-416 1434h179l327 -1180l371 1180h176l373 -1180z" />
    <glyph glyph-name="wcircumflex" unicode="&#x175;" horiz-adv-x="1644" 
d="M1018 1186l-195 182l-194 -182h-133l184 266h287l182 -266h-131zM1599 1065l-317 -1065h-152l-307 864l-309 -864h-152l-315 1065h166l244 -862l299 862h133l301 -862l244 862h165z" />
    <glyph glyph-name="Ycircumflex" unicode="&#x176;" horiz-adv-x="1335" 
d="M862 1554l-194 183l-195 -183h-133l184 267h287l182 -267h-131zM756 561v-561h-174v561l-525 873h191l420 -707l419 707h193z" />
    <glyph glyph-name="ycircumflex" unicode="&#x177;" 
d="M745 1186l-194 182l-195 -182h-133l185 266h286l183 -266h-132zM883 1065h168l-459 -1143q-74 -185 -175.5 -256.5t-254.5 -52.5v143q110 -14 177 31.5t105 140.5q17 44 19 68t-10 55l-406 1014h170l330 -877z" />
    <glyph glyph-name="Ydieresis" unicode="&#x178;" horiz-adv-x="1335" 
d="M362 1821h173v-185h-173v185zM801 1821h170v-185h-170v185zM756 561v-561h-174v561l-525 873h191l420 -707l419 707h193z" />
    <glyph glyph-name="Zacute" unicode="&#x179;" horiz-adv-x="1247" 
d="M524 1559h144l217 262h-180zM1165 152v-152h-1083v139l879 1145h-846v150h1042v-140l-878 -1142h886z" />
    <glyph glyph-name="zacute" unicode="&#x17a;" horiz-adv-x="1019" 
d="M393 1190h144l217 262h-181zM276 141h662v-141h-856v141l661 785h-641v139h836v-139z" />
    <glyph glyph-name="Zdotaccent" unicode="&#x17b;" horiz-adv-x="1247" 
d="M549 1821h172v-185h-172v185zM1165 152v-152h-1083v139l879 1145h-846v150h1042v-140l-878 -1142h886z" />
    <glyph glyph-name="zdotaccent" unicode="&#x17c;" horiz-adv-x="1019" 
d="M418 1452h172v-184h-172v184zM276 141h662v-141h-856v141l661 785h-641v139h836v-139z" />
    <glyph glyph-name="Zcaron" unicode="&#x17d;" horiz-adv-x="1247" 
d="M827 1802h131l-182 -266h-287l-184 266h133l195 -182zM1165 152v-152h-1083v139l879 1145h-846v150h1042v-140l-878 -1142h886z" />
    <glyph glyph-name="zcaron" unicode="&#x17e;" horiz-adv-x="1019" 
d="M696 1434h131l-182 -267h-287l-184 267h133l195 -183zM276 141h662v-141h-856v141l661 785h-641v139h836v-139z" />
    <glyph glyph-name="florin" unicode="&#x192;" horiz-adv-x="593" 
d="M553 1298q-88 0 -131 -49.5t-43 -165.5v-206h174v-144h-174v-788q0 -184 -86.5 -259t-251.5 -75v143q88 0 131 50.5t43 164.5v764h-162v144h162v229q0 182 82.5 259t255.5 77v-144z" />
    <glyph glyph-name="uni01CD" unicode="&#x1cd;" horiz-adv-x="1402" 
d="M844 1536h-287l-184 266h133l194 -182l195 182h131zM1163 0l-139 367h-643l-139 -367h-185l570 1434h149l572 -1434h-185zM430 498h545l-273 714z" />
    <glyph glyph-name="uni01CE" unicode="&#x1ce;" 
d="M686 1167h-287l-184 267h133l195 -183l194 183h131zM971 184q0 -43 18 -62t60 -18v-100q-28 -12 -68 -12q-78 0 -119 35.5t-41 115.5v76q-11 -22 -28 -46.5t-52.5 -59.5t-78 -61.5t-107.5 -46t-139 -19.5q-155 0 -251.5 82t-96.5 235q0 137 91 210t283 103q235 33 310 56
q34 11 55 22v15q0 133 -63 187t-195 54q-232 0 -260 -159h-156q17 141 124 212.5t294 71.5q217 0 318.5 -94t101.5 -311v-486zM807 340v250q-13 -7 -29.5 -13.5t-42 -13t-43.5 -11t-55.5 -11.5t-53 -10t-62 -11t-58.5 -10q-128 -21 -180 -68.5t-52 -134.5q0 -90 59 -144
t163 -54q62 0 118 19.5t93.5 45.5t69.5 61t47 59t26 46z" />
    <glyph glyph-name="uni01CF" unicode="&#x1cf;" horiz-adv-x="407" 
d="M395 1802h131l-182 -266h-287l-184 266h133l195 -182zM289 0h-170v1434h170v-1434z" />
    <glyph glyph-name="uni01D0" unicode="&#x1d0;" horiz-adv-x="399" 
d="M393 1434h131l-182 -267h-287l-184 267h133l195 -183zM119 1065h164v-1065h-164v1065z" />
    <glyph glyph-name="uni01D1" unicode="&#x1d1;" horiz-adv-x="1464" 
d="M926 1802h131l-183 -266h-286l-185 266h134l194 -182zM733 1452q142 0 260 -47t204 -138t133.5 -231.5t47.5 -318.5t-47.5 -318t-133.5 -231t-204 -138.5t-260 -47.5q-143 0 -261 47.5t-203.5 138.5t-133 231t-47.5 318t47.5 318.5t133 231.5t203.5 138t261 47zM733 133
q217 0 342 149t125 435q0 288 -125 437t-342 149t-343 -149.5t-126 -436.5q0 -286 126 -435t343 -149z" />
    <glyph glyph-name="uni01D2" unicode="&#x1d2;" horiz-adv-x="1122" 
d="M754 1434h131l-183 -267h-286l-185 267h134l194 -183zM561 1075q72 0 141.5 -20t134 -63.5t113 -106t78 -153.5t29.5 -200q0 -110 -29.5 -202t-78 -154.5t-113 -106t-134 -63.5t-141.5 -20t-141 20t-133 63.5t-112.5 106t-77.5 154.5t-29 202q0 135 44 242t116 171
t157.5 97t175.5 33zM897 532q0 102 -28 181.5t-76 127.5t-107 72.5t-125 24.5t-125 -24.5t-107 -72.5t-76 -127.5t-28 -181.5t28 -182.5t76 -129t107 -73t125 -24.5t125 24.5t107 73t76 129t28 182.5z" />
    <glyph glyph-name="uni01D3" unicode="&#x1d3;" horiz-adv-x="1339" 
d="M856 1802h131l-182 -266h-287l-184 266h133l195 -182zM1221 545q0 -264 -148.5 -413.5t-402.5 -149.5q-255 0 -403 149.5t-148 413.5v889h170v-881q0 -200 101 -310t280 -110t280 110t101 310v881h170v-889z" />
    <glyph glyph-name="uni01D4" unicode="&#x1d4;" horiz-adv-x="1146" 
d="M707 1167h-287l-184 267h133l194 -183l195 183h131zM866 1065h164v-1065h-164v248q-10 -33 -38 -74.5t-73 -85t-116.5 -73t-151.5 -29.5q-83 0 -149.5 22.5t-119 71.5t-81 135t-28.5 205v645h163v-641q0 -160 70 -229.5t199 -69.5q57 0 108.5 19.5t86.5 49.5t63 68
t44 73.5t23 67.5v662z" />
    <glyph glyph-name="uni01EA" unicode="&#x1ea;" horiz-adv-x="1464" 
d="M866 -6q-114 -42 -173.5 -103t-59.5 -129q0 -64 51 -87t141 -3v-80q-45 -21 -103.5 -26t-114.5 7t-94 53.5t-38 107.5q0 82 67.5 147t164.5 101q-282 9 -450.5 200t-168.5 535q0 178 47.5 318.5t133 231.5t203.5 138t261 47q142 0 260 -47t204 -138t133.5 -231.5
t47.5 -318.5q0 -310 -138 -496t-374 -227zM264 717q0 -286 126 -435t343 -149t342 149t125 435q0 288 -125 437t-342 149t-343 -149.5t-126 -436.5z" />
    <glyph glyph-name="uni01EB" unicode="&#x1eb;" horiz-adv-x="1122" 
d="M1057 532q0 -114 -31 -208.5t-85 -158.5t-119.5 -105.5t-141.5 -59.5h14q-124 -42 -189 -104.5t-65 -133.5q0 -64 51.5 -87t141.5 -3v-80q-45 -21 -103.5 -26t-114.5 7t-94 53.5t-38 107.5q0 84 71.5 150.5t171.5 103.5q-69 4 -133.5 27t-124 67.5t-103.5 106t-70.5 150
t-26.5 193.5q0 135 44 242t116 171t157.5 97t175.5 33q72 0 141.5 -20t134 -63.5t113 -106t78 -153.5t29.5 -200zM561 123q66 0 125 24.5t107 73t76 129t28 182.5t-28 181.5t-76 127.5t-107 72.5t-125 24.5t-125 -24.5t-107 -72.5t-76 -127.5t-28 -181.5t28 -182.5t76 -129
t107 -73t125 -24.5z" />
    <glyph glyph-name="Scommaaccent" unicode="&#x218;" horiz-adv-x="1247" 
d="M729 791q216 -44 323 -135t107 -265q0 -189 -142 -299t-388 -110q-247 0 -384 118.5t-157 317.5h176q11 -61 35 -111t65.5 -92t109 -65t155.5 -23q170 0 262 73.5t92 192.5q0 114 -71 172t-201 84l-209 41q-188 38 -286.5 128.5t-98.5 246.5q0 169 130.5 278t364.5 109
q224 0 355 -102t153 -279h-174q-20 107 -101 171.5t-233 64.5q-82 0 -145 -21t-100 -57t-55.5 -78.5t-18.5 -89.5q0 -184 242 -232zM514 -553v55q45 21 62.5 62.5t17.5 116.5v63h-80v209h197v-260q0 -242 -197 -246z" />
    <glyph glyph-name="scommaaccent" unicode="&#x219;" horiz-adv-x="983" 
d="M752 793q-52 155 -263 155q-112 0 -175.5 -47t-63.5 -121q0 -64 43 -102.5t141 -61.5l172 -41q57 -13 93 -23t77 -26t65 -35.5t45.5 -47t30.5 -65t9 -85.5q0 -79 -35 -139t-95.5 -96t-135.5 -54t-162 -18q-185 0 -303 81t-138 244h154q41 -196 289 -196q115 0 188.5 46
t73.5 134q0 74 -44 106.5t-145 57.5l-186 43q-150 36 -221.5 103.5t-71.5 178.5q0 134 107 212.5t288 78.5q167 0 274.5 -72.5t139.5 -209.5h-151zM399 -575v55q45 21 62.5 62t17.5 116v63h-80v209h197v-260q0 -241 -197 -245z" />
    <glyph glyph-name="uni021A" unicode="&#x21a;" horiz-adv-x="1187" 
d="M1130 1434v-150h-450v-1284h-172v1284h-451v150h1073zM477 -258v209h197v-260q0 -242 -197 -246v55q45 21 62.5 62t17.5 116v64h-80z" />
    <glyph glyph-name="uni021B" unicode="&#x21b;" horiz-adv-x="653" 
d="M471 121q57 0 117 16v-125q-68 -24 -166 -24q-49 0 -87 9.5t-69.5 31.5t-48 64t-16.5 102v739h-164v131h164v266h164v-266h206v-131h-206v-723q0 -45 24 -67.5t82 -22.5zM313 -256v209h197v-260q0 -242 -197 -246v55q45 21 62.5 62.5t17.5 116.5v63h-80z" />
    <glyph glyph-name="uni0237" unicode="&#x237;" horiz-adv-x="432" 
d="M-139 -270q85 -37 159 -37q67 0 99.5 42.5t32.5 112.5v1217h163v-1231q0 -285 -260 -285q-119 0 -194 43v138z" />
    <glyph glyph-name="circumflex" unicode="&#x2c6;" horiz-adv-x="653" 
d="M522 1186l-194 182l-195 -182h-133l184 266h287l182 -266h-131z" />
    <glyph glyph-name="caron" unicode="&#x2c7;" horiz-adv-x="653" 
d="M522 1434h131l-182 -267h-287l-184 267h133l195 -183z" />
    <glyph glyph-name="breve" unicode="&#x2d8;" horiz-adv-x="593" 
d="M481 1452h113q0 -114 -74 -188t-223 -74t-223 74t-74 188h113q10 -71 53 -109t131 -38q168 0 184 147z" />
    <glyph glyph-name="dotaccent" unicode="&#x2d9;" horiz-adv-x="172" 
d="M0 1452h172v-184h-172v184z" />
    <glyph glyph-name="ring" unicode="&#x2da;" horiz-adv-x="356" 
d="M178 1190q-74 0 -126 51t-52 123t52.5 124t125.5 52q74 0 126 -52t52 -124t-51.5 -123t-126.5 -51zM178 1270q40 0 68 27t28 67q0 41 -28 67.5t-68 26.5t-67 -26.5t-27 -67.5q0 -40 27 -67t67 -27z" />
    <glyph glyph-name="ogonek" unicode="&#x2db;" horiz-adv-x="411" 
d="M350 -408q-45 -21 -103.5 -26t-114.5 7t-94 53.5t-38 107.5q0 64 46.5 121t109.5 92t131 53h125q-124 -42 -189 -104.5t-65 -133.5q0 -64 51 -87t141 -3v-80z" />
    <glyph glyph-name="tilde" unicode="&#x2dc;" horiz-adv-x="720" 
d="M643 1434h78q0 -94 -57.5 -149.5t-147.5 -55.5q-40 0 -77 15t-66.5 36.5t-57.5 43.5t-61.5 37t-67.5 15q-52 0 -80 -26.5t-26 -59.5h-80q0 94 57.5 149.5t147.5 55.5q41 0 78.5 -15t66.5 -36.5t57.5 -43.5t62 -37t67.5 -15q52 0 80 26.5t26 59.5z" />
    <glyph glyph-name="hungarumlaut" unicode="&#x2dd;" horiz-adv-x="704" 
d="M0 1190h143l217 262h-180zM338 1190h143l217 262h-180z" />
    <glyph glyph-name="uni0326" unicode="&#x326;" horiz-adv-x="0" 
d="M-197 -553v55q45 21 62.5 62.5t17.5 116.5v63h-80v209h197v-260q0 -242 -197 -246z" />
    <glyph glyph-name="uni0394" unicode="&#x394;" horiz-adv-x="1490" 
d="M1395 0h-1297l625 1434h47zM1180 143l-432 1014l-435 -1014h867z" />
    <glyph glyph-name="uni03A9" unicode="&#x3a9;" horiz-adv-x="1595" 
d="M1509 731q0 -342 -313 -573h262v-158h-424v231l84 64q104 80 164.5 192t60.5 244q0 163 -79.5 293t-203 198t-261.5 68q-103 0 -201 -40.5t-174.5 -111.5t-123 -177.5t-46.5 -229.5q0 -132 60.5 -244t164.5 -192l82 -64v-231h-422v158h262q-313 231 -313 573
q0 153 61 288.5t161 228t228 146.5t261 54q132 0 260 -54t228 -146.5t161 -228t61 -288.5z" />
    <glyph glyph-name="uni03BC" unicode="&#x3bc;" horiz-adv-x="1146" 
d="M866 1065h164v-1065h-164v248q-10 -33 -38 -74.5t-73 -85t-116.5 -73t-151.5 -29.5q-128 0 -215 53v-428h-163v1454h163v-641q0 -160 70 -229.5t199 -69.5q57 0 108.5 19.5t86.5 49.5t63 68t44 73.5t23 67.5v662z" />
    <glyph glyph-name="pi" unicode="&#x3c0;" horiz-adv-x="1368" 
d="M1143 131q67 0 139 37v-143q-72 -37 -170 -37q-94 0 -156.5 48.5t-62.5 156.5v729h-426v-922h-164v922h-205v143h1162v-143h-203v-678q0 -68 20 -90.5t66 -22.5z" />
    <glyph glyph-name="uni0401" unicode="&#x401;" horiz-adv-x="1130" 
d="M442 1821v-185h-172v185h172zM879 1821v-185h-170v185h170zM289 152h780v-152h-950v1434h930v-150h-760v-477h657v-139h-657v-516z" />
    <glyph glyph-name="uni0403" unicode="&#x403;" horiz-adv-x="1021" 
d="M393 1559h144l217 262h-181zM967 1434v-150h-678v-1284h-170v1434h848z" />
    <glyph glyph-name="uni0404" unicode="&#x404;" horiz-adv-x="1335" 
d="M1102 365h172q-39 -181 -189.5 -282t-365.5 -101q-137 0 -251.5 47t-199.5 136.5t-132.5 231t-47.5 320.5q0 180 47.5 321.5t132.5 231t199.5 136t251.5 46.5q214 0 363 -100t188 -281h-174q-86 232 -375 232q-190 0 -311.5 -126.5t-141.5 -369.5h506v-139h-508
q10 -259 134 -397t321 -138q292 0 381 232z" />
    <glyph glyph-name="uni0407" unicode="&#x407;" horiz-adv-x="407" 
d="M-102 1821h172v-185h-172v185zM336 1821h170v-185h-170v185zM289 0h-170v1434h170v-1434z" />
    <glyph glyph-name="uni040C" unicode="&#x40c;" horiz-adv-x="1312" 
d="M907 1821l-217 -262h-143l180 262h180zM1075 0l-567 651l-219 -241v-410h-170v1434h170v-793l727 793h201l-601 -664l656 -770h-197z" />
    <glyph glyph-name="uni040E" unicode="&#x40e;" horiz-adv-x="1157" 
d="M764 1821h113q0 -55 -17 -101t-52 -82.5t-93 -57.5t-135 -21t-135 21t-93 57.5t-52 82.5t-17 101h112q20 -148 185 -148q168 0 184 148zM915 1434h187l-479 -1143q-78 -184 -178 -256t-252 -53v157q109 -14 169.5 26t98.5 132q37 90 2 170l-406 967h185l336 -840z" />
    <glyph glyph-name="uni0410" unicode="&#x410;" horiz-adv-x="1402" 
d="M1163 0l-139 367h-643l-139 -367h-185l570 1434h149l572 -1434h-185zM430 498h545l-273 714z" />
    <glyph glyph-name="uni0411" unicode="&#x411;" horiz-adv-x="1243" 
d="M635 913q250 0 381 -119.5t131 -334.5q0 -218 -131 -338.5t-381 -120.5h-516v1434h848v-150h-678v-371h346zM637 152q161 0 245.5 78t84.5 229q0 148 -84.5 225.5t-245.5 77.5h-348v-610h348z" />
    <glyph glyph-name="uni0412" unicode="&#x412;" horiz-adv-x="1280" 
d="M872 786q149 -40 229.5 -138.5t80.5 -239.5q0 -194 -129 -301t-387 -107h-547v1434h538q216 0 325.5 -95t109.5 -256q0 -106 -56.5 -185t-163.5 -112zM289 1288v-450h379q115 0 181 64.5t66 170.5q0 98 -62 156.5t-191 58.5h-373zM666 145q173 0 254 72.5t81 198.5
q0 128 -86.5 207t-257.5 79h-368v-557h377z" />
    <glyph glyph-name="uni0413" unicode="&#x413;" horiz-adv-x="1021" 
d="M967 1434v-150h-678v-1284h-170v1434h848z" />
    <glyph glyph-name="uni0414" unicode="&#x414;" horiz-adv-x="1536" 
d="M1290 143h185v-284h-164v141h-1090v-141h-164v284h121q95 103 131.5 316.5t36.5 646.5v328h944v-1291zM362 143h758v1141h-604v-178q0 -437 -32.5 -649t-121.5 -314z" />
    <glyph glyph-name="uni0415" unicode="&#x415;" horiz-adv-x="1130" 
d="M289 152h780v-152h-950v1434h930v-150h-760v-477h657v-139h-657v-516z" />
    <glyph glyph-name="uni0416" unicode="&#x416;" horiz-adv-x="1843" 
d="M1802 0h-198l-596 659v-659h-170v662l-598 -662h-199l657 731l-626 703h198l568 -631v631h170v-629l565 629h199l-627 -703z" />
    <glyph glyph-name="uni0417" unicode="&#x417;" horiz-adv-x="1181" 
d="M778 774q60 -10 115 -36.5t102.5 -69.5t76 -110.5t28.5 -149.5q0 -194 -139.5 -313.5t-376.5 -119.5q-238 0 -374 133.5t-138 352.5h155q4 -160 101.5 -251t253.5 -91q153 0 253.5 78t100.5 215t-101 216t-286 79h-49v116h49q87 0 151.5 22t98.5 59.5t49.5 79.5t15.5 89
q0 107 -80.5 171.5t-208.5 64.5q-63 0 -116 -18.5t-94 -56t-64.5 -101t-24.5 -146.5h-153q0 224 121 344.5t331 120.5q204 0 326.5 -105.5t122.5 -261.5q0 -115 -66 -196.5t-180 -114.5z" />
    <glyph glyph-name="uni0418" unicode="&#x418;" horiz-adv-x="1355" 
d="M117 1434h172v-1172h4l758 1172h186v-1434h-170v1165h-6l-752 -1165h-192v1434z" />
    <glyph glyph-name="uni0419" unicode="&#x419;" horiz-adv-x="1355" 
d="M862 1821h113q0 -55 -17 -101t-52 -82.5t-93 -57.5t-135 -21t-135 21t-93 57.5t-52 82.5t-17 101h113q10 -72 53 -110t131 -38q168 0 184 148zM117 1434h172v-1172h4l758 1172h186v-1434h-170v1165h-6l-752 -1165h-192v1434z" />
    <glyph glyph-name="uni041A" unicode="&#x41a;" horiz-adv-x="1312" 
d="M1075 0l-567 651l-219 -241v-410h-170v1434h170v-793l727 793h201l-601 -664l656 -770h-197z" />
    <glyph glyph-name="uni041B" unicode="&#x41b;" horiz-adv-x="1384" 
d="M1268 1434v-1434h-172v1284h-633v-833q0 -129 -32.5 -223.5t-91.5 -148t-136 -76.5t-172 -17v151q58 -1 102.5 13t81.5 48t56.5 99.5t19.5 159.5v977h977z" />
    <glyph glyph-name="uni041C" unicode="&#x41c;" horiz-adv-x="1697" 
d="M119 1434h188l543 -1217l541 1217h190v-1434h-172v1118h-6l-483 -1118h-140l-485 1118h-6v-1118h-170v1434z" />
    <glyph glyph-name="uni041D" unicode="&#x41d;" horiz-adv-x="1329" 
d="M1040 1434h172v-1434h-172v633h-751v-633h-170v1434h170v-660h751v660z" />
    <glyph glyph-name="uni041E" unicode="&#x41e;" horiz-adv-x="1464" 
d="M733 1452q142 0 260 -47t204 -138t133.5 -231.5t47.5 -318.5t-47.5 -318t-133.5 -231t-204 -138.5t-260 -47.5q-143 0 -261 47.5t-203.5 138.5t-133 231t-47.5 318t47.5 318.5t133 231.5t203.5 138t261 47zM733 133q217 0 342 149t125 435q0 288 -125 437t-342 149
t-343 -149.5t-126 -436.5q0 -286 126 -435t343 -149z" />
    <glyph glyph-name="uni041F" unicode="&#x41f;" horiz-adv-x="1329" 
d="M1212 1434v-1434h-172v1284h-751v-1284h-170v1434h1093z" />
    <glyph glyph-name="uni0420" unicode="&#x420;" horiz-adv-x="1212" 
d="M635 1434q250 0 381 -122t131 -341q0 -217 -131 -339t-381 -122h-346v-510h-170v1434h516zM637 659q160 0 245 81t85 231q0 151 -84.5 232t-245.5 81h-348v-625h348z" />
    <glyph glyph-name="uni0421" unicode="&#x421;" horiz-adv-x="1335" 
d="M721 133q292 0 381 232h172q-39 -181 -189.5 -282t-365.5 -101q-137 0 -251.5 47t-199.5 136.5t-132.5 231t-47.5 320.5q0 180 47.5 321.5t132.5 231t199.5 136t251.5 46.5q214 0 363 -100t188 -281h-174q-86 232 -375 232q-207 0 -332 -151t-125 -435q0 -283 125 -433.5
t332 -150.5z" />
    <glyph glyph-name="uni0422" unicode="&#x422;" horiz-adv-x="1187" 
d="M1130 1434v-150h-450v-1284h-172v1284h-451v150h1073z" />
    <glyph glyph-name="uni0423" unicode="&#x423;" horiz-adv-x="1157" 
d="M915 1434h187l-479 -1143q-78 -184 -178 -256t-252 -53v157q109 -14 169.5 26t98.5 132q37 90 2 170l-406 967h185l336 -840z" />
    <glyph glyph-name="uni0424" unicode="&#x424;" horiz-adv-x="1464" 
d="M1376 717q0 -264 -150.5 -418t-408.5 -176v-154h-170v154q-259 22 -409 175.5t-150 418.5q0 267 150 420.5t409 175.5v151h170v-151q258 -22 408.5 -176t150.5 -420zM252 717q0 -203 105 -322t290 -141v926q-186 -22 -290.5 -140t-104.5 -323zM817 254q186 24 290.5 142
t104.5 321q0 205 -104.5 322t-290.5 141v-926z" />
    <glyph glyph-name="uni0425" unicode="&#x425;" horiz-adv-x="1318" 
d="M1272 0h-193l-420 602l-419 -602h-193l516 739l-483 695h192l387 -555l388 555h192l-483 -695z" />
    <glyph glyph-name="uni0426" unicode="&#x426;" horiz-adv-x="1359" 
d="M1212 152h93v-441h-164v289h-1022v1434h170v-1282h751v1282h172v-1282z" />
    <glyph glyph-name="uni0427" unicode="&#x427;" horiz-adv-x="1280" 
d="M991 1434h172v-1434h-172v608q-7 -25 -30.5 -58.5t-66.5 -71.5t-96.5 -70t-130 -53t-159.5 -21q-88 0 -161 24.5t-132.5 76t-93 140.5t-33.5 209v650h170v-643q0 -158 85.5 -231t229.5 -73q88 0 166.5 30t129 74.5t82.5 91.5t40 87v664z" />
    <glyph glyph-name="uni0428" unicode="&#x428;" horiz-adv-x="1615" 
d="M1327 1434h170v-1434h-1378v1434h170v-1282h434v1282h170v-1282h434v1282z" />
    <glyph glyph-name="uni0429" unicode="&#x429;" horiz-adv-x="1650" 
d="M1497 152h96v-441h-163v289h-1311v1434h170v-1282h434v1282h170v-1282h434v1282h170v-1282z" />
    <glyph glyph-name="uni042A" unicode="&#x42a;" horiz-adv-x="1351" 
d="M743 913q250 0 381 -119.5t131 -334.5q0 -218 -131 -338.5t-381 -120.5h-516v1284h-170v150h340v-521h346zM745 152q161 0 245.5 78t84.5 229q0 148 -84.5 225.5t-245.5 77.5h-348v-610h348z" />
    <glyph glyph-name="uni042B" unicode="&#x42b;" horiz-adv-x="1589" 
d="M635 913q250 0 381 -119.5t131 -334.5q0 -218 -131 -338.5t-381 -120.5h-516v1434h170v-521h346zM1303 1434h170v-1434h-170v1434zM637 152q161 0 245.5 78t84.5 229q0 148 -84.5 225.5t-245.5 77.5h-348v-610h348z" />
    <glyph glyph-name="uni042C" unicode="&#x42c;" horiz-adv-x="1243" 
d="M635 913q250 0 381 -119.5t131 -334.5q0 -218 -131 -338.5t-381 -120.5h-516v1434h170v-521h346zM637 152q161 0 245.5 78t84.5 229q0 148 -84.5 225.5t-245.5 77.5h-348v-610h348z" />
    <glyph glyph-name="uni042D" unicode="&#x42d;" horiz-adv-x="1361" 
d="M643 1452q137 0 251.5 -46.5t199.5 -136t132.5 -231t47.5 -321.5q0 -179 -47.5 -320.5t-132.5 -231t-199.5 -136.5t-251.5 -47q-215 0 -365.5 101t-189.5 282h172q89 -232 381 -232q197 0 321 138t134 397h-508v139h506q-20 243 -141.5 369.5t-311.5 126.5
q-289 0 -375 -232h-174q39 181 188 281t363 100z" />
    <glyph glyph-name="uni042E" unicode="&#x42e;" horiz-adv-x="1888" 
d="M1157 1452q142 0 260 -47t204 -138t133.5 -231.5t47.5 -318.5t-47.5 -318t-133.5 -231t-204 -138.5t-260 -47.5q-274 0 -447 168.5t-196 482.5h-225v-633h-170v1434h170v-660h225q15 329 188.5 503.5t454.5 174.5zM1157 133q217 0 342 149t125 435q0 288 -125 437
t-342 149t-343 -149.5t-126 -436.5q0 -286 126 -435t343 -149z" />
    <glyph glyph-name="uni042F" unicode="&#x42f;" horiz-adv-x="1277" 
d="M1159 1434v-1434h-170v586h-454q-114 0 -185 -53.5t-71 -178.5v-114q0 -185 -41 -240h-170q41 55 41 240v118q0 127 53.5 200t175.5 108q-109 49 -169 139t-60 219q0 192 122.5 301t366.5 109h561zM989 725v559h-389q-317 0 -317 -274q0 -136 77.5 -210.5t212.5 -74.5
h416z" />
    <glyph glyph-name="uni0430" unicode="&#x430;" 
d="M971 184q0 -43 18 -62t60 -18v-100q-28 -12 -68 -12q-78 0 -119 35.5t-41 115.5v76q-11 -22 -28 -46.5t-52.5 -59.5t-78 -61.5t-107.5 -46t-139 -19.5q-155 0 -251.5 82t-96.5 235q0 137 91 210t283 103q235 33 310 56q34 11 55 22v15q0 133 -63 187t-195 54
q-232 0 -260 -159h-156q17 141 124 212.5t294 71.5q217 0 318.5 -94t101.5 -311v-486zM807 340v250q-13 -7 -29.5 -13.5t-42 -13t-43.5 -11t-55.5 -11.5t-53 -10t-62 -11t-58.5 -10q-128 -21 -180 -68.5t-52 -134.5q0 -90 59 -144t163 -54q62 0 118 19.5t93.5 45.5t69.5 61
t47 59t26 46z" />
    <glyph glyph-name="uni0431" unicode="&#x431;" horiz-adv-x="1142" 
d="M610 1073q86 0 166.5 -32.5t148.5 -96t109 -171t41 -243.5q0 -112 -29 -204.5t-77.5 -155t-112.5 -106t-133 -63t-141 -19.5t-141 20.5t-134 67.5t-113.5 116t-77.5 173.5t-28 232.5v362q0 240 116 360t337 120h143q111 0 156 45h155q-42 -99 -109 -137.5t-202 -38.5
h-143q-138 0 -217.5 -77.5t-79.5 -211.5v-154q28 69 87 118t130 72t149 23zM582 119q66 0 125 24.5t107 72.5t76 129t28 185q0 103 -28 184t-76 129.5t-107 73.5t-125 25t-125 -25t-107 -73.5t-76 -129.5t-28 -184q0 -102 28 -183t76 -129.5t107 -73.5t125 -25z" />
    <glyph glyph-name="uni0432" unicode="&#x432;" horiz-adv-x="1132" 
d="M838 588q113 -31 170 -105t57 -172q0 -160 -112 -235.5t-337 -75.5h-497v1065h497q178 0 273.5 -67.5t95.5 -194.5q0 -73 -37 -131.5t-110 -83.5zM283 928v-299h335q216 0 216 153q0 146 -218 146h-333zM621 139q82 0 139 14t87.5 40.5t43 58t12.5 72.5q0 192 -280 192
h-340v-377h338z" />
    <glyph glyph-name="uni0433" unicode="&#x433;" horiz-adv-x="856" 
d="M799 1065v-131h-516v-934h-164v1065h680z" />
    <glyph glyph-name="uni0434" unicode="&#x434;" horiz-adv-x="1228" 
d="M1098 133h73v-264h-149v131h-815v-131h-150v264h72q63 75 78.5 222t15.5 474v236h875v-932zM289 133h645v801h-547v-105q0 -323 -16.5 -472t-81.5 -224z" />
    <glyph glyph-name="uni0435" unicode="&#x435;" horiz-adv-x="1103" 
d="M1038 524q0 -33 -2 -51h-809q13 -183 104 -271.5t242 -88.5q100 0 165 29t112 96h151q-62 -131 -168.5 -191.5t-267.5 -60.5q-101 0 -189.5 33.5t-158 98t-109.5 171t-40 241.5q0 136 41.5 242.5t112 171t157.5 98t184 33.5q98 0 182.5 -33t150.5 -98.5t104 -173
t38 -246.5zM227 586h654q-3 175 -89 268.5t-229 93.5q-140 0 -231.5 -92t-104.5 -270z" />
    <glyph glyph-name="uni0436" unicode="&#x436;" horiz-adv-x="1536" 
d="M1509 0h-202l-455 461v-461h-164v461l-455 -461h-202l536 539l-518 526h203l436 -449v449h164v-449l438 449h203l-520 -526z" />
    <glyph glyph-name="uni0437" unicode="&#x437;" horiz-adv-x="1050" 
d="M700 565q49 -7 94.5 -25t87.5 -48.5t67.5 -80t25.5 -110.5q0 -148 -130 -233.5t-337 -85.5t-323.5 103t-116.5 280h149q0 -114 79.5 -186.5t211.5 -72.5q139 0 222 55.5t83 147.5q0 97 -92.5 150t-247.5 53v94q144 3 214.5 52.5t70.5 132.5q0 71 -70 118t-176 47
q-114 0 -184 -59.5t-70 -148.5h-149q0 147 108 239t293 92q182 0 291.5 -78t109.5 -200q0 -95 -56.5 -154t-154.5 -82z" />
    <glyph glyph-name="uni0438" unicode="&#x438;" horiz-adv-x="1189" 
d="M119 1065h164v-848h4l606 848h178v-1065h-164v842h-4l-600 -842h-184v1065z" />
    <glyph glyph-name="uni0439" unicode="&#x439;" horiz-adv-x="1189" 
d="M780 1452h113q0 -114 -73.5 -188t-223.5 -74t-223.5 74t-73.5 188h113q10 -71 53 -109t131 -38q168 0 184 147zM119 1065h164v-848h4l606 848h178v-1065h-164v842h-4l-600 -842h-184v1065z" />
    <glyph glyph-name="uni043A" unicode="&#x43a;" horiz-adv-x="1103" 
d="M891 0l-432 498l-176 -183v-315h-164v1065h164v-557l536 557h193l-449 -461l514 -604h-186z" />
    <glyph glyph-name="uni043B" unicode="&#x43b;" horiz-adv-x="1218" 
d="M1102 1065v-1065h-160l-4 934h-494v-492q0 -254 -108 -359.5t-305 -92.5v133q58 -1 101 13t78 49t53 101t18 163v616h821z" />
    <glyph glyph-name="uni043C" unicode="&#x43c;" horiz-adv-x="1433" 
d="M119 1065h182l416 -877l418 877h182v-1065h-164v776h-6l-363 -776h-133l-362 776h-6v-776h-164v1065z" />
    <glyph glyph-name="uni043D" unicode="&#x43d;" horiz-adv-x="1085" 
d="M805 1065h164v-1065h-164v487h-522v-487h-164v1065h164v-444h522v444z" />
    <glyph glyph-name="uni043E" unicode="&#x43e;" horiz-adv-x="1122" 
d="M561 1075q72 0 141.5 -20t134 -63.5t113 -106t78 -153.5t29.5 -200q0 -110 -29.5 -202t-78 -154.5t-113 -106t-134 -63.5t-141.5 -20t-141 20t-133 63.5t-112.5 106t-77.5 154.5t-29 202q0 135 44 242t116 171t157.5 97t175.5 33zM897 532q0 102 -28 181.5t-76 127.5
t-107 72.5t-125 24.5t-125 -24.5t-107 -72.5t-76 -127.5t-28 -181.5t28 -182.5t76 -129t107 -73t125 -24.5t125 24.5t107 73t76 129t28 182.5z" />
    <glyph glyph-name="uni043F" unicode="&#x43f;" 
d="M979 1065v-1065h-164v934h-532v-934h-164v1065h860z" />
    <glyph glyph-name="uni0440" unicode="&#x440;" horiz-adv-x="1179" 
d="M641 1075q69 0 135 -20t127 -63t107.5 -105.5t74 -154t27.5 -200.5q0 -137 -42 -245t-111 -172t-151.5 -96.5t-170.5 -32.5q-129 0 -220.5 63t-133.5 164v-602h-164v1454h164v-201q47 99 142 155t216 56zM610 123q69 0 129 24.5t108.5 72.5t76.5 128.5t28 183.5
q0 201 -98.5 303.5t-243.5 102.5q-68 0 -127 -24t-106.5 -71.5t-75 -127.5t-27.5 -183q0 -100 27.5 -179.5t74.5 -129t107 -75t127 -25.5z" />
    <glyph glyph-name="uni0441" unicode="&#x441;" horiz-adv-x="1071" 
d="M567 123q114 0 184.5 49t106.5 150h152q-22 -92 -67 -159t-106 -104.5t-128 -55t-144 -17.5q-95 0 -181.5 32.5t-158 96t-114.5 171t-43 244.5q0 111 28 202.5t75.5 154t111.5 106t134.5 63t145.5 19.5q77 0 143 -17t125.5 -54t103.5 -102t66 -154h-151q-69 192 -285 192
q-146 0 -243 -105.5t-97 -304.5q0 -102 27.5 -181.5t75.5 -128t108.5 -73t130.5 -24.5z" />
    <glyph glyph-name="uni0442" unicode="&#x442;" horiz-adv-x="972" 
d="M911 1065v-131h-342v-934h-163v934h-345v131h850z" />
    <glyph glyph-name="uni0443" unicode="&#x443;" 
d="M883 1065h168l-459 -1143q-74 -185 -175.5 -256.5t-254.5 -52.5v143q110 -14 177 31.5t105 140.5q17 44 19 68t-10 55l-406 1014h170l330 -877z" />
    <glyph glyph-name="uni0444" unicode="&#x444;" horiz-adv-x="1204" 
d="M1139 530q0 -125 -37 -225.5t-101.5 -165.5t-145.5 -103.5t-175 -49.5v-365h-154v365q-94 11 -174.5 49t-145 103t-101.5 166t-37 226t37 225.5t101.5 166t145.5 104t174 49.5v369h154v-369q94 -12 175 -51t145.5 -104t101.5 -165.5t37 -224.5zM205 530q0 -186 87 -290
t234 -125v831q-147 -21 -234 -125.5t-87 -290.5zM680 115q147 21 233 125t86 290t-86 290.5t-233 125.5v-831z" />
    <glyph glyph-name="uni0445" unicode="&#x445;" horiz-adv-x="1075" 
d="M1020 0h-184l-297 428l-299 -428h-183l392 549l-371 516h182l279 -393l276 393h182l-368 -516z" />
    <glyph glyph-name="uni0446" unicode="&#x446;" horiz-adv-x="1112" 
d="M979 133h86v-420h-156v287h-790v1065h164v-932h532v932h164v-932z" />
    <glyph glyph-name="uni0447" unicode="&#x447;" horiz-adv-x="1105" 
d="M825 1065h164v-1065h-164v532q-10 -33 -38 -73t-73 -82t-116 -70t-152 -28q-83 0 -149.5 22t-119 69t-81 127.5t-28.5 190.5v377h163v-373q0 -143 72 -208.5t197 -65.5q72 0 133 27.5t99 70.5t60.5 86t32.5 84v379z" />
    <glyph glyph-name="uni0448" unicode="&#x448;" horiz-adv-x="1552" 
d="M1272 1065h164v-1065h-1317v1065h164v-932h415v932h156v-932h418v932z" />
    <glyph glyph-name="uni0449" unicode="&#x449;" horiz-adv-x="1568" 
d="M1436 133h86v-420h-156v287h-1247v1065h164v-932h415v932h156v-932h418v932h164v-932z" />
    <glyph glyph-name="uni044A" unicode="&#x44a;" horiz-adv-x="1208" 
d="M713 678q204 0 317 -89.5t113 -248.5q0 -162 -112.5 -251t-317.5 -89h-471v934h-185v131h349v-387h307zM715 133q268 0 268 207t-268 207h-309v-414h309z" />
    <glyph glyph-name="uni044B" unicode="&#x44b;" horiz-adv-x="1433" 
d="M590 678q204 0 317 -89.5t113 -248.5q0 -162 -112.5 -251t-317.5 -89h-471v1065h164v-387h307zM1153 1065h164v-1065h-164v1065zM592 133q268 0 268 207t-268 207h-309v-414h309z" />
    <glyph glyph-name="uni044C" unicode="&#x44c;" horiz-adv-x="1085" 
d="M590 678q204 0 317 -89.5t113 -248.5q0 -162 -112.5 -251t-317.5 -89h-471v1065h164v-387h307zM592 133q268 0 268 207t-268 207h-309v-414h309z" />
    <glyph glyph-name="uni044D" unicode="&#x44d;" horiz-adv-x="1075" 
d="M512 1075q75 0 145.5 -19.5t134.5 -63t111.5 -106t76 -154t28.5 -202.5q0 -137 -43 -244.5t-115 -171t-158.5 -96t-181.5 -32.5q-77 0 -144 17.5t-127.5 55t-105.5 104.5t-67 159h151q36 -101 106.5 -150t184.5 -49q139 0 235.5 95t106.5 276h-369v106h365
q-18 166 -111 253t-225 87q-216 0 -285 -192h-151q22 89 66 154t103.5 102t125.5 54t143 17z" />
    <glyph glyph-name="uni044E" unicode="&#x44e;" horiz-adv-x="1484" 
d="M924 1075q72 0 141 -20t133.5 -63.5t113.5 -106t78 -153.5t29 -200q0 -110 -29 -202t-78 -154.5t-113.5 -106t-133.5 -63.5t-141 -20q-67 0 -132 17.5t-126.5 56t-110 93.5t-81.5 135.5t-42 176.5h-149v-467h-164v1065h164v-465h149q8 96 41 176t81.5 135t110 93
t127 55.5t132.5 17.5zM924 123q66 0 125 24.5t107 73t76 129t28 182.5t-28 181.5t-76 127.5t-107 72.5t-125 24.5t-125 -24.5t-107 -72.5t-76 -127.5t-28 -181.5t28 -182.5t76 -129t107 -73t125 -24.5z" />
    <glyph glyph-name="uni044F" unicode="&#x44f;" horiz-adv-x="1099" 
d="M981 1065v-1065h-164v387h-391q-92 0 -131 -31.5t-39 -103.5v-92q0 -73 -6.5 -105.5t-24.5 -54.5h-164q18 22 24.5 54.5t6.5 105.5v92q0 77 30 126.5t107 72.5q-149 88 -149 274q0 162 112.5 251t317.5 89h471zM817 518v414h-309q-268 0 -268 -207t268 -207h309z" />
    <glyph glyph-name="uni0451" unicode="&#x451;" horiz-adv-x="1103" 
d="M426 1452v-184h-172v184h172zM862 1452v-184h-170v184h170zM1038 524q0 -33 -2 -51h-809q13 -183 104 -271.5t242 -88.5q100 0 165 29t112 96h151q-62 -131 -168.5 -191.5t-267.5 -60.5q-101 0 -189.5 33.5t-158 98t-109.5 171t-40 241.5q0 136 41.5 242.5t112 171
t157.5 98t184 33.5q98 0 182.5 -33t150.5 -98.5t104 -173t38 -246.5zM227 586h654q-3 175 -89 268.5t-229 93.5q-140 0 -231.5 -92t-104.5 -270z" />
    <glyph glyph-name="uni0453" unicode="&#x453;" horiz-adv-x="856" 
d="M317 1190h144l217 262h-180zM799 1065v-131h-516v-934h-164v1065h680z" />
    <glyph glyph-name="uni0454" unicode="&#x454;" horiz-adv-x="1071" 
d="M858 322h152q-22 -92 -67 -159t-106 -104.5t-128 -55t-144 -17.5q-95 0 -181.5 32.5t-158 96t-114.5 171t-43 244.5q0 111 28 202.5t75.5 154t111.5 106t134.5 63t145.5 19.5q77 0 143 -17t125.5 -54t103.5 -102t66 -154h-151q-69 192 -285 192q-132 0 -225 -87
t-111 -253h365v-106h-369q10 -181 106.5 -276t235.5 -95q114 0 184.5 49t106.5 150z" />
    <glyph glyph-name="uni0457" unicode="&#x457;" horiz-adv-x="399" 
d="M-104 1452h172v-184h-172v184zM334 1452h170v-184h-170v184zM119 1065h164v-1065h-164v1065z" />
    <glyph glyph-name="uni045C" unicode="&#x45c;" horiz-adv-x="1103" 
d="M803 1452l-217 -262h-144l181 262h180zM891 0l-432 498l-176 -183v-315h-164v1065h164v-557l536 557h193l-449 -461l514 -604h-186z" />
    <glyph glyph-name="uni045E" unicode="&#x45e;" 
d="M733 1452h113q0 -114 -74 -188t-223 -74t-223 74t-74 188h113q10 -71 53 -109t131 -38q168 0 184 147zM883 1065h168l-459 -1143q-74 -185 -175.5 -256.5t-254.5 -52.5v143q110 -14 177 31.5t105 140.5q17 44 19 68t-10 55l-406 1014h170l330 -877z" />
    <glyph glyph-name="uni0490" unicode="&#x490;" horiz-adv-x="1021" 
d="M795 1638h172v-354h-678v-1284h-170v1434h676v204z" />
    <glyph glyph-name="uni0491" unicode="&#x491;" horiz-adv-x="856" 
d="M655 1200h144v-266h-516v-934h-164v1065h536v135z" />
    <glyph glyph-name="Wgrave" unicode="&#x1e80;" horiz-adv-x="2043" 
d="M1126 1559l-180 262h-180l217 -262h143zM1810 1434h179l-416 -1434h-162l-389 1188l-387 -1188h-162l-416 1434h179l327 -1180l371 1180h176l373 -1180z" />
    <glyph glyph-name="wgrave" unicode="&#x1e81;" horiz-adv-x="1644" 
d="M928 1190l-180 262h-181l217 -262h144zM1599 1065l-317 -1065h-152l-307 864l-309 -864h-152l-315 1065h166l244 -862l299 862h133l301 -862l244 862h165z" />
    <glyph glyph-name="Wacute" unicode="&#x1e82;" horiz-adv-x="2043" 
d="M911 1559h144l217 262h-180zM1810 1434h179l-416 -1434h-162l-389 1188l-387 -1188h-162l-416 1434h179l327 -1180l371 1180h176l373 -1180z" />
    <glyph glyph-name="wacute" unicode="&#x1e83;" horiz-adv-x="1644" 
d="M713 1190h143l217 262h-180zM1599 1065l-317 -1065h-152l-307 864l-309 -864h-152l-315 1065h166l244 -862l299 862h133l301 -862l244 862h165z" />
    <glyph glyph-name="Wdieresis" unicode="&#x1e84;" horiz-adv-x="2043" 
d="M717 1821h172v-185h-172v185zM1155 1821h170v-185h-170v185zM1810 1434h179l-416 -1434h-162l-389 1188l-387 -1188h-162l-416 1434h179l327 -1180l371 1180h176l373 -1180z" />
    <glyph glyph-name="wdieresis" unicode="&#x1e85;" horiz-adv-x="1644" 
d="M518 1452h172v-184h-172v184zM956 1452h170v-184h-170v184zM1599 1065l-317 -1065h-152l-307 864l-309 -864h-152l-315 1065h166l244 -862l299 862h133l301 -862l244 862h165z" />
    <glyph glyph-name="uni1E9E" unicode="&#x1e9e;" horiz-adv-x="1349" 
d="M801 879q203 -19 332 -142t129 -319q0 -202 -120.5 -320t-326.5 -118q-205 0 -314.5 108.5t-109.5 304.5h164q0 -109 67 -185.5t193 -76.5q131 0 200.5 82.5t69.5 204.5q0 153 -139 242t-381 85l334 558h-422q-106 0 -147 -47.5t-41 -151.5v-1104h-170v1114q0 184 83 262
t265 78h696z" />
    <glyph glyph-name="Ygrave" unicode="&#x1ef2;" horiz-adv-x="1335" 
d="M772 1559l-180 262h-180l217 -262h143zM756 561v-561h-174v561l-525 873h191l420 -707l419 707h193z" />
    <glyph glyph-name="ygrave" unicode="&#x1ef3;" 
d="M655 1190l-180 262h-180l217 -262h143zM883 1065h168l-459 -1143q-74 -185 -175.5 -256.5t-254.5 -52.5v143q110 -14 177 31.5t105 140.5q17 44 19 68t-10 55l-406 1014h170l330 -877z" />
    <glyph glyph-name="endash" unicode="&#x2013;" horiz-adv-x="1228" 
d="M92 637h1045v-127h-1045v127z" />
    <glyph glyph-name="emdash" unicode="&#x2014;" horiz-adv-x="1351" 
d="M92 637h1168v-127h-1168v127z" />
    <glyph glyph-name="quoteleft" unicode="&#x2018;" horiz-adv-x="360" 
d="M279 1434v-56q-45 -21 -62.5 -62t-17.5 -116v-63h80v-209h-197v260q0 242 197 246z" />
    <glyph glyph-name="quoteright" unicode="&#x2019;" horiz-adv-x="360" 
d="M82 928v55q45 21 62.5 62t17.5 116v64h-80v209h197v-260q0 -242 -197 -246z" />
    <glyph glyph-name="quotesinglbase" unicode="&#x201a;" horiz-adv-x="360" 
d="M82 -297v55q45 21 62.5 62.5t17.5 116.5v63h-80v209h197v-260q0 -242 -197 -246z" />
    <glyph glyph-name="quotedblleft" unicode="&#x201c;" horiz-adv-x="696" 
d="M279 1436v-56q-45 -21 -62.5 -62t-17.5 -116v-63h80v-209h-197v260q0 242 197 246zM614 1436v-56q-45 -21 -62 -61.5t-17 -116.5v-63h79v-209h-196v260q0 242 196 246z" />
    <glyph glyph-name="quotedblright" unicode="&#x201d;" horiz-adv-x="696" 
d="M82 928v55q45 21 62.5 62t17.5 116v64h-80v209h197v-260q0 -242 -197 -246zM418 928v55q45 21 62.5 62t17.5 116v64h-80v209h196v-260q0 -242 -196 -246z" />
    <glyph glyph-name="quotedblbase" unicode="&#x201e;" horiz-adv-x="696" 
d="M82 -297v55q45 21 62.5 62.5t17.5 116.5v63h-80v209h197v-260q0 -242 -197 -246zM418 -297v55q45 21 62.5 62.5t17.5 116.5v63h-80v209h196v-260q0 -242 -196 -246z" />
    <glyph glyph-name="dagger" unicode="&#x2020;" horiz-adv-x="694" 
d="M592 1186v-127h-176v-522h-133v522h-181v127h181v248h133v-248h176z" />
    <glyph glyph-name="daggerdbl" unicode="&#x2021;" horiz-adv-x="694" 
d="M592 997h-176v-559h176v-127h-176v-311h-133v311h-181v127h181v559h-181v127h181v310h133v-310h176v-127z" />
    <glyph glyph-name="bullet" unicode="&#x2022;" horiz-adv-x="534" 
d="M268 375q-69 0 -117.5 48.5t-48.5 117.5q0 68 48.5 116t117.5 48q68 0 116 -48.5t48 -115.5q0 -69 -48 -117.5t-116 -48.5z" />
    <glyph glyph-name="ellipsis" unicode="&#x2026;" horiz-adv-x="1413" 
d="M102 209h197v-209h-197v209zM608 209h197v-209h-197v209zM1114 209h197v-209h-197v209z" />
    <glyph glyph-name="perthousand" unicode="&#x2030;" horiz-adv-x="2138" 
d="M356 817q-116 0 -190 83t-74 230q0 148 74 231t190 83q118 0 192.5 -83t74.5 -231q0 -147 -74.5 -230t-192.5 -83zM258 0l844 1438l125 -4l-840 -1434h-129zM356 930q68 0 108 48.5t40 151.5t-40 153t-108 50q-67 0 -106 -50t-39 -153q0 -102 39 -151t106 -49zM1780 -8
q-116 0 -190 83t-74 230q0 148 74 230.5t190 82.5q118 0 192 -82.5t74 -230.5q0 -147 -74.5 -230t-191.5 -83zM1126 -10q-116 0 -190 83t-74 230q0 148 74 230.5t190 82.5q118 0 192.5 -82.5t74.5 -230.5q0 -147 -74.5 -230t-192.5 -83zM1780 104q68 0 107.5 49t39.5 152
t-39.5 153t-107.5 50q-67 0 -106.5 -50t-39.5 -153q0 -102 39.5 -151.5t106.5 -49.5zM1126 102q68 0 108 49t40 152t-40 153t-108 50q-67 0 -106 -50t-39 -153t39 -152t106 -49z" />
    <glyph glyph-name="guilsinglleft" unicode="&#x2039;" horiz-adv-x="466" 
d="M385 776l-190 -164l190 -163v-160l-303 258v131l303 256v-158z" />
    <glyph glyph-name="guilsinglright" unicode="&#x203a;" horiz-adv-x="436" 
d="M61 776v158l304 -256v-131l-304 -258v160l191 163z" />
    <glyph glyph-name="fraction" unicode="&#x2044;" horiz-adv-x="307" 
d="M-248 0h-90l893 1434h90z" />
    <glyph glyph-name="Euro" unicode="&#x20ac;" horiz-adv-x="1427" 
d="M1194 365h172q-39 -181 -189.5 -282t-365.5 -101q-240 0 -404.5 139.5t-209.5 402.5h-125v107h110q-2 29 -2 86v45h-108v106h118q36 284 203 434t418 150q214 0 363 -100t188 -281h-174q-86 232 -375 232q-176 0 -294.5 -111t-151.5 -324h376v-106h-387v-45q0 -32 4 -86
h383v-107h-368q39 -191 155 -291t283 -100q292 0 381 232z" />
    <glyph glyph-name="trademark" unicode="&#x2122;" horiz-adv-x="1011" 
d="M422 1364h-129v-299h-80v299h-131v70h340v-70zM930 1434v-369h-80v233l-105 -233h-65l-105 233v-233h-79v369h79l138 -291l137 291h80z" />
    <glyph glyph-name="partialdiff" unicode="&#x2202;" horiz-adv-x="1189" 
d="M557 952q151 0 253 -63.5t138 -169.5q4 606 -370 606q-123 0 -201 -66t-94 -169h-144q5 68 34 131t81 115.5t136 84t188 31.5q119 0 211 -41.5t150 -110.5t95.5 -168.5t52.5 -206.5t15 -233q0 -351 -134.5 -530.5t-375.5 -179.5q-138 0 -248.5 56t-178 170t-67.5 269
q0 112 38 204t102.5 150t146.5 89.5t172 31.5zM590 119q148 0 241 106t93 283q0 144 -98.5 235t-237.5 91q-146 0 -239 -95t-93 -260q0 -168 92.5 -264t241.5 -96z" />
    <glyph glyph-name="product" unicode="&#x220f;" horiz-adv-x="1388" 
d="M92 1638h1204v-2027h-153v1880h-895v-1880h-156v2027z" />
    <glyph glyph-name="summation" unicode="&#x2211;" horiz-adv-x="1357" 
d="M1266 1489h-910l480 -864l-480 -865h910v-149h-1174l563 1014l-563 1013h1174v-149z" />
    <glyph glyph-name="minus" unicode="&#x2212;" horiz-adv-x="870" 
d="M80 596h610v-127h-610v127z" />
    <glyph glyph-name="radical" unicode="&#x221a;" horiz-adv-x="1515" 
d="M1423 1638l-557 -2027h-178l-366 940h-230v172h336l340 -889l496 1804h159z" />
    <glyph glyph-name="infinity" unicode="&#x221e;" horiz-adv-x="1652" 
d="M1217 877q148 0 249 -96t101 -244q0 -150 -101 -247t-249 -97q-200 0 -390 231q-190 -231 -387 -231q-151 0 -251.5 96.5t-100.5 247.5q0 148 101 244t251 96q196 0 387 -232q191 232 390 232zM449 324q83 0 152.5 56.5t139.5 156.5q-69 98 -139 153t-153 55
q-95 0 -153 -58.5t-58 -149.5t58 -152t153 -61zM1204 324q95 0 153 61t58 152t-58 149.5t-153 58.5q-147 0 -291 -208q144 -213 291 -213z" />
    <glyph glyph-name="integral" unicode="&#x222b;" horiz-adv-x="593" 
d="M215 1106q0 182 82.5 259t255.5 77v-144q-88 0 -131 -49.5t-43 -165.5v-1138q0 -184 -86.5 -259t-251.5 -75v143q88 0 131 50.5t43 164.5v1137z" />
    <glyph glyph-name="approxequal" unicode="&#x2248;" horiz-adv-x="940" 
d="M766 809h82q0 -98 -60.5 -157.5t-152.5 -59.5q-43 0 -82.5 16.5t-70.5 39.5t-60 46t-64 39.5t-71 16.5q-54 0 -84.5 -29t-28.5 -64h-82q0 98 60.5 157.5t154.5 59.5q42 0 81.5 -16t70 -39t60 -46.5t65 -39.5t71.5 -16q53 0 83 29t28 63zM766 481h82q0 -98 -60.5 -157.5
t-152.5 -59.5q-43 0 -82.5 16.5t-70.5 39.5t-60 46t-64 39.5t-71 16.5q-54 0 -84.5 -28.5t-28.5 -63.5h-82q0 98 60.5 157.5t154.5 59.5q42 0 81.5 -16.5t70 -39.5t60 -46t65 -39.5t71.5 -16.5q53 0 83 29t28 63z" />
    <glyph glyph-name="notequal" unicode="&#x2260;" horiz-adv-x="870" 
d="M715 1149l-135 -348h108v-127h-158l-77 -201h235v-127h-285l-135 -346h-112l135 346h-213v127h262l78 201h-340v127h389l135 348h113z" />
    <glyph glyph-name="lessequal" unicode="&#x2264;" horiz-adv-x="909" 
d="M805 467l-584 303l584 301v146l-703 -377v-142l703 -376v145zM102 129h705v-129h-705v129z" />
    <glyph glyph-name="greaterequal" unicode="&#x2265;" horiz-adv-x="909" 
d="M104 467v-145l703 376v142l-703 377v-146l584 -301zM807 129v-129h-705v129h705z" />
    <glyph glyph-name="lozenge" unicode="&#x25ca;" horiz-adv-x="1038" 
d="M629 1434l317 -717l-317 -717h-219l-318 717l318 717h219zM520 131l258 586l-258 586l-260 -586z" />
    <glyph glyph-name="G.ss01" horiz-adv-x="1392" 
d="M817 723h488v-723h-158v229q-133 -247 -432 -247q-137 0 -251 46t-198 135.5t-131 231t-47 322.5t47 322t131.5 230.5t199 136t253.5 46.5q206 0 348 -93.5t186 -262.5h-172q-94 207 -360 207q-209 0 -333 -150.5t-124 -435.5t125.5 -434.5t337.5 -149.5
q191 -1 304.5 104.5t113.5 278.5v66h-328v141z" />
    <glyph glyph-name="R.ss01" horiz-adv-x="1224" 
d="M1157 0h-176l-295 512q-16 -2 -51 -2h-346v-510h-170v1434h516q250 0 381 -122t131 -341q0 -166 -77 -277t-226 -155zM289 1284v-625h348q160 0 245 81t85 231q0 151 -84.5 232t-245.5 81h-348z" />
    <glyph glyph-name="G.ss05" horiz-adv-x="1392" 
d="M817 723h488v-723h-158v229q-133 -247 -432 -247q-137 0 -251 46t-198 135.5t-131 231t-47 322.5t47 322t131.5 230.5t199 136t253.5 46.5q206 0 348 -93.5t186 -262.5h-172q-94 207 -360 207q-209 0 -333 -150.5t-124 -435.5t125.5 -434.5t337.5 -149.5
q191 -1 304.5 104.5t113.5 278.5v66h-328v141z" />
    <glyph glyph-name="i.loclTRK" horiz-adv-x="399" 
d="M115 1452h172v-184h-172v184zM119 1065h164v-1065h-164v1065z" />
    <glyph glyph-name="a.ss01" horiz-adv-x="1171" 
d="M539 1075q247 0 352 -205v195h164v-1065h-164v207q-41 -102 -131 -161.5t-221 -59.5q-88 0 -169 32t-150 95.5t-110.5 172t-41.5 246.5q0 137 41.5 244.5t110.5 171t150 95.5t169 32zM565 123q68 0 127 24.5t106 73t74 128.5t27 183q0 105 -27 185t-74.5 128t-106 71.5
t-126.5 23.5q-69 0 -127.5 -23.5t-105.5 -71.5t-74 -128t-27 -185t27 -185.5t74 -128t105.5 -71.5t127.5 -24z" />
    <glyph glyph-name="aacute.ss01" horiz-adv-x="1171" 
d="M481 1190h144l217 262h-180zM539 1075q247 0 352 -205v195h164v-1065h-164v207q-41 -102 -131 -161.5t-221 -59.5q-88 0 -169 32t-150 95.5t-110.5 172t-41.5 246.5q0 137 41.5 244.5t110.5 171t150 95.5t169 32zM565 123q68 0 127 24.5t106 73t74 128.5t27 183
q0 105 -27 185t-74.5 128t-106 71.5t-126.5 23.5q-69 0 -127.5 -23.5t-105.5 -71.5t-74 -128t-27 -185t27 -185.5t74 -128t105.5 -71.5t127.5 -24z" />
    <glyph glyph-name="abreve.ss01" horiz-adv-x="1171" 
d="M774 1452h113q0 -114 -73.5 -188t-223.5 -74t-223.5 74t-73.5 188h113q10 -71 53 -109t131 -38q168 0 184 147zM539 1075q247 0 352 -205v195h164v-1065h-164v207q-41 -102 -131 -161.5t-221 -59.5q-88 0 -169 32t-150 95.5t-110.5 172t-41.5 246.5q0 137 41.5 244.5
t110.5 171t150 95.5t169 32zM565 123q68 0 127 24.5t106 73t74 128.5t27 183q0 105 -27 185t-74.5 128t-106 71.5t-126.5 23.5q-69 0 -127.5 -23.5t-105.5 -71.5t-74 -128t-27 -185t27 -185.5t74 -128t105.5 -71.5t127.5 -24z" />
    <glyph glyph-name="uni01CE.ss01" horiz-adv-x="1171" 
d="M782 1434h131l-182 -267h-287l-184 267h133l195 -183zM539 1075q247 0 352 -205v195h164v-1065h-164v207q-41 -102 -131 -161.5t-221 -59.5q-88 0 -169 32t-150 95.5t-110.5 172t-41.5 246.5q0 137 41.5 244.5t110.5 171t150 95.5t169 32zM565 123q68 0 127 24.5t106 73
t74 128.5t27 183q0 105 -27 185t-74.5 128t-106 71.5t-126.5 23.5q-69 0 -127.5 -23.5t-105.5 -71.5t-74 -128t-27 -185t27 -185.5t74 -128t105.5 -71.5t127.5 -24z" />
    <glyph glyph-name="acircumflex.ss01" horiz-adv-x="1171" 
d="M784 1186l-194 182l-195 -182h-133l184 266h287l182 -266h-131zM539 1075q247 0 352 -205v195h164v-1065h-164v207q-41 -102 -131 -161.5t-221 -59.5q-88 0 -169 32t-150 95.5t-110.5 172t-41.5 246.5q0 137 41.5 244.5t110.5 171t150 95.5t169 32zM565 123
q68 0 127 24.5t106 73t74 128.5t27 183q0 105 -27 185t-74.5 128t-106 71.5t-126.5 23.5q-69 0 -127.5 -23.5t-105.5 -71.5t-74 -128t-27 -185t27 -185.5t74 -128t105.5 -71.5t127.5 -24z" />
    <glyph glyph-name="adieresis.ss01" horiz-adv-x="1171" 
d="M287 1452h172v-184h-172v184zM725 1452h170v-184h-170v184zM539 1075q247 0 352 -205v195h164v-1065h-164v207q-41 -102 -131 -161.5t-221 -59.5q-88 0 -169 32t-150 95.5t-110.5 172t-41.5 246.5q0 137 41.5 244.5t110.5 171t150 95.5t169 32zM565 123q68 0 127 24.5
t106 73t74 128.5t27 183q0 105 -27 185t-74.5 128t-106 71.5t-126.5 23.5q-69 0 -127.5 -23.5t-105.5 -71.5t-74 -128t-27 -185t27 -185.5t74 -128t105.5 -71.5t127.5 -24z" />
    <glyph glyph-name="agrave.ss01" horiz-adv-x="1171" 
d="M694 1190l-180 262h-180l217 -262h143zM539 1075q247 0 352 -205v195h164v-1065h-164v207q-41 -102 -131 -161.5t-221 -59.5q-88 0 -169 32t-150 95.5t-110.5 172t-41.5 246.5q0 137 41.5 244.5t110.5 171t150 95.5t169 32zM565 123q68 0 127 24.5t106 73t74 128.5
t27 183q0 105 -27 185t-74.5 128t-106 71.5t-126.5 23.5q-69 0 -127.5 -23.5t-105.5 -71.5t-74 -128t-27 -185t27 -185.5t74 -128t105.5 -71.5t127.5 -24z" />
    <glyph glyph-name="amacron.ss01" horiz-adv-x="1171" 
d="M276 1452h629v-102h-629v102zM539 1075q247 0 352 -205v195h164v-1065h-164v207q-41 -102 -131 -161.5t-221 -59.5q-88 0 -169 32t-150 95.5t-110.5 172t-41.5 246.5q0 137 41.5 244.5t110.5 171t150 95.5t169 32zM565 123q68 0 127 24.5t106 73t74 128.5t27 183
q0 105 -27 185t-74.5 128t-106 71.5t-126.5 23.5q-69 0 -127.5 -23.5t-105.5 -71.5t-74 -128t-27 -185t27 -185.5t74 -128t105.5 -71.5t127.5 -24z" />
    <glyph glyph-name="aogonek.ss01" horiz-adv-x="1171" 
d="M891 1065h164v-1065h-39q-124 -42 -189 -104.5t-65 -133.5q0 -64 51 -87t141 -3v-80q-45 -21 -103.5 -26t-114.5 7t-94 53.5t-38 107.5q0 64 46.5 121t109.5 92t131 53v207q-41 -102 -131 -161.5t-221 -59.5q-88 0 -169 32t-150 95.5t-110.5 172t-41.5 246.5
q0 137 41.5 244.5t110.5 171t150 95.5t169 32q247 0 352 -205v195zM565 123q68 0 127 24.5t106 73t74 128.5t27 183q0 105 -27 185t-74.5 128t-106 71.5t-126.5 23.5q-69 0 -127.5 -23.5t-105.5 -71.5t-74 -128t-27 -185t27 -185.5t74 -128t105.5 -71.5t127.5 -24z" />
    <glyph glyph-name="aring.ss01" horiz-adv-x="1171" 
d="M592 1190q-74 0 -126 51t-52 123t52.5 124t125.5 52q74 0 126 -52t52 -124t-51.5 -123t-126.5 -51zM592 1270q40 0 68 27t28 67q0 41 -28 67.5t-68 26.5t-67 -26.5t-27 -67.5q0 -40 27 -67t67 -27zM539 1075q247 0 352 -205v195h164v-1065h-164v207q-41 -102 -131 -161.5
t-221 -59.5q-88 0 -169 32t-150 95.5t-110.5 172t-41.5 246.5q0 137 41.5 244.5t110.5 171t150 95.5t169 32zM565 123q68 0 127 24.5t106 73t74 128.5t27 183q0 105 -27 185t-74.5 128t-106 71.5t-126.5 23.5q-69 0 -127.5 -23.5t-105.5 -71.5t-74 -128t-27 -185t27 -185.5
t74 -128t105.5 -71.5t127.5 -24z" />
    <glyph glyph-name="atilde.ss01" horiz-adv-x="1171" 
d="M872 1434h78q0 -94 -57.5 -149.5t-147.5 -55.5q-49 0 -95 23t-77 50.5t-73.5 50.5t-83.5 23q-52 0 -80.5 -26.5t-26.5 -59.5h-80q0 94 57.5 149.5t147.5 55.5q41 0 78.5 -15t66.5 -36.5t57.5 -43.5t62 -37t67.5 -15q52 0 80 26.5t26 59.5zM539 1075q247 0 352 -205v195
h164v-1065h-164v207q-41 -102 -131 -161.5t-221 -59.5q-88 0 -169 32t-150 95.5t-110.5 172t-41.5 246.5q0 137 41.5 244.5t110.5 171t150 95.5t169 32zM565 123q68 0 127 24.5t106 73t74 128.5t27 183q0 105 -27 185t-74.5 128t-106 71.5t-126.5 23.5q-69 0 -127.5 -23.5
t-105.5 -71.5t-74 -128t-27 -185t27 -185.5t74 -128t105.5 -71.5t127.5 -24z" />
    <glyph glyph-name="g.ss01" 
d="M537 258q73 0 139.5 -11.5t129 -38.5t108 -67t73 -101t27.5 -136q0 -94 -40.5 -164.5t-110.5 -111t-152 -60t-176 -19.5q-69 0 -134 11.5t-126.5 38.5t-106.5 67t-72.5 101.5t-27.5 136.5q0 209 225 289q-89 8 -147 48t-58 107q0 54 36.5 91.5t102.5 47.5q-86 92 -86 238
q0 164 108.5 258t280.5 94q178 0 285 -96q50 87 174 84v-123q-69 0 -112 -37q45 -79 45 -180q0 -166 -109 -260t-283 -94q-134 0 -225 55q-41 -4 -61.5 -24.5t-20.5 -51.5q0 -92 189 -92h125zM530 956q-120 0 -183.5 -63.5t-63.5 -167.5q0 -106 63 -169.5t184 -63.5
q122 0 186 63.5t64 169.5q0 104 -64 167.5t-186 63.5zM539 -328q145 0 230 57.5t85 174.5t-85 174t-230 57q-142 0 -227 -57.5t-85 -173.5q0 -117 85 -174.5t227 -57.5z" />
    <glyph glyph-name="l.ss01" horiz-adv-x="423" 
d="M377 -4q-135 -14 -196.5 29.5t-61.5 173.5v1245h164v-1245q0 -40 21 -59.5t73 -18.5v-125z" />
    <glyph glyph-name="a.ss02" horiz-adv-x="1171" 
d="M539 1075q247 0 352 -205v195h164v-1065h-164v207q-41 -102 -131 -161.5t-221 -59.5q-88 0 -169 32t-150 95.5t-110.5 172t-41.5 246.5q0 137 41.5 244.5t110.5 171t150 95.5t169 32zM565 123q68 0 127 24.5t106 73t74 128.5t27 183q0 105 -27 185t-74.5 128t-106 71.5
t-126.5 23.5q-69 0 -127.5 -23.5t-105.5 -71.5t-74 -128t-27 -185t27 -185.5t74 -128t105.5 -71.5t127.5 -24z" />
    <glyph glyph-name="aacute.ss02" horiz-adv-x="1171" 
d="M479 1190h144l217 262h-181zM539 1075q247 0 352 -205v195h164v-1065h-164v207q-41 -102 -131 -161.5t-221 -59.5q-88 0 -169 32t-150 95.5t-110.5 172t-41.5 246.5q0 137 41.5 244.5t110.5 171t150 95.5t169 32zM565 123q68 0 127 24.5t106 73t74 128.5t27 183
q0 105 -27 185t-74.5 128t-106 71.5t-126.5 23.5q-69 0 -127.5 -23.5t-105.5 -71.5t-74 -128t-27 -185t27 -185.5t74 -128t105.5 -71.5t127.5 -24z" />
    <glyph glyph-name="abreve.ss02" horiz-adv-x="1171" 
d="M774 1452h113q0 -114 -73.5 -188t-223.5 -74t-223.5 74t-73.5 188h113q10 -71 53 -109t131 -38q168 0 184 147zM539 1075q247 0 352 -205v195h164v-1065h-164v207q-41 -102 -131 -161.5t-221 -59.5q-88 0 -169 32t-150 95.5t-110.5 172t-41.5 246.5q0 137 41.5 244.5
t110.5 171t150 95.5t169 32zM565 123q68 0 127 24.5t106 73t74 128.5t27 183q0 105 -27 185t-74.5 128t-106 71.5t-126.5 23.5q-69 0 -127.5 -23.5t-105.5 -71.5t-74 -128t-27 -185t27 -185.5t74 -128t105.5 -71.5t127.5 -24z" />
    <glyph glyph-name="uni01CE.ss02" horiz-adv-x="1171" 
d="M782 1434h131l-182 -267h-287l-184 267h133l195 -183zM539 1075q247 0 352 -205v195h164v-1065h-164v207q-41 -102 -131 -161.5t-221 -59.5q-88 0 -169 32t-150 95.5t-110.5 172t-41.5 246.5q0 137 41.5 244.5t110.5 171t150 95.5t169 32zM565 123q68 0 127 24.5t106 73
t74 128.5t27 183q0 105 -27 185t-74.5 128t-106 71.5t-126.5 23.5q-69 0 -127.5 -23.5t-105.5 -71.5t-74 -128t-27 -185t27 -185.5t74 -128t105.5 -71.5t127.5 -24z" />
    <glyph glyph-name="acircumflex.ss02" horiz-adv-x="1171" 
d="M784 1186l-194 182l-195 -182h-133l184 266h287l182 -266h-131zM539 1075q247 0 352 -205v195h164v-1065h-164v207q-41 -102 -131 -161.5t-221 -59.5q-88 0 -169 32t-150 95.5t-110.5 172t-41.5 246.5q0 137 41.5 244.5t110.5 171t150 95.5t169 32zM565 123
q68 0 127 24.5t106 73t74 128.5t27 183q0 105 -27 185t-74.5 128t-106 71.5t-126.5 23.5q-69 0 -127.5 -23.5t-105.5 -71.5t-74 -128t-27 -185t27 -185.5t74 -128t105.5 -71.5t127.5 -24z" />
    <glyph glyph-name="adieresis.ss02" horiz-adv-x="1171" 
d="M285 1452h172v-184h-172v184zM723 1452h170v-184h-170v184zM539 1075q247 0 352 -205v195h164v-1065h-164v207q-41 -102 -131 -161.5t-221 -59.5q-88 0 -169 32t-150 95.5t-110.5 172t-41.5 246.5q0 137 41.5 244.5t110.5 171t150 95.5t169 32zM565 123q68 0 127 24.5
t106 73t74 128.5t27 183q0 105 -27 185t-74.5 128t-106 71.5t-126.5 23.5q-69 0 -127.5 -23.5t-105.5 -71.5t-74 -128t-27 -185t27 -185.5t74 -128t105.5 -71.5t127.5 -24z" />
    <glyph glyph-name="agrave.ss02" horiz-adv-x="1171" 
d="M694 1190l-180 262h-180l217 -262h143zM539 1075q247 0 352 -205v195h164v-1065h-164v207q-41 -102 -131 -161.5t-221 -59.5q-88 0 -169 32t-150 95.5t-110.5 172t-41.5 246.5q0 137 41.5 244.5t110.5 171t150 95.5t169 32zM565 123q68 0 127 24.5t106 73t74 128.5
t27 183q0 105 -27 185t-74.5 128t-106 71.5t-126.5 23.5q-69 0 -127.5 -23.5t-105.5 -71.5t-74 -128t-27 -185t27 -185.5t74 -128t105.5 -71.5t127.5 -24z" />
    <glyph glyph-name="amacron.ss02" horiz-adv-x="1171" 
d="M274 1452h629v-102h-629v102zM539 1075q247 0 352 -205v195h164v-1065h-164v207q-41 -102 -131 -161.5t-221 -59.5q-88 0 -169 32t-150 95.5t-110.5 172t-41.5 246.5q0 137 41.5 244.5t110.5 171t150 95.5t169 32zM565 123q68 0 127 24.5t106 73t74 128.5t27 183
q0 105 -27 185t-74.5 128t-106 71.5t-126.5 23.5q-69 0 -127.5 -23.5t-105.5 -71.5t-74 -128t-27 -185t27 -185.5t74 -128t105.5 -71.5t127.5 -24z" />
    <glyph glyph-name="aogonek.ss02" horiz-adv-x="1171" 
d="M891 1065h164v-1065h-39q-124 -42 -189 -104.5t-65 -133.5q0 -64 51 -87t141 -3v-80q-45 -21 -103.5 -26t-114.5 7t-94 53.5t-38 107.5q0 64 46.5 121t109.5 92t131 53v207q-41 -102 -131 -161.5t-221 -59.5q-88 0 -169 32t-150 95.5t-110.5 172t-41.5 246.5
q0 137 41.5 244.5t110.5 171t150 95.5t169 32q247 0 352 -205v195zM565 123q68 0 127 24.5t106 73t74 128.5t27 183q0 105 -27 185t-74.5 128t-106 71.5t-126.5 23.5q-69 0 -127.5 -23.5t-105.5 -71.5t-74 -128t-27 -185t27 -185.5t74 -128t105.5 -71.5t127.5 -24z" />
    <glyph glyph-name="aring.ss02" horiz-adv-x="1171" 
d="M590 1190q-74 0 -126 51t-52 123t52.5 124t125.5 52q74 0 126 -52t52 -124t-51.5 -123t-126.5 -51zM590 1270q40 0 68 27t28 67q0 41 -28 67.5t-68 26.5t-67 -26.5t-27 -67.5q0 -40 27 -67t67 -27zM539 1075q247 0 352 -205v195h164v-1065h-164v207q-41 -102 -131 -161.5
t-221 -59.5q-88 0 -169 32t-150 95.5t-110.5 172t-41.5 246.5q0 137 41.5 244.5t110.5 171t150 95.5t169 32zM565 123q68 0 127 24.5t106 73t74 128.5t27 183q0 105 -27 185t-74.5 128t-106 71.5t-126.5 23.5q-69 0 -127.5 -23.5t-105.5 -71.5t-74 -128t-27 -185t27 -185.5
t74 -128t105.5 -71.5t127.5 -24z" />
    <glyph glyph-name="atilde.ss02" horiz-adv-x="1171" 
d="M870 1434h78q0 -94 -57.5 -149.5t-147.5 -55.5q-49 0 -95 23t-77 50.5t-73.5 50.5t-83.5 23q-52 0 -80.5 -26.5t-26.5 -59.5h-80q0 94 57.5 149.5t147.5 55.5q41 0 78.5 -15t66.5 -36.5t57.5 -43.5t62 -37t67.5 -15q52 0 80 26.5t26 59.5zM539 1075q247 0 352 -205v195
h164v-1065h-164v207q-41 -102 -131 -161.5t-221 -59.5q-88 0 -169 32t-150 95.5t-110.5 172t-41.5 246.5q0 137 41.5 244.5t110.5 171t150 95.5t169 32zM565 123q68 0 127 24.5t106 73t74 128.5t27 183q0 105 -27 185t-74.5 128t-106 71.5t-126.5 23.5q-69 0 -127.5 -23.5
t-105.5 -71.5t-74 -128t-27 -185t27 -185.5t74 -128t105.5 -71.5t127.5 -24z" />
    <glyph glyph-name="g.ss03" 
d="M537 258q73 0 139.5 -11.5t129 -38.5t108 -67t73 -101t27.5 -136q0 -94 -40.5 -164.5t-110.5 -111t-152 -60t-176 -19.5q-69 0 -134 11.5t-126.5 38.5t-106.5 67t-72.5 101.5t-27.5 136.5q0 209 225 289q-89 8 -147 48t-58 107q0 54 36.5 91.5t102.5 47.5q-86 92 -86 238
q0 164 108.5 258t280.5 94q178 0 285 -96q50 87 174 84v-123q-69 0 -112 -37q45 -79 45 -180q0 -166 -109 -260t-283 -94q-134 0 -225 55q-41 -4 -61.5 -24.5t-20.5 -51.5q0 -92 189 -92h125zM530 956q-120 0 -183.5 -63.5t-63.5 -167.5q0 -106 63 -169.5t184 -63.5
q122 0 186 63.5t64 169.5q0 104 -64 167.5t-186 63.5zM539 -328q145 0 230 57.5t85 174.5t-85 174t-230 57q-142 0 -227 -57.5t-85 -173.5q0 -117 85 -174.5t227 -57.5z" />
    <glyph glyph-name="l.ss04" horiz-adv-x="423" 
d="M377 -4q-135 -14 -196.5 29.5t-61.5 173.5v1245h164v-1245q0 -40 21 -59.5t73 -18.5v-125z" />
    <glyph glyph-name="f_t" horiz-adv-x="1310" 
d="M1128 121q57 0 117 16v-125q-67 -24 -166 -24q-49 0 -87 9.5t-69.5 31.5t-48 64t-16.5 102v739h-506v-934h-164v934h-147v131h147v111q0 73 17 127t42.5 84.5t64.5 49t75.5 24t81.5 5.5q95 0 156 -22v-123q-54 14 -123 14q-79 0 -114.5 -36t-35.5 -125v-109h506v266h164
v-266h207v-131h-207v-723q0 -45 24 -67.5t82 -22.5z" />
    <glyph glyph-name="r_t" horiz-adv-x="1318" 
d="M1137 121q56 0 116 16v-125q-67 -24 -166 -24q-49 0 -87 9.5t-69.5 31.5t-48 64t-16.5 102v739h-145q-201 0 -304 -82t-134 -234v-618h-164v1065h164v-260q29 112 138 184.5t281 75.5h164v266h164v-266h207v-131h-207v-723q0 -45 24.5 -67.5t82.5 -22.5z" />
    <glyph glyph-name="zero.dnom" horiz-adv-x="577" 
d="M289 -4q98 0 157.5 71.5t59.5 186.5v27q0 116 -59.5 187t-157.5 71q-97 0 -157 -71.5t-60 -186.5v-27q0 -114 60 -186t157 -72zM289 473q64 0 104.5 -51.5t40.5 -140.5v-27q0 -88 -40.5 -139.5t-104.5 -51.5t-105 51.5t-41 139.5v27q0 89 41 140.5t105 51.5z" />
    <glyph glyph-name="one.dnom" horiz-adv-x="354" 
d="M262 535v-535h-69v438q-13 -25 -43.5 -36.5t-67.5 -6.5v66q36 -1 68 21.5t43 52.5h69z" />
    <glyph glyph-name="two.dnom" horiz-adv-x="520" 
d="M82 0v18q0 77 34 133t117 109q32 19 41 24.5t29.5 20.5t26 24.5t12 25.5t6.5 34q0 38 -26.5 63t-69.5 25t-69.5 -26.5t-26.5 -73.5v-15h-74v15q0 75 45 120.5t125 45.5q79 0 124.5 -43.5t45.5 -110.5q0 -60 -37 -99t-117 -87q-106 -63 -106 -131v-6h266v-66h-346z" />
    <glyph glyph-name="three.dnom" horiz-adv-x="550" 
d="M350 285q46 -7 82.5 -41t36.5 -94q0 -69 -51 -113.5t-144 -44.5q-89 0 -140.5 48t-51.5 126h72q3 -111 125 -111q53 0 85.5 25.5t32.5 75.5q0 47 -34.5 71.5t-98.5 24.5h-22v55h22q55 0 83 26.5t28 63.5t-27 59.5t-74 22.5q-49 0 -77.5 -26t-28.5 -78h-68q0 79 47 123.5
t127 44.5q79 0 124.5 -40.5t45.5 -101.5q0 -44 -26.5 -74.5t-67.5 -41.5z" />
    <glyph glyph-name="four.dnom" horiz-adv-x="538" 
d="M457 135h-62v-135h-69v135h-244v58l244 342h69v-342h62v-58zM326 193v251l-179 -251h179z" />
    <glyph glyph-name="five.dnom" horiz-adv-x="501" 
d="M266 358q73 0 123.5 -48.5t50.5 -131.5q0 -87 -52 -137.5t-140 -50.5q-86 0 -136.5 48.5t-50.5 125.5h68q2 -47 33 -78t86 -31t87 32t32 91q0 64 -34.5 93.5t-78.5 29.5q-69 0 -113 -53h-67l43 287h276v-64h-225l-25 -162q13 17 45.5 33t77.5 16z" />
    <glyph glyph-name="six.dnom" horiz-adv-x="552" 
d="M295 350q74 0 125 -43t51 -129q0 -94 -54.5 -141t-133.5 -47q-89 0 -145 65t-56 203q0 125 49 204t152 79q81 0 124.5 -44.5t45.5 -99.5h-64q-5 35 -30.5 58.5t-75.5 23.5q-41 0 -69 -19.5t-40 -54.5t-16.5 -64t-5.5 -67q15 30 54 53t89 23zM283 55q51 0 82.5 31t31.5 94
q0 56 -32 85.5t-82 29.5q-51 0 -86 -31.5t-35 -83.5q0 -57 34.5 -91t86.5 -34z" />
    <glyph glyph-name="seven.dnom" horiz-adv-x="462" 
d="M401 535v-64l-215 -471h-67l217 471h-295v64h360z" />
    <glyph glyph-name="eight.dnom" horiz-adv-x="475" 
d="M330 293q94 -45 94 -137q0 -72 -52.5 -116t-133.5 -44q-79 0 -133 44t-54 116q0 92 94 137q-63 42 -63 110q0 56 42 96t114 40q74 0 114.5 -40t40.5 -96q0 -71 -63 -110zM143 403q0 -37 28.5 -61.5t66.5 -24.5q40 0 67 24t27 62q0 35 -23 57.5t-71 22.5q-44 0 -69.5 -23
t-25.5 -57zM238 53q56 0 87 27t31 76q0 50 -31.5 76t-86.5 26q-51 0 -86 -27t-35 -75q0 -46 35 -74.5t86 -28.5z" />
    <glyph glyph-name="nine.dnom" horiz-adv-x="552" 
d="M258 182q-74 0 -125 42.5t-51 127.5q0 94 54.5 141.5t133.5 47.5q89 0 145 -65.5t56 -201.5q0 -127 -49 -205.5t-152 -78.5q-81 0 -124.5 44t-45.5 101h64q5 -36 30.5 -60t75.5 -24q41 0 69 19.5t40 54.5t16.5 64.5t5.5 68.5q-15 -31 -53.5 -53.5t-89.5 -22.5zM270 475
q-50 0 -82 -31t-32 -92q0 -57 31.5 -85.5t82.5 -28.5q52 0 86.5 30t34.5 82q0 57 -34.5 91t-86.5 34z" />
    <glyph glyph-name="zero.numr" horiz-adv-x="577" 
d="M289 897q98 0 157.5 71.5t59.5 186.5v27q0 116 -59.5 187t-157.5 71q-97 0 -157 -71.5t-60 -186.5v-27q0 -114 60 -186t157 -72zM289 1374q64 0 104.5 -51.5t40.5 -140.5v-27q0 -88 -40.5 -139t-104.5 -51t-105 51t-41 139v27q0 89 41 140.5t105 51.5z" />
    <glyph glyph-name="one.numr" horiz-adv-x="364" 
d="M262 1436v-535h-69v438q-13 -25 -43.5 -36.5t-67.5 -6.5v66q36 -1 68 21.5t43 52.5h69z" />
    <glyph glyph-name="two.numr" horiz-adv-x="520" 
d="M82 901v19q0 77 34 132.5t117 108.5q31 19 40.5 24.5t30 20.5t26 24.5t12 25.5t6.5 34q0 38 -26.5 63t-69.5 25t-69.5 -26.5t-26.5 -73.5v-14h-74v14q0 75 45 120.5t125 45.5q79 0 124.5 -43.5t45.5 -110.5q0 -60 -37 -99t-117 -87q-106 -63 -106 -131v-6h266v-66h-346z
" />
    <glyph glyph-name="three.numr" horiz-adv-x="573" 
d="M350 1186q46 -7 82.5 -41t36.5 -94q0 -69 -51 -113.5t-144 -44.5q-89 0 -140.5 48t-51.5 126h72q3 -111 125 -111q53 0 85.5 25.5t32.5 75.5q0 47 -34.5 71.5t-98.5 24.5h-22v55h22q55 0 83 26.5t28 63.5t-27 59.5t-74 22.5q-49 0 -77.5 -26t-28.5 -78h-68q0 79 47 123.5
t127 44.5q79 0 124.5 -40t45.5 -101q0 -44 -27 -75t-67 -42z" />
    <glyph glyph-name="four.numr" horiz-adv-x="538" 
d="M457 1036h-62v-135h-69v135h-244v58l244 342h69v-342h62v-58zM326 1094v252l-179 -252h179z" />
    <glyph glyph-name="five.numr" horiz-adv-x="501" 
d="M266 1260q72 0 123 -49t51 -132q0 -87 -52 -137.5t-140 -50.5q-86 0 -136.5 48.5t-50.5 125.5h68q2 -47 33 -78t86 -31t87 32t32 91q0 64 -34.5 93.5t-78.5 29.5q-69 0 -113 -53h-67l43 287h276v-64h-225l-25 -162q13 17 45.5 33.5t77.5 16.5z" />
    <glyph glyph-name="six.numr" horiz-adv-x="552" 
d="M295 1249q74 0 125 -43t51 -129q0 -94 -54.5 -141t-133.5 -47q-89 0 -145 65t-56 203q0 125 49 204t152 79q81 0 124.5 -44.5t45.5 -99.5h-64q-5 35 -30.5 58.5t-75.5 23.5q-41 0 -69 -19.5t-40 -54t-16.5 -63.5t-5.5 -67q15 29 54 52t89 23zM283 954q51 0 82.5 31
t31.5 94q0 56 -32 85.5t-82 29.5q-51 0 -86 -31.5t-35 -83.5q0 -57 34.5 -91t86.5 -34z" />
    <glyph glyph-name="seven.numr" horiz-adv-x="462" 
d="M401 1436v-64l-215 -471h-67l217 471h-295v64h360z" />
    <glyph glyph-name="eight.numr" horiz-adv-x="475" 
d="M330 1194q94 -45 94 -137q0 -72 -52.5 -116t-133.5 -44q-79 0 -133 44t-54 116q0 92 94 137q-63 42 -63 111q0 56 42 95.5t114 39.5q74 0 114.5 -39.5t40.5 -95.5q0 -72 -63 -111zM143 1305q0 -37 28.5 -61.5t66.5 -24.5q40 0 67 24t27 62q0 35 -23 57t-71 22
q-44 0 -69.5 -22.5t-25.5 -56.5zM238 954q56 0 87 27t31 76q0 50 -31.5 76t-86.5 26q-51 0 -86 -27t-35 -75q0 -46 35 -74.5t86 -28.5z" />
    <glyph glyph-name="nine.numr" horiz-adv-x="552" 
d="M258 1083q-74 0 -125 42.5t-51 127.5q0 94 54.5 141.5t133.5 47.5q89 0 145 -65t56 -201q0 -82 -19.5 -144t-65.5 -101.5t-116 -39.5q-81 0 -124.5 44t-45.5 101h64q5 -36 30.5 -60t75.5 -24q41 0 69 19.5t40 54.5t16.5 64.5t5.5 68.5q-15 -31 -53.5 -53.5t-89.5 -22.5z
M270 1376q-50 0 -82 -31t-32 -92q0 -57 31.5 -85.5t82.5 -28.5q52 0 86.5 30t34.5 82q0 57 -34.5 91t-86.5 34z" />
    <glyph glyph-name="ampersand.001" horiz-adv-x="1394" 
d="M1329 0h-184l-135 150q-172 -175 -426 -175q-220 0 -358 115.5t-138 290.5q0 74 23 134t72.5 111t102.5 89t136 86q-85 96 -133.5 180t-48.5 172q0 136 88.5 222.5t259.5 86.5q162 0 251 -86.5t89 -218.5q0 -116 -64.5 -199t-234.5 -182l360 -401q84 153 90 364h150
q-17 -292 -135 -479zM588 1337q-98 0 -154.5 -51t-56.5 -139q0 -64 41.5 -126.5t126.5 -152.5q131 74 187 137t56 144q0 85 -54 136.5t-146 51.5zM586 119q187 0 321 143l-399 445q-123 -71 -184.5 -149t-61.5 -173q0 -116 90 -191t234 -75z" />
    <glyph glyph-name="Aacutecy" horiz-adv-x="1402" 
d="M952 1821l-217 -262h-143l180 262h180zM1163 0l-139 367h-643l-139 -367h-185l570 1434h149l572 -1434h-185zM430 498h545l-273 714z" />
    <glyph glyph-name="Ieacutecy" horiz-adv-x="1130" 
d="M825 1821l-217 -262h-143l180 262h180zM289 152h780v-152h-950v1434h930v-150h-760v-477h657v-139h-657v-516z" />
    <glyph glyph-name="Iiacutecy" horiz-adv-x="1355" 
d="M569 1559h144l217 262h-180zM117 1434h172v-1172h4l758 1172h186v-1434h-170v1165h-6l-752 -1165h-192v1434z" />
    <glyph glyph-name="Oacutecy" horiz-adv-x="1464" 
d="M623 1559h143l217 262h-180zM733 1452q142 0 260 -47t204 -138t133.5 -231.5t47.5 -318.5t-47.5 -318t-133.5 -231t-204 -138.5t-260 -47.5q-143 0 -261 47.5t-203.5 138.5t-133 231t-47.5 318t47.5 318.5t133 231.5t203.5 138t261 47zM733 133q217 0 342 149t125 435
q0 288 -125 437t-342 149t-343 -149.5t-126 -436.5q0 -286 126 -435t343 -149z" />
    <glyph glyph-name="Uacutecy" horiz-adv-x="1157" 
d="M469 1559h143l217 262h-180zM915 1434h187l-479 -1143q-78 -184 -178 -256t-252 -53v157q109 -14 169.5 26t98.5 132q37 90 2 170l-406 967h185l336 -840z" />
    <glyph glyph-name="Yeruacutecy" horiz-adv-x="1589" 
d="M1047 1821l-218 -262h-143l180 262h181zM635 913q250 0 381 -119.5t131 -334.5q0 -218 -131 -338.5t-381 -120.5h-516v1434h170v-521h346zM1303 1434h170v-1434h-170v1434zM637 152q161 0 245.5 78t84.5 229q0 148 -84.5 225.5t-245.5 77.5h-348v-610h348z" />
    <glyph glyph-name="Ereversedacutecy" horiz-adv-x="1361" 
d="M932 1821l-217 -262h-144l181 262h180zM643 1452q137 0 251.5 -46.5t199.5 -136t132.5 -231t47.5 -321.5q0 -179 -47.5 -320.5t-132.5 -231t-199.5 -136.5t-251.5 -47q-215 0 -365.5 101t-189.5 282h172q89 -232 381 -232q197 0 321 138t134 397h-508v139h506
q-20 243 -141.5 369.5t-311.5 126.5q-289 0 -375 -232h-174q39 181 188 281t363 100z" />
    <glyph glyph-name="Iuacutecy" horiz-adv-x="1888" 
d="M1194 1821l-217 -262h-143l180 262h180zM1157 1452q142 0 260 -47t204 -138t133.5 -231.5t47.5 -318.5t-47.5 -318t-133.5 -231t-204 -138.5t-260 -47.5q-274 0 -447 168.5t-196 482.5h-225v-633h-170v1434h170v-660h225q15 329 188.5 503.5t454.5 174.5zM1157 133
q217 0 342 149t125 435q0 288 -125 437t-342 149t-343 -149.5t-126 -436.5q0 -286 126 -435t343 -149z" />
    <glyph glyph-name="Iaacutecy" horiz-adv-x="1277" 
d="M889 1821l-217 -262h-144l181 262h180zM1159 1434v-1434h-170v586h-454q-114 0 -185 -53.5t-71 -178.5v-114q0 -185 -41 -240h-170q41 55 41 240v118q0 127 53.5 200t175.5 108q-109 49 -169 139t-60 219q0 192 122.5 301t366.5 109h561zM989 725v559h-389
q-317 0 -317 -274q0 -136 77.5 -210.5t212.5 -74.5h416z" />
    <glyph glyph-name="aacutecy" 
d="M795 1452l-217 -262h-144l180 262h181zM971 184q0 -43 18 -62t60 -18v-100q-28 -12 -68 -12q-78 0 -119 35.5t-41 115.5v76q-11 -22 -28 -46.5t-52.5 -59.5t-78 -61.5t-107.5 -46t-139 -19.5q-155 0 -251.5 82t-96.5 235q0 137 91 210t283 103q235 33 310 56q34 11 55 22
v15q0 133 -63 187t-195 54q-232 0 -260 -159h-156q17 141 124 212.5t294 71.5q217 0 318.5 -94t101.5 -311v-486zM807 340v250q-13 -7 -29.5 -13.5t-42 -13t-43.5 -11t-55.5 -11.5t-53 -10t-62 -11t-58.5 -10q-128 -21 -180 -68.5t-52 -134.5q0 -90 59 -144t163 -54
q62 0 118 19.5t93.5 45.5t69.5 61t47 59t26 46z" />
    <glyph glyph-name="ieacutecy" horiz-adv-x="1103" 
d="M809 1452l-217 -262h-143l180 262h180zM1038 524q0 -33 -2 -51h-809q13 -183 104 -271.5t242 -88.5q100 0 165 29t112 96h151q-62 -131 -168.5 -191.5t-267.5 -60.5q-101 0 -189.5 33.5t-158 98t-109.5 171t-40 241.5q0 136 41.5 242.5t112 171t157.5 98t184 33.5
q98 0 182.5 -33t150.5 -98.5t104 -173t38 -246.5zM227 586h654q-3 175 -89 268.5t-229 93.5q-140 0 -231.5 -92t-104.5 -270z" />
    <glyph glyph-name="iiacutecy" horiz-adv-x="1189" 
d="M485 1190h144l217 262h-180zM119 1065h164v-848h4l606 848h178v-1065h-164v842h-4l-600 -842h-184v1065z" />
    <glyph glyph-name="oacutecy" horiz-adv-x="1122" 
d="M451 1190h143l217 262h-180zM561 1075q72 0 141.5 -20t134 -63.5t113 -106t78 -153.5t29.5 -200q0 -110 -29.5 -202t-78 -154.5t-113 -106t-134 -63.5t-141.5 -20t-141 20t-133 63.5t-112.5 106t-77.5 154.5t-29 202q0 135 44 242t116 171t157.5 97t175.5 33zM897 532
q0 102 -28 181.5t-76 127.5t-107 72.5t-125 24.5t-125 -24.5t-107 -72.5t-76 -127.5t-28 -181.5t28 -182.5t76 -129t107 -73t125 -24.5t125 24.5t107 73t76 129t28 182.5z" />
    <glyph glyph-name="uacutecy" 
d="M438 1190h144l217 262h-181zM883 1065h168l-459 -1143q-74 -185 -175.5 -256.5t-254.5 -52.5v143q110 -14 177 31.5t105 140.5q17 44 19 68t-10 55l-406 1014h170l330 -877z" />
    <glyph glyph-name="yeruacutecy" horiz-adv-x="1433" 
d="M967 1452l-217 -262h-144l180 262h181zM590 678q204 0 317 -89.5t113 -248.5q0 -162 -112.5 -251t-317.5 -89h-471v1065h164v-387h307zM1153 1065h164v-1065h-164v1065zM592 133q268 0 268 207t-268 207h-309v-414h309z" />
    <glyph glyph-name="ereversedacutecy" horiz-adv-x="1075" 
d="M788 1452l-217 -262h-143l180 262h180zM512 1075q75 0 145.5 -19.5t134.5 -63t111.5 -106t76 -154t28.5 -202.5q0 -137 -43 -244.5t-115 -171t-158.5 -96t-181.5 -32.5q-77 0 -144 17.5t-127.5 55t-105.5 104.5t-67 159h151q36 -101 106.5 -150t184.5 -49q139 0 235.5 95
t106.5 276h-369v106h365q-18 166 -111 253t-225 87q-216 0 -285 -192h-151q22 89 66 154t103.5 102t125.5 54t143 17z" />
    <glyph glyph-name="iuacutecy" horiz-adv-x="1484" 
d="M993 1452l-217 -262h-143l180 262h180zM924 1075q72 0 141 -20t133.5 -63.5t113.5 -106t78 -153.5t29 -200q0 -110 -29 -202t-78 -154.5t-113.5 -106t-133.5 -63.5t-141 -20q-67 0 -132 17.5t-126.5 56t-110 93.5t-81.5 135.5t-42 176.5h-149v-467h-164v1065h164v-465
h149q8 96 41 176t81.5 135t110 93t127 55.5t132.5 17.5zM924 123q66 0 125 24.5t107 73t76 129t28 182.5t-28 181.5t-76 127.5t-107 72.5t-125 24.5t-125 -24.5t-107 -72.5t-76 -127.5t-28 -181.5t28 -182.5t76 -129t107 -73t125 -24.5z" />
    <glyph glyph-name="iaacutecy" horiz-adv-x="1099" 
d="M801 1452l-217 -262h-144l181 262h180zM981 1065v-1065h-164v387h-391q-92 0 -131 -31.5t-39 -103.5v-92q0 -73 -6.5 -105.5t-24.5 -54.5h-164q18 22 24.5 54.5t6.5 105.5v92q0 77 30 126.5t107 72.5q-149 88 -149 274q0 162 112.5 251t317.5 89h471zM817 518v414h-309
q-268 0 -268 -207t268 -207h309z" />
    </font>
</defs>
</svg>
