<?xml version="1.0" standalone="no"?>
<!DOCTYPE svg PUBLIC "-//W3C//DTD SVG 1.1//EN" "http://www.w3.org/Graphics/SVG/1.1/DTD/svg11.dtd" >
<svg xmlns="http://www.w3.org/2000/svg" xmlns:xlink="http://www.w3.org/1999/xlink" version="1.1">
<metadata>
Created by FontForge 20170731 at Mon Aug  7 16:11:16 2023
 By Aleksey,,,
(c) 2017 Connary Fagen
</metadata>
<defs>
<font id="ArticulatCF-RegularOblique" horiz-adv-x="1126" >
  <font-face 
    font-family="Articulat CF"
    font-weight="400"
    font-style="oblique"
    font-stretch="normal"
    units-per-em="2048"
    panose-1="0 0 5 0 0 0 0 0 0 0"
    ascent="1638"
    descent="-410"
    x-height="1065"
    cap-height="1434"
    bbox="-442 -625 2253 1909"
    underline-thickness="102"
    underline-position="-307"
    slope="-9"
    unicode-range="U+0020-FB02"
  />
<missing-glyph horiz-adv-x="1044" 
d="M856 1638v-2089h-661v2089h661zM696 1499h-346v-69h137v-78h-139v-68h348v68h-139v78h139v69zM557 1229h-209v-217h348v71h-139v146zM487 1157v-74h-69v74h69zM696 954h-348v-67h139v-78h-139v-70h209v148h139v67zM696 829h-69v-137h-279v-71h348v208zM696 575h-209v-116
h70v47h70v-98h-209v167h-70v-235h348v235zM696 213h-348v-236h348v236zM627 145v-98h-209v98h209zM696 -70h-348v-69h148l-148 -99v-69h348v69h-213l146 99h67v69z" />
    <glyph glyph-name="fi" unicode="fi" horiz-adv-x="1067" 
d="M426 1174l-16 -109h260l-21 -131h-260l-147 -934h-164l147 934h-159l18 131h162l18 113q11 72 36 125t55.5 83.5t72 49t79.5 24.5t85 6q86 0 151 -18l-22 -125q-53 12 -121 12q-79 0 -120 -36.5t-54 -124.5zM930 1452h164l-25 -152h-162zM702 0l168 1065h164l-168 -1065
h-164z" />
    <glyph glyph-name="fl" unicode="fl" horiz-adv-x="1091" 
d="M600 1335q-79 0 -120 -36.5t-54 -124.5l-16 -109h260l-21 -131h-260l-147 -934h-164l147 934h-159l18 131h162l18 113q11 72 36 125t55.5 83.5t72 49t79.5 24.5t85 6q86 0 151 -18l-22 -125q-53 12 -121 12zM948 1434h164l-225 -1434h-164z" />
    <glyph glyph-name=".notdef" horiz-adv-x="1044" 
d="M856 1638v-2089h-661v2089h661zM696 1499h-346v-69h137v-78h-139v-68h348v68h-139v78h139v69zM557 1229h-209v-217h348v71h-139v146zM487 1157v-74h-69v74h69zM696 954h-348v-67h139v-78h-139v-70h209v148h139v67zM696 829h-69v-137h-279v-71h348v208zM696 575h-209v-116
h70v47h70v-98h-209v167h-70v-235h348v235zM696 213h-348v-236h348v236zM627 145v-98h-209v98h209zM696 -70h-348v-69h148l-148 -99v-69h348v69h-213l146 99h67v69z" />
    <glyph glyph-name=".null" horiz-adv-x="0" 
 />
    <glyph glyph-name="nonmarkingreturn" horiz-adv-x="682" 
 />
    <glyph glyph-name="space" unicode=" " horiz-adv-x="559" 
 />
    <glyph glyph-name="exclam" unicode="!" horiz-adv-x="438" 
d="M260 399h-166l156 1035h180zM53 211h191l-33 -211h-191z" />
    <glyph glyph-name="quotedbl" unicode="&#x22;" horiz-adv-x="641" 
d="M166 1044h164l59 390h-164zM475 1044h164l61 390h-163z" />
    <glyph glyph-name="numbersign" unicode="#" horiz-adv-x="1191" 
d="M1149 911h-219l-99 -389h205l-22 -131h-217l-101 -391h-127l101 391h-299l-101 -391h-127l101 391h-205l22 131h218l98 389h-203l23 131h215l100 392h127l-100 -392h299l100 392h127l-100 -392h206zM705 522l98 389h-299l-98 -389h299z" />
    <glyph glyph-name="dollar" unicode="$" horiz-adv-x="1243" 
d="M1014 1071q-2 96 -60 158.5t-180 75.5l-80 -502l66 -15q189 -39 281 -118.5t92 -231.5q0 -138 -73.5 -241t-201.5 -157t-295 -58l-26 -166h-99l27 170q-211 18 -316 134.5t-96 297.5h176q4 -256 260 -285l86 545l-63 14q-328 69 -328 332q0 187 135 304t379 124l27 166
h98l-26 -168q196 -15 296.5 -115t94.5 -264h-174zM571 829l27 -6l78 482q-151 -9 -232.5 -81.5t-81.5 -181.5q0 -86 49 -138t160 -75zM713 649l-43 8l-84 -528q166 8 265 87t99 208q0 52 -17 90.5t-51 64t-73.5 41.5t-95.5 29z" />
    <glyph glyph-name="percent" unicode="%" horiz-adv-x="1464" 
d="M381 817q-105 0 -166 65t-61 185q0 157 84.5 267t224.5 110q102 0 164.5 -65.5t62.5 -184.5q0 -155 -85.5 -266t-223.5 -111zM141 0l1071 1438l127 -4l-1067 -1434h-131zM387 930q90 0 141.5 76.5t51.5 179.5q0 72 -34 109.5t-93 37.5q-61 0 -106 -39.5t-65 -97.5
t-20 -123q0 -70 34 -106.5t91 -36.5zM1020 -10q-105 0 -166 65t-61 185q0 157 84.5 266.5t224.5 109.5q102 0 164.5 -65t62.5 -184q0 -155 -85.5 -266t-223.5 -111zM1026 102q90 0 141.5 76.5t51.5 179.5q0 72 -34 110t-93 38q-61 0 -106 -39.5t-65 -97.5t-20 -123
q0 -70 34 -107t91 -37z" />
    <glyph glyph-name="ampersand" unicode="&#x26;" horiz-adv-x="1378" 
d="M1231 741q-55 -297 -209 -489l190 -252h-180l-108 147q-197 -172 -453 -172q-202 0 -321 101t-119 262q0 70 22 130.5t54.5 104t89.5 88.5t108 75t129 71q-63 87 -98 160.5t-35 152.5q0 148 107.5 245t285.5 97q149 0 229.5 -74t80.5 -192q0 -59 -18 -110.5t-47.5 -92
t-79.5 -82t-100.5 -73.5t-123.5 -72l299 -397q113 154 149 372h148zM680 1333q-105 0 -172.5 -60t-67.5 -153q0 -57 29 -115t86 -135q59 30 98.5 53t83 54.5t69 61t42 67.5t16.5 80q0 69 -48.5 108t-135.5 39zM487 119q89 0 181 37t170 106l-326 440q-151 -80 -229 -161
t-78 -189q0 -107 75 -170t207 -63z" />
    <glyph glyph-name="quotesingle" unicode="'" horiz-adv-x="329" 
d="M166 1044h164l59 390h-164z" />
    <glyph glyph-name="parenleft" unicode="(" horiz-adv-x="536" 
d="M434 1526h158q-268 -384 -348 -881q-83 -526 61 -911h-149q-156 399 -72 932q81 507 350 860z" />
    <glyph glyph-name="parenright" unicode=")" horiz-adv-x="536" 
d="M371 1526q161 -370 82 -881q-87 -536 -361 -911h-158q274 410 357 932q78 490 -68 860h148z" />
    <glyph glyph-name="asterisk" unicode="*" horiz-adv-x="962" 
d="M879 1157l-234 -61l117 -193l-127 -76l-107 189l-157 -189l-111 76l176 195l-213 59l56 135l219 -67l30 237h140l-41 -237l239 67zM584 1126l-4 35h-54l-16 -39l31 -28z" />
    <glyph glyph-name="plus" unicode="+" horiz-adv-x="999" 
d="M956 651l-22 -145h-363l-57 -365h-154l58 365h-361l23 145h360l58 361h153l-57 -361h362z" />
    <glyph glyph-name="comma" unicode="," horiz-adv-x="382" 
d="M-29 -297l11 55q49 21 73 62.5t35 116.5l8 63h-80l33 209h197l-41 -260q-38 -242 -236 -246z" />
    <glyph glyph-name="hyphen" unicode="-" horiz-adv-x="880" 
d="M80 633h696l-20 -119h-697z" />
    <glyph glyph-name="period" unicode="." horiz-adv-x="376" 
d="M53 211h191l-33 -211h-191z" />
    <glyph glyph-name="slash" unicode="/" horiz-adv-x="872" 
d="M913 1434l-780 -1432h-166l783 1432h163z" />
    <glyph glyph-name="zero" unicode="0" horiz-adv-x="1271" 
d="M752 1448q211 0 339 -140t128 -403q0 -138 -28.5 -271t-86.5 -250t-138 -206t-191 -140.5t-238 -51.5q-209 0 -337 138.5t-128 399.5q0 139 28.5 273t86 251.5t137.5 207t190.5 141t237.5 51.5zM1055 905q0 191 -81 295.5t-231 104.5q-121 0 -220 -68.5t-160 -180.5
t-94 -248t-33 -278q0 -194 80 -297.5t229 -103.5q98 0 182.5 45t143.5 121t101.5 176.5t62.5 210.5t20 223z" />
    <glyph glyph-name="one" unicode="1" horiz-adv-x="622" 
d="M631 1434l-225 -1434h-164l192 1206q-49 -47 -122 -78t-158 -30l18 137q98 7 179 64t116 135h164z" />
    <glyph glyph-name="two" unicode="2" horiz-adv-x="1103" 
d="M-12 0l8 51q28 203 140 342.5t362 274.5q174 95 234 138q148 106 172 233q5 28 5 57q0 99 -70.5 155t-183.5 56q-133 0 -227.5 -78t-118.5 -225h-157q31 205 166.5 324.5t349.5 119.5q194 0 299.5 -95.5t105.5 -248.5q0 -67 -15 -124t-52.5 -107.5t-69.5 -85.5
t-98.5 -79.5t-105 -67.5t-121.5 -70q-15 -9 -23 -13q-93 -52 -155.5 -94t-119.5 -93t-87.5 -106t-35.5 -117l-2 -12h750l-20 -135h-930z" />
    <glyph glyph-name="three" unicode="3" horiz-adv-x="1179" 
d="M813 772q109 -17 188.5 -97t79.5 -212q0 -144 -77.5 -256.5t-209 -172t-292.5 -59.5q-236 0 -357 133.5t-84 352.5h150q-23 -158 57.5 -250t241.5 -92q173 0 291.5 97t118.5 253q0 114 -87.5 176t-254.5 62h-54l19 116h45q170 0 267 85.5t97 205.5q0 90 -69 142.5
t-183 52.5q-137 0 -234 -80.5t-122 -241.5h-151q33 227 170 346t346 119q187 0 294 -92t107 -232q0 -126 -79 -222t-218 -134z" />
    <glyph glyph-name="four" unicode="4" horiz-adv-x="1146" 
d="M1020 381h-164l-59 -381h-164l59 381h-661l18 135l807 918h166l-143 -918h163zM715 516l114 715l-628 -715h514z" />
    <glyph glyph-name="five" unicode="5" horiz-adv-x="1189" 
d="M670 975q181 0 295 -109t114 -297q0 -170 -73 -304t-207 -209.5t-305 -75.5q-216 0 -341 128.5t-92 325.5h148q-19 -141 63 -226t230 -85q183 0 299.5 126t116.5 312q0 133 -82.5 205t-198.5 72q-192 0 -342 -150h-158l230 746h733l-23 -138h-618l-146 -469
q58 63 152 105.5t205 42.5z" />
    <glyph glyph-name="six" unicode="6" horiz-adv-x="1206" 
d="M690 950q111 0 201.5 -42.5t147.5 -133t57 -215.5q0 -161 -73 -293.5t-205 -209t-296 -76.5q-109 0 -191.5 36t-131 100.5t-75.5 154.5t-26.5 198t17.5 231q19 122 50.5 227t83.5 203t120 167t164.5 110t211.5 41q105 0 186 -32t126 -84.5t66 -114.5t16 -127h-142
q3 103 -65 168t-189 65q-93 0 -169 -37t-126 -96t-88 -142t-58.5 -163t-33.5 -172q52 109 163 173t259 64zM530 119q180 0 293 125.5t113 308.5q0 130 -76 203t-205 73q-169 0 -284 -120t-115 -289q0 -136 74.5 -218.5t199.5 -82.5z" />
    <glyph glyph-name="seven" unicode="7" horiz-adv-x="1001" 
d="M1038 1434l-18 -144q-513 -636 -709 -1290h-168q213 691 717 1296h-696l20 138h854z" />
    <glyph glyph-name="eight" unicode="8" horiz-adv-x="1187" 
d="M836 799q108 -42 171.5 -123.5t63.5 -196.5q0 -145 -78 -260t-209 -177t-288 -62q-201 0 -329 100.5t-128 275.5q0 159 93 276t257 175q-71 39 -112 103.5t-41 144.5q0 168 132.5 280.5t336.5 112.5q180 0 280 -85t100 -218q0 -110 -66 -201.5t-183 -144.5zM698 1315
q-143 0 -229 -74.5t-86 -191.5q0 -87 61.5 -144t171.5 -57q137 0 227.5 81.5t90.5 200.5q0 83 -61.5 134t-174.5 51zM500 125q171 0 287 103.5t116 260.5q0 115 -82 181.5t-213 66.5q-173 0 -287 -102t-114 -260q0 -111 79.5 -180.5t213.5 -69.5z" />
    <glyph glyph-name="nine" unicode="9" horiz-adv-x="1206" 
d="M553 477q-111 0 -201.5 42.5t-147.5 133t-57 215.5q0 121 43 228t118.5 184.5t182.5 122.5t230 45q109 0 191.5 -36t131 -101t75.5 -155t26.5 -198t-17.5 -231q-19 -122 -50.5 -227t-83.5 -202.5t-120 -166.5t-164.5 -110t-211.5 -41q-105 0 -186 32t-126 84.5t-66 114.5
t-16 127h142q-3 -103 65 -168.5t189 -65.5q93 0 169 37.5t126 96t88 141.5t58.5 163.5t33.5 172.5q-52 -109 -163 -173.5t-259 -64.5zM713 1309q-180 0 -293 -126t-113 -309q0 -130 76 -203t205 -73q169 0 284 120.5t115 289.5q0 136 -74.5 218.5t-199.5 82.5z" />
    <glyph glyph-name="colon" unicode=":" horiz-adv-x="376" 
d="M188 1065h191l-33 -209h-190zM53 211h191l-33 -211h-191z" />
    <glyph glyph-name="semicolon" unicode=";" horiz-adv-x="382" 
d="M188 1065h191l-33 -209h-190zM-29 -297l11 55q49 21 73 62.5t35 116.5l8 63h-80l33 209h197l-41 -260q-38 -242 -236 -246z" />
    <glyph glyph-name="less" unicode="&#x3c;" horiz-adv-x="1019" 
d="M858 160l-655 334l762 333l24 160l-919 -416l-25 -155l789 -416z" />
    <glyph glyph-name="equal" unicode="=" horiz-adv-x="878" 
d="M104 797h754l-18 -119h-754zM53 469h752l-19 -119h-751z" />
    <glyph glyph-name="greater" unicode="&#x3e;" horiz-adv-x="1019" 
d="M4 160l-27 -160l920 416l25 155l-787 416l-26 -160l657 -333z" />
    <glyph glyph-name="question" unicode="?" horiz-adv-x="1077" 
d="M662 1448q-221 0 -357 -117.5t-170 -341.5h160q27 156 117 236t225 80q134 0 194.5 -66.5t40.5 -187.5q-8 -48 -34 -88t-62.5 -69.5t-79 -59t-86 -63t-81.5 -73.5t-67.5 -99t-41.5 -132l-12 -68h176l10 68q10 61 37 110.5t63 84t78.5 65t85 62.5t79 68t64.5 90t39 120
q28 181 -77.5 281t-300.5 100zM379 211h190l-30 -211h-191z" />
    <glyph glyph-name="at" unicode="@" horiz-adv-x="1560" 
d="M1178 338q-99 0 -149 61t-42 140q-40 -93 -120.5 -148t-168.5 -55q-112 0 -192 76t-80 221q0 181 107.5 309.5t267.5 128.5q90 0 154 -59t55 -138l28 179h113q-12 -77 -24 -151t-18.5 -116t-13 -82t-9.5 -59.5t-5.5 -36.5t-3 -25t-0.5 -14q0 -120 101 -120q67 0 116.5 63
t72 150t22.5 180q0 224 -138 357.5t-354 133.5q-196 0 -358.5 -100t-254 -267.5t-91.5 -363.5q0 -115 39.5 -210.5t108 -158t159 -97t192.5 -34.5q207 0 365 117l131 -47q-211 -186 -494 -186q-172 0 -311 73t-222 214t-83 327q0 171 65 328t175 271t261.5 181.5t317.5 67.5
q126 0 236.5 -43.5t192 -121t128.5 -193t47 -252.5q0 -126 -36 -238t-111.5 -187t-175.5 -75zM711 449q114 0 189 97.5t75 223.5q0 88 -47 138t-125 50q-113 0 -187.5 -93.5t-74.5 -221.5q0 -91 49.5 -142.5t120.5 -51.5z" />
    <glyph glyph-name="A" unicode="A" horiz-adv-x="1392" 
d="M1063 0l-80 367h-643l-197 -367h-186l793 1434h155l342 -1434h-184zM412 498h542l-157 714z" />
    <glyph glyph-name="B" unicode="B" horiz-adv-x="1265" 
d="M897 782q123 -32 188.5 -114t65.5 -201q0 -151 -75 -257.5t-204.5 -158t-302.5 -51.5h-551l228 1434h534q195 0 292 -79t97 -216q0 -129 -72 -223t-200 -134zM768 1288h-373l-71 -450h372q130 0 212.5 79t82.5 201q0 79 -54.5 124.5t-168.5 45.5zM586 145q177 0 282 86.5
t105 241.5q0 105 -75 167t-224 62h-373l-88 -557h373z" />
    <glyph glyph-name="C" unicode="C" horiz-adv-x="1325" 
d="M629 133q292 0 415 232h173q-69 -182 -235 -282.5t-380 -100.5q-243 0 -385.5 142t-142.5 415q0 145 32 279.5t97 249.5t155.5 201t214 134.5t265.5 48.5q213 0 345 -100t142 -281h-170q-22 110 -107 171t-231 61q-107 0 -199.5 -42.5t-158.5 -115.5t-113.5 -169
t-70.5 -204t-23 -219q0 -208 100.5 -314t276.5 -106z" />
    <glyph glyph-name="D" unicode="D" horiz-adv-x="1318" 
d="M684 1434q288 0 437 -143.5t149 -413.5q0 -260 -92.5 -457t-275.5 -308.5t-435 -111.5h-447l226 1434h438zM467 158q156 0 278 53.5t199.5 150t117.5 228t40 291.5q0 203 -110.5 300t-336.5 97h-262l-176 -1120h250z" />
    <glyph glyph-name="E" unicode="E" 
d="M1153 1284h-760l-76 -477h658l-23 -139h-657l-82 -516h780l-24 -152h-951l228 1434h930z" />
    <glyph glyph-name="F" unicode="F" horiz-adv-x="1107" 
d="M1155 1284h-762l-78 -498h627l-22 -141h-627l-103 -645h-172l228 1434h932z" />
    <glyph glyph-name="G" unicode="G" horiz-adv-x="1368" 
d="M795 735h524l-14 -82q-109 -671 -697 -671q-247 0 -390.5 141t-143.5 412q0 146 32 281.5t96.5 251t155 201.5t214 134.5t266.5 48.5q213 0 345 -100t142 -281h-170q-22 110 -107 171t-231 61q-108 0 -201 -42.5t-159 -115t-113 -168.5t-69.5 -204.5t-22.5 -221.5
q0 -207 101.5 -312.5t279.5 -105.5q209 0 338 117t170 346h-369z" />
    <glyph glyph-name="H" unicode="H" horiz-adv-x="1329" 
d="M1169 1434h170l-227 -1434h-170l100 633h-751l-101 -633h-172l228 1434h172l-105 -660h752z" />
    <glyph glyph-name="I" unicode="I" horiz-adv-x="409" 
d="M193 0h-173l226 1434h172z" />
    <glyph glyph-name="J" unicode="J" horiz-adv-x="1034" 
d="M84 274q88 -135 287 -135q62 0 115 17.5t102.5 56.5t85 111.5t51.5 173.5l149 936h170l-149 -942q-21 -136 -73 -236.5t-125.5 -158t-158 -84.5t-182.5 -27q-266 0 -385 182z" />
    <glyph glyph-name="K" unicode="K" horiz-adv-x="1308" 
d="M1346 1434l-707 -662l535 -772h-195l-461 657l-262 -245l-66 -412h-172l228 1434h172l-125 -789l848 789h205z" />
    <glyph glyph-name="L" unicode="L" horiz-adv-x="1120" 
d="M215 152h731l-24 -152h-904l228 1434h172z" />
    <glyph glyph-name="M" unicode="M" horiz-adv-x="1697" 
d="M246 1434h190l350 -1217l719 1217h203l-227 -1434h-170l176 1118h-6l-652 -1118h-139l-317 1118h-6l-177 -1118h-172z" />
    <glyph glyph-name="N" unicode="N" horiz-adv-x="1355" 
d="M1366 1434l-227 -1434h-185l-575 1165h-4l-185 -1165h-172l228 1434h180l580 -1172h4l186 1172h170z" />
    <glyph glyph-name="O" unicode="O" horiz-adv-x="1447" 
d="M850 1452q250 0 396.5 -144t146.5 -409q0 -147 -34 -284t-100.5 -251.5t-159.5 -200t-217.5 -133.5t-267.5 -48q-249 0 -395.5 144.5t-146.5 408.5q0 148 33.5 285t100 251.5t159 199.5t217.5 133t268 48zM635 133q110 0 205 42t163 114t116 168t71.5 205.5t23.5 224.5
q0 202 -102 307.5t-285 105.5q-110 0 -205 -42t-162.5 -114t-115.5 -168.5t-71 -206t-23 -224.5q0 -201 101.5 -306.5t283.5 -105.5z" />
    <glyph glyph-name="P" unicode="P" horiz-adv-x="1234" 
d="M762 1434q221 0 333.5 -96t112.5 -275q0 -257 -160.5 -405t-431.5 -148h-346l-80 -510h-172l228 1434h516zM639 659q182 0 284.5 103t102.5 278q0 120 -72 182t-213 62h-348l-98 -625h344z" />
    <glyph glyph-name="Q" unicode="Q" horiz-adv-x="1447" 
d="M1393 899q0 -202 -63 -380.5t-181 -305.5l123 -145l-113 -99l-121 146q-185 -133 -424 -133q-249 0 -395.5 144.5t-146.5 408.5q0 148 33.5 285t100 251.5t159 199.5t217.5 133t268 48q250 0 396.5 -144t146.5 -409zM635 133q171 0 303 98l-227 273l112 96l221 -262
q83 105 126.5 248.5t43.5 300.5q0 202 -102 307.5t-285 105.5q-110 0 -205 -42t-162.5 -114t-115.5 -168.5t-71 -206t-23 -224.5q0 -201 101.5 -306.5t283.5 -105.5z" />
    <glyph glyph-name="R" unicode="R" horiz-adv-x="1282" 
d="M940 666q98 -26 145.5 -82.5t47.5 -147.5q0 -34 -19.5 -170t-19.5 -176q0 -60 18 -90h-170q-20 29 -20 90q0 42 19.5 165t19.5 159q0 92 -61.5 132t-162.5 40h-454l-93 -586h-172l228 1434h563q216 0 323 -86.5t107 -241.5q0 -156 -80 -271.5t-219 -168.5zM721 725
q156 0 249 100.5t93 247.5q0 211 -279 211h-391l-88 -559h416z" />
    <glyph glyph-name="S" unicode="S" horiz-adv-x="1245" 
d="M760 788q189 -39 281 -118.5t92 -231.5q0 -141 -76.5 -245.5t-209.5 -157.5t-306 -53q-248 0 -373.5 119.5t-114.5 316.5h176q4 -289 328 -289q178 0 285.5 79.5t107.5 215.5q0 52 -17 90.5t-51 64t-73.5 41.5t-95.5 29l-201 43q-328 69 -328 332q0 193 144 310.5
t403 117.5q227 0 345 -102t112 -279h-174q-2 107 -73.5 171.5t-225.5 64.5q-170 0 -261.5 -74.5t-91.5 -190.5q0 -86 49 -138t160 -75z" />
    <glyph glyph-name="T" unicode="T" horiz-adv-x="1187" 
d="M1260 1434l-25 -150h-451l-204 -1284h-170l202 1284h-450l22 150h1076z" />
    <glyph glyph-name="U" unicode="U" horiz-adv-x="1339" 
d="M1350 1434l-140 -883q-42 -264 -214.5 -413.5t-426.5 -149.5t-379 149.5t-84 413.5l140 883h172l-139 -875q-32 -201 49 -310.5t264 -109.5q182 0 299 109.5t149 310.5l138 875h172z" />
    <glyph glyph-name="V" unicode="V" horiz-adv-x="1411" 
d="M1290 1434h183l-785 -1434h-166l-338 1434h174l277 -1215z" />
    <glyph glyph-name="W" unicode="W" horiz-adv-x="2054" 
d="M1935 1434h181l-641 -1434h-162l-199 1188l-577 -1188h-162l-191 1434h178l138 -1180l561 1180h176l182 -1180z" />
    <glyph glyph-name="X" unicode="X" horiz-adv-x="1288" 
d="M1358 1434l-594 -697l399 -737h-190l-326 602l-514 -602h-196l634 743l-374 691h190l301 -555l473 555h197z" />
    <glyph glyph-name="Y" unicode="Y" horiz-adv-x="1345" 
d="M756 561l-88 -561h-174l88 561l-398 873h191l309 -707l528 707h195z" />
    <glyph glyph-name="Z" unicode="Z" horiz-adv-x="1228" 
d="M1085 152l-24 -152h-1084l21 139l1057 1145h-850l22 150h1053l-23 -140l-1052 -1142h880z" />
    <glyph glyph-name="bracketleft" unicode="[" horiz-adv-x="573" 
d="M401 1382l-239 -1505h174l-23 -143h-338l285 1792h338l-23 -144h-174z" />
    <glyph glyph-name="backslash" unicode="\" horiz-adv-x="872" 
d="M195 1434h161l330 -1432h-160z" />
    <glyph glyph-name="bracketright" unicode="]" horiz-adv-x="575" 
d="M412 1382h-174l24 144h338l-285 -1792h-340l23 143h176z" />
    <glyph glyph-name="asciicircum" unicode="^" horiz-adv-x="983" 
d="M797 952l-205 373l-326 -373h-139l422 482h108l269 -482h-129z" />
    <glyph glyph-name="underscore" unicode="_" horiz-adv-x="1208" 
d="M-20 0h1024l-23 -143h-1026z" />
    <glyph glyph-name="grave" unicode="`" horiz-adv-x="407" 
d="M512 1190l-133 262h-234l224 -262h143z" />
    <glyph glyph-name="a" unicode="a" 
d="M985 680l-78 -504q-6 -42 11.5 -59t62.5 -15l-16 -100q-34 -10 -72 -10q-80 0 -118 39t-23 116l12 64q-13 -21 -33.5 -45t-60 -57.5t-85 -59.5t-112 -44.5t-137.5 -18.5q-144 0 -231 71t-87 203q0 84 29.5 145.5t87 101t129.5 62.5t170 37q16 2 66 9t74.5 10.5t69 10.5
t71.5 13t58 15t52 18l2 10q24 141 -30 198.5t-189 57.5q-121 0 -187 -40t-95 -120h-158q41 148 149.5 217.5t300.5 69.5q221 0 310 -95t57 -300zM768 340l41 240q-20 -8 -48 -16t-70 -16t-71.5 -13.5t-90.5 -15.5t-89 -15q-133 -22 -195.5 -74t-62.5 -151q0 -80 51.5 -125
t143.5 -45q77 0 148 27t119.5 67.5t78 74.5t45.5 62z" />
    <glyph glyph-name="b" unicode="b" horiz-adv-x="1165" 
d="M702 1075q79 0 148.5 -26t124 -76.5t86 -134t31.5 -189.5q0 -175 -68 -325.5t-196.5 -244t-290.5 -93.5q-135 0 -218 66t-108 173l-37 -225h-164l226 1434h163l-90 -572q65 100 165.5 156.5t227.5 56.5zM512 123q99 0 180.5 44t133 118t79 166t27.5 192q0 147 -78 222
t-197 75q-97 0 -177 -43t-131.5 -115.5t-79 -164.5t-27.5 -193q0 -146 75 -223.5t195 -77.5z" />
    <glyph glyph-name="c" unicode="c" horiz-adv-x="1062" 
d="M469 123q116 0 191.5 49t123.5 145h156q-133 -331 -479 -331q-87 0 -162.5 26t-135.5 77t-95 136t-35 193q0 134 42.5 254.5t118 209.5t185 141t237.5 52q351 0 392 -334h-150q-19 104 -77.5 151.5t-170.5 47.5q-96 0 -176.5 -45.5t-132 -119.5t-80 -166.5t-28.5 -188.5
q0 -146 77 -221.5t199 -75.5z" />
    <glyph glyph-name="d" unicode="d" horiz-adv-x="1153" 
d="M586 1075q133 0 219 -65t110 -168l95 592h164l-228 -1434h-164l35 205q-65 -104 -162.5 -161.5t-222.5 -57.5q-80 0 -150.5 26.5t-127 77.5t-89 134.5t-32.5 189.5q0 176 68 326.5t196 242.5t289 92zM469 123q129 0 225.5 74t143.5 189t47 251q0 150 -76.5 226.5
t-194.5 76.5q-100 0 -181.5 -44t-132.5 -117.5t-78 -165.5t-27 -193q0 -146 77 -221.5t197 -75.5z" />
    <glyph glyph-name="e" unicode="e" horiz-adv-x="1101" 
d="M1008 469h-818q-2 -16 -2 -47q0 -157 79.5 -233t215.5 -76q100 0 167 28.5t126 94.5h160q-85 -133 -197.5 -191.5t-271.5 -58.5q-91 0 -168.5 27t-137.5 79.5t-94 136.5t-34 191q0 181 73.5 330.5t208.5 237t303 87.5q180 0 296 -109.5t116 -316.5q0 -36 -6.5 -94
t-15.5 -86zM606 948q-155 0 -259 -104t-140 -264h661q11 40 11 88q0 133 -75.5 206.5t-197.5 73.5z" />
    <glyph glyph-name="f" unicode="f" horiz-adv-x="684" 
d="M600 1335q-79 0 -120 -36.5t-54 -124.5l-16 -109h260l-21 -131h-260l-147 -934h-164l147 934h-159l18 131h162l18 113q11 72 36 125t55.5 83.5t72 49t79.5 24.5t85 6q86 0 151 -18l-22 -125q-53 12 -121 12z" />
    <glyph glyph-name="g" unicode="g" horiz-adv-x="1153" 
d="M1114 1065l-168 -1063q-71 -453 -565 -453q-148 0 -255 57.5t-146 153.5l110 58q33 -61 109 -96t184 -35q173 0 272 76.5t129 254.5l33 187q-137 -217 -385 -217q-80 0 -150.5 26t-127 76.5t-89 134t-32.5 189.5q0 174 68 324t196 243.5t289 93.5q134 0 220 -65t109 -168
l35 223h164zM469 125q129 0 225.5 74.5t143.5 190t47 249.5q0 149 -76.5 225t-196.5 76q-99 0 -180 -45t-132 -119.5t-78 -166t-27 -189.5q0 -146 77 -220.5t197 -74.5z" />
    <glyph glyph-name="h" unicode="h" horiz-adv-x="1138" 
d="M715 1075q67 0 121 -13.5t99.5 -44.5t70.5 -80.5t35 -122t-7 -169.5l-102 -645h-164l102 649q25 156 -33 221.5t-182 65.5q-74 0 -141 -28.5t-112.5 -73t-76.5 -89t-46 -86.5l-105 -659h-164l226 1434h163l-96 -609q11 25 34 56t61.5 65.5t84 63t107 47t125.5 18.5z" />
    <glyph glyph-name="i" unicode="i" horiz-adv-x="374" 
d="M215 1300l23 152h163l-24 -152h-162zM178 1065h164l-168 -1065h-164z" />
    <glyph glyph-name="j" unicode="j" horiz-adv-x="430" 
d="M248 1300l24 152h162l-22 -152h-164zM-283 -262q70 -43 148 -43q130 0 158 180l188 1190h164l-195 -1231q-24 -152 -98.5 -218.5t-194.5 -66.5q-114 0 -194 54z" />
    <glyph glyph-name="k" unicode="k" horiz-adv-x="1093" 
d="M1079 1065l-544 -481l438 -584h-180l-371 483l-199 -176l-49 -307h-164l226 1434h163l-145 -924l623 555h202z" />
    <glyph glyph-name="l" unicode="l" horiz-adv-x="380" 
d="M236 1434h163l-225 -1434h-164z" />
    <glyph glyph-name="m" unicode="m" horiz-adv-x="1818" 
d="M1409 1075q80 0 141 -23t106.5 -74.5t58.5 -135.5t-3 -205l-100 -637h-164l102 641q25 159 -28 227t-166 68q-71 0 -138 -30t-113 -76t-76.5 -95t-39.5 -92l-102 -643h-164l102 641q46 295 -194 295q-70 0 -135.5 -30t-110.5 -75.5t-75 -91.5t-44 -86l-104 -653h-164
l168 1065h164l-39 -240q12 25 34 55.5t58.5 65.5t80 63t101.5 47t119 19q131 0 214.5 -62.5t96.5 -195.5q52 101 164.5 179.5t249.5 78.5z" />
    <glyph glyph-name="n" unicode="n" 
d="M702 1075q85 0 149 -22.5t111.5 -73.5t61.5 -134t-2 -204l-102 -641h-164l102 645q49 291 -215 291q-74 0 -141 -29t-113 -74.5t-77 -90.5t-46 -87l-104 -655h-164l168 1065h164l-39 -242q15 32 48.5 72t84.5 82t125 70t153 28z" />
    <glyph glyph-name="o" unicode="o" horiz-adv-x="1120" 
d="M618 1075q83 0 158 -27t136.5 -79.5t98 -138.5t36.5 -195q0 -130 -43.5 -249t-119.5 -207t-186 -140.5t-235 -52.5q-84 0 -159 27t-136 78.5t-97 137.5t-36 195q0 174 74 323t208.5 238.5t300.5 89.5zM887 631q0 151 -79.5 230t-199.5 79q-93 0 -172.5 -43.5t-131.5 -115
t-81.5 -163t-29.5 -188.5q0 -149 80 -228t198 -79q125 0 222 74.5t145.5 189t48.5 244.5z" />
    <glyph glyph-name="p" unicode="p" horiz-adv-x="1163" 
d="M340 1065l-35 -207q66 103 167 160t228 57q79 0 148.5 -26t124 -76.5t86 -134t31.5 -189.5q0 -175 -67.5 -325.5t-196 -244t-291.5 -93.5q-135 0 -218 66t-108 173l-98 -614h-164l229 1454h164zM510 123q99 0 180.5 44t133 118t79 166t27.5 192q0 147 -78 222t-197 75
q-97 0 -177 -42.5t-131.5 -114.5t-79 -164t-27.5 -193q0 -148 75 -225.5t195 -77.5z" />
    <glyph glyph-name="q" unicode="q" horiz-adv-x="1153" 
d="M586 1075q134 0 220 -65t112 -168l32 223h164l-229 -1454h-164l94 594q-64 -103 -161 -161t-222 -58q-80 0 -150.5 26.5t-127 77.5t-89 134.5t-32.5 189.5q0 176 67.5 326t195.5 242.5t290 92.5zM469 123q129 0 225.5 75t143.5 191t47 250q0 149 -76.5 225t-196.5 76
q-100 0 -181 -44t-131.5 -118t-77.5 -166t-27 -192q0 -146 77 -221.5t197 -75.5z" />
    <glyph glyph-name="r" unicode="r" horiz-adv-x="759" 
d="M696 1075q38 0 82 -6l-24 -143q-27 2 -66 2q-164 0 -272 -87t-160 -239l-94 -602h-164l168 1065h164l-43 -274q40 120 151 202t258 82z" />
    <glyph glyph-name="s" unicode="s" horiz-adv-x="989" 
d="M778 791q-25 157 -239 157q-124 0 -198.5 -53t-74.5 -133q0 -59 36.5 -93.5t121.5 -56.5l162 -39q50 -13 81 -22t67.5 -23.5t58 -30.5t41 -38.5t28 -52.5t8.5 -68q0 -90 -38.5 -159t-105 -110.5t-149.5 -62t-178 -20.5q-188 0 -295.5 81.5t-101.5 241.5h150
q8 -196 256 -196q128 0 214.5 54t86.5 155q0 59 -39.5 88.5t-124.5 50.5l-178 43q-131 33 -196 94.5t-65 161.5q0 142 124 228.5t315 86.5q174 0 272.5 -73t108.5 -211h-148z" />
    <glyph glyph-name="t" unicode="t" horiz-adv-x="659" 
d="M416 934l-115 -727q-7 -44 9.5 -63t62.5 -19q68 0 143 16l-22 -131q-63 -24 -166 -24q-106 0 -157.5 49.5t-31.5 175.5l113 723h-166l18 131h170l41 266h164l-43 -266h215l-20 -131h-215z" />
    <glyph glyph-name="u" unicode="u" horiz-adv-x="1128" 
d="M926 1065h164l-168 -1065h-164l37 236q-18 -34 -51.5 -72.5t-84 -80t-122.5 -68.5t-150 -27q-85 0 -149.5 22.5t-112 73.5t-61.5 133.5t2 202.5l102 645h164l-103 -645q-46 -289 207 -289q59 0 115.5 20t99 50t78.5 69t58.5 74.5t35.5 67.5z" />
    <glyph glyph-name="v" unicode="v" horiz-adv-x="1083" 
d="M530 0h-184l-252 1065h164l201 -897l489 897h168z" />
    <glyph glyph-name="w" unicode="w" horiz-adv-x="1613" 
d="M1647 1065l-484 -1065h-153l-170 864l-443 -864h-155l-148 1065h164l107 -862l434 862h135l162 -862l383 862h168z" />
    <glyph glyph-name="x" unicode="x" horiz-adv-x="1019" 
d="M1042 1065l-458 -522l307 -543h-174l-238 424l-366 -424h-187l484 551l-291 514h174l221 -397l344 397h184z" />
    <glyph glyph-name="y" unicode="y" horiz-adv-x="1064" 
d="M928 1065h170l-647 -1155q-99 -179 -211 -247t-269 -48l23 139q109 -14 184 34.5t129 148.5q26 49 33.5 72.5t1.5 49.5l-248 1006h164l197 -872z" />
    <glyph glyph-name="z" unicode="z" horiz-adv-x="1003" 
d="M184 141h664l-23 -141h-856l21 141l790 785h-643l23 139h833l-20 -139z" />
    <glyph glyph-name="braceleft" unicode="{" horiz-adv-x="583" 
d="M358 766l-120 -139l73 -135l-86 -551q-9 -64 58 -64h75l-22 -143h-127q-72 0 -118.5 47.5t-33.5 134.5l93 565l-72 146l115 149l92 578q14 86 70.5 129t129.5 43h136l-23 -144h-68q-33 0 -58.5 -20.5t-29.5 -52.5z" />
    <glyph glyph-name="bar" unicode="|" horiz-adv-x="450" 
d="M299 1638h143l-321 -2027h-144z" />
    <glyph glyph-name="braceright" unicode="}" horiz-adv-x="583" 
d="M246 766l86 553q9 63 -58 63h-75l22 144h129q71 0 116.5 -48t31.5 -135l-90 -567l69 -149l-112 -146l-93 -575q-14 -87 -69.5 -129.5t-128.5 -42.5h-137l22 143h68q33 0 58.5 21t29.5 53l84 541l118 135z" />
    <glyph glyph-name="asciitilde" unicode="~" horiz-adv-x="878" 
d="M758 676l80 -10q-15 -99 -81.5 -156t-156.5 -57q-40 0 -76.5 16t-64 39.5t-55 46.5t-61 39t-69.5 16q-56 0 -94 -31t-41 -67l-80 10q15 99 80.5 156t155.5 57q41 0 77.5 -16t65 -39.5t56 -46.5t61 -39t68.5 -16q57 0 93.5 30.5t41.5 67.5z" />
    <glyph glyph-name="exclamdown" unicode="&#xa1;" horiz-adv-x="436" 
d="M154 856l32 209h191l-33 -209h-190zM311 666l-164 -1035h-182l164 1035h182z" />
    <glyph glyph-name="cent" unicode="&#xa2;" horiz-adv-x="1062" 
d="M528 256q190 14 277 193h156q-128 -318 -453 -332l-33 -199h-88l33 203q-161 19 -264 127t-103 301q0 172 67 317t191 236t283 102l37 230h88l-37 -230q307 -20 346 -332h-149q-17 96 -70 144.5t-150 54.5zM213 551q0 -130 63 -205t166 -88l129 809q-164 -27 -261 -178
t-97 -338z" />
    <glyph glyph-name="sterling" unicode="&#xa3;" horiz-adv-x="1089" 
d="M664 1448q217 0 320.5 -122.5t74.5 -342.5h-150q19 157 -44.5 239.5t-213.5 82.5q-151 0 -240 -90.5t-89 -231.5q0 -35 6.5 -75.5t13 -67t19.5 -72.5t18 -66h291l-17 -100h-254q2 -16 2 -47q0 -235 -239 -432q104 39 200 39q59 0 177.5 -20.5t185.5 -20.5q92 0 180 24
l-14 -147q-83 -21 -176 -21q-79 0 -211 26t-201 26q-113 0 -235 -52l-76 117q266 238 266 457q0 19 -4 51h-180l16 100h137q-3 8 -13.5 40t-14.5 44.5t-12 42t-11.5 49t-6.5 47t-3 54.5q0 211 140 340t358 129z" />
    <glyph glyph-name="currency" unicode="&#xa4;" horiz-adv-x="1202" 
d="M1118 975q0 -139 -78 -254l95 -94l-109 -107l-88 88q-126 -92 -279 -92q-151 0 -274 92l-88 -88l-109 107l91 90q-78 118 -78 258q0 141 82 260l-95 94l109 107l90 -90q122 88 272 88q154 0 275 -91l92 93l109 -107l-97 -96q80 -116 80 -258zM659 655q139 0 231.5 98
t92.5 222q0 123 -92.5 222t-231.5 99q-91 0 -166 -48t-114 -121t-39 -152q0 -124 91 -222t228 -98z" />
    <glyph glyph-name="yen" unicode="&#xa5;" horiz-adv-x="1345" 
d="M1407 1434l-647 -867h268l-16 -106h-273l-16 -107h272l-18 -104h-270l-39 -250h-174l38 250h-268l19 104h266l16 107h-266l16 106h265l-396 867h191l309 -707l528 707h195z" />
    <glyph glyph-name="brokenbar" unicode="&#xa6;" horiz-adv-x="450" 
d="M299 1638h143l-90 -573h-143zM70 184h143l-92 -573h-144z" />
    <glyph glyph-name="section" unicode="&#xa7;" horiz-adv-x="1284" 
d="M778 1298q-170 0 -265 -76.5t-95 -199.5q0 -143 198 -186l187 -41q183 -40 279 -122.5t96 -223.5q0 -194 -131 -316q36 -62 36 -153q0 -151 -79 -257t-210.5 -156t-304.5 -50q-250 0 -367 109t-114 315h176q1 -63 16.5 -110.5t50.5 -85.5t98 -57.5t153 -19.5
q185 0 295 79t110 226q0 89 -60 137t-171 72l-199 45q-332 73 -332 322q0 91 36.5 171t103.5 138q-45 67 -45 158q0 203 153 318.5t391 115.5q229 0 342.5 -97.5t108.5 -271.5h-174q0 107 -65 162t-218 55zM770 649l-199 45q-85 17 -157 54q-90 -75 -90 -193
q0 -143 198 -186l187 -41q130 -27 219 -80q71 77 71 192q0 88 -59.5 136.5t-169.5 72.5z" />
    <glyph glyph-name="dieresis" unicode="&#xa8;" horiz-adv-x="610" 
d="M145 1452h172l-28 -184h-170zM584 1452h170l-27 -184h-172z" />
    <glyph glyph-name="copyright" unicode="&#xa9;" horiz-adv-x="1617" 
d="M737 -14q-187 0 -336 81.5t-234 229.5t-85 336q0 165 66 316t176.5 259.5t261 173t313.5 64.5q187 0 336 -81t234 -228t85 -334q0 -167 -65.5 -318.5t-175.5 -260.5t-261 -173.5t-315 -64.5zM731 90q149 0 283.5 57t230 153.5t151.5 228.5t56 276q0 237 -154.5 386.5
t-392.5 149.5q-198 0 -363.5 -96t-260.5 -260t-95 -358q0 -238 153.5 -387.5t391.5 -149.5zM760 393q192 0 278 150h115q-60 -136 -165 -197t-230 -61q-152 0 -254.5 97.5t-102.5 266.5q0 135 63 249.5t172.5 181.5t240.5 67q126 0 212.5 -62.5t110.5 -191.5h-108
q-37 147 -224 147q-104 0 -186 -55t-125 -144t-43 -194q0 -119 71 -186.5t175 -67.5z" />
    <glyph glyph-name="ordfeminine" unicode="&#xaa;" horiz-adv-x="743" 
d="M686 881q0 -55 21 -99h-103q-27 52 -24 121q-102 -121 -250 -121q-86 0 -144.5 44t-58.5 130q0 108 68.5 158.5t197.5 63.5l217 20q11 81 -17.5 115.5t-111.5 34.5q-137 0 -172 -88h-108q54 192 286 192q128 0 185 -52.5t57 -160.5q0 -43 -21.5 -182.5t-21.5 -175.5z
M356 887q60 0 110.5 24t74 48.5t41.5 52.5l18 94l-205 -21q-149 -16 -149 -118q0 -80 110 -80z" />
    <glyph glyph-name="guillemotleft" unicode="&#xab;" horiz-adv-x="839" 
d="M422 766l-217 -162l166 -166l-25 -149l-262 258l20 131l345 256zM793 766l-218 -162l166 -166l-24 -149l-262 258l20 131l344 256z" />
    <glyph glyph-name="logicalnot" unicode="&#xac;" horiz-adv-x="1003" 
d="M899 639l-57 -367h-164l37 236h-656l21 131h819z" />
    <glyph glyph-name="uni00AD" unicode="&#xad;" horiz-adv-x="880" 
d="M80 633h696l-20 -119h-697z" />
    <glyph glyph-name="registered" unicode="&#xae;" horiz-adv-x="1617" 
d="M737 -14q-187 0 -336 81.5t-234 229.5t-85 336q0 165 66 316t176.5 259.5t261 173t313.5 64.5q187 0 336 -81t234 -228t85 -334q0 -167 -65.5 -318.5t-175.5 -260.5t-261 -173.5t-315 -64.5zM731 90q149 0 283.5 57t230 153.5t151.5 228.5t56 276q0 237 -154.5 386.5
t-392.5 149.5q-198 0 -363.5 -96t-260.5 -260t-95 -358q0 -238 153.5 -387.5t391.5 -149.5zM1075 311h-104q-11 37 -8 72t11.5 92.5t8.5 75.5q0 54 -31.5 72t-87.5 18h-229l-51 -330h-105l129 811h301q119 0 179.5 -49.5t60.5 -142.5q0 -186 -182 -244q61 -12 88.5 -44.5
t27.5 -88.5q0 -18 -5.5 -58t-10.5 -73.5t-4 -66t12 -44.5zM856 727q87 0 140 56.5t53 140.5q0 58 -35 85t-109 27h-207l-49 -309h207z" />
    <glyph glyph-name="macron" unicode="&#xaf;" horiz-adv-x="628" 
d="M145 1452h629l-14 -102h-629z" />
    <glyph glyph-name="degree" unicode="&#xb0;" horiz-adv-x="790" 
d="M459 872q-116 0 -191 75t-75 188q0 138 103 239t241 101q116 0 191 -75.5t75 -187.5q0 -138 -103 -239t-241 -101zM465 997q87 0 150 64t63 145q0 60 -41 102t-107 42q-89 0 -152 -63.5t-63 -145.5q0 -61 41.5 -102.5t108.5 -41.5z" />
    <glyph glyph-name="plusminus" unicode="&#xb1;" horiz-adv-x="1001" 
d="M608 733h363l-23 -145h-364l-58 -365h-153l57 365h-358l22 145h361l57 361h154zM35 -33l18 121h754l-21 -121h-751z" />
    <glyph glyph-name="uni00B2" unicode="&#xb2;" horiz-adv-x="509" 
d="M121 901q11 91 52 147t142 113q6 3 23 13t23.5 14t21 13t20.5 14.5t16.5 14.5t15 16.5l10.5 17.5t8 20.5t2 22.5q0 32 -24.5 51.5t-61.5 19.5q-45 0 -76.5 -26.5t-38.5 -73.5h-72q11 75 62.5 120.5t132.5 45.5q69 0 109 -35t40 -92q0 -31 -11 -58t-25 -45t-42.5 -39.5
t-48.5 -33.5t-59 -33q-59 -31 -92.5 -69t-36.5 -72h266l-10 -66h-346z" />
    <glyph glyph-name="uni00B3" unicode="&#xb3;" horiz-adv-x="540" 
d="M438 1184q41 -5 73 -32.5t32 -76.5q0 -77 -61 -129.5t-163 -52.5q-88 0 -131.5 49t-31.5 125h67q-7 -53 22 -82t85 -29q60 0 100.5 32.5t40.5 86.5q0 78 -123 78h-22l10 55h22q57 0 90 30.5t33 72.5q0 33 -23 51t-65 18q-102 0 -125 -104h-65q14 80 65.5 124t134.5 44
q70 0 110 -33t40 -86q0 -54 -33.5 -91t-81.5 -50z" />
    <glyph glyph-name="acute" unicode="&#xb4;" horiz-adv-x="362" 
d="M104 1190h142l262 262h-227z" />
    <glyph glyph-name="uni00B5" unicode="&#xb5;" horiz-adv-x="1128" 
d="M926 1065h164l-168 -1065h-164l37 236q-17 -33 -50.5 -72t-84 -79.5t-123 -67.5t-150.5 -27q-138 0 -217 57l-70 -436h-163l231 1454h164l-103 -645q-45 -287 209 -287q59 0 115.5 19.5t98.5 50t77.5 69.5t57.5 74.5t34 67.5l-14 -107z" />
    <glyph glyph-name="paragraph" unicode="&#xb6;" horiz-adv-x="1193" 
d="M1212 1434l-16 -109l-281 -1776h-137l281 1776h-178l-281 -1776h-145l170 1078h-138q-199 0 -297 116.5t-69 294.5q27 174 156.5 285t328.5 111h606z" />
    <glyph glyph-name="periodcentered" unicode="&#xb7;" horiz-adv-x="391" 
d="M98 690h191l-33 -211h-190z" />
    <glyph glyph-name="cedilla" unicode="&#xb8;" horiz-adv-x="350" 
d="M29 -113q75 8 133.5 -33.5t58.5 -119.5q0 -191 -319 -191v76q188 6 188 111q0 56 -48 73.5t-108 -16.5l-43 66l95 149h149z" />
    <glyph glyph-name="uni00B9" unicode="&#xb9;" horiz-adv-x="348" 
d="M369 1434l-84 -533h-72l74 442q-40 -56 -123 -47l8 66q37 -4 72.5 19t52.5 53h72z" />
    <glyph glyph-name="ordmasculine" unicode="&#xba;" horiz-adv-x="765" 
d="M498 1450q115 0 197.5 -76t82.5 -207q0 -160 -109.5 -275.5t-258.5 -115.5q-114 0 -197.5 77t-83.5 208q0 160 109.5 274.5t259.5 114.5zM659 1167q0 81 -47 125.5t-118 44.5q-105 0 -174.5 -82t-69.5 -192q0 -83 46.5 -127.5t119.5 -44.5q105 0 174 83t69 193z" />
    <glyph glyph-name="guillemotright" unicode="&#xbb;" horiz-adv-x="839" 
d="M72 457l217 161l-166 166l24 150l263 -258l-21 -131l-344 -256zM442 457l217 161l-165 166l24 150l262 -258l-20 -131l-344 -256z" />
    <glyph glyph-name="onequarter" unicode="&#xbc;" horiz-adv-x="1245" 
d="M88 0h-90l1118 1434h90zM369 1434l-84 -533h-72l74 442q-40 -56 -123 -47l8 66q37 -4 72.5 19t52.5 53h72zM1100 135h-62l-22 -135h-70l23 135h-244l8 58l299 342h70l-55 -342h61zM977 193l41 251l-219 -251h178z" />
    <glyph glyph-name="onehalf" unicode="&#xbd;" horiz-adv-x="1234" 
d="M88 0h-90l1118 1434h90zM369 1434l-84 -533h-72l74 442q-40 -56 -123 -47l8 66q37 -4 72.5 19t52.5 53h72zM713 0q11 91 52 147t142 113q6 3 23 13t23.5 14t21 13t20.5 14.5t16.5 14.5t15 16.5l10.5 17.5t8 20.5t2 22.5q0 32 -24.5 51.5t-61.5 19.5q-45 0 -76.5 -26.5
t-38.5 -73.5h-72q11 75 62.5 120.5t132.5 45.5q69 0 109 -35t40 -92q0 -31 -11 -58t-25 -45t-42.5 -39.5t-48.5 -33.5t-59 -33q-59 -31 -92.5 -69t-36.5 -72h266l-10 -66h-346z" />
    <glyph glyph-name="threequarters" unicode="&#xbe;" horiz-adv-x="1355" 
d="M449 1184q41 -5 72.5 -32.5t31.5 -76.5q0 -77 -60.5 -129.5t-162.5 -52.5q-89 0 -132.5 49t-31.5 125h67q-7 -53 22 -82t85 -29q60 0 100.5 32.5t40.5 86.5q0 78 -123 78h-22l10 55h23q57 0 90 30.5t33 72.5q0 33 -23.5 51t-65.5 18q-101 0 -124 -104h-66q14 80 66 124
t135 44q70 0 109.5 -33t39.5 -86q0 -54 -33 -91t-81 -50zM199 0h-90l1118 1434h90zM1210 135h-61l-23 -135h-69l22 135h-243l8 58l299 342h69l-55 -342h62zM1087 193l41 251l-219 -251h178z" />
    <glyph glyph-name="questiondown" unicode="&#xbf;" horiz-adv-x="1077" 
d="M637 854h-191l31 211h191zM354 -383q221 0 357 117.5t170 341.5h-160q-27 -156 -117 -236t-225 -80q-134 0 -195 66.5t-41 187.5q9 55 43 101t78.5 76.5t97.5 69.5t99 79t83.5 107t51.5 151l12 68h-176l-10 -68q-10 -61 -37 -110.5t-63 -84t-78.5 -65t-85 -62.5
t-79.5 -68t-65 -90t-39 -120q-28 -181 78 -281t301 -100z" />
    <glyph glyph-name="Agrave" unicode="&#xc0;" horiz-adv-x="1392" 
d="M903 1559h-143l-223 262h233zM1063 0l-80 367h-643l-197 -367h-186l793 1434h155l342 -1434h-184zM412 498h542l-157 714z" />
    <glyph glyph-name="Aacute" unicode="&#xc1;" horiz-adv-x="1392" 
d="M1174 1821l-263 -262h-141l176 262h228zM1063 0l-80 367h-643l-197 -367h-186l793 1434h155l342 -1434h-184zM412 498h542l-157 714z" />
    <glyph glyph-name="Acircumflex" unicode="&#xc2;" horiz-adv-x="1392" 
d="M856 1737l-225 -183h-135l223 267h287l143 -267h-129zM1063 0l-80 367h-643l-197 -367h-186l793 1434h155l342 -1434h-184zM412 498h542l-157 714z" />
    <glyph glyph-name="Atilde" unicode="&#xc3;" horiz-adv-x="1392" 
d="M649 1745q-52 0 -80 -26.5t-26 -59.5h-78q0 94 57.5 149.5t147.5 55.5q49 0 95 -23t77 -51t73.5 -51t83.5 -23q52 0 80.5 26.5t26.5 59.5h80q0 -94 -57.5 -149.5t-147.5 -55.5q-41 0 -78.5 15t-66.5 37t-57.5 44t-62 37t-67.5 15zM1063 0l-80 367h-643l-197 -367h-186
l793 1434h155l342 -1434h-184zM412 498h542l-157 714z" />
    <glyph glyph-name="Adieresis" unicode="&#xc4;" horiz-adv-x="1392" 
d="M750 1821l-29 -185h-170l27 185h172zM1186 1821l-27 -185h-172l29 185h170zM1063 0l-80 367h-643l-197 -367h-186l793 1434h155l342 -1434h-184zM412 498h542l-157 714z" />
    <glyph glyph-name="Aring" unicode="&#xc5;" horiz-adv-x="1392" 
d="M854 1559q-71 0 -116.5 44.5t-45.5 110.5q0 79 58.5 137t140.5 58q67 0 111.5 -45.5t44.5 -112.5q0 -76 -59 -134t-134 -58zM881 1827q-43 0 -75 -31t-32 -74q0 -34 24 -58t62 -24q40 0 72.5 31t32.5 72q0 36 -24 60t-60 24zM1063 0l-80 367h-643l-197 -367h-186
l793 1434h155l342 -1434h-184zM412 498h542l-157 714z" />
    <glyph glyph-name="AE" unicode="&#xc6;" horiz-adv-x="2035" 
d="M2062 1284h-759l-76 -477h657l-22 -139h-658l-82 -516h781l-25 -152h-950l57 367h-532l-310 -367h-186l1196 1419l2 15h930zM567 504h441l102 645z" />
    <glyph glyph-name="Ccedilla" unicode="&#xc7;" horiz-adv-x="1325" 
d="M629 133q292 0 415 232h173q-65 -170 -217.5 -270t-350.5 -111l-88 -97q75 8 134 -33.5t59 -119.5q0 -191 -320 -191v76q189 6 189 111q0 56 -48 73.5t-108 -16.5l-43 66l84 135q-201 26 -317.5 166t-116.5 385q0 145 32 279.5t97 249.5t155.5 201t214 134.5t265.5 48.5
q213 0 345 -100t142 -281h-170q-22 110 -107 171t-231 61q-107 0 -199.5 -42.5t-158.5 -115.5t-113.5 -169t-70.5 -204t-23 -219q0 -208 100.5 -314t276.5 -106z" />
    <glyph glyph-name="Egrave" unicode="&#xc8;" 
d="M801 1559l-133 262h-234l223 -262h144zM1153 1284h-760l-76 -477h658l-23 -139h-657l-82 -516h780l-24 -152h-951l228 1434h930z" />
    <glyph glyph-name="Eacute" unicode="&#xc9;" 
d="M668 1559h141l262 262h-227zM1153 1284h-760l-76 -477h658l-23 -139h-657l-82 -516h780l-24 -152h-951l228 1434h930z" />
    <glyph glyph-name="Ecircumflex" unicode="&#xca;" 
d="M918 1554l-164 183l-226 -183h-135l223 267h287l144 -267h-129zM1153 1284h-760l-76 -477h658l-23 -139h-657l-82 -516h780l-24 -152h-951l228 1434h930z" />
    <glyph glyph-name="Edieresis" unicode="&#xcb;" 
d="M475 1821h172l-29 -185h-169zM913 1821h170l-26 -185h-172zM1153 1284h-760l-76 -477h658l-23 -139h-657l-82 -516h780l-24 -152h-951l228 1434h930z" />
    <glyph glyph-name="Igrave" unicode="&#xcc;" horiz-adv-x="409" 
d="M412 1559l-133 262h-234l223 -262h144zM193 0h-173l226 1434h172z" />
    <glyph glyph-name="Iacute" unicode="&#xcd;" horiz-adv-x="409" 
d="M279 1559h141l262 262h-227zM193 0h-173l226 1434h172z" />
    <glyph glyph-name="Icircumflex" unicode="&#xce;" horiz-adv-x="409" 
d="M528 1554l-163 183l-226 -183h-135l223 267h287l143 -267h-129zM193 0h-173l226 1434h172z" />
    <glyph glyph-name="Idieresis" unicode="&#xcf;" horiz-adv-x="409" 
d="M86 1821h172l-29 -185h-170zM524 1821h170l-26 -185h-172zM193 0h-173l226 1434h172z" />
    <glyph glyph-name="Eth" unicode="&#xd0;" horiz-adv-x="1368" 
d="M733 1434q288 0 437 -143.5t149 -413.5q0 -260 -92.5 -457t-275.5 -308.5t-435 -111.5h-446l102 653h-102l20 119h100l105 662h438zM516 158q156 0 278 53.5t199.5 150t117.5 228t40 291.5q0 203 -110.5 300t-335.5 97h-263l-80 -506h424l-20 -119h-422l-78 -495h250z
" />
    <glyph glyph-name="Ntilde" unicode="&#xd1;" horiz-adv-x="1355" 
d="M1108 1802h80q0 -94 -57.5 -149.5t-147.5 -55.5q-41 0 -78.5 15t-66.5 37t-57.5 44t-62 37t-67.5 15q-52 0 -80 -26.5t-26 -59.5h-78q0 94 57.5 149.5t147.5 55.5q49 0 95 -23t77 -51t73.5 -51t83.5 -23q52 0 80.5 26.5t26.5 59.5zM1366 1434l-227 -1434h-185l-575 1165
h-4l-185 -1165h-172l228 1434h180l580 -1172h4l186 1172h170z" />
    <glyph glyph-name="Ograve" unicode="&#xd2;" horiz-adv-x="1447" 
d="M952 1559l-133 262h-233l223 -262h143zM850 1452q250 0 396.5 -144t146.5 -409q0 -147 -34 -284t-100.5 -251.5t-159.5 -200t-217.5 -133.5t-267.5 -48q-249 0 -395.5 144.5t-146.5 408.5q0 148 33.5 285t100 251.5t159 199.5t217.5 133t268 48zM635 133q110 0 205 42
t163 114t116 168t71.5 205.5t23.5 224.5q0 202 -102 307.5t-285 105.5q-110 0 -205 -42t-162.5 -114t-115.5 -168.5t-71 -206t-23 -224.5q0 -201 101.5 -306.5t283.5 -105.5z" />
    <glyph glyph-name="Oacute" unicode="&#xd3;" horiz-adv-x="1447" 
d="M819 1559h142l262 262h-228zM850 1452q250 0 396.5 -144t146.5 -409q0 -147 -34 -284t-100.5 -251.5t-159.5 -200t-217.5 -133.5t-267.5 -48q-249 0 -395.5 144.5t-146.5 408.5q0 148 33.5 285t100 251.5t159 199.5t217.5 133t268 48zM635 133q110 0 205 42t163 114
t116 168t71.5 205.5t23.5 224.5q0 202 -102 307.5t-285 105.5q-110 0 -205 -42t-162.5 -114t-115.5 -168.5t-71 -206t-23 -224.5q0 -201 101.5 -306.5t283.5 -105.5z" />
    <glyph glyph-name="Ocircumflex" unicode="&#xd4;" horiz-adv-x="1447" 
d="M1069 1554l-164 183l-225 -183h-135l223 267h287l143 -267h-129zM850 1452q250 0 396.5 -144t146.5 -409q0 -147 -34 -284t-100.5 -251.5t-159.5 -200t-217.5 -133.5t-267.5 -48q-249 0 -395.5 144.5t-146.5 408.5q0 148 33.5 285t100 251.5t159 199.5t217.5 133t268 48z
M635 133q110 0 205 42t163 114t116 168t71.5 205.5t23.5 224.5q0 202 -102 307.5t-285 105.5q-110 0 -205 -42t-162.5 -114t-115.5 -168.5t-71 -206t-23 -224.5q0 -201 101.5 -306.5t283.5 -105.5z" />
    <glyph glyph-name="Otilde" unicode="&#xd5;" horiz-adv-x="1447" 
d="M1155 1802h80q0 -94 -57.5 -149.5t-147.5 -55.5q-41 0 -78.5 15t-66.5 37t-57.5 44t-62 37t-67.5 15q-52 0 -80 -26.5t-26 -59.5h-78q0 94 57.5 149.5t147.5 55.5q40 0 77 -15t66.5 -37t57.5 -44t61.5 -37t67.5 -15q52 0 80 26.5t26 59.5zM850 1452q250 0 396.5 -144
t146.5 -409q0 -147 -34 -284t-100.5 -251.5t-159.5 -200t-217.5 -133.5t-267.5 -48q-249 0 -395.5 144.5t-146.5 408.5q0 148 33.5 285t100 251.5t159 199.5t217.5 133t268 48zM635 133q110 0 205 42t163 114t116 168t71.5 205.5t23.5 224.5q0 202 -102 307.5t-285 105.5
q-110 0 -205 -42t-162.5 -114t-115.5 -168.5t-71 -206t-23 -224.5q0 -201 101.5 -306.5t283.5 -105.5z" />
    <glyph glyph-name="Odieresis" unicode="&#xd6;" horiz-adv-x="1447" 
d="M627 1821h172l-29 -185h-170zM1065 1821h170l-27 -185h-172zM850 1452q250 0 396.5 -144t146.5 -409q0 -147 -34 -284t-100.5 -251.5t-159.5 -200t-217.5 -133.5t-267.5 -48q-249 0 -395.5 144.5t-146.5 408.5q0 148 33.5 285t100 251.5t159 199.5t217.5 133t268 48z
M635 133q110 0 205 42t163 114t116 168t71.5 205.5t23.5 224.5q0 202 -102 307.5t-285 105.5q-110 0 -205 -42t-162.5 -114t-115.5 -168.5t-71 -206t-23 -224.5q0 -201 101.5 -306.5t283.5 -105.5z" />
    <glyph glyph-name="multiply" unicode="&#xd7;" horiz-adv-x="847" 
d="M825 786l-297 -258l217 -254l-118 -102l-215 256l-297 -258l-92 109l296 258l-215 254l115 102l217 -254l293 256z" />
    <glyph glyph-name="Oslash" unicode="&#xd8;" horiz-adv-x="1447" 
d="M1217 1335q176 -146 176 -436q0 -147 -34 -284t-100.5 -251.5t-159.5 -200t-217.5 -133.5t-267.5 -48q-130 0 -233 41l-80 -125h-180l127 200q-176 149 -176 437q0 148 33.5 285t100 251.5t159 199.5t217.5 133t268 48q129 0 235 -41l72 115h180zM250 545q0 -192 94 -297
l651 1024q-76 28 -168 28q-110 0 -205 -42t-162.5 -114t-115.5 -168.5t-71 -206t-23 -224.5zM635 133q110 0 205 42t163 114t116 168t71.5 205.5t23.5 224.5q0 191 -94 299l-651 -1024q79 -29 166 -29z" />
    <glyph glyph-name="Ugrave" unicode="&#xd9;" horiz-adv-x="1339" 
d="M899 1559l-133 262h-234l224 -262h143zM1350 1434l-140 -883q-42 -264 -214.5 -413.5t-426.5 -149.5t-379 149.5t-84 413.5l140 883h172l-139 -875q-32 -201 49 -310.5t264 -109.5q182 0 299 109.5t149 310.5l138 875h172z" />
    <glyph glyph-name="Uacute" unicode="&#xda;" horiz-adv-x="1339" 
d="M766 1559h141l262 262h-227zM1350 1434l-140 -883q-42 -264 -214.5 -413.5t-426.5 -149.5t-379 149.5t-84 413.5l140 883h172l-139 -875q-32 -201 49 -310.5t264 -109.5q182 0 299 109.5t149 310.5l138 875h172z" />
    <glyph glyph-name="Ucircumflex" unicode="&#xdb;" horiz-adv-x="1339" 
d="M1016 1554l-164 183l-225 -183h-135l223 267h286l144 -267h-129zM1350 1434l-140 -883q-42 -264 -214.5 -413.5t-426.5 -149.5t-379 149.5t-84 413.5l140 883h172l-139 -875q-32 -201 49 -310.5t264 -109.5q182 0 299 109.5t149 310.5l138 875h172z" />
    <glyph glyph-name="Udieresis" unicode="&#xdc;" horiz-adv-x="1339" 
d="M573 1821h172l-28 -185h-170zM1012 1821h170l-27 -185h-172zM1350 1434l-140 -883q-42 -264 -214.5 -413.5t-426.5 -149.5t-379 149.5t-84 413.5l140 883h172l-139 -875q-32 -201 49 -310.5t264 -109.5q182 0 299 109.5t149 310.5l138 875h172z" />
    <glyph glyph-name="Yacute" unicode="&#xdd;" horiz-adv-x="1345" 
d="M768 1559h141l262 262h-227zM756 561l-88 -561h-174l88 561l-398 873h191l309 -707l528 707h195z" />
    <glyph glyph-name="Thorn" unicode="&#xde;" horiz-adv-x="1245" 
d="M184 0h-164l226 1434h164zM700 1157q246 0 374 -123t97 -323q-34 -203 -192.5 -314.5t-407.5 -111.5h-342l23 143h338q179 0 287 70t133 233q24 144 -61 213.5t-259 69.5h-346l23 143h333z" />
    <glyph glyph-name="germandbls" unicode="&#xdf;" horiz-adv-x="1202" 
d="M829 784q121 -23 189.5 -105.5t68.5 -203.5q0 -240 -161.5 -357.5t-444.5 -117.5h-129l23 143h123q432 0 432 340q0 114 -90.5 170t-249.5 56h-125l20 131h117q159 0 248.5 70t89.5 202q0 88 -67 133t-189 45q-154 0 -236 -64t-104 -202l-162 -1024h-164l164 1034
q33 206 158.5 303t347.5 97q197 0 306.5 -78.5t109.5 -235.5q0 -128 -74 -220t-201 -116z" />
    <glyph glyph-name="agrave" unicode="&#xe0;" 
d="M700 1190h-143l-223 262h233zM985 680l-78 -504q-6 -42 11.5 -59t62.5 -15l-16 -100q-34 -10 -72 -10q-80 0 -118 39t-23 116l12 64q-13 -21 -33.5 -45t-60 -57.5t-85 -59.5t-112 -44.5t-137.5 -18.5q-144 0 -231 71t-87 203q0 84 29.5 145.5t87 101t129.5 62.5t170 37
q16 2 66 9t74.5 10.5t69 10.5t71.5 13t58 15t52 18l2 10q24 141 -30 198.5t-189 57.5q-121 0 -187 -40t-95 -120h-158q41 148 149.5 217.5t300.5 69.5q221 0 310 -95t57 -300zM768 340l41 240q-20 -8 -48 -16t-70 -16t-71.5 -13.5t-90.5 -15.5t-89 -15q-133 -22 -195.5 -74
t-62.5 -151q0 -80 51.5 -125t143.5 -45q77 0 148 27t119.5 67.5t78 74.5t45.5 62z" />
    <glyph glyph-name="aacute" unicode="&#xe1;" 
d="M971 1452l-262 -262h-142l176 262h228zM985 680l-78 -504q-6 -42 11.5 -59t62.5 -15l-16 -100q-34 -10 -72 -10q-80 0 -118 39t-23 116l12 64q-13 -21 -33.5 -45t-60 -57.5t-85 -59.5t-112 -44.5t-137.5 -18.5q-144 0 -231 71t-87 203q0 84 29.5 145.5t87 101t129.5 62.5
t170 37q16 2 66 9t74.5 10.5t69 10.5t71.5 13t58 15t52 18l2 10q24 141 -30 198.5t-189 57.5q-121 0 -187 -40t-95 -120h-158q41 148 149.5 217.5t300.5 69.5q221 0 310 -95t57 -300zM768 340l41 240q-20 -8 -48 -16t-70 -16t-71.5 -13.5t-90.5 -15.5t-89 -15
q-133 -22 -195.5 -74t-62.5 -151q0 -80 51.5 -125t143.5 -45q77 0 148 27t119.5 67.5t78 74.5t45.5 62z" />
    <glyph glyph-name="acircumflex" unicode="&#xe2;" 
d="M653 1368l-225 -182h-135l223 266h287l143 -266h-129zM985 680l-78 -504q-6 -42 11.5 -59t62.5 -15l-16 -100q-34 -10 -72 -10q-80 0 -118 39t-23 116l12 64q-13 -21 -33.5 -45t-60 -57.5t-85 -59.5t-112 -44.5t-137.5 -18.5q-144 0 -231 71t-87 203q0 84 29.5 145.5
t87 101t129.5 62.5t170 37q16 2 66 9t74.5 10.5t69 10.5t71.5 13t58 15t52 18l2 10q24 141 -30 198.5t-189 57.5q-121 0 -187 -40t-95 -120h-158q41 148 149.5 217.5t300.5 69.5q221 0 310 -95t57 -300zM768 340l41 240q-20 -8 -48 -16t-70 -16t-71.5 -13.5t-90.5 -15.5
t-89 -15q-133 -22 -195.5 -74t-62.5 -151q0 -80 51.5 -125t143.5 -45q77 0 148 27t119.5 67.5t78 74.5t45.5 62z" />
    <glyph glyph-name="atilde" unicode="&#xe3;" 
d="M446 1376q-52 0 -80 -26.5t-26 -59.5h-78q0 94 57.5 149.5t147.5 55.5q40 0 77 -15t66.5 -36.5t57.5 -43.5t61.5 -37t67.5 -15q52 0 80 26.5t26 59.5h80q0 -94 -57.5 -149.5t-147.5 -55.5q-41 0 -78.5 15t-66.5 36.5t-57.5 43.5t-62 37t-67.5 15zM985 680l-78 -504
q-6 -42 11.5 -59t62.5 -15l-16 -100q-34 -10 -72 -10q-80 0 -118 39t-23 116l12 64q-13 -21 -33.5 -45t-60 -57.5t-85 -59.5t-112 -44.5t-137.5 -18.5q-144 0 -231 71t-87 203q0 84 29.5 145.5t87 101t129.5 62.5t170 37q16 2 66 9t74.5 10.5t69 10.5t71.5 13t58 15t52 18
l2 10q24 141 -30 198.5t-189 57.5q-121 0 -187 -40t-95 -120h-158q41 148 149.5 217.5t300.5 69.5q221 0 310 -95t57 -300zM768 340l41 240q-20 -8 -48 -16t-70 -16t-71.5 -13.5t-90.5 -15.5t-89 -15q-133 -22 -195.5 -74t-62.5 -151q0 -80 51.5 -125t143.5 -45q77 0 148 27
t119.5 67.5t78 74.5t45.5 62z" />
    <glyph glyph-name="adieresis" unicode="&#xe4;" 
d="M547 1452l-29 -184h-170l27 184h172zM983 1452l-27 -184h-172l29 184h170zM985 680l-78 -504q-6 -42 11.5 -59t62.5 -15l-16 -100q-34 -10 -72 -10q-80 0 -118 39t-23 116l12 64q-13 -21 -33.5 -45t-60 -57.5t-85 -59.5t-112 -44.5t-137.5 -18.5q-144 0 -231 71t-87 203
q0 84 29.5 145.5t87 101t129.5 62.5t170 37q16 2 66 9t74.5 10.5t69 10.5t71.5 13t58 15t52 18l2 10q24 141 -30 198.5t-189 57.5q-121 0 -187 -40t-95 -120h-158q41 148 149.5 217.5t300.5 69.5q221 0 310 -95t57 -300zM768 340l41 240q-20 -8 -48 -16t-70 -16t-71.5 -13.5
t-90.5 -15.5t-89 -15q-133 -22 -195.5 -74t-62.5 -151q0 -80 51.5 -125t143.5 -45q77 0 148 27t119.5 67.5t78 74.5t45.5 62z" />
    <glyph glyph-name="aring" unicode="&#xe5;" 
d="M651 1190q-71 0 -116.5 45t-45.5 111q0 79 58 136.5t141 57.5q67 0 111.5 -45.5t44.5 -112.5q0 -76 -59 -134t-134 -58zM678 1458q-43 0 -75 -31t-32 -73q0 -34 24 -58t62 -24q40 0 72.5 30.5t32.5 71.5q0 36 -24 60t-60 24zM985 680l-78 -504q-6 -42 11.5 -59t62.5 -15
l-16 -100q-34 -10 -72 -10q-80 0 -118 39t-23 116l12 64q-13 -21 -33.5 -45t-60 -57.5t-85 -59.5t-112 -44.5t-137.5 -18.5q-144 0 -231 71t-87 203q0 84 29.5 145.5t87 101t129.5 62.5t170 37q16 2 66 9t74.5 10.5t69 10.5t71.5 13t58 15t52 18l2 10q24 141 -30 198.5
t-189 57.5q-121 0 -187 -40t-95 -120h-158q41 148 149.5 217.5t300.5 69.5q221 0 310 -95t57 -300zM768 340l41 240q-20 -8 -48 -16t-70 -16t-71.5 -13.5t-90.5 -15.5t-89 -15q-133 -22 -195.5 -74t-62.5 -151q0 -80 51.5 -125t143.5 -45q77 0 148 27t119.5 67.5t78 74.5
t45.5 62z" />
    <glyph glyph-name="ae" unicode="&#xe6;" horiz-adv-x="1861" 
d="M1767 469h-817q-2 -16 -2 -47q0 -157 79.5 -233t215.5 -76q100 0 167 28.5t126 94.5h160q-85 -133 -197.5 -191.5t-271.5 -58.5q-147 0 -258 69.5t-152 202.5q-199 -270 -483 -270q-144 0 -230 68t-86 198q0 87 29.5 151t87 104t129 63.5t168.5 35.5q11 2 78 10.5t94 13
t77.5 13t84 17.5t59.5 20v6q24 144 -31 201t-190 57q-119 0 -185 -37.5t-93 -111.5h-156q40 143 148.5 210.5t299.5 67.5q295 0 357 -170q164 170 403 170q180 0 296 -109.5t116 -316.5q0 -35 -7 -93.5t-16 -86.5zM1366 948q-155 0 -259 -104t-140 -264h661q10 36 10 88
q0 133 -75 206.5t-197 73.5zM373 117q63 0 123 19t101.5 44.5t79.5 59.5t56.5 56.5t32.5 43.5l39 229q-16 -8 -41 -15t-48 -12t-63 -12t-65 -10.5t-78 -11.5t-78 -12q-248 -37 -248 -224q0 -75 49 -115t140 -40z" />
    <glyph glyph-name="ccedilla" unicode="&#xe7;" horiz-adv-x="1062" 
d="M469 123q116 0 191.5 49t123.5 145h156q-122 -305 -422 -329l-94 -101q75 8 133.5 -33.5t58.5 -119.5q0 -191 -319 -191v76q188 6 188 111q0 56 -47.5 73.5t-107.5 -16.5l-43 66l88 139q-151 25 -246.5 133t-95.5 293q0 134 42.5 254.5t118 209.5t185 141t237.5 52
q351 0 392 -334h-150q-19 104 -77.5 151.5t-170.5 47.5q-96 0 -176.5 -45.5t-132 -119.5t-80 -166.5t-28.5 -188.5q0 -146 77 -221.5t199 -75.5z" />
    <glyph glyph-name="egrave" unicode="&#xe8;" horiz-adv-x="1101" 
d="M715 1190h-144l-223 262h234zM1008 469h-818q-2 -16 -2 -47q0 -157 79.5 -233t215.5 -76q100 0 167 28.5t126 94.5h160q-85 -133 -197.5 -191.5t-271.5 -58.5q-91 0 -168.5 27t-137.5 79.5t-94 136.5t-34 191q0 181 73.5 330.5t208.5 237t303 87.5q180 0 296 -109.5
t116 -316.5q0 -36 -6.5 -94t-15.5 -86zM606 948q-155 0 -259 -104t-140 -264h661q11 40 11 88q0 133 -75.5 206.5t-197.5 73.5z" />
    <glyph glyph-name="eacute" unicode="&#xe9;" horiz-adv-x="1101" 
d="M985 1452l-262 -262h-141l176 262h227zM1008 469h-818q-2 -16 -2 -47q0 -157 79.5 -233t215.5 -76q100 0 167 28.5t126 94.5h160q-85 -133 -197.5 -191.5t-271.5 -58.5q-91 0 -168.5 27t-137.5 79.5t-94 136.5t-34 191q0 181 73.5 330.5t208.5 237t303 87.5
q180 0 296 -109.5t116 -316.5q0 -36 -6.5 -94t-15.5 -86zM606 948q-155 0 -259 -104t-140 -264h661q11 40 11 88q0 133 -75.5 206.5t-197.5 73.5z" />
    <glyph glyph-name="ecircumflex" unicode="&#xea;" horiz-adv-x="1101" 
d="M668 1368l-226 -182h-135l223 266h287l144 -266h-130zM1008 469h-818q-2 -16 -2 -47q0 -157 79.5 -233t215.5 -76q100 0 167 28.5t126 94.5h160q-85 -133 -197.5 -191.5t-271.5 -58.5q-91 0 -168.5 27t-137.5 79.5t-94 136.5t-34 191q0 181 73.5 330.5t208.5 237
t303 87.5q180 0 296 -109.5t116 -316.5q0 -36 -6.5 -94t-15.5 -86zM606 948q-155 0 -259 -104t-140 -264h661q11 40 11 88q0 133 -75.5 206.5t-197.5 73.5z" />
    <glyph glyph-name="edieresis" unicode="&#xeb;" horiz-adv-x="1101" 
d="M561 1452l-29 -184h-170l27 184h172zM997 1452l-26 -184h-172l28 184h170zM1008 469h-818q-2 -16 -2 -47q0 -157 79.5 -233t215.5 -76q100 0 167 28.5t126 94.5h160q-85 -133 -197.5 -191.5t-271.5 -58.5q-91 0 -168.5 27t-137.5 79.5t-94 136.5t-34 191
q0 181 73.5 330.5t208.5 237t303 87.5q180 0 296 -109.5t116 -316.5q0 -36 -6.5 -94t-15.5 -86zM606 948q-155 0 -259 -104t-140 -264h661q11 40 11 88q0 133 -75.5 206.5t-197.5 73.5z" />
    <glyph glyph-name="igrave" unicode="&#xec;" horiz-adv-x="374" 
d="M336 1190l-133 262h-234l224 -262h143zM176 1065h164l-168 -1065h-164z" />
    <glyph glyph-name="iacute" unicode="&#xed;" horiz-adv-x="374" 
d="M203 1190h141l262 262h-227zM176 1065h164l-168 -1065h-164z" />
    <glyph glyph-name="icircumflex" unicode="&#xee;" horiz-adv-x="374" 
d="M453 1186l-164 182l-226 -182h-135l224 266h286l144 -266h-129zM176 1065h164l-168 -1065h-164z" />
    <glyph glyph-name="idieresis" unicode="&#xef;" horiz-adv-x="374" 
d="M10 1452h172l-28 -184h-170zM449 1452h169l-26 -184h-172zM176 1065h164l-168 -1065h-164z" />
    <glyph glyph-name="eth" unicode="&#xf0;" horiz-adv-x="1157" 
d="M1040 1214l-149 -18q85 -147 121.5 -258t36.5 -229q0 -156 -40 -289.5t-115 -231t-189.5 -153t-255.5 -55.5q-181 0 -298.5 113.5t-117.5 316.5q0 134 38.5 252.5t109 208t176.5 142t233 52.5q168 0 262 -94q-53 123 -100 207l-230 -29l13 84l172 22q-53 85 -125 179h163
q91 -145 101 -162l207 26zM459 123q99 0 180 42.5t133.5 115t80.5 166.5t28 198q0 277 -279 277q-98 0 -176.5 -41.5t-127.5 -113t-75 -162.5t-26 -193q0 -142 74 -215.5t188 -73.5z" />
    <glyph glyph-name="ntilde" unicode="&#xf1;" 
d="M934 1434h80q0 -94 -57.5 -149.5t-147.5 -55.5q-41 0 -78.5 15t-66.5 36.5t-57.5 43.5t-62 37t-67.5 15q-52 0 -80 -26.5t-26 -59.5h-78q0 94 57.5 149.5t147.5 55.5q49 0 95 -23t77 -50.5t73.5 -50.5t83.5 -23q52 0 80.5 26.5t26.5 59.5zM702 1075q85 0 149 -22.5
t111.5 -73.5t61.5 -134t-2 -204l-102 -641h-164l102 645q49 291 -215 291q-74 0 -141 -29t-113 -74.5t-77 -90.5t-46 -87l-104 -655h-164l168 1065h164l-39 -242q15 32 48.5 72t84.5 82t125 70t153 28z" />
    <glyph glyph-name="ograve" unicode="&#xf2;" horiz-adv-x="1120" 
d="M702 1190l-133 262h-233l223 -262h143zM618 1075q83 0 158 -27t136.5 -79.5t98 -138.5t36.5 -195q0 -130 -43.5 -249t-119.5 -207t-186 -140.5t-235 -52.5q-84 0 -159 27t-136 78.5t-97 137.5t-36 195q0 174 74 323t208.5 238.5t300.5 89.5zM887 631q0 151 -79.5 230
t-199.5 79q-93 0 -172.5 -43.5t-131.5 -115t-81.5 -163t-29.5 -188.5q0 -149 80 -228t198 -79q125 0 222 74.5t145.5 189t48.5 244.5z" />
    <glyph glyph-name="oacute" unicode="&#xf3;" horiz-adv-x="1120" 
d="M569 1190h142l262 262h-228zM618 1075q83 0 158 -27t136.5 -79.5t98 -138.5t36.5 -195q0 -130 -43.5 -249t-119.5 -207t-186 -140.5t-235 -52.5q-84 0 -159 27t-136 78.5t-97 137.5t-36 195q0 174 74 323t208.5 238.5t300.5 89.5zM887 631q0 151 -79.5 230t-199.5 79
q-93 0 -172.5 -43.5t-131.5 -115t-81.5 -163t-29.5 -188.5q0 -149 80 -228t198 -79q125 0 222 74.5t145.5 189t48.5 244.5z" />
    <glyph glyph-name="ocircumflex" unicode="&#xf4;" horiz-adv-x="1120" 
d="M819 1186l-164 182l-225 -182h-135l223 266h287l143 -266h-129zM618 1075q83 0 158 -27t136.5 -79.5t98 -138.5t36.5 -195q0 -130 -43.5 -249t-119.5 -207t-186 -140.5t-235 -52.5q-84 0 -159 27t-136 78.5t-97 137.5t-36 195q0 174 74 323t208.5 238.5t300.5 89.5z
M887 631q0 151 -79.5 230t-199.5 79q-93 0 -172.5 -43.5t-131.5 -115t-81.5 -163t-29.5 -188.5q0 -149 80 -228t198 -79q125 0 222 74.5t145.5 189t48.5 244.5z" />
    <glyph glyph-name="otilde" unicode="&#xf5;" horiz-adv-x="1120" 
d="M905 1434h80q0 -94 -57.5 -149.5t-147.5 -55.5q-49 0 -96 23t-78 50.5t-73.5 50.5t-83.5 23q-52 0 -80.5 -26.5t-26.5 -59.5h-78q0 94 57.5 149.5t147.5 55.5q40 0 77 -15t66.5 -36.5t57.5 -43.5t61.5 -37t67.5 -15q52 0 80 26.5t26 59.5zM618 1075q83 0 158 -27
t136.5 -79.5t98 -138.5t36.5 -195q0 -130 -43.5 -249t-119.5 -207t-186 -140.5t-235 -52.5q-84 0 -159 27t-136 78.5t-97 137.5t-36 195q0 174 74 323t208.5 238.5t300.5 89.5zM887 631q0 151 -79.5 230t-199.5 79q-93 0 -172.5 -43.5t-131.5 -115t-81.5 -163t-29.5 -188.5
q0 -149 80 -228t198 -79q125 0 222 74.5t145.5 189t48.5 244.5z" />
    <glyph glyph-name="odieresis" unicode="&#xf6;" horiz-adv-x="1120" 
d="M377 1452h172l-29 -184h-170zM815 1452h170l-27 -184h-172zM618 1075q83 0 158 -27t136.5 -79.5t98 -138.5t36.5 -195q0 -130 -43.5 -249t-119.5 -207t-186 -140.5t-235 -52.5q-84 0 -159 27t-136 78.5t-97 137.5t-36 195q0 174 74 323t208.5 238.5t300.5 89.5zM887 631
q0 151 -79.5 230t-199.5 79q-93 0 -172.5 -43.5t-131.5 -115t-81.5 -163t-29.5 -188.5q0 -149 80 -228t198 -79q125 0 222 74.5t145.5 189t48.5 244.5z" />
    <glyph glyph-name="divide" unicode="&#xf7;" horiz-adv-x="876" 
d="M494 817q-37 0 -58.5 26.5t-15.5 63.5q3 28 27 48t53 20q36 0 57.5 -26t15.5 -62q-5 -29 -27.5 -49.5t-51.5 -20.5zM78 633h753l-20 -119h-752zM391 170q-36 0 -58.5 26.5t-17.5 63.5q6 29 29.5 49.5t52.5 20.5q36 0 58.5 -26.5t17.5 -63.5q-6 -29 -29.5 -49.5
t-52.5 -20.5z" />
    <glyph glyph-name="oslash" unicode="&#xf8;" horiz-adv-x="1120" 
d="M893 985q154 -121 154 -350q0 -130 -43.5 -249t-119.5 -207t-186 -140.5t-235 -52.5q-100 0 -184 37l-80 -125h-146l121 188q-139 119 -139 338q0 174 74 323t208.5 238.5t300.5 89.5q86 0 168 -31l88 140h146zM193 430q0 -133 65 -211l451 705q-50 16 -101 16
q-93 0 -172.5 -43.5t-131.5 -115t-81.5 -163t-29.5 -188.5zM471 123q125 0 222 74.5t145.5 189t48.5 244.5q0 143 -76 225l-455 -711q55 -22 115 -22z" />
    <glyph glyph-name="ugrave" unicode="&#xf9;" horiz-adv-x="1128" 
d="M709 1190h-144l-223 262h233zM926 1065h164l-168 -1065h-164l37 236q-18 -34 -51.5 -72.5t-84 -80t-122.5 -68.5t-150 -27q-85 0 -149.5 22.5t-112 73.5t-61.5 133.5t2 202.5l102 645h164l-103 -645q-46 -289 207 -289q59 0 115.5 20t99 50t78.5 69t58.5 74.5t35.5 67.5z
" />
    <glyph glyph-name="uacute" unicode="&#xfa;" horiz-adv-x="1128" 
d="M979 1452l-262 -262h-142l177 262h227zM926 1065h164l-168 -1065h-164l37 236q-18 -34 -51.5 -72.5t-84 -80t-122.5 -68.5t-150 -27q-85 0 -149.5 22.5t-112 73.5t-61.5 133.5t2 202.5l102 645h164l-103 -645q-46 -289 207 -289q59 0 115.5 20t99 50t78.5 69t58.5 74.5
t35.5 67.5z" />
    <glyph glyph-name="ucircumflex" unicode="&#xfb;" horiz-adv-x="1128" 
d="M662 1368l-226 -182h-135l223 266h287l143 -266h-129zM926 1065h164l-168 -1065h-164l37 236q-18 -34 -51.5 -72.5t-84 -80t-122.5 -68.5t-150 -27q-85 0 -149.5 22.5t-112 73.5t-61.5 133.5t2 202.5l102 645h164l-103 -645q-46 -289 207 -289q59 0 115.5 20t99 50
t78.5 69t58.5 74.5t35.5 67.5z" />
    <glyph glyph-name="udieresis" unicode="&#xfc;" horiz-adv-x="1128" 
d="M555 1452l-29 -184h-170l27 184h172zM991 1452l-26 -184h-172l28 184h170zM926 1065h164l-168 -1065h-164l37 236q-18 -34 -51.5 -72.5t-84 -80t-122.5 -68.5t-150 -27q-85 0 -149.5 22.5t-112 73.5t-61.5 133.5t2 202.5l102 645h164l-103 -645q-46 -289 207 -289
q59 0 115.5 20t99 50t78.5 69t58.5 74.5t35.5 67.5z" />
    <glyph glyph-name="yacute" unicode="&#xfd;" horiz-adv-x="1064" 
d="M561 1190h141l263 262h-228zM928 1065h170l-647 -1155q-99 -179 -211 -247t-269 -48l23 139q109 -14 184 34.5t129 148.5q26 49 33.5 72.5t1.5 49.5l-248 1006h164l197 -872z" />
    <glyph glyph-name="thorn" unicode="&#xfe;" horiz-adv-x="1153" 
d="M690 1077q79 0 147.5 -25.5t123.5 -76t86.5 -133.5t31.5 -189q0 -132 -39.5 -254t-109.5 -214.5t-174 -147.5t-224 -55q-133 0 -215 63.5t-108 165.5l-96 -600h-166l289 1823h163l-90 -562q137 205 381 205zM510 119q95 0 174 46t129.5 121.5t78.5 169.5t28 193
q0 146 -75 219.5t-190 73.5q-97 0 -177 -43.5t-131.5 -117t-79 -166.5t-27.5 -195q0 -149 75 -225t195 -76z" />
    <glyph glyph-name="ydieresis" unicode="&#xff;" horiz-adv-x="1064" 
d="M369 1452h172l-29 -184h-170zM807 1452h170l-27 -184h-172zM928 1065h170l-647 -1155q-99 -179 -211 -247t-269 -48l23 139q109 -14 184 34.5t129 148.5q26 49 33.5 72.5t1.5 49.5l-248 1006h164l197 -872z" />
    <glyph glyph-name="Amacron" unicode="&#x100;" horiz-adv-x="1392" 
d="M1210 1821l-14 -103h-629l15 103h628zM1063 0l-80 367h-643l-197 -367h-186l793 1434h155l342 -1434h-184zM412 498h542l-157 714z" />
    <glyph glyph-name="amacron" unicode="&#x101;" 
d="M1008 1452l-15 -102h-628l14 102h629zM618 1075q221 0 310 -95t57 -300l-78 -504q-6 -42 11.5 -59t62.5 -15l-16 -100q-34 -10 -72 -10q-80 0 -118 39t-23 116l12 64q-13 -21 -33.5 -45t-60 -57.5t-85 -59.5t-112 -44.5t-137.5 -18.5q-144 0 -231 71t-87 203
q0 84 29.5 145.5t87 101t129.5 62.5t170 37q16 2 66 9t74.5 10.5t69 10.5t71.5 13t58 15t52 18l2 10q24 141 -30 198.5t-189 57.5q-121 0 -187 -40t-95 -120h-158q41 148 149.5 217.5t300.5 69.5zM768 340l41 240q-20 -8 -48 -16t-70 -16t-71.5 -13.5t-90.5 -15.5t-89 -15
q-133 -22 -195.5 -74t-62.5 -151q0 -80 51.5 -125t143.5 -45q77 0 148 27t119.5 67.5t78 74.5t45.5 62z" />
    <glyph glyph-name="Abreve" unicode="&#x102;" horiz-adv-x="1392" 
d="M844 1559q-76 0 -131 21.5t-84 59t-39.5 83.5t-1.5 98h110q-13 -152 156 -152q175 0 215 152h111q-19 -118 -101.5 -190t-234.5 -72zM1063 0l-80 367h-643l-197 -367h-186l793 1434h155l342 -1434h-184zM412 498h542l-157 714z" />
    <glyph glyph-name="abreve" unicode="&#x103;" 
d="M641 1190q-76 0 -131 21.5t-84 59t-39.5 83.5t-1.5 98h111q-6 -72 31 -112t124 -40q175 0 215 152h111q-19 -118 -101.5 -190t-234.5 -72zM985 680l-78 -504q-6 -42 11.5 -59t62.5 -15l-16 -100q-34 -10 -72 -10q-80 0 -118 39t-23 116l12 64q-13 -21 -33.5 -45
t-60 -57.5t-85 -59.5t-112 -44.5t-137.5 -18.5q-144 0 -231 71t-87 203q0 84 29.5 145.5t87 101t129.5 62.5t170 37q16 2 66 9t74.5 10.5t69 10.5t71.5 13t58 15t52 18l2 10q24 141 -30 198.5t-189 57.5q-121 0 -187 -40t-95 -120h-158q41 148 149.5 217.5t300.5 69.5
q221 0 310 -95t57 -300zM768 340l41 240q-20 -8 -48 -16t-70 -16t-71.5 -13.5t-90.5 -15.5t-89 -15q-133 -22 -195.5 -74t-62.5 -151q0 -80 51.5 -125t143.5 -45q77 0 148 27t119.5 67.5t78 74.5t45.5 62z" />
    <glyph glyph-name="Aogonek" unicode="&#x104;" horiz-adv-x="1392" 
d="M1194 0q-131 -42 -208.5 -108t-88.5 -140q-9 -59 38.5 -79t139.5 1l-6 -84q-48 -21 -108 -24.5t-114.5 10t-86.5 57.5t-21 111q14 90 111.5 158.5t212.5 97.5l-80 367h-643l-197 -367h-186l793 1434h155l342 -1434h-53zM412 498h542l-157 714z" />
    <glyph glyph-name="aogonek" unicode="&#x105;" horiz-adv-x="1099" 
d="M985 680l-78 -504q-6 -42 11.5 -59t62.5 -15l-16 -100q-8 -2 -35 -8q-117 -42 -177.5 -103t-60.5 -129q0 -64 52.5 -87t142.5 -3v-80q-46 -21 -105 -26t-114.5 7t-94 53.5t-38.5 107.5q0 50 26.5 95.5t69.5 78.5t92 56.5t100 35.5h4q-98 29 -75 147l12 64
q-13 -21 -33.5 -45t-60 -57.5t-85 -59.5t-112 -44.5t-137.5 -18.5q-144 0 -231 71t-87 203q0 84 29.5 145.5t87 101t129.5 62.5t170 37q16 2 66 9t74.5 10.5t69 10.5t71.5 13t58 15t52 18l2 10q24 141 -30 198.5t-189 57.5q-121 0 -187 -40t-95 -120h-158
q41 148 149.5 217.5t300.5 69.5q221 0 310 -95t57 -300zM768 340l41 240q-20 -8 -48 -16t-70 -16t-71.5 -13.5t-90.5 -15.5t-89 -15q-133 -22 -195.5 -74t-62.5 -151q0 -80 51.5 -125t143.5 -45q77 0 148 27t119.5 67.5t78 74.5t45.5 62z" />
    <glyph glyph-name="Cacute" unicode="&#x106;" horiz-adv-x="1325" 
d="M760 1559h141l262 262h-227zM629 133q292 0 415 232h173q-69 -182 -235 -282.5t-380 -100.5q-243 0 -385.5 142t-142.5 415q0 145 32 279.5t97 249.5t155.5 201t214 134.5t265.5 48.5q213 0 345 -100t142 -281h-170q-22 110 -107 171t-231 61q-107 0 -199.5 -42.5
t-158.5 -115.5t-113.5 -169t-70.5 -204t-23 -219q0 -208 100.5 -314t276.5 -106z" />
    <glyph glyph-name="cacute" unicode="&#x107;" horiz-adv-x="1062" 
d="M555 1190h141l262 262h-227zM469 123q116 0 191.5 49t123.5 145h156q-133 -331 -479 -331q-87 0 -162.5 26t-135.5 77t-95 136t-35 193q0 134 42.5 254.5t118 209.5t185 141t237.5 52q351 0 392 -334h-150q-19 104 -77.5 151.5t-170.5 47.5q-96 0 -176.5 -45.5
t-132 -119.5t-80 -166.5t-28.5 -188.5q0 -146 77 -221.5t199 -75.5z" />
    <glyph glyph-name="Cdotaccent" unicode="&#x10a;" horiz-adv-x="1325" 
d="M791 1821h172l-29 -185h-170zM629 133q292 0 415 232h173q-69 -182 -235 -282.5t-380 -100.5q-243 0 -385.5 142t-142.5 415q0 145 32 279.5t97 249.5t155.5 201t214 134.5t265.5 48.5q213 0 345 -100t142 -281h-170q-22 110 -107 171t-231 61q-107 0 -199.5 -42.5
t-158.5 -115.5t-113.5 -169t-70.5 -204t-23 -219q0 -208 100.5 -314t276.5 -106z" />
    <glyph glyph-name="cdotaccent" unicode="&#x10b;" horiz-adv-x="1062" 
d="M586 1452h172l-29 -184h-170zM469 123q116 0 191.5 49t123.5 145h156q-133 -331 -479 -331q-87 0 -162.5 26t-135.5 77t-95 136t-35 193q0 134 42.5 254.5t118 209.5t185 141t237.5 52q351 0 392 -334h-150q-19 104 -77.5 151.5t-170.5 47.5q-96 0 -176.5 -45.5
t-132 -119.5t-80 -166.5t-28.5 -188.5q0 -146 77 -221.5t199 -75.5z" />
    <glyph glyph-name="Ccaron" unicode="&#x10c;" horiz-adv-x="1325" 
d="M1063 1821h135l-225 -267h-287l-141 267h129l166 -183zM629 133q292 0 415 232h173q-69 -182 -235 -282.5t-380 -100.5q-243 0 -385.5 142t-142.5 415q0 145 32 279.5t97 249.5t155.5 201t214 134.5t265.5 48.5q213 0 345 -100t142 -281h-170q-22 110 -107 171t-231 61
q-107 0 -199.5 -42.5t-158.5 -115.5t-113.5 -169t-70.5 -204t-23 -219q0 -208 100.5 -314t276.5 -106z" />
    <glyph glyph-name="ccaron" unicode="&#x10d;" horiz-adv-x="1062" 
d="M858 1452h135l-225 -266h-287l-141 266h129l166 -182zM469 123q116 0 191.5 49t123.5 145h156q-133 -331 -479 -331q-87 0 -162.5 26t-135.5 77t-95 136t-35 193q0 134 42.5 254.5t118 209.5t185 141t237.5 52q351 0 392 -334h-150q-19 104 -77.5 151.5t-170.5 47.5
q-96 0 -176.5 -45.5t-132 -119.5t-80 -166.5t-28.5 -188.5q0 -146 77 -221.5t199 -75.5z" />
    <glyph glyph-name="Dcaron" unicode="&#x10e;" horiz-adv-x="1318" 
d="M1028 1821h135l-225 -267h-287l-141 267h129l166 -183zM684 1434q288 0 437 -143.5t149 -413.5q0 -260 -92.5 -457t-275.5 -308.5t-435 -111.5h-447l226 1434h438zM467 158q156 0 278 53.5t199.5 150t117.5 228t40 291.5q0 203 -110.5 300t-336.5 97h-262l-176 -1120h250
z" />
    <glyph glyph-name="dcaron" unicode="&#x10f;" horiz-adv-x="1380" 
d="M586 1075q133 0 219 -65t110 -168l95 592h164l-228 -1434h-164l35 205q-65 -104 -162.5 -161.5t-222.5 -57.5q-80 0 -150.5 26.5t-127 77.5t-89 134.5t-32.5 189.5q0 176 68 326.5t196 242.5t289 92zM1174 1130h133l241 304h-198zM469 123q129 0 225.5 74t143.5 189
t47 251q0 150 -76.5 226.5t-194.5 76.5q-100 0 -181.5 -44t-132.5 -117.5t-78 -165.5t-27 -193q0 -146 77 -221.5t197 -75.5z" />
    <glyph glyph-name="Dcroat" unicode="&#x110;" horiz-adv-x="1368" 
d="M733 1434q288 0 437 -143.5t149 -413.5q0 -260 -92.5 -457t-275.5 -308.5t-435 -111.5h-446l102 653h-102l20 119h100l105 662h438zM516 158q156 0 278 53.5t199.5 150t117.5 228t40 291.5q0 203 -110.5 300t-335.5 97h-263l-80 -506h424l-20 -119h-422l-78 -495h250z
" />
    <glyph glyph-name="dcroat" unicode="&#x111;" horiz-adv-x="1224" 
d="M1329 1321l-16 -102h-174l-193 -1219h-164l35 205q-65 -104 -162.5 -161.5t-222.5 -57.5q-80 0 -150.5 26.5t-127 77.5t-89 134.5t-32.5 189.5q0 176 68 326.5t196 242.5t289 92q133 0 219 -65t110 -168l60 377h-281l17 102h280l19 113h164l-19 -113h174zM469 123
q129 0 225.5 74t143.5 189t47 251q0 150 -76.5 226.5t-194.5 76.5q-100 0 -181.5 -44t-132.5 -117.5t-78 -165.5t-27 -193q0 -146 77 -221.5t197 -75.5z" />
    <glyph glyph-name="Emacron" unicode="&#x112;" 
d="M479 1821h629l-14 -103h-629zM1153 1284h-760l-76 -477h658l-23 -139h-657l-82 -516h780l-24 -152h-951l228 1434h930z" />
    <glyph glyph-name="emacron" unicode="&#x113;" horiz-adv-x="1101" 
d="M1022 1452l-14 -102h-629l14 102h629zM1008 469h-818q-2 -16 -2 -47q0 -157 79.5 -233t215.5 -76q100 0 167 28.5t126 94.5h160q-85 -133 -197.5 -191.5t-271.5 -58.5q-91 0 -168.5 27t-137.5 79.5t-94 136.5t-34 191q0 181 73.5 330.5t208.5 237t303 87.5
q180 0 296 -109.5t116 -316.5q0 -36 -6.5 -94t-15.5 -86zM606 948q-155 0 -259 -104t-140 -264h661q11 40 11 88q0 133 -75.5 206.5t-197.5 73.5z" />
    <glyph glyph-name="Edotaccent" unicode="&#x116;" 
d="M698 1821h172l-28 -185h-170zM1153 1284h-760l-76 -477h658l-23 -139h-657l-82 -516h780l-24 -152h-951l228 1434h930z" />
    <glyph glyph-name="edotaccent" unicode="&#x117;" horiz-adv-x="1101" 
d="M784 1452l-28 -184h-170l26 184h172zM1008 469h-818q-2 -16 -2 -47q0 -157 79.5 -233t215.5 -76q100 0 167 28.5t126 94.5h160q-85 -133 -197.5 -191.5t-271.5 -58.5q-91 0 -168.5 27t-137.5 79.5t-94 136.5t-34 191q0 181 73.5 330.5t208.5 237t303 87.5
q180 0 296 -109.5t116 -316.5q0 -36 -6.5 -94t-15.5 -86zM606 948q-155 0 -259 -104t-140 -264h661q11 40 11 88q0 133 -75.5 206.5t-197.5 73.5z" />
    <glyph glyph-name="Eogonek" unicode="&#x118;" horiz-adv-x="1134" 
d="M1153 1284h-760l-76 -477h658l-23 -139h-657l-82 -516h780l-24 -152h10q-131 -42 -209.5 -108.5t-89.5 -139.5q-9 -59 37.5 -79t138.5 1l-4 -84q-49 -21 -109 -24.5t-114.5 10t-86 57.5t-20.5 111q14 90 106 158.5t199 97.5h-809l228 1434h930z" />
    <glyph glyph-name="eogonek" unicode="&#x119;" horiz-adv-x="1093" 
d="M612 1077q86 0 158.5 -25.5t129 -76t88.5 -134t32 -190.5q0 -55 -10 -133l-9 -45h-808q-3 -24 -3 -51q0 -152 79.5 -227.5t207.5 -75.5q182 0 293 119h164q-72 -115 -164.5 -175t-212.5 -75q-126 -40 -199 -104t-84 -136q-9 -61 38 -81t139 1l-5 -84q-49 -21 -109 -24.5
t-114 10t-85.5 57.5t-20.5 111q9 56 54.5 107.5t104 85t125.5 55.5q-76 9 -141 39.5t-116.5 82t-81 132.5t-29.5 182q0 178 73.5 327.5t207 238.5t298.5 89zM604 942q-146 0 -249.5 -99t-143.5 -253h649q4 50 4 67q0 143 -70 214t-190 71z" />
    <glyph glyph-name="Ecaron" unicode="&#x11a;" 
d="M971 1821h135l-225 -267h-287l-141 267h129l166 -183zM1153 1284h-760l-76 -477h658l-23 -139h-657l-82 -516h780l-24 -152h-951l228 1434h930z" />
    <glyph glyph-name="ecaron" unicode="&#x11b;" horiz-adv-x="1093" 
d="M776 1167h-287l-143 267h129l166 -183l223 183h135zM612 1077q86 0 158.5 -25.5t129 -76t88.5 -134t32 -190.5q0 -55 -10 -133l-9 -45h-808q-3 -24 -3 -51q0 -152 79.5 -227.5t207.5 -75.5q182 0 293 119h164q-87 -137 -201.5 -196.5t-271.5 -59.5q-85 0 -160.5 26.5
t-136 78.5t-96 138.5t-35.5 196.5q0 178 73.5 327.5t207 238.5t298.5 89zM604 942q-146 0 -249.5 -99t-143.5 -253h649q4 50 4 67q0 143 -70 214t-190 71z" />
    <glyph glyph-name="Gbreve" unicode="&#x11e;" horiz-adv-x="1368" 
d="M1081 1821h111q-19 -118 -101.5 -190t-234.5 -72q-76 0 -131 21.5t-84 59t-39.5 83.5t-1.5 98h111q-6 -72 31 -112t124 -40q175 0 215 152zM795 735h524l-14 -82q-109 -671 -697 -671q-247 0 -390.5 141t-143.5 412q0 146 32 281.5t96.5 251t155 201.5t214 134.5
t266.5 48.5q213 0 345 -100t142 -281h-170q-22 110 -107 171t-231 61q-108 0 -201 -42.5t-159 -115t-113 -168.5t-69.5 -204.5t-22.5 -221.5q0 -207 101.5 -312.5t279.5 -105.5q209 0 338 117t170 346h-369z" />
    <glyph glyph-name="gbreve" unicode="&#x11f;" horiz-adv-x="1153" 
d="M922 1452h110q-19 -118 -101.5 -190t-234.5 -72q-76 0 -131 21.5t-84 59t-39.5 83.5t-1.5 98h111q-13 -152 156 -152q175 0 215 152zM1114 1065l-168 -1063q-71 -453 -565 -453q-148 0 -255 57.5t-146 153.5l110 58q33 -61 109 -96t184 -35q173 0 272 76.5t129 254.5
l33 187q-137 -217 -385 -217q-80 0 -150.5 26t-127 76.5t-89 134t-32.5 189.5q0 174 68 324t196 243.5t289 93.5q134 0 220 -65t109 -168l35 223h164zM469 125q129 0 225.5 74.5t143.5 190t47 249.5q0 149 -76.5 225t-196.5 76q-99 0 -180 -45t-132 -119.5t-78 -166
t-27 -189.5q0 -146 77 -220.5t197 -74.5z" />
    <glyph glyph-name="Gdotaccent" unicode="&#x120;" horiz-adv-x="1368" 
d="M813 1821h172l-29 -185h-170zM795 735h524l-14 -82q-109 -671 -697 -671q-247 0 -390.5 141t-143.5 412q0 146 32 281.5t96.5 251t155 201.5t214 134.5t266.5 48.5q213 0 345 -100t142 -281h-170q-22 110 -107 171t-231 61q-108 0 -201 -42.5t-159 -115t-113 -168.5
t-69.5 -204.5t-22.5 -221.5q0 -207 101.5 -312.5t279.5 -105.5q209 0 338 117t170 346h-369z" />
    <glyph glyph-name="gdotaccent" unicode="&#x121;" horiz-adv-x="1153" 
d="M653 1452h172l-28 -184h-170zM1114 1065l-168 -1063q-71 -453 -565 -453q-148 0 -255 57.5t-146 153.5l110 58q33 -61 109 -96t184 -35q173 0 272 76.5t129 254.5l33 187q-137 -217 -385 -217q-80 0 -150.5 26t-127 76.5t-89 134t-32.5 189.5q0 174 68 324t196 243.5
t289 93.5q134 0 220 -65t109 -168l35 223h164zM469 125q129 0 225.5 74.5t143.5 190t47 249.5q0 149 -76.5 225t-196.5 76q-99 0 -180 -45t-132 -119.5t-78 -166t-27 -189.5q0 -146 77 -220.5t197 -74.5z" />
    <glyph glyph-name="Gcommaaccent" unicode="&#x122;" horiz-adv-x="1368" 
d="M795 735h524l-14 -82q-109 -671 -697 -671q-247 0 -390.5 141t-143.5 412q0 146 32 281.5t96.5 251t155 201.5t214 134.5t266.5 48.5q213 0 345 -100t142 -281h-170q-22 110 -107 171t-231 61q-108 0 -201 -42.5t-159 -115t-113 -168.5t-69.5 -204.5t-22.5 -221.5
q0 -207 101.5 -312.5t279.5 -105.5q209 0 338 117t170 346h-369zM420 -608l10 55q49 21 73.5 62.5t35.5 115.5l8 64h-80l33 209h196l-41 -260q-38 -242 -235 -246z" />
    <glyph glyph-name="gcommaaccent" unicode="&#x123;" horiz-adv-x="1153" 
d="M801 1735l-10 -56q-49 -21 -73.5 -62.5t-35.5 -115.5l-8 -63h80l-33 -209h-197l41 260q38 242 236 246zM1114 1065l-168 -1063q-71 -453 -565 -453q-148 0 -255 57.5t-146 153.5l110 58q33 -61 109 -96t184 -35q173 0 272 76.5t129 254.5l33 187q-137 -217 -385 -217
q-80 0 -150.5 26t-127 76.5t-89 134t-32.5 189.5q0 174 68 324t196 243.5t289 93.5q134 0 220 -65t109 -168l35 223h164zM469 125q129 0 225.5 74.5t143.5 190t47 249.5q0 149 -76.5 225t-196.5 76q-99 0 -180 -45t-132 -119.5t-78 -166t-27 -189.5q0 -146 77 -220.5
t197 -74.5z" />
    <glyph glyph-name="Hbar" unicode="&#x126;" horiz-adv-x="1329" 
d="M1169 1434h170l-227 -1434h-170l100 633h-751l-101 -633h-172l228 1434h172l-51 -328h751zM313 774h752l31 199h-752z" />
    <glyph glyph-name="hbar" unicode="&#x127;" horiz-adv-x="1224" 
d="M801 1075q67 0 121 -13.5t99.5 -44.5t70.5 -80.5t35 -122t-7 -169.5l-102 -645h-164l102 649q25 156 -33 221.5t-182 65.5q-74 0 -141 -28.5t-112.5 -73t-76.5 -89t-46 -86.5l-105 -659h-164l183 1157h-148l14 100h148l29 177h163l-28 -177h221l-14 -100h-222l-53 -332
q11 25 34 56t61.5 65.5t84 63t107 47t125.5 18.5z" />
    <glyph glyph-name="Imacron" unicode="&#x12a;" horiz-adv-x="409" 
d="M90 1821h629l-14 -103h-629zM193 0h-173l226 1434h172z" />
    <glyph glyph-name="imacron" unicode="&#x12b;" horiz-adv-x="374" 
d="M14 1452h629l-14 -102h-629zM176 1065h164l-168 -1065h-164z" />
    <glyph glyph-name="Iogonek" unicode="&#x12e;" horiz-adv-x="462" 
d="M297 1434h174l-225 -1434h-45q-131 -42 -208.5 -108t-88.5 -140q-9 -59 38.5 -79t139.5 1l-4 -84q-49 -21 -109.5 -24.5t-115 10t-86.5 57.5t-21 111q14 90 112 159t214 97z" />
    <glyph glyph-name="iogonek" unicode="&#x12f;" horiz-adv-x="477" 
d="M334 1452h170l-29 -184h-172zM86 0l168 1065h164l-168 -1065h-33q-131 -42 -208.5 -108t-88.5 -140q-9 -59 37.5 -79t140.5 1l-6 -84q-49 -21 -109 -24.5t-114.5 10t-86 57.5t-20.5 111q14 90 111.5 158.5t212.5 97.5z" />
    <glyph glyph-name="Idotaccent" unicode="&#x130;" horiz-adv-x="409" 
d="M309 1821h172l-28 -185h-170zM193 0h-173l226 1434h172z" />
    <glyph glyph-name="dotlessi" unicode="&#x131;" horiz-adv-x="374" 
d="M176 1065h164l-168 -1065h-164z" />
    <glyph glyph-name="IJ" unicode="&#x132;" horiz-adv-x="1429" 
d="M193 0h-173l226 1434h172zM479 274q88 -135 287 -135q62 0 115 17.5t102.5 56.5t85 111.5t51.5 173.5l150 936h170l-150 -942q-21 -136 -73 -236.5t-125.5 -158t-157.5 -84.5t-182 -27q-266 0 -385 182z" />
    <glyph glyph-name="Kcommaaccent" unicode="&#x136;" horiz-adv-x="1308" 
d="M1346 1434l-707 -662l535 -772h-195l-461 657l-262 -245l-66 -412h-172l228 1434h172l-125 -789l848 789h205zM418 -328l31 205h213l-41 -262q-11 -70 -36.5 -119t-61.5 -73.5t-70.5 -34.5t-77.5 -13l2 58q43 21 64.5 62t35.5 120l10 57h-69z" />
    <glyph glyph-name="kcommaaccent" unicode="&#x137;" horiz-adv-x="1093" 
d="M1079 1065l-544 -481l438 -584h-180l-371 483l-199 -176l-49 -307h-164l226 1434h163l-145 -924l623 555h202zM317 -311l33 209h197l-41 -260q-38 -242 -236 -246l11 55q49 21 73 62t35 116l8 64h-80z" />
    <glyph glyph-name="Lacute" unicode="&#x139;" horiz-adv-x="1120" 
d="M272 1559h142l262 262h-227zM215 152h731l-24 -152h-904l228 1434h172z" />
    <glyph glyph-name="lacute" unicode="&#x13a;" horiz-adv-x="399" 
d="M262 1559h141l263 262h-228zM231 1434h164l-225 -1434h-164z" />
    <glyph glyph-name="Lcommaaccent" unicode="&#x13b;" horiz-adv-x="1120" 
d="M215 152h731l-24 -152h-904l228 1434h172zM289 -608l10 55q49 21 73.5 62.5t35.5 115.5l8 64h-80l33 209h196l-41 -260q-38 -242 -235 -246z" />
    <glyph glyph-name="lcommaaccent" unicode="&#x13c;" horiz-adv-x="432" 
d="M264 1434h164l-225 -1434h-164zM-84 -625l2 58q44 21 66 62.5t36 119.5l11 57h-72l33 205h213l-41 -262q-11 -70 -36.5 -119t-62 -73.5t-71 -34.5t-78.5 -13z" />
    <glyph glyph-name="Lcaron" unicode="&#x13d;" horiz-adv-x="1120" 
d="M215 152h731l-24 -152h-904l228 1434h172zM580 932v57q46 23 68.5 64.5t33.5 117.5l8 58h-69l32 205h213l-41 -260q-12 -71 -37 -119.5t-60.5 -73.5t-70 -35.5t-77.5 -13.5z" />
    <glyph glyph-name="lcaron" unicode="&#x13e;" horiz-adv-x="651" 
d="M236 1434h163l-225 -1434h-164zM444 932l2 57q44 23 66.5 64.5t34.5 117.5l10 58h-70l31 205h213l-41 -260q-11 -71 -36 -119.5t-61 -73.5t-71 -35.5t-78 -13.5z" />
    <glyph glyph-name="Lslash" unicode="&#x141;" horiz-adv-x="1189" 
d="M285 152h731l-25 -152h-903l78 494l-168 -152l25 172l172 156l120 764h172l-92 -582l269 242h4l-25 -170l-276 -248z" />
    <glyph glyph-name="lslash" unicode="&#x142;" horiz-adv-x="618" 
d="M655 1094l-26 -179l-232 -208l-110 -707h-164l84 535l-201 -183l27 178l203 183l112 721h164l-86 -547z" />
    <glyph glyph-name="Nacute" unicode="&#x143;" horiz-adv-x="1355" 
d="M772 1559h141l263 262h-228zM1366 1434l-227 -1434h-185l-575 1165h-4l-185 -1165h-172l228 1434h180l580 -1172h4l186 1172h170z" />
    <glyph glyph-name="nacute" unicode="&#x144;" 
d="M598 1190h141l262 262h-227zM702 1075q85 0 149 -22.5t111.5 -73.5t61.5 -134t-2 -204l-102 -641h-164l102 645q49 291 -215 291q-74 0 -141 -29t-113 -74.5t-77 -90.5t-46 -87l-104 -655h-164l168 1065h164l-39 -242q15 32 48.5 72t84.5 82t125 70t153 28z" />
    <glyph glyph-name="Ncommaaccent" unicode="&#x145;" horiz-adv-x="1355" 
d="M1366 1434l-227 -1434h-185l-575 1165h-4l-185 -1165h-172l228 1434h180l580 -1172h4l186 1172h170zM410 -608l10 55q49 21 73 62t35 116l9 64h-80l32 209h197l-41 -260q-38 -242 -235 -246z" />
    <glyph glyph-name="ncommaaccent" unicode="&#x146;" 
d="M702 1075q85 0 149 -22.5t111.5 -73.5t61.5 -134t-2 -204l-102 -641h-164l102 645q49 291 -215 291q-74 0 -141 -29t-113 -74.5t-77 -90.5t-46 -87l-104 -655h-164l168 1065h164l-39 -242q15 32 48.5 72t84.5 82t125 70t153 28zM295 -608l10 55q49 21 73.5 62.5
t35.5 115.5l8 64h-80l33 209h196l-41 -260q-38 -242 -235 -246z" />
    <glyph glyph-name="Ncaron" unicode="&#x147;" horiz-adv-x="1355" 
d="M1075 1821h135l-225 -267h-287l-141 267h129l166 -183zM1366 1434l-227 -1434h-185l-575 1165h-4l-185 -1165h-172l228 1434h180l580 -1172h4l186 1172h170z" />
    <glyph glyph-name="ncaron" unicode="&#x148;" 
d="M901 1452h135l-225 -266h-287l-141 266h129l166 -182zM702 1075q85 0 149 -22.5t111.5 -73.5t61.5 -134t-2 -204l-102 -641h-164l102 645q49 291 -215 291q-74 0 -141 -29t-113 -74.5t-77 -90.5t-46 -87l-104 -655h-164l168 1065h164l-39 -242q15 32 48.5 72t84.5 82
t125 70t153 28z" />
    <glyph glyph-name="Eng" unicode="&#x14a;" horiz-adv-x="1355" 
d="M1196 1434h170l-219 -1379q-21 -136 -73 -236.5t-125.5 -158t-158 -84.5t-182.5 -27q-269 0 -383 183l111 104q88 -135 287 -135q55 0 104 14t95.5 45.5t83 89t57.5 136.5l-584 1179h-4l-185 -1165h-172l228 1434h180l580 -1172h4l116 735z" />
    <glyph glyph-name="eng" unicode="&#x14b;" 
d="M702 1079q85 0 149 -22.5t111.5 -73.5t61.5 -134t-2 -204l-129 -811q-24 -152 -98 -218.5t-193 -66.5q-117 0 -194 54l24 135q67 -43 146 -43q129 0 157 180l123 774q49 291 -215 291q-74 0 -141 -29t-113 -74.5t-77 -90.5t-46 -87l-104 -659h-164l168 1065h164l-39 -240
q15 33 48.5 73t84.5 82.5t125 70.5t153 28z" />
    <glyph glyph-name="Omacron" unicode="&#x14c;" horiz-adv-x="1447" 
d="M631 1821h629l-15 -103h-629zM850 1452q250 0 396.5 -144t146.5 -409q0 -147 -34 -284t-100.5 -251.5t-159.5 -200t-217.5 -133.5t-267.5 -48q-249 0 -395.5 144.5t-146.5 408.5q0 148 33.5 285t100 251.5t159 199.5t217.5 133t268 48zM635 133q110 0 205 42t163 114
t116 168t71.5 205.5t23.5 224.5q0 202 -102 307.5t-285 105.5q-110 0 -205 -42t-162.5 -114t-115.5 -168.5t-71 -206t-23 -224.5q0 -201 101.5 -306.5t283.5 -105.5z" />
    <glyph glyph-name="omacron" unicode="&#x14d;" horiz-adv-x="1120" 
d="M381 1452h629l-15 -102h-628zM618 1075q83 0 158 -27t136.5 -79.5t98 -138.5t36.5 -195q0 -130 -43.5 -249t-119.5 -207t-186 -140.5t-235 -52.5q-84 0 -159 27t-136 78.5t-97 137.5t-36 195q0 174 74 323t208.5 238.5t300.5 89.5zM887 631q0 151 -79.5 230t-199.5 79
q-93 0 -172.5 -43.5t-131.5 -115t-81.5 -163t-29.5 -188.5q0 -149 80 -228t198 -79q125 0 222 74.5t145.5 189t48.5 244.5z" />
    <glyph glyph-name="Ohungarumlaut" unicode="&#x150;" horiz-adv-x="1447" 
d="M614 1559h146l221 262h-231zM952 1559h146l221 262h-232zM850 1452q250 0 396.5 -144t146.5 -409q0 -147 -34 -284t-100.5 -251.5t-159.5 -200t-217.5 -133.5t-267.5 -48q-249 0 -395.5 144.5t-146.5 408.5q0 148 33.5 285t100 251.5t159 199.5t217.5 133t268 48z
M635 133q110 0 205 42t163 114t116 168t71.5 205.5t23.5 224.5q0 202 -102 307.5t-285 105.5q-110 0 -205 -42t-162.5 -114t-115.5 -168.5t-71 -206t-23 -224.5q0 -201 101.5 -306.5t283.5 -105.5z" />
    <glyph glyph-name="ohungarumlaut" unicode="&#x151;" horiz-adv-x="1120" 
d="M365 1190h145l221 262h-231zM702 1190h146l221 262h-231zM618 1075q83 0 158 -27t136.5 -79.5t98 -138.5t36.5 -195q0 -130 -43.5 -249t-119.5 -207t-186 -140.5t-235 -52.5q-84 0 -159 27t-136 78.5t-97 137.5t-36 195q0 174 74 323t208.5 238.5t300.5 89.5zM887 631
q0 151 -79.5 230t-199.5 79q-93 0 -172.5 -43.5t-131.5 -115t-81.5 -163t-29.5 -188.5q0 -149 80 -228t198 -79q125 0 222 74.5t145.5 189t48.5 244.5z" />
    <glyph glyph-name="OE" unicode="&#x152;" horiz-adv-x="2203" 
d="M2230 1284h-760l-75 -477h657l-22 -139h-658l-82 -516h781l-25 -152h-950l30 188q-209 -206 -512 -206q-249 0 -395.5 144.5t-146.5 408.5q0 148 33.5 285t100 251.5t159 199.5t217.5 133t268 48q146 0 260 -51.5t184 -149.5l29 183h930zM635 133q110 0 205 42t163 114
t116 168t71.5 205.5t23.5 224.5q0 202 -102 307.5t-285 105.5q-110 0 -205 -42t-162.5 -114t-115.5 -168.5t-71 -206t-23 -224.5q0 -201 101.5 -306.5t283.5 -105.5z" />
    <glyph glyph-name="oe" unicode="&#x153;" horiz-adv-x="1935" 
d="M1028 469l-6 -23v-24q0 -157 79.5 -233t215.5 -76q100 0 167 28.5t126 94.5h159q-85 -133 -197.5 -191.5t-271.5 -58.5q-133 0 -236.5 57t-154.5 168q-80 -106 -195 -165.5t-251 -59.5q-84 0 -159 27t-136 78.5t-97 137.5t-36 195q0 174 74 323t208.5 238.5t300.5 89.5
q123 0 226.5 -57t156.5 -168q80 105 196.5 165t254.5 60q180 0 296 -109.5t116 -316.5q0 -35 -7 -93.5t-16 -86.5h-813zM1440 948q-149 0 -250.5 -96t-142.5 -248q0 -4 -1.5 -12t-1.5 -12h658q10 36 10 88q0 133 -75 206.5t-197 73.5zM471 123q150 0 255 100.5t142 255.5
q3 55 19 115v37q0 151 -79.5 230t-199.5 79q-93 0 -172.5 -43.5t-131.5 -115t-81.5 -163t-29.5 -188.5q0 -149 80 -228t198 -79z" />
    <glyph glyph-name="Racute" unicode="&#x154;" horiz-adv-x="1282" 
d="M1139 1821l-262 -262h-142l176 262h228zM940 666q98 -26 145.5 -82.5t47.5 -147.5q0 -34 -19.5 -170t-19.5 -176q0 -60 18 -90h-170q-20 29 -20 90q0 42 19.5 165t19.5 159q0 92 -61.5 132t-162.5 40h-454l-93 -586h-172l228 1434h563q216 0 323 -86.5t107 -241.5
q0 -156 -80 -271.5t-219 -168.5zM721 725q156 0 249 100.5t93 247.5q0 211 -279 211h-391l-88 -559h416z" />
    <glyph glyph-name="racute" unicode="&#x155;" horiz-adv-x="759" 
d="M793 1452l-263 -262h-141l176 262h228zM287 791q40 120 151 202t258 82q38 0 82 -6l-24 -143q-27 2 -66 2q-164 0 -272 -87t-160 -239l-94 -602h-164l168 1065h164z" />
    <glyph glyph-name="Rcommaaccent" unicode="&#x156;" horiz-adv-x="1282" 
d="M940 666q98 -26 145.5 -82.5t47.5 -147.5q0 -34 -19.5 -170t-19.5 -176q0 -60 18 -90h-170q-20 29 -20 90q0 42 19.5 165t19.5 159q0 92 -61.5 132t-162.5 40h-454l-93 -586h-172l228 1434h563q216 0 323 -86.5t107 -241.5q0 -156 -80 -271.5t-219 -168.5zM721 725
q156 0 249 100.5t93 247.5q0 211 -279 211h-391l-88 -559h416zM420 -311l33 209h196l-41 -260q-38 -242 -235 -246l10 55q49 21 73.5 62.5t35.5 115.5l8 64h-80z" />
    <glyph glyph-name="rcommaaccent" unicode="&#x157;" horiz-adv-x="759" 
d="M696 1075q38 0 82 -6l-24 -143q-27 2 -66 2q-164 0 -272 -87t-160 -239l-94 -602h-164l168 1065h164l-43 -274q40 120 151 202t258 82zM-63 -311l32 209h197l-41 -260q-38 -242 -236 -246l11 55q49 21 73 62t35 116l8 64h-79z" />
    <glyph glyph-name="Rcaron" unicode="&#x158;" horiz-adv-x="1282" 
d="M948 1554h-286l-142 267h129l166 -183l223 183h136zM940 666q98 -26 145.5 -82.5t47.5 -147.5q0 -34 -19.5 -170t-19.5 -176q0 -60 18 -90h-170q-20 29 -20 90q0 42 19.5 165t19.5 159q0 92 -61.5 132t-162.5 40h-454l-93 -586h-172l228 1434h563q216 0 323 -86.5
t107 -241.5q0 -156 -80 -271.5t-219 -168.5zM721 725q156 0 249 100.5t93 247.5q0 211 -279 211h-391l-88 -559h416z" />
    <glyph glyph-name="rcaron" unicode="&#x159;" horiz-adv-x="759" 
d="M602 1186h-287l-141 266h129l166 -182l223 182h135zM287 791q40 120 151 202t258 82q38 0 82 -6l-24 -143q-27 2 -66 2q-164 0 -272 -87t-160 -239l-94 -602h-164l168 1065h164z" />
    <glyph glyph-name="Sacute" unicode="&#x15a;" horiz-adv-x="1245" 
d="M700 1559h142l262 262h-227zM760 788q189 -39 281 -118.5t92 -231.5q0 -141 -76.5 -245.5t-209.5 -157.5t-306 -53q-248 0 -373.5 119.5t-114.5 316.5h176q4 -289 328 -289q178 0 285.5 79.5t107.5 215.5q0 52 -17 90.5t-51 64t-73.5 41.5t-95.5 29l-201 43
q-328 69 -328 332q0 193 144 310.5t403 117.5q227 0 345 -102t112 -279h-174q-2 107 -73.5 171.5t-225.5 64.5q-170 0 -261.5 -74.5t-91.5 -190.5q0 -86 49 -138t160 -75z" />
    <glyph glyph-name="sacute" unicode="&#x15b;" horiz-adv-x="989" 
d="M522 1190h142l262 262h-228zM778 791q-25 157 -239 157q-124 0 -198.5 -53t-74.5 -133q0 -59 36.5 -93.5t121.5 -56.5l162 -39q50 -13 81 -22t67.5 -23.5t58 -30.5t41 -38.5t28 -52.5t8.5 -68q0 -90 -38.5 -159t-105 -110.5t-149.5 -62t-178 -20.5q-188 0 -295.5 81.5
t-101.5 241.5h150q8 -196 256 -196q128 0 214.5 54t86.5 155q0 59 -39.5 88.5t-124.5 50.5l-178 43q-131 33 -196 94.5t-65 161.5q0 142 124 228.5t315 86.5q174 0 272.5 -73t108.5 -211h-148z" />
    <glyph glyph-name="Scedilla" unicode="&#x15e;" horiz-adv-x="1245" 
d="M715 1307q-170 0 -261.5 -74.5t-91.5 -190.5q0 -86 49 -138t160 -75l189 -41q189 -39 281 -118.5t92 -231.5q0 -197 -143 -316.5t-378 -137.5l-90 -97q75 8 134 -33.5t59 -119.5q0 -191 -320 -191v76q189 6 189 111q0 56 -48 73.5t-108 -16.5l-43 66l84 131
q-213 18 -319 135t-97 299h176q4 -289 328 -289q178 0 285.5 79.5t107.5 215.5q0 52 -17 90.5t-51 64t-73.5 41.5t-95.5 29l-201 43q-328 69 -328 332q0 193 144 310.5t403 117.5q227 0 345 -102t112 -279h-174q-2 107 -73.5 171.5t-225.5 64.5z" />
    <glyph glyph-name="scedilla" unicode="&#x15f;" horiz-adv-x="989" 
d="M586 573q50 -13 81 -22t67.5 -23.5t58 -30.5t41 -38.5t28 -52.5t8.5 -68q0 -80 -31 -144t-86 -105.5t-124.5 -66t-151.5 -32.5l-94 -103q75 8 133.5 -33.5t58.5 -119.5q0 -191 -319 -191v76q188 6 188 111q0 56 -47.5 73.5t-107.5 -16.5l-43 66l86 135q-158 14 -247 95
t-83 226h150q8 -196 256 -196q128 0 214.5 54t86.5 155q0 59 -39.5 88.5t-124.5 50.5l-178 43q-131 33 -196 94.5t-65 161.5q0 142 124 228.5t315 86.5q174 0 272.5 -73t108.5 -211h-148q-25 157 -239 157q-124 0 -198.5 -53t-74.5 -133q0 -59 36.5 -93.5t121.5 -56.5z" />
    <glyph glyph-name="Scaron" unicode="&#x160;" horiz-adv-x="1245" 
d="M1004 1821h135l-226 -267h-286l-142 267h129l166 -183zM760 788q189 -39 281 -118.5t92 -231.5q0 -141 -76.5 -245.5t-209.5 -157.5t-306 -53q-248 0 -373.5 119.5t-114.5 316.5h176q4 -289 328 -289q178 0 285.5 79.5t107.5 215.5q0 52 -17 90.5t-51 64t-73.5 41.5
t-95.5 29l-201 43q-328 69 -328 332q0 193 144 310.5t403 117.5q227 0 345 -102t112 -279h-174q-2 107 -73.5 171.5t-225.5 64.5q-170 0 -261.5 -74.5t-91.5 -190.5q0 -86 49 -138t160 -75z" />
    <glyph glyph-name="scaron" unicode="&#x161;" horiz-adv-x="989" 
d="M825 1452h136l-226 -266h-286l-142 266h129l166 -182zM778 791q-25 157 -239 157q-124 0 -198.5 -53t-74.5 -133q0 -59 36.5 -93.5t121.5 -56.5l162 -39q50 -13 81 -22t67.5 -23.5t58 -30.5t41 -38.5t28 -52.5t8.5 -68q0 -90 -38.5 -159t-105 -110.5t-149.5 -62
t-178 -20.5q-188 0 -295.5 81.5t-101.5 241.5h150q8 -196 256 -196q128 0 214.5 54t86.5 155q0 59 -39.5 88.5t-124.5 50.5l-178 43q-131 33 -196 94.5t-65 161.5q0 142 124 228.5t315 86.5q174 0 272.5 -73t108.5 -211h-148z" />
    <glyph glyph-name="uni0162" unicode="&#x162;" horiz-adv-x="1187" 
d="M184 1434h1076l-25 -150h-451l-204 -1284h10l-129 -113q74 3 124.5 -42t37.5 -124q-9 -53 -39 -89t-78.5 -55.5t-103 -27.5t-123.5 -8l6 76q190 6 209 121q9 51 -35 64.5t-107 -19.5l-39 67l107 150h-10l202 1284h-450z" />
    <glyph glyph-name="uni0163" unicode="&#x163;" horiz-adv-x="659" 
d="M416 934l-115 -727q-7 -44 9.5 -63t62.5 -19q68 0 143 16l-22 -131q-41 -15 -109 -22l-94 -101q75 8 133.5 -33.5t58.5 -119.5q0 -191 -319 -191v76q188 6 188 111q0 56 -47.5 73.5t-107.5 -16.5l-43 66l90 141q-136 34 -105 217l113 723h-166l18 131h170l41 266h164
l-43 -266h215l-20 -131h-215z" />
    <glyph glyph-name="Tcaron" unicode="&#x164;" horiz-adv-x="1187" 
d="M967 1821h135l-225 -267h-287l-141 267h129l165 -183zM1260 1434l-25 -150h-451l-204 -1284h-170l202 1284h-450l22 150h1076z" />
    <glyph glyph-name="tcaron" unicode="&#x165;" horiz-adv-x="632" 
d="M707 1434h202l-258 -304h-129zM479 1331l-43 -266h215l-20 -131h-215l-115 -727q-7 -44 9.5 -63t62.5 -19q68 0 143 16l-22 -131q-63 -24 -166 -24q-106 0 -157.5 49.5t-31.5 175.5l113 723h-166l18 131h170l41 266h164z" />
    <glyph glyph-name="Tbar" unicode="&#x166;" horiz-adv-x="1187" 
d="M1235 1284h-451l-39 -237h230l-14 -103h-230l-151 -944h-170l149 944h-229l16 103h229l37 237h-450l22 150h1076z" />
    <glyph glyph-name="tbar" unicode="&#x167;" horiz-adv-x="659" 
d="M633 934h-215l-23 -150h213l-20 -133h-215l-70 -444q-7 -44 9.5 -63t62.5 -19q68 0 143 16l-22 -131q-63 -24 -166 -24q-106 0 -157.5 49.5t-31.5 175.5l70 440h-170l20 133h170l23 150h-166l18 131h170l41 266h164l-43 -266h215z" />
    <glyph glyph-name="Utilde" unicode="&#x168;" horiz-adv-x="1339" 
d="M1102 1802h80q0 -94 -57.5 -149.5t-147.5 -55.5q-41 0 -78.5 15t-66.5 37t-57.5 44t-62 37t-67.5 15q-52 0 -80 -26.5t-26 -59.5h-78q0 94 57.5 149.5t147.5 55.5q49 0 95 -23t77 -51t73.5 -51t83.5 -23q52 0 80.5 26.5t26.5 59.5zM1350 1434l-140 -883
q-42 -264 -214.5 -413.5t-426.5 -149.5t-379 149.5t-84 413.5l140 883h172l-139 -875q-32 -201 49 -310.5t264 -109.5q182 0 299 109.5t149 310.5l138 875h172z" />
    <glyph glyph-name="utilde" unicode="&#x169;" horiz-adv-x="1128" 
d="M455 1376q-52 0 -80.5 -26.5t-26.5 -59.5h-78q0 94 57.5 149.5t147.5 55.5q40 0 77 -15t66.5 -36.5t57.5 -43.5t61.5 -37t67.5 -15q52 0 80 26.5t26 59.5h80q0 -94 -57.5 -149.5t-147.5 -55.5q-49 0 -96 23t-78 50.5t-73.5 50.5t-83.5 23zM926 1065h164l-168 -1065h-164
l37 236q-18 -34 -51.5 -72.5t-84 -80t-122.5 -68.5t-150 -27q-85 0 -149.5 22.5t-112 73.5t-61.5 133.5t2 202.5l102 645h164l-103 -645q-46 -289 207 -289q59 0 115.5 20t99 50t78.5 69t58.5 74.5t35.5 67.5z" />
    <glyph glyph-name="Umacron" unicode="&#x16a;" horiz-adv-x="1339" 
d="M578 1821h628l-14 -103h-629zM1350 1434l-140 -883q-42 -264 -214.5 -413.5t-426.5 -149.5t-379 149.5t-84 413.5l140 883h172l-139 -875q-32 -201 49 -310.5t264 -109.5q182 0 299 109.5t149 310.5l138 875h172z" />
    <glyph glyph-name="umacron" unicode="&#x16b;" horiz-adv-x="1128" 
d="M1016 1452l-15 -102h-628l14 102h629zM926 1065h164l-168 -1065h-164l37 236q-18 -34 -51.5 -72.5t-84 -80t-122.5 -68.5t-150 -27q-85 0 -149.5 22.5t-112 73.5t-61.5 133.5t2 202.5l102 645h164l-103 -645q-46 -289 207 -289q59 0 115.5 20t99 50t78.5 69t58.5 74.5
t35.5 67.5z" />
    <glyph glyph-name="Ubreve" unicode="&#x16c;" horiz-adv-x="1339" 
d="M1065 1821h111q-19 -118 -101.5 -190t-234.5 -72q-76 0 -131 21.5t-84 59t-39.5 83.5t-1.5 98h110q-13 -152 156 -152q175 0 215 152zM1350 1434l-140 -883q-42 -264 -214.5 -413.5t-426.5 -149.5t-379 149.5t-84 413.5l140 883h172l-139 -875q-32 -201 49 -310.5
t264 -109.5q182 0 299 109.5t149 310.5l138 875h172z" />
    <glyph glyph-name="ubreve" unicode="&#x16d;" horiz-adv-x="1128" 
d="M649 1190q-76 0 -131 21.5t-84 59t-39.5 83.5t-1.5 98h111q-6 -72 31 -112t124 -40q175 0 215 152h111q-19 -118 -101.5 -190t-234.5 -72zM926 1065h164l-168 -1065h-164l37 236q-18 -34 -51.5 -72.5t-84 -80t-122.5 -68.5t-150 -27q-85 0 -149.5 22.5t-112 73.5
t-61.5 133.5t2 202.5l102 645h164l-103 -645q-46 -289 207 -289q59 0 115.5 20t99 50t78.5 69t58.5 74.5t35.5 67.5z" />
    <glyph glyph-name="Uring" unicode="&#x16e;" horiz-adv-x="1339" 
d="M850 1559q-71 0 -116.5 44.5t-45.5 110.5q0 79 58.5 137t140.5 58q67 0 111 -45.5t44 -112.5q0 -76 -58.5 -134t-133.5 -58zM856 1640q40 0 72.5 31t32.5 72q0 36 -24 60t-60 24q-43 0 -75 -31t-32 -74q0 -34 24 -58t62 -24zM1350 1434l-140 -883q-42 -264 -214.5 -413.5
t-426.5 -149.5t-379 149.5t-84 413.5l140 883h172l-139 -875q-32 -201 49 -310.5t264 -109.5q182 0 299 109.5t149 310.5l138 875h172z" />
    <glyph glyph-name="uring" unicode="&#x16f;" horiz-adv-x="1128" 
d="M659 1190q-71 0 -116 45t-45 111q0 79 58 136.5t140 57.5q67 0 111.5 -45.5t44.5 -112.5q0 -76 -59 -134t-134 -58zM686 1458q-43 0 -74.5 -30.5t-31.5 -73.5q0 -34 24 -58t62 -24q40 0 72 30.5t32 71.5q0 36 -24 60t-60 24zM926 1065h164l-168 -1065h-164l37 236
q-18 -34 -51.5 -72.5t-84 -80t-122.5 -68.5t-150 -27q-85 0 -149.5 22.5t-112 73.5t-61.5 133.5t2 202.5l102 645h164l-103 -645q-46 -289 207 -289q59 0 115.5 20t99 50t78.5 69t58.5 74.5t35.5 67.5z" />
    <glyph glyph-name="Uhungarumlaut" unicode="&#x170;" horiz-adv-x="1339" 
d="M561 1559h146l221 262h-232zM899 1559h145l222 262h-232zM1350 1434l-140 -883q-42 -264 -214.5 -413.5t-426.5 -149.5t-379 149.5t-84 413.5l140 883h172l-139 -875q-32 -201 49 -310.5t264 -109.5q182 0 299 109.5t149 310.5l138 875h172z" />
    <glyph glyph-name="uhungarumlaut" unicode="&#x171;" horiz-adv-x="1128" 
d="M737 1452l-221 -262h-145l135 262h231zM854 1190h-145l135 262h231zM926 1065h164l-168 -1065h-164l37 236q-18 -34 -51.5 -72.5t-84 -80t-122.5 -68.5t-150 -27q-85 0 -149.5 22.5t-112 73.5t-61.5 133.5t2 202.5l102 645h164l-103 -645q-46 -289 207 -289
q59 0 115.5 20t99 50t78.5 69t58.5 74.5t35.5 67.5z" />
    <glyph glyph-name="Uogonek" unicode="&#x172;" horiz-adv-x="1339" 
d="M1178 1434h172l-140 -883q-36 -228 -171 -372t-339 -181h27q-131 -42 -208.5 -107.5t-88.5 -138.5q-9 -59 38.5 -79t139.5 1l-6 -84q-48 -21 -108 -24.5t-114.5 10t-86.5 57.5t-21 111q13 80 93 144.5t184 99.5q-244 6 -363.5 155.5t-79.5 407.5l140 883h172l-139 -875
q-32 -201 49 -310.5t264 -109.5q182 0 299 109.5t149 310.5z" />
    <glyph glyph-name="uogonek" unicode="&#x173;" horiz-adv-x="1128" 
d="M1090 1065l-168 -1065h-103l64 -2q-131 -42 -207.5 -107t-87.5 -139q-9 -59 37.5 -79t138.5 1l-4 -84q-49 -21 -109 -24.5t-114.5 10t-86 57.5t-20.5 111q9 62 63.5 117t121.5 89t139 52h4l37 234q-14 -26 -37 -55.5t-61 -64.5t-82.5 -62t-104.5 -45.5t-123 -18.5
q-85 0 -149.5 22.5t-112 73t-61.5 132.5t2 202l102 645h164l-103 -645q-45 -287 207 -287q73 0 141 29t115.5 74.5t80 91t48.5 86.5l-14 -107l119 758h164z" />
    <glyph glyph-name="Wcircumflex" unicode="&#x174;" horiz-adv-x="2054" 
d="M1343 1554l-163 183l-226 -183h-135l223 267h287l144 -267h-130zM1935 1434h181l-641 -1434h-162l-199 1188l-577 -1188h-162l-191 1434h178l138 -1180l561 1180h176l182 -1180z" />
    <glyph glyph-name="wcircumflex" unicode="&#x175;" horiz-adv-x="1613" 
d="M1085 1186l-163 182l-226 -182h-135l223 266h287l143 -266h-129zM1647 1065l-484 -1065h-153l-170 864l-443 -864h-155l-148 1065h164l107 -862l434 862h135l162 -862l383 862h168z" />
    <glyph glyph-name="Ycircumflex" unicode="&#x176;" horiz-adv-x="1345" 
d="M1018 1554l-164 183l-225 -183h-135l223 267h287l143 -267h-129zM756 561l-88 -561h-174l88 561l-398 873h191l309 -707l528 707h195z" />
    <glyph glyph-name="ycircumflex" unicode="&#x177;" horiz-adv-x="1064" 
d="M811 1186l-164 182l-225 -182h-135l223 266h287l143 -266h-129zM928 1065h170l-647 -1155q-99 -179 -211 -247t-269 -48l23 139q109 -14 184 34.5t129 148.5q26 49 33.5 72.5t1.5 49.5l-248 1006h164l197 -872z" />
    <glyph glyph-name="Ydieresis" unicode="&#x178;" horiz-adv-x="1345" 
d="M575 1821h173l-29 -185h-170zM1014 1821h170l-27 -185h-172zM756 561l-88 -561h-174l88 561l-398 873h191l309 -707l528 707h195z" />
    <glyph glyph-name="Zacute" unicode="&#x179;" horiz-adv-x="1228" 
d="M692 1559h142l262 262h-228zM1085 152l-24 -152h-1084l21 139l1057 1145h-850l22 150h1053l-23 -140l-1052 -1142h880z" />
    <glyph glyph-name="zacute" unicode="&#x17a;" horiz-adv-x="1003" 
d="M506 1190h141l262 262h-227zM184 141h664l-23 -141h-856l21 141l790 785h-643l23 139h833l-20 -139z" />
    <glyph glyph-name="Zdotaccent" unicode="&#x17b;" horiz-adv-x="1228" 
d="M723 1821h172l-29 -185h-170zM1085 152l-24 -152h-1084l21 139l1057 1145h-850l22 150h1053l-23 -140l-1052 -1142h880z" />
    <glyph glyph-name="zdotaccent" unicode="&#x17c;" horiz-adv-x="1003" 
d="M537 1452h172l-29 -184h-170zM184 141h664l-23 -141h-856l21 141l790 785h-643l23 139h833l-20 -139z" />
    <glyph glyph-name="Zcaron" unicode="&#x17d;" horiz-adv-x="1228" 
d="M995 1821h135l-225 -267h-287l-141 267h129l166 -183zM1085 152l-24 -152h-1084l21 139l1057 1145h-850l22 150h1053l-23 -140l-1052 -1142h880z" />
    <glyph glyph-name="zcaron" unicode="&#x17e;" horiz-adv-x="1003" 
d="M809 1452h135l-225 -266h-287l-141 266h129l166 -182zM184 141h664l-23 -141h-856l21 141l790 785h-643l23 139h833l-20 -139z" />
    <glyph glyph-name="florin" unicode="&#x192;" horiz-adv-x="608" 
d="M643 1298q-88 0 -141.5 -52.5t-71.5 -168.5l-33 -200h174l-22 -144h-174l-125 -792q-15 -96 -48.5 -162t-85 -103.5t-114.5 -52.5t-145 -12l20 143q179 0 215 219l121 760h-164l23 144h164l36 235q29 181 126 258.5t268 71.5z" />
    <glyph glyph-name="uni01CD" unicode="&#x1cd;" horiz-adv-x="1392" 
d="M983 1554h-287l-141 267h129l166 -183l223 183h135zM1063 0l-80 367h-643l-197 -367h-186l793 1434h155l342 -1434h-184zM412 498h542l-157 714z" />
    <glyph glyph-name="uni01CE" unicode="&#x1ce;" 
d="M780 1186h-286l-142 266h129l166 -182l223 182h136zM618 1075q221 0 310 -95t57 -300l-78 -504q-6 -42 11.5 -59t62.5 -15l-16 -100q-34 -10 -72 -10q-80 0 -118 39t-23 116l12 64q-13 -21 -33.5 -45t-60 -57.5t-85 -59.5t-112 -44.5t-137.5 -18.5q-144 0 -231 71
t-87 203q0 84 29.5 145.5t87 101t129.5 62.5t170 37q16 2 66 9t74.5 10.5t69 10.5t71.5 13t58 15t52 18l2 10q24 141 -30 198.5t-189 57.5q-121 0 -187 -40t-95 -120h-158q41 148 149.5 217.5t300.5 69.5zM768 340l41 240q-20 -8 -48 -16t-70 -16t-71.5 -13.5t-90.5 -15.5
t-89 -15q-133 -22 -195.5 -74t-62.5 -151q0 -80 51.5 -125t143.5 -45q77 0 148 27t119.5 67.5t78 74.5t45.5 62z" />
    <glyph glyph-name="uni01CF" unicode="&#x1cf;" horiz-adv-x="409" 
d="M582 1821h135l-225 -267h-287l-142 267h130l165 -183zM193 0h-173l226 1434h172z" />
    <glyph glyph-name="uni01D0" unicode="&#x1d0;" horiz-adv-x="374" 
d="M506 1452h135l-225 -266h-287l-141 266h129l166 -182zM176 1065h164l-168 -1065h-164z" />
    <glyph glyph-name="uni01D1" unicode="&#x1d1;" horiz-adv-x="1447" 
d="M1122 1821h135l-225 -267h-287l-141 267h129l166 -183zM850 1452q250 0 396.5 -144t146.5 -409q0 -147 -34 -284t-100.5 -251.5t-159.5 -200t-217.5 -133.5t-267.5 -48q-249 0 -395.5 144.5t-146.5 408.5q0 148 33.5 285t100 251.5t159 199.5t217.5 133t268 48zM635 133
q110 0 205 42t163 114t116 168t71.5 205.5t23.5 224.5q0 202 -102 307.5t-285 105.5q-110 0 -205 -42t-162.5 -114t-115.5 -168.5t-71 -206t-23 -224.5q0 -201 101.5 -306.5t283.5 -105.5z" />
    <glyph glyph-name="uni01D2" unicode="&#x1d2;" horiz-adv-x="1120" 
d="M872 1452h136l-226 -266h-286l-142 266h129l166 -182zM618 1075q83 0 158 -27t136.5 -79.5t98 -138.5t36.5 -195q0 -130 -43.5 -249t-119.5 -207t-186 -140.5t-235 -52.5q-84 0 -159 27t-136 78.5t-97 137.5t-36 195q0 174 74 323t208.5 238.5t300.5 89.5zM887 631
q0 151 -79.5 230t-199.5 79q-93 0 -172.5 -43.5t-131.5 -115t-81.5 -163t-29.5 -188.5q0 -149 80 -228t198 -79q125 0 222 74.5t145.5 189t48.5 244.5z" />
    <glyph glyph-name="uni01D3" unicode="&#x1d3;" horiz-adv-x="1339" 
d="M1069 1821h135l-225 -267h-287l-141 267h129l166 -183zM1350 1434l-140 -883q-42 -264 -214.5 -413.5t-426.5 -149.5t-379 149.5t-84 413.5l140 883h172l-139 -875q-32 -201 49 -310.5t264 -109.5q182 0 299 109.5t149 310.5l138 875h172z" />
    <glyph glyph-name="uni01D4" unicode="&#x1d4;" horiz-adv-x="1128" 
d="M788 1186h-286l-142 266h129l166 -182l224 182h135zM926 1065h164l-168 -1065h-164l37 236q-18 -34 -51.5 -72.5t-84 -80t-122.5 -68.5t-150 -27q-85 0 -149.5 22.5t-112 73.5t-61.5 133.5t2 202.5l102 645h164l-103 -645q-46 -289 207 -289q59 0 115.5 20t99 50t78.5 69
t58.5 74.5t35.5 67.5z" />
    <glyph glyph-name="uni01EA" unicode="&#x1ea;" horiz-adv-x="1447" 
d="M1393 899q0 -217 -71 -404.5t-210.5 -320t-327.5 -174.5q-134 -42 -212 -108t-89 -140q-9 -59 37.5 -79t138.5 1l-4 -84q-49 -21 -109 -24.5t-114 10t-85.5 57.5t-20.5 111q11 78 81.5 140t167.5 98q-232 12 -367.5 156t-135.5 397q0 148 33.5 285t100 251.5t159 199.5
t217.5 133t268 48q250 0 396.5 -144t146.5 -409zM635 133q110 0 205 42t163 114t116 168t71.5 205.5t23.5 224.5q0 202 -102 307.5t-285 105.5q-110 0 -205 -42t-162.5 -114t-115.5 -168.5t-71 -206t-23 -224.5q0 -201 101.5 -306.5t283.5 -105.5z" />
    <glyph glyph-name="uni01EB" unicode="&#x1eb;" horiz-adv-x="1110" 
d="M612 1077q73 0 140 -21t126 -64t97.5 -109.5t54 -157t-3.5 -205.5q-35 -216 -157.5 -349t-282.5 -173q-131 -42 -207.5 -107t-87.5 -139q-9 -59 37.5 -79t138.5 1l-4 -84q-49 -21 -109 -24.5t-114.5 10t-86 57.5t-20.5 111q13 79 89 142.5t177 99.5q-85 10 -156.5 47.5
t-126 106t-73.5 168t0 233.5q21 135 81 241t140.5 168.5t169.5 94.5t178 32zM868 541q30 198 -47 299.5t-213 101.5q-92 0 -173.5 -43.5t-146.5 -141.5t-87 -237q-15 -105 -2 -181t52 -125t91.5 -72t116.5 -23q92 0 174 43.5t147.5 141.5t87.5 237z" />
    <glyph glyph-name="Scommaaccent" unicode="&#x218;" horiz-adv-x="1245" 
d="M760 788q189 -39 281 -118.5t92 -231.5q0 -141 -76.5 -245.5t-209.5 -157.5t-306 -53q-248 0 -373.5 119.5t-114.5 316.5h176q4 -289 328 -289q178 0 285.5 79.5t107.5 215.5q0 52 -17 90.5t-51 64t-73.5 41.5t-95.5 29l-201 43q-328 69 -328 332q0 193 144 310.5
t403 117.5q227 0 345 -102t112 -279h-174q-2 107 -73.5 171.5t-225.5 64.5q-170 0 -261.5 -74.5t-91.5 -190.5q0 -86 49 -138t160 -75zM358 -608l11 55q49 21 73 62t35 116l8 64h-79l32 209h197l-41 -260q-38 -242 -236 -246z" />
    <glyph glyph-name="scommaaccent" unicode="&#x219;" horiz-adv-x="989" 
d="M778 791q-25 157 -239 157q-124 0 -198.5 -53t-74.5 -133q0 -59 36.5 -93.5t121.5 -56.5l162 -39q50 -13 81 -22t67.5 -23.5t58 -30.5t41 -38.5t28 -52.5t8.5 -68q0 -90 -38.5 -159t-105 -110.5t-149.5 -62t-178 -20.5q-188 0 -295.5 81.5t-101.5 241.5h150
q8 -196 256 -196q128 0 214.5 54t86.5 155q0 59 -39.5 88.5t-124.5 50.5l-178 43q-131 33 -196 94.5t-65 161.5q0 142 124 228.5t315 86.5q174 0 272.5 -73t108.5 -211h-148zM219 -608l10 55q49 21 73.5 62.5t35.5 115.5l8 64h-80l33 209h197l-41 -260q-38 -242 -236 -246z
" />
    <glyph glyph-name="uni021A" unicode="&#x21a;" horiz-adv-x="1187" 
d="M1260 1434l-25 -150h-451l-204 -1284h-170l202 1284h-450l22 150h1076zM328 -625l2 58q44 21 66.5 63.5t33.5 118.5l10 57h-69l32 205h213l-41 -262q-12 -71 -37.5 -119.5t-61.5 -73t-70.5 -34.5t-77.5 -13z" />
    <glyph glyph-name="uni021B" unicode="&#x21b;" horiz-adv-x="659" 
d="M416 934l-115 -727q-7 -44 9.5 -63t62.5 -19q68 0 143 16l-22 -131q-63 -24 -166 -24q-106 0 -157.5 49.5t-31.5 175.5l113 723h-166l18 131h170l41 266h164l-43 -266h215l-20 -131h-215zM174 -311l33 209h196l-41 -260q-38 -242 -235 -246l10 55q49 21 73.5 62.5
t35.5 115.5l8 64h-80z" />
    <glyph glyph-name="uni0237" unicode="&#x237;" horiz-adv-x="430" 
d="M-283 -262q70 -43 148 -43q130 0 158 180l188 1190h164l-195 -1231q-24 -152 -98.5 -218.5t-194.5 -66.5q-114 0 -194 54z" />
    <glyph glyph-name="circumflex" unicode="&#x2c6;" horiz-adv-x="653" 
d="M629 1186l-164 182l-225 -182h-136l224 266h286l144 -266h-129z" />
    <glyph glyph-name="caron" unicode="&#x2c7;" horiz-adv-x="653" 
d="M664 1452h135l-226 -266h-286l-142 266h129l166 -182z" />
    <glyph glyph-name="breve" unicode="&#x2d8;" horiz-adv-x="591" 
d="M627 1452h110q-19 -118 -101.5 -190t-234.5 -72q-76 0 -131 21.5t-84 59t-39.5 83.5t-1.5 98h111q-13 -152 156 -152q175 0 215 152z" />
    <glyph glyph-name="dotaccent" unicode="&#x2d9;" horiz-adv-x="174" 
d="M145 1452h172l-28 -184h-170z" />
    <glyph glyph-name="ring" unicode="&#x2da;" horiz-adv-x="352" 
d="M293 1190q-71 0 -116.5 45t-45.5 111q0 79 58 136.5t141 57.5q67 0 111 -45.5t44 -112.5q0 -76 -58.5 -134t-133.5 -58zM299 1272q40 0 72 30.5t32 71.5q0 36 -24 60t-60 24q-43 0 -74.5 -30.5t-31.5 -73.5q0 -34 24 -58t62 -24z" />
    <glyph glyph-name="ogonek" unicode="&#x2db;" horiz-adv-x="382" 
d="M227 -408q-46 -21 -105 -26t-114.5 7t-94 53.5t-38.5 107.5q0 65 46.5 123t110 92t132.5 51h123q-124 -42 -189 -104.5t-65 -133.5q0 -64 52 -87t142 -3v-80z" />
    <glyph glyph-name="tilde" unicode="&#x2dc;" horiz-adv-x="706" 
d="M766 1434h80q0 -94 -57.5 -149.5t-147.5 -55.5q-41 0 -78.5 15t-66.5 36.5t-57.5 43.5t-62 37t-67.5 15q-52 0 -80 -26.5t-26 -59.5h-78q0 94 57.5 149.5t147.5 55.5q49 0 95 -23t77 -50.5t73.5 -50.5t83.5 -23q52 0 80.5 26.5t26.5 59.5z" />
    <glyph glyph-name="hungarumlaut" unicode="&#x2dd;" horiz-adv-x="663" 
d="M104 1190h146l221 262h-231zM442 1190h146l221 262h-231z" />
    <glyph glyph-name="uni0326" unicode="&#x326;" horiz-adv-x="0" 
d="M-377 -608l10 55q49 21 73.5 62.5t35.5 115.5l8 64h-80l33 209h197l-41 -260q-38 -242 -236 -246z" />
    <glyph glyph-name="uni0394" unicode="&#x394;" horiz-adv-x="1490" 
d="M1280 0h-1296l850 1434h47zM1090 143l-271 1014l-596 -1014h867z" />
    <glyph glyph-name="uni03A9" unicode="&#x3a9;" horiz-adv-x="1579" 
d="M1520 836q0 -408 -404 -678h254l-24 -158h-422l34 231q219 155 308.5 287t89.5 311q0 138 -63.5 244.5t-167 161.5t-226.5 55q-125 0 -244.5 -52.5t-208 -138.5t-142.5 -202.5t-54 -239.5q0 -75 10.5 -127.5t39.5 -102t70 -92t113 -104.5l-34 -231h-422l24 158h268
q-235 195 -235 495q0 157 68.5 304t180.5 254.5t263.5 172t310.5 64.5q126 0 238.5 -45t195 -124t131 -194t48.5 -249z" />
    <glyph glyph-name="uni03BC" unicode="&#x3bc;" horiz-adv-x="1128" 
d="M926 1065h164l-168 -1065h-164l37 231q-19 -35 -53.5 -73t-85 -77.5t-122 -65t-147.5 -25.5q-138 0 -217 57l-70 -436h-163l231 1454h164l-103 -645q-45 -287 209 -287q71 0 137.5 27.5t114 70.5t80.5 87t51 85z" />
    <glyph glyph-name="pi" unicode="&#x3c0;" horiz-adv-x="1361" 
d="M1087 922l-108 -682q-10 -62 5.5 -85.5t57.5 -23.5q53 0 148 35l-16 -143q-69 -35 -170 -35q-229 0 -193 221l113 713h-426l-146 -922h-164l146 922h-205l23 143h1161l-23 -143h-203z" />
    <glyph glyph-name="uni0401" unicode="&#x401;" 
d="M475 1821h172l-29 -185h-169zM913 1821h170l-26 -185h-172zM1153 1284h-760l-76 -477h658l-23 -139h-657l-82 -516h780l-24 -152h-951l228 1434h930z" />
    <glyph glyph-name="uni0403" unicode="&#x403;" horiz-adv-x="1021" 
d="M596 1559h141l262 262h-227zM1094 1434l-25 -150h-676l-203 -1284h-172l228 1434h848z" />
    <glyph glyph-name="uni0404" unicode="&#x404;" horiz-adv-x="1325" 
d="M629 133q292 0 415 232h173q-69 -182 -235 -282.5t-380 -100.5q-243 0 -385.5 142t-142.5 415q0 145 32 279.5t97 249.5t155.5 201t214 134.5t265.5 48.5q213 0 345 -100t142 -281h-170q-22 110 -107 171t-231 61q-102 0 -191 -39t-154.5 -108t-112.5 -157t-74 -192h499
l-20 -139h-506q-6 -59 -6 -115q0 -208 100.5 -314t276.5 -106z" />
    <glyph glyph-name="uni0407" unicode="&#x407;" horiz-adv-x="409" 
d="M86 1821h172l-29 -185h-170zM524 1821h170l-26 -185h-172zM193 0h-173l226 1434h172z" />
    <glyph glyph-name="uni040C" unicode="&#x40c;" horiz-adv-x="1308" 
d="M1147 1821l-262 -262h-142l177 262h227zM1346 1434l-707 -662l535 -772h-195l-461 657l-262 -245l-66 -412h-172l228 1434h172l-125 -789l848 789h205z" />
    <glyph glyph-name="uni040E" unicode="&#x40e;" horiz-adv-x="1167" 
d="M971 1821h110q-19 -118 -101.5 -190t-234.5 -72q-76 0 -131 21.5t-84 59t-39.5 83.5t-1.5 98h111q-13 -152 156 -152q175 0 215 152zM1038 1434h191l-651 -1141q-106 -187 -222 -258.5t-274 -52.5l24 157q75 -10 132.5 9t96 57t71.5 100q27 51 35 85.5t-1 82.5l-256 961
h185l213 -838z" />
    <glyph glyph-name="uni0410" unicode="&#x410;" horiz-adv-x="1392" 
d="M1063 0l-80 367h-643l-197 -367h-186l793 1434h155l342 -1434h-184zM412 498h542l-157 714z" />
    <glyph glyph-name="uni0411" unicode="&#x411;" horiz-adv-x="1239" 
d="M684 913q221 0 336 -96.5t115 -271.5q0 -255 -158 -400t-428 -145h-531l228 1434h848l-25 -150h-676l-59 -371h350zM565 152q182 0 285.5 105t103.5 278q0 227 -282 227h-361l-96 -610h350z" />
    <glyph glyph-name="uni0412" unicode="&#x412;" horiz-adv-x="1265" 
d="M897 782q123 -32 188.5 -114t65.5 -201q0 -151 -75 -257.5t-204.5 -158t-302.5 -51.5h-551l228 1434h534q195 0 292 -79t97 -216q0 -129 -72 -223t-200 -134zM768 1288h-373l-71 -450h372q130 0 212.5 79t82.5 201q0 79 -54.5 124.5t-168.5 45.5zM586 145q177 0 282 86.5
t105 241.5q0 105 -75 167t-224 62h-373l-88 -557h373z" />
    <glyph glyph-name="uni0413" unicode="&#x413;" horiz-adv-x="1021" 
d="M1094 1434l-25 -150h-676l-203 -1284h-172l228 1434h848z" />
    <glyph glyph-name="uni0414" unicode="&#x414;" horiz-adv-x="1531" 
d="M1419 1434l-205 -1291h185l-45 -284h-164l22 141h-1091l-23 -141h-164l46 284h122q111 107 181 323t139 646l51 322h946zM291 143h751l181 1141h-602l-29 -182q-70 -440 -133.5 -649t-167.5 -310z" />
    <glyph glyph-name="uni0415" unicode="&#x415;" 
d="M1153 1284h-760l-76 -477h658l-23 -139h-657l-82 -516h780l-24 -152h-951l228 1434h930z" />
    <glyph glyph-name="uni0416" unicode="&#x416;" horiz-adv-x="1832" 
d="M1898 1434l-739 -703l539 -731h-195l-493 659l-105 -659h-170l105 659l-701 -659h-202l774 731l-512 703h194l469 -631l101 631h170l-101 -631l664 631h202z" />
    <glyph glyph-name="uni0417" unicode="&#x417;" horiz-adv-x="1179" 
d="M813 772q109 -17 188.5 -97t79.5 -212q0 -144 -77.5 -256.5t-209 -172t-292.5 -59.5q-236 0 -357 133.5t-84 352.5h150q-23 -158 57.5 -250t241.5 -92q173 0 291.5 97t118.5 253q0 114 -87.5 176t-254.5 62h-54l19 116h45q170 0 267 85.5t97 205.5q0 90 -69 142.5
t-183 52.5q-137 0 -234 -80.5t-122 -241.5h-151q33 227 170 346t346 119q187 0 294 -92t107 -232q0 -126 -79 -222t-218 -134z" />
    <glyph glyph-name="uni0418" unicode="&#x418;" horiz-adv-x="1355" 
d="M246 1434h172l-187 -1172h2l945 1172h188l-227 -1434h-170l184 1165h-4l-938 -1165h-193z" />
    <glyph glyph-name="uni0419" unicode="&#x419;" horiz-adv-x="1355" 
d="M1061 1821h110q-19 -118 -101 -190t-234 -72q-76 0 -131 21.5t-84 59t-39.5 83.5t-1.5 98h110q-13 -152 156 -152q175 0 215 152zM246 1434h172l-187 -1172h2l945 1172h188l-227 -1434h-170l184 1165h-4l-938 -1165h-193z" />
    <glyph glyph-name="uni041A" unicode="&#x41a;" horiz-adv-x="1308" 
d="M1346 1434l-707 -662l535 -772h-195l-461 657l-262 -245l-66 -412h-172l228 1434h172l-125 -789l848 789h205z" />
    <glyph glyph-name="uni041B" unicode="&#x41b;" horiz-adv-x="1404" 
d="M1415 1434l-227 -1434h-172l203 1284h-633l-133 -838q-17 -105 -51 -186t-80 -134.5t-105 -87t-124.5 -45.5t-139.5 -7l14 151q58 -1 105.5 13.5t91 50t74.5 101.5t47 161l153 971h977z" />
    <glyph glyph-name="uni041C" unicode="&#x41c;" horiz-adv-x="1697" 
d="M246 1434h190l350 -1217l719 1217h203l-227 -1434h-170l176 1118h-6l-652 -1118h-139l-317 1118h-6l-177 -1118h-172z" />
    <glyph glyph-name="uni041D" unicode="&#x41d;" horiz-adv-x="1329" 
d="M1169 1434h170l-227 -1434h-170l100 633h-751l-101 -633h-172l228 1434h172l-105 -660h752z" />
    <glyph glyph-name="uni041E" unicode="&#x41e;" horiz-adv-x="1447" 
d="M850 1452q250 0 396.5 -144t146.5 -409q0 -147 -34 -284t-100.5 -251.5t-159.5 -200t-217.5 -133.5t-267.5 -48q-249 0 -395.5 144.5t-146.5 408.5q0 148 33.5 285t100 251.5t159 199.5t217.5 133t268 48zM635 133q110 0 205 42t163 114t116 168t71.5 205.5t23.5 224.5
q0 202 -102 307.5t-285 105.5q-110 0 -205 -42t-162.5 -114t-115.5 -168.5t-71 -206t-23 -224.5q0 -201 101.5 -306.5t283.5 -105.5z" />
    <glyph glyph-name="uni041F" unicode="&#x41f;" horiz-adv-x="1329" 
d="M1339 1434l-227 -1434h-170l203 1284h-752l-203 -1284h-172l228 1434h1093z" />
    <glyph glyph-name="uni0420" unicode="&#x420;" horiz-adv-x="1234" 
d="M762 1434q221 0 333.5 -96t112.5 -275q0 -257 -160.5 -405t-431.5 -148h-346l-80 -510h-172l228 1434h516zM639 659q182 0 284.5 103t102.5 278q0 120 -72 182t-213 62h-348l-98 -625h344z" />
    <glyph glyph-name="uni0421" unicode="&#x421;" horiz-adv-x="1325" 
d="M629 133q292 0 415 232h173q-69 -182 -235 -282.5t-380 -100.5q-243 0 -385.5 142t-142.5 415q0 145 32 279.5t97 249.5t155.5 201t214 134.5t265.5 48.5q213 0 345 -100t142 -281h-170q-22 110 -107 171t-231 61q-107 0 -199.5 -42.5t-158.5 -115.5t-113.5 -169
t-70.5 -204t-23 -219q0 -208 100.5 -314t276.5 -106z" />
    <glyph glyph-name="uni0422" unicode="&#x422;" horiz-adv-x="1187" 
d="M1260 1434l-25 -150h-451l-204 -1284h-170l202 1284h-450l22 150h1076z" />
    <glyph glyph-name="uni0423" unicode="&#x423;" horiz-adv-x="1167" 
d="M1038 1434h191l-651 -1141q-106 -187 -222 -258.5t-274 -52.5l24 157q75 -10 132.5 9t96 57t71.5 100q27 51 35 85.5t-1 82.5l-256 961h185l213 -838z" />
    <glyph glyph-name="uni0424" unicode="&#x424;" horiz-adv-x="1415" 
d="M1370 829q0 -299 -181.5 -491t-479.5 -217l-25 -152h-170l25 154q-223 22 -349.5 145.5t-126.5 335.5q0 301 182 494.5t482 216.5l25 149h170l-25 -151q222 -22 347.5 -146.5t125.5 -337.5zM729 256q221 30 350 187t129 386q0 156 -86.5 244.5t-244.5 106.5zM225 606
q0 -156 87.5 -245t246.5 -107l148 924q-222 -29 -352 -185t-130 -387z" />
    <glyph glyph-name="uni0425" unicode="&#x425;" horiz-adv-x="1288" 
d="M1358 1434l-594 -697l399 -737h-190l-326 602l-514 -602h-196l634 743l-374 691h190l301 -555l473 555h197z" />
    <glyph glyph-name="uni0426" unicode="&#x426;" horiz-adv-x="1349" 
d="M1339 1434l-202 -1282h92l-72 -441h-164l47 289h-1022l228 1434h172l-205 -1282h752l204 1282h170z" />
    <glyph glyph-name="uni0427" unicode="&#x427;" horiz-adv-x="1265" 
d="M1104 1434h172l-227 -1434h-172l94 592q-20 -35 -64 -76.5t-109 -83.5t-156 -70t-187 -28q-89 0 -160.5 25.5t-124 78t-72.5 142t-2 208.5l105 646h170l-103 -648q-49 -299 258 -299q85 0 166.5 28t141 71t101 88t62.5 86z" />
    <glyph glyph-name="uni0428" unicode="&#x428;" horiz-adv-x="1615" 
d="M1454 1434h172l-227 -1434h-1381l228 1434h172l-205 -1282h434l203 1282h172l-205 -1282h434z" />
    <glyph glyph-name="uni0429" unicode="&#x429;" horiz-adv-x="1650" 
d="M1626 1434l-203 -1282h105l-70 -441h-166l47 289h-1321l228 1434h172l-205 -1282h434l203 1282h172l-205 -1282h434l203 1282h172z" />
    <glyph glyph-name="uni042A" unicode="&#x42a;" horiz-adv-x="1323" 
d="M766 913q222 0 337.5 -96.5t115.5 -271.5q0 -255 -158.5 -400t-429.5 -145h-520l202 1284h-157l24 150h330l-84 -521h340zM649 152q181 0 285 105t104 278q0 227 -284 227h-353l-96 -610h344z" />
    <glyph glyph-name="uni042B" unicode="&#x42b;" horiz-adv-x="1599" 
d="M674 913q222 0 337 -96.5t115 -271.5q0 -255 -158.5 -400t-428.5 -145h-521l228 1434h172l-84 -521h340zM1382 0h-172l226 1434h172zM557 152q181 0 285 105t104 278q0 227 -284 227h-353l-96 -610h344z" />
    <glyph glyph-name="uni042C" unicode="&#x42c;" horiz-adv-x="1230" 
d="M674 913q222 0 337 -96.5t115 -271.5q0 -255 -158.5 -400t-428.5 -145h-521l228 1434h172l-84 -521h340zM557 152q181 0 285 105t104 278q0 227 -284 227h-353l-96 -610h344z" />
    <glyph glyph-name="uni042D" unicode="&#x42d;" horiz-adv-x="1382" 
d="M791 1452q245 0 390.5 -143.5t145.5 -413.5q0 -146 -32 -281t-95.5 -250t-153 -200t-212 -133.5t-263.5 -48.5q-217 0 -353 102t-146 281h168q52 -232 335 -232q110 0 204.5 42t162.5 116t115 169.5t71 207.5h-520l23 139h516q4 58 4 86q0 200 -99 305t-270 105
q-290 0 -420 -232h-174q67 183 229.5 282t373.5 99z" />
    <glyph glyph-name="uni042E" unicode="&#x42e;" horiz-adv-x="1869" 
d="M1274 1452q250 0 396.5 -144t146.5 -409q0 -147 -34 -284t-100.5 -251.5t-159.5 -200t-217.5 -133.5t-267.5 -48q-249 0 -395.5 144.5t-146.5 408.5q0 32 4 98h-207l-100 -633h-173l226 1434h172l-105 -660h207q30 145 94 267.5t158.5 214.5t223.5 144t278 52zM1059 133
q110 0 205 42t163 114t116 168t71.5 205.5t23.5 224.5q0 202 -102 307.5t-285 105.5q-110 0 -205 -42t-162.5 -114t-115.5 -168.5t-71 -206t-23 -224.5q0 -201 101.5 -306.5t283.5 -105.5z" />
    <glyph glyph-name="uni042F" unicode="&#x42f;" horiz-adv-x="1280" 
d="M1290 1434l-227 -1434h-172l92 586h-442q-55 0 -103 -12.5t-91 -39t-72 -75.5t-39 -115l-15 -108q-27 -179 -78 -236h-176q62 69 86 246l15 110q17 129 86 206t196 108q-87 39 -134.5 117t-47.5 188q0 215 151 337t402 122h569zM1006 725l88 559h-383q-177 0 -275 -86
t-98 -235q0 -113 67 -175.5t179 -62.5h422z" />
    <glyph glyph-name="uni0430" unicode="&#x430;" 
d="M985 680l-78 -504q-6 -42 11.5 -59t62.5 -15l-16 -100q-34 -10 -72 -10q-80 0 -118 39t-23 116l12 64q-13 -21 -33.5 -45t-60 -57.5t-85 -59.5t-112 -44.5t-137.5 -18.5q-144 0 -231 71t-87 203q0 84 29.5 145.5t87 101t129.5 62.5t170 37q16 2 66 9t74.5 10.5t69 10.5
t71.5 13t58 15t52 18l2 10q24 141 -30 198.5t-189 57.5q-121 0 -187 -40t-95 -120h-158q41 148 149.5 217.5t300.5 69.5q221 0 310 -95t57 -300zM768 340l41 240q-20 -8 -48 -16t-70 -16t-71.5 -13.5t-90.5 -15.5t-89 -15q-133 -22 -195.5 -74t-62.5 -151q0 -80 51.5 -125
t143.5 -45q77 0 148 27t119.5 67.5t78 74.5t45.5 62z" />
    <glyph glyph-name="uni0431" unicode="&#x431;" horiz-adv-x="1122" 
d="M651 1073q78 0 147.5 -26t126.5 -76.5t90.5 -135t33.5 -192.5q0 -134 -43.5 -255.5t-119.5 -211t-185 -142t-234 -52.5q-97 0 -174 31t-126 86.5t-79.5 133t-34.5 169.5t10 196l56 360q75 476 524 476h143q114 0 164 47h160q-52 -104 -123.5 -141t-212.5 -37h-141
q-144 0 -234 -78t-114 -215l-25 -146q59 102 166 155.5t225 53.5zM475 119q124 0 221 74.5t146 191t49 250.5q0 152 -77.5 229.5t-197.5 77.5q-124 0 -220.5 -73.5t-145.5 -188.5t-49 -248q0 -154 77 -233.5t197 -79.5z" />
    <glyph glyph-name="uni0432" unicode="&#x432;" horiz-adv-x="1089" 
d="M162 0h-164l168 1065h164zM803 586q96 -27 146 -90t50 -148q0 -93 -37 -161.5t-105.5 -108.5t-156 -59t-198.5 -19h-340l22 139h334q322 0 322 226q0 151 -250 151h-346l18 113h336q119 0 181.5 47.5t62.5 130.5q0 121 -195 121h-338l21 137h332q160 0 247.5 -58.5
t87.5 -166.5q0 -88 -50 -156t-144 -98z" />
    <glyph glyph-name="uni0433" unicode="&#x433;" horiz-adv-x="849" 
d="M868 1065l-20 -131h-539l-147 -934h-164l168 1065h702z" />
    <glyph glyph-name="uni0434" unicode="&#x434;" horiz-adv-x="1218" 
d="M1167 1065l-147 -932h74l-43 -264h-150l23 131h-818l-20 -131h-152l43 264h52q87 67 131.5 217.5t95.5 485.5l37 229h874zM197 133h659l127 801h-547l-18 -109q-20 -131 -34.5 -211.5t-34.5 -169t-40 -142t-48.5 -99t-63.5 -70.5z" />
    <glyph glyph-name="uni0435" unicode="&#x435;" horiz-adv-x="1101" 
d="M1008 469h-818q-2 -16 -2 -47q0 -157 79.5 -233t215.5 -76q100 0 167 28.5t126 94.5h160q-85 -133 -197.5 -191.5t-271.5 -58.5q-91 0 -168.5 27t-137.5 79.5t-94 136.5t-34 191q0 181 73.5 330.5t208.5 237t303 87.5q180 0 296 -109.5t116 -316.5q0 -36 -6.5 -94
t-15.5 -86zM606 948q-155 0 -259 -104t-140 -264h661q11 40 11 88q0 133 -75.5 206.5t-197.5 73.5z" />
    <glyph glyph-name="uni0436" unicode="&#x436;" horiz-adv-x="1527" 
d="M1565 1065l-607 -528l451 -537h-199l-383 459l-71 -459h-164l72 461l-523 -461h-211l627 539l-434 526h199l368 -449l70 449h164l-70 -444l502 444h209z" />
    <glyph glyph-name="uni0437" unicode="&#x437;" horiz-adv-x="1038" 
d="M686 563q42 -6 81.5 -21.5t75 -42.5t57.5 -70t22 -95q0 -110 -71.5 -191.5t-185.5 -121t-253 -39.5q-204 0 -311.5 105t-75.5 278h147q-12 -126 55 -192.5t197 -66.5q148 0 244 66t96 170q0 84 -81.5 127t-225.5 43l6 94q139 3 228 56.5t89 148.5q0 66 -59.5 105.5
t-155.5 39.5q-115 0 -196 -61t-95 -147h-149q24 150 144 240.5t302 90.5q166 0 264.5 -69.5t98.5 -180.5q0 -103 -66.5 -172t-181.5 -94z" />
    <glyph glyph-name="uni0438" unicode="&#x438;" horiz-adv-x="1159" 
d="M166 1065h164l-133 -848h4l737 848h182l-168 -1065h-164l134 842h-4l-734 -842h-186z" />
    <glyph glyph-name="uni0439" unicode="&#x439;" horiz-adv-x="1159" 
d="M907 1452h111q-19 -118 -101.5 -190t-234.5 -72q-76 0 -131 21.5t-84 59t-39.5 83.5t-1.5 98h111q-6 -72 31 -112t124 -40q175 0 215 152zM166 1065h164l-133 -848h4l737 848h182l-168 -1065h-164l134 842h-4l-734 -842h-186z" />
    <glyph glyph-name="uni043A" unicode="&#x43a;" horiz-adv-x="1003" 
d="M1040 1065l-628 -528l471 -537h-197l-436 496l-78 -496h-164l168 1065h164l-76 -483l567 483h209z" />
    <glyph glyph-name="uni043B" unicode="&#x43b;" horiz-adv-x="1222" 
d="M1184 1065l-168 -1065h-160l143 934h-493l-78 -498q-21 -130 -64 -220.5t-106 -141t-138.5 -70t-170.5 -14.5l22 135q58 -1 102 13.5t83 50t66.5 101.5t43.5 163l96 612h822z" />
    <glyph glyph-name="uni043C" unicode="&#x43c;" horiz-adv-x="1413" 
d="M176 1065h182l277 -877l557 877h182l-168 -1065h-164l123 776h-4l-487 -776h-129l-240 782h-8l-125 -782h-164z" />
    <glyph glyph-name="uni043D" unicode="&#x43d;" horiz-adv-x="1054" 
d="M166 1065h164l-70 -444h522l70 444h164l-168 -1065h-164l78 487h-522l-78 -487h-164z" />
    <glyph glyph-name="uni043E" unicode="&#x43e;" horiz-adv-x="1120" 
d="M618 1075q83 0 158 -27t136.5 -79.5t98 -138.5t36.5 -195q0 -130 -43.5 -249t-119.5 -207t-186 -140.5t-235 -52.5q-84 0 -159 27t-136 78.5t-97 137.5t-36 195q0 174 74 323t208.5 238.5t300.5 89.5zM887 631q0 151 -79.5 230t-199.5 79q-93 0 -172.5 -43.5t-131.5 -115
t-81.5 -163t-29.5 -188.5q0 -149 80 -228t198 -79q125 0 222 74.5t145.5 189t48.5 244.5z" />
    <glyph glyph-name="uni043F" unicode="&#x43f;" horiz-adv-x="1064" 
d="M1026 1065l-168 -1065h-164l148 934h-533l-147 -934h-164l168 1065h860z" />
    <glyph glyph-name="uni0440" unicode="&#x440;" horiz-adv-x="1163" 
d="M340 1065l-35 -207q66 103 167 160t228 57q79 0 148.5 -26t124 -76.5t86 -134t31.5 -189.5q0 -175 -67.5 -325.5t-196 -244t-291.5 -93.5q-135 0 -218 66t-108 173l-98 -614h-164l229 1454h164zM510 123q99 0 180.5 44t133 118t79 166t27.5 192q0 147 -78 222t-197 75
q-97 0 -177 -42.5t-131.5 -114.5t-79 -164t-27.5 -193q0 -148 75 -225.5t195 -77.5z" />
    <glyph glyph-name="uni0441" unicode="&#x441;" horiz-adv-x="1062" 
d="M469 123q116 0 191.5 49t123.5 145h156q-133 -331 -479 -331q-87 0 -162.5 26t-135.5 77t-95 136t-35 193q0 134 42.5 254.5t118 209.5t185 141t237.5 52q351 0 392 -334h-150q-19 104 -77.5 151.5t-170.5 47.5q-96 0 -176.5 -45.5t-132 -119.5t-80 -166.5t-28.5 -188.5
q0 -146 77 -221.5t199 -75.5z" />
    <glyph glyph-name="uni0442" unicode="&#x442;" horiz-adv-x="952" 
d="M965 1065l-21 -131h-342l-147 -934h-164l147 934h-344l21 131h850z" />
    <glyph glyph-name="uni0443" unicode="&#x443;" horiz-adv-x="1064" 
d="M928 1065h170l-647 -1155q-99 -179 -211 -247t-269 -48l23 139q109 -14 184 34.5t129 148.5q26 49 33.5 72.5t1.5 49.5l-248 1006h164l197 -872z" />
    <glyph glyph-name="uni0444" unicode="&#x444;" horiz-adv-x="1196" 
d="M1122 635q0 -172 -69.5 -314.5t-195.5 -231t-288 -103.5l-57 -365h-152l58 367q-170 23 -276.5 133.5t-106.5 302.5q0 263 155 445.5t400 205.5l57 369h154l-60 -371q81 -11 149 -43.5t120.5 -85.5t82 -132t29.5 -177zM590 115q184 30 289.5 174.5t105.5 349.5
q0 137 -70.5 215t-191.5 94zM172 422q0 -140 70.5 -216.5t195.5 -92.5l131 833q-185 -30 -291 -175t-106 -349z" />
    <glyph glyph-name="uni0445" unicode="&#x445;" horiz-adv-x="1019" 
d="M1042 1065l-458 -522l307 -543h-174l-238 424l-366 -424h-187l484 551l-291 514h174l221 -397l344 397h184z" />
    <glyph glyph-name="uni0446" unicode="&#x446;" horiz-adv-x="1105" 
d="M1026 1065l-147 -932h88l-66 -420h-158l45 287h-790l168 1065h164l-148 -932h533l147 932h164z" />
    <glyph glyph-name="uni0447" unicode="&#x447;" horiz-adv-x="1085" 
d="M883 1065h164l-168 -1065h-164l82 516q-18 -34 -52.5 -71.5t-85 -76.5t-122.5 -64t-148 -25q-175 0 -264.5 99.5t-56.5 313.5l57 373h164l-60 -377q-41 -270 215 -270q58 0 112 17.5t94.5 44.5t76 62.5t57.5 68t37 63.5z" />
    <glyph glyph-name="uni0448" unicode="&#x448;" horiz-adv-x="1531" 
d="M1329 1065h164l-168 -1065h-1317l168 1065h164l-147 -932h417l148 932h155l-147 -932h416z" />
    <glyph glyph-name="uni0449" unicode="&#x449;" horiz-adv-x="1548" 
d="M1483 1065l-148 -932h72l-66 -420h-155l45 287h-1233l168 1065h164l-148 -932h418l148 932h155l-147 -932h415l148 932h164z" />
    <glyph glyph-name="uni044A" unicode="&#x44a;" horiz-adv-x="1224" 
d="M733 678q182 0 282.5 -76t100.5 -213q0 -186 -132 -287.5t-349 -101.5h-477l147 934h-201l21 131h364l-61 -387h305zM649 133q148 0 230 63.5t82 182.5q0 168 -238 168h-315l-64 -414h305z" />
    <glyph glyph-name="uni044B" unicode="&#x44b;" horiz-adv-x="1413" 
d="M584 678q182 0 282.5 -76t100.5 -213q0 -186 -132.5 -287.5t-349.5 -101.5h-477l168 1065h164l-61 -387h305zM1210 1065h164l-168 -1065h-164zM500 133q148 0 229.5 63.5t81.5 182.5q0 168 -238 168h-315l-63 -414h305z" />
    <glyph glyph-name="uni044C" unicode="&#x44c;" horiz-adv-x="1077" 
d="M584 678q182 0 282.5 -76t100.5 -213q0 -186 -132.5 -287.5t-349.5 -101.5h-477l168 1065h164l-61 -387h305zM500 133q148 0 229.5 63.5t81.5 182.5q0 168 -238 168h-315l-63 -414h305z" />
    <glyph glyph-name="uni044D" unicode="&#x44d;" horiz-adv-x="1056" 
d="M555 1075q87 0 162.5 -26t135.5 -77t95 -136t35 -193q0 -180 -72.5 -329.5t-207 -238.5t-304.5 -89q-350 0 -391 333h150q19 -103 77.5 -150.5t170.5 -47.5q153 0 258 106t143 267h-377l16 106h375q2 14 2 41q0 146 -77 221.5t-199 75.5q-116 0 -192 -49.5t-124 -145.5
h-155q133 332 479 332z" />
    <glyph glyph-name="uni044E" unicode="&#x44e;" horiz-adv-x="1482" 
d="M981 1075q83 0 158 -27t136 -79.5t97.5 -138.5t36.5 -195q0 -130 -43.5 -249t-119.5 -207t-186 -140.5t-235 -52.5q-84 0 -159 27t-136 78.5t-97 137.5t-36 195q0 27 2 41h-153l-74 -467h-164l168 1065h164l-74 -465h152q51 208 203.5 342.5t359.5 134.5zM834 123
q125 0 221.5 74.5t145 189t48.5 244.5q0 151 -79 230t-199 79q-93 0 -172.5 -43.5t-132 -115t-82 -163t-29.5 -188.5q0 -149 80.5 -228t198.5 -79z" />
    <glyph glyph-name="uni044F" unicode="&#x44f;" horiz-adv-x="1089" 
d="M573 1065h478l-168 -1065h-164l61 387h-362q-92 0 -135.5 -31t-55.5 -104l-16 -92q-12 -74 -23 -106t-32 -54h-164q21 22 32.5 54t24.5 106l14 92q11 72 46 120t108 74q-125 75 -125 230q0 186 132 287.5t349 101.5zM801 518l63 414h-305q-148 0 -229.5 -63.5
t-81.5 -182.5q0 -168 237 -168h316z" />
    <glyph glyph-name="uni0451" unicode="&#x451;" horiz-adv-x="1101" 
d="M561 1452l-29 -184h-170l27 184h172zM997 1452l-26 -184h-172l28 184h170zM1008 469h-818q-2 -16 -2 -47q0 -157 79.5 -233t215.5 -76q100 0 167 28.5t126 94.5h160q-85 -133 -197.5 -191.5t-271.5 -58.5q-91 0 -168.5 27t-137.5 79.5t-94 136.5t-34 191
q0 181 73.5 330.5t208.5 237t303 87.5q180 0 296 -109.5t116 -316.5q0 -36 -6.5 -94t-15.5 -86zM606 948q-155 0 -259 -104t-140 -264h661q11 40 11 88q0 133 -75.5 206.5t-197.5 73.5z" />
    <glyph glyph-name="uni0453" unicode="&#x453;" horiz-adv-x="849" 
d="M455 1190h141l262 262h-227zM868 1065l-20 -131h-539l-147 -934h-164l168 1065h702z" />
    <glyph glyph-name="uni0454" unicode="&#x454;" horiz-adv-x="1062" 
d="M469 123q116 0 191.5 49t123.5 145h156q-133 -331 -479 -331q-87 0 -162.5 26t-135.5 77t-95 136t-35 193q0 134 42.5 254.5t118 209.5t185 141t237.5 52q351 0 392 -334h-150q-19 104 -77.5 151.5t-170.5 47.5q-145 0 -247 -95.5t-146 -244.5h375l-17 -106h-378
q-4 -50 -4 -74q0 -146 77 -221.5t199 -75.5z" />
    <glyph glyph-name="uni0457" unicode="&#x457;" horiz-adv-x="374" 
d="M10 1452h172l-28 -184h-170zM449 1452h169l-26 -184h-172zM176 1065h164l-168 -1065h-164z" />
    <glyph glyph-name="uni045C" unicode="&#x45c;" horiz-adv-x="1003" 
d="M934 1452l-262 -262h-142l177 262h227zM1040 1065l-628 -528l471 -537h-197l-436 496l-78 -496h-164l168 1065h164l-76 -483l567 483h209z" />
    <glyph glyph-name="uni045E" unicode="&#x45e;" horiz-adv-x="1064" 
d="M860 1452h111q-19 -118 -101.5 -190t-234.5 -72q-76 0 -131 21.5t-84 59t-39.5 83.5t-1.5 98h110q-13 -152 156 -152q175 0 215 152zM928 1065h170l-647 -1155q-99 -179 -211 -247t-269 -48l23 139q109 -14 184 34.5t129 148.5q26 49 33.5 72.5t1.5 49.5l-248 1006h164
l197 -872z" />
    <glyph glyph-name="uni0490" unicode="&#x490;" horiz-adv-x="1021" 
d="M956 1638h170l-57 -354h-676l-203 -1284h-172l228 1434h678z" />
    <glyph glyph-name="uni0491" unicode="&#x491;" horiz-adv-x="849" 
d="M748 1200h143l-43 -266h-539l-147 -934h-164l168 1065h559z" />
    <glyph glyph-name="Wgrave" unicode="&#x1e80;" horiz-adv-x="2054" 
d="M1227 1559l-133 262h-234l223 -262h144zM1935 1434h181l-641 -1434h-162l-199 1188l-577 -1188h-162l-191 1434h178l138 -1180l561 1180h176l182 -1180z" />
    <glyph glyph-name="wgrave" unicode="&#x1e81;" horiz-adv-x="1613" 
d="M969 1190l-133 262h-234l223 -262h144zM1647 1065l-484 -1065h-153l-170 864l-443 -864h-155l-148 1065h164l107 -862l434 862h135l162 -862l383 862h168z" />
    <glyph glyph-name="Wacute" unicode="&#x1e82;" horiz-adv-x="2054" 
d="M1094 1559h141l262 262h-227zM1935 1434h181l-641 -1434h-162l-199 1188l-577 -1188h-162l-191 1434h178l138 -1180l561 1180h176l182 -1180z" />
    <glyph glyph-name="wacute" unicode="&#x1e83;" horiz-adv-x="1613" 
d="M836 1190h141l262 262h-227zM1647 1065l-484 -1065h-153l-170 864l-443 -864h-155l-148 1065h164l107 -862l434 862h135l162 -862l383 862h168z" />
    <glyph glyph-name="Wdieresis" unicode="&#x1e84;" horiz-adv-x="2054" 
d="M901 1821h172l-29 -185h-170zM1339 1821h170l-26 -185h-172zM1935 1434h181l-641 -1434h-162l-199 1188l-577 -1188h-162l-191 1434h178l138 -1180l561 1180h176l182 -1180z" />
    <glyph glyph-name="wdieresis" unicode="&#x1e85;" horiz-adv-x="1613" 
d="M643 1452h172l-29 -184h-170zM1081 1452h170l-26 -184h-172zM1647 1065l-484 -1065h-153l-170 864l-443 -864h-155l-148 1065h164l107 -862l434 862h135l162 -862l383 862h168z" />
    <glyph glyph-name="uni1E9E" unicode="&#x1e9e;" horiz-adv-x="1335" 
d="M838 879q178 -18 287.5 -121.5t109.5 -268.5q0 -222 -143 -365.5t-369 -143.5q-182 0 -279 92t-92 260h164q0 -88 56 -144.5t167 -56.5q141 0 229.5 98.5t88.5 237.5q0 132 -123.5 207t-347.5 71l420 558h-418q-105 0 -156 -50t-67 -155l-175 -1098h-170l177 1118
q30 185 122.5 260.5t274.5 75.5h702z" />
    <glyph glyph-name="Ygrave" unicode="&#x1ef2;" horiz-adv-x="1345" 
d="M901 1559l-133 262h-233l223 -262h143zM756 561l-88 -561h-174l88 561l-398 873h191l309 -707l528 707h195z" />
    <glyph glyph-name="ygrave" unicode="&#x1ef3;" horiz-adv-x="1064" 
d="M694 1190l-133 262h-233l223 -262h143zM928 1065h170l-647 -1155q-99 -179 -211 -247t-269 -48l23 139q109 -14 184 34.5t129 148.5q26 49 33.5 72.5t1.5 49.5l-248 1006h164l197 -872z" />
    <glyph glyph-name="endash" unicode="&#x2013;" horiz-adv-x="1228" 
d="M80 639h1044l-20 -133h-1045z" />
    <glyph glyph-name="emdash" unicode="&#x2014;" horiz-adv-x="1351" 
d="M80 639h1167l-20 -133h-1168z" />
    <glyph glyph-name="quoteleft" unicode="&#x2018;" horiz-adv-x="360" 
d="M422 1436l-10 -56q-49 -21 -73.5 -62.5t-35.5 -115.5l-8 -63h80l-33 -209h-197l41 260q38 242 236 246z" />
    <glyph glyph-name="quoteright" unicode="&#x2019;" horiz-adv-x="380" 
d="M154 932l2 57q45 23 67 64.5t33 117.5l10 58h-69l30 205h213l-41 -260q-11 -71 -36 -119.5t-60.5 -73.5t-70.5 -35.5t-78 -13.5z" />
    <glyph glyph-name="quotesinglbase" unicode="&#x201a;" horiz-adv-x="380" 
d="M-53 -369l2 58q45 21 67 62.5t35 119.5l8 57h-69l33 205h213l-41 -262q-11 -70 -36.5 -119t-62 -73.5t-71 -34.5t-78.5 -13z" />
    <glyph glyph-name="quotedblleft" unicode="&#x201c;" horiz-adv-x="692" 
d="M422 1436l-10 -56q-49 -21 -73.5 -62.5t-35.5 -115.5l-8 -63h80l-33 -209h-197l41 260q38 242 236 246zM754 1436l-11 -56q-49 -21 -73 -62t-35 -116l-8 -63h80l-33 -209h-197l41 260q38 242 236 246z" />
    <glyph glyph-name="quotedblright" unicode="&#x201d;" horiz-adv-x="692" 
d="M143 926l11 55q49 21 73 62t35 116l8 64h-80l33 209h197l-41 -261q-38 -241 -236 -245zM475 926l10 55q49 21 73.5 62.5t35.5 115.5l8 64h-80l33 209h197l-41 -261q-38 -241 -236 -245z" />
    <glyph glyph-name="quotedblbase" unicode="&#x201e;" horiz-adv-x="692" 
d="M-49 -297l10 55q49 21 73.5 62.5t35.5 116.5l8 63h-80l33 209h196l-41 -260q-38 -242 -235 -246zM283 -297l10 55q49 21 73 62.5t35 116.5l9 63h-80l32 209h197l-41 -260q-38 -242 -235 -246z" />
    <glyph glyph-name="dagger" unicode="&#x2020;" horiz-adv-x="694" 
d="M666 1186l-19 -127h-178l-82 -522h-133l82 522h-178l18 127h180l39 248h133l-39 -248h177z" />
    <glyph glyph-name="daggerdbl" unicode="&#x2021;" horiz-adv-x="694" 
d="M637 997h-176l-88 -559h176l-21 -127h-176l-49 -311h-133l49 311h-180l20 127h181l88 559h-181l21 127h178l49 310h133l-49 -310h178z" />
    <glyph glyph-name="bullet" unicode="&#x2022;" horiz-adv-x="534" 
d="M223 375q-72 0 -115 52t-32 124q11 65 63.5 109.5t118.5 44.5q70 0 113 -51.5t32 -123.5q-11 -65 -63.5 -110t-116.5 -45z" />
    <glyph glyph-name="ellipsis" unicode="&#x2026;" horiz-adv-x="1388" 
d="M53 211h191l-33 -211h-191zM559 211h191l-33 -211h-191zM1065 211h190l-32 -211h-191z" />
    <glyph glyph-name="perthousand" unicode="&#x2030;" horiz-adv-x="2119" 
d="M381 817q-105 0 -166 65t-61 185q0 157 84.5 267t224.5 110q102 0 164.5 -65.5t62.5 -184.5q0 -155 -85.5 -266t-223.5 -111zM141 0l1071 1438l127 -4l-1067 -1434h-131zM387 930q90 0 141.5 76.5t51.5 179.5q0 72 -34 109.5t-93 37.5q-61 0 -106 -39.5t-65 -97.5
t-20 -123q0 -70 34 -106.5t91 -36.5zM1020 -10q-105 0 -166 65t-61 185q0 157 84.5 266.5t224.5 109.5q102 0 164.5 -65t62.5 -184q0 -155 -85.5 -266t-223.5 -111zM1673 -10q-103 0 -165 65.5t-62 184.5q0 157 84.5 266.5t224.5 109.5q104 0 165.5 -65t61.5 -184
q0 -155 -85.5 -266t-223.5 -111zM1026 102q90 0 141.5 76.5t51.5 179.5q0 72 -34 110t-93 38q-61 0 -106 -39.5t-65 -97.5t-20 -123q0 -70 34 -107t91 -37zM1681 102q90 0 141.5 76.5t51.5 179.5q0 72 -34 110t-93 38q-61 0 -106 -39.5t-65 -97.5t-20 -123q0 -70 33.5 -107
t91.5 -37z" />
    <glyph glyph-name="guilsinglleft" unicode="&#x2039;" horiz-adv-x="468" 
d="M422 766l-217 -162l166 -166l-25 -149l-262 258l20 131l345 256z" />
    <glyph glyph-name="guilsinglright" unicode="&#x203a;" horiz-adv-x="466" 
d="M121 778l24 156l263 -256l-21 -131l-344 -258l27 162l215 165z" />
    <glyph glyph-name="fraction" unicode="&#x2044;" horiz-adv-x="264" 
d="M-352 0h-90l1118 1434h90z" />
    <glyph glyph-name="Euro" unicode="&#x20ac;" horiz-adv-x="1413" 
d="M717 133q148 0 252.5 60.5t163.5 171.5h172q-69 -182 -235 -282.5t-380 -100.5q-239 0 -381.5 138t-146.5 404h-121l18 107h107q3 59 16 131h-102l16 106h111q37 126 102 231.5t154.5 184.5t208 123.5t254.5 44.5q213 0 345 -100t142 -281h-170q-22 110 -107 171t-231 61
q-185 0 -317.5 -120.5t-198.5 -314.5h379l-16 -106h-392q-12 -65 -18 -131h389l-18 -107h-373q7 -193 107.5 -292t269.5 -99z" />
    <glyph glyph-name="trademark" unicode="&#x2122;" horiz-adv-x="1114" 
d="M575 1364h-129l-47 -299h-80l48 299h-131l10 70h340zM1094 1434l-58 -369h-80l37 233l-141 -233h-66l-67 233l-37 -233h-80l57 369h78l90 -291l185 291h82z" />
    <glyph glyph-name="partialdiff" unicode="&#x2202;" horiz-adv-x="1204" 
d="M610 950q151 0 246.5 -66.5t114.5 -174.5q18 106 21.5 195t-10.5 167t-47.5 132t-92 85t-140.5 31q-121 0 -212 -66t-123 -163h-146q16 69 54.5 131.5t98 114t147 82t190.5 30.5q114 0 198 -38t133 -107t75.5 -165t24 -211.5t-21.5 -246.5q-55 -342 -214.5 -521
t-399.5 -179q-193 0 -313.5 107t-120.5 298q0 242 153 403.5t385 161.5zM506 119q112 0 207 63t148.5 164.5t53.5 214.5q0 126 -78 197t-198 71q-177 0 -292.5 -126.5t-115.5 -309.5q0 -129 75 -201.5t200 -72.5z" />
    <glyph glyph-name="product" unicode="&#x220f;" horiz-adv-x="1388" 
d="M238 1638h1204l-322 -2027h-153l297 1880h-895l-297 -1880h-156z" />
    <glyph glyph-name="summation" unicode="&#x2211;" horiz-adv-x="1357" 
d="M1389 1489h-914l346 -864l-614 -865h907l-24 -149h-1176l727 1014l-401 1013h1171z" />
    <glyph glyph-name="minus" unicode="&#x2212;" horiz-adv-x="876" 
d="M72 592h751l-18 -119h-752z" />
    <glyph glyph-name="radical" unicode="&#x221a;" horiz-adv-x="1515" 
d="M1571 1638l-879 -2027h-178l-219 940h-229l26 172h336l197 -889l784 1804h162z" />
    <glyph glyph-name="infinity" unicode="&#x221e;" horiz-adv-x="1634" 
d="M1231 877q137 0 223 -81t86 -210q0 -161 -117.5 -277t-281.5 -116q-111 0 -196.5 63t-160.5 174q-223 -237 -419 -237q-137 0 -223.5 81.5t-86.5 212.5q0 161 118.5 275.5t281.5 114.5q110 0 195 -63t161 -173q229 236 420 236zM377 324q86 0 169 57.5t171 155.5
q-105 208 -254 208q-110 0 -184 -71.5t-74 -177.5q0 -74 46.5 -123t125.5 -49zM1133 324q110 0 184 74.5t74 176.5q0 75 -45.5 122.5t-126.5 47.5q-86 0 -169 -56t-171 -152q106 -213 254 -213z" />
    <glyph glyph-name="integral" unicode="&#x222b;" horiz-adv-x="608" 
d="M272 1112q29 181 126 258.5t268 71.5l-23 -144q-88 0 -141.5 -52.5t-71.5 -168.5l-180 -1136q-15 -96 -48.5 -162t-85 -103.5t-114.5 -52.5t-145 -12l20 143q179 0 215 219z" />
    <glyph glyph-name="approxequal" unicode="&#x2248;" horiz-adv-x="878" 
d="M780 815l80 -10q-15 -99 -81 -156t-156 -57q-40 0 -76.5 16.5t-64 39.5l-55 46t-61 39.5t-69.5 16.5q-56 0 -94 -31.5t-41 -67.5l-80 11q15 99 80 155.5t155 56.5q41 0 77.5 -16t65 -39t56 -46.5t61 -39.5t68.5 -16q57 0 93.5 30.5t41.5 67.5zM727 487l80 -10
q-15 -99 -80.5 -156t-155.5 -57q-41 0 -77.5 16.5t-64.5 39.5t-55 46t-60.5 39.5t-69.5 16.5q-56 0 -93 -31t-40 -67l-80 10q15 99 80 156t155 57q40 0 76.5 -16.5t65 -39.5t56 -46t61.5 -39.5t69 -16.5q57 0 93.5 31t39.5 67z" />
    <glyph glyph-name="notequal" unicode="&#x2260;" horiz-adv-x="868" 
d="M834 678h-285l-115 -209h367l-19 -119h-413l-191 -350h-115l191 350h-225l18 119h272l115 209h-352l18 119h398l192 352h115l-193 -352h240z" />
    <glyph glyph-name="lessequal" unicode="&#x2264;" horiz-adv-x="827" 
d="M754 467l-535 303l631 301l22 146l-761 -377l-23 -142l641 -376zM8 86h686l-18 -119h-688z" />
    <glyph glyph-name="greaterequal" unicode="&#x2265;" horiz-adv-x="831" 
d="M55 467l-24 -145l764 376l22 142l-643 377l-22 -146l534 -301zM682 86l-18 -119h-693l21 119h690z" />
    <glyph glyph-name="lozenge" unicode="&#x25ca;" horiz-adv-x="1038" 
d="M741 1434l205 -717l-428 -717h-219l-207 717l430 717h219zM428 131l350 586l-166 586l-352 -586z" />
    <glyph glyph-name="G.ss01" horiz-adv-x="1357" 
d="M819 723h488l-115 -723h-158l37 217q-87 -125 -203.5 -185.5t-273.5 -60.5q-238 0 -379 144.5t-141 421.5q0 151 31.5 289t95 253.5t153 201t211.5 133.5t264 48q208 0 337.5 -95t148.5 -263h-170q-59 209 -320 209q-110 0 -204.5 -42.5t-162 -116.5t-115 -172
t-70.5 -209.5t-23 -229.5q0 -210 99.5 -315t277.5 -105q194 0 326.5 109t160.5 290l10 60h-327z" />
    <glyph glyph-name="R.ss01" horiz-adv-x="1234" 
d="M1208 1063q0 -199 -98.5 -335t-273.5 -189l227 -539h-174l-215 512q-18 -2 -58 -2h-346l-80 -510h-172l228 1434h516q221 0 333.5 -96t112.5 -275zM295 659h344q182 0 284.5 103t102.5 278q0 120 -72 182t-213 62h-348z" />
    <glyph glyph-name="G.ss05" horiz-adv-x="1357" 
d="M819 723h488l-115 -723h-158l37 217q-87 -125 -203.5 -185.5t-273.5 -60.5q-238 0 -379 144.5t-141 421.5q0 151 31.5 289t95 253.5t153 201t211.5 133.5t264 48q208 0 337.5 -95t148.5 -263h-170q-59 209 -320 209q-110 0 -204.5 -42.5t-162 -116.5t-115 -172
t-70.5 -209.5t-23 -229.5q0 -210 99.5 -315t277.5 -105q194 0 326.5 109t160.5 290l10 60h-327z" />
    <glyph glyph-name="i.loclTRK" horiz-adv-x="374" 
d="M233 1452h173l-29 -184h-170zM176 1065h164l-168 -1065h-164z" />
    <glyph glyph-name="a.ss01" horiz-adv-x="1142" 
d="M1104 1067l-168 -1067h-164l33 203q-59 -100 -156.5 -160.5t-224.5 -60.5q-77 0 -145.5 26t-124.5 77.5t-88.5 136.5t-32.5 194q0 176 66 326t192.5 242.5t288.5 92.5q128 0 209.5 -56t115.5 -155l33 201h166zM461 119q93 0 172 44.5t131 118.5t81 168.5t29 194.5
q0 149 -76 223t-196 74q-127 0 -221.5 -76.5t-140 -193t-45.5 -252.5q0 -150 73.5 -225.5t192.5 -75.5z" />
    <glyph glyph-name="aacute.ss01" horiz-adv-x="1142" 
d="M610 1190h142l262 262h-228zM1104 1067l-168 -1067h-164l33 203q-59 -100 -156.5 -160.5t-224.5 -60.5q-77 0 -145.5 26t-124.5 77.5t-88.5 136.5t-32.5 194q0 176 66 326t192.5 242.5t288.5 92.5q128 0 209.5 -56t115.5 -155l33 201h166zM461 119q93 0 172 44.5
t131 118.5t81 168.5t29 194.5q0 149 -76 223t-196 74q-127 0 -221.5 -76.5t-140 -193t-45.5 -252.5q0 -150 73.5 -225.5t192.5 -75.5z" />
    <glyph glyph-name="abreve.ss01" horiz-adv-x="1142" 
d="M909 1452h111q-19 -118 -101.5 -190t-234.5 -72q-76 0 -131 21.5t-84 59t-39.5 83.5t-1.5 98h111q-6 -72 31 -112t124 -40q175 0 215 152zM1104 1067l-168 -1067h-164l33 203q-59 -100 -156.5 -160.5t-224.5 -60.5q-77 0 -145.5 26t-124.5 77.5t-88.5 136.5t-32.5 194
q0 176 66 326t192.5 242.5t288.5 92.5q128 0 209.5 -56t115.5 -155l33 201h166zM461 119q93 0 172 44.5t131 118.5t81 168.5t29 194.5q0 149 -76 223t-196 74q-127 0 -221.5 -76.5t-140 -193t-45.5 -252.5q0 -150 73.5 -225.5t192.5 -75.5z" />
    <glyph glyph-name="uni01CE.ss01" horiz-adv-x="1142" 
d="M913 1452h136l-226 -266h-286l-142 266h129l166 -182zM1104 1067l-168 -1067h-164l33 203q-59 -100 -156.5 -160.5t-224.5 -60.5q-77 0 -145.5 26t-124.5 77.5t-88.5 136.5t-32.5 194q0 176 66 326t192.5 242.5t288.5 92.5q128 0 209.5 -56t115.5 -155l33 201h166z
M461 119q93 0 172 44.5t131 118.5t81 168.5t29 194.5q0 149 -76 223t-196 74q-127 0 -221.5 -76.5t-140 -193t-45.5 -252.5q0 -150 73.5 -225.5t192.5 -75.5z" />
    <glyph glyph-name="acircumflex.ss01" horiz-adv-x="1142" 
d="M860 1186l-164 182l-225 -182h-135l223 266h287l143 -266h-129zM1104 1067l-168 -1067h-164l33 203q-59 -100 -156.5 -160.5t-224.5 -60.5q-77 0 -145.5 26t-124.5 77.5t-88.5 136.5t-32.5 194q0 176 66 326t192.5 242.5t288.5 92.5q128 0 209.5 -56t115.5 -155l33 201
h166zM461 119q93 0 172 44.5t131 118.5t81 168.5t29 194.5q0 149 -76 223t-196 74q-127 0 -221.5 -76.5t-140 -193t-45.5 -252.5q0 -150 73.5 -225.5t192.5 -75.5z" />
    <glyph glyph-name="adieresis.ss01" horiz-adv-x="1142" 
d="M418 1452h172l-29 -184h-170zM856 1452h170l-27 -184h-172zM1104 1067l-168 -1067h-164l33 203q-59 -100 -156.5 -160.5t-224.5 -60.5q-77 0 -145.5 26t-124.5 77.5t-88.5 136.5t-32.5 194q0 176 66 326t192.5 242.5t288.5 92.5q128 0 209.5 -56t115.5 -155l33 201h166z
M461 119q93 0 172 44.5t131 118.5t81 168.5t29 194.5q0 149 -76 223t-196 74q-127 0 -221.5 -76.5t-140 -193t-45.5 -252.5q0 -150 73.5 -225.5t192.5 -75.5z" />
    <glyph glyph-name="agrave.ss01" horiz-adv-x="1142" 
d="M745 1190l-133 262h-233l223 -262h143zM1104 1067l-168 -1067h-164l33 203q-59 -100 -156.5 -160.5t-224.5 -60.5q-77 0 -145.5 26t-124.5 77.5t-88.5 136.5t-32.5 194q0 176 66 326t192.5 242.5t288.5 92.5q128 0 209.5 -56t115.5 -155l33 201h166zM461 119
q93 0 172 44.5t131 118.5t81 168.5t29 194.5q0 149 -76 223t-196 74q-127 0 -221.5 -76.5t-140 -193t-45.5 -252.5q0 -150 73.5 -225.5t192.5 -75.5z" />
    <glyph glyph-name="amacron.ss01" horiz-adv-x="1142" 
d="M424 1452h629l-15 -102h-628zM1104 1067l-168 -1067h-164l33 203q-59 -100 -156.5 -160.5t-224.5 -60.5q-77 0 -145.5 26t-124.5 77.5t-88.5 136.5t-32.5 194q0 176 66 326t192.5 242.5t288.5 92.5q128 0 209.5 -56t115.5 -155l33 201h166zM461 119q93 0 172 44.5
t131 118.5t81 168.5t29 194.5q0 149 -76 223t-196 74q-127 0 -221.5 -76.5t-140 -193t-45.5 -252.5q0 -150 73.5 -225.5t192.5 -75.5z" />
    <glyph glyph-name="aogonek.ss01" horiz-adv-x="1142" 
d="M938 1067h166l-168 -1067h-39q-124 -42 -189 -104.5t-65 -133.5q0 -64 52.5 -87t142.5 -3v-80q-46 -21 -105 -26t-115 7t-94.5 53.5t-38.5 107.5q0 65 46.5 123t110 92t132.5 51h-2l33 203q-59 -100 -156.5 -160.5t-224.5 -60.5q-77 0 -145.5 26t-124.5 77.5t-88.5 136.5
t-32.5 194q0 176 66 326t192.5 242.5t288.5 92.5q128 0 209.5 -56t115.5 -155zM461 119q93 0 172 44.5t131 118.5t81 168.5t29 194.5q0 149 -76 223t-196 74q-127 0 -221.5 -76.5t-140 -193t-45.5 -252.5q0 -150 73.5 -225.5t192.5 -75.5z" />
    <glyph glyph-name="aring.ss01" horiz-adv-x="1142" 
d="M696 1190q-71 0 -116 45t-45 111q0 79 58 136.5t140 57.5q67 0 111.5 -45.5t44.5 -112.5q0 -76 -59 -134t-134 -58zM702 1272q40 0 72.5 30.5t32.5 71.5q0 36 -24 60t-60 24q-43 0 -75 -31t-32 -73q0 -34 24 -58t62 -24zM1104 1067l-168 -1067h-164l33 203
q-59 -100 -156.5 -160.5t-224.5 -60.5q-77 0 -145.5 26t-124.5 77.5t-88.5 136.5t-32.5 194q0 176 66 326t192.5 242.5t288.5 92.5q128 0 209.5 -56t115.5 -155l33 201h166zM461 119q93 0 172 44.5t131 118.5t81 168.5t29 194.5q0 149 -76 223t-196 74q-127 0 -221.5 -76.5
t-140 -193t-45.5 -252.5q0 -150 73.5 -225.5t192.5 -75.5z" />
    <glyph glyph-name="atilde.ss01" horiz-adv-x="1142" 
d="M946 1434h80q0 -94 -57.5 -149.5t-147.5 -55.5q-41 0 -78.5 15t-66.5 36.5t-57.5 43.5t-62 37t-67.5 15q-52 0 -80 -26.5t-26 -59.5h-78q0 94 57.5 149.5t147.5 55.5q40 0 77 -15t66.5 -36.5t57.5 -43.5t61.5 -37t67.5 -15q52 0 80 26.5t26 59.5zM1104 1067l-168 -1067
h-164l33 203q-59 -100 -156.5 -160.5t-224.5 -60.5q-77 0 -145.5 26t-124.5 77.5t-88.5 136.5t-32.5 194q0 176 66 326t192.5 242.5t288.5 92.5q128 0 209.5 -56t115.5 -155l33 201h166zM461 119q93 0 172 44.5t131 118.5t81 168.5t29 194.5q0 149 -76 223t-196 74
q-127 0 -221.5 -76.5t-140 -193t-45.5 -252.5q0 -150 73.5 -225.5t192.5 -75.5z" />
    <glyph glyph-name="g.ss01" horiz-adv-x="1071" 
d="M1055 1065l-23 -123q-80 0 -125 -45q23 -58 23 -117q0 -180 -124.5 -294.5t-316.5 -114.5q-133 0 -221 55q-46 -4 -74 -29t-28 -59q0 -43 41 -61.5t131 -18.5h125q67 0 127.5 -10.5t116 -34t96 -58t64.5 -87t24 -117.5q0 -99 -43 -177.5t-117 -126.5t-168 -73t-201 -25
q-83 0 -156 17.5t-134 52.5t-97 96.5t-36 141.5q0 126 72.5 210.5t203.5 127.5q-78 6 -130 43.5t-52 99.5q0 57 44 99t120 55q-56 72 -56 176q0 182 124.5 295.5t316.5 113.5q176 0 272 -96q64 87 201 84zM498 492q132 0 212.5 78t80.5 200q0 85 -54.5 135.5t-163.5 50.5
q-134 0 -212 -77.5t-78 -202.5q0 -85 54 -134.5t161 -49.5zM449 135q-156 0 -253.5 -71t-97.5 -199q0 -96 75 -144.5t200 -48.5q164 0 262 70.5t98 200.5q0 97 -75.5 144.5t-208.5 47.5z" />
    <glyph glyph-name="l.ss01" horiz-adv-x="440" 
d="M264 -4q-136 -14 -190 32t-33 177l195 1229h163l-196 -1241q-6 -39 12.5 -56t71.5 -16z" />
    <glyph glyph-name="a.ss02" horiz-adv-x="1142" 
d="M1104 1067l-168 -1067h-164l33 203q-59 -100 -156.5 -160.5t-224.5 -60.5q-77 0 -145.5 26t-124.5 77.5t-88.5 136.5t-32.5 194q0 176 66 326t192.5 242.5t288.5 92.5q128 0 209.5 -56t115.5 -155l33 201h166zM461 119q93 0 172 44.5t131 118.5t81 168.5t29 194.5
q0 149 -76 223t-196 74q-127 0 -221.5 -76.5t-140 -193t-45.5 -252.5q0 -150 73.5 -225.5t192.5 -75.5z" />
    <glyph glyph-name="aacute.ss02" horiz-adv-x="1142" 
d="M610 1190h142l262 262h-228zM1104 1067l-168 -1067h-164l33 203q-59 -100 -156.5 -160.5t-224.5 -60.5q-77 0 -145.5 26t-124.5 77.5t-88.5 136.5t-32.5 194q0 176 66 326t192.5 242.5t288.5 92.5q128 0 209.5 -56t115.5 -155l33 201h166zM461 119q93 0 172 44.5
t131 118.5t81 168.5t29 194.5q0 149 -76 223t-196 74q-127 0 -221.5 -76.5t-140 -193t-45.5 -252.5q0 -150 73.5 -225.5t192.5 -75.5z" />
    <glyph glyph-name="abreve.ss02" horiz-adv-x="1142" 
d="M909 1452h111q-19 -118 -101.5 -190t-234.5 -72q-76 0 -131 21.5t-84 59t-39.5 83.5t-1.5 98h111q-6 -72 31 -112t124 -40q175 0 215 152zM1104 1067l-168 -1067h-164l33 203q-59 -100 -156.5 -160.5t-224.5 -60.5q-77 0 -145.5 26t-124.5 77.5t-88.5 136.5t-32.5 194
q0 176 66 326t192.5 242.5t288.5 92.5q128 0 209.5 -56t115.5 -155l33 201h166zM461 119q93 0 172 44.5t131 118.5t81 168.5t29 194.5q0 149 -76 223t-196 74q-127 0 -221.5 -76.5t-140 -193t-45.5 -252.5q0 -150 73.5 -225.5t192.5 -75.5z" />
    <glyph glyph-name="uni01CE.ss02" horiz-adv-x="1142" 
d="M913 1452h136l-226 -266h-286l-142 266h129l166 -182zM1104 1067l-168 -1067h-164l33 203q-59 -100 -156.5 -160.5t-224.5 -60.5q-77 0 -145.5 26t-124.5 77.5t-88.5 136.5t-32.5 194q0 176 66 326t192.5 242.5t288.5 92.5q128 0 209.5 -56t115.5 -155l33 201h166z
M461 119q93 0 172 44.5t131 118.5t81 168.5t29 194.5q0 149 -76 223t-196 74q-127 0 -221.5 -76.5t-140 -193t-45.5 -252.5q0 -150 73.5 -225.5t192.5 -75.5z" />
    <glyph glyph-name="acircumflex.ss02" horiz-adv-x="1142" 
d="M860 1186l-164 182l-225 -182h-135l223 266h287l143 -266h-129zM1104 1067l-168 -1067h-164l33 203q-59 -100 -156.5 -160.5t-224.5 -60.5q-77 0 -145.5 26t-124.5 77.5t-88.5 136.5t-32.5 194q0 176 66 326t192.5 242.5t288.5 92.5q128 0 209.5 -56t115.5 -155l33 201
h166zM461 119q93 0 172 44.5t131 118.5t81 168.5t29 194.5q0 149 -76 223t-196 74q-127 0 -221.5 -76.5t-140 -193t-45.5 -252.5q0 -150 73.5 -225.5t192.5 -75.5z" />
    <glyph glyph-name="adieresis.ss02" horiz-adv-x="1142" 
d="M418 1452h172l-29 -184h-170zM856 1452h170l-27 -184h-172zM1104 1067l-168 -1067h-164l33 203q-59 -100 -156.5 -160.5t-224.5 -60.5q-77 0 -145.5 26t-124.5 77.5t-88.5 136.5t-32.5 194q0 176 66 326t192.5 242.5t288.5 92.5q128 0 209.5 -56t115.5 -155l33 201h166z
M461 119q93 0 172 44.5t131 118.5t81 168.5t29 194.5q0 149 -76 223t-196 74q-127 0 -221.5 -76.5t-140 -193t-45.5 -252.5q0 -150 73.5 -225.5t192.5 -75.5z" />
    <glyph glyph-name="agrave.ss02" horiz-adv-x="1142" 
d="M743 1190l-133 262h-233l223 -262h143zM1104 1067l-168 -1067h-164l33 203q-59 -100 -156.5 -160.5t-224.5 -60.5q-77 0 -145.5 26t-124.5 77.5t-88.5 136.5t-32.5 194q0 176 66 326t192.5 242.5t288.5 92.5q128 0 209.5 -56t115.5 -155l33 201h166zM461 119
q93 0 172 44.5t131 118.5t81 168.5t29 194.5q0 149 -76 223t-196 74q-127 0 -221.5 -76.5t-140 -193t-45.5 -252.5q0 -150 73.5 -225.5t192.5 -75.5z" />
    <glyph glyph-name="amacron.ss02" horiz-adv-x="1142" 
d="M422 1452h629l-15 -102h-628zM1104 1067l-168 -1067h-164l33 203q-59 -100 -156.5 -160.5t-224.5 -60.5q-77 0 -145.5 26t-124.5 77.5t-88.5 136.5t-32.5 194q0 176 66 326t192.5 242.5t288.5 92.5q128 0 209.5 -56t115.5 -155l33 201h166zM461 119q93 0 172 44.5
t131 118.5t81 168.5t29 194.5q0 149 -76 223t-196 74q-127 0 -221.5 -76.5t-140 -193t-45.5 -252.5q0 -150 73.5 -225.5t192.5 -75.5z" />
    <glyph glyph-name="aogonek.ss02" horiz-adv-x="1142" 
d="M938 1067h166l-168 -1067h-41q-124 -42 -189 -104.5t-65 -133.5q0 -64 52.5 -87t142.5 -3v-80q-46 -21 -105 -26t-115 7t-94.5 53.5t-38.5 107.5q0 65 46.5 123t110 92t132.5 51l33 203q-59 -100 -156.5 -160.5t-224.5 -60.5q-77 0 -145.5 26t-124.5 77.5t-88.5 136.5
t-32.5 194q0 176 66 326t192.5 242.5t288.5 92.5q128 0 209.5 -56t115.5 -155zM461 119q93 0 172 44.5t131 118.5t81 168.5t29 194.5q0 149 -76 223t-196 74q-127 0 -221.5 -76.5t-140 -193t-45.5 -252.5q0 -150 73.5 -225.5t192.5 -75.5z" />
    <glyph glyph-name="aring.ss02" horiz-adv-x="1142" 
d="M694 1190q-71 0 -116.5 45t-45.5 111q0 79 58 136.5t141 57.5q67 0 111.5 -45.5t44.5 -112.5q0 -76 -59 -134t-134 -58zM700 1272q40 0 72.5 30.5t32.5 71.5q0 36 -24 60t-60 24q-43 0 -75 -31t-32 -73q0 -34 24 -58t62 -24zM1104 1067l-168 -1067h-164l33 203
q-59 -100 -156.5 -160.5t-224.5 -60.5q-77 0 -145.5 26t-124.5 77.5t-88.5 136.5t-32.5 194q0 176 66 326t192.5 242.5t288.5 92.5q128 0 209.5 -56t115.5 -155l33 201h166zM461 119q93 0 172 44.5t131 118.5t81 168.5t29 194.5q0 149 -76 223t-196 74q-127 0 -221.5 -76.5
t-140 -193t-45.5 -252.5q0 -150 73.5 -225.5t192.5 -75.5z" />
    <glyph glyph-name="atilde.ss02" horiz-adv-x="1142" 
d="M946 1434h80q0 -94 -57.5 -149.5t-147.5 -55.5q-41 0 -78.5 15t-66.5 36.5t-57.5 43.5t-62 37t-67.5 15q-52 0 -80 -26.5t-26 -59.5h-78q0 94 57.5 149.5t147.5 55.5q40 0 77 -15t66.5 -36.5t57.5 -43.5t61.5 -37t67.5 -15q52 0 80 26.5t26 59.5zM1104 1067l-168 -1067
h-164l33 203q-59 -100 -156.5 -160.5t-224.5 -60.5q-77 0 -145.5 26t-124.5 77.5t-88.5 136.5t-32.5 194q0 176 66 326t192.5 242.5t288.5 92.5q128 0 209.5 -56t115.5 -155l33 201h166zM461 119q93 0 172 44.5t131 118.5t81 168.5t29 194.5q0 149 -76 223t-196 74
q-127 0 -221.5 -76.5t-140 -193t-45.5 -252.5q0 -150 73.5 -225.5t192.5 -75.5z" />
    <glyph glyph-name="g.ss03" horiz-adv-x="1071" 
d="M1055 1065l-23 -123q-80 0 -125 -45q23 -58 23 -117q0 -180 -124.5 -294.5t-316.5 -114.5q-133 0 -221 55q-46 -4 -74 -29t-28 -59q0 -43 41 -61.5t131 -18.5h125q67 0 127.5 -10.5t116 -34t96 -58t64.5 -87t24 -117.5q0 -99 -43 -177.5t-117 -126.5t-168 -73t-201 -25
q-83 0 -156 17.5t-134 52.5t-97 96.5t-36 141.5q0 126 72.5 210.5t203.5 127.5q-78 6 -130 43.5t-52 99.5q0 57 44 99t120 55q-56 72 -56 176q0 182 124.5 295.5t316.5 113.5q176 0 272 -96q64 87 201 84zM498 492q132 0 212.5 78t80.5 200q0 85 -54.5 135.5t-163.5 50.5
q-134 0 -212 -77.5t-78 -202.5q0 -85 54 -134.5t161 -49.5zM449 135q-156 0 -253.5 -71t-97.5 -199q0 -96 75 -144.5t200 -48.5q164 0 262 70.5t98 200.5q0 97 -75.5 144.5t-208.5 47.5z" />
    <glyph glyph-name="l.ss04" horiz-adv-x="440" 
d="M264 -4q-136 -14 -190 32t-33 177l195 1229h163l-196 -1241q-6 -39 12.5 -56t71.5 -16z" />
    <glyph glyph-name="f_t" horiz-adv-x="1308" 
d="M1065 934l-115 -727q-7 -44 9.5 -63t62.5 -19q68 0 143 16l-22 -131q-63 -24 -166 -24q-106 0 -157.5 49.5t-31.5 175.5l113 723h-512l-147 -934h-164l147 934h-159l18 131h162l18 113q11 72 36 125t55.5 83.5t72 49t79.5 24.5t85 6q86 0 151 -18l-22 -125
q-53 12 -121 12q-79 0 -120 -36.5t-54 -124.5l-16 -109h514l41 266h163l-43 -266h215l-20 -131h-215z" />
    <glyph glyph-name="r_t" horiz-adv-x="1302" 
d="M1059 934l-115 -727q-7 -44 9.5 -63t62.5 -19q68 0 143 16l-22 -131q-63 -24 -166 -24q-106 0 -157.5 49.5t-31.5 175.5l113 723h-166l19 131h170l40 266h164l-43 -266h215l-20 -131h-215zM289 803q43 114 165 188t294 74l-21 -131q-355 -3 -469 -322l-96 -612h-164
l168 1065h164z" />
    <glyph glyph-name="zero.dnom" horiz-adv-x="579" 
d="M205 -4q112 0 188 90.5t76 239.5q0 98 -48.5 155.5t-133.5 57.5q-119 0 -189.5 -97.5t-70.5 -234.5q0 -98 46.5 -154.5t131.5 -56.5zM279 473q55 0 86.5 -39.5t31.5 -111.5q0 -118 -55 -189.5t-129 -71.5q-54 0 -84.5 39.5t-30.5 112.5q0 117 53 188.5t128 71.5z" />
    <glyph glyph-name="one.dnom" horiz-adv-x="368" 
d="M225 532l-84 -532h-71l73 442q-40 -56 -123 -47l9 66q37 -4 72.5 18.5t52.5 52.5h71z" />
    <glyph glyph-name="two.dnom" horiz-adv-x="530" 
d="M8 0q11 91 52.5 147t142.5 113q5 3 23 13.5t23.5 13.5t20.5 12.5t20.5 14.5t16.5 14.5t15 17t10 17.5t8 20.5t2 22.5q0 32 -24.5 51.5t-61.5 19.5q-45 0 -76.5 -26.5t-38.5 -73.5h-71q11 75 62 120.5t132 45.5q69 0 109.5 -35t40.5 -92q0 -31 -11 -58t-25 -45t-43 -39.5
t-49 -33t-59 -33.5q-59 -31 -92.5 -69t-36.5 -72h267l-11 -66h-346z" />
    <glyph glyph-name="three.dnom" horiz-adv-x="552" 
d="M307 283q41 -5 73 -32.5t32 -76.5q0 -77 -61 -129.5t-163 -52.5q-88 0 -131.5 49t-31.5 125h67q-7 -53 21.5 -82t85.5 -29q60 0 100.5 32.5t40.5 86.5q0 78 -123 78h-22l10 55h22q57 0 90 30.5t33 72.5q0 33 -23 51t-65 18q-102 0 -125 -104h-65q14 80 65.5 124t134.5 44
q70 0 110 -33.5t40 -85.5q0 -54 -33.5 -91t-81.5 -50z" />
    <glyph glyph-name="four.dnom" horiz-adv-x="540" 
d="M395 135h-61l-23 -135h-69l22 135h-244l9 58l299 342h69l-55 -342h61zM272 193l41 251l-219 -251h178z" />
    <glyph glyph-name="five.dnom" horiz-adv-x="501" 
d="M240 360q72 0 115 -49.5t30 -132.5q-13 -87 -74 -137.5t-149 -50.5q-85 0 -128 48.5t-32 125.5h72q-6 -46 20 -76.5t78 -30.5q54 0 92 32t47 89q10 64 -19.5 94.5t-74.5 30.5q-69 0 -121 -55h-67l88 287h276l-10 -64h-225l-49 -162q15 17 50 34t81 17z" />
    <glyph glyph-name="six.dnom" horiz-adv-x="555" 
d="M266 352q65 0 108.5 -36t43.5 -105q0 -101 -62 -161t-153 -60q-103 0 -143.5 74.5t-20.5 197.5q20 125 80.5 202t163.5 77q80 0 117.5 -44t33.5 -100h-69q-2 34 -24.5 57t-68.5 23q-41 0 -71.5 -19t-48.5 -54t-26.5 -62t-16.5 -66q22 30 63.5 53t93.5 23zM209 55
q59 0 98 42t39 108q0 44 -28 67t-70 23q-58 0 -100 -37.5t-42 -97.5q0 -50 28.5 -77.5t74.5 -27.5z" />
    <glyph glyph-name="seven.dnom" horiz-adv-x="460" 
d="M399 535l-10 -64l-287 -471h-73l290 471h-286l10 64h356z" />
    <glyph glyph-name="eight.dnom" horiz-adv-x="479" 
d="M293 291q78 -40 78 -113q0 -82 -60.5 -132t-156.5 -50q-71 0 -117.5 36.5t-46.5 98.5q0 56 32.5 97.5t86.5 64.5q-50 35 -50 94q0 60 48.5 106t130.5 46q66 0 102.5 -33t36.5 -82q0 -81 -84 -133zM121 389q0 -32 25 -52t61 -20q43 -2 75.5 27.5t32.5 71.5
q0 30 -21.5 48.5t-64.5 18.5q-50 0 -79 -28t-29 -66zM160 55q62 0 101.5 32t39.5 85q0 42 -28.5 64t-77.5 22q-55 0 -96.5 -32t-41.5 -87q0 -40 28.5 -62t74.5 -22z" />
    <glyph glyph-name="nine.dnom" horiz-adv-x="555" 
d="M205 180q-67 0 -110.5 35t-43.5 104q0 102 62.5 162t152.5 60q103 0 143.5 -74.5t20.5 -196.5q-20 -126 -80 -203t-162 -77q-80 0 -117.5 44t-33.5 99h67q2 -34 25.5 -57t67.5 -23q33 0 60.5 14t43.5 33.5t29.5 49.5t19.5 52.5t12 51.5q-22 -29 -64 -51.5t-93 -22.5z
M262 477q-60 0 -98.5 -42t-38.5 -107q0 -44 27.5 -67t70.5 -23q56 0 97.5 38t41.5 97q0 48 -28 76t-72 28z" />
    <glyph glyph-name="zero.numr" horiz-adv-x="577" 
d="M346 897q112 0 188 90.5t76 239.5q0 98 -48.5 155.5t-133.5 57.5q-119 0 -189.5 -97.5t-70.5 -234.5q0 -98 46.5 -154.5t131.5 -56.5zM420 1374q55 0 87 -39.5t32 -111.5q0 -118 -55 -189t-130 -71q-54 0 -84 39t-30 112q0 118 52.5 189t127.5 71z" />
    <glyph glyph-name="one.numr" horiz-adv-x="368" 
d="M369 1434l-84 -533h-72l74 442q-40 -56 -123 -47l8 66q37 -4 72.5 19t52.5 53h72z" />
    <glyph glyph-name="two.numr" horiz-adv-x="530" 
d="M152 901q11 91 52 147t142 113q5 3 23 13.5t23.5 13.5t20.5 12.5t20.5 14.5t16.5 14.5t15 17t10 17.5t8 20.5t2 22.5q0 32 -24.5 51.5t-61.5 19.5q-45 0 -76 -26.5t-38 -73.5h-72q11 75 62.5 120.5t132.5 45.5q69 0 109 -35t40 -92q0 -31 -11 -58t-25 -45t-42.5 -39.5
t-48.5 -33.5t-59 -33q-59 -31 -92.5 -69t-36.5 -72h266l-10 -66h-346z" />
    <glyph glyph-name="three.numr" horiz-adv-x="550" 
d="M449 1184q41 -5 72.5 -32.5t31.5 -76.5q0 -77 -60.5 -129.5t-162.5 -52.5q-89 0 -132.5 49t-31.5 125h67q-7 -53 22 -82t85 -29q60 0 100.5 32.5t40.5 86.5q0 78 -123 78h-22l10 55h23q57 0 90 30.5t33 72.5q0 33 -23.5 51t-65.5 18q-101 0 -124 -104h-66q14 80 66 124
t135 44q70 0 109.5 -33t39.5 -86q0 -54 -33 -91t-81 -50z" />
    <glyph glyph-name="four.numr" horiz-adv-x="540" 
d="M539 1036h-62l-22 -135h-70l23 135h-244l8 58l299 342h70l-56 -342h62zM416 1094l41 252l-219 -252h178z" />
    <glyph glyph-name="five.numr" horiz-adv-x="503" 
d="M383 1262q72 0 115 -50t30 -133q-13 -87 -74 -137.5t-149 -50.5q-85 0 -128 48.5t-32 125.5h72q-6 -46 20 -76.5t78 -30.5q54 0 92.5 32t47.5 89q10 64 -20 94.5t-75 30.5q-68 0 -120 -55h-68l88 287h277l-11 -64h-225l-49 -162q15 18 50 35t81 17z" />
    <glyph glyph-name="six.numr" horiz-adv-x="555" 
d="M410 1251q65 0 108 -35.5t43 -105.5q0 -101 -62 -161t-153 -60q-103 0 -143.5 74.5t-20.5 197.5q20 125 80.5 202t163.5 77q80 0 118 -44.5t34 -99.5h-70q-2 35 -24 57.5t-68 22.5q-41 0 -72 -19t-49 -53.5t-26.5 -62t-16.5 -65.5q21 30 63 52.5t95 22.5zM352 954
q59 0 98 42t39 108q0 44 -28 67t-70 23q-58 0 -99.5 -37.5t-41.5 -97.5q0 -50 28 -77.5t74 -27.5z" />
    <glyph glyph-name="seven.numr" horiz-adv-x="460" 
d="M543 1436l-11 -64l-286 -471h-74l291 471h-287l10 64h357z" />
    <glyph glyph-name="eight.numr" horiz-adv-x="479" 
d="M436 1192q78 -40 78 -113q0 -82 -60.5 -132t-156.5 -50q-71 0 -117.5 36.5t-46.5 98.5q0 56 32.5 97.5t86.5 64.5q-49 34 -49 94t48 106t130 46q66 0 102.5 -33t36.5 -82q0 -81 -84 -133zM264 1290q0 -32 25 -51.5t61 -19.5q43 -2 76 27t33 71q0 30 -21.5 48.5
t-64.5 18.5q-50 0 -79.5 -28t-29.5 -66zM303 956q62 0 101.5 32t39.5 85q0 42 -28.5 64t-77.5 22q-55 0 -96 -32t-41 -87q0 -40 28 -62t74 -22z" />
    <glyph glyph-name="nine.numr" horiz-adv-x="555" 
d="M348 1081q-66 0 -109.5 35t-43.5 105q0 102 62.5 161.5t152.5 59.5q103 0 143 -74.5t20 -196.5q-20 -126 -79.5 -203t-161.5 -77q-80 0 -118 44t-34 99h68q2 -34 25 -57t67 -23q41 0 72 19t49.5 53.5t27.5 62.5t17 66q-22 -29 -64.5 -51.5t-93.5 -22.5zM406 1378
q-60 0 -99 -42t-39 -107q0 -44 27.5 -67t71.5 -23q56 0 97.5 38t41.5 97q0 48 -28 76t-72 28z" />
    <glyph glyph-name="Aacutecy" horiz-adv-x="1392" 
d="M1174 1821l-263 -262h-141l176 262h228zM1063 0l-80 367h-643l-197 -367h-186l793 1434h155l342 -1434h-184zM412 498h542l-157 714z" />
    <glyph glyph-name="Ieacutecy" 
d="M668 1559h141l262 262h-227zM1153 1284h-760l-76 -477h658l-23 -139h-657l-82 -516h780l-24 -152h-951l228 1434h930z" />
    <glyph glyph-name="Iiacutecy" horiz-adv-x="1355" 
d="M762 1559h141l262 262h-227zM246 1434h172l-187 -1172h2l945 1172h188l-227 -1434h-170l184 1165h-4l-938 -1165h-193z" />
    <glyph glyph-name="Oacutecy" horiz-adv-x="1447" 
d="M819 1559h142l262 262h-228zM850 1452q250 0 396.5 -144t146.5 -409q0 -147 -34 -284t-100.5 -251.5t-159.5 -200t-217.5 -133.5t-267.5 -48q-249 0 -395.5 144.5t-146.5 408.5q0 148 33.5 285t100 251.5t159 199.5t217.5 133t268 48zM635 133q110 0 205 42t163 114
t116 168t71.5 205.5t23.5 224.5q0 202 -102 307.5t-285 105.5q-110 0 -205 -42t-162.5 -114t-115.5 -168.5t-71 -206t-23 -224.5q0 -201 101.5 -306.5t283.5 -105.5z" />
    <glyph glyph-name="Uacutecy" horiz-adv-x="1167" 
d="M672 1559h141l262 262h-227zM1038 1434h191l-651 -1141q-106 -187 -222 -258.5t-274 -52.5l24 157q75 -10 132.5 9t96 57t71.5 100q27 51 35 85.5t-1 82.5l-256 961h185l213 -838z" />
    <glyph glyph-name="Yeruacutecy" horiz-adv-x="1599" 
d="M889 1559h141l262 262h-227zM674 913q222 0 337 -96.5t115 -271.5q0 -255 -158.5 -400t-428.5 -145h-521l228 1434h172l-84 -521h340zM1382 0h-172l226 1434h172zM557 152q181 0 285 105t104 278q0 227 -284 227h-353l-96 -610h344z" />
    <glyph glyph-name="Ereversedacutecy" horiz-adv-x="1382" 
d="M1184 1821l-262 -262h-142l176 262h228zM791 1452q245 0 390.5 -143.5t145.5 -413.5q0 -146 -32 -281t-95.5 -250t-153 -200t-212 -133.5t-263.5 -48.5q-217 0 -353 102t-146 281h168q52 -232 335 -232q110 0 204.5 42t162.5 116t115 169.5t71 207.5h-520l23 139h516
q4 58 4 86q0 200 -99 305t-270 105q-290 0 -420 -232h-174q67 183 229.5 282t373.5 99z" />
    <glyph glyph-name="Iuacutecy" horiz-adv-x="1869" 
d="M1427 1821l-262 -262h-141l176 262h227zM1274 1452q250 0 396.5 -144t146.5 -409q0 -147 -34 -284t-100.5 -251.5t-159.5 -200t-217.5 -133.5t-267.5 -48q-249 0 -395.5 144.5t-146.5 408.5q0 32 4 98h-207l-100 -633h-173l226 1434h172l-105 -660h207q30 145 94 267.5
t158.5 214.5t223.5 144t278 52zM1059 133q110 0 205 42t163 114t116 168t71.5 205.5t23.5 224.5q0 202 -102 307.5t-285 105.5q-110 0 -205 -42t-162.5 -114t-115.5 -168.5t-71 -206t-23 -224.5q0 -201 101.5 -306.5t283.5 -105.5z" />
    <glyph glyph-name="Iaacutecy" horiz-adv-x="1280" 
d="M1133 1821l-263 -262h-141l176 262h228zM1290 1434l-227 -1434h-172l92 586h-442q-55 0 -103 -12.5t-91 -39t-72 -75.5t-39 -115l-15 -108q-27 -179 -78 -236h-176q62 69 86 246l15 110q17 129 86 206t196 108q-87 39 -134.5 117t-47.5 188q0 215 151 337t402 122h569z
M1006 725l88 559h-383q-177 0 -275 -86t-98 -235q0 -113 67 -175.5t179 -62.5h422z" />
    <glyph glyph-name="aacutecy" 
d="M971 1452l-262 -262h-142l176 262h228zM985 680l-78 -504q-6 -42 11.5 -59t62.5 -15l-16 -100q-34 -10 -72 -10q-80 0 -118 39t-23 116l12 64q-13 -21 -33.5 -45t-60 -57.5t-85 -59.5t-112 -44.5t-137.5 -18.5q-144 0 -231 71t-87 203q0 84 29.5 145.5t87 101t129.5 62.5
t170 37q16 2 66 9t74.5 10.5t69 10.5t71.5 13t58 15t52 18l2 10q24 141 -30 198.5t-189 57.5q-121 0 -187 -40t-95 -120h-158q41 148 149.5 217.5t300.5 69.5q221 0 310 -95t57 -300zM768 340l41 240q-20 -8 -48 -16t-70 -16t-71.5 -13.5t-90.5 -15.5t-89 -15
q-133 -22 -195.5 -74t-62.5 -151q0 -80 51.5 -125t143.5 -45q77 0 148 27t119.5 67.5t78 74.5t45.5 62z" />
    <glyph glyph-name="ieacutecy" horiz-adv-x="1101" 
d="M985 1452l-262 -262h-141l176 262h227zM1008 469h-818q-2 -16 -2 -47q0 -157 79.5 -233t215.5 -76q100 0 167 28.5t126 94.5h160q-85 -133 -197.5 -191.5t-271.5 -58.5q-91 0 -168.5 27t-137.5 79.5t-94 136.5t-34 191q0 181 73.5 330.5t208.5 237t303 87.5
q180 0 296 -109.5t116 -316.5q0 -36 -6.5 -94t-15.5 -86zM606 948q-155 0 -259 -104t-140 -264h661q11 40 11 88q0 133 -75.5 206.5t-197.5 73.5z" />
    <glyph glyph-name="iiacutecy" horiz-adv-x="1159" 
d="M608 1190h142l262 262h-228zM166 1065h164l-133 -848h4l737 848h182l-168 -1065h-164l134 842h-4l-734 -842h-186z" />
    <glyph glyph-name="oacutecy" horiz-adv-x="1120" 
d="M569 1190h142l262 262h-228zM618 1075q83 0 158 -27t136.5 -79.5t98 -138.5t36.5 -195q0 -130 -43.5 -249t-119.5 -207t-186 -140.5t-235 -52.5q-84 0 -159 27t-136 78.5t-97 137.5t-36 195q0 174 74 323t208.5 238.5t300.5 89.5zM887 631q0 151 -79.5 230t-199.5 79
q-93 0 -172.5 -43.5t-131.5 -115t-81.5 -163t-29.5 -188.5q0 -149 80 -228t198 -79q125 0 222 74.5t145.5 189t48.5 244.5z" />
    <glyph glyph-name="uacutecy" horiz-adv-x="1064" 
d="M561 1190h141l263 262h-228zM928 1065h170l-647 -1155q-99 -179 -211 -247t-269 -48l23 139q109 -14 184 34.5t129 148.5q26 49 33.5 72.5t1.5 49.5l-248 1006h164l197 -872z" />
    <glyph glyph-name="yeruacutecy" horiz-adv-x="1413" 
d="M737 1190h142l262 262h-228zM584 678q182 0 282.5 -76t100.5 -213q0 -186 -132.5 -287.5t-349.5 -101.5h-477l168 1065h164l-61 -387h305zM1210 1065h164l-168 -1065h-164zM500 133q148 0 229.5 63.5t81.5 182.5q0 168 -238 168h-315l-63 -414h305z" />
    <glyph glyph-name="ereversedacutecy" horiz-adv-x="1056" 
d="M963 1452l-263 -262h-141l176 262h228zM555 1075q87 0 162.5 -26t135.5 -77t95 -136t35 -193q0 -180 -72.5 -329.5t-207 -238.5t-304.5 -89q-350 0 -391 333h150q19 -103 77.5 -150.5t170.5 -47.5q153 0 258 106t143 267h-377l16 106h375q2 14 2 41q0 146 -77 221.5
t-199 75.5q-116 0 -192 -49.5t-124 -145.5h-155q133 332 479 332z" />
    <glyph glyph-name="iuacutecy" horiz-adv-x="1482" 
d="M1176 1452l-263 -262h-141l176 262h228zM981 1075q83 0 158 -27t136 -79.5t97.5 -138.5t36.5 -195q0 -130 -43.5 -249t-119.5 -207t-186 -140.5t-235 -52.5q-84 0 -159 27t-136 78.5t-97 137.5t-36 195q0 27 2 41h-153l-74 -467h-164l168 1065h164l-74 -465h152
q51 208 203.5 342.5t359.5 134.5zM834 123q125 0 221.5 74.5t145 189t48.5 244.5q0 151 -79 230t-199 79q-93 0 -172.5 -43.5t-132 -115t-82 -163t-29.5 -188.5q0 -149 80.5 -228t198.5 -79z" />
    <glyph glyph-name="iaacutecy" horiz-adv-x="1089" 
d="M977 1452l-262 -262h-142l177 262h227zM573 1065h478l-168 -1065h-164l61 387h-362q-92 0 -135.5 -31t-55.5 -104l-16 -92q-12 -74 -23 -106t-32 -54h-164q21 22 32.5 54t24.5 106l14 92q11 72 46 120t108 74q-125 75 -125 230q0 186 132 287.5t349 101.5zM801 518
l63 414h-305q-148 0 -229.5 -63.5t-81.5 -182.5q0 -168 237 -168h316z" />
    </font>
</defs>
</svg>
