<?xml version="1.0" standalone="no"?>
<!DOCTYPE svg PUBLIC "-//W3C//DTD SVG 1.1//EN" "http://www.w3.org/Graphics/SVG/1.1/DTD/svg11.dtd" >
<svg xmlns="http://www.w3.org/2000/svg" xmlns:xlink="http://www.w3.org/1999/xlink" version="1.1">
<metadata>
Created by FontForge 20170731 at Mon Aug  7 16:11:19 2023
 By Aleksey,,,
(c) 2018 Connary Fagen
</metadata>
<defs>
<font id="ArticulatCF-Thin" horiz-adv-x="1148" >
  <font-face 
    font-family="Articulat CF Thin"
    font-weight="250"
    font-stretch="normal"
    units-per-em="2048"
    panose-1="0 0 3 0 0 0 0 0 0 0"
    ascent="1638"
    descent="-410"
    x-height="1065"
    cap-height="1434"
    bbox="-319 -483 2161 1862"
    underline-thickness="102"
    underline-position="-307"
    unicode-range="U+0020-FB02"
  />
<missing-glyph horiz-adv-x="1044" 
d="M856 1638v-2089h-661v2089h661zM696 1499h-346v-69h137v-78h-139v-68h348v68h-139v78h139v69zM557 1229h-209v-217h348v71h-139v146zM487 1157v-74h-69v74h69zM696 954h-348v-67h139v-78h-139v-70h209v148h139v67zM696 829h-69v-137h-279v-71h348v208zM696 575h-209v-116
h70v47h70v-98h-209v167h-70v-235h348v235zM696 213h-348v-236h348v236zM627 145v-98h-209v98h209zM696 -70h-348v-69h148l-148 -99v-69h348v69h-213l146 99h67v69z" />
    <glyph glyph-name="fi" unicode="fi" horiz-adv-x="888" 
d="M184 1231q0 235 224 235q76 0 153 -22v-45q-92 18 -153 18q-84 0 -127 -42t-43 -142v-168h309v-49h-309v-1016h-54v1016h-143v49h143v166zM709 1452h53v-92h-53v92zM709 0v1065h53v-1065h-53z" />
    <glyph glyph-name="fl" unicode="fl" horiz-adv-x="888" 
d="M184 1231q0 235 224 235q76 0 153 -22v-45q-92 18 -153 18q-84 0 -127 -42t-43 -142v-168h309v-49h-309v-1016h-54v1016h-143v49h143v166zM709 1446h53v-1446h-53v1446z" />
    <glyph glyph-name=".notdef" horiz-adv-x="1044" 
d="M856 1638v-2089h-661v2089h661zM696 1499h-346v-69h137v-78h-139v-68h348v68h-139v78h139v69zM557 1229h-209v-217h348v71h-139v146zM487 1157v-74h-69v74h69zM696 954h-348v-67h139v-78h-139v-70h209v148h139v67zM696 829h-69v-137h-279v-71h348v208zM696 575h-209v-116
h70v47h70v-98h-209v167h-70v-235h348v235zM696 213h-348v-236h348v236zM627 145v-98h-209v98h209zM696 -70h-348v-69h148l-148 -99v-69h348v69h-213l146 99h67v69z" />
    <glyph glyph-name=".null" horiz-adv-x="0" 
 />
    <glyph glyph-name="nonmarkingreturn" horiz-adv-x="682" 
 />
    <glyph glyph-name="space" unicode=" " horiz-adv-x="567" 
 />
    <glyph glyph-name="exclam" unicode="!" horiz-adv-x="344" 
d="M199 334h-52l-2 1100h58zM127 102h90v-102h-90v102z" />
    <glyph glyph-name="quotedbl" unicode="&#x22;" horiz-adv-x="360" 
d="M82 1016h49v418h-49v-418zM229 1016h50v418h-50v-418z" />
    <glyph glyph-name="numbersign" unicode="#" horiz-adv-x="1191" 
d="M1100 963h-242l-49 -492h240v-47h-244l-43 -424h-45l43 424h-391l-43 -424h-45l43 424h-232v47h236l49 492h-234v47h238l43 424h45l-43 -424h391l43 424h45l-43 -424h238v-47zM764 471l49 492h-391l-49 -492h391z" />
    <glyph glyph-name="dollar" unicode="$" horiz-adv-x="1140" 
d="M1042 373q0 -173 -114 -280t-332 -111v-166h-51v166q-108 4 -191.5 37.5t-135 89t-81.5 121.5t-41 145h56q11 -68 36.5 -124t70.5 -104.5t118 -78t168 -33.5v688l-84 18q-336 75 -336 342q0 73 25.5 137t75 115.5t131.5 82.5t188 34v166h51v-166q183 -7 284.5 -99
t125.5 -235h-54q-11 53 -34 98.5t-63.5 87t-106.5 66.5t-152 29v-633l51 -12q71 -14 126 -33t107 -49.5t86.5 -70t55 -98t20.5 -130.5zM483 791l62 -15v623q-183 -6 -274 -94t-91 -218q0 -120 75 -191.5t228 -104.5zM596 35q195 4 294 95t99 243q0 76 -25.5 133.5
t-72.5 93.5t-97.5 57.5t-115.5 36.5l-82 19v-678z" />
    <glyph glyph-name="percent" unicode="%" horiz-adv-x="1456" 
d="M334 862q-105 0 -173.5 80t-68.5 211t69 211t173 80q105 0 175.5 -80t70.5 -211t-70.5 -211t-175.5 -80zM285 0l839 1436l52 -2l-840 -1434h-51zM334 909q90 0 144 64t54 180t-54 180t-144 64q-87 0 -142 -64.5t-55 -179.5t55 -179.5t142 -64.5zM1118 -10q-105 0 -173 80
t-68 211q0 130 69.5 210t171.5 80q106 0 176 -79.5t70 -210.5t-70 -211t-176 -80zM1118 37q90 0 145.5 64t55.5 180t-55.5 179.5t-145.5 63.5q-87 0 -140.5 -63.5t-53.5 -179.5t53.5 -180t140.5 -64z" />
    <glyph glyph-name="ampersand" unicode="&#x26;" horiz-adv-x="1320" 
d="M1245 0h-65l-183 207q-87 -120 -205 -176t-241 -56q-111 0 -200.5 33.5t-143.5 88.5t-82.5 121.5t-28.5 137.5q0 138 80 238.5t281 222.5q-44 47 -71 79t-64.5 84.5t-56.5 104t-19 101.5q0 125 78 200.5t221 75.5q130 0 210.5 -75.5t80.5 -192.5q0 -56 -11 -96.5
t-43.5 -86.5t-92.5 -94.5t-157 -109.5l457 -516q100 174 109 434h53q-11 -284 -125 -477zM545 1415q-116 0 -184 -60t-68 -171q0 -43 18 -89t55 -95.5t62 -78.5t70 -77l14 8q71 42 116.5 75.5t84 74t56 86t17.5 100.5q0 105 -67 166t-174 61zM549 27q121 0 229 55t185 164
l-467 528l-7 6l-8 -4q-79 -48 -132.5 -87.5t-102 -90.5t-72.5 -110.5t-24 -129.5q0 -145 111.5 -238t287.5 -93z" />
    <glyph glyph-name="quotesingle" unicode="'" horiz-adv-x="212" 
d="M82 1016h49v418h-49v-418z" />
    <glyph glyph-name="parenleft" unicode="(" horiz-adv-x="415" 
d="M309 1526h43q-207 -377 -207 -871q0 -523 207 -921h-43q-217 388 -217 921q0 507 217 871z" />
    <glyph glyph-name="parenright" unicode=")" horiz-adv-x="415" 
d="M135 1526q217 -364 217 -871q0 -533 -217 -921h-43q207 398 207 921q0 494 -207 871h43z" />
    <glyph glyph-name="asterisk" unicode="*" horiz-adv-x="860" 
d="M401 1411h56l-4 -199h-47zM154 1192l14 45l199 -61l-11 -39zM707 1192l-205 -55l-8 39l198 61zM289 887l-41 33l123 163l32 -28zM571 887l-114 168l32 28l123 -163z" />
    <glyph glyph-name="plus" unicode="+" horiz-adv-x="940" 
d="M848 604v-53h-352v-354h-54v354h-350v53h350v352h54v-352h352z" />
    <glyph glyph-name="comma" unicode="," horiz-adv-x="294" 
d="M102 -260v27q26 26 34.5 60t8.5 112v61h-43v102h91v-208q0 -69 -25 -110t-66 -44z" />
    <glyph glyph-name="hyphen" unicode="-" horiz-adv-x="671" 
d="M82 604h508v-49h-508v49z" />
    <glyph glyph-name="period" unicode="." horiz-adv-x="294" 
d="M102 102h91v-102h-91v102z" />
    <glyph glyph-name="slash" unicode="/" horiz-adv-x="727" 
d="M666 1434l-553 -1434h-52l555 1434h50z" />
    <glyph glyph-name="zero" unicode="0" horiz-adv-x="1269" 
d="M635 1452q249 0 394 -199t145 -536q0 -339 -145 -537t-394 -198t-394 198t-145 537q0 337 145 536t394 199zM1120 717q0 329 -135 506.5t-350 177.5t-350 -177.5t-135 -506.5q0 -167 37 -298.5t102.5 -215t153 -127t192.5 -43.5t192.5 43.5t153 127t102.5 215t37 298.5z
" />
    <glyph glyph-name="one" unicode="1" horiz-adv-x="518" 
d="M360 1434v-1434h-53v1331q-30 -43 -86 -81.5t-135 -41.5v49q79 4 144.5 61t76.5 116h53z" />
    <glyph glyph-name="two" unicode="2" horiz-adv-x="1060" 
d="M82 0v55q0 89 24.5 161t82.5 139t132.5 126t194.5 135q63 41 91.5 60t78.5 55.5t73 58.5t55 58t46 66.5t25.5 70.5t11.5 84q0 140 -102 234t-271 94q-172 0 -270 -99t-98 -272v-35h-56v35q0 191 117 306.5t307 115.5q189 0 307.5 -107.5t118.5 -271.5q-1 -78 -27 -144
t-81.5 -124.5t-116.5 -104.5t-156 -106q-106 -65 -176.5 -117.5t-133 -116.5t-92.5 -135t-30 -151v-17h832v-53h-887z" />
    <glyph glyph-name="three" unicode="3" horiz-adv-x="1126" 
d="M709 784q151 -29 243 -129t92 -258q0 -190 -134.5 -306t-354.5 -116q-224 0 -352.5 127.5t-130.5 339.5h53q2 -187 115 -301t313 -114q198 0 318 101t120 265q0 176 -124.5 269.5t-336.5 93.5h-32v49h32q98 0 172 24.5t117.5 67.5t64.5 95.5t21 113.5q0 130 -97.5 212.5
t-260.5 82.5q-167 0 -267 -103.5t-100 -302.5h-53q0 223 113 340t307 117q190 0 300.5 -100.5t110.5 -253.5q0 -68 -22.5 -125.5t-80 -109t-146.5 -79.5z" />
    <glyph glyph-name="four" unicode="4" horiz-adv-x="1058" 
d="M987 418h-164v-418h-53v418h-698v51l698 965h53v-965h164v-51zM770 469v883l-639 -883h639z" />
    <glyph glyph-name="five" unicode="5" horiz-adv-x="1124" 
d="M582 958q93 0 176 -33.5t145 -95t98.5 -155t36.5 -205.5q0 -223 -127 -356t-342 -133q-216 0 -343.5 122.5t-133.5 311.5h49q5 -166 117.5 -274.5t310.5 -108.5q196 0 307 119t111 319q0 199 -109.5 320.5t-297.5 121.5q-122 0 -213.5 -45.5t-169.5 -140.5h-62l111 709
h678v-45h-637l-94 -611q67 92 170 136t219 44z" />
    <glyph glyph-name="six" unicode="6" horiz-adv-x="1153" 
d="M602 965q110 0 197.5 -39t143 -106.5t85 -155t29.5 -187.5q0 -102 -29 -190t-85 -157t-147 -108.5t-206 -39.5q-244 0 -364 181.5t-120 514.5q0 85 5.5 160.5t20.5 155.5t39 145.5t63 125t90.5 100t123.5 64t160 23.5q175 0 282 -96.5t120 -237.5h-47q-6 53 -29 101
t-64 90.5t-108.5 68t-153.5 25.5q-103 0 -181.5 -36.5t-130 -101t-83.5 -160t-45 -206t-12 -246.5q54 159 169.5 235.5t276.5 76.5zM588 31q134 0 230.5 59t143 158.5t46.5 228.5q0 95 -26 174.5t-76 139.5t-130 93.5t-182 33.5q-91 0 -170.5 -33t-133.5 -88t-85 -126.5
t-31 -148.5q0 -98 24.5 -184t73 -155.5t130 -110.5t186.5 -41z" />
    <glyph glyph-name="seven" unicode="7" horiz-adv-x="950" 
d="M879 1434v-50q-432 -678 -539 -1384h-53q114 718 538 1384h-764v50h818z" />
    <glyph glyph-name="eight" unicode="8" horiz-adv-x="1126" 
d="M729 795q141 -44 226 -145t85 -253q0 -190 -132.5 -303.5t-344.5 -113.5t-344.5 113.5t-132.5 303.5q0 152 85 253t226 145q-102 38 -167.5 121.5t-65.5 197.5q0 141 106.5 237.5t292.5 96.5t293 -97t107 -237q0 -114 -66 -197.5t-168 -121.5zM563 1399
q-165 0 -256.5 -79t-91.5 -210q0 -133 95.5 -213t252.5 -80t253.5 80t96.5 213q0 130 -92.5 209.5t-257.5 79.5zM563 29q189 0 308.5 96.5t119.5 269.5q0 166 -115.5 267.5t-312.5 101.5t-312.5 -101.5t-115.5 -267.5q0 -173 119.5 -269.5t308.5 -96.5z" />
    <glyph glyph-name="nine" unicode="9" horiz-adv-x="1142" 
d="M541 469q-109 0 -196.5 39t-143.5 106t-85.5 154.5t-29.5 187.5q0 102 29.5 190.5t85.5 157t146.5 108.5t205.5 40q245 0 364 -181t119 -515q0 -85 -5.5 -160.5t-20.5 -155.5t-39 -145.5t-63 -125t-90 -100t-123 -64t-160 -23.5q-175 0 -282 96t-118 237h45
q7 -53 30 -101t64 -90.5t108.5 -67.5t154.5 -25q102 0 180.5 36.5t130 100.5t83.5 159.5t45 206t11 246.5q-54 -159 -169 -235t-277 -76zM555 1403q-199 0 -309.5 -125t-110.5 -322q0 -196 106 -318t308 -122q183 0 302.5 118t119.5 277q0 97 -24.5 183.5t-73.5 156.5
t-131 111t-187 41z" />
    <glyph glyph-name="colon" unicode=":" horiz-adv-x="376" 
d="M143 1063h90v-102h-90v102zM143 102h90v-102h-90v102z" />
    <glyph glyph-name="semicolon" unicode=";" horiz-adv-x="376" 
d="M143 1063h90v-102h-90v102zM143 -260v27q26 26 34.5 60t8.5 112v61h-43v102h90v-208q0 -69 -24.5 -110t-65.5 -44z" />
    <glyph glyph-name="less" unicode="&#x3c;" horiz-adv-x="1038" 
d="M946 63l-811 429l811 428v65l-854 -457v-75l854 -453v63z" />
    <glyph glyph-name="equal" unicode="=" horiz-adv-x="901" 
d="M82 768h551v-49h-551v49zM82 440h551v-49h-551v49z" />
    <glyph glyph-name="greater" unicode="&#x3e;" horiz-adv-x="1038" 
d="M92 63v-63l854 453v75l-854 457v-65l811 -428z" />
    <glyph glyph-name="question" unicode="?" horiz-adv-x="1003" 
d="M500 1448q-190 0 -300 -117t-108 -313h53q0 98 29 173t79.5 119t112.5 65.5t134 21.5q76 0 139.5 -19t113 -56.5t77.5 -100.5t28 -146q0 -63 -21.5 -114t-56 -85.5t-76 -65.5t-82.5 -63t-75.5 -69.5t-56 -93t-21.5 -125.5v-115h53v115q0 63 21.5 114t56 85.5t76 66
t82.5 63.5t75.5 69.5t56 93t21.5 124.5q0 175 -114.5 274t-296.5 99zM451 102h90v-102h-90v102z" />
    <glyph glyph-name="at" unicode="@" horiz-adv-x="1593" 
d="M1229 135q-187 -149 -430 -149q-137 0 -264 51t-224.5 142.5t-156 230t-58.5 301.5q0 168 58.5 309t156.5 233.5t224 143.5t264 51q108 0 211 -33t191 -97.5t154.5 -152.5t104 -206t37.5 -250q0 -184 -70.5 -287t-171.5 -103q-90 0 -144 62.5t-58 175.5q-20 -67 -53 -116
t-73 -75t-79 -37.5t-80 -11.5q-63 0 -120.5 23.5t-106 70t-77 125t-28.5 177.5q0 93 29 166.5t77 117t105.5 66t118.5 22.5q84 0 160.5 -45t120.5 -137v162h45v-475q0 -104 42.5 -164.5t125.5 -60.5q82 0 137 88t55 256q0 156 -54.5 288.5t-146 219.5t-208.5 135.5
t-244 48.5t-244 -46t-209 -131t-147.5 -218t-55.5 -295q0 -127 36.5 -237.5t100 -190t147 -137t178.5 -85.5t194 -28q218 0 381 127zM760 365q111 0 194.5 91t83.5 257q0 82 -24 147t-64.5 103t-89 57.5t-100.5 19.5q-47 0 -93 -17.5t-88.5 -53t-69 -102t-26.5 -154.5
q0 -76 17.5 -137t46 -99.5t65.5 -64.5t74 -36.5t74 -10.5z" />
    <glyph glyph-name="A" unicode="A" horiz-adv-x="1339" 
d="M1217 0l-183 449h-727l-182 -449h-59l583 1434h43l582 -1434h-57zM326 498h688l-344 848z" />
    <glyph glyph-name="B" unicode="B" horiz-adv-x="1214" 
d="M770 784q338 -84 338 -395q0 -185 -122.5 -287t-367.5 -102h-491v1434h494q204 0 302.5 -90.5t98.5 -243.5q0 -116 -60.5 -199t-191.5 -117zM182 1380v-571h463q149 0 236.5 79t87.5 218q0 56 -16.5 102t-53 86.5t-105.5 63t-165 22.5h-447zM629 53q218 0 322 90t104 252
q0 167 -118.5 264t-334.5 97h-420v-703h447z" />
    <glyph glyph-name="C" unicode="C" horiz-adv-x="1288" 
d="M702 35q175 0 296 69.5t167 182.5h62q-55 -142 -190.5 -223.5t-331.5 -81.5q-130 0 -239 45t-192.5 133t-130.5 230.5t-47 326.5t47 326.5t130.5 230.5t192.5 133t239 45q195 0 328.5 -82t185.5 -225h-60q-44 115 -163.5 184.5t-293.5 69.5q-117 0 -215.5 -40.5
t-174.5 -121.5t-119 -214t-43 -306q0 -172 43 -305t119 -214t174.5 -122t215.5 -41z" />
    <glyph glyph-name="D" unicode="D" horiz-adv-x="1294" 
d="M508 1434q346 0 523 -185t177 -532t-177 -532t-523 -185h-381v1434h381zM508 53q645 0 645 664q0 663 -645 663h-326v-1327h326z" />
    <glyph glyph-name="E" unicode="E" horiz-adv-x="1075" 
d="M182 53h832v-53h-887v1434h866v-54h-811v-610h709v-49h-709v-668z" />
    <glyph glyph-name="F" unicode="F" horiz-adv-x="1071" 
d="M1010 1380h-828v-632h676v-52h-676v-696h-55v1434h883v-54z" />
    <glyph glyph-name="G" unicode="G" horiz-adv-x="1376" 
d="M1270 692v-71q0 -311 -148.5 -475t-419.5 -164q-131 0 -239.5 44.5t-191.5 132.5t-129 230.5t-46 327.5q0 184 46 326.5t128.5 231t192 133t242.5 44.5q189 0 311.5 -75.5t177.5 -209.5h-59q-47 107 -155.5 169.5t-277.5 62.5q-121 0 -220 -40.5t-174 -121.5
t-116.5 -213.5t-41.5 -306.5q0 -141 28 -255.5t77.5 -193t119.5 -131.5t151.5 -77.5t175.5 -24.5q257 0 388.5 154t128.5 452h-428v51h479z" />
    <glyph glyph-name="H" unicode="H" horiz-adv-x="1282" 
d="M1100 1434h55v-1434h-55v668h-918v-668h-55v1434h55v-717h918v717z" />
    <glyph glyph-name="I" unicode="I" horiz-adv-x="309" 
d="M182 0h-55v1434h55v-1434z" />
    <glyph glyph-name="J" unicode="J" horiz-adv-x="978" 
d="M92 195q122 -156 342 -156q77 0 141 23t118 73t85 140.5t31 213.5v945h53v-942q0 -110 -24 -197t-64.5 -144t-96.5 -95t-117 -54t-130 -16q-244 0 -375 174z" />
    <glyph glyph-name="K" unicode="K" horiz-adv-x="1206" 
d="M1090 0l-668 715l-240 -250v-465h-55v1434h55v-891l852 891h76l-651 -680l706 -754h-75z" />
    <glyph glyph-name="L" unicode="L" horiz-adv-x="1054" 
d="M182 53h797v-53h-852v1434h55v-1381z" />
    <glyph glyph-name="M" unicode="M" horiz-adv-x="1665" 
d="M127 1434h47l657 -1379l660 1379h47v-1434h-55v1288h-2l-617 -1288h-65l-615 1288h-2v-1288h-55v1434z" />
    <glyph glyph-name="N" unicode="N" horiz-adv-x="1300" 
d="M1174 1434v-1434h-80l-910 1372h-2v-1372h-55v1434h80l909 -1366h2v1366h56z" />
    <glyph glyph-name="O" unicode="O" horiz-adv-x="1423" 
d="M713 1452q133 0 244 -45t194 -133.5t129.5 -230.5t46.5 -326t-46.5 -326t-129.5 -230.5t-194 -133.5t-244 -45t-244 45t-195 133.5t-131 230.5t-47 326t47 326t131 230.5t195 133.5t244 45zM713 35q124 0 224.5 40t177 120.5t118 213.5t41.5 308q0 140 -27.5 253.5
t-76.5 193t-119.5 132.5t-154.5 78t-183 25t-183.5 -25t-155 -78t-120 -132.5t-77 -193t-27.5 -253.5q0 -175 41.5 -307.5t118 -213.5t177.5 -121t226 -40z" />
    <glyph glyph-name="P" unicode="P" 
d="M596 1434q228 0 352.5 -113t124.5 -324q0 -207 -124.5 -319.5t-352.5 -112.5h-414v-565h-55v1434h469zM600 618q203 0 311.5 97.5t108.5 281.5q0 188 -108 285.5t-312 97.5h-418v-762h418z" />
    <glyph glyph-name="Q" unicode="Q" horiz-adv-x="1470" 
d="M1378 23l-35 -37l-184 186q-161 -190 -446 -190q-133 0 -244 45t-195 133.5t-131 230.5t-47 326t47 326t131 230.5t195 133.5t244 45t244 -45t194 -133.5t129.5 -230.5t46.5 -326q0 -316 -135 -506zM713 35q266 0 411 172l-301 305l35 37l297 -301q119 174 119 469
q0 140 -27.5 253.5t-76.5 193t-119.5 132.5t-154.5 78t-183 25t-183.5 -25t-155 -78t-120 -132.5t-77 -193t-27.5 -253.5q0 -175 41.5 -307.5t118 -213.5t177.5 -121t226 -40z" />
    <glyph glyph-name="R" unicode="R" horiz-adv-x="1202" 
d="M1085 240q0 -210 41 -240h-55q-41 33 -41 240v129q0 57 -12 101.5t-35 73.5t-50 48.5t-64 29t-70 13.5t-74 4h-543v-639h-55v1434h516q222 0 337.5 -101t115.5 -291q0 -134 -64 -231.5t-192 -140.5q128 -19 186.5 -91.5t58.5 -211.5v-127zM696 688q148 0 247 94t99 256
q0 346 -397 346h-463v-696h514z" />
    <glyph glyph-name="S" unicode="S" horiz-adv-x="1177" 
d="M670 754q93 -18 161.5 -44t128 -69.5t90.5 -110.5t31 -157q0 -176 -124 -283.5t-361 -107.5q-121 0 -214.5 31.5t-151 88t-90 124t-44.5 149.5h58q12 -71 40.5 -128.5t79 -107t132.5 -77t190 -27.5q212 0 320 91.5t108 246.5q0 61 -18.5 111t-48.5 83.5t-73.5 59.5
t-87 41t-96.5 26l-225 47q-177 38 -263.5 125t-86.5 217q0 75 28 140t82.5 117t144.5 82t206 30q205 0 317 -92.5t139 -241.5h-55q-9 44 -26.5 82t-49.5 75.5t-75 64t-107.5 43t-142.5 16.5q-201 0 -302.5 -89t-101.5 -223q0 -119 79 -191t237 -105z" />
    <glyph glyph-name="T" unicode="T" horiz-adv-x="1150" 
d="M1085 1434v-54h-481v-1380h-55v1380h-483v54h1019z" />
    <glyph glyph-name="U" unicode="U" horiz-adv-x="1292" 
d="M1165 535q0 -258 -138.5 -405.5t-381.5 -147.5t-380.5 147.5t-137.5 405.5v899h55v-895q0 -234 123.5 -369t339.5 -135t340.5 135t124.5 369v895h55v-899z" />
    <glyph glyph-name="V" unicode="V" horiz-adv-x="1318" 
d="M1204 1434h60l-582 -1434h-43l-584 1434h60l544 -1346z" />
    <glyph glyph-name="W" unicode="W" horiz-adv-x="1992" 
d="M1870 1434h57l-420 -1434h-59l-453 1376l-452 -1376h-58l-419 1434h57l393 -1360l445 1360h71l445 -1360z" />
    <glyph glyph-name="X" unicode="X" horiz-adv-x="1261" 
d="M1206 0h-63l-512 698l-512 -698h-64l545 741l-508 693h64l475 -650l475 650h63l-505 -693z" />
    <glyph glyph-name="Y" unicode="Y" horiz-adv-x="1247" 
d="M649 588v-588h-51v588l-532 846h61l496 -791l497 791h62z" />
    <glyph glyph-name="Z" unicode="Z" horiz-adv-x="1224" 
d="M1143 53v-53h-1061v57l993 1323h-950v54h1010l-2 -58l-990 -1323h1000z" />
    <glyph glyph-name="bracketleft" unicode="[" horiz-adv-x="499" 
d="M180 1475v-1690h193v-51h-246v1792h246v-51h-193z" />
    <glyph glyph-name="backslash" unicode="\" horiz-adv-x="727" 
d="M61 1434h50l555 -1434h-52z" />
    <glyph glyph-name="bracketright" unicode="]" horiz-adv-x="499" 
d="M319 1475h-192v51h246v-1792h-246v51h192v1690z" />
    <glyph glyph-name="asciicircum" unicode="^" horiz-adv-x="946" 
d="M795 952l-322 445l-321 -445h-60l354 482h54l354 -482h-59z" />
    <glyph glyph-name="underscore" unicode="_" horiz-adv-x="1208" 
d="M92 0h1024v-51h-1024v51z" />
    <glyph glyph-name="grave" unicode="`" horiz-adv-x="256" 
d="M256 1190l-193 262h-61l203 -262h51z" />
    <glyph glyph-name="a" unicode="a" horiz-adv-x="1052" 
d="M915 109q0 -42 16.5 -56.5t65.5 -11.5v-43q-18 -6 -34 -6q-57 0 -79 28t-22 109v131q-13 -29 -35 -61t-62 -71t-88.5 -70t-117.5 -51.5t-145 -20.5q-156 0 -247 82.5t-91 224.5q0 59 16 105.5t55 88.5t111.5 71.5t177.5 43.5t158.5 22t141 27t126.5 39v27
q0 167 -74.5 237t-257.5 70q-297 0 -329 -188h-54q18 119 119.5 179t265.5 60q191 0 287 -85.5t96 -287.5v-593zM862 344v299q-54 -36 -426 -88q-171 -24 -239 -86t-68 -176q0 -122 77 -190t208 -68q81 0 153 26t119.5 62t87 82.5t58.5 79t30 59.5z" />
    <glyph glyph-name="b" unicode="b" horiz-adv-x="1142" 
d="M594 1075q77 0 146 -21t129 -65t104 -107t69 -153t25 -197q0 -134 -38 -239.5t-104 -171.5t-150.5 -100.5t-182.5 -34.5q-281 0 -412 274v-260h-53v1446h53v-631q64 130 172.5 195t241.5 65zM594 39q83 0 157 30t134 88.5t95.5 155t35.5 219.5q0 122 -35.5 218.5
t-95.5 154t-134 87.5t-157 30t-156 -28.5t-132.5 -85.5t-94.5 -153.5t-35 -222.5q0 -121 35 -217.5t94.5 -155t133 -89.5t155.5 -31z" />
    <glyph glyph-name="c" unicode="c" horiz-adv-x="1034" 
d="M553 35q137 0 229 57t140 182h51q-96 -288 -418 -288q-95 0 -180 34.5t-152.5 100t-107 171.5t-39.5 238q0 133 39.5 239t106.5 171.5t151.5 100t179.5 34.5q150 0 258 -70.5t158 -211.5h-54q-95 233 -364 233q-64 0 -124.5 -18t-115 -57.5t-95.5 -96t-65 -140
t-24 -184.5q0 -126 36.5 -224t98.5 -155.5t136 -86.5t155 -29z" />
    <glyph glyph-name="d" unicode="d" horiz-adv-x="1142" 
d="M549 1075q133 0 241.5 -65t172.5 -195v631h53v-1446h-53v260q-131 -274 -412 -274q-98 0 -182.5 34.5t-150.5 100.5t-104 171.5t-38 239.5q0 107 25 197t69 153t104 107t129 65t146 21zM549 39q82 0 155.5 31t133 89.5t94.5 155t35 217.5q0 126 -35 222.5t-94.5 153.5
t-132.5 85.5t-156 28.5t-157 -30t-134 -87.5t-95.5 -154t-35.5 -218.5q0 -123 35.5 -219.5t95.5 -155t134 -88.5t157 -30z" />
    <glyph glyph-name="e" unicode="e" horiz-adv-x="1071" 
d="M995 551q0 -33 -2 -51h-862q7 -231 124 -348t300 -117q117 0 193 31.5t143 115.5h63q-78 -107 -171 -151.5t-228 -44.5q-218 0 -348.5 142t-130.5 402q0 131 37.5 236.5t102 172t149 101.5t180.5 35q196 0 323 -138.5t127 -385.5zM131 553h813q-3 230 -113.5 351.5
t-285.5 121.5q-171 0 -289.5 -122t-124.5 -351z" />
    <glyph glyph-name="f" unicode="f" horiz-adv-x="602" 
d="M408 1417q-84 0 -127 -42t-43 -142v-168h309v-49h-309v-1016h-54v1016h-143v49h143v166q0 235 224 235q76 0 153 -22v-45q-92 18 -153 18z" />
    <glyph glyph-name="g" unicode="g" horiz-adv-x="1146" 
d="M967 1063h53v-1075q0 -99 -26 -176.5t-69 -126t-104 -80t-125 -44t-137 -12.5q-136 0 -247.5 48.5t-164.5 134.5l41 26q55 -79 152.5 -118t218.5 -39q187 0 297.5 92t110.5 295v272q-130 -272 -414 -272q-98 0 -183 34.5t-151 100t-104.5 171t-38.5 238.5t38.5 239
t105 171t151.5 99t182 34q133 0 241 -64.5t173 -195.5v248zM549 37q82 0 156 31t134.5 90.5t96 156t35.5 217.5q0 126 -35.5 223.5t-96 155t-134 86.5t-156.5 29t-157 -30t-134 -88t-95.5 -155t-35.5 -221t35.5 -221t95.5 -155.5t134 -88.5t157 -30z" />
    <glyph glyph-name="h" unicode="h" horiz-adv-x="1093" 
d="M588 1075q379 0 379 -430v-645h-54v649q0 206 -83 290.5t-246 84.5q-86 0 -160.5 -34.5t-122.5 -88.5t-78 -108.5t-43 -106.5v-686h-53v1446h53v-662q6 34 35 80.5t78 95t127.5 82t167.5 33.5z" />
    <glyph glyph-name="i" unicode="i" horiz-adv-x="307" 
d="M127 1452h53v-92h-53v92zM127 1065h53v-1065h-53v1065z" />
    <glyph glyph-name="j" unicode="j" horiz-adv-x="350" 
d="M170 1452h53v-92h-53v92zM-147 -348q78 -49 176 -49q68 0 104.5 45.5t36.5 132.5v1284h53v-1268q0 -136 -52 -192t-148 -56q-109 0 -170 50v53z" />
    <glyph glyph-name="k" unicode="k" horiz-adv-x="1030" 
d="M924 0l-498 555l-246 -252v-303h-53v1446h53v-1073l672 692h72l-463 -473l534 -592h-71z" />
    <glyph glyph-name="l" unicode="l" horiz-adv-x="307" 
d="M127 1446h53v-1446h-53v1446z" />
    <glyph glyph-name="m" unicode="m" horiz-adv-x="1816" 
d="M1327 1075q79 0 142 -21.5t114 -68.5t79 -130.5t28 -197.5v-657h-54v651q0 201 -78.5 287t-228.5 86q-70 0 -133.5 -23.5t-110.5 -62.5t-81.5 -88t-52 -100.5t-17.5 -98.5v-651h-53v651q0 201 -79.5 287t-226.5 86q-69 0 -130.5 -24t-105 -61t-78 -84t-53.5 -91t-28 -84
v-680h-53v1065h53v-281q7 34 35.5 80.5t75.5 95t121.5 82t158.5 33.5q136 0 229.5 -69t121.5 -222q15 50 48.5 99t83.5 93t121.5 71.5t151.5 27.5z" />
    <glyph glyph-name="n" unicode="n" horiz-adv-x="1093" 
d="M588 1075q379 0 379 -430v-645h-54v649q0 206 -83 290.5t-246 84.5q-86 0 -160.5 -34.5t-122.5 -88.5t-78 -108.5t-43 -106.5v-686h-53v1065h53v-281q6 34 35 80.5t78 95t127.5 82t167.5 33.5z" />
    <glyph glyph-name="o" unicode="o" horiz-adv-x="1085" 
d="M543 1075q92 0 175.5 -35.5t149 -102t104 -171.5t38.5 -234q0 -132 -38.5 -238.5t-104.5 -172.5t-149 -100.5t-175 -34.5t-175 34.5t-149 100.5t-104.5 172.5t-38.5 238.5q0 129 38.5 234t104 171.5t149 102t175.5 35.5zM956 532q0 121 -35 217t-93.5 154t-131.5 88.5
t-153 30.5t-153 -30.5t-132 -88.5t-94 -154t-35 -217q0 -123 35 -220t94 -155t131.5 -88t153.5 -30t153.5 30t131 88.5t93.5 155t35 219.5z" />
    <glyph glyph-name="p" unicode="p" horiz-adv-x="1142" 
d="M594 1075q77 0 146 -21t129 -65t104 -107t69 -153t25 -197q0 -134 -37.5 -239.5t-103.5 -171.5t-151 -100.5t-183 -34.5q-280 0 -412 286v-661h-53v1454h53v-256q64 134 172 200t242 66zM596 39q83 0 156.5 29.5t133.5 88t95 155t35 220.5q0 123 -35 219t-95 154
t-133.5 87.5t-156.5 29.5t-156 -28.5t-133.5 -85.5t-95.5 -153.5t-35 -222.5q0 -121 35.5 -217.5t95 -155t133.5 -89.5t156 -31z" />
    <glyph glyph-name="q" unicode="q" horiz-adv-x="1142" 
d="M549 1075q134 0 242 -66t172 -200v256h53v-1454h-53v661q-132 -286 -412 -286q-98 0 -183 34.5t-151 100.5t-103.5 171.5t-37.5 239.5q0 107 25 197t69 153t104 107t129 65t146 21zM547 39q82 0 156 31t133.5 89.5t95 155t35.5 217.5q0 126 -35 222.5t-95.5 153.5
t-133.5 85.5t-156 28.5t-156.5 -29.5t-133.5 -87.5t-95 -154t-35 -219q0 -124 35 -220.5t95 -155t133.5 -88t156.5 -29.5z" />
    <glyph glyph-name="r" unicode="r" horiz-adv-x="712" 
d="M584 1075q43 0 63 -4v-49q-20 2 -61 2q-158 0 -265 -94t-141 -258v-672h-53v1065h53v-277q30 116 139 201.5t265 85.5z" />
    <glyph glyph-name="s" unicode="s" horiz-adv-x="940" 
d="M797 838q-71 188 -330 188q-147 0 -228 -63t-81 -156q0 -87 56 -137.5t187 -81.5l158 -39q84 -19 136.5 -38.5t96 -50t63 -76t19.5 -110.5q0 -77 -34 -134.5t-91.5 -90t-124.5 -48t-141 -15.5q-80 0 -149 17t-126.5 52.5t-94.5 94.5t-47 137h53q11 -56 37.5 -99.5
t60.5 -71t78.5 -45.5t89.5 -25t96 -7q66 0 124.5 13t108 39.5t78.5 73.5t29 109q0 44 -13 77t-31.5 54t-55 38.5t-68 27.5t-84.5 23l-200 49q-128 34 -196.5 94t-68.5 166q0 125 102 198.5t263 73.5q90 0 164.5 -23t133 -77.5t81.5 -136.5h-51z" />
    <glyph glyph-name="t" unicode="t" horiz-adv-x="550" 
d="M352 39q65 0 123 18v-51q-58 -18 -145 -18q-58 0 -93.5 29t-35.5 94v905h-156v49h156v266h53v-266h199v-49h-199v-901q0 -41 22 -58.5t76 -17.5z" />
    <glyph glyph-name="u" unicode="u" horiz-adv-x="1083" 
d="M903 1065h53v-1065h-53v279q-5 -27 -23 -62.5t-53 -76t-80.5 -75t-111.5 -57t-139 -22.5q-82 0 -148 22t-119.5 70.5t-82.5 134.5t-29 205v647h53v-651q0 -106 22.5 -180t66.5 -116.5t103 -61.5t140 -19q70 0 132 23.5t106 60t78.5 83t54.5 90t30 83.5v688z" />
    <glyph glyph-name="v" unicode="v" horiz-adv-x="1046" 
d="M557 0h-68l-434 1065h54l415 -1020l414 1020h53z" />
    <glyph glyph-name="w" unicode="w" horiz-adv-x="1626" 
d="M1571 1065l-330 -1065h-65l-363 989l-364 -989h-64l-330 1065h56l307 -1006l370 1006h50l370 -1006l308 1006h55z" />
    <glyph glyph-name="x" unicode="x" horiz-adv-x="983" 
d="M918 0h-68l-358 500l-359 -500h-67l399 543l-387 522h63l351 -477l350 477h63l-387 -522z" />
    <glyph glyph-name="y" unicode="y" horiz-adv-x="1026" 
d="M913 1065h58l-477 -1208q-52 -132 -138 -189t-190 -41v51q94 -15 169.5 36.5t117.5 166.5q5 13 12 31.5t9.5 26l6 18t3.5 15.5t-1 11.5t-4 12.5l-424 1069h56l403 -1032z" />
    <glyph glyph-name="z" unicode="z" horiz-adv-x="999" 
d="M143 49h775v-49h-836v49l772 967h-752v49h816v-49z" />
    <glyph glyph-name="braceleft" unicode="{" horiz-adv-x="473" 
d="M238 766l-74 -139l74 -135v-633q0 -33 19.5 -53.5t51.5 -20.5h72v-51h-68q-59 0 -94 41.5t-35 91.5v614l-92 146l92 149v617q0 51 34.5 92t94.5 41h68v-51h-72q-32 0 -51.5 -20.5t-19.5 -53.5v-635z" />
    <glyph glyph-name="bar" unicode="|" horiz-adv-x="358" 
d="M154 1638h51v-2027h-51v2027z" />
    <glyph glyph-name="braceright" unicode="}" horiz-adv-x="473" 
d="M236 766v635q0 32 -20 53t-52 21h-72v51h68q60 0 94.5 -41t34.5 -92v-617l92 -149l-92 -146v-614q0 -50 -35 -91.5t-94 -41.5h-68v51h72q32 0 52 21t20 53v633l73 135z" />
    <glyph glyph-name="asciitilde" unicode="~" horiz-adv-x="854" 
d="M702 670h50q0 -81 -54 -123.5t-123 -42.5q-39 0 -73 15t-59 37t-48.5 43.5t-52 36.5t-59.5 15q-70 0 -101.5 -36t-29.5 -78h-50q0 82 54 123.5t123 41.5q39 0 73 -15t59 -37t48.5 -43.5t52 -36.5t59.5 -15q70 0 101.5 37t29.5 78z" />
    <glyph glyph-name="exclamdown" unicode="&#xa1;" horiz-adv-x="262" 
d="M127 963v102h90v-102h-90zM199 731l4 -1100h-58l2 1100h52z" />
    <glyph glyph-name="cent" unicode="&#xa2;" horiz-adv-x="1034" 
d="M973 422q-97 -280 -414 -283v-221h-51v223q-88 8 -164.5 45.5t-137 102t-95.5 164t-35 221.5t35 221.5t95.5 164t137 101.5t164.5 45v228h51v-226q148 -2 254 -71.5t156 -206.5h-54q-90 226 -356 229v-971q270 3 363 234h51zM127 674q0 -93 21 -171t57 -132.5t85 -94
t103.5 -60t114.5 -26.5v967q-76 -7 -142.5 -39.5t-121 -90t-86 -148.5t-31.5 -205z" />
    <glyph glyph-name="sterling" unicode="&#xa3;" horiz-adv-x="1038" 
d="M946 983h-49v37q0 97 -31.5 172t-85 118.5t-117 65t-133.5 21.5q-97 0 -176.5 -34.5t-130.5 -111t-51 -184.5q0 -66 18 -130t58.5 -156t50.5 -119h317v-52h-301q25 -84 25 -143q0 -200 -184 -436q79 29 162.5 34t157 -5.5t145 -21.5t152 -10t153.5 23v-51
q-75 -22 -161 -22.5t-163 11.5t-154 22.5t-160 5t-157 -36.5l-37 55q197 234 191 450q0 58 -23 125h-170v52h152q-11 26 -39 88.5t-43 100t-29 98.5t-14 120q0 172 113.5 275.5t297.5 103.5q183 0 299.5 -116t116.5 -312v-37z" />
    <glyph glyph-name="currency" unicode="&#xa4;" horiz-adv-x="1095" 
d="M1008 975q0 -178 -119 -307l98 -99l-43 -41l-96 97q-131 -109 -299 -109q-171 0 -301 111l-98 -99l-41 41l98 99q-117 133 -117 307t117 307l-98 98l41 41l100 -98q127 111 299 111q168 0 299 -109l96 96l43 -41l-98 -98q119 -129 119 -307zM141 975q0 -114 59.5 -209
t152.5 -147t196 -52t196.5 52t153 147t59.5 209q0 85 -35 161.5t-92.5 129.5t-131.5 84.5t-150 31.5q-102 0 -195.5 -52.5t-153 -147t-59.5 -207.5z" />
    <glyph glyph-name="yen" unicode="&#xa5;" horiz-adv-x="1247" 
d="M649 588v-10h293v-43h-293v-144h293v-43h-293v-348h-51v348h-295v43h295v144h-295v43h295v10l-532 846h61l496 -791l497 791h62z" />
    <glyph glyph-name="brokenbar" unicode="&#xa6;" horiz-adv-x="358" 
d="M154 1638h51v-573h-51v573zM154 184h51v-573h-51v573z" />
    <glyph glyph-name="section" unicode="&#xa7;" horiz-adv-x="1204" 
d="M1102 362q0 -156 -90 -249q69 -88 69 -219q0 -173 -120 -275t-365 -102q-122 0 -214.5 29.5t-149 84t-88 120t-42.5 147.5h52q11 -57 28.5 -102.5t51 -90t80.5 -74t118.5 -47.5t161.5 -18q434 0 434 328q0 76 -26.5 135.5t-74 98t-103 62.5t-122.5 37l-225 45
q-171 36 -256.5 129.5t-85.5 225.5q0 153 94 247l13 -6q-86 89 -86 226q0 75 25.5 138t77 112.5t139 77.5t202.5 28q398 0 449 -322h-52q-8 46 -21.5 81.5t-42 73t-70 62t-108.5 40.5t-155 16q-204 0 -297.5 -83t-93.5 -220q0 -254 311 -314l172 -34q410 -75 410 -388z
M672 283q208 -40 307 -133q70 82 70 212q0 76 -26.5 135.5t-74 98t-102.5 62t-123 36.5l-225 45q-142 28 -232 105q-78 -81 -78 -213q0 -254 312 -314z" />
    <glyph glyph-name="dieresis" unicode="&#xa8;" horiz-adv-x="464" 
d="M0 1452h61v-152h-61v152zM401 1452h64v-152h-64v152z" />
    <glyph glyph-name="copyright" unicode="&#xa9;" horiz-adv-x="1654" 
d="M827 -14q-200 0 -367 93.5t-265.5 261.5t-98.5 376q0 155 58 291.5t156.5 232t233 150.5t283.5 55t284 -55t233.5 -150.5t156.5 -232t58 -291.5q0 -207 -98.5 -375.5t-266 -262t-367.5 -93.5zM827 35q139 0 264.5 51.5t217.5 141t146 217t54 272.5q0 144 -54 271.5
t-146 216.5t-217.5 140.5t-264.5 51.5t-264.5 -51.5t-217.5 -140.5t-146 -216.5t-54 -271.5q0 -145 54 -272.5t146 -217t217.5 -141t264.5 -51.5zM825 315q231 0 312 181h53q-92 -230 -365 -230q-83 0 -158.5 30.5t-134.5 86.5t-94 143t-35 191q0 138 60.5 242t155 155
t206.5 51q129 0 221.5 -56t137.5 -169h-51q-81 176 -308 176q-154 0 -263 -106t-109 -293t109 -294.5t263 -107.5z" />
    <glyph glyph-name="ordfeminine" unicode="&#xaa;" horiz-adv-x="692" 
d="M596 981q0 -128 41 -182h-64q-31 56 -36 119q-40 -56 -96 -89.5t-152 -33.5q-91 0 -152 51.5t-61 142.5q0 84 58.5 127t152.5 51l250 21q-3 97 -45 144.5t-138 47.5q-90 0 -136 -25t-58 -79h-56q28 162 252 162q129 0 184.5 -69.5t55.5 -223.5v-164zM305 854
q49 0 91.5 15.5t70.5 39t45 43.5t25 37v146q-20 -4 -59 -8t-96 -8t-85 -7q-78 -8 -120 -37t-42 -88q0 -65 44.5 -99t125.5 -34z" />
    <glyph glyph-name="guillemotleft" unicode="&#xab;" horiz-adv-x="722" 
d="M342 795l-205 -183l205 -184v-70l-260 234v39l260 233v-69zM641 795l-205 -183l205 -184v-70l-260 234v41l260 231v-69z" />
    <glyph glyph-name="logicalnot" unicode="&#xac;" horiz-adv-x="948" 
d="M856 639v-311h-53v258h-711v53h764z" />
    <glyph glyph-name="uni00AD" unicode="&#xad;" horiz-adv-x="671" 
d="M82 604h508v-49h-508v49z" />
    <glyph glyph-name="registered" unicode="&#xae;" horiz-adv-x="1654" 
d="M827 -14q-200 0 -367 93.5t-265.5 261.5t-98.5 376q0 155 58 291.5t156.5 232t233 150.5t283.5 55t284 -55t233.5 -150.5t156.5 -232t58 -291.5q0 -207 -98.5 -375.5t-266 -262t-367.5 -93.5zM827 35q139 0 264.5 51.5t217.5 141t146 217t54 272.5q0 144 -54 271.5
t-146 216.5t-217.5 140.5t-264.5 51.5t-264.5 -51.5t-217.5 -140.5t-146 -216.5t-54 -271.5q0 -145 54 -272.5t146 -217t217.5 -141t264.5 -51.5zM1118 446q0 -111 25 -139h-49q-25 33 -25 137v72q0 45 -13 75.5t-37.5 44t-49 18.5t-58.5 5h-317v-352h-49v819h307
q268 0 268 -231q0 -73 -33.5 -127t-95.5 -80q65 -15 96 -56.5t31 -117.5v-68zM887 707q85 0 133.5 48.5t48.5 143.5t-51 138.5t-166 43.5h-258v-374h293z" />
    <glyph glyph-name="macron" unicode="&#xaf;" horiz-adv-x="536" 
d="M0 1452h537v-47h-537v47z" />
    <glyph glyph-name="degree" unicode="&#xb0;" horiz-adv-x="778" 
d="M389 877q-123 0 -210 86.5t-87 210.5t87 211.5t210 87.5t210 -87.5t87 -211.5t-87 -210.5t-210 -86.5zM389 932q101 0 172.5 66.5t71.5 175.5q0 110 -71.5 176.5t-172.5 66.5t-172.5 -66.5t-71.5 -176.5q0 -109 71.5 -175.5t172.5 -66.5z" />
    <glyph glyph-name="plusminus" unicode="&#xb1;" horiz-adv-x="940" 
d="M496 625h352v-54h-352v-354h-54v354h-350v54h350v352h54v-352zM172 -37v49h551v-49h-551z" />
    <glyph glyph-name="uni00B2" unicode="&#xb2;" horiz-adv-x="499" 
d="M82 901v19q0 70 38 123.5t118 107.5q50 32 70.5 48t36 41.5t15.5 59.5q0 47 -31 78t-87 31q-59 0 -91 -33t-32 -90v-12h-37v12q0 70 44.5 114t115.5 44q69 0 111 -40.5t42 -103.5q0 -54 -34.5 -95t-102.5 -83q-66 -39 -102.5 -86.5t-36.5 -91.5v-6h289v-37h-326z" />
    <glyph glyph-name="uni00B3" unicode="&#xb3;" horiz-adv-x="526" 
d="M322 1186q50 -12 86 -47t36 -90q0 -68 -47.5 -112t-136.5 -44q-88 0 -138 47.5t-50 126.5h34q1 -70 42.5 -104.5t113.5 -34.5q65 0 106.5 30t41.5 89q0 58 -44.5 87t-115.5 29h-23v35h23q63 0 100 29.5t37 75.5q0 51 -33.5 78.5t-93.5 27.5q-135 0 -135 -133h-35
q0 79 46 123.5t126 44.5q74 0 116 -40t42 -101q0 -43 -27 -74.5t-71 -42.5z" />
    <glyph glyph-name="acute" unicode="&#xb4;" horiz-adv-x="253" 
d="M0 1190h51l203 262h-61z" />
    <glyph glyph-name="uni00B5" unicode="&#xb5;" horiz-adv-x="1083" 
d="M903 1065h53v-1065h-53v279q-5 -27 -23 -62.5t-53 -76t-80.5 -75t-111.5 -57t-139 -22.5q-237 0 -326 172v-547h-53v1454h53v-651q0 -106 22.5 -180t66.5 -116.5t103 -61.5t140 -19q70 0 132 23.5t106 60t78.5 83t54.5 90t30 83.5v688z" />
    <glyph glyph-name="paragraph" unicode="&#xb6;" horiz-adv-x="1038" 
d="M911 1434v-1885h-49v1831h-168v-1831h-49v1100h-178q-181 0 -286 105t-105 284q0 184 104.5 290t286.5 106h444z" />
    <glyph glyph-name="periodcentered" unicode="&#xb7;" horiz-adv-x="294" 
d="M102 637h91v-102h-91v102z" />
    <glyph glyph-name="cedilla" unicode="&#xb8;" horiz-adv-x="243" 
d="M55 -111q64 26 126.5 -11.5t62.5 -110.5q0 -87 -66.5 -130t-171.5 -43v39q96 3 141.5 37.5t45.5 91.5q0 64 -50.5 88.5t-124.5 -2.5l-8 11l-10 14l90 129h68z" />
    <glyph glyph-name="uni00B9" unicode="&#xb9;" horiz-adv-x="305" 
d="M223 1436v-535h-37v479q-30 -55 -104 -49v31q35 1 64 23t40 51h37z" />
    <glyph glyph-name="ordmasculine" unicode="&#xba;" horiz-adv-x="765" 
d="M383 1450q122 0 214.5 -89t92.5 -245q0 -151 -93 -240.5t-214 -89.5q-76 0 -144.5 37t-115.5 114t-47 179q0 80 27 145t71.5 105.5t98.5 62t110 21.5zM627 1116q0 133 -73 205t-171 72t-170 -71.5t-72 -205.5q0 -130 72 -201t170 -71q62 0 116 28.5t91 92t37 151.5z" />
    <glyph glyph-name="guillemotright" unicode="&#xbb;" horiz-adv-x="665" 
d="M35 795v69l260 -231v-41l-260 -234v70l205 184zM334 795v69l260 -233v-39l-260 -234v70l205 184z" />
    <glyph glyph-name="onequarter" unicode="&#xbc;" horiz-adv-x="1185" 
d="M223 1436v-535h-37v479q-30 -55 -104 -49v31q35 1 64 23t40 51h37zM158 0h-43l893 1434h43zM1083 135h-61v-135h-37v135h-248v31l248 369h37v-369h61v-31zM985 166v307l-209 -307h209z" />
    <glyph glyph-name="onehalf" unicode="&#xbd;" horiz-adv-x="1173" 
d="M227 1436v-535h-37v479q-30 -55 -104 -49v31q35 1 64 23t40 51h37zM178 0h-43l893 1434h43zM756 0v18q0 70 38 124t117 108q39 25 55 36.5t35.5 30.5t26 37.5t6.5 44.5q0 47 -31.5 78t-87.5 31q-59 0 -90.5 -33t-31.5 -90v-12h-37v12q0 70 44 114t115 44
q69 0 111.5 -40.5t42.5 -103.5q0 -54 -34.5 -95t-102.5 -83q-66 -39 -102.5 -86.5t-36.5 -91.5v-6h288v-37h-325z" />
    <glyph glyph-name="threequarters" unicode="&#xbe;" horiz-adv-x="1320" 
d="M350 1186q51 -12 87 -47t36 -90q0 -68 -47.5 -112t-136.5 -44q-88 0 -138.5 47.5t-50.5 126.5h35q1 -70 42.5 -104.5t113.5 -34.5q65 0 106 30t41 89q0 58 -44 87t-115 29h-23v35h23q63 0 100 29.5t37 75.5q0 51 -33.5 78.5t-93.5 27.5q-135 0 -135 -133h-35
q0 79 46 123.5t126 44.5q74 0 116 -40t42 -101q0 -43 -27.5 -74.5t-71.5 -42.5zM315 0h-43l893 1434h43zM1126 135h-61v-135h-37v135h-248v31l248 369h37v-369h61v-31zM1028 166v307l-209 -307h209z" />
    <glyph glyph-name="questiondown" unicode="&#xbf;" horiz-adv-x="1003" 
d="M553 963h-90v102h90v-102zM504 -383q189 0 299 117t108 313h-53q0 -99 -28.5 -173.5t-79 -118.5t-112.5 -65.5t-134 -21.5q-102 0 -181 32t-128.5 106.5t-49.5 183.5q0 63 21.5 114t56 85.5t76 65.5t83 63t76 69.5t56 93t21.5 125.5v115h-54v-115q0 -63 -21.5 -114
t-56 -85.5t-76 -66t-82.5 -63.5t-75.5 -69.5t-56 -93t-21.5 -124.5q0 -175 115 -274t297 -99z" />
    <glyph glyph-name="Agrave" unicode="&#xc0;" horiz-adv-x="1339" 
d="M745 1559h-51l-202 262h61zM1217 0l-183 449h-727l-182 -449h-59l583 1434h43l582 -1434h-57zM326 498h688l-344 848z" />
    <glyph glyph-name="Aacute" unicode="&#xc1;" horiz-adv-x="1339" 
d="M846 1821l-203 -262h-51l192 262h62zM1217 0l-183 449h-727l-182 -449h-59l583 1434h43l582 -1434h-57zM326 498h688l-344 848z" />
    <glyph glyph-name="Acircumflex" unicode="&#xc2;" horiz-adv-x="1339" 
d="M670 1774l-205 -201h-49l219 248h67l220 -248h-50zM1217 0l-183 449h-727l-182 -449h-59l583 1434h43l582 -1434h-57zM326 498h688l-344 848z" />
    <glyph glyph-name="Atilde" unicode="&#xc3;" horiz-adv-x="1339" 
d="M522 1786q-66 0 -96.5 -34.5t-28.5 -74.5h-47q0 78 51 118t117 40q37 0 69 -14.5t56 -35t46.5 -40.5t49.5 -34.5t56 -14.5q67 0 97 33.5t28 72.5h49q0 -77 -51 -116t-117 -39q-37 0 -70 14.5t-57 35t-46.5 40.5t-49.5 34.5t-56 14.5zM1217 0l-183 449h-727l-182 -449h-59
l583 1434h43l582 -1434h-57zM326 498h688l-344 848z" />
    <glyph glyph-name="Adieresis" unicode="&#xc4;" horiz-adv-x="1339" 
d="M500 1821v-152h-62v152h62zM903 1821v-152h-63v152h63zM1217 0l-183 449h-727l-182 -449h-59l583 1434h43l582 -1434h-57zM326 498h688l-344 848z" />
    <glyph glyph-name="Aring" unicode="&#xc5;" horiz-adv-x="1339" 
d="M672 1559q-67 0 -111.5 44.5t-44.5 106.5t45 107t111 45t110.5 -44.5t44.5 -107.5q0 -62 -44.5 -106.5t-110.5 -44.5zM672 1819q-47 0 -79 -32t-32 -77t32 -76.5t79 -31.5q49 0 80.5 31.5t31.5 76.5t-31.5 77t-80.5 32zM1217 0l-183 449h-727l-182 -449h-59l583 1434h43
l582 -1434h-57zM326 498h688l-344 848z" />
    <glyph glyph-name="AE" unicode="&#xc6;" horiz-adv-x="1994" 
d="M1102 53h831v-53h-886v449h-615l-307 -449h-59l981 1434h866v-54h-811v-610h708v-49h-708v-668zM467 502h580v848z" />
    <glyph glyph-name="Ccedilla" unicode="&#xc7;" horiz-adv-x="1288" 
d="M1227 287q-55 -141 -189 -222.5t-327 -82.5l-84 -93q64 26 126 -11.5t62 -110.5q0 -87 -66.5 -130t-170.5 -43v39q95 3 140.5 37.5t45.5 91.5q0 64 -50 88.5t-124 -2.5l-8 11l-11 14l78 111q-120 10 -219 59.5t-174.5 137.5t-117.5 225t-42 311q0 184 47 326.5
t130.5 230.5t192.5 133t239 45q195 0 328.5 -82t185.5 -225h-60q-44 115 -163.5 184.5t-293.5 69.5q-117 0 -215.5 -40.5t-174.5 -121.5t-119 -214t-43 -306q0 -172 43 -305t119 -214t174.5 -122t215.5 -41q175 0 296 69.5t167 182.5h62z" />
    <glyph glyph-name="Egrave" unicode="&#xc8;" horiz-adv-x="1075" 
d="M614 1559h-51l-203 262h62zM182 53h832v-53h-887v1434h866v-54h-811v-610h709v-49h-709v-668z" />
    <glyph glyph-name="Eacute" unicode="&#xc9;" horiz-adv-x="1075" 
d="M715 1821l-203 -262h-51l192 262h62zM182 53h832v-53h-887v1434h866v-54h-811v-610h709v-49h-709v-668z" />
    <glyph glyph-name="Ecircumflex" unicode="&#xca;" horiz-adv-x="1075" 
d="M539 1774l-205 -201h-49l219 248h67l220 -248h-50zM182 53h832v-53h-887v1434h866v-54h-811v-610h709v-49h-709v-668z" />
    <glyph glyph-name="Edieresis" unicode="&#xcb;" horiz-adv-x="1075" 
d="M369 1821v-152h-62v152h62zM772 1821v-152h-63v152h63zM182 53h832v-53h-887v1434h866v-54h-811v-610h709v-49h-709v-668z" />
    <glyph glyph-name="Igrave" unicode="&#xcc;" horiz-adv-x="309" 
d="M231 1559l-192 262h-62l203 -262h51zM182 0h-55v1434h55v-1434z" />
    <glyph glyph-name="Iacute" unicode="&#xcd;" horiz-adv-x="309" 
d="M78 1559h51l203 262h-62zM182 0h-55v1434h55v-1434z" />
    <glyph glyph-name="Icircumflex" unicode="&#xce;" horiz-adv-x="309" 
d="M358 1573l-202 201l-205 -201h-49l219 248h67l220 -248h-50zM182 0h-55v1434h55v-1434z" />
    <glyph glyph-name="Idieresis" unicode="&#xcf;" horiz-adv-x="309" 
d="M-76 1821h62v-152h-62v152zM326 1821h63v-152h-63v152zM182 0h-55v1434h55v-1434z" />
    <glyph glyph-name="Eth" unicode="&#xd0;" horiz-adv-x="1323" 
d="M537 1434q346 0 523 -185t177 -532t-177 -532t-523 -185h-381v694h-115v49h115v691h381zM537 53q645 0 645 664q0 663 -645 663h-326v-637h338v-49h-338v-641h326z" />
    <glyph glyph-name="Ntilde" unicode="&#xd1;" horiz-adv-x="1300" 
d="M901 1802h49q0 -77 -51 -116t-117 -39q-37 0 -70 14.5t-56.5 35t-46 40.5t-49.5 34.5t-56 14.5q-66 0 -96.5 -34.5t-28.5 -74.5h-47q0 78 51 118t117 40q37 0 69 -14.5t55.5 -35t46 -40.5t49.5 -34.5t56 -14.5q67 0 97 33.5t28 72.5zM1174 1434v-1434h-80l-910 1372h-2
v-1372h-55v1434h80l909 -1366h2v1366h56z" />
    <glyph glyph-name="Ograve" unicode="&#xd2;" horiz-adv-x="1423" 
d="M788 1559l-192 262h-61l202 -262h51zM713 1452q133 0 244 -45t194 -133.5t129.5 -230.5t46.5 -326t-46.5 -326t-129.5 -230.5t-194 -133.5t-244 -45t-244 45t-195 133.5t-131 230.5t-47 326t47 326t131 230.5t195 133.5t244 45zM713 35q124 0 224.5 40t177 120.5
t118 213.5t41.5 308q0 140 -27.5 253.5t-76.5 193t-119.5 132.5t-154.5 78t-183 25t-183.5 -25t-155 -78t-120 -132.5t-77 -193t-27.5 -253.5q0 -175 41.5 -307.5t118 -213.5t177.5 -121t226 -40z" />
    <glyph glyph-name="Oacute" unicode="&#xd3;" horiz-adv-x="1423" 
d="M635 1559h51l203 262h-62zM713 1452q133 0 244 -45t194 -133.5t129.5 -230.5t46.5 -326t-46.5 -326t-129.5 -230.5t-194 -133.5t-244 -45t-244 45t-195 133.5t-131 230.5t-47 326t47 326t131 230.5t195 133.5t244 45zM713 35q124 0 224.5 40t177 120.5t118 213.5
t41.5 308q0 140 -27.5 253.5t-76.5 193t-119.5 132.5t-154.5 78t-183 25t-183.5 -25t-155 -78t-120 -132.5t-77 -193t-27.5 -253.5q0 -175 41.5 -307.5t118 -213.5t177.5 -121t226 -40z" />
    <glyph glyph-name="Ocircumflex" unicode="&#xd4;" horiz-adv-x="1423" 
d="M915 1573l-202 201l-205 -201h-49l219 248h67l220 -248h-50zM713 1452q133 0 244 -45t194 -133.5t129.5 -230.5t46.5 -326t-46.5 -326t-129.5 -230.5t-194 -133.5t-244 -45t-244 45t-195 133.5t-131 230.5t-47 326t47 326t131 230.5t195 133.5t244 45zM713 35
q124 0 224.5 40t177 120.5t118 213.5t41.5 308q0 140 -27.5 253.5t-76.5 193t-119.5 132.5t-154.5 78t-183 25t-183.5 -25t-155 -78t-120 -132.5t-77 -193t-27.5 -253.5q0 -175 41.5 -307.5t118 -213.5t177.5 -121t226 -40z" />
    <glyph glyph-name="Otilde" unicode="&#xd5;" horiz-adv-x="1423" 
d="M963 1802h49q0 -77 -51 -116t-117 -39q-37 0 -70 14.5t-57 35t-46.5 40.5t-49.5 34.5t-56 14.5q-66 0 -96.5 -34.5t-28.5 -74.5h-47q0 78 51 118t117 40q37 0 69 -14.5t56 -35t46.5 -40.5t49.5 -34.5t56 -14.5q67 0 97 33.5t28 72.5zM713 1452q133 0 244 -45t194 -133.5
t129.5 -230.5t46.5 -326t-46.5 -326t-129.5 -230.5t-194 -133.5t-244 -45t-244 45t-195 133.5t-131 230.5t-47 326t47 326t131 230.5t195 133.5t244 45zM713 35q124 0 224.5 40t177 120.5t118 213.5t41.5 308q0 140 -27.5 253.5t-76.5 193t-119.5 132.5t-154.5 78t-183 25
t-183.5 -25t-155 -78t-120 -132.5t-77 -193t-27.5 -253.5q0 -175 41.5 -307.5t118 -213.5t177.5 -121t226 -40z" />
    <glyph glyph-name="Odieresis" unicode="&#xd6;" horiz-adv-x="1423" 
d="M481 1821h62v-152h-62v152zM883 1821h63v-152h-63v152zM713 1452q133 0 244 -45t194 -133.5t129.5 -230.5t46.5 -326t-46.5 -326t-129.5 -230.5t-194 -133.5t-244 -45t-244 45t-195 133.5t-131 230.5t-47 326t47 326t131 230.5t195 133.5t244 45zM713 35q124 0 224.5 40
t177 120.5t118 213.5t41.5 308q0 140 -27.5 253.5t-76.5 193t-119.5 132.5t-154.5 78t-183 25t-183.5 -25t-155 -78t-120 -132.5t-77 -193t-27.5 -253.5q0 -175 41.5 -307.5t118 -213.5t177.5 -121t226 -40z" />
    <glyph glyph-name="multiply" unicode="&#xd7;" horiz-adv-x="759" 
d="M666 788l-248 -247l248 -250l-37 -39l-250 250l-250 -250l-37 37l250 250l-248 247l37 39l250 -247l248 247z" />
    <glyph glyph-name="Oslash" unicode="&#xd8;" horiz-adv-x="1423" 
d="M1026 1374q143 -82 222 -247t79 -410q0 -184 -46.5 -326t-129.5 -230.5t-194 -133.5t-244 -45q-178 0 -314 77l-77 -161h-50l88 186q-126 88 -195 247t-69 386q0 184 47 326t131 230.5t195 133.5t244 45q154 0 274 -57l64 131h49zM150 717q0 -419 233 -588l582 1219
q-108 51 -252 51q-99 0 -183.5 -25t-155 -78t-120 -132.5t-77 -193t-27.5 -253.5zM713 35q124 0 224.5 40t177 120.5t118 213.5t41.5 308q0 231 -70 383t-198 227l-584 -1221q119 -71 291 -71z" />
    <glyph glyph-name="Ugrave" unicode="&#xd9;" horiz-adv-x="1292" 
d="M729 1559l-192 262h-62l203 -262h51zM1165 535q0 -258 -138.5 -405.5t-381.5 -147.5t-380.5 147.5t-137.5 405.5v899h55v-895q0 -234 123.5 -369t339.5 -135t340.5 135t124.5 369v895h55v-899z" />
    <glyph glyph-name="Uacute" unicode="&#xda;" horiz-adv-x="1292" 
d="M575 1559h52l202 262h-61zM1165 535q0 -258 -138.5 -405.5t-381.5 -147.5t-380.5 147.5t-137.5 405.5v899h55v-895q0 -234 123.5 -369t339.5 -135t340.5 135t124.5 369v895h55v-899z" />
    <glyph glyph-name="Ucircumflex" unicode="&#xdb;" horiz-adv-x="1292" 
d="M856 1573l-203 201l-204 -201h-50l219 248h68l219 -248h-49zM1165 535q0 -258 -138.5 -405.5t-381.5 -147.5t-380.5 147.5t-137.5 405.5v899h55v-895q0 -234 123.5 -369t339.5 -135t340.5 135t124.5 369v895h55v-899z" />
    <glyph glyph-name="Udieresis" unicode="&#xdc;" horiz-adv-x="1292" 
d="M422 1821h61v-152h-61v152zM823 1821h64v-152h-64v152zM1165 535q0 -258 -138.5 -405.5t-381.5 -147.5t-380.5 147.5t-137.5 405.5v899h55v-895q0 -234 123.5 -369t339.5 -135t340.5 135t124.5 369v895h55v-899z" />
    <glyph glyph-name="Yacute" unicode="&#xdd;" horiz-adv-x="1247" 
d="M545 1559h51l203 262h-62zM649 588v-588h-51v588l-532 846h61l496 -791l497 791h62z" />
    <glyph glyph-name="Thorn" unicode="&#xde;" 
d="M565 1157q232 0 370 -119.5t138 -316.5q0 -209 -135.5 -322.5t-372.5 -113.5h-385v-285h-53v1434h53v-277h385zM569 336q220 0 335.5 100.5t115.5 284.5q0 172 -117.5 278.5t-333.5 106.5h-389v-770h389z" />
    <glyph glyph-name="germandbls" unicode="&#xdf;" horiz-adv-x="1144" 
d="M713 786q325 -76 325 -383q0 -200 -133 -301.5t-385 -101.5h-170v51h168q467 0 467 355q0 164 -119 259t-338 95h-178v53h178q184 0 276.5 66.5t92.5 226.5q0 128 -92.5 202t-269.5 74q-191 0 -273 -67.5t-82 -220.5v-1094h-53v1094q0 165 96 252.5t314 87.5
q195 0 304 -89t109 -245q0 -123 -53.5 -200.5t-183.5 -113.5z" />
    <glyph glyph-name="agrave" unicode="&#xe0;" horiz-adv-x="1052" 
d="M594 1190h-51l-203 262h61zM915 109q0 -42 16.5 -56.5t65.5 -11.5v-43q-18 -6 -34 -6q-57 0 -79 28t-22 109v131q-13 -29 -35 -61t-62 -71t-88.5 -70t-117.5 -51.5t-145 -20.5q-156 0 -247 82.5t-91 224.5q0 59 16 105.5t55 88.5t111.5 71.5t177.5 43.5t158.5 22t141 27
t126.5 39v27q0 167 -74.5 237t-257.5 70q-297 0 -329 -188h-54q18 119 119.5 179t265.5 60q191 0 287 -85.5t96 -287.5v-593zM862 344v299q-54 -36 -426 -88q-171 -24 -239 -86t-68 -176q0 -122 77 -190t208 -68q81 0 153 26t119.5 62t87 82.5t58.5 79t30 59.5z" />
    <glyph glyph-name="aacute" unicode="&#xe1;" horiz-adv-x="1052" 
d="M694 1452l-202 -262h-52l193 262h61zM915 109q0 -42 16.5 -56.5t65.5 -11.5v-43q-18 -6 -34 -6q-57 0 -79 28t-22 109v131q-13 -29 -35 -61t-62 -71t-88.5 -70t-117.5 -51.5t-145 -20.5q-156 0 -247 82.5t-91 224.5q0 59 16 105.5t55 88.5t111.5 71.5t177.5 43.5
t158.5 22t141 27t126.5 39v27q0 167 -74.5 237t-257.5 70q-297 0 -329 -188h-54q18 119 119.5 179t265.5 60q191 0 287 -85.5t96 -287.5v-593zM862 344v299q-54 -36 -426 -88q-171 -24 -239 -86t-68 -176q0 -122 77 -190t208 -68q81 0 153 26t119.5 62t87 82.5t58.5 79
t30 59.5z" />
    <glyph glyph-name="acircumflex" unicode="&#xe2;" horiz-adv-x="1052" 
d="M518 1405l-205 -201h-49l219 248h68l219 -248h-49zM915 109q0 -42 16.5 -56.5t65.5 -11.5v-43q-18 -6 -34 -6q-57 0 -79 28t-22 109v131q-13 -29 -35 -61t-62 -71t-88.5 -70t-117.5 -51.5t-145 -20.5q-156 0 -247 82.5t-91 224.5q0 59 16 105.5t55 88.5t111.5 71.5
t177.5 43.5t158.5 22t141 27t126.5 39v27q0 167 -74.5 237t-257.5 70q-297 0 -329 -188h-54q18 119 119.5 179t265.5 60q191 0 287 -85.5t96 -287.5v-593zM862 344v299q-54 -36 -426 -88q-171 -24 -239 -86t-68 -176q0 -122 77 -190t208 -68q81 0 153 26t119.5 62t87 82.5
t58.5 79t30 59.5z" />
    <glyph glyph-name="atilde" unicode="&#xe3;" horiz-adv-x="1052" 
d="M371 1417q-66 0 -96.5 -34t-28.5 -74h-47q0 78 51 117.5t117 39.5q37 0 69 -14.5t55.5 -35t46 -40.5t49.5 -34.5t56 -14.5q67 0 97 34t28 73h49q0 -77 -51.5 -116.5t-116.5 -39.5q-37 0 -70 14.5t-56.5 35t-46 40.5t-49.5 34.5t-56 14.5zM915 109q0 -42 16.5 -56.5
t65.5 -11.5v-43q-18 -6 -34 -6q-57 0 -79 28t-22 109v131q-13 -29 -35 -61t-62 -71t-88.5 -70t-117.5 -51.5t-145 -20.5q-156 0 -247 82.5t-91 224.5q0 59 16 105.5t55 88.5t111.5 71.5t177.5 43.5t158.5 22t141 27t126.5 39v27q0 167 -74.5 237t-257.5 70q-297 0 -329 -188
h-54q18 119 119.5 179t265.5 60q191 0 287 -85.5t96 -287.5v-593zM862 344v299q-54 -36 -426 -88q-171 -24 -239 -86t-68 -176q0 -122 77 -190t208 -68q81 0 153 26t119.5 62t87 82.5t58.5 79t30 59.5z" />
    <glyph glyph-name="adieresis" unicode="&#xe4;" horiz-adv-x="1052" 
d="M348 1452v-152h-61v152h61zM752 1452v-152h-64v152h64zM915 109q0 -42 16.5 -56.5t65.5 -11.5v-43q-18 -6 -34 -6q-57 0 -79 28t-22 109v131q-13 -29 -35 -61t-62 -71t-88.5 -70t-117.5 -51.5t-145 -20.5q-156 0 -247 82.5t-91 224.5q0 59 16 105.5t55 88.5t111.5 71.5
t177.5 43.5t158.5 22t141 27t126.5 39v27q0 167 -74.5 237t-257.5 70q-297 0 -329 -188h-54q18 119 119.5 179t265.5 60q191 0 287 -85.5t96 -287.5v-593zM862 344v299q-54 -36 -426 -88q-171 -24 -239 -86t-68 -176q0 -122 77 -190t208 -68q81 0 153 26t119.5 62t87 82.5
t58.5 79t30 59.5z" />
    <glyph glyph-name="aring" unicode="&#xe5;" horiz-adv-x="1052" 
d="M520 1190q-66 0 -110.5 44t-44.5 107t44.5 107.5t110.5 44.5t111 -44.5t45 -107.5q0 -62 -44.5 -106.5t-111.5 -44.5zM520 1450q-47 0 -78.5 -32t-31.5 -77t31.5 -76.5t78.5 -31.5q49 0 81 31.5t32 76.5t-32 77t-81 32zM915 109q0 -42 16.5 -56.5t65.5 -11.5v-43
q-18 -6 -34 -6q-57 0 -79 28t-22 109v131q-13 -29 -35 -61t-62 -71t-88.5 -70t-117.5 -51.5t-145 -20.5q-156 0 -247 82.5t-91 224.5q0 59 16 105.5t55 88.5t111.5 71.5t177.5 43.5t158.5 22t141 27t126.5 39v27q0 167 -74.5 237t-257.5 70q-297 0 -329 -188h-54
q18 119 119.5 179t265.5 60q191 0 287 -85.5t96 -287.5v-593zM862 344v299q-54 -36 -426 -88q-171 -24 -239 -86t-68 -176q0 -122 77 -190t208 -68q81 0 153 26t119.5 62t87 82.5t58.5 79t30 59.5z" />
    <glyph glyph-name="ae" unicode="&#xe6;" horiz-adv-x="1859" 
d="M1784 551q0 -33 -2 -51h-862q7 -231 123.5 -348t299.5 -117q117 0 193 31.5t143 115.5h64q-78 -107 -171.5 -151.5t-228.5 -44.5q-163 0 -280.5 82.5t-167.5 238.5q-24 -59 -66.5 -114t-101.5 -102.5t-141 -76t-172 -28.5q-155 0 -246.5 81t-91.5 218q0 63 16 110
t55.5 89t113.5 71t183 45q8 1 62 8.5t79 11.5t76 12.5t81.5 15.5t65 16.5t54.5 19.5v33q0 165 -75 236t-259 71q-155 0 -233.5 -50.5t-93.5 -135.5h-54q18 117 120 177t265 60q169 0 263.5 -65t113.5 -219q57 138 170 211t254 73q95 0 177 -34.5t143 -99.5t96 -165.5
t35 -224.5zM920 553h813q-3 230 -114 351.5t-286 121.5q-171 0 -289 -122t-124 -351zM862 338v293q-8 -5 -21 -10t-34.5 -10t-40.5 -9.5t-51 -10.5t-53.5 -10t-60 -10t-59 -9t-62.5 -9.5t-58 -9.5q-159 -25 -226 -84t-67 -174q0 -116 78 -183t207 -67q81 0 153 25.5
t119.5 60.5t87 80.5t58.5 77.5t30 59z" />
    <glyph glyph-name="ccedilla" unicode="&#xe7;" horiz-adv-x="1034" 
d="M973 274q-90 -275 -389 -288l-88 -97q64 26 126 -11.5t62 -110.5q0 -87 -66.5 -130t-171.5 -43v39q96 3 141.5 37.5t45.5 91.5q0 64 -50.5 88.5t-123.5 -2.5l-8 11l-11 14l80 115q-89 6 -168 43t-141 102.5t-98.5 168t-36.5 228.5q0 133 39.5 239t106.5 171.5t151.5 100
t179.5 34.5q150 0 258 -70.5t158 -211.5h-54q-95 233 -364 233q-64 0 -124.5 -18t-115 -57.5t-95.5 -96t-65 -140t-24 -184.5q0 -126 36.5 -224t98.5 -155.5t136 -86.5t155 -29q137 0 229 57t140 182h51z" />
    <glyph glyph-name="egrave" unicode="&#xe8;" horiz-adv-x="1071" 
d="M616 1190h-51l-203 262h62zM995 551q0 -33 -2 -51h-862q7 -231 124 -348t300 -117q117 0 193 31.5t143 115.5h63q-78 -107 -171 -151.5t-228 -44.5q-218 0 -348.5 142t-130.5 402q0 131 37.5 236.5t102 172t149 101.5t180.5 35q196 0 323 -138.5t127 -385.5zM131 553h813
q-3 230 -113.5 351.5t-285.5 121.5q-171 0 -289.5 -122t-124.5 -351z" />
    <glyph glyph-name="eacute" unicode="&#xe9;" horiz-adv-x="1071" 
d="M717 1452l-203 -262h-51l192 262h62zM995 551q0 -33 -2 -51h-862q7 -231 124 -348t300 -117q117 0 193 31.5t143 115.5h63q-78 -107 -171 -151.5t-228 -44.5q-218 0 -348.5 142t-130.5 402q0 131 37.5 236.5t102 172t149 101.5t180.5 35q196 0 323 -138.5t127 -385.5z
M131 553h813q-3 230 -113.5 351.5t-285.5 121.5q-171 0 -289.5 -122t-124.5 -351z" />
    <glyph glyph-name="ecircumflex" unicode="&#xea;" horiz-adv-x="1071" 
d="M541 1405l-205 -201h-49l219 248h67l220 -248h-50zM995 551q0 -33 -2 -51h-862q7 -231 124 -348t300 -117q117 0 193 31.5t143 115.5h63q-78 -107 -171 -151.5t-228 -44.5q-218 0 -348.5 142t-130.5 402q0 131 37.5 236.5t102 172t149 101.5t180.5 35q196 0 323 -138.5
t127 -385.5zM131 553h813q-3 230 -113.5 351.5t-285.5 121.5q-171 0 -289.5 -122t-124.5 -351z" />
    <glyph glyph-name="edieresis" unicode="&#xeb;" horiz-adv-x="1071" 
d="M371 1452v-152h-62v152h62zM774 1452v-152h-63v152h63zM995 551q0 -33 -2 -51h-862q7 -231 124 -348t300 -117q117 0 193 31.5t143 115.5h63q-78 -107 -171 -151.5t-228 -44.5q-218 0 -348.5 142t-130.5 402q0 131 37.5 236.5t102 172t149 101.5t180.5 35
q196 0 323 -138.5t127 -385.5zM131 553h813q-3 230 -113.5 351.5t-285.5 121.5q-171 0 -289.5 -122t-124.5 -351z" />
    <glyph glyph-name="igrave" unicode="&#xec;" horiz-adv-x="307" 
d="M229 1190l-192 262h-62l203 -262h51zM127 1065h53v-1065h-53v1065z" />
    <glyph glyph-name="iacute" unicode="&#xed;" horiz-adv-x="307" 
d="M76 1190h51l203 262h-62zM127 1065h53v-1065h-53v1065z" />
    <glyph glyph-name="icircumflex" unicode="&#xee;" horiz-adv-x="307" 
d="M356 1204l-202 201l-205 -201h-49l219 248h67l220 -248h-50zM127 1065h53v-1065h-53v1065z" />
    <glyph glyph-name="idieresis" unicode="&#xef;" horiz-adv-x="307" 
d="M-78 1452h62v-152h-62v152zM324 1452h63v-152h-63v152zM127 1065h53v-1065h-53v1065z" />
    <glyph glyph-name="eth" unicode="&#xf0;" horiz-adv-x="1140" 
d="M731 1206q164 -218 223.5 -363t59.5 -327q0 -251 -133 -393.5t-349 -142.5q-97 0 -180 36t-144.5 103t-96.5 169.5t-35 227.5q0 264 115.5 406.5t345.5 142.5q215 0 325 -127q-98 144 -190 260l-234 -31v43l205 27q-5 6 -158 197h68l149 -189l211 29v-43zM535 31
q91 0 167.5 30t134 89t89.5 152.5t32 213.5q0 255 -104 376.5t-319 121.5q-406 0 -406 -498q0 -119 33 -213.5t90 -152.5t129.5 -88.5t153.5 -30.5z" />
    <glyph glyph-name="ntilde" unicode="&#xf1;" horiz-adv-x="1093" 
d="M399 1417q-66 0 -96.5 -34t-28.5 -74h-47q0 78 51 117.5t117 39.5q37 0 69 -14.5t56 -35t46.5 -40.5t49.5 -34.5t56 -14.5q67 0 97 34t28 73h49q0 -77 -51.5 -116.5t-116.5 -39.5q-37 0 -70 14.5t-57 35t-46.5 40.5t-49.5 34.5t-56 14.5zM588 1075q379 0 379 -430v-645
h-54v649q0 206 -83 290.5t-246 84.5q-86 0 -160.5 -34.5t-122.5 -88.5t-78 -108.5t-43 -106.5v-686h-53v1065h53v-281q6 34 35 80.5t78 95t127.5 82t167.5 33.5z" />
    <glyph glyph-name="ograve" unicode="&#xf2;" horiz-adv-x="1085" 
d="M618 1190l-192 262h-61l202 -262h51zM543 1075q92 0 175.5 -35.5t149 -102t104 -171.5t38.5 -234q0 -132 -38.5 -238.5t-104.5 -172.5t-149 -100.5t-175 -34.5t-175 34.5t-149 100.5t-104.5 172.5t-38.5 238.5q0 129 38.5 234t104 171.5t149 102t175.5 35.5zM956 532
q0 121 -35 217t-93.5 154t-131.5 88.5t-153 30.5t-153 -30.5t-132 -88.5t-94 -154t-35 -217q0 -123 35 -220t94 -155t131.5 -88t153.5 -30t153.5 30t131 88.5t93.5 155t35 219.5z" />
    <glyph glyph-name="oacute" unicode="&#xf3;" horiz-adv-x="1085" 
d="M465 1190h51l203 262h-62zM543 1075q92 0 175.5 -35.5t149 -102t104 -171.5t38.5 -234q0 -132 -38.5 -238.5t-104.5 -172.5t-149 -100.5t-175 -34.5t-175 34.5t-149 100.5t-104.5 172.5t-38.5 238.5q0 129 38.5 234t104 171.5t149 102t175.5 35.5zM956 532q0 121 -35 217
t-93.5 154t-131.5 88.5t-153 30.5t-153 -30.5t-132 -88.5t-94 -154t-35 -217q0 -123 35 -220t94 -155t131.5 -88t153.5 -30t153.5 30t131 88.5t93.5 155t35 219.5z" />
    <glyph glyph-name="ocircumflex" unicode="&#xf4;" horiz-adv-x="1085" 
d="M745 1204l-202 201l-205 -201h-49l219 248h67l220 -248h-50zM543 1075q92 0 175.5 -35.5t149 -102t104 -171.5t38.5 -234q0 -132 -38.5 -238.5t-104.5 -172.5t-149 -100.5t-175 -34.5t-175 34.5t-149 100.5t-104.5 172.5t-38.5 238.5q0 129 38.5 234t104 171.5t149 102
t175.5 35.5zM956 532q0 121 -35 217t-93.5 154t-131.5 88.5t-153 30.5t-153 -30.5t-132 -88.5t-94 -154t-35 -217q0 -123 35 -220t94 -155t131.5 -88t153.5 -30t153.5 30t131 88.5t93.5 155t35 219.5z" />
    <glyph glyph-name="otilde" unicode="&#xf5;" horiz-adv-x="1085" 
d="M793 1434h49q0 -77 -51.5 -116.5t-116.5 -39.5q-37 0 -70 14.5t-57 35t-46.5 40.5t-49.5 34.5t-56 14.5q-66 0 -96.5 -34t-28.5 -74h-47q0 78 51 117.5t117 39.5q37 0 69 -14.5t56 -35t46.5 -40.5t49.5 -34.5t56 -14.5q67 0 97 34t28 73zM543 1075q92 0 175.5 -35.5
t149 -102t104 -171.5t38.5 -234q0 -132 -38.5 -238.5t-104.5 -172.5t-149 -100.5t-175 -34.5t-175 34.5t-149 100.5t-104.5 172.5t-38.5 238.5q0 129 38.5 234t104 171.5t149 102t175.5 35.5zM956 532q0 121 -35 217t-93.5 154t-131.5 88.5t-153 30.5t-153 -30.5t-132 -88.5
t-94 -154t-35 -217q0 -123 35 -220t94 -155t131.5 -88t153.5 -30t153.5 30t131 88.5t93.5 155t35 219.5z" />
    <glyph glyph-name="odieresis" unicode="&#xf6;" horiz-adv-x="1085" 
d="M311 1452h62v-152h-62v152zM713 1452h63v-152h-63v152zM543 1075q92 0 175.5 -35.5t149 -102t104 -171.5t38.5 -234q0 -132 -38.5 -238.5t-104.5 -172.5t-149 -100.5t-175 -34.5t-175 34.5t-149 100.5t-104.5 172.5t-38.5 238.5q0 129 38.5 234t104 171.5t149 102
t175.5 35.5zM956 532q0 121 -35 217t-93.5 154t-131.5 88.5t-153 30.5t-153 -30.5t-132 -88.5t-94 -154t-35 -217q0 -123 35 -220t94 -155t131.5 -88t153.5 -30t153.5 30t131 88.5t93.5 155t35 219.5z" />
    <glyph glyph-name="divide" unicode="&#xf7;" horiz-adv-x="913" 
d="M461 840q-15 0 -27 12.5t-12 26.5q0 17 12 29t27 12q16 0 28.5 -12t12.5 -29q0 -14 -13 -26.5t-28 -12.5zM94 604h551v-49h-551v49zM461 236q-15 0 -27 12.5t-12 27.5t12 27t27 12t28 -12t13 -27t-13 -27.5t-28 -12.5z" />
    <glyph glyph-name="oslash" unicode="&#xf8;" horiz-adv-x="1085" 
d="M782 1008q105 -66 166.5 -187.5t61.5 -288.5q0 -132 -38.5 -238.5t-104.5 -172.5t-149 -100.5t-175 -34.5q-125 0 -224 57l-69 -145h-57l83 174q-93 69 -146.5 185.5t-53.5 274.5q0 129 38.5 234t104 171.5t149 102t175.5 35.5q104 0 194 -43l72 152h57zM129 532
q0 -278 170 -411l414 864q-78 37 -170 37q-80 0 -153 -30.5t-132 -88.5t-94 -154t-35 -217zM543 39q81 0 153.5 30t131 88.5t93.5 155t35 219.5q0 152 -53 259.5t-143 166.5l-418 -866q87 -53 201 -53z" />
    <glyph glyph-name="ugrave" unicode="&#xf9;" horiz-adv-x="1083" 
d="M608 1190h-51l-203 262h62zM903 1065h53v-1065h-53v279q-5 -27 -23 -62.5t-53 -76t-80.5 -75t-111.5 -57t-139 -22.5q-82 0 -148 22t-119.5 70.5t-82.5 134.5t-29 205v647h53v-651q0 -106 22.5 -180t66.5 -116.5t103 -61.5t140 -19q70 0 132 23.5t106 60t78.5 83t54.5 90
t30 83.5v688z" />
    <glyph glyph-name="uacute" unicode="&#xfa;" horiz-adv-x="1083" 
d="M709 1452l-203 -262h-51l192 262h62zM903 1065h53v-1065h-53v279q-5 -27 -23 -62.5t-53 -76t-80.5 -75t-111.5 -57t-139 -22.5q-82 0 -148 22t-119.5 70.5t-82.5 134.5t-29 205v647h53v-651q0 -106 22.5 -180t66.5 -116.5t103 -61.5t140 -19q70 0 132 23.5t106 60
t78.5 83t54.5 90t30 83.5v688z" />
    <glyph glyph-name="ucircumflex" unicode="&#xfb;" horiz-adv-x="1083" 
d="M532 1405l-204 -201h-49l219 248h67l219 -248h-49zM903 1065h53v-1065h-53v279q-5 -27 -23 -62.5t-53 -76t-80.5 -75t-111.5 -57t-139 -22.5q-82 0 -148 22t-119.5 70.5t-82.5 134.5t-29 205v647h53v-651q0 -106 22.5 -180t66.5 -116.5t103 -61.5t140 -19q70 0 132 23.5
t106 60t78.5 83t54.5 90t30 83.5v688z" />
    <glyph glyph-name="udieresis" unicode="&#xfc;" horiz-adv-x="1083" 
d="M362 1452v-152h-61v152h61zM766 1452v-152h-64v152h64zM903 1065h53v-1065h-53v279q-5 -27 -23 -62.5t-53 -76t-80.5 -75t-111.5 -57t-139 -22.5q-82 0 -148 22t-119.5 70.5t-82.5 134.5t-29 205v647h53v-651q0 -106 22.5 -180t66.5 -116.5t103 -61.5t140 -19
q70 0 132 23.5t106 60t78.5 83t54.5 90t30 83.5v688z" />
    <glyph glyph-name="yacute" unicode="&#xfd;" horiz-adv-x="1026" 
d="M444 1190h52l202 262h-61zM913 1065h58l-477 -1208q-52 -132 -138 -189t-190 -41v51q94 -15 169.5 36.5t117.5 166.5q5 13 12 31.5t9.5 26l6 18t3.5 15.5t-1 11.5t-4 12.5l-424 1069h56l403 -1032z" />
    <glyph glyph-name="thorn" unicode="&#xfe;" horiz-adv-x="1142" 
d="M594 1075q77 0 146 -21t129 -65t104 -107t69 -153t25 -197q0 -134 -37.5 -239.5t-103.5 -171.5t-151 -100.5t-183 -34.5q-281 0 -412 274v-649h-53v1835h53v-631q62 129 169 193.5t239 66.5h6zM596 39q82 0 156 30t133.5 88.5t95 155t35.5 219.5q0 122 -35.5 218.5
t-95.5 154t-134 87.5t-157 30q-82 0 -155 -28.5t-133 -85.5t-95 -153.5t-35 -222.5q0 -121 35.5 -217.5t95 -155t133.5 -89.5t156 -31z" />
    <glyph glyph-name="ydieresis" unicode="&#xff;" horiz-adv-x="1026" 
d="M291 1452h61v-152h-61v152zM692 1452h64v-152h-64v152zM913 1065h58l-477 -1208q-52 -132 -138 -189t-190 -41v51q94 -15 169.5 36.5t117.5 166.5q5 13 12 31.5t9.5 26l6 18t3.5 15.5t-1 11.5t-4 12.5l-424 1069h56l403 -1032z" />
    <glyph glyph-name="Amacron" unicode="&#x100;" horiz-adv-x="1339" 
d="M938 1821v-47h-537v47h537zM1217 0l-183 449h-727l-182 -449h-59l583 1434h43l582 -1434h-57zM326 498h688l-344 848z" />
    <glyph glyph-name="amacron" unicode="&#x101;" horiz-adv-x="1052" 
d="M786 1452v-47h-536v47h536zM915 109q0 -42 16.5 -56.5t65.5 -11.5v-43q-18 -6 -34 -6q-57 0 -79 28t-22 109v131q-13 -29 -35 -61t-62 -71t-88.5 -70t-117.5 -51.5t-145 -20.5q-156 0 -247 82.5t-91 224.5q0 59 16 105.5t55 88.5t111.5 71.5t177.5 43.5t158.5 22t141 27
t126.5 39v27q0 167 -74.5 237t-257.5 70q-297 0 -329 -188h-54q18 119 119.5 179t265.5 60q191 0 287 -85.5t96 -287.5v-593zM862 344v299q-54 -36 -426 -88q-171 -24 -239 -86t-68 -176q0 -122 77 -190t208 -68q81 0 153 26t119.5 62t87 82.5t58.5 79t30 59.5z" />
    <glyph glyph-name="Abreve" unicode="&#x102;" horiz-adv-x="1339" 
d="M670 1599q-69 0 -120.5 20.5t-78.5 55t-40 71t-13 75.5h47q15 -172 205 -172q192 0 207 172h47q0 -39 -13 -75.5t-41 -71t-79.5 -55t-120.5 -20.5zM1217 0l-183 449h-727l-182 -449h-59l583 1434h43l582 -1434h-57zM326 498h688l-344 848z" />
    <glyph glyph-name="abreve" unicode="&#x103;" horiz-adv-x="1052" 
d="M518 1231q-69 0 -120.5 20.5t-78.5 54.5t-40 70.5t-13 75.5h47q15 -172 205 -172q192 0 207 172h47q0 -39 -13 -75.5t-41 -70.5t-79.5 -54.5t-120.5 -20.5zM915 109q0 -42 16.5 -56.5t65.5 -11.5v-43q-18 -6 -34 -6q-57 0 -79 28t-22 109v131q-13 -29 -35 -61t-62 -71
t-88.5 -70t-117.5 -51.5t-145 -20.5q-156 0 -247 82.5t-91 224.5q0 59 16 105.5t55 88.5t111.5 71.5t177.5 43.5t158.5 22t141 27t126.5 39v27q0 167 -74.5 237t-257.5 70q-297 0 -329 -188h-54q18 119 119.5 179t265.5 60q191 0 287 -85.5t96 -287.5v-593zM862 344v299
q-54 -36 -426 -88q-171 -24 -239 -86t-68 -176q0 -122 77 -190t208 -68q81 0 153 26t119.5 62t87 82.5t58.5 79t30 59.5z" />
    <glyph glyph-name="Aogonek" unicode="&#x104;" horiz-adv-x="1339" 
d="M1266 0q-101 -45 -168.5 -108t-67.5 -142q0 -68 55.5 -99t155.5 -16v-43q-29 -11 -64.5 -13t-71 6t-64.5 26.5t-47.5 52t-18.5 78.5q0 80 72 149t170 109l-183 449h-727l-182 -449h-59l583 1434h43l582 -1434h-8zM326 498h688l-344 848z" />
    <glyph glyph-name="aogonek" unicode="&#x105;" horiz-adv-x="1052" 
d="M997 41v-43q-12 -4 -14 -4h14q-101 -45 -168 -108t-67 -142q0 -68 55.5 -99t155.5 -16v-43q-29 -11 -64.5 -13t-71 6t-64.5 26.5t-47.5 52t-18.5 78.5q0 79 70.5 147.5t166.5 108.5q-45 5 -63.5 34t-18.5 103v131q-13 -29 -35 -61t-62 -71t-88.5 -70t-117.5 -51.5
t-145 -20.5q-156 0 -247 82.5t-91 224.5q0 59 16 105.5t55 88.5t111.5 71.5t177.5 43.5t158.5 22t141 27t126.5 39v27q0 167 -74.5 237t-257.5 70q-297 0 -329 -188h-54q18 119 119.5 179t265.5 60q191 0 287 -85.5t96 -287.5v-593q0 -42 16.5 -56.5t65.5 -11.5zM862 344
v299q-54 -36 -426 -88q-171 -24 -239 -86t-68 -176q0 -122 77 -190t208 -68q81 0 153 26t119.5 62t87 82.5t58.5 79t30 59.5z" />
    <glyph glyph-name="Cacute" unicode="&#x106;" horiz-adv-x="1288" 
d="M610 1559h52l202 262h-61zM702 35q175 0 296 69.5t167 182.5h62q-55 -142 -190.5 -223.5t-331.5 -81.5q-130 0 -239 45t-192.5 133t-130.5 230.5t-47 326.5t47 326.5t130.5 230.5t192.5 133t239 45q195 0 328.5 -82t185.5 -225h-60q-44 115 -163.5 184.5t-293.5 69.5
q-117 0 -215.5 -40.5t-174.5 -121.5t-119 -214t-43 -306q0 -172 43 -305t119 -214t174.5 -122t215.5 -41z" />
    <glyph glyph-name="cacute" unicode="&#x107;" horiz-adv-x="1034" 
d="M475 1190h51l203 262h-61zM553 35q137 0 229 57t140 182h51q-96 -288 -418 -288q-95 0 -180 34.5t-152.5 100t-107 171.5t-39.5 238q0 133 39.5 239t106.5 171.5t151.5 100t179.5 34.5q150 0 258 -70.5t158 -211.5h-54q-95 233 -364 233q-64 0 -124.5 -18t-115 -57.5
t-95.5 -96t-65 -140t-24 -184.5q0 -126 36.5 -224t98.5 -155.5t136 -86.5t155 -29z" />
    <glyph glyph-name="Cdotaccent" unicode="&#x10a;" horiz-adv-x="1288" 
d="M657 1821h62v-152h-62v152zM702 35q175 0 296 69.5t167 182.5h62q-55 -142 -190.5 -223.5t-331.5 -81.5q-130 0 -239 45t-192.5 133t-130.5 230.5t-47 326.5t47 326.5t130.5 230.5t192.5 133t239 45q195 0 328.5 -82t185.5 -225h-60q-44 115 -163.5 184.5t-293.5 69.5
q-117 0 -215.5 -40.5t-174.5 -121.5t-119 -214t-43 -306q0 -172 43 -305t119 -214t174.5 -122t215.5 -41z" />
    <glyph glyph-name="cdotaccent" unicode="&#x10b;" horiz-adv-x="1034" 
d="M522 1452h62v-152h-62v152zM553 35q137 0 229 57t140 182h51q-96 -288 -418 -288q-95 0 -180 34.5t-152.5 100t-107 171.5t-39.5 238q0 133 39.5 239t106.5 171.5t151.5 100t179.5 34.5q150 0 258 -70.5t158 -211.5h-54q-95 233 -364 233q-64 0 -124.5 -18t-115 -57.5
t-95.5 -96t-65 -140t-24 -184.5q0 -126 36.5 -224t98.5 -155.5t136 -86.5t155 -29z" />
    <glyph glyph-name="Ccaron" unicode="&#x10c;" horiz-adv-x="1288" 
d="M889 1802h49l-219 -248h-68l-219 248h49l205 -200zM702 35q175 0 296 69.5t167 182.5h62q-55 -142 -190.5 -223.5t-331.5 -81.5q-130 0 -239 45t-192.5 133t-130.5 230.5t-47 326.5t47 326.5t130.5 230.5t192.5 133t239 45q195 0 328.5 -82t185.5 -225h-60
q-44 115 -163.5 184.5t-293.5 69.5q-117 0 -215.5 -40.5t-174.5 -121.5t-119 -214t-43 -306q0 -172 43 -305t119 -214t174.5 -122t215.5 -41z" />
    <glyph glyph-name="ccaron" unicode="&#x10d;" horiz-adv-x="1034" 
d="M754 1434h49l-219 -248h-68l-219 248h49l205 -201zM553 35q137 0 229 57t140 182h51q-96 -288 -418 -288q-95 0 -180 34.5t-152.5 100t-107 171.5t-39.5 238q0 133 39.5 239t106.5 171.5t151.5 100t179.5 34.5q150 0 258 -70.5t158 -211.5h-54q-95 233 -364 233
q-64 0 -124.5 -18t-115 -57.5t-95.5 -96t-65 -140t-24 -184.5q0 -126 36.5 -224t98.5 -155.5t136 -86.5t155 -29z" />
    <glyph glyph-name="Dcaron" unicode="&#x10e;" horiz-adv-x="1294" 
d="M702 1554h-67l-219 248h49l205 -200l202 200h50zM508 1434q346 0 523 -185t177 -532t-177 -532t-523 -185h-381v1434h381zM508 53q645 0 645 664q0 663 -645 663h-326v-1327h326z" />
    <glyph glyph-name="dcaron" unicode="&#x10f;" horiz-adv-x="1282" 
d="M549 1075q133 0 241.5 -65t172.5 -195v631h53v-1446h-53v260q-131 -274 -412 -274q-98 0 -182.5 34.5t-150.5 100.5t-104 171.5t-38 239.5q0 107 25 197t69 153t104 107t129 65t146 21zM1069 1184h51l203 262h-61zM549 39q82 0 155.5 31t133 89.5t94.5 155t35 217.5
q0 126 -35 222.5t-94.5 153.5t-132.5 85.5t-156 28.5t-157 -30t-134 -87.5t-95.5 -154t-35.5 -218.5q0 -123 35.5 -219.5t95.5 -155t134 -88.5t157 -30z" />
    <glyph glyph-name="Dcroat" unicode="&#x110;" horiz-adv-x="1323" 
d="M537 1434q346 0 523 -185t177 -532t-177 -532t-523 -185h-381v694h-115v49h115v691h381zM537 53q645 0 645 664q0 663 -645 663h-326v-637h338v-49h-338v-641h326z" />
    <glyph glyph-name="dcroat" unicode="&#x111;" horiz-adv-x="1257" 
d="M1212 1321v-47h-196v-1274h-53v260q-131 -274 -412 -274q-98 0 -182.5 34.5t-150.5 100.5t-104 171.5t-38 239.5q0 107 25 197t69 153t104 107t129 65t146 21q133 0 241.5 -65t172.5 -195v459h-287v47h287v125h53v-125h196zM549 39q82 0 155.5 31t133 89.5t94.5 155
t35 217.5q0 126 -35 222.5t-94.5 153.5t-132.5 85.5t-156 28.5t-157 -30t-134 -87.5t-95.5 -154t-35.5 -218.5q0 -123 35.5 -219.5t95.5 -155t134 -88.5t157 -30z" />
    <glyph glyph-name="Emacron" unicode="&#x112;" horiz-adv-x="1075" 
d="M807 1821v-47h-537v47h537zM182 53h832v-53h-887v1434h866v-54h-811v-610h709v-49h-709v-668z" />
    <glyph glyph-name="emacron" unicode="&#x113;" horiz-adv-x="1071" 
d="M809 1452v-47h-537v47h537zM995 551q0 -33 -2 -51h-862q7 -231 124 -348t300 -117q117 0 193 31.5t143 115.5h63q-78 -107 -171 -151.5t-228 -44.5q-218 0 -348.5 142t-130.5 402q0 131 37.5 236.5t102 172t149 101.5t180.5 35q196 0 323 -138.5t127 -385.5zM131 553h813
q-3 230 -113.5 351.5t-285.5 121.5q-171 0 -289.5 -122t-124.5 -351z" />
    <glyph glyph-name="Edotaccent" unicode="&#x116;" horiz-adv-x="1075" 
d="M569 1821v-152h-61v152h61zM182 53h832v-53h-887v1434h866v-54h-811v-610h709v-49h-709v-668z" />
    <glyph glyph-name="edotaccent" unicode="&#x117;" horiz-adv-x="1071" 
d="M571 1452v-152h-61v152h61zM995 551q0 -33 -2 -51h-862q7 -231 124 -348t300 -117q117 0 193 31.5t143 115.5h63q-78 -107 -171 -151.5t-228 -44.5q-218 0 -348.5 142t-130.5 402q0 131 37.5 236.5t102 172t149 101.5t180.5 35q196 0 323 -138.5t127 -385.5zM131 553h813
q-3 230 -113.5 351.5t-285.5 121.5q-171 0 -289.5 -122t-124.5 -351z" />
    <glyph glyph-name="Eogonek" unicode="&#x118;" horiz-adv-x="1075" 
d="M780 -250q0 -68 55.5 -99t155.5 -16v-43q-29 -11 -64.5 -13t-71 6t-64.5 26.5t-47.5 52t-18.5 78.5q0 80 72 149t170 109h-840v1434h866v-54h-811v-610h709v-49h-709v-668h832v-53h2q-101 -45 -168.5 -108t-67.5 -142z" />
    <glyph glyph-name="eogonek" unicode="&#x119;" horiz-adv-x="1071" 
d="M995 551q0 -33 -2 -51h-862q7 -231 124 -348t300 -117q117 0 193 31.5t143 115.5h63q-70 -96 -151 -141t-191 -53h39q-101 -45 -168 -108t-67 -142q0 -68 55.5 -99t155.5 -16v-43q-29 -11 -64.5 -13t-71 6t-65 26.5t-48 52t-18.5 78.5q0 80 70.5 148t169.5 110
q-14 -2 -45 -2q-218 0 -348.5 142t-130.5 402q0 131 37.5 236.5t102 172t149 101.5t180.5 35q196 0 323 -138.5t127 -385.5zM131 553h813q-3 230 -113.5 351.5t-285.5 121.5q-171 0 -289.5 -122t-124.5 -351z" />
    <glyph glyph-name="Ecaron" unicode="&#x11a;" horiz-adv-x="1075" 
d="M569 1554h-67l-219 248h49l205 -200l202 200h49zM182 53h832v-53h-887v1434h866v-54h-811v-610h709v-49h-709v-668z" />
    <glyph glyph-name="ecaron" unicode="&#x11b;" horiz-adv-x="1071" 
d="M571 1186h-67l-219 248h49l205 -201l202 201h50zM995 551q0 -33 -2 -51h-862q7 -231 124 -348t300 -117q117 0 193 31.5t143 115.5h63q-78 -107 -171 -151.5t-228 -44.5q-218 0 -348.5 142t-130.5 402q0 131 37.5 236.5t102 172t149 101.5t180.5 35q196 0 323 -138.5
t127 -385.5zM131 553h813q-3 230 -113.5 351.5t-285.5 121.5q-171 0 -289.5 -122t-124.5 -351z" />
    <glyph glyph-name="Gbreve" unicode="&#x11e;" horiz-adv-x="1376" 
d="M911 1821h47q0 -39 -13 -75.5t-40.5 -71t-79 -55t-120.5 -20.5t-120.5 20.5t-78.5 55t-40 71t-13 75.5h47q15 -172 205 -172q191 0 206 172zM1270 692v-71q0 -311 -148.5 -475t-419.5 -164q-131 0 -239.5 44.5t-191.5 132.5t-129 230.5t-46 327.5q0 184 46 326.5
t128.5 231t192 133t242.5 44.5q189 0 311.5 -75.5t177.5 -209.5h-59q-47 107 -155.5 169.5t-277.5 62.5q-121 0 -220 -40.5t-174 -121.5t-116.5 -213.5t-41.5 -306.5q0 -141 28 -255.5t77.5 -193t119.5 -131.5t151.5 -77.5t175.5 -24.5q257 0 388.5 154t128.5 452h-428v51
h479z" />
    <glyph glyph-name="gbreve" unicode="&#x11f;" horiz-adv-x="1146" 
d="M559 1231q-69 0 -120.5 20.5t-78.5 54.5t-40 70.5t-13 75.5h47q15 -172 205 -172q192 0 207 172h47q0 -39 -13 -75.5t-41 -70.5t-79.5 -54.5t-120.5 -20.5zM967 1063h53v-1075q0 -99 -26 -176.5t-69 -126t-104 -80t-125 -44t-137 -12.5q-136 0 -247.5 48.5t-164.5 134.5
l41 26q55 -79 152.5 -118t218.5 -39q187 0 297.5 92t110.5 295v272q-130 -272 -414 -272q-98 0 -183 34.5t-151 100t-104.5 171t-38.5 238.5t38.5 239t105 171t151.5 99t182 34q133 0 241 -64.5t173 -195.5v248zM549 37q82 0 156 31t134.5 90.5t96 156t35.5 217.5
q0 126 -35.5 223.5t-96 155t-134 86.5t-156.5 29t-157 -30t-134 -88t-95.5 -155t-35.5 -221t35.5 -221t95.5 -155.5t134 -88.5t157 -30z" />
    <glyph glyph-name="Gdotaccent" unicode="&#x120;" horiz-adv-x="1376" 
d="M674 1821h61v-152h-61v152zM1270 692v-71q0 -311 -148.5 -475t-419.5 -164q-131 0 -239.5 44.5t-191.5 132.5t-129 230.5t-46 327.5q0 184 46 326.5t128.5 231t192 133t242.5 44.5q189 0 311.5 -75.5t177.5 -209.5h-59q-47 107 -155.5 169.5t-277.5 62.5
q-121 0 -220 -40.5t-174 -121.5t-116.5 -213.5t-41.5 -306.5q0 -141 28 -255.5t77.5 -193t119.5 -131.5t151.5 -77.5t175.5 -24.5q257 0 388.5 154t128.5 452h-428v51h479z" />
    <glyph glyph-name="gdotaccent" unicode="&#x121;" horiz-adv-x="1146" 
d="M590 1452v-152h-62v152h62zM967 1063h53v-1075q0 -99 -26 -176.5t-69 -126t-104 -80t-125 -44t-137 -12.5q-136 0 -247.5 48.5t-164.5 134.5l41 26q55 -79 152.5 -118t218.5 -39q187 0 297.5 92t110.5 295v272q-130 -272 -414 -272q-98 0 -183 34.5t-151 100t-104.5 171
t-38.5 238.5t38.5 239t105 171t151.5 99t182 34q133 0 241 -64.5t173 -195.5v248zM549 37q82 0 156 31t134.5 90.5t96 156t35.5 217.5q0 126 -35.5 223.5t-96 155t-134 86.5t-156.5 29t-157 -30t-134 -88t-95.5 -155t-35.5 -221t35.5 -221t95.5 -155.5t134 -88.5t157 -30z
" />
    <glyph glyph-name="Gcommaaccent" unicode="&#x122;" horiz-adv-x="1376" 
d="M1270 692v-71q0 -311 -148.5 -475t-419.5 -164q-131 0 -239.5 44.5t-191.5 132.5t-129 230.5t-46 327.5q0 184 46 326.5t128.5 231t192 133t242.5 44.5q189 0 311.5 -75.5t177.5 -209.5h-59q-47 107 -155.5 169.5t-277.5 62.5q-121 0 -220 -40.5t-174 -121.5
t-116.5 -213.5t-41.5 -306.5q0 -141 28 -255.5t77.5 -193t119.5 -131.5t151.5 -77.5t175.5 -24.5q257 0 388.5 154t128.5 452h-428v51h479zM653 -395v26q26 26 34.5 60t8.5 112v62h-43v102h90v-209q0 -69 -24.5 -109.5t-65.5 -43.5z" />
    <glyph glyph-name="gcommaaccent" unicode="&#x123;" horiz-adv-x="1146" 
d="M602 1270v-103h-90v209q0 69 24.5 110t65.5 44v-27q-26 -26 -34.5 -60t-8.5 -112v-61h43zM967 1063h53v-1075q0 -99 -26 -176.5t-69 -126t-104 -80t-125 -44t-137 -12.5q-136 0 -247.5 48.5t-164.5 134.5l41 26q55 -79 152.5 -118t218.5 -39q187 0 297.5 92t110.5 295
v272q-130 -272 -414 -272q-98 0 -183 34.5t-151 100t-104.5 171t-38.5 238.5t38.5 239t105 171t151.5 99t182 34q133 0 241 -64.5t173 -195.5v248zM549 37q82 0 156 31t134.5 90.5t96 156t35.5 217.5q0 126 -35.5 223.5t-96 155t-134 86.5t-156.5 29t-157 -30t-134 -88
t-95.5 -155t-35.5 -221t35.5 -221t95.5 -155.5t134 -88.5t157 -30z" />
    <glyph glyph-name="Hbar" unicode="&#x126;" horiz-adv-x="1282" 
d="M1100 1434h55v-1434h-55v668h-918v-668h-55v1434h55v-402h918v402zM182 717h918v274h-918v-274z" />
    <glyph glyph-name="hbar" unicode="&#x127;" horiz-adv-x="1142" 
d="M637 1075q379 0 379 -430v-645h-53v649q0 106 -22 179.5t-66.5 116t-103 61t-138.5 18.5q-86 0 -160.5 -34.5t-122.5 -88.5t-78 -108.5t-43 -106.5v-686h-53v1214h-131v43h131v189h53v-189h275v-43h-275v-430q6 34 35 80.5t78 95t127.5 82t167.5 33.5z" />
    <glyph glyph-name="Imacron" unicode="&#x12a;" horiz-adv-x="309" 
d="M-113 1821h537v-47h-537v47zM182 0h-55v1434h55v-1434z" />
    <glyph glyph-name="imacron" unicode="&#x12b;" horiz-adv-x="307" 
d="M-115 1452h537v-47h-537v47zM127 1065h53v-1065h-53v1065z" />
    <glyph glyph-name="Iogonek" unicode="&#x12e;" horiz-adv-x="309" 
d="M127 1434h55v-1434h-2q-101 -45 -168 -108t-67 -142q0 -68 55.5 -99t155.5 -16v-43q-29 -11 -64.5 -13t-71 6t-65 26.5t-48 52t-18.5 78.5q0 80 72 149t170 109h-4v1434z" />
    <glyph glyph-name="iogonek" unicode="&#x12f;" horiz-adv-x="307" 
d="M123 1452h61v-152h-61v152zM127 0v1065h53v-1065h-4q-101 -45 -168 -108t-67 -142q0 -68 55.5 -99t155.5 -16v-43q-29 -11 -64.5 -13t-71 6t-65 26.5t-48 52t-18.5 78.5q0 80 72 149t170 109z" />
    <glyph glyph-name="Idotaccent" unicode="&#x130;" horiz-adv-x="309" 
d="M125 1821h61v-152h-61v152zM182 0h-55v1434h55v-1434z" />
    <glyph glyph-name="dotlessi" unicode="&#x131;" horiz-adv-x="307" 
d="M127 1065h53v-1065h-53v1065z" />
    <glyph glyph-name="IJ" unicode="&#x132;" horiz-adv-x="1288" 
d="M182 0h-55v1434h55v-1434zM401 195q122 -156 342 -156q77 0 141 23t118 73t85 140.5t31 213.5v945h53v-942q0 -110 -24 -197t-64.5 -144t-96.5 -95t-117 -54t-130 -16q-243 0 -374 174z" />
    <glyph glyph-name="ij" unicode="&#x133;" horiz-adv-x="636" 
d="M127 1452h53v-92h-53v92zM457 1452h53v-92h-53v92zM127 1065h53v-1065h-53v1065zM139 -348q78 -49 176 -49q68 0 105 45.5t37 132.5v1284h53v-1268q0 -136 -52.5 -192t-148.5 -56q-109 0 -170 50v53z" />
    <glyph glyph-name="Kcommaaccent" unicode="&#x136;" horiz-adv-x="1206" 
d="M459 754l706 -754h-75l-668 715l-240 -250v-465h-55v1434h55v-891l852 891h76zM567 -135v102h90v-209q0 -69 -24.5 -109.5t-65.5 -43.5v26q26 26 34.5 60t8.5 112v62h-43z" />
    <glyph glyph-name="kcommaaccent" unicode="&#x137;" horiz-adv-x="1030" 
d="M461 592l534 -592h-71l-498 555l-246 -252v-303h-53v1446h53v-1073l672 692h72zM471 -135v102h90v-209q0 -69 -24.5 -109.5t-65.5 -43.5v26q26 26 34.5 60t8.5 112v62h-43z" />
    <glyph glyph-name="Lacute" unicode="&#x139;" horiz-adv-x="1054" 
d="M137 1554h51l203 263h-61zM182 53h797v-53h-852v1434h55v-1381z" />
    <glyph glyph-name="lacute" unicode="&#x13a;" horiz-adv-x="307" 
d="M76 1571h51l203 262h-62zM127 1446h53v-1446h-53v1446z" />
    <glyph glyph-name="Lcommaaccent" unicode="&#x13b;" horiz-adv-x="1054" 
d="M182 53h797v-53h-852v1434h55v-1381zM477 -406v27q26 26 34.5 60t8.5 112v62h-43v102h90v-209q0 -69 -24.5 -110t-65.5 -44z" />
    <glyph glyph-name="lcommaaccent" unicode="&#x13c;" horiz-adv-x="307" 
d="M127 1446h53v-1446h-53v1446zM104 -395v26q26 26 34.5 60t8.5 112v62h-43v102h91v-209q0 -69 -25 -109.5t-66 -43.5z" />
    <glyph glyph-name="Lcaron" unicode="&#x13d;" horiz-adv-x="1054" 
d="M182 53h797v-53h-852v1434h55v-1381zM477 1071v27q26 26 34.5 60t8.5 112v61h-43v103h90v-209q0 -69 -24.5 -110t-65.5 -44z" />
    <glyph glyph-name="lcaron" unicode="&#x13e;" horiz-adv-x="569" 
d="M127 1446h53v-1446h-53v1446zM397 1071v27q26 26 34.5 60t8.5 112v61h-43v103h90v-209q0 -69 -24.5 -110t-65.5 -44z" />
    <glyph glyph-name="Lslash" unicode="&#x141;" horiz-adv-x="1136" 
d="M264 53h797v-53h-852v573l-164 -172v66l164 172v795h55v-736l299 316h2v-64l-301 -317v-580z" />
    <glyph glyph-name="lslash" unicode="&#x142;" horiz-adv-x="665" 
d="M600 1040v-92l-278 -293v-655h-54v598l-202 -213v94l202 213v754h54v-696l276 290h2z" />
    <glyph glyph-name="Nacute" unicode="&#x143;" horiz-adv-x="1300" 
d="M573 1559h52l202 262h-61zM1174 1434v-1434h-80l-910 1372h-2v-1372h-55v1434h80l909 -1366h2v1366h56z" />
    <glyph glyph-name="nacute" unicode="&#x144;" horiz-adv-x="1093" 
d="M723 1452l-203 -262h-51l193 262h61zM588 1075q379 0 379 -430v-645h-54v649q0 206 -83 290.5t-246 84.5q-86 0 -160.5 -34.5t-122.5 -88.5t-78 -108.5t-43 -106.5v-686h-53v1065h53v-281q6 34 35 80.5t78 95t127.5 82t167.5 33.5z" />
    <glyph glyph-name="Ncommaaccent" unicode="&#x145;" horiz-adv-x="1300" 
d="M1174 1434v-1434h-80l-910 1372h-2v-1372h-55v1434h80l909 -1366h2v1366h56zM602 -395v26q26 26 34.5 60t8.5 112v62h-43v102h90v-209q0 -69 -24.5 -109.5t-65.5 -43.5z" />
    <glyph glyph-name="ncommaaccent" unicode="&#x146;" horiz-adv-x="1093" 
d="M588 1075q379 0 379 -430v-645h-54v649q0 206 -83 290.5t-246 84.5q-86 0 -160.5 -34.5t-122.5 -88.5t-78 -108.5t-43 -106.5v-686h-53v1065h53v-281q6 34 35 80.5t78 95t127.5 82t167.5 33.5zM498 -135v102h90v-209q0 -69 -24.5 -109.5t-65.5 -43.5v26q26 26 34.5 60
t8.5 112v62h-43z" />
    <glyph glyph-name="Ncaron" unicode="&#x147;" horiz-adv-x="1300" 
d="M852 1802h49l-219 -248h-68l-219 248h49l205 -200zM1174 1434v-1434h-80l-910 1372h-2v-1372h-55v1434h80l909 -1366h2v1366h56z" />
    <glyph glyph-name="ncaron" unicode="&#x148;" horiz-adv-x="1093" 
d="M578 1186h-68l-219 248h49l205 -201l203 201h49zM588 1075q379 0 379 -430v-645h-54v649q0 206 -83 290.5t-246 84.5q-86 0 -160.5 -34.5t-122.5 -88.5t-78 -108.5t-43 -106.5v-686h-53v1065h53v-281q6 34 35 80.5t78 95t127.5 82t167.5 33.5z" />
    <glyph glyph-name="Eng" unicode="&#x14a;" horiz-adv-x="1300" 
d="M1118 1434h56v-1379q0 -136 -36 -237t-98.5 -158t-137.5 -84t-163 -27q-243 0 -372 175l34 34q121 -155 342 -155q70 0 130 19t111.5 60t85.5 114t44 173l-930 1403h-2v-1372h-55v1434h80l909 -1368h2v1368z" />
    <glyph glyph-name="eng" unicode="&#x14b;" horiz-adv-x="1093" 
d="M588 1075q379 0 379 -430v-848q0 -136 -52.5 -192t-148.5 -56q-109 0 -170 50v53q78 -49 176 -49q68 0 104.5 45.5t36.5 132.5v868q0 206 -83 290.5t-246 84.5q-86 0 -160.5 -34.5t-122.5 -88.5t-78 -108.5t-43 -106.5v-686h-53v1065h53v-281q6 34 35 80.5t78 95
t127.5 82t167.5 33.5z" />
    <glyph glyph-name="Omacron" unicode="&#x14c;" horiz-adv-x="1423" 
d="M444 1821h537v-47h-537v47zM713 1452q133 0 244 -45t194 -133.5t129.5 -230.5t46.5 -326t-46.5 -326t-129.5 -230.5t-194 -133.5t-244 -45t-244 45t-195 133.5t-131 230.5t-47 326t47 326t131 230.5t195 133.5t244 45zM713 35q124 0 224.5 40t177 120.5t118 213.5
t41.5 308q0 140 -27.5 253.5t-76.5 193t-119.5 132.5t-154.5 78t-183 25t-183.5 -25t-155 -78t-120 -132.5t-77 -193t-27.5 -253.5q0 -175 41.5 -307.5t118 -213.5t177.5 -121t226 -40z" />
    <glyph glyph-name="omacron" unicode="&#x14d;" horiz-adv-x="1085" 
d="M274 1452h537v-47h-537v47zM543 1075q92 0 175.5 -35.5t149 -102t104 -171.5t38.5 -234q0 -132 -38.5 -238.5t-104.5 -172.5t-149 -100.5t-175 -34.5t-175 34.5t-149 100.5t-104.5 172.5t-38.5 238.5q0 129 38.5 234t104 171.5t149 102t175.5 35.5zM956 532
q0 121 -35 217t-93.5 154t-131.5 88.5t-153 30.5t-153 -30.5t-132 -88.5t-94 -154t-35 -217q0 -123 35 -220t94 -155t131.5 -88t153.5 -30t153.5 30t131 88.5t93.5 155t35 219.5z" />
    <glyph glyph-name="Ohungarumlaut" unicode="&#x150;" horiz-adv-x="1423" 
d="M453 1559h51l203 262h-62zM717 1559h51l203 262h-62zM713 1452q133 0 244 -45t194 -133.5t129.5 -230.5t46.5 -326t-46.5 -326t-129.5 -230.5t-194 -133.5t-244 -45t-244 45t-195 133.5t-131 230.5t-47 326t47 326t131 230.5t195 133.5t244 45zM713 35q124 0 224.5 40
t177 120.5t118 213.5t41.5 308q0 140 -27.5 253.5t-76.5 193t-119.5 132.5t-154.5 78t-183 25t-183.5 -25t-155 -78t-120 -132.5t-77 -193t-27.5 -253.5q0 -175 41.5 -307.5t118 -213.5t177.5 -121t226 -40z" />
    <glyph glyph-name="ohungarumlaut" unicode="&#x151;" horiz-adv-x="1085" 
d="M283 1190h51l203 262h-62zM547 1190h51l203 262h-62zM543 1075q92 0 175.5 -35.5t149 -102t104 -171.5t38.5 -234q0 -132 -38.5 -238.5t-104.5 -172.5t-149 -100.5t-175 -34.5t-175 34.5t-149 100.5t-104.5 172.5t-38.5 238.5q0 129 38.5 234t104 171.5t149 102
t175.5 35.5zM956 532q0 121 -35 217t-93.5 154t-131.5 88.5t-153 30.5t-153 -30.5t-132 -88.5t-94 -154t-35 -217q0 -123 35 -220t94 -155t131.5 -88t153.5 -30t153.5 30t131 88.5t93.5 155t35 219.5z" />
    <glyph glyph-name="OE" unicode="&#x152;" horiz-adv-x="2222" 
d="M1329 53h832v-53h-887v371q-69 -193 -216 -291t-345 -98q-133 0 -244 45t-195 133.5t-131 230.5t-47 326t47 326t131 230.5t195 133.5t244 45q198 0 345 -98t216 -291v371h866v-54h-811v-610h709v-49h-709v-668zM713 35q124 0 224.5 40t177 120.5t118 213.5t41.5 308
q0 140 -27.5 253.5t-76.5 193t-119.5 132.5t-154.5 78t-183 25t-183.5 -25t-155 -78t-120 -132.5t-77 -193t-27.5 -253.5q0 -175 41.5 -307.5t118 -213.5t177.5 -121t226 -40z" />
    <glyph glyph-name="oe" unicode="&#x153;" horiz-adv-x="1951" 
d="M1876 551q0 -33 -2 -51h-862q7 -231 124 -348t300 -117q117 0 193 31.5t143 115.5h63q-78 -107 -171 -151.5t-228 -44.5q-169 0 -288.5 88.5t-166.5 253.5q-48 -164 -168.5 -253t-269.5 -89q-92 0 -175 34.5t-149 100.5t-104.5 172.5t-38.5 238.5q0 129 38.5 234
t104 171.5t149 102t175.5 35.5q150 0 270.5 -89.5t169.5 -254.5q46 165 166 254.5t276 89.5q95 0 177 -34.5t143 -99.5t96 -165.5t35 -224.5zM1012 553h813q-3 230 -114 351.5t-286 121.5q-171 0 -289 -122t-124 -351zM543 39q81 0 153.5 30t131 88.5t93.5 155t35 219.5
q0 121 -35 217t-93.5 154t-131.5 88.5t-153 30.5t-153 -30.5t-132 -88.5t-94 -154t-35 -217q0 -123 35 -220t94 -155t131.5 -88t153.5 -30z" />
    <glyph glyph-name="Racute" unicode="&#x154;" horiz-adv-x="1202" 
d="M817 1821l-203 -262h-51l193 262h61zM1085 240q0 -210 41 -240h-55q-41 33 -41 240v129q0 57 -12 101.5t-35 73.5t-50 48.5t-64 29t-70 13.5t-74 4h-543v-639h-55v1434h516q222 0 337.5 -101t115.5 -291q0 -134 -64 -231.5t-192 -140.5q128 -19 186.5 -91.5t58.5 -211.5
v-127zM696 688q148 0 247 94t99 256q0 346 -397 346h-463v-696h514z" />
    <glyph glyph-name="racute" unicode="&#x155;" horiz-adv-x="712" 
d="M522 1452l-203 -262h-51l193 262h61zM584 1075q43 0 63 -4v-49q-20 2 -61 2q-158 0 -265 -94t-141 -258v-672h-53v1065h53v-277q30 116 139 201.5t265 85.5z" />
    <glyph glyph-name="Rcommaaccent" unicode="&#x156;" horiz-adv-x="1202" 
d="M1085 240q0 -210 41 -240h-55q-41 33 -41 240v129q0 57 -12 101.5t-35 73.5t-50 48.5t-64 29t-70 13.5t-74 4h-543v-639h-55v1434h516q222 0 337.5 -101t115.5 -291q0 -134 -64 -231.5t-192 -140.5q128 -19 186.5 -91.5t58.5 -211.5v-127zM696 688q148 0 247 94t99 256
q0 346 -397 346h-463v-696h514zM592 -135v102h90v-209q0 -69 -24.5 -109.5t-65.5 -43.5v26q26 26 34.5 60t8.5 112v62h-43z" />
    <glyph glyph-name="rcommaaccent" unicode="&#x157;" horiz-adv-x="712" 
d="M584 1075q43 0 63 -4v-49q-20 2 -61 2q-158 0 -265 -94t-141 -258v-672h-53v1065h53v-277q30 116 139 201.5t265 85.5zM104 -135v102h91v-209q0 -69 -25 -109.5t-66 -43.5v26q26 26 34.5 60t8.5 112v62h-43z" />
    <glyph glyph-name="Rcaron" unicode="&#x158;" horiz-adv-x="1202" 
d="M672 1554h-68l-219 248h49l205 -200l203 200h49zM1085 240q0 -210 41 -240h-55q-41 33 -41 240v129q0 57 -12 101.5t-35 73.5t-50 48.5t-64 29t-70 13.5t-74 4h-543v-639h-55v1434h516q222 0 337.5 -101t115.5 -291q0 -134 -64 -231.5t-192 -140.5q128 -19 186.5 -91.5
t58.5 -211.5v-127zM696 688q148 0 247 94t99 256q0 346 -397 346h-463v-696h514z" />
    <glyph glyph-name="rcaron" unicode="&#x159;" horiz-adv-x="712" 
d="M377 1186h-68l-219 248h49l205 -201l203 201h49zM584 1075q43 0 63 -4v-49q-20 2 -61 2q-158 0 -265 -94t-141 -258v-672h-53v1065h53v-277q30 116 139 201.5t265 85.5z" />
    <glyph glyph-name="Sacute" unicode="&#x15a;" horiz-adv-x="1177" 
d="M498 1559h51l203 262h-62zM670 754q93 -18 161.5 -44t128 -69.5t90.5 -110.5t31 -157q0 -176 -124 -283.5t-361 -107.5q-121 0 -214.5 31.5t-151 88t-90 124t-44.5 149.5h58q12 -71 40.5 -128.5t79 -107t132.5 -77t190 -27.5q212 0 320 91.5t108 246.5q0 61 -18.5 111
t-48.5 83.5t-73.5 59.5t-87 41t-96.5 26l-225 47q-177 38 -263.5 125t-86.5 217q0 75 28 140t82.5 117t144.5 82t206 30q205 0 317 -92.5t139 -241.5h-55q-9 44 -26.5 82t-49.5 75.5t-75 64t-107.5 43t-142.5 16.5q-201 0 -302.5 -89t-101.5 -223q0 -119 79 -191t237 -105z
" />
    <glyph glyph-name="sacute" unicode="&#x15b;" horiz-adv-x="940" 
d="M393 1190h51l203 262h-61zM797 838q-71 188 -330 188q-147 0 -228 -63t-81 -156q0 -87 56 -137.5t187 -81.5l158 -39q84 -19 136.5 -38.5t96 -50t63 -76t19.5 -110.5q0 -77 -34 -134.5t-91.5 -90t-124.5 -48t-141 -15.5q-80 0 -149 17t-126.5 52.5t-94.5 94.5t-47 137h53
q11 -56 37.5 -99.5t60.5 -71t78.5 -45.5t89.5 -25t96 -7q66 0 124.5 13t108 39.5t78.5 73.5t29 109q0 44 -13 77t-31.5 54t-55 38.5t-68 27.5t-84.5 23l-200 49q-128 34 -196.5 94t-68.5 166q0 125 102 198.5t263 73.5q90 0 164.5 -23t133 -77.5t81.5 -136.5h-51z" />
    <glyph glyph-name="Scedilla" unicode="&#x15e;" horiz-adv-x="1177" 
d="M1081 373q0 -173 -119.5 -280t-349.5 -111l-84 -93q64 26 126.5 -11.5t62.5 -110.5q0 -87 -66.5 -130t-171.5 -43v39q96 3 141.5 37.5t45.5 91.5q0 64 -50 88.5t-124 -2.5l-9 11l-10 14l76 111q-109 6 -193 39.5t-136.5 88.5t-82.5 120t-41 143h58q12 -71 40.5 -128.5
t79 -107t132.5 -77t190 -27.5q212 0 320 91.5t108 246.5q0 61 -18.5 111t-48.5 83.5t-73.5 59.5t-87 41t-96.5 26l-225 47q-177 38 -263.5 125t-86.5 217q0 75 28 140t82.5 117t144.5 82t206 30q205 0 317 -92.5t139 -241.5h-55q-9 44 -26.5 82t-49.5 75.5t-75 64t-107.5 43
t-142.5 16.5q-201 0 -302.5 -89t-101.5 -223q0 -119 79 -191t237 -105l172 -37q93 -18 161.5 -44t128 -69.5t90.5 -110.5t31 -157z" />
    <glyph glyph-name="scedilla" unicode="&#x15f;" horiz-adv-x="940" 
d="M874 274q0 -73 -30.5 -129t-83.5 -88.5t-115 -50t-133 -20.5l-90 -99q64 26 126 -12t62 -111q0 -87 -66 -129.5t-171 -42.5v39q95 3 140.5 37.5t45.5 91.5q0 64 -50.5 88.5t-123.5 -2.5l-8 11l-10 14l79 115q-154 8 -258 82.5t-122 218.5h53q11 -56 37.5 -99.5t60.5 -71
t78.5 -45.5t89.5 -25t96 -7q66 0 124.5 13t108 39.5t78.5 73.5t29 109q0 44 -13 77t-31.5 54t-55 38.5t-68 27.5t-84.5 23l-200 49q-128 34 -196.5 94t-68.5 166q0 125 102 198.5t263 73.5q90 0 164.5 -23t133 -77.5t81.5 -136.5h-51q-71 188 -330 188q-147 0 -228 -63
t-81 -156q0 -87 56 -137.5t187 -81.5l158 -39q84 -19 136.5 -38.5t96 -50t63 -76t19.5 -110.5z" />
    <glyph glyph-name="Scaron" unicode="&#x160;" horiz-adv-x="1177" 
d="M776 1802h49l-219 -248h-67l-220 248h50l204 -200zM670 754q93 -18 161.5 -44t128 -69.5t90.5 -110.5t31 -157q0 -176 -124 -283.5t-361 -107.5q-121 0 -214.5 31.5t-151 88t-90 124t-44.5 149.5h58q12 -71 40.5 -128.5t79 -107t132.5 -77t190 -27.5q212 0 320 91.5
t108 246.5q0 61 -18.5 111t-48.5 83.5t-73.5 59.5t-87 41t-96.5 26l-225 47q-177 38 -263.5 125t-86.5 217q0 75 28 140t82.5 117t144.5 82t206 30q205 0 317 -92.5t139 -241.5h-55q-9 44 -26.5 82t-49.5 75.5t-75 64t-107.5 43t-142.5 16.5q-201 0 -302.5 -89t-101.5 -223
q0 -119 79 -191t237 -105z" />
    <glyph glyph-name="scaron" unicode="&#x161;" horiz-adv-x="940" 
d="M672 1434h49l-219 -248h-68l-219 248h49l205 -201zM797 838q-71 188 -330 188q-147 0 -228 -63t-81 -156q0 -87 56 -137.5t187 -81.5l158 -39q84 -19 136.5 -38.5t96 -50t63 -76t19.5 -110.5q0 -77 -34 -134.5t-91.5 -90t-124.5 -48t-141 -15.5q-80 0 -149 17
t-126.5 52.5t-94.5 94.5t-47 137h53q11 -56 37.5 -99.5t60.5 -71t78.5 -45.5t89.5 -25t96 -7q66 0 124.5 13t108 39.5t78.5 73.5t29 109q0 44 -13 77t-31.5 54t-55 38.5t-68 27.5t-84.5 23l-200 49q-128 34 -196.5 94t-68.5 166q0 125 102 198.5t263 73.5q90 0 164.5 -23
t133 -77.5t81.5 -136.5h-51z" />
    <glyph glyph-name="uni0162" unicode="&#x162;" horiz-adv-x="1150" 
d="M1085 1380h-481v-1380h12l-102 -113q64 26 126 -12t62 -111q0 -87 -66 -129.5t-171 -42.5v39q95 3 140.5 37.5t45.5 91.5q0 64 -50.5 88.5t-123.5 -2.5l-8 11l-10 14l90 129v1380h-483v54h1019v-54z" />
    <glyph glyph-name="uni0163" unicode="&#x163;" horiz-adv-x="550" 
d="M475 6q-53 -15 -110 -18l-91 -99q64 26 126.5 -11.5t62.5 -110.5q0 -87 -66.5 -130t-171.5 -43v39q96 3 141.5 37.5t45.5 91.5q0 64 -50 88.5t-124 -2.5l-9 11l-10 14l82 117q-100 14 -100 121v905h-156v49h156v266h53v-266h199v-49h-199v-901q0 -41 22 -58.5t76 -17.5
q65 0 123 18v-51z" />
    <glyph glyph-name="Tcaron" unicode="&#x164;" horiz-adv-x="1150" 
d="M604 1554h-67l-220 248h50l204 -200l203 200h49zM1085 1434v-54h-481v-1380h-55v1380h-483v54h1019z" />
    <glyph glyph-name="tcaron" unicode="&#x165;" horiz-adv-x="505" 
d="M582 1446l-203 -262h-51l192 262h62zM254 115q0 -41 22 -58.5t76 -17.5q65 0 123 18v-51q-58 -18 -145 -18q-58 0 -93.5 29t-35.5 94v905h-156v49h156v266h53v-266h199v-49h-199v-901z" />
    <glyph glyph-name="Tbar" unicode="&#x166;" horiz-adv-x="1150" 
d="M1085 1380h-481v-299h240v-47h-240v-1034h-55v1034h-242v47h242v299h-483v54h1019v-54z" />
    <glyph glyph-name="tbar" unicode="&#x167;" horiz-adv-x="550" 
d="M352 39q65 0 123 18v-51q-58 -18 -145 -18q-58 0 -93.5 29t-35.5 94v673h-156v47h156v185h-156v49h156v266h53v-266h199v-49h-199v-185h199v-47h-199v-669q0 -41 22 -58.5t76 -17.5z" />
    <glyph glyph-name="Utilde" unicode="&#x168;" horiz-adv-x="1292" 
d="M903 1802h49q0 -77 -51 -116t-117 -39q-37 0 -70 14.5t-56.5 35t-46 40.5t-49.5 34.5t-56 14.5q-66 0 -96.5 -34.5t-28.5 -74.5h-47q0 78 51 118t117 40q37 0 69 -14.5t55.5 -35t46 -40.5t49.5 -34.5t56 -14.5q67 0 97 33.5t28 72.5zM1165 535q0 -258 -138.5 -405.5
t-381.5 -147.5t-380.5 147.5t-137.5 405.5v899h55v-895q0 -234 123.5 -369t339.5 -135t340.5 135t124.5 369v895h55v-899z" />
    <glyph glyph-name="utilde" unicode="&#x169;" horiz-adv-x="1083" 
d="M385 1417q-66 0 -96.5 -34t-28.5 -74h-47q0 78 51 117.5t117 39.5q37 0 69 -14.5t55.5 -35t46 -40.5t49.5 -34.5t56 -14.5q67 0 97 34t28 73h49q0 -77 -51 -116.5t-116 -39.5q-37 0 -70 14.5t-57 35t-46.5 40.5t-49.5 34.5t-56 14.5zM903 1065h53v-1065h-53v279
q-5 -27 -23 -62.5t-53 -76t-80.5 -75t-111.5 -57t-139 -22.5q-82 0 -148 22t-119.5 70.5t-82.5 134.5t-29 205v647h53v-651q0 -106 22.5 -180t66.5 -116.5t103 -61.5t140 -19q70 0 132 23.5t106 60t78.5 83t54.5 90t30 83.5v688z" />
    <glyph glyph-name="Umacron" unicode="&#x16a;" horiz-adv-x="1292" 
d="M385 1821h537v-47h-537v47zM1165 535q0 -258 -138.5 -405.5t-381.5 -147.5t-380.5 147.5t-137.5 405.5v899h55v-895q0 -234 123.5 -369t339.5 -135t340.5 135t124.5 369v895h55v-899z" />
    <glyph glyph-name="umacron" unicode="&#x16b;" horiz-adv-x="1083" 
d="M801 1452v-47h-537v47h537zM903 1065h53v-1065h-53v279q-5 -27 -23 -62.5t-53 -76t-80.5 -75t-111.5 -57t-139 -22.5q-82 0 -148 22t-119.5 70.5t-82.5 134.5t-29 205v647h53v-651q0 -106 22.5 -180t66.5 -116.5t103 -61.5t140 -19q70 0 132 23.5t106 60t78.5 83t54.5 90
t30 83.5v688z" />
    <glyph glyph-name="Ubreve" unicode="&#x16c;" horiz-adv-x="1292" 
d="M860 1821h47q0 -39 -13 -75.5t-41 -71t-79.5 -55t-120.5 -20.5t-120.5 20.5t-78.5 55t-40 71t-13 75.5h48q15 -172 204 -172q192 0 207 172zM1165 535q0 -258 -138.5 -405.5t-381.5 -147.5t-380.5 147.5t-137.5 405.5v899h55v-895q0 -234 123.5 -369t339.5 -135
t340.5 135t124.5 369v895h55v-899z" />
    <glyph glyph-name="ubreve" unicode="&#x16d;" horiz-adv-x="1083" 
d="M532 1231q-69 0 -120 20.5t-78.5 54.5t-40 70.5t-12.5 75.5h47q15 -172 204 -172q192 0 207 172h47q0 -39 -13 -75.5t-41 -70.5t-79.5 -54.5t-120.5 -20.5zM903 1065h53v-1065h-53v279q-5 -27 -23 -62.5t-53 -76t-80.5 -75t-111.5 -57t-139 -22.5q-82 0 -148 22
t-119.5 70.5t-82.5 134.5t-29 205v647h53v-651q0 -106 22.5 -180t66.5 -116.5t103 -61.5t140 -19q70 0 132 23.5t106 60t78.5 83t54.5 90t30 83.5v688z" />
    <glyph glyph-name="Uring" unicode="&#x16e;" horiz-adv-x="1292" 
d="M655 1559q-67 0 -111 44.5t-44 106.5q0 63 44.5 107.5t110.5 44.5q67 0 111.5 -45t44.5 -107t-44.5 -106.5t-111.5 -44.5zM655 1602q49 0 81 31.5t32 76.5t-32 77t-81 32q-47 0 -78.5 -32t-31.5 -77t31.5 -76.5t78.5 -31.5zM1165 535q0 -258 -138.5 -405.5t-381.5 -147.5
t-380.5 147.5t-137.5 405.5v899h55v-895q0 -234 123.5 -369t339.5 -135t340.5 135t124.5 369v895h55v-899z" />
    <glyph glyph-name="uring" unicode="&#x16f;" horiz-adv-x="1083" 
d="M535 1190q-67 0 -111.5 44.5t-44.5 106.5q0 63 44.5 107.5t111.5 44.5q66 0 110.5 -44.5t44.5 -107.5t-44 -107t-111 -44zM535 1450q-47 0 -79 -32t-32 -77t32 -76.5t79 -31.5q49 0 80.5 31.5t31.5 76.5t-31.5 77t-80.5 32zM903 1065h53v-1065h-53v279q-5 -27 -23 -62.5
t-53 -76t-80.5 -75t-111.5 -57t-139 -22.5q-82 0 -148 22t-119.5 70.5t-82.5 134.5t-29 205v647h53v-651q0 -106 22.5 -180t66.5 -116.5t103 -61.5t140 -19q70 0 132 23.5t106 60t78.5 83t54.5 90t30 83.5v688z" />
    <glyph glyph-name="Uhungarumlaut" unicode="&#x170;" horiz-adv-x="1292" 
d="M393 1559h51l203 262h-61zM657 1559h52l202 262h-61zM1165 535q0 -258 -138.5 -405.5t-381.5 -147.5t-380.5 147.5t-137.5 405.5v899h55v-895q0 -234 123.5 -369t339.5 -135t340.5 135t124.5 369v895h55v-899z" />
    <glyph glyph-name="uhungarumlaut" unicode="&#x171;" horiz-adv-x="1083" 
d="M526 1452l-202 -262h-52l193 262h61zM791 1452l-203 -262h-51l192 262h62zM903 1065h53v-1065h-53v279q-5 -27 -23 -62.5t-53 -76t-80.5 -75t-111.5 -57t-139 -22.5q-82 0 -148 22t-119.5 70.5t-82.5 134.5t-29 205v647h53v-651q0 -106 22.5 -180t66.5 -116.5t103 -61.5
t140 -19q70 0 132 23.5t106 60t78.5 83t54.5 90t30 83.5v688z" />
    <glyph glyph-name="Uogonek" unicode="&#x172;" horiz-adv-x="1292" 
d="M1110 1434h55v-899q0 -213 -95.5 -352.5t-268.5 -182.5h6q-101 -45 -168.5 -108t-67.5 -142q0 -68 55.5 -99t155.5 -16v-43q-29 -11 -64.5 -13t-71 6t-64.5 26.5t-47.5 52t-18.5 78.5q0 73 61.5 138t149.5 106q-54 -4 -82 -4q-243 0 -380.5 147.5t-137.5 405.5v899h55
v-895q0 -234 123.5 -369t339.5 -135t340.5 135t124.5 369v895z" />
    <glyph glyph-name="uogonek" unicode="&#x173;" horiz-adv-x="1083" 
d="M903 1065h53v-1065h-4q-101 -45 -168 -108t-67 -142q0 -68 55.5 -99t155.5 -16v-43q-29 -11 -64.5 -13t-71 6t-64.5 26.5t-47.5 52t-18.5 78.5q0 80 71.5 149t169.5 109v279q-5 -27 -23 -62.5t-53 -76t-80.5 -75t-111.5 -57t-139 -22.5q-82 0 -148 22t-119.5 70.5
t-82.5 134.5t-29 205v647h53v-651q0 -106 22.5 -180t66.5 -116.5t103 -61.5t140 -19q70 0 132 23.5t106 60t78.5 83t54.5 90t30 83.5v688z" />
    <glyph glyph-name="Wcircumflex" unicode="&#x174;" horiz-adv-x="1992" 
d="M1198 1573l-203 201l-204 -201h-50l220 248h67l219 -248h-49zM1870 1434h57l-420 -1434h-59l-453 1376l-452 -1376h-58l-419 1434h57l393 -1360l445 1360h71l445 -1360z" />
    <glyph glyph-name="wcircumflex" unicode="&#x175;" horiz-adv-x="1626" 
d="M1018 1204l-203 201l-205 -201h-49l219 248h68l219 -248h-49zM1571 1065l-330 -1065h-65l-363 989l-364 -989h-64l-330 1065h56l307 -1006l370 1006h50l370 -1006l308 1006h55z" />
    <glyph glyph-name="Ycircumflex" unicode="&#x176;" horiz-adv-x="1247" 
d="M825 1573l-202 201l-205 -201h-49l219 248h67l219 -248h-49zM649 588v-588h-51v588l-532 846h61l496 -791l497 791h62z" />
    <glyph glyph-name="ycircumflex" unicode="&#x177;" horiz-adv-x="1026" 
d="M725 1204l-203 201l-205 -201h-49l219 248h68l219 -248h-49zM913 1065h58l-477 -1208q-52 -132 -138 -189t-190 -41v51q94 -15 169.5 36.5t117.5 166.5q5 13 12 31.5t9.5 26l6 18t3.5 15.5t-1 11.5t-4 12.5l-424 1069h56l403 -1032z" />
    <glyph glyph-name="Ydieresis" unicode="&#x178;" horiz-adv-x="1247" 
d="M391 1821h62v-152h-62v152zM793 1821h63v-152h-63v152zM649 588v-588h-51v588l-532 846h61l496 -791l497 791h62z" />
    <glyph glyph-name="Zacute" unicode="&#x179;" horiz-adv-x="1224" 
d="M537 1559h51l203 262h-62zM1143 53v-53h-1061v57l993 1323h-950v54h1010l-2 -58l-990 -1323h1000z" />
    <glyph glyph-name="zacute" unicode="&#x17a;" horiz-adv-x="999" 
d="M422 1190h51l203 262h-62zM143 49h775v-49h-836v49l772 967h-752v49h816v-49z" />
    <glyph glyph-name="Zdotaccent" unicode="&#x17b;" horiz-adv-x="1224" 
d="M584 1821h61v-152h-61v152zM1143 53v-53h-1061v57l993 1323h-950v54h1010l-2 -58l-990 -1323h1000z" />
    <glyph glyph-name="zdotaccent" unicode="&#x17c;" horiz-adv-x="999" 
d="M469 1452h61v-152h-61v152zM143 49h775v-49h-836v49l772 967h-752v49h816v-49z" />
    <glyph glyph-name="Zcaron" unicode="&#x17d;" horiz-adv-x="1224" 
d="M815 1802h49l-219 -248h-67l-220 248h50l204 -200zM1143 53v-53h-1061v57l993 1323h-950v54h1010l-2 -58l-990 -1323h1000z" />
    <glyph glyph-name="zcaron" unicode="&#x17e;" horiz-adv-x="999" 
d="M700 1434h50l-220 -248h-67l-219 248h49l205 -201zM143 49h775v-49h-836v49l772 967h-752v49h816v-49z" />
    <glyph glyph-name="florin" unicode="&#x192;" horiz-adv-x="557" 
d="M516 1403q-50 0 -85.5 -9t-65.5 -33.5t-45 -72t-15 -119.5v-284h211v-51h-211v-924q0 -75 -18 -131t-44 -87t-63.5 -50t-70 -25t-68.5 -6v51q46 0 81 10t66 34.5t47.5 72t16.5 117.5v938h-180v51h180v268q0 77 16 133.5t40 88.5t61 50t70.5 23.5t76.5 5.5v-51z" />
    <glyph glyph-name="uni01CD" unicode="&#x1cd;" horiz-adv-x="1339" 
d="M700 1554h-67l-219 248h49l205 -200l202 200h50zM1217 0l-183 449h-727l-182 -449h-59l583 1434h43l582 -1434h-57zM326 498h688l-344 848z" />
    <glyph glyph-name="uni01CE" unicode="&#x1ce;" horiz-adv-x="1052" 
d="M549 1186h-68l-219 248h49l205 -201l203 201h49zM915 109q0 -42 16.5 -56.5t65.5 -11.5v-43q-18 -6 -34 -6q-57 0 -79 28t-22 109v131q-13 -29 -35 -61t-62 -71t-88.5 -70t-117.5 -51.5t-145 -20.5q-156 0 -247 82.5t-91 224.5q0 59 16 105.5t55 88.5t111.5 71.5
t177.5 43.5t158.5 22t141 27t126.5 39v27q0 167 -74.5 237t-257.5 70q-297 0 -329 -188h-54q18 119 119.5 179t265.5 60q191 0 287 -85.5t96 -287.5v-593zM862 344v299q-54 -36 -426 -88q-171 -24 -239 -86t-68 -176q0 -122 77 -190t208 -68q81 0 153 26t119.5 62t87 82.5
t58.5 79t30 59.5z" />
    <glyph glyph-name="uni01CF" unicode="&#x1cf;" horiz-adv-x="309" 
d="M356 1802h50l-220 -248h-67l-219 248h49l205 -200zM182 0h-55v1434h55v-1434z" />
    <glyph glyph-name="uni01D0" unicode="&#x1d0;" horiz-adv-x="307" 
d="M354 1434h49l-219 -248h-67l-219 248h49l205 -201zM127 1065h53v-1065h-53v1065z" />
    <glyph glyph-name="uni01D1" unicode="&#x1d1;" horiz-adv-x="1423" 
d="M913 1802h50l-220 -248h-67l-219 248h49l205 -200zM713 1452q133 0 244 -45t194 -133.5t129.5 -230.5t46.5 -326t-46.5 -326t-129.5 -230.5t-194 -133.5t-244 -45t-244 45t-195 133.5t-131 230.5t-47 326t47 326t131 230.5t195 133.5t244 45zM713 35q124 0 224.5 40
t177 120.5t118 213.5t41.5 308q0 140 -27.5 253.5t-76.5 193t-119.5 132.5t-154.5 78t-183 25t-183.5 -25t-155 -78t-120 -132.5t-77 -193t-27.5 -253.5q0 -175 41.5 -307.5t118 -213.5t177.5 -121t226 -40z" />
    <glyph glyph-name="uni01D2" unicode="&#x1d2;" horiz-adv-x="1085" 
d="M743 1434h50l-220 -248h-67l-219 248h49l205 -201zM543 1075q92 0 175.5 -35.5t149 -102t104 -171.5t38.5 -234q0 -132 -38.5 -238.5t-104.5 -172.5t-149 -100.5t-175 -34.5t-175 34.5t-149 100.5t-104.5 172.5t-38.5 238.5q0 129 38.5 234t104 171.5t149 102t175.5 35.5
zM956 532q0 121 -35 217t-93.5 154t-131.5 88.5t-153 30.5t-153 -30.5t-132 -88.5t-94 -154t-35 -217q0 -123 35 -220t94 -155t131.5 -88t153.5 -30t153.5 30t131 88.5t93.5 155t35 219.5z" />
    <glyph glyph-name="uni01D3" unicode="&#x1d3;" horiz-adv-x="1292" 
d="M854 1802h49l-219 -248h-68l-219 248h49l205 -200zM1165 535q0 -258 -138.5 -405.5t-381.5 -147.5t-380.5 147.5t-137.5 405.5v899h55v-895q0 -234 123.5 -369t339.5 -135t340.5 135t124.5 369v895h55v-899z" />
    <glyph glyph-name="uni01D4" unicode="&#x1d4;" horiz-adv-x="1083" 
d="M563 1186h-67l-220 248h50l204 -201l203 201h49zM903 1065h53v-1065h-53v279q-5 -27 -23 -62.5t-53 -76t-80.5 -75t-111.5 -57t-139 -22.5q-82 0 -148 22t-119.5 70.5t-82.5 134.5t-29 205v647h53v-651q0 -106 22.5 -180t66.5 -116.5t103 -61.5t140 -19q70 0 132 23.5
t106 60t78.5 83t54.5 90t30 83.5v688z" />
    <glyph glyph-name="uni01EA" unicode="&#x1ea;" horiz-adv-x="1423" 
d="M850 -6q-96 -44 -159.5 -105.5t-63.5 -138.5q0 -68 55.5 -99t155.5 -16v-43q-29 -11 -64.5 -13t-71 6t-65 26.5t-48 52t-18.5 78.5q0 71 60 135t147 107q-20 -2 -65 -2q-133 0 -244 45t-195 133.5t-131 230.5t-47 326t47 326t131 230.5t195 133.5t244 45t244 -45
t194 -133.5t129.5 -230.5t46.5 -326q0 -314 -128.5 -497t-348.5 -226zM150 717q0 -175 41.5 -307.5t118 -213.5t177.5 -121t226 -40q124 0 224.5 40t177 120.5t118 213.5t41.5 308q0 140 -27.5 253.5t-76.5 193t-119.5 132.5t-154.5 78t-183 25t-183.5 -25t-155 -78
t-120 -132.5t-77 -193t-27.5 -253.5z" />
    <glyph glyph-name="uni01EB" unicode="&#x1eb;" horiz-adv-x="1085" 
d="M1010 532q0 -218 -99 -355.5t-254 -176.5h19q-101 -45 -168.5 -108t-67.5 -142q0 -68 55.5 -99t155.5 -16v-43q-29 -11 -64.5 -13t-71 6t-64.5 26.5t-47.5 52t-18.5 78.5q0 74 63.5 139.5t153.5 108.5q-36 -4 -59 -4q-92 0 -175 34.5t-149 100.5t-104.5 172.5
t-38.5 238.5q0 129 38.5 234t104 171.5t149 102t175.5 35.5t175.5 -35.5t149 -102t104 -171.5t38.5 -234zM543 39q81 0 153.5 30t131 88.5t93.5 155t35 219.5q0 121 -35 217t-93.5 154t-131.5 88.5t-153 30.5t-153 -30.5t-132 -88.5t-94 -154t-35 -217q0 -123 35 -220
t94 -155t131.5 -88t153.5 -30z" />
    <glyph glyph-name="Scommaaccent" unicode="&#x218;" horiz-adv-x="1177" 
d="M670 754q93 -18 161.5 -44t128 -69.5t90.5 -110.5t31 -157q0 -176 -124 -283.5t-361 -107.5q-121 0 -214.5 31.5t-151 88t-90 124t-44.5 149.5h58q12 -71 40.5 -128.5t79 -107t132.5 -77t190 -27.5q212 0 320 91.5t108 246.5q0 61 -18.5 111t-48.5 83.5t-73.5 59.5
t-87 41t-96.5 26l-225 47q-177 38 -263.5 125t-86.5 217q0 75 28 140t82.5 117t144.5 82t206 30q205 0 317 -92.5t139 -241.5h-55q-9 44 -26.5 82t-49.5 75.5t-75 64t-107.5 43t-142.5 16.5q-201 0 -302.5 -89t-101.5 -223q0 -119 79 -191t237 -105zM541 -395v26
q26 26 34.5 60t8.5 112v62h-43v102h90v-209q0 -69 -24.5 -109.5t-65.5 -43.5z" />
    <glyph glyph-name="scommaaccent" unicode="&#x219;" horiz-adv-x="940" 
d="M797 838q-71 188 -330 188q-147 0 -228 -63t-81 -156q0 -87 56 -137.5t187 -81.5l158 -39q84 -19 136.5 -38.5t96 -50t63 -76t19.5 -110.5q0 -77 -34 -134.5t-91.5 -90t-124.5 -48t-141 -15.5q-80 0 -149 17t-126.5 52.5t-94.5 94.5t-47 137h53q11 -56 37.5 -99.5
t60.5 -71t78.5 -45.5t89.5 -25t96 -7q66 0 124.5 13t108 39.5t78.5 73.5t29 109q0 44 -13 77t-31.5 54t-55 38.5t-68 27.5t-84.5 23l-200 49q-128 34 -196.5 94t-68.5 166q0 125 102 198.5t263 73.5q90 0 164.5 -23t133 -77.5t81.5 -136.5h-51zM434 -418v27q26 26 34.5 60
t8.5 112v61h-43v103h90v-209q0 -69 -24.5 -110t-65.5 -44z" />
    <glyph glyph-name="uni021A" unicode="&#x21a;" horiz-adv-x="1150" 
d="M66 1434h1019v-54h-481v-1380h-55v1380h-483v54zM526 -137v102h90v-209q0 -69 -24.5 -109.5t-65.5 -43.5v26q26 26 34.5 60t8.5 112v62h-43z" />
    <glyph glyph-name="uni021B" unicode="&#x21b;" horiz-adv-x="550" 
d="M352 39q65 0 123 18v-51q-58 -18 -145 -18q-58 0 -93.5 29t-35.5 94v905h-156v49h156v266h53v-266h199v-49h-199v-901q0 -41 22 -58.5t76 -17.5zM287 -135v102h90v-209q0 -69 -24.5 -109.5t-65.5 -43.5v26q26 26 34.5 60t8.5 112v62h-43z" />
    <glyph glyph-name="uni0237" unicode="&#x237;" horiz-adv-x="350" 
d="M-147 -348q78 -49 176 -49q68 0 104.5 45.5t36.5 132.5v1284h53v-1268q0 -136 -52 -192t-148 -56q-109 0 -170 50v53z" />
    <glyph glyph-name="circumflex" unicode="&#x2c6;" horiz-adv-x="505" 
d="M457 1204l-203 201l-205 -201h-49l219 248h68l219 -248h-49z" />
    <glyph glyph-name="caron" unicode="&#x2c7;" horiz-adv-x="505" 
d="M457 1434h49l-219 -248h-68l-219 248h49l205 -201z" />
    <glyph glyph-name="breve" unicode="&#x2d8;" horiz-adv-x="505" 
d="M459 1452h47q0 -39 -13 -75.5t-41 -70.5t-79.5 -54.5t-120.5 -20.5t-120.5 20.5t-78.5 54.5t-40 70.5t-13 75.5h47q15 -172 205 -172q192 0 207 172z" />
    <glyph glyph-name="dotaccent" unicode="&#x2d9;" horiz-adv-x="61" 
d="M0 1452h61v-152h-61v152z" />
    <glyph glyph-name="ring" unicode="&#x2da;" horiz-adv-x="311" 
d="M156 1190q-67 0 -111.5 44.5t-44.5 106.5q0 63 45 107.5t111 44.5t110.5 -44.5t44.5 -107.5t-44.5 -107t-110.5 -44zM156 1233q49 0 80.5 31.5t31.5 76.5t-31.5 77t-80.5 32q-47 0 -79 -32t-32 -77t32 -76.5t79 -31.5z" />
    <glyph glyph-name="ogonek" unicode="&#x2db;" horiz-adv-x="290" 
d="M266 -408q-29 -11 -64.5 -13t-71 6t-64.5 26.5t-47.5 52t-18.5 78.5q0 80 72 149t170 109h49q-101 -45 -168.5 -108t-67.5 -142q0 -68 55.5 -99t155.5 -16v-43z" />
    <glyph glyph-name="tilde" unicode="&#x2dc;" horiz-adv-x="618" 
d="M569 1434h49q0 -77 -51 -116.5t-116 -39.5q-37 0 -70 14.5t-57 35t-46.5 40.5t-49.5 34.5t-56 14.5q-66 0 -96.5 -34t-28.5 -74h-47q0 78 51 117.5t117 39.5q37 0 69 -14.5t55.5 -35t46 -40.5t49.5 -34.5t56 -14.5q67 0 97 34t28 73z" />
    <glyph glyph-name="hungarumlaut" unicode="&#x2dd;" horiz-adv-x="520" 
d="M0 1190h51l203 262h-61zM264 1190h51l203 262h-61z" />
    <glyph glyph-name="uni0326" unicode="&#x326;" horiz-adv-x="0" 
d="M-90 -395v26q26 26 34.5 60t8.5 112v62h-43v102h90v-209q0 -69 -24.5 -109.5t-65.5 -43.5z" />
    <glyph glyph-name="uni0394" unicode="&#x394;" horiz-adv-x="1509" 
d="M1403 0h-1297l633 1434h31zM1317 51l-561 1272l-563 -1272h1124z" />
    <glyph glyph-name="uni03A9" unicode="&#x3a9;" horiz-adv-x="1613" 
d="M1155 51h311v-51h-372v147l98 74q274 202 274 510q0 142 -58 269.5t-151 215t-211.5 138.5t-238.5 51t-238.5 -51t-212 -138.5t-151.5 -215t-58 -269.5q0 -307 275 -510l98 -74v-147h-373v51h312v84q-363 238 -363 596q0 152 60.5 287.5t160 228.5t228 147t262.5 54
t262.5 -54t228 -147t160 -228.5t60.5 -287.5q0 -358 -363 -596v-84z" />
    <glyph glyph-name="uni03BC" unicode="&#x3bc;" horiz-adv-x="1083" 
d="M903 1065h53v-1065h-53v279q-5 -27 -23 -62.5t-53 -76t-80.5 -75t-111.5 -57t-139 -22.5q-237 0 -326 172v-547h-53v1454h53v-651q0 -106 22.5 -180t66.5 -116.5t103 -61.5t140 -19q70 0 132 23.5t106 60t78.5 83t54.5 90t30 83.5v688z" />
    <glyph glyph-name="pi" unicode="&#x3c0;" horiz-adv-x="1275" 
d="M1040 39q68 0 140 37v-51q-7 -3 -23 -12t-21.5 -11.5t-18 -7t-24.5 -5.5t-28 -1q-86 0 -125 45.5t-39 159.5v821h-536v-1014h-54v1014h-205v51h1051v-51h-203v-862q0 -68 20 -90.5t66 -22.5z" />
    <glyph glyph-name="uni0401" unicode="&#x401;" horiz-adv-x="1075" 
d="M369 1821v-152h-62v152h62zM772 1821v-152h-63v152h63zM182 53h832v-53h-887v1434h866v-54h-811v-610h709v-49h-709v-668z" />
    <glyph glyph-name="uni0403" unicode="&#x403;" horiz-adv-x="976" 
d="M399 1559h52l202 262h-61zM911 1434v-54h-729v-1380h-55v1434h784z" />
    <glyph glyph-name="uni0404" unicode="&#x404;" horiz-adv-x="1288" 
d="M1165 287h62q-55 -142 -190.5 -223.5t-331.5 -81.5q-130 0 -239 45t-192.5 133t-130.5 230.5t-47 326.5t47 326.5t130.5 230.5t192.5 133t239 45q195 0 328.5 -82t185.5 -225h-60q-44 115 -163.5 184.5t-293.5 69.5q-112 0 -207.5 -37.5t-171 -112t-120.5 -197
t-51 -282.5h600v-49h-602v-4q0 -172 43 -305t119 -214t174.5 -122t215.5 -41q175 0 296 69.5t167 182.5z" />
    <glyph glyph-name="uni0407" unicode="&#x407;" horiz-adv-x="309" 
d="M-76 1821h62v-152h-62v152zM326 1821h63v-152h-63v152zM182 0h-55v1434h55v-1434z" />
    <glyph glyph-name="uni040C" unicode="&#x40c;" horiz-adv-x="1206" 
d="M778 1821l-203 -262h-51l193 262h61zM1090 0l-668 715l-240 -250v-465h-55v1434h55v-891l852 891h76l-651 -680l706 -754h-75z" />
    <glyph glyph-name="uni040E" unicode="&#x40e;" horiz-adv-x="1087" 
d="M750 1821h47q0 -39 -13 -75.5t-41 -71t-79.5 -55t-120.5 -20.5t-120.5 20.5t-78.5 55t-40 71t-13 75.5h47q15 -172 205 -172q192 0 207 172zM967 1434h55l-498 -1209q-52 -131 -138 -188t-189 -41v55q189 -25 280 201q23 58 27.5 84.5t-4.5 52.5l-434 1045h55l424 -1014z
" />
    <glyph glyph-name="uni0410" unicode="&#x410;" horiz-adv-x="1339" 
d="M1217 0l-183 449h-727l-182 -449h-59l583 1434h43l582 -1434h-57zM326 498h688l-344 848z" />
    <glyph glyph-name="uni0411" unicode="&#x411;" horiz-adv-x="1179" 
d="M596 877q228 0 352.5 -113.5t124.5 -323.5q0 -212 -124.5 -326t-352.5 -114h-469v1434h784v-54h-729v-503h414zM600 57q204 0 312 97.5t108 285.5q0 187 -108 284t-312 97h-418v-764h418z" />
    <glyph glyph-name="uni0412" unicode="&#x412;" horiz-adv-x="1214" 
d="M770 784q338 -84 338 -395q0 -185 -122.5 -287t-367.5 -102h-491v1434h494q204 0 302.5 -90.5t98.5 -243.5q0 -116 -60.5 -199t-191.5 -117zM182 1380v-571h463q149 0 236.5 79t87.5 218q0 56 -16.5 102t-53 86.5t-105.5 63t-165 22.5h-447zM629 53q218 0 322 90t104 252
q0 167 -118.5 264t-334.5 97h-420v-703h447z" />
    <glyph glyph-name="uni0413" unicode="&#x413;" horiz-adv-x="976" 
d="M911 1434v-54h-729v-1380h-55v1434h784z" />
    <glyph glyph-name="uni0414" unicode="&#x414;" horiz-adv-x="1388" 
d="M1198 51h129v-192h-53v141h-1155v-141h-53v192h79q26 29 46 65.5t35.5 72t27 93t19 99.5t13 122.5t8 132t4 157.5t1.5 168.5v195.5v23v254h899v-1383zM209 51h934v1329h-789v-200v-98v-162.5t-1 -143t-2.5 -135t-5 -116t-9 -108.5t-13.5 -91.5t-18.5 -86t-24.5 -69.5
t-31.5 -66t-39.5 -53z" />
    <glyph glyph-name="uni0415" unicode="&#x415;" horiz-adv-x="1075" 
d="M182 53h832v-53h-887v1434h866v-54h-811v-610h709v-49h-709v-668z" />
    <glyph glyph-name="uni0416" unicode="&#x416;" horiz-adv-x="1630" 
d="M1589 0h-69l-678 713v-713h-56v711l-675 -711h-70l698 739l-649 695h70l626 -666v666h56v-668l628 668h70l-653 -695z" />
    <glyph glyph-name="uni0417" unicode="&#x417;" horiz-adv-x="1126" 
d="M709 784q151 -29 243 -129t92 -258q0 -190 -134.5 -306t-354.5 -116q-224 0 -352.5 127.5t-130.5 339.5h53q2 -187 115 -301t313 -114q198 0 318 101t120 265q0 176 -124.5 269.5t-336.5 93.5h-32v49h32q98 0 172 24.5t117.5 67.5t64.5 95.5t21 113.5q0 130 -97.5 212.5
t-260.5 82.5q-167 0 -267 -103.5t-100 -302.5h-53q0 223 113 340t307 117q190 0 300.5 -100.5t110.5 -253.5q0 -68 -22.5 -125.5t-80 -109t-146.5 -79.5z" />
    <glyph glyph-name="uni0418" unicode="&#x418;" horiz-adv-x="1300" 
d="M127 1434h55v-1366h2l910 1366h80v-1434h-56v1372h-2l-909 -1372h-80v1434z" />
    <glyph glyph-name="uni0419" unicode="&#x419;" horiz-adv-x="1300" 
d="M856 1821h47q0 -39 -13 -75.5t-41 -71t-79.5 -55t-120.5 -20.5t-120.5 20.5t-78.5 55t-40 71t-13 75.5h47q15 -172 205 -172q192 0 207 172zM127 1434h55v-1366h2l910 1366h80v-1434h-56v1372h-2l-909 -1372h-80v1434z" />
    <glyph glyph-name="uni041A" unicode="&#x41a;" horiz-adv-x="1206" 
d="M1090 0l-668 715l-240 -250v-465h-55v1434h55v-891l852 891h76l-651 -680l706 -754h-75z" />
    <glyph glyph-name="uni041B" unicode="&#x41b;" horiz-adv-x="1370" 
d="M1243 1434v-1434h-55v1380h-801v-929q0 -131 -27.5 -225t-78 -145.5t-112 -74t-138.5 -20.5v53q53 -1 96 10.5t82 40.5t65.5 75t42 118t15.5 166v985h911z" />
    <glyph glyph-name="uni041C" unicode="&#x41c;" horiz-adv-x="1665" 
d="M127 1434h47l657 -1379l660 1379h47v-1434h-55v1288h-2l-617 -1288h-65l-615 1288h-2v-1288h-55v1434z" />
    <glyph glyph-name="uni041D" unicode="&#x41d;" horiz-adv-x="1282" 
d="M1100 1434h55v-1434h-55v668h-918v-668h-55v1434h55v-717h918v717z" />
    <glyph glyph-name="uni041E" unicode="&#x41e;" horiz-adv-x="1423" 
d="M713 1452q133 0 244 -45t194 -133.5t129.5 -230.5t46.5 -326t-46.5 -326t-129.5 -230.5t-194 -133.5t-244 -45t-244 45t-195 133.5t-131 230.5t-47 326t47 326t131 230.5t195 133.5t244 45zM713 35q124 0 224.5 40t177 120.5t118 213.5t41.5 308q0 140 -27.5 253.5
t-76.5 193t-119.5 132.5t-154.5 78t-183 25t-183.5 -25t-155 -78t-120 -132.5t-77 -193t-27.5 -253.5q0 -175 41.5 -307.5t118 -213.5t177.5 -121t226 -40z" />
    <glyph glyph-name="uni041F" unicode="&#x41f;" horiz-adv-x="1282" 
d="M1155 1434v-1434h-55v1380h-918v-1380h-55v1434h1028z" />
    <glyph glyph-name="uni0420" unicode="&#x420;" 
d="M596 1434q228 0 352.5 -113t124.5 -324q0 -207 -124.5 -319.5t-352.5 -112.5h-414v-565h-55v1434h469zM600 618q203 0 311.5 97.5t108.5 281.5q0 188 -108 285.5t-312 97.5h-418v-762h418z" />
    <glyph glyph-name="uni0421" unicode="&#x421;" horiz-adv-x="1288" 
d="M702 35q175 0 296 69.5t167 182.5h62q-55 -142 -190.5 -223.5t-331.5 -81.5q-130 0 -239 45t-192.5 133t-130.5 230.5t-47 326.5t47 326.5t130.5 230.5t192.5 133t239 45q195 0 328.5 -82t185.5 -225h-60q-44 115 -163.5 184.5t-293.5 69.5q-117 0 -215.5 -40.5
t-174.5 -121.5t-119 -214t-43 -306q0 -172 43 -305t119 -214t174.5 -122t215.5 -41z" />
    <glyph glyph-name="uni0422" unicode="&#x422;" horiz-adv-x="1150" 
d="M1085 1434v-54h-481v-1380h-55v1380h-483v54h1019z" />
    <glyph glyph-name="uni0423" unicode="&#x423;" horiz-adv-x="1087" 
d="M967 1434h55l-498 -1209q-52 -131 -138 -188t-189 -41v55q189 -25 280 201q23 58 27.5 84.5t-4.5 52.5l-434 1045h55l424 -1014z" />
    <glyph glyph-name="uni0424" unicode="&#x424;" horiz-adv-x="1425" 
d="M1329 717q0 -146 -44 -260t-124 -186.5t-186 -111t-236 -42.5v-148h-55v148q-129 4 -235.5 42.5t-186 111t-123 186.5t-43.5 260t43.5 260t123 186.5t186 111t235.5 42.5v147h55v-147q130 -4 236 -42.5t186 -111t124 -186.5t44 -260zM739 162q117 4 213 39t169.5 101
t114 172t40.5 243q0 136 -40.5 242t-114 172.5t-169.5 101.5t-213 39v-1110zM150 717q0 -136 40.5 -242t113.5 -172.5t168.5 -101.5t211.5 -39v1110q-116 -4 -211.5 -39.5t-168.5 -102t-113.5 -172t-40.5 -241.5z" />
    <glyph glyph-name="uni0425" unicode="&#x425;" horiz-adv-x="1261" 
d="M1206 0h-63l-512 698l-512 -698h-64l545 741l-508 693h64l475 -650l475 650h63l-505 -693z" />
    <glyph glyph-name="uni0426" unicode="&#x426;" horiz-adv-x="1271" 
d="M1155 53h51v-342h-53v289h-1026v1434h55v-1381h918v1381h55v-1381z" />
    <glyph glyph-name="uni0427" unicode="&#x427;" horiz-adv-x="1224" 
d="M1042 1434h56v-1434h-56v649q-4 -26 -29 -62.5t-71.5 -77.5t-106.5 -76t-143.5 -58t-173.5 -23q-65 0 -124 13.5t-114 46t-95.5 80.5t-64.5 121.5t-24 164.5v656h56v-654q0 -105 30.5 -180.5t86 -117t121.5 -60.5t147 -19q84 0 162 23.5t135 60t102.5 82t71.5 90t34 82.5
v693z" />
    <glyph glyph-name="uni0428" unicode="&#x428;" horiz-adv-x="1531" 
d="M1350 1434h55v-1434h-1278v1434h55v-1381h557v1381h54v-1381h557v1381z" />
    <glyph glyph-name="uni0429" unicode="&#x429;" horiz-adv-x="1533" 
d="M1350 1434h55v-1434h-1278v1434h55v-1381h557v1381h54v-1381h557v1381zM1468 53v-342h-57v342h57z" />
    <glyph glyph-name="uni042A" unicode="&#x42a;" horiz-adv-x="1277" 
d="M694 877q228 0 352.5 -113.5t124.5 -323.5q0 -212 -124.5 -326t-352.5 -114h-469v1380h-159v54h215v-557h413zM698 57q204 0 312 97.5t108 285.5q0 187 -108 284t-312 97h-417v-764h417z" />
    <glyph glyph-name="uni042B" unicode="&#x42b;" horiz-adv-x="1415" 
d="M596 877q228 0 352.5 -113.5t124.5 -323.5q0 -212 -124.5 -326t-352.5 -114h-469v1434h55v-557h414zM1235 1434h55v-1434h-55v1434zM600 57q204 0 312 97.5t108 285.5q0 187 -108 284t-312 97h-418v-764h418z" />
    <glyph glyph-name="uni042C" unicode="&#x42c;" horiz-adv-x="1179" 
d="M596 877q228 0 352.5 -113.5t124.5 -323.5q0 -212 -124.5 -326t-352.5 -114h-469v1434h55v-557h414zM600 57q204 0 312 97.5t108 285.5q0 187 -108 284t-312 97h-418v-764h418z" />
    <glyph glyph-name="uni042D" unicode="&#x42d;" horiz-adv-x="1323" 
d="M618 1452q130 0 239 -45t192.5 -133t130.5 -230.5t47 -326.5t-47 -326.5t-130.5 -230.5t-192.5 -133t-239 -45q-196 0 -331.5 81.5t-190.5 223.5h62q46 -113 167 -182.5t296 -69.5q117 0 215.5 41t175 122t119.5 214t43 305v4h-605v49h602q-6 160 -51 282.5t-120.5 197
t-171 112t-207.5 37.5q-174 0 -293.5 -69.5t-163.5 -184.5h-60q52 143 185.5 225t328.5 82z" />
    <glyph glyph-name="uni042E" unicode="&#x42e;" horiz-adv-x="1763" 
d="M1053 1452q133 0 244 -45t194 -133.5t129.5 -230.5t46.5 -326t-46.5 -326t-129.5 -230.5t-194 -133.5t-244 -45q-129 0 -237 42t-191 125t-132.5 215.5t-56.5 303.5h-254v-668h-55v1434h55v-717h254q0 184 47 326t131 230.5t195 133.5t244 45zM1053 35q124 0 224.5 40
t177 120.5t118 213.5t41.5 308q0 140 -27.5 253.5t-76.5 193t-119.5 132.5t-154.5 78t-183 25q-125 0 -226 -40t-177.5 -121t-118.5 -213.5t-42 -307.5t42 -307.5t118.5 -213.5t177.5 -121t226 -40z" />
    <glyph glyph-name="uni042F" unicode="&#x42f;" horiz-adv-x="1202" 
d="M1075 1434v-1434h-55v639h-543q-41 0 -74 -4t-70 -13.5t-64 -29t-50 -48.5t-35 -73.5t-12 -101.5v-129q0 -207 -41 -240h-55q41 30 41 240v127q0 139 58.5 211.5t186.5 91.5q-128 43 -192 140.5t-64 231.5q0 190 115.5 291t337.5 101h516zM1020 688v696h-463
q-397 0 -397 -346q0 -162 99 -256t247 -94h514z" />
    <glyph glyph-name="uni0430" unicode="&#x430;" horiz-adv-x="1052" 
d="M915 109q0 -42 16.5 -56.5t65.5 -11.5v-43q-18 -6 -34 -6q-57 0 -79 28t-22 109v131q-13 -29 -35 -61t-62 -71t-88.5 -70t-117.5 -51.5t-145 -20.5q-156 0 -247 82.5t-91 224.5q0 59 16 105.5t55 88.5t111.5 71.5t177.5 43.5t158.5 22t141 27t126.5 39v27
q0 167 -74.5 237t-257.5 70q-297 0 -329 -188h-54q18 119 119.5 179t265.5 60q191 0 287 -85.5t96 -287.5v-593zM862 344v299q-54 -36 -426 -88q-171 -24 -239 -86t-68 -176q0 -122 77 -190t208 -68q81 0 153 26t119.5 62t87 82.5t58.5 79t30 59.5z" />
    <glyph glyph-name="uni0431" unicode="&#x431;" horiz-adv-x="1103" 
d="M559 1081q96 0 180 -35.5t149 -102.5t102.5 -173.5t37.5 -239.5q0 -131 -39 -237.5t-105 -173t-149 -102t-174 -35.5q-93 0 -176 35.5t-149 104t-104 180.5t-36 253v455q2 204 112.5 314t317.5 110h203q111 0 156 45h63q-41 -57 -93.5 -76t-162.5 -19h-166
q-177 0 -278 -91t-101 -261v-227q33 75 83 131t107 86t112 44.5t110 14.5zM561 35q81 0 153 30t131 88.5t93.5 155.5t34.5 221q0 123 -34.5 220t-93 156t-131 89.5t-153.5 30.5q-80 0 -153 -30t-132 -88.5t-94 -155t-35 -217.5q0 -122 35.5 -220t94.5 -157.5t131.5 -91
t152.5 -31.5z" />
    <glyph glyph-name="uni0432" unicode="&#x432;" horiz-adv-x="1067" 
d="M762 584q119 -32 174 -106.5t55 -168.5q0 -75 -21 -130t-68 -96.5t-128.5 -62t-198.5 -20.5h-448v1065h448q340 0 340 -262q0 -71 -39.5 -132.5t-113.5 -86.5zM180 1010v-400h402q146 0 214 46.5t68 160.5q0 193 -289 193h-395zM573 55q106 0 179.5 17.5t113.5 51.5
t57 76t17 99q0 53 -17 96.5t-56 81t-112 59t-175 21.5h-400v-502h393z" />
    <glyph glyph-name="uni0433" unicode="&#x433;" horiz-adv-x="808" 
d="M743 1065v-49h-563v-1016h-53v1065h616z" />
    <glyph glyph-name="uni0434" unicode="&#x434;" horiz-adv-x="1116" 
d="M997 49h54v-199h-52v150h-884v-150h-49v199h49q23 29 39.5 66.5t26.5 99t16 111t8.5 151.5t3 168.5t0.5 211.5v9.5v9v9.5v180h788v-1016zM170 49h774v967h-682v-131v-54v-176t-2 -146t-5.5 -133.5t-9.5 -104.5t-16 -94.5t-24.5 -68t-34.5 -59.5z" />
    <glyph glyph-name="uni0435" unicode="&#x435;" horiz-adv-x="1071" 
d="M995 551q0 -33 -2 -51h-862q7 -231 124 -348t300 -117q117 0 193 31.5t143 115.5h63q-78 -107 -171 -151.5t-228 -44.5q-218 0 -348.5 142t-130.5 402q0 131 37.5 236.5t102 172t149 101.5t180.5 35q196 0 323 -138.5t127 -385.5zM131 553h813q-3 230 -113.5 351.5
t-285.5 121.5q-171 0 -289.5 -122t-124.5 -351z" />
    <glyph glyph-name="uni0436" unicode="&#x436;" horiz-adv-x="1294" 
d="M1260 0h-68l-520 512v-512h-54v512l-522 -512h-65l555 547l-533 518h68l497 -483v483h54v-483l497 483h66l-530 -518z" />
    <glyph glyph-name="uni0437" unicode="&#x437;" horiz-adv-x="987" 
d="M602 565q138 -18 218.5 -89.5t80.5 -184.5q0 -140 -114.5 -224.5t-311.5 -84.5q-180 0 -289.5 99t-109.5 247h53q0 -128 95.5 -211.5t250.5 -83.5q170 0 272.5 69.5t102.5 182.5q0 67 -33.5 118t-91 80t-128.5 43t-153 13v49q164 3 254 61t90 172q0 88 -86 148.5
t-219 60.5q-142 0 -225.5 -73t-83.5 -173h-53q0 122 97.5 208.5t264.5 86.5q163 0 259 -78t96 -190q0 -193 -236 -246z" />
    <glyph glyph-name="uni0438" unicode="&#x438;" horiz-adv-x="1134" 
d="M127 1065h53v-1014h4l746 1014h78v-1065h-54v1018h-2l-747 -1018h-78v1065z" />
    <glyph glyph-name="uni0439" unicode="&#x439;" horiz-adv-x="1134" 
d="M774 1452h47q0 -39 -13 -75.5t-41 -70.5t-79.5 -54.5t-120.5 -20.5t-120.5 20.5t-78.5 54.5t-40 70.5t-13 75.5h47q15 -172 205 -172q192 0 207 172zM127 1065h53v-1014h4l746 1014h78v-1065h-54v1018h-2l-747 -1018h-78v1065z" />
    <glyph glyph-name="uni043A" unicode="&#x43a;" horiz-adv-x="1030" 
d="M924 0l-498 555l-246 -252v-303h-53v1065h53v-692l672 692h72l-463 -473l534 -592h-71z" />
    <glyph glyph-name="uni043B" unicode="&#x43b;" horiz-adv-x="1171" 
d="M1044 1065v-1065h-57l2 1016h-627v-576q0 -132 -23.5 -223t-69.5 -140.5t-103.5 -69t-134.5 -17.5v49q67 -1 115 16.5t86.5 61t57.5 123.5t19 198v627h735z" />
    <glyph glyph-name="uni043C" unicode="&#x43c;" horiz-adv-x="1359" 
d="M127 1065h45l508 -1006l508 1006h45v-1065h-53v924h-2l-467 -924h-62l-467 924h-2v-924h-53v1065z" />
    <glyph glyph-name="uni043D" unicode="&#x43d;" horiz-adv-x="1011" 
d="M831 1065h54v-1065h-54v528h-651v-528h-53v1065h53v-487h651v487z" />
    <glyph glyph-name="uni043E" unicode="&#x43e;" horiz-adv-x="1085" 
d="M543 1075q92 0 175.5 -35.5t149 -102t104 -171.5t38.5 -234q0 -132 -38.5 -238.5t-104.5 -172.5t-149 -100.5t-175 -34.5t-175 34.5t-149 100.5t-104.5 172.5t-38.5 238.5q0 129 38.5 234t104 171.5t149 102t175.5 35.5zM956 532q0 121 -35 217t-93.5 154t-131.5 88.5
t-153 30.5t-153 -30.5t-132 -88.5t-94 -154t-35 -217q0 -123 35 -220t94 -155t131.5 -88t153.5 -30t153.5 30t131 88.5t93.5 155t35 219.5z" />
    <glyph glyph-name="uni043F" unicode="&#x43f;" horiz-adv-x="1040" 
d="M913 1065v-1065h-53v1016h-680v-1016h-53v1065h786z" />
    <glyph glyph-name="uni0440" unicode="&#x440;" horiz-adv-x="1142" 
d="M594 1075q77 0 146 -21t129 -65t104 -107t69 -153t25 -197q0 -134 -37.5 -239.5t-103.5 -171.5t-151 -100.5t-183 -34.5q-280 0 -412 286v-661h-53v1454h53v-256q64 134 172 200t242 66zM596 39q83 0 156.5 29.5t133.5 88t95 155t35 220.5q0 123 -35 219t-95 154
t-133.5 87.5t-156.5 29.5t-156 -28.5t-133.5 -85.5t-95.5 -153.5t-35 -222.5q0 -121 35.5 -217.5t95 -155t133.5 -89.5t156 -31z" />
    <glyph glyph-name="uni0441" unicode="&#x441;" horiz-adv-x="1034" 
d="M553 35q137 0 229 57t140 182h51q-96 -288 -418 -288q-95 0 -180 34.5t-152.5 100t-107 171.5t-39.5 238q0 133 39.5 239t106.5 171.5t151.5 100t179.5 34.5q150 0 258 -70.5t158 -211.5h-54q-95 233 -364 233q-64 0 -124.5 -18t-115 -57.5t-95.5 -96t-65 -140
t-24 -184.5q0 -126 36.5 -224t98.5 -155.5t136 -86.5t155 -29z" />
    <glyph glyph-name="uni0442" unicode="&#x442;" horiz-adv-x="880" 
d="M819 1065v-49h-352v-1016h-53v1016h-353v49h758z" />
    <glyph glyph-name="uni0443" unicode="&#x443;" horiz-adv-x="1026" 
d="M913 1065h58l-477 -1208q-52 -132 -138 -189t-190 -41v51q94 -15 169.5 36.5t117.5 166.5q5 13 12 31.5t9.5 26l6 18t3.5 15.5t-1 11.5t-4 12.5l-424 1069h56l403 -1032z" />
    <glyph glyph-name="uni0444" unicode="&#x444;" horiz-adv-x="1159" 
d="M1083 530q0 -129 -37 -233t-102.5 -171t-151.5 -103.5t-188 -40.5v-361h-49v361q-102 4 -188 40.5t-151.5 103.5t-102.5 171t-37 233t37 233t102 171t151.5 104t188.5 41v361h49v-361q102 -4 188.5 -41t151.5 -104t102 -171t37 -233zM127 530q0 -122 34.5 -217.5t94 -155
t135.5 -91t164 -35.5v999q-88 -4 -164 -36t-135.5 -91.5t-94 -155.5t-34.5 -217zM604 31q89 4 165 35.5t135.5 91t93.5 155t34 217.5q0 121 -34 217t-93.5 155.5t-135.5 91.5t-165 36v-999z" />
    <glyph glyph-name="uni0445" unicode="&#x445;" horiz-adv-x="983" 
d="M918 0h-68l-358 500l-359 -500h-67l399 543l-387 522h63l351 -477l350 477h63l-387 -522z" />
    <glyph glyph-name="uni0446" unicode="&#x446;" horiz-adv-x="1017" 
d="M913 49h50v-336h-54v287h-782v1065h53v-1016h680v1016h53v-1016z" />
    <glyph glyph-name="uni0447" unicode="&#x447;" horiz-adv-x="1042" 
d="M862 1065h53v-1065h-53v563q-6 -34 -34.5 -79t-76.5 -91.5t-126 -78t-168 -31.5q-82 0 -148.5 21t-120 67t-83 126t-29.5 189v379h53v-383q0 -97 24.5 -166t70.5 -108t104 -56.5t133 -17.5q71 0 133.5 22t106 56t78 78.5t54 84.5t29.5 78v412z" />
    <glyph glyph-name="uni0448" unicode="&#x448;" horiz-adv-x="1486" 
d="M1307 1065h53v-1065h-1233v1065h53v-1016h537v1016h53v-1016h537v1016z" />
    <glyph glyph-name="uni0449" unicode="&#x449;" horiz-adv-x="1462" 
d="M1360 49h47v-336h-51v287h-1229v1065h53v-1016h537v1016h53v-1016h537v1016h53v-1016z" />
    <glyph glyph-name="uni044A" unicode="&#x44a;" horiz-adv-x="1134" 
d="M639 651q205 0 312.5 -83.5t107.5 -241.5q0 -157 -107.5 -241.5t-312.5 -84.5h-389v1016h-184v49h237v-414h336zM645 49q361 0 361 277q0 131 -84 203.5t-277 72.5h-342v-553h342z" />
    <glyph glyph-name="uni044B" unicode="&#x44b;" horiz-adv-x="1249" 
d="M516 651q205 0 312.5 -83.5t107.5 -241.5q0 -157 -107.5 -241.5t-312.5 -84.5h-389v1065h53v-414h336zM1069 1065h53v-1065h-53v1065zM522 49q361 0 361 277q0 131 -84 203.5t-277 72.5h-342v-553h342z" />
    <glyph glyph-name="uni044C" unicode="&#x44c;" horiz-adv-x="1011" 
d="M516 651q205 0 312.5 -83.5t107.5 -241.5q0 -157 -107.5 -241.5t-312.5 -84.5h-389v1065h53v-414h336zM522 49q361 0 361 277q0 131 -84 203.5t-277 72.5h-342v-553h342z" />
    <glyph glyph-name="uni044D" unicode="&#x44d;" horiz-adv-x="1048" 
d="M496 1075q95 0 179.5 -34.5t151.5 -100t106.5 -171.5t39.5 -239q0 -132 -39.5 -238t-107 -171.5t-152.5 -100t-180 -34.5q-322 0 -418 288h51q48 -125 140 -182t229 -57q81 0 155 29t136 86.5t98.5 155.5t36.5 224h-430v48h428q-7 113 -45.5 201.5t-98 141t-130.5 79
t-148 26.5q-270 0 -365 -233h-53q50 141 158 211.5t258 70.5z" />
    <glyph glyph-name="uni044E" unicode="&#x44e;" horiz-adv-x="1355" 
d="M813 1075q92 0 175.5 -35.5t149 -102t104 -171.5t38.5 -234q0 -132 -38.5 -238.5t-104.5 -172.5t-149 -100.5t-175 -34.5q-90 0 -171.5 33.5t-146.5 96.5t-105 163.5t-44 226.5h-166v-508h-53v1065h53v-508h166q4 124 44 224.5t105 164t146.5 97.5t171.5 34zM813 39
q81 0 153.5 30t131.5 88t94 155t35 220q0 121 -35 217t-94 154t-132 88.5t-153 30.5t-153 -30.5t-132 -88.5t-94 -154t-35 -217q0 -123 35 -220t94 -155t131.5 -88t153.5 -30z" />
    <glyph glyph-name="uni044F" unicode="&#x44f;" horiz-adv-x="1011" 
d="M885 1065v-1065h-54v414h-471q-120 0 -167.5 -37t-47.5 -121v-98q0 -137 -30 -158h-54q31 22 31 158v98q0 83 37.5 133t126.5 66q-180 77 -180 284q0 157 107.5 241.5t312.5 84.5h389zM831 463v553h-342q-360 0 -360 -277q0 -131 83.5 -203.5t276.5 -72.5h342z" />
    <glyph glyph-name="uni0451" unicode="&#x451;" horiz-adv-x="1071" 
d="M371 1452v-152h-62v152h62zM774 1452v-152h-63v152h63zM995 551q0 -33 -2 -51h-862q7 -231 124 -348t300 -117q117 0 193 31.5t143 115.5h63q-78 -107 -171 -151.5t-228 -44.5q-218 0 -348.5 142t-130.5 402q0 131 37.5 236.5t102 172t149 101.5t180.5 35
q196 0 323 -138.5t127 -385.5zM131 553h813q-3 230 -113.5 351.5t-285.5 121.5q-171 0 -289.5 -122t-124.5 -351z" />
    <glyph glyph-name="uni0453" unicode="&#x453;" horiz-adv-x="808" 
d="M328 1190h51l203 262h-62zM743 1065v-49h-563v-1016h-53v1065h616z" />
    <glyph glyph-name="uni0454" unicode="&#x454;" horiz-adv-x="1034" 
d="M922 274h51q-96 -288 -418 -288q-95 0 -180 34.5t-152.5 100t-107 171.5t-39.5 238q0 133 39.5 239t106.5 171.5t151.5 100t179.5 34.5q150 0 258 -70.5t158 -211.5h-54q-95 233 -364 233q-77 0 -148 -26.5t-130.5 -79t-98 -141t-45.5 -201.5h428v-48h-430
q0 -126 36.5 -224t98.5 -155.5t136 -86.5t155 -29q137 0 229 57t140 182z" />
    <glyph glyph-name="uni0457" unicode="&#x457;" horiz-adv-x="307" 
d="M-78 1452h62v-152h-62v152zM324 1452h63v-152h-63v152zM127 1065h53v-1065h-53v1065z" />
    <glyph glyph-name="uni045C" unicode="&#x45c;" horiz-adv-x="1030" 
d="M692 1452l-203 -262h-51l193 262h61zM924 0l-498 555l-246 -252v-303h-53v1065h53v-692l672 692h72l-463 -473l534 -592h-71z" />
    <glyph glyph-name="uni045E" unicode="&#x45e;" horiz-adv-x="1026" 
d="M719 1452h47q0 -39 -13 -75.5t-41 -70.5t-79.5 -54.5t-120.5 -20.5t-120.5 20.5t-78.5 54.5t-40 70.5t-13 75.5h47q15 -172 205 -172q192 0 207 172zM913 1065h58l-477 -1208q-52 -132 -138 -189t-190 -41v51q94 -15 169.5 36.5t117.5 166.5q5 13 12 31.5t9.5 26l6 18
t3.5 15.5t-1 11.5t-4 12.5l-424 1069h56l403 -1032z" />
    <glyph glyph-name="uni0490" unicode="&#x490;" horiz-adv-x="976" 
d="M858 1638h53v-258h-729v-1380h-55v1434h731v204z" />
    <glyph glyph-name="uni0491" unicode="&#x491;" horiz-adv-x="808" 
d="M692 1200h51v-184h-563v-1016h-53v1065h565v135z" />
    <glyph glyph-name="Wgrave" unicode="&#x1e80;" horiz-adv-x="1992" 
d="M1071 1559l-192 262h-62l203 -262h51zM1870 1434h57l-420 -1434h-59l-453 1376l-452 -1376h-58l-419 1434h57l393 -1360l445 1360h71l445 -1360z" />
    <glyph glyph-name="wgrave" unicode="&#x1e81;" horiz-adv-x="1626" 
d="M891 1190l-193 262h-61l203 -262h51zM1571 1065l-330 -1065h-65l-363 989l-364 -989h-64l-330 1065h56l307 -1006l370 1006h50l370 -1006l308 1006h55z" />
    <glyph glyph-name="Wacute" unicode="&#x1e82;" horiz-adv-x="1992" 
d="M918 1559h51l202 262h-61zM1870 1434h57l-420 -1434h-59l-453 1376l-452 -1376h-58l-419 1434h57l393 -1360l445 1360h71l445 -1360z" />
    <glyph glyph-name="wacute" unicode="&#x1e83;" horiz-adv-x="1626" 
d="M737 1190h51l203 262h-61zM1571 1065l-330 -1065h-65l-363 989l-364 -989h-64l-330 1065h56l307 -1006l370 1006h50l370 -1006l308 1006h55z" />
    <glyph glyph-name="Wdieresis" unicode="&#x1e84;" horiz-adv-x="1992" 
d="M764 1821h61v-152h-61v152zM1165 1821h64v-152h-64v152zM1870 1434h57l-420 -1434h-59l-453 1376l-452 -1376h-58l-419 1434h57l393 -1360l445 1360h71l445 -1360z" />
    <glyph glyph-name="wdieresis" unicode="&#x1e85;" horiz-adv-x="1626" 
d="M584 1452h61v-152h-61v152zM985 1452h64v-152h-64v152zM1571 1065l-330 -1065h-65l-363 989l-364 -989h-64l-330 1065h56l307 -1006l370 1006h50l370 -1006l308 1006h55z" />
    <glyph glyph-name="uni1E9E" unicode="&#x1e9e;" horiz-adv-x="1218" 
d="M645 856q215 -12 346 -135t131 -307q0 -203 -114.5 -318.5t-302.5 -115.5q-176 0 -289 103t-113 282h53q0 -142 93 -237t256 -95q116 0 199.5 51.5t123 136.5t39.5 195q0 183 -133.5 291t-378.5 108l389 584h-547q-125 0 -170 -52t-45 -171v-1176h-55v1167q0 163 64 224
t215 61h636z" />
    <glyph glyph-name="Ygrave" unicode="&#x1ef2;" horiz-adv-x="1247" 
d="M698 1559l-192 262h-62l203 -262h51zM649 588v-588h-51v588l-532 846h61l496 -791l497 791h62z" />
    <glyph glyph-name="ygrave" unicode="&#x1ef3;" horiz-adv-x="1026" 
d="M598 1190l-192 262h-62l203 -262h51zM913 1065h58l-477 -1208q-52 -132 -138 -189t-190 -41v51q94 -15 169.5 36.5t117.5 166.5q5 13 12 31.5t9.5 26l6 18t3.5 15.5t-1 11.5t-4 12.5l-424 1069h56l403 -1032z" />
    <glyph glyph-name="endash" unicode="&#x2013;" horiz-adv-x="1228" 
d="M92 604h1045v-49h-1045v49z" />
    <glyph glyph-name="emdash" unicode="&#x2014;" horiz-adv-x="1351" 
d="M92 604h1168v-49h-1168v49z" />
    <glyph glyph-name="quoteleft" unicode="&#x2018;" horiz-adv-x="253" 
d="M172 1434v-27q-26 -26 -34.5 -60t-8.5 -112v-61h43v-103h-90v209q0 69 24.5 110t65.5 44z" />
    <glyph glyph-name="quoteright" unicode="&#x2019;" horiz-adv-x="253" 
d="M82 1071v27q26 26 34.5 60t8.5 112v61h-43v103h90v-209q0 -69 -24.5 -110t-65.5 -44z" />
    <glyph glyph-name="quotesinglbase" unicode="&#x201a;" horiz-adv-x="253" 
d="M82 -260v27q26 26 34.5 60t8.5 112v61h-43v102h90v-208q0 -69 -24.5 -110t-65.5 -44z" />
    <glyph glyph-name="quotedblleft" unicode="&#x201c;" horiz-adv-x="454" 
d="M172 1436v-27q-26 -26 -34.5 -60t-8.5 -112v-61h43v-103h-90v209q0 69 24.5 110t65.5 44zM371 1436v-27q-26 -26 -34.5 -60t-8.5 -112v-61h43v-103h-90v209q0 69 24.5 110t65.5 44z" />
    <glyph glyph-name="quotedblright" unicode="&#x201d;" horiz-adv-x="454" 
d="M84 1071v27q26 26 34.5 60t8.5 112v61h-43v103h90v-209q0 -69 -24.5 -110t-65.5 -44zM283 1071v27q26 26 34.5 60t8.5 112v61h-43v103h90v-209q0 -69 -24.5 -110t-65.5 -44z" />
    <glyph glyph-name="quotedblbase" unicode="&#x201e;" horiz-adv-x="454" 
d="M84 -260v27q26 26 34.5 60t8.5 112v61h-43v102h90v-208q0 -69 -24.5 -110t-65.5 -44zM283 -260v27q26 26 34.5 60t8.5 112v61h-43v102h90v-208q0 -69 -24.5 -110t-65.5 -44z" />
    <glyph glyph-name="dagger" unicode="&#x2020;" horiz-adv-x="546" 
d="M444 1227v-45h-145v-535h-49v535h-148v45h148v207h49v-207h145z" />
    <glyph glyph-name="daggerdbl" unicode="&#x2021;" horiz-adv-x="546" 
d="M444 1047h-145v-660h145v-45h-145v-342h-49v342h-148v45h148v660h-148v45h148v342h49v-342h145v-45z" />
    <glyph glyph-name="bullet" unicode="&#x2022;" horiz-adv-x="505" 
d="M254 389q-64 0 -108 44.5t-44 107.5q0 62 44 105.5t108 43.5q62 0 105.5 -44t43.5 -105q0 -63 -43.5 -107.5t-105.5 -44.5z" />
    <glyph glyph-name="ellipsis" unicode="&#x2026;" horiz-adv-x="1306" 
d="M102 102h91v-102h-91v102zM608 102h90v-102h-90v102zM1114 102h90v-102h-90v102z" />
    <glyph glyph-name="perthousand" unicode="&#x2030;" horiz-adv-x="2113" 
d="M334 862q-105 0 -173.5 80t-68.5 211t69 211t173 80q105 0 175.5 -80t70.5 -211t-70.5 -211t-175.5 -80zM285 0l839 1436l52 -2l-840 -1434h-51zM334 909q90 0 144 64t54 180t-54 180t-144 64q-87 0 -142 -64.5t-55 -179.5t55 -179.5t142 -64.5zM1118 -10q-105 0 -173 80
t-68 211q0 130 69.5 210t171.5 80q106 0 176 -79.5t70 -210.5t-70 -211t-176 -80zM1776 -12q-104 0 -173 80.5t-69 210.5q0 131 69 211.5t173 80.5q105 0 175 -80.5t70 -211.5q0 -130 -70 -210.5t-175 -80.5zM1118 37q90 0 145.5 64t55.5 180t-55.5 179.5t-145.5 63.5
q-87 0 -140.5 -63.5t-53.5 -179.5t53.5 -180t140.5 -64zM1776 35q90 0 144 64t54 180q0 117 -54 181t-144 64q-88 0 -142.5 -64t-54.5 -181q0 -115 55 -179.5t142 -64.5z" />
    <glyph glyph-name="guilsinglleft" unicode="&#x2039;" horiz-adv-x="423" 
d="M342 795l-205 -183l205 -184v-70l-260 234v39l260 233v-69z" />
    <glyph glyph-name="guilsinglright" unicode="&#x203a;" horiz-adv-x="366" 
d="M35 795v69l260 -233v-39l-260 -234v70l205 184z" />
    <glyph glyph-name="fraction" unicode="&#x2044;" horiz-adv-x="296" 
d="M-276 0h-43l892 1434h43z" />
    <glyph glyph-name="Euro" unicode="&#x20ac;" horiz-adv-x="1380" 
d="M1257 287h62q-55 -142 -190.5 -223.5t-331.5 -81.5q-117 0 -217.5 36t-180.5 107.5t-133 186t-69 263.5h-125v46h121q-5 77 -5 96q0 43 2 63h-118v45h121q14 157 65.5 278t132.5 196.5t183.5 114t222.5 38.5q195 0 328.5 -82t185.5 -225h-60q-44 115 -163 184.5
t-293 69.5q-107 0 -199.5 -34.5t-167 -103t-122 -180t-60.5 -256.5h461v-45h-463q-2 -20 -2 -63q0 -34 4 -96h461v-46h-457q16 -136 65.5 -241t122.5 -169.5t163 -97t194 -32.5q175 0 295.5 69.5t166.5 182.5z" />
    <glyph glyph-name="trademark" unicode="&#x2122;" horiz-adv-x="968" 
d="M403 1386h-135v-321h-51v321h-135v48h321v-48zM887 1434v-369h-51v270l-134 -270h-36l-134 270v-270h-51v369h51l152 -306l152 306h51z" />
    <glyph glyph-name="partialdiff" unicode="&#x2202;" horiz-adv-x="1153" 
d="M561 965q162 0 277.5 -76.5t169.5 -235.5q1 136 -12 246.5t-45.5 206t-83.5 160t-130 101t-182 36.5q-86 0 -153.5 -25.5t-108 -68t-63.5 -90.5t-29 -101h-47q13 141 119.5 237.5t281.5 96.5q88 0 160 -23.5t123.5 -64t90.5 -100t63 -125t39 -145.5t20.5 -155.5
t5.5 -160.5q0 -333 -120 -514.5t-364 -181.5q-115 0 -206 39.5t-147 108.5t-85 157t-29 190q0 100 29.5 187.5t85 155t143 106.5t197.5 39zM575 31q105 0 186.5 41t130 110.5t73 155.5t24.5 184q0 77 -31 148.5t-85 126.5t-133.5 88t-170.5 33q-201 0 -307 -122t-106 -319
q0 -198 109.5 -322t309.5 -124z" />
    <glyph glyph-name="product" unicode="&#x220f;" horiz-adv-x="1277" 
d="M92 1638h1094v-2027h-45v1980h-1004v-1980h-45v2027z" />
    <glyph glyph-name="summation" unicode="&#x2211;" horiz-adv-x="1302" 
d="M1210 1585h-1030l537 -960l-537 -961h1030v-53h-1118l563 1014l-563 1013h1118v-53z" />
    <glyph glyph-name="minus" unicode="&#x2212;" horiz-adv-x="870" 
d="M80 571h551v-49h-551v49z" />
    <glyph glyph-name="radical" unicode="&#x221a;" horiz-adv-x="1382" 
d="M1290 1638l-579 -2027h-37l-373 989h-209v49h240l356 -944l553 1933h49z" />
    <glyph glyph-name="infinity" unicode="&#x221e;" horiz-adv-x="1611" 
d="M1196 862q133 0 226.5 -95t93.5 -230q0 -139 -93 -235.5t-227 -96.5q-116 0 -207 71.5t-182 210.5q-93 -140 -183 -211t-204 -71q-136 0 -230 96t-94 236q0 135 94 230t230 95q114 0 203.5 -70t183.5 -208q91 137 182.5 207.5t206.5 70.5zM422 260q54 0 105 22.5
t95.5 65.5t78 86.5t71.5 102.5q-37 57 -71.5 100t-78.5 83.5t-94.5 62.5t-105.5 22q-116 0 -191 -74.5t-75 -193.5q0 -121 75 -199t191 -78zM1190 260q116 0 191 78t75 199q0 119 -75 193.5t-191 74.5q-55 0 -105.5 -22t-94.5 -62.5t-78.5 -83.5t-71.5 -100
q38 -59 71.5 -102.5t78 -86.5t95.5 -65.5t105 -22.5z" />
    <glyph glyph-name="integral" unicode="&#x222b;" horiz-adv-x="557" 
d="M252 1153q0 77 16 133.5t40 88.5t61 50t70.5 23.5t76.5 5.5v-51q-50 0 -85.5 -9t-65.5 -33.5t-45 -72t-15 -119.5v-1259q0 -75 -18 -131t-44 -87t-63.5 -50t-70 -25t-68.5 -6v51q46 0 81 10t66 34.5t47.5 72t16.5 117.5v1257z" />
    <glyph glyph-name="approxequal" unicode="&#x2248;" horiz-adv-x="833" 
d="M692 809h49q0 -81 -53.5 -123.5t-122.5 -42.5q-39 0 -73 15t-59 37t-49 44t-52.5 37t-59.5 15q-70 0 -101.5 -36.5t-29.5 -78.5h-49q0 82 53.5 124t122.5 42q39 0 73 -15t59 -37t49 -44t52.5 -37t59.5 -15q70 0 101.5 37t29.5 78zM692 481h49q0 -81 -53.5 -123.5
t-122.5 -42.5q-39 0 -73 15t-59 37t-49 44t-52.5 37t-59.5 15q-70 0 -101.5 -36.5t-29.5 -78.5h-49q0 82 53.5 124t122.5 42q47 0 89 -23t68 -50.5t62.5 -50.5t73.5 -23q70 0 101.5 36.5t29.5 77.5z" />
    <glyph glyph-name="notequal" unicode="&#x2260;" horiz-adv-x="870" 
d="M682 1149l-147 -381h96v-49h-117l-106 -279h223v-49h-244l-151 -391h-48l152 391h-260v49h280l107 279h-387v49h407l148 381h47z" />
    <glyph glyph-name="lessequal" unicode="&#x2264;" horiz-adv-x="909" 
d="M805 379l-668 389l668 387v59l-703 -413v-70l703 -409v57zM102 49h705v-49h-705v49z" />
    <glyph glyph-name="greaterequal" unicode="&#x2265;" horiz-adv-x="909" 
d="M104 379v-57l703 409v70l-703 413v-59l668 -387zM807 49v-49h-705v49h705z" />
    <glyph glyph-name="lozenge" unicode="&#x25ca;" horiz-adv-x="872" 
d="M780 717l-315 -713l2 -4h-61l2 4l-316 713l316 713l-2 4h61l-2 -4zM150 717l286 -647l287 647l-287 647z" />
    <glyph glyph-name="G.ss01" horiz-adv-x="1353" 
d="M817 690h440v-690h-51v289q-70 -150 -195.5 -228.5t-303.5 -78.5q-134 0 -243.5 43.5t-192.5 131t-129 230.5t-46 330q0 184 46 326.5t128.5 231t192 133t242.5 44.5q189 0 311.5 -75.5t177.5 -209.5h-59q-47 107 -155.5 169.5t-277.5 62.5q-121 0 -220 -40.5
t-174 -121.5t-116.5 -213.5t-41.5 -306.5q0 -142 28 -257t77.5 -193.5t119.5 -131.5t151.5 -77t175.5 -23q223 0 362.5 131.5t139.5 335.5v139h-387v49z" />
    <glyph glyph-name="R.ss01" horiz-adv-x="1159" 
d="M1083 0h-61l-336 569q-58 -4 -90 -4h-414v-565h-55v1434h469q228 0 352.5 -113t124.5 -324q0 -171 -85.5 -278t-246.5 -139zM182 618h418q203 0 311.5 97.5t108.5 281.5q0 188 -108 285.5t-312 97.5h-418v-762z" />
    <glyph glyph-name="G.ss05" horiz-adv-x="1353" 
d="M817 690h440v-690h-51v289q-70 -150 -195.5 -228.5t-303.5 -78.5q-134 0 -243.5 43.5t-192.5 131t-129 230.5t-46 330q0 184 46 326.5t128.5 231t192 133t242.5 44.5q189 0 311.5 -75.5t177.5 -209.5h-59q-47 107 -155.5 169.5t-277.5 62.5q-121 0 -220 -40.5
t-174 -121.5t-116.5 -213.5t-41.5 -306.5q0 -142 28 -257t77.5 -193.5t119.5 -131.5t151.5 -77t175.5 -23q223 0 362.5 131.5t139.5 335.5v139h-387v49z" />
    <glyph glyph-name="i.loclTRK" horiz-adv-x="307" 
d="M123 1452h61v-152h-61v152zM127 1065h53v-1065h-53v1065z" />
    <glyph glyph-name="a.ss01" 
d="M555 1075q133 0 241 -64t173 -196v250h53v-1065h-53v266q-129 -280 -414 -280q-99 0 -184.5 34t-152 99.5t-104.5 171.5t-38 241t38.5 240.5t105.5 170.5t152 98.5t183 33.5zM551 35q82 0 156 30.5t134.5 89.5t96 156.5t35.5 220.5q0 102 -23.5 186t-63.5 140.5t-94.5 95
t-114.5 55.5t-126 17q-83 0 -157 -29.5t-134 -87.5t-95.5 -155.5t-35.5 -221.5q0 -125 35.5 -223t95.5 -156t134 -88t157 -30z" />
    <glyph glyph-name="aacute.ss01" 
d="M494 1190h51l203 262h-62zM555 1075q133 0 241 -64t173 -196v250h53v-1065h-53v266q-129 -280 -414 -280q-99 0 -184.5 34t-152 99.5t-104.5 171.5t-38 241t38.5 240.5t105.5 170.5t152 98.5t183 33.5zM551 35q82 0 156 30.5t134.5 89.5t96 156.5t35.5 220.5
q0 102 -23.5 186t-63.5 140.5t-94.5 95t-114.5 55.5t-126 17q-83 0 -157 -29.5t-134 -87.5t-95.5 -155.5t-35.5 -221.5q0 -125 35.5 -223t95.5 -156t134 -88t157 -30z" />
    <glyph glyph-name="abreve.ss01" 
d="M778 1452h47q0 -39 -13 -75.5t-41 -70.5t-79.5 -54.5t-120.5 -20.5t-120.5 20.5t-78.5 54.5t-40 70.5t-13 75.5h48q15 -172 204 -172q192 0 207 172zM555 1075q133 0 241 -64t173 -196v250h53v-1065h-53v266q-129 -280 -414 -280q-99 0 -184.5 34t-152 99.5t-104.5 171.5
t-38 241t38.5 240.5t105.5 170.5t152 98.5t183 33.5zM551 35q82 0 156 30.5t134.5 89.5t96 156.5t35.5 220.5q0 102 -23.5 186t-63.5 140.5t-94.5 95t-114.5 55.5t-126 17q-83 0 -157 -29.5t-134 -87.5t-95.5 -155.5t-35.5 -221.5q0 -125 35.5 -223t95.5 -156t134 -88
t157 -30z" />
    <glyph glyph-name="uni01CE.ss01" 
d="M772 1434h49l-219 -248h-67l-220 248h50l204 -201zM555 1075q133 0 241 -64t173 -196v250h53v-1065h-53v266q-129 -280 -414 -280q-99 0 -184.5 34t-152 99.5t-104.5 171.5t-38 241t38.5 240.5t105.5 170.5t152 98.5t183 33.5zM551 35q82 0 156 30.5t134.5 89.5t96 156.5
t35.5 220.5q0 102 -23.5 186t-63.5 140.5t-94.5 95t-114.5 55.5t-126 17q-83 0 -157 -29.5t-134 -87.5t-95.5 -155.5t-35.5 -221.5q0 -125 35.5 -223t95.5 -156t134 -88t157 -30z" />
    <glyph glyph-name="acircumflex.ss01" 
d="M774 1204l-203 201l-204 -201h-50l220 248h67l219 -248h-49zM555 1075q133 0 241 -64t173 -196v250h53v-1065h-53v266q-129 -280 -414 -280q-99 0 -184.5 34t-152 99.5t-104.5 171.5t-38 241t38.5 240.5t105.5 170.5t152 98.5t183 33.5zM551 35q82 0 156 30.5t134.5 89.5
t96 156.5t35.5 220.5q0 102 -23.5 186t-63.5 140.5t-94.5 95t-114.5 55.5t-126 17q-83 0 -157 -29.5t-134 -87.5t-95.5 -155.5t-35.5 -221.5q0 -125 35.5 -223t95.5 -156t134 -88t157 -30z" />
    <glyph glyph-name="adieresis.ss01" 
d="M340 1452h61v-152h-61v152zM741 1452h64v-152h-64v152zM555 1075q133 0 241 -64t173 -196v250h53v-1065h-53v266q-129 -280 -414 -280q-99 0 -184.5 34t-152 99.5t-104.5 171.5t-38 241t38.5 240.5t105.5 170.5t152 98.5t183 33.5zM551 35q82 0 156 30.5t134.5 89.5
t96 156.5t35.5 220.5q0 102 -23.5 186t-63.5 140.5t-94.5 95t-114.5 55.5t-126 17q-83 0 -157 -29.5t-134 -87.5t-95.5 -155.5t-35.5 -221.5q0 -125 35.5 -223t95.5 -156t134 -88t157 -30z" />
    <glyph glyph-name="agrave.ss01" 
d="M647 1190l-192 262h-62l203 -262h51zM555 1075q133 0 241 -64t173 -196v250h53v-1065h-53v266q-129 -280 -414 -280q-99 0 -184.5 34t-152 99.5t-104.5 171.5t-38 241t38.5 240.5t105.5 170.5t152 98.5t183 33.5zM551 35q82 0 156 30.5t134.5 89.5t96 156.5t35.5 220.5
q0 102 -23.5 186t-63.5 140.5t-94.5 95t-114.5 55.5t-126 17q-83 0 -157 -29.5t-134 -87.5t-95.5 -155.5t-35.5 -221.5q0 -125 35.5 -223t95.5 -156t134 -88t157 -30z" />
    <glyph glyph-name="amacron.ss01" 
d="M303 1452h537v-47h-537v47zM555 1075q133 0 241 -64t173 -196v250h53v-1065h-53v266q-129 -280 -414 -280q-99 0 -184.5 34t-152 99.5t-104.5 171.5t-38 241t38.5 240.5t105.5 170.5t152 98.5t183 33.5zM551 35q82 0 156 30.5t134.5 89.5t96 156.5t35.5 220.5
q0 102 -23.5 186t-63.5 140.5t-94.5 95t-114.5 55.5t-126 17q-83 0 -157 -29.5t-134 -87.5t-95.5 -155.5t-35.5 -221.5q0 -125 35.5 -223t95.5 -156t134 -88t157 -30z" />
    <glyph glyph-name="aogonek.ss01" 
d="M969 1065h53v-1065h-4q-101 -45 -168.5 -108t-67.5 -142q0 -68 55.5 -99t155.5 -16v-43q-29 -11 -64.5 -13t-71 6t-64.5 26.5t-47.5 52t-18.5 78.5q0 80 72 149t170 109v266q-129 -280 -414 -280q-99 0 -184.5 34t-152 99.5t-104.5 171.5t-38 241t38.5 240.5t105.5 170.5
t152 98.5t183 33.5q133 0 241 -64t173 -196v250zM551 35q82 0 156 30.5t134.5 89.5t96 156.5t35.5 220.5q0 102 -23.5 186t-63.5 140.5t-94.5 95t-114.5 55.5t-126 17q-83 0 -157 -29.5t-134 -87.5t-95.5 -155.5t-35.5 -221.5q0 -125 35.5 -223t95.5 -156t134 -88t157 -30z
" />
    <glyph glyph-name="aring.ss01" 
d="M573 1190q-67 0 -111 44t-44 107t44.5 107.5t110.5 44.5q67 0 111.5 -44.5t44.5 -107.5q0 -62 -44.5 -106.5t-111.5 -44.5zM573 1233q49 0 81 31.5t32 76.5t-32 77t-81 32q-47 0 -78.5 -32t-31.5 -77t31.5 -76.5t78.5 -31.5zM555 1075q133 0 241 -64t173 -196v250h53
v-1065h-53v266q-129 -280 -414 -280q-99 0 -184.5 34t-152 99.5t-104.5 171.5t-38 241t38.5 240.5t105.5 170.5t152 98.5t183 33.5zM551 35q82 0 156 30.5t134.5 89.5t96 156.5t35.5 220.5q0 102 -23.5 186t-63.5 140.5t-94.5 95t-114.5 55.5t-126 17q-83 0 -157 -29.5
t-134 -87.5t-95.5 -155.5t-35.5 -221.5q0 -125 35.5 -223t95.5 -156t134 -88t157 -30z" />
    <glyph glyph-name="atilde.ss01" 
d="M821 1434h49q0 -77 -51.5 -116.5t-116.5 -39.5q-37 0 -70 14.5t-56.5 35t-46 40.5t-49.5 34.5t-56 14.5q-66 0 -96.5 -34t-28.5 -74h-47q0 78 51 117.5t117 39.5q37 0 69 -14.5t55.5 -35t46 -40.5t49.5 -34.5t56 -14.5q67 0 97 34t28 73zM555 1075q133 0 241 -64
t173 -196v250h53v-1065h-53v266q-129 -280 -414 -280q-99 0 -184.5 34t-152 99.5t-104.5 171.5t-38 241t38.5 240.5t105.5 170.5t152 98.5t183 33.5zM551 35q82 0 156 30.5t134.5 89.5t96 156.5t35.5 220.5q0 102 -23.5 186t-63.5 140.5t-94.5 95t-114.5 55.5t-126 17
q-83 0 -157 -29.5t-134 -87.5t-95.5 -155.5t-35.5 -221.5q0 -125 35.5 -223t95.5 -156t134 -88t157 -30z" />
    <glyph glyph-name="g.ss01" horiz-adv-x="1040" 
d="M516 238q69 0 132.5 -12.5t120.5 -39t98.5 -66t66 -97t24.5 -127.5q0 -72 -24.5 -131t-66 -98.5t-99 -66.5t-121.5 -39t-135 -12q-85 0 -161 20t-138.5 60t-99.5 109t-37 158q0 228 239 301q-97 8 -153 45t-56 102q0 50 35.5 85.5t104.5 45.5q-101 94 -101 254
q0 165 104 256.5t267 91.5q175 0 277 -102q40 93 155 90v-49q-105 0 -125 -78q62 -84 62 -209q0 -165 -104 -257.5t-265 -92.5q-136 0 -231 65q-66 -4 -95.5 -32t-29.5 -66q0 -51 47.5 -79.5t140.5 -28.5h168zM195 729q0 -143 86.5 -222t234.5 -79t234 79t86 222t-86 221
t-234 78q-149 0 -235 -78t-86 -221zM514 -401q60 0 114 8.5t106 30t89.5 54t60.5 85t23 119.5q0 80 -34 139t-92 91t-124.5 47t-142.5 15q-73 0 -137.5 -15t-122 -47t-91.5 -91t-34 -139q0 -67 23 -119.5t60 -85t88 -54t103.5 -30t110.5 -8.5z" />
    <glyph glyph-name="l.ss01" horiz-adv-x="303" 
d="M266 -4q-65 -9 -102 21.5t-37 93.5v1329h53v-1317q0 -43 20 -63t66 -19v-45z" />
    <glyph glyph-name="a.ss02" 
d="M555 1075q133 0 241 -64t173 -196v250h53v-1065h-53v266q-129 -280 -414 -280q-99 0 -184.5 34t-152 99.5t-104.5 171.5t-38 241t38.5 240.5t105.5 170.5t152 98.5t183 33.5zM551 35q82 0 156 30.5t134.5 89.5t96 156.5t35.5 220.5q0 102 -23.5 186t-63.5 140.5t-94.5 95
t-114.5 55.5t-126 17q-83 0 -157 -29.5t-134 -87.5t-95.5 -155.5t-35.5 -221.5q0 -125 35.5 -223t95.5 -156t134 -88t157 -30z" />
    <glyph glyph-name="aacute.ss02" 
d="M494 1190h51l203 262h-62zM555 1075q133 0 241 -64t173 -196v250h53v-1065h-53v266q-129 -280 -414 -280q-99 0 -184.5 34t-152 99.5t-104.5 171.5t-38 241t38.5 240.5t105.5 170.5t152 98.5t183 33.5zM551 35q82 0 156 30.5t134.5 89.5t96 156.5t35.5 220.5
q0 102 -23.5 186t-63.5 140.5t-94.5 95t-114.5 55.5t-126 17q-83 0 -157 -29.5t-134 -87.5t-95.5 -155.5t-35.5 -221.5q0 -125 35.5 -223t95.5 -156t134 -88t157 -30z" />
    <glyph glyph-name="abreve.ss02" 
d="M778 1452h47q0 -39 -13 -75.5t-41 -70.5t-79.5 -54.5t-120.5 -20.5t-120.5 20.5t-78.5 54.5t-40 70.5t-13 75.5h48q15 -172 204 -172q192 0 207 172zM555 1075q133 0 241 -64t173 -196v250h53v-1065h-53v266q-129 -280 -414 -280q-99 0 -184.5 34t-152 99.5t-104.5 171.5
t-38 241t38.5 240.5t105.5 170.5t152 98.5t183 33.5zM551 35q82 0 156 30.5t134.5 89.5t96 156.5t35.5 220.5q0 102 -23.5 186t-63.5 140.5t-94.5 95t-114.5 55.5t-126 17q-83 0 -157 -29.5t-134 -87.5t-95.5 -155.5t-35.5 -221.5q0 -125 35.5 -223t95.5 -156t134 -88
t157 -30z" />
    <glyph glyph-name="uni01CE.ss02" 
d="M772 1434h49l-219 -248h-67l-220 248h50l204 -201zM555 1075q133 0 241 -64t173 -196v250h53v-1065h-53v266q-129 -280 -414 -280q-99 0 -184.5 34t-152 99.5t-104.5 171.5t-38 241t38.5 240.5t105.5 170.5t152 98.5t183 33.5zM551 35q82 0 156 30.5t134.5 89.5t96 156.5
t35.5 220.5q0 102 -23.5 186t-63.5 140.5t-94.5 95t-114.5 55.5t-126 17q-83 0 -157 -29.5t-134 -87.5t-95.5 -155.5t-35.5 -221.5q0 -125 35.5 -223t95.5 -156t134 -88t157 -30z" />
    <glyph glyph-name="acircumflex.ss02" 
d="M774 1204l-203 201l-204 -201h-50l220 248h67l219 -248h-49zM555 1075q133 0 241 -64t173 -196v250h53v-1065h-53v266q-129 -280 -414 -280q-99 0 -184.5 34t-152 99.5t-104.5 171.5t-38 241t38.5 240.5t105.5 170.5t152 98.5t183 33.5zM551 35q82 0 156 30.5t134.5 89.5
t96 156.5t35.5 220.5q0 102 -23.5 186t-63.5 140.5t-94.5 95t-114.5 55.5t-126 17q-83 0 -157 -29.5t-134 -87.5t-95.5 -155.5t-35.5 -221.5q0 -125 35.5 -223t95.5 -156t134 -88t157 -30z" />
    <glyph glyph-name="adieresis.ss02" 
d="M340 1452h61v-152h-61v152zM741 1452h64v-152h-64v152zM555 1075q133 0 241 -64t173 -196v250h53v-1065h-53v266q-129 -280 -414 -280q-99 0 -184.5 34t-152 99.5t-104.5 171.5t-38 241t38.5 240.5t105.5 170.5t152 98.5t183 33.5zM551 35q82 0 156 30.5t134.5 89.5
t96 156.5t35.5 220.5q0 102 -23.5 186t-63.5 140.5t-94.5 95t-114.5 55.5t-126 17q-83 0 -157 -29.5t-134 -87.5t-95.5 -155.5t-35.5 -221.5q0 -125 35.5 -223t95.5 -156t134 -88t157 -30z" />
    <glyph glyph-name="agrave.ss02" 
d="M647 1190l-192 262h-62l203 -262h51zM555 1075q133 0 241 -64t173 -196v250h53v-1065h-53v266q-129 -280 -414 -280q-99 0 -184.5 34t-152 99.5t-104.5 171.5t-38 241t38.5 240.5t105.5 170.5t152 98.5t183 33.5zM551 35q82 0 156 30.5t134.5 89.5t96 156.5t35.5 220.5
q0 102 -23.5 186t-63.5 140.5t-94.5 95t-114.5 55.5t-126 17q-83 0 -157 -29.5t-134 -87.5t-95.5 -155.5t-35.5 -221.5q0 -125 35.5 -223t95.5 -156t134 -88t157 -30z" />
    <glyph glyph-name="amacron.ss02" 
d="M303 1452h537v-47h-537v47zM555 1075q133 0 241 -64t173 -196v250h53v-1065h-53v266q-129 -280 -414 -280q-99 0 -184.5 34t-152 99.5t-104.5 171.5t-38 241t38.5 240.5t105.5 170.5t152 98.5t183 33.5zM551 35q82 0 156 30.5t134.5 89.5t96 156.5t35.5 220.5
q0 102 -23.5 186t-63.5 140.5t-94.5 95t-114.5 55.5t-126 17q-83 0 -157 -29.5t-134 -87.5t-95.5 -155.5t-35.5 -221.5q0 -125 35.5 -223t95.5 -156t134 -88t157 -30z" />
    <glyph glyph-name="aogonek.ss02" 
d="M969 1065h53v-1065h-4q-101 -45 -168.5 -108t-67.5 -142q0 -68 55.5 -99t155.5 -16v-43q-29 -11 -64.5 -13t-71 6t-64.5 26.5t-47.5 52t-18.5 78.5q0 80 72 149t170 109v266q-129 -280 -414 -280q-99 0 -184.5 34t-152 99.5t-104.5 171.5t-38 241t38.5 240.5t105.5 170.5
t152 98.5t183 33.5q133 0 241 -64t173 -196v250zM551 35q82 0 156 30.5t134.5 89.5t96 156.5t35.5 220.5q0 102 -23.5 186t-63.5 140.5t-94.5 95t-114.5 55.5t-126 17q-83 0 -157 -29.5t-134 -87.5t-95.5 -155.5t-35.5 -221.5q0 -125 35.5 -223t95.5 -156t134 -88t157 -30z
" />
    <glyph glyph-name="aring.ss02" 
d="M573 1190q-67 0 -111 44t-44 107t44.5 107.5t110.5 44.5q67 0 111.5 -44.5t44.5 -107.5q0 -62 -44.5 -106.5t-111.5 -44.5zM573 1233q49 0 81 31.5t32 76.5t-32 77t-81 32q-47 0 -78.5 -32t-31.5 -77t31.5 -76.5t78.5 -31.5zM555 1075q133 0 241 -64t173 -196v250h53
v-1065h-53v266q-129 -280 -414 -280q-99 0 -184.5 34t-152 99.5t-104.5 171.5t-38 241t38.5 240.5t105.5 170.5t152 98.5t183 33.5zM551 35q82 0 156 30.5t134.5 89.5t96 156.5t35.5 220.5q0 102 -23.5 186t-63.5 140.5t-94.5 95t-114.5 55.5t-126 17q-83 0 -157 -29.5
t-134 -87.5t-95.5 -155.5t-35.5 -221.5q0 -125 35.5 -223t95.5 -156t134 -88t157 -30z" />
    <glyph glyph-name="atilde.ss02" 
d="M821 1434h49q0 -77 -51.5 -116.5t-116.5 -39.5q-37 0 -70 14.5t-56.5 35t-46 40.5t-49.5 34.5t-56 14.5q-66 0 -96.5 -34t-28.5 -74h-47q0 78 51 117.5t117 39.5q37 0 69 -14.5t55.5 -35t46 -40.5t49.5 -34.5t56 -14.5q67 0 97 34t28 73zM555 1075q133 0 241 -64
t173 -196v250h53v-1065h-53v266q-129 -280 -414 -280q-99 0 -184.5 34t-152 99.5t-104.5 171.5t-38 241t38.5 240.5t105.5 170.5t152 98.5t183 33.5zM551 35q82 0 156 30.5t134.5 89.5t96 156.5t35.5 220.5q0 102 -23.5 186t-63.5 140.5t-94.5 95t-114.5 55.5t-126 17
q-83 0 -157 -29.5t-134 -87.5t-95.5 -155.5t-35.5 -221.5q0 -125 35.5 -223t95.5 -156t134 -88t157 -30z" />
    <glyph glyph-name="g.ss03" horiz-adv-x="1040" 
d="M516 238q69 0 132.5 -12.5t120.5 -39t98.5 -66t66 -97t24.5 -127.5q0 -72 -24.5 -131t-66 -98.5t-99 -66.5t-121.5 -39t-135 -12q-85 0 -161 20t-138.5 60t-99.5 109t-37 158q0 228 239 301q-97 8 -153 45t-56 102q0 50 35.5 85.5t104.5 45.5q-101 94 -101 254
q0 165 104 256.5t267 91.5q175 0 277 -102q40 93 155 90v-49q-105 0 -125 -78q62 -84 62 -209q0 -165 -104 -257.5t-265 -92.5q-136 0 -231 65q-66 -4 -95.5 -32t-29.5 -66q0 -51 47.5 -79.5t140.5 -28.5h168zM195 729q0 -143 86.5 -222t234.5 -79t234 79t86 222t-86 221
t-234 78q-149 0 -235 -78t-86 -221zM514 -401q60 0 114 8.5t106 30t89.5 54t60.5 85t23 119.5q0 80 -34 139t-92 91t-124.5 47t-142.5 15q-73 0 -137.5 -15t-122 -47t-91.5 -91t-34 -139q0 -67 23 -119.5t60 -85t88 -54t103.5 -30t110.5 -8.5z" />
    <glyph glyph-name="l.ss04" horiz-adv-x="303" 
d="M266 -4q-65 -9 -102 21.5t-37 93.5v1329h53v-1317q0 -43 20 -63t66 -19v-45z" />
    <glyph glyph-name="f_t" horiz-adv-x="1157" 
d="M958 39q65 0 123 18v-51q-58 -18 -145 -18q-58 0 -93.5 29t-35.5 94v905h-569v-1016h-54v1016h-143v49h143v166q0 235 224 235q76 0 153 -22v-45q-92 18 -153 18q-84 0 -127 -42t-43 -142v-168h569v266h53v-266h199v-49h-199v-901q0 -41 22 -58.5t76 -17.5z" />
    <glyph glyph-name="r_t" horiz-adv-x="1153" 
d="M956 39q65 0 123 18v-51q-58 -18 -145 -18q-58 0 -93.5 29t-35.5 94v905h-154q-209 0 -321.5 -88t-149.5 -258v-670h-53v1065h53v-277q13 55 44.5 102t85.5 87t141 63.5t198 24.5h156v266h53v-266h199v-49h-199v-901q0 -41 22 -58.5t76 -17.5z" />
    <glyph glyph-name="zero.dnom" horiz-adv-x="569" 
d="M285 -4q96 0 154.5 71.5t58.5 186.5v27q0 115 -58.5 186.5t-154.5 71.5q-95 0 -154 -72t-59 -186v-27q0 -114 59 -186t154 -72zM285 508q77 0 127.5 -60.5t50.5 -166.5v-27q0 -106 -50.5 -166.5t-127.5 -60.5t-128 60.5t-51 166.5v27q0 106 51 166.5t128 60.5z" />
    <glyph glyph-name="one.dnom" horiz-adv-x="315" 
d="M223 535v-535h-37v479q-30 -55 -104 -49v31q35 1 64 23t40 51h37z" />
    <glyph glyph-name="two.dnom" horiz-adv-x="499" 
d="M82 0v18q0 70 38.5 124t117.5 108q50 32 70.5 48t36 41.5t15.5 59.5q0 47 -31 78t-87 31q-59 0 -91 -33t-32 -90v-12h-37v12q0 70 44.5 114t115.5 44q69 0 111 -40.5t42 -103.5q0 -54 -34.5 -95t-102.5 -83q-66 -39 -102.5 -86.5t-36.5 -91.5v-6h289v-37h-326z" />
    <glyph glyph-name="three.dnom" horiz-adv-x="536" 
d="M332 285q50 -12 86.5 -47.5t36.5 -90.5q0 -68 -48 -111.5t-137 -43.5q-88 0 -138 47.5t-50 126.5h35q1 -70 42.5 -104.5t112.5 -34.5q65 0 106.5 29.5t41.5 88.5q0 58 -44.5 87.5t-115.5 29.5h-22v35h22q63 0 100 29.5t37 74.5q0 51 -33.5 79t-93.5 28q-135 0 -135 -133
h-35q0 79 46 123.5t126 44.5q74 0 116 -40.5t42 -101.5q0 -43 -27 -74t-71 -42z" />
    <glyph glyph-name="four.dnom" horiz-adv-x="509" 
d="M428 135h-61v-135h-37v135h-248v31l248 369h37v-369h61v-31zM330 166v307l-209 -307h209z" />
    <glyph glyph-name="five.dnom" horiz-adv-x="479" 
d="M252 348q67 0 116.5 -46.5t49.5 -129.5q0 -84 -48 -133t-132 -49q-79 0 -128 49t-49 125h31q2 -58 37.5 -99.5t108.5 -41.5q74 0 110.5 41t36.5 108q0 74 -42 108.5t-95 34.5q-84 0 -139 -67h-37l45 287h262v-33h-238l-35 -217q16 23 53.5 43t92.5 20z" />
    <glyph glyph-name="six.dnom" horiz-adv-x="524" 
d="M270 344q66 0 119 -42.5t53 -127.5q0 -91 -49.5 -137.5t-124.5 -46.5q-82 0 -134 60.5t-52 201.5q0 61 9 110t29 91t56.5 65t87.5 23q80 0 119 -43.5t43 -100.5h-29q-19 111 -133 111q-28 0 -50.5 -9.5t-37 -22.5t-26 -37t-17 -42t-10 -49t-5.5 -46.5t-3 -45.5
q47 88 155 88zM272 23q61 0 98.5 36.5t37.5 114.5q0 67 -38.5 102t-97.5 35q-64 0 -105.5 -37.5t-41.5 -97.5q0 -66 39.5 -109.5t107.5 -43.5z" />
    <glyph glyph-name="seven.dnom" horiz-adv-x="452" 
d="M391 535v-33l-223 -502h-37l227 502h-317v33h350z" />
    <glyph glyph-name="eight.dnom" horiz-adv-x="464" 
d="M311 291q52 -23 77.5 -55.5t25.5 -85.5q0 -68 -52.5 -111t-130.5 -43q-75 0 -127.5 43t-52.5 111q0 54 25.5 87t77.5 54q-72 49 -72 117q0 54 39 92.5t110 38.5q73 0 112.5 -38.5t39.5 -92.5q0 -68 -72 -117zM115 408q0 -46 35.5 -77.5t80.5 -31.5q51 0 85 31t34 78
q0 43 -28.5 70.5t-90.5 27.5q-57 0 -86.5 -28.5t-29.5 -69.5zM231 29q68 0 108 31.5t40 91.5q0 59 -40 87.5t-108 28.5q-62 0 -104.5 -29t-42.5 -87q0 -57 42.5 -90t104.5 -33z" />
    <glyph glyph-name="nine.dnom" horiz-adv-x="524" 
d="M254 186q-66 0 -119 42.5t-53 127.5q0 91 49.5 138t124.5 47q82 0 134 -60.5t52 -201.5q0 -61 -9 -110t-29 -91t-56.5 -65t-87.5 -23q-80 0 -119 43t-43 100h29q19 -110 133 -110q28 0 50.5 9.5t37.5 22.5t26 36.5t17 42t10.5 49t5.5 46.5t3 45q-47 -88 -156 -88z
M252 508q-60 0 -97.5 -37t-37.5 -115q0 -67 38 -102t97 -35q64 0 105.5 37.5t41.5 97.5q0 66 -39.5 110t-107.5 44z" />
    <glyph glyph-name="zero.numr" horiz-adv-x="569" 
d="M285 897q96 0 154.5 71.5t58.5 186.5v27q0 115 -58.5 186.5t-154.5 71.5q-95 0 -154 -72t-59 -186v-27q0 -114 59 -186t154 -72zM285 1409q77 0 127.5 -60.5t50.5 -166.5v-27q0 -106 -50.5 -166.5t-127.5 -60.5t-128 60.5t-51 166.5v27q0 106 51 166.5t128 60.5z" />
    <glyph glyph-name="one.numr" horiz-adv-x="325" 
d="M223 1436v-535h-37v479q-30 -55 -104 -49v31q35 1 64 23t40 51h37z" />
    <glyph glyph-name="two.numr" horiz-adv-x="499" 
d="M82 901v19q0 70 38 123.5t118 107.5q50 32 70.5 48t36 41.5t15.5 59.5q0 47 -31 78t-87 31q-59 0 -91 -33t-32 -90v-12h-37v12q0 70 44.5 114t115.5 44q69 0 111 -40.5t42 -103.5q0 -54 -34.5 -95t-102.5 -83q-66 -39 -102.5 -86.5t-36.5 -91.5v-6h289v-37h-326z" />
    <glyph glyph-name="three.numr" horiz-adv-x="600" 
d="M350 1186q51 -12 87 -47t36 -90q0 -68 -47.5 -112t-136.5 -44q-88 0 -138.5 47.5t-50.5 126.5h35q1 -70 42.5 -104.5t113.5 -34.5q65 0 106 30t41 89q0 58 -44 87t-115 29h-23v35h23q63 0 100 29.5t37 75.5q0 51 -33.5 78.5t-93.5 27.5q-135 0 -135 -133h-35
q0 79 46 123.5t126 44.5q74 0 116 -40t42 -101q0 -43 -27.5 -74.5t-71.5 -42.5z" />
    <glyph glyph-name="four.numr" horiz-adv-x="509" 
d="M428 1036h-61v-135h-37v135h-248v31l248 369h37v-369h61v-31zM330 1067v307l-209 -307h209z" />
    <glyph glyph-name="five.numr" horiz-adv-x="479" 
d="M252 1249q67 0 116.5 -46.5t49.5 -129.5q0 -84 -48 -133t-132 -49q-79 0 -128 49t-49 125h31q2 -58 37.5 -99.5t108.5 -41.5q74 0 110.5 41t36.5 108q0 74 -42 109t-95 35q-83 0 -139 -68h-37l45 287h262v-33h-238l-35 -217q16 23 53.5 43t92.5 20z" />
    <glyph glyph-name="six.numr" horiz-adv-x="524" 
d="M270 1243q66 0 119 -42.5t53 -127.5q0 -91 -49.5 -137.5t-124.5 -46.5q-82 0 -134 60.5t-52 201.5q0 61 9 110t29 91t56.5 65t87.5 23q80 0 119 -43.5t43 -100.5h-29q-19 111 -133 111q-28 0 -50.5 -9.5t-37 -22.5t-26 -37t-17 -42t-10 -49t-5.5 -46.5t-3 -45.5
q47 88 155 88zM272 922q61 0 98.5 36.5t37.5 114.5q0 67 -38.5 102t-97.5 35q-64 0 -105.5 -38t-41.5 -97q0 -66 39.5 -109.5t107.5 -43.5z" />
    <glyph glyph-name="seven.numr" horiz-adv-x="452" 
d="M391 1436v-33l-223 -502h-37l227 502h-317v33h350z" />
    <glyph glyph-name="eight.numr" horiz-adv-x="464" 
d="M311 1192q52 -23 77.5 -55.5t25.5 -85.5q0 -68 -52.5 -111t-130.5 -43q-75 0 -127.5 43t-52.5 111q0 54 25.5 87t77.5 54q-72 49 -72 117q0 54 39 92.5t110 38.5q73 0 112.5 -38.5t39.5 -92.5q0 -68 -72 -117zM115 1309q0 -46 35.5 -77.5t80.5 -31.5q51 0 85 31t34 78
q0 43 -28.5 70.5t-90.5 27.5q-57 0 -86.5 -28.5t-29.5 -69.5zM231 930q68 0 108 31.5t40 91.5q0 59 -40 87.5t-108 28.5q-62 0 -104.5 -29t-42.5 -87q0 -57 42.5 -90t104.5 -33z" />
    <glyph glyph-name="nine.numr" horiz-adv-x="524" 
d="M254 1087q-66 0 -119 42.5t-53 127.5q0 91 49.5 138t124.5 47q82 0 134 -60.5t52 -201.5q0 -61 -9 -110t-29 -91t-56.5 -65t-87.5 -23q-80 0 -119 43t-43 100h29q19 -110 133 -110q32 0 57 11t40.5 33.5t25.5 43.5t15.5 56t7.5 54t4 54q-48 -89 -156 -89zM252 1409
q-60 0 -97.5 -37t-37.5 -115q0 -67 38 -102t97 -35q64 0 105.5 38t41.5 97q0 66 -39.5 110t-107.5 44z" />
    <glyph glyph-name="ampersand.001" horiz-adv-x="1320" 
d="M1245 0h-65l-183 207q-87 -120 -205 -176t-241 -56q-111 0 -200.5 33.5t-143.5 88.5t-82.5 121.5t-28.5 137.5q0 138 80.5 240.5t278.5 222.5q-45 47 -71.5 77.5t-64 82.5t-56.5 104t-19 103q0 124 81 200t226 76q132 0 212.5 -75.5t80.5 -192.5q0 -77 -23.5 -130.5
t-90 -113.5t-198.5 -141l457 -518q100 174 109 434h53q-11 -286 -125 -475zM551 1415q-118 0 -188 -60t-70 -171q0 -42 16 -85.5t51.5 -91.5t58 -74t67.5 -74q4 -4 6.5 -7t5.5 -6l14 10q61 37 96 60t76.5 56.5t62.5 63t35.5 69t14.5 85.5q0 104 -69 164.5t-177 60.5zM549 27
q121 0 229 55t185 164l-467 528l-7 6l-8 -4q-79 -48 -132.5 -87.5t-102 -90.5t-72.5 -110.5t-24 -129.5q0 -145 111.5 -238t287.5 -93z" />
    <glyph glyph-name="Aacutecy" horiz-adv-x="1339" 
d="M846 1821l-203 -262h-51l192 262h62zM1217 0l-183 449h-727l-182 -449h-59l583 1434h43l582 -1434h-57zM326 498h688l-344 848z" />
    <glyph glyph-name="Ieacutecy" horiz-adv-x="1075" 
d="M715 1821l-203 -262h-51l192 262h62zM182 53h832v-53h-887v1434h866v-54h-811v-610h709v-49h-709v-668z" />
    <glyph glyph-name="Iiacutecy" horiz-adv-x="1300" 
d="M573 1559h52l202 262h-61zM127 1434h55v-1366h2l910 1366h80v-1434h-56v1372h-2l-909 -1372h-80v1434z" />
    <glyph glyph-name="Oacutecy" horiz-adv-x="1423" 
d="M635 1559h51l203 262h-62zM713 1452q133 0 244 -45t194 -133.5t129.5 -230.5t46.5 -326t-46.5 -326t-129.5 -230.5t-194 -133.5t-244 -45t-244 45t-195 133.5t-131 230.5t-47 326t47 326t131 230.5t195 133.5t244 45zM713 35q124 0 224.5 40t177 120.5t118 213.5
t41.5 308q0 140 -27.5 253.5t-76.5 193t-119.5 132.5t-154.5 78t-183 25t-183.5 -25t-155 -78t-120 -132.5t-77 -193t-27.5 -253.5q0 -175 41.5 -307.5t118 -213.5t177.5 -121t226 -40z" />
    <glyph glyph-name="Uacutecy" horiz-adv-x="1087" 
d="M465 1559h51l203 262h-62zM967 1434h55l-498 -1209q-52 -131 -138 -188t-189 -41v55q189 -25 280 201q23 58 27.5 84.5t-4.5 52.5l-434 1045h55l424 -1014z" />
    <glyph glyph-name="Yeruacutecy" horiz-adv-x="1415" 
d="M885 1821l-203 -262h-51l192 262h62zM596 877q228 0 352.5 -113.5t124.5 -323.5q0 -212 -124.5 -326t-352.5 -114h-469v1434h55v-557h414zM1235 1434h55v-1434h-55v1434zM600 57q204 0 312 97.5t108 285.5q0 187 -108 284t-312 97h-418v-764h418z" />
    <glyph glyph-name="Ereversedacutecy" horiz-adv-x="1323" 
d="M838 1821l-203 -262h-51l192 262h62zM618 1452q130 0 239 -45t192.5 -133t130.5 -230.5t47 -326.5t-47 -326.5t-130.5 -230.5t-192.5 -133t-239 -45q-196 0 -331.5 81.5t-190.5 223.5h62q46 -113 167 -182.5t296 -69.5q117 0 215.5 41t175 122t119.5 214t43 305v4h-605
v49h602q-6 160 -51 282.5t-120.5 197t-171 112t-207.5 37.5q-174 0 -293.5 -69.5t-163.5 -184.5h-60q52 143 185.5 225t328.5 82z" />
    <glyph glyph-name="Iuacutecy" horiz-adv-x="1763" 
d="M1057 1821l-203 -262h-51l192 262h62zM1053 1452q133 0 244 -45t194 -133.5t129.5 -230.5t46.5 -326t-46.5 -326t-129.5 -230.5t-194 -133.5t-244 -45q-129 0 -237 42t-191 125t-132.5 215.5t-56.5 303.5h-254v-668h-55v1434h55v-717h254q0 184 47 326t131 230.5
t195 133.5t244 45zM1053 35q124 0 224.5 40t177 120.5t118 213.5t41.5 308q0 140 -27.5 253.5t-76.5 193t-119.5 132.5t-154.5 78t-183 25q-125 0 -226 -40t-177.5 -121t-118.5 -213.5t-42 -307.5t42 -307.5t118.5 -213.5t177.5 -121t226 -40z" />
    <glyph glyph-name="Iaacutecy" horiz-adv-x="1202" 
d="M778 1821l-203 -262h-51l193 262h61zM1075 1434v-1434h-55v639h-543q-41 0 -74 -4t-70 -13.5t-64 -29t-50 -48.5t-35 -73.5t-12 -101.5v-129q0 -207 -41 -240h-55q41 30 41 240v127q0 139 58.5 211.5t186.5 91.5q-128 43 -192 140.5t-64 231.5q0 190 115.5 291t337.5 101
h516zM1020 688v696h-463q-397 0 -397 -346q0 -162 99 -256t247 -94h514z" />
    <glyph glyph-name="aacutecy" horiz-adv-x="1052" 
d="M694 1452l-202 -262h-52l193 262h61zM915 109q0 -42 16.5 -56.5t65.5 -11.5v-43q-18 -6 -34 -6q-57 0 -79 28t-22 109v131q-13 -29 -35 -61t-62 -71t-88.5 -70t-117.5 -51.5t-145 -20.5q-156 0 -247 82.5t-91 224.5q0 59 16 105.5t55 88.5t111.5 71.5t177.5 43.5
t158.5 22t141 27t126.5 39v27q0 167 -74.5 237t-257.5 70q-297 0 -329 -188h-54q18 119 119.5 179t265.5 60q191 0 287 -85.5t96 -287.5v-593zM862 344v299q-54 -36 -426 -88q-171 -24 -239 -86t-68 -176q0 -122 77 -190t208 -68q81 0 153 26t119.5 62t87 82.5t58.5 79
t30 59.5z" />
    <glyph glyph-name="ieacutecy" horiz-adv-x="1071" 
d="M717 1452l-203 -262h-51l192 262h62zM995 551q0 -33 -2 -51h-862q7 -231 124 -348t300 -117q117 0 193 31.5t143 115.5h63q-78 -107 -171 -151.5t-228 -44.5q-218 0 -348.5 142t-130.5 402q0 131 37.5 236.5t102 172t149 101.5t180.5 35q196 0 323 -138.5t127 -385.5z
M131 553h813q-3 230 -113.5 351.5t-285.5 121.5q-171 0 -289.5 -122t-124.5 -351z" />
    <glyph glyph-name="iiacutecy" horiz-adv-x="1134" 
d="M489 1190h52l202 262h-61zM127 1065h53v-1014h4l746 1014h78v-1065h-54v1018h-2l-747 -1018h-78v1065z" />
    <glyph glyph-name="oacutecy" horiz-adv-x="1085" 
d="M465 1190h51l203 262h-62zM543 1075q92 0 175.5 -35.5t149 -102t104 -171.5t38.5 -234q0 -132 -38.5 -238.5t-104.5 -172.5t-149 -100.5t-175 -34.5t-175 34.5t-149 100.5t-104.5 172.5t-38.5 238.5q0 129 38.5 234t104 171.5t149 102t175.5 35.5zM956 532q0 121 -35 217
t-93.5 154t-131.5 88.5t-153 30.5t-153 -30.5t-132 -88.5t-94 -154t-35 -217q0 -123 35 -220t94 -155t131.5 -88t153.5 -30t153.5 30t131 88.5t93.5 155t35 219.5z" />
    <glyph glyph-name="uacutecy" horiz-adv-x="1026" 
d="M434 1190h51l203 262h-61zM913 1065h58l-477 -1208q-52 -132 -138 -189t-190 -41v51q94 -15 169.5 36.5t117.5 166.5q5 13 12 31.5t9.5 26l6 18t3.5 15.5t-1 11.5t-4 12.5l-424 1069h56l403 -1032z" />
    <glyph glyph-name="yeruacutecy" horiz-adv-x="1249" 
d="M801 1452l-203 -262h-51l192 262h62zM516 651q205 0 312.5 -83.5t107.5 -241.5q0 -157 -107.5 -241.5t-312.5 -84.5h-389v1065h53v-414h336zM1069 1065h53v-1065h-53v1065zM522 49q361 0 361 277q0 131 -84 203.5t-277 72.5h-342v-553h342z" />
    <glyph glyph-name="ereversedacutecy" horiz-adv-x="1048" 
d="M700 1452l-202 -262h-52l193 262h61zM496 1075q95 0 179.5 -34.5t151.5 -100t106.5 -171.5t39.5 -239q0 -132 -39.5 -238t-107 -171.5t-152.5 -100t-180 -34.5q-322 0 -418 288h51q48 -125 140 -182t229 -57q81 0 155 29t136 86.5t98.5 155.5t36.5 224h-430v48h428
q-7 113 -45.5 201.5t-98 141t-130.5 79t-148 26.5q-270 0 -365 -233h-53q50 141 158 211.5t258 70.5z" />
    <glyph glyph-name="iuacutecy" horiz-adv-x="1355" 
d="M854 1452l-203 -262h-51l193 262h61zM813 1075q92 0 175.5 -35.5t149 -102t104 -171.5t38.5 -234q0 -132 -38.5 -238.5t-104.5 -172.5t-149 -100.5t-175 -34.5q-90 0 -171.5 33.5t-146.5 96.5t-105 163.5t-44 226.5h-166v-508h-53v1065h53v-508h166q4 124 44 224.5
t105 164t146.5 97.5t171.5 34zM813 39q81 0 153.5 30t131.5 88t94 155t35 220q0 121 -35 217t-94 154t-132 88.5t-153 30.5t-153 -30.5t-132 -88.5t-94 -154t-35 -217q0 -123 35 -220t94 -155t131.5 -88t153.5 -30z" />
    <glyph glyph-name="iaacutecy" horiz-adv-x="1011" 
d="M684 1452l-203 -262h-51l193 262h61zM885 1065v-1065h-54v414h-471q-120 0 -167.5 -37t-47.5 -121v-98q0 -137 -30 -158h-54q31 22 31 158v98q0 83 37.5 133t126.5 66q-180 77 -180 284q0 157 107.5 241.5t312.5 84.5h389zM831 463v553h-342q-360 0 -360 -277
q0 -131 83.5 -203.5t276.5 -72.5h342z" />
    </font>
</defs>
</svg>
