<?xml version="1.0" standalone="no"?>
<!DOCTYPE svg PUBLIC "-//W3C//DTD SVG 1.1//EN" "http://www.w3.org/Graphics/SVG/1.1/DTD/svg11.dtd" >
<svg xmlns="http://www.w3.org/2000/svg" xmlns:xlink="http://www.w3.org/1999/xlink" version="1.1">
<metadata>
Created by FontForge 20170731 at Mon Aug  7 16:11:13 2023
 By Aleksey,,,
(c) 2017 Connary Fagen
</metadata>
<defs>
<font id="ArticulatCF-ThinOblique" horiz-adv-x="1105" >
  <font-face 
    font-family="Articulat CF Thin"
    font-weight="250"
    font-style="oblique"
    font-stretch="normal"
    units-per-em="2048"
    panose-1="0 0 3 0 0 0 0 0 0 0"
    ascent="1638"
    descent="-410"
    x-height="1065"
    cap-height="1434"
    bbox="-442 -504 2259 1862"
    underline-thickness="102"
    underline-position="-307"
    slope="-9"
    unicode-range="U+0020-FB02"
  />
<missing-glyph horiz-adv-x="1044" 
d="M856 1638v-2089h-661v2089h661zM696 1499h-346v-69h137v-78h-139v-68h348v68h-139v78h139v69zM557 1229h-209v-217h348v71h-139v146zM487 1157v-74h-69v74h69zM696 954h-348v-67h139v-78h-139v-70h209v148h139v67zM696 829h-69v-137h-279v-71h348v208zM696 575h-209v-116
h70v47h70v-98h-209v167h-70v-235h348v235zM696 213h-348v-236h348v236zM627 145v-98h-209v98h209zM696 -70h-348v-69h148l-148 -99v-69h348v69h-213l146 99h67v69z" />
    <glyph glyph-name="fi" unicode="fi" horiz-adv-x="901" 
d="M315 1233l-26 -168h307l-6 -49h-309l-160 -1016h-53l159 1016h-149l6 49h152l26 166q34 235 252 235q86 0 160 -22l-8 -43q-82 16 -150 16q-89 0 -136.5 -40.5t-64.5 -143.5zM866 1452h52l-15 -92h-51zM639 0l168 1065h51l-168 -1065h-51z" />
    <glyph glyph-name="fl" unicode="fl" horiz-adv-x="917" 
d="M315 1233l-26 -168h307l-6 -49h-309l-160 -1016h-53l159 1016h-149l6 49h152l26 166q34 235 252 235q86 0 160 -22l-8 -43q-82 16 -150 16q-89 0 -136.5 -40.5t-64.5 -143.5zM887 1434h51l-225 -1434h-51z" />
    <glyph glyph-name=".notdef" horiz-adv-x="1044" 
d="M856 1638v-2089h-661v2089h661zM696 1499h-346v-69h137v-78h-139v-68h348v68h-139v78h139v69zM557 1229h-209v-217h348v71h-139v146zM487 1157v-74h-69v74h69zM696 954h-348v-67h139v-78h-139v-70h209v148h139v67zM696 829h-69v-137h-279v-71h348v208zM696 575h-209v-116
h70v47h70v-98h-209v167h-70v-235h348v235zM696 213h-348v-236h348v236zM627 145v-98h-209v98h209zM696 -70h-348v-69h148l-148 -99v-69h348v69h-213l146 99h67v69z" />
    <glyph glyph-name=".null" horiz-adv-x="0" 
 />
    <glyph glyph-name="nonmarkingreturn" horiz-adv-x="682" 
 />
    <glyph glyph-name="space" unicode=" " horiz-adv-x="567" 
 />
    <glyph glyph-name="exclam" unicode="!" horiz-adv-x="323" 
d="M131 344h-43l166 1090h55zM35 104h78l-17 -104h-76z" />
    <glyph glyph-name="quotedbl" unicode="&#x22;" horiz-adv-x="391" 
d="M166 1063h53l60 371h-54zM338 1063h53l60 371h-54z" />
    <glyph glyph-name="numbersign" unicode="#" horiz-adv-x="1169" 
d="M1135 963h-242l-127 -492h242l-9 -47h-245l-109 -424h-45l109 424h-387l-109 -424h-47l108 424h-231l8 47h236l127 492h-236l8 47h240l109 424h47l-109 -424h387l109 424h45l-109 -424h238zM721 471l127 492h-387l-127 -492h387z" />
    <glyph glyph-name="dollar" unicode="$" horiz-adv-x="1155" 
d="M1051 1118q-3 54 -21.5 99.5t-56 86.5t-105 66t-159.5 29l-101 -629l78 -18q85 -20 146 -45t110 -63.5t73.5 -95t24.5 -132.5q0 -197 -154.5 -315.5t-400.5 -118.5h-2l-26 -166h-51l26 168q-108 7 -186 40.5t-121 88.5t-62 119.5t-18 142.5h55q4 -316 340 -336l111 690
l-68 16q-299 66 -299 306q0 170 121 282.5t361 118.5l26 166h51l-26 -166q192 -7 287 -99.5t100 -234.5h-53zM506 793l53 -13l98 619q-206 -6 -310.5 -102t-104.5 -236q0 -113 62 -175t202 -93zM698 694l-98 23l-108 -680h2q217 0 354 102.5t137 274.5q0 55 -16.5 98.5
t-42 72t-65.5 50.5t-76.5 34.5t-86.5 24.5z" />
    <glyph glyph-name="percent" unicode="%" horiz-adv-x="1435" 
d="M356 862q-92 0 -147 62t-55 166q0 142 81 248t207 106q91 0 148 -63.5t57 -168.5q0 -140 -83 -245t-208 -105zM164 0l1067 1436l53 -2l-1069 -1434h-51zM358 909q111 0 179.5 88t68.5 215q0 88 -46 136.5t-122 48.5t-132.5 -46.5t-82.5 -115.5t-26 -148
q0 -87 43.5 -132.5t117.5 -45.5zM1001 -10q-92 0 -146 61.5t-54 167.5q0 142 80 247t206 105q91 0 148 -63t57 -168q0 -89 -36 -169t-104 -130.5t-151 -50.5zM1004 37q112 0 179.5 87.5t67.5 215.5q0 88 -46 136t-122 48q-112 0 -176.5 -92t-64.5 -215q0 -87 44.5 -133.5
t117.5 -46.5z" />
    <glyph glyph-name="ampersand" unicode="&#x26;" horiz-adv-x="1296" 
d="M1153 731q-54 -295 -203 -485l180 -246h-61l-151 205q-106 -118 -232.5 -174t-247.5 -56q-102 0 -181 29t-125.5 78.5t-69.5 110.5t-23 131q0 71 22 132t55 105.5t94.5 92.5t114.5 81t142 82q-32 42 -54 74t-48.5 77.5t-40 92t-13.5 90.5q0 144 101 227.5t250 83.5
q120 0 193 -64.5t73 -166.5q0 -55 -18.5 -104t-47.5 -88t-82 -81.5t-105.5 -76t-133.5 -80.5l377 -512q138 182 184 442h51zM653 1411q-126 0 -207 -72t-81 -186q0 -41 12 -81.5t40 -88t42 -68.5t51 -71h2q54 31 81 47t73.5 45.5t70 49.5t55.5 51t47 58t26.5 61.5t11.5 70.5
q0 89 -61 136.5t-163 47.5zM432 27q122 0 240.5 55.5t214.5 165.5l-389 526l-4 -2q-159 -90 -204 -121q-147 -102 -185 -222q-15 -49 -15 -105q0 -137 92 -217t250 -80z" />
    <glyph glyph-name="quotesingle" unicode="'" horiz-adv-x="219" 
d="M166 1063h53l60 371h-54z" />
    <glyph glyph-name="parenleft" unicode="(" horiz-adv-x="423" 
d="M434 1526h45q-268 -382 -346 -873q-83 -521 60 -919h-39q-157 394 -72 923q80 510 352 869z" />
    <glyph glyph-name="parenright" unicode=")" horiz-adv-x="425" 
d="M260 1526q162 -367 82 -873q-85 -537 -360 -919h-48q273 402 357 923q77 495 -68 869h37z" />
    <glyph glyph-name="asterisk" unicode="*" horiz-adv-x="860" 
d="M510 1411h55l-33 -199h-47zM227 1192l23 45l190 -61l-16 -39zM780 1192l-211 -55l-2 39l207 61zM315 887l-36 33l149 163l27 -28zM598 887l-88 168l37 28l96 -163z" />
    <glyph glyph-name="plus" unicode="+" horiz-adv-x="878" 
d="M827 604l-8 -53h-352l-55 -354h-54l56 354h-348l6 53h350l55 352h53l-55 -352h352z" />
    <glyph glyph-name="comma" unicode="," horiz-adv-x="276" 
d="M-23 -260l5 27q32 26 46.5 60t24.5 112l6 61h-43l19 102h90l-33 -208q-12 -69 -43 -110t-72 -44z" />
    <glyph glyph-name="hyphen" unicode="-" horiz-adv-x="843" 
d="M74 600h659l-6 -45h-659z" />
    <glyph glyph-name="period" unicode="." horiz-adv-x="262" 
d="M35 104h78l-17 -104h-76z" />
    <glyph glyph-name="slash" unicode="/" horiz-adv-x="753" 
d="M795 1434l-779 -1434h-49l781 1434h47z" />
    <glyph glyph-name="zero" unicode="0" horiz-adv-x="1253" 
d="M748 1448q212 0 327 -142t115 -393q0 -139 -28.5 -273.5t-85 -252.5t-135.5 -207.5t-187 -141.5t-232 -52q-213 0 -327.5 141.5t-114.5 392.5q0 175 46 340t129 296.5t211.5 211.5t281.5 80zM1137 909q0 241 -104.5 364.5t-284.5 123.5q-116 0 -216.5 -50.5
t-172.5 -136.5t-124 -198t-77 -236.5t-25 -251.5q0 -243 104.5 -365t284.5 -122q115 0 215.5 50.5t172.5 136t124 197.5t77.5 236.5t25.5 251.5z" />
    <glyph glyph-name="one" unicode="1" horiz-adv-x="468" 
d="M477 1434l-225 -1434h-53l209 1327q-33 -42 -96 -81.5t-142 -39.5l6 51q79 3 154 61.5t96 115.5h51z" />
    <glyph glyph-name="two" unicode="2" horiz-adv-x="1048" 
d="M-12 0l8 59q26 171 148 300.5t364 271.5q191 111 262 165q156 121 185 260q8 37 8 77q0 120 -86 193t-236 73q-173 0 -288.5 -100.5t-143.5 -272.5h-53q34 195 165 308.5t320 113.5q172 0 271.5 -89t99.5 -233q0 -60 -16 -114t-49.5 -101.5t-71.5 -87.5t-95 -81t-105 -71
t-116 -69q-116 -67 -194.5 -121t-149.5 -119.5t-112 -137.5t-56 -156l-2 -17h823l-6 -51h-874z" />
    <glyph glyph-name="three" unicode="3" horiz-adv-x="1124" 
d="M748 782q126 -24 202 -105.5t76 -209.5q0 -144 -74.5 -257.5t-201 -174t-281.5 -60.5q-223 0 -332.5 124t-77.5 343h52q-31 -194 63.5 -304.5t292.5 -110.5q219 0 363.5 122t144.5 318q0 144 -108.5 216.5t-299.5 72.5h-35l9 49h28q116 0 212.5 39t158 121t61.5 194
q0 109 -84.5 175.5t-230.5 66.5q-175 0 -290 -103.5t-144 -302.5h-51q30 224 161.5 340.5t325.5 116.5q174 0 268.5 -84.5t94.5 -216.5q0 -125 -74 -222.5t-229 -146.5z" />
    <glyph glyph-name="four" unicode="4" horiz-adv-x="1073" 
d="M954 418h-163l-68 -418h-53l67 418h-698l2 51l852 965h55l-153 -965h163zM741 469l148 891l-783 -891h635z" />
    <glyph glyph-name="five" unicode="5" horiz-adv-x="1150" 
d="M637 961q171 0 281 -107t110 -291q0 -122 -40.5 -229.5t-112 -185.5t-175.5 -123t-225 -45q-212 0 -327.5 125.5t-81.5 308.5h47q-21 -181 80.5 -282t281.5 -101q150 0 266 73t176 193t60 264q0 159 -93 253.5t-253 94.5q-119 0 -218.5 -45.5t-195.5 -138.5h-61l223 709
h678l-6 -50h-639l-191 -604q82 91 192 136t224 45z" />
    <glyph glyph-name="six" unicode="6" horiz-adv-x="1173" 
d="M657 963q130 0 221 -54t133 -142t42 -200q0 -162 -70 -296t-197.5 -212.5t-287.5 -78.5q-102 0 -179 35.5t-122.5 99.5t-70.5 151.5t-24 192t17 221.5q122 768 616 768q119 0 203.5 -46.5t122 -120.5t31.5 -163h-50q3 53 -11.5 101t-49 90t-99.5 67t-153 25
q-103 0 -188.5 -40t-147 -108.5t-108.5 -167t-76 -208t-47 -238.5q79 165 207 244.5t288 79.5zM494 31q151 0 267.5 73t178 195t61.5 272q0 157 -90 249.5t-262 92.5q-138 0 -251.5 -70t-176.5 -185.5t-63 -247.5q0 -78 18.5 -144t57.5 -120t105.5 -84.5t154.5 -30.5z" />
    <glyph glyph-name="seven" unicode="7" horiz-adv-x="954" 
d="M993 1434l-6 -52q-536 -678 -756 -1382h-51q226 719 754 1386h-756l6 48h809z" />
    <glyph glyph-name="eight" unicode="8" horiz-adv-x="1122" 
d="M743 795q120 -44 189 -127.5t69 -208.5q0 -137 -73.5 -247.5t-197.5 -171t-273 -60.5q-192 0 -307 95.5t-115 256.5q0 168 102.5 289t278.5 176q-84 33 -137.5 102.5t-53.5 163.5q0 75 30 143.5t86 122.5t144 86.5t195 32.5q170 0 262 -81t92 -204q0 -136 -84 -232
t-207 -136zM684 1397q-187 0 -297.5 -94.5t-110.5 -235.5q0 -113 81 -182.5t218 -69.5q174 0 290 101t116 251q0 99 -77 164.5t-220 65.5zM453 31q133 0 245 52.5t181 152.5t69 227q0 136 -99 218.5t-265 82.5q-217 0 -356.5 -121.5t-139.5 -312.5q0 -142 102 -220.5
t263 -78.5z" />
    <glyph glyph-name="nine" unicode="9" horiz-adv-x="1173" 
d="M553 465q-98 0 -174.5 30.5t-124 85t-72 125.5t-24.5 154q0 162 70 296t197.5 213t287.5 79q102 0 179 -35.5t122.5 -99.5t70.5 -151.5t24 -192t-17 -221.5q-122 -768 -617 -768q-119 0 -203.5 46.5t-121.5 120t-31 162.5h49q-3 -53 11.5 -100.5t49 -89.5t99.5 -67
t153 -25q103 0 188.5 40t147 108.5t109 166.5t76.5 207.5t47 238.5q-79 -164 -207.5 -243.5t-288.5 -79.5zM717 1397q-151 0 -268 -73t-178.5 -195.5t-61.5 -272.5q0 -157 90 -249.5t262 -92.5q138 0 252 70.5t177 186t63 247.5q0 78 -18.5 144t-57.5 120t-105.5 84.5
t-154.5 30.5z" />
    <glyph glyph-name="colon" unicode=":" horiz-adv-x="262" 
d="M188 1065h76l-16 -104h-76zM35 104h78l-17 -104h-76z" />
    <glyph glyph-name="semicolon" unicode=";" horiz-adv-x="276" 
d="M188 1065h76l-16 -104h-76zM-23 -260l5 27q32 26 46.5 60t24.5 112l6 61h-43l19 102h90l-33 -208q-12 -69 -43 -110t-72 -44z" />
    <glyph glyph-name="less" unicode="&#x3c;" horiz-adv-x="1019" 
d="M844 63l-744 429l881 428l8 65l-926 -457l-14 -75l785 -453z" />
    <glyph glyph-name="equal" unicode="=" horiz-adv-x="839" 
d="M100 764h715l-8 -45h-713zM47 436h713l-6 -45h-715z" />
    <glyph glyph-name="greater" unicode="&#x3e;" horiz-adv-x="1017" 
d="M-14 63l-9 -63l924 453l12 75l-780 457l-10 -65l743 -428z" />
    <glyph glyph-name="question" unicode="?" horiz-adv-x="1017" 
d="M633 1448q-202 0 -332.5 -116.5t-161.5 -313.5h54q16 100 58 175t101 118.5t125.5 64.5t140.5 21q167 0 252 -81t58 -247q-10 -59 -39.5 -107.5t-69 -83t-86 -67t-94 -67t-88.5 -74.5t-73.5 -99.5t-45.5 -132.5l-16 -94h55l12 94q10 63 40.5 115.5t71.5 89.5t88.5 71
t95.5 69t89.5 74t72.5 95.5t42 124.5q28 173 -72 272t-278 99zM379 104h76l-15 -104h-75z" />
    <glyph glyph-name="at" unicode="@" horiz-adv-x="1572" 
d="M1137 135q-214 -149 -453 -149q-122 0 -230 40t-190.5 114t-130 188t-47.5 254q0 174 66.5 334.5t178 276.5t264.5 185.5t318 69.5q121 0 229 -43t188.5 -120t127.5 -191.5t47 -251.5q0 -94 -20 -185t-57 -167.5t-97.5 -123.5t-134.5 -47q-92 0 -142.5 73t-25.5 169
q-30 -69 -71.5 -119t-85.5 -76t-84.5 -37.5t-79.5 -11.5q-117 0 -199 79t-82 229q0 190 112.5 325t280.5 135q86 0 157.5 -46.5t96.5 -141.5l29 168h47q-82 -514 -82 -543q0 -157 133 -157q62 0 113.5 45.5t82.5 117.5t47.5 153.5t16.5 160.5q0 129 -43 235.5t-117.5 176.5
t-174 108.5t-212.5 38.5q-159 0 -303.5 -66.5t-249 -177t-166 -261.5t-61.5 -314q0 -131 44.5 -237t121 -173t175.5 -103t210 -36q221 0 406 129zM700 365q94 0 174.5 62t125 160.5t44.5 205.5q0 123 -65 185t-162 62q-100 0 -179.5 -60t-121 -154t-41.5 -201
q0 -69 20.5 -121.5t54 -81.5t71.5 -43t79 -14z" />
    <glyph glyph-name="A" unicode="A" horiz-adv-x="1310" 
d="M1108 0l-111 449h-723l-251 -449h-66l811 1434h43l354 -1434h-57zM301 498h684l-207 848z" />
    <glyph glyph-name="B" unicode="B" horiz-adv-x="1191" 
d="M784 782q283 -66 283 -315q0 -227 -149.5 -347t-407.5 -120h-492l228 1434h491q182 0 269.5 -73.5t87.5 -199.5q0 -141 -81 -241t-229 -138zM293 1380l-90 -571h461q165 0 270.5 102t105.5 252q0 97 -69.5 157t-229.5 60h-448zM528 53q220 0 353 111t133 301
q0 136 -102 213.5t-296 77.5h-421l-113 -703h446z" />
    <glyph glyph-name="C" unicode="C" horiz-adv-x="1277" 
d="M592 35q174 0 305 69.5t197 182.5h65q-76 -142 -225.5 -223.5t-345.5 -81.5q-112 0 -203.5 33t-159.5 99t-105.5 172t-37.5 244q0 143 31 278t93 252t149.5 204.5t208 137.5t259.5 50q195 0 316.5 -81.5t152.5 -225.5h-59q-29 116 -135 185t-283 69q-127 0 -237 -48
t-189.5 -132t-137 -194.5t-86 -237t-28.5 -259.5q0 -126 34 -221.5t96 -154.5t143.5 -88t181.5 -29z" />
    <glyph glyph-name="D" unicode="D" horiz-adv-x="1245" 
d="M602 1434q291 0 439.5 -140.5t148.5 -398.5q0 -264 -94.5 -465t-279.5 -315.5t-437 -114.5h-359l226 1434h356zM375 51q245 0 418.5 107.5t258.5 297.5t85 447q0 239 -137 359t-406 120h-303l-207 -1331h291z" />
    <glyph glyph-name="E" unicode="E" horiz-adv-x="1064" 
d="M1106 1380h-813l-96 -610h708l-8 -49h-709l-108 -668h835l-10 -53h-887l228 1434h866z" />
    <glyph glyph-name="F" unicode="F" horiz-adv-x="1079" 
d="M1141 1380h-848l-103 -632h697l-8 -52h-697l-108 -696h-56l228 1434h903z" />
    <glyph glyph-name="G" unicode="G" horiz-adv-x="1323" 
d="M786 692h482l-11 -71q-52 -315 -226 -477t-447 -162q-228 0 -365 137.5t-137 408.5q0 145 30 280.5t92 252.5t149 204t208 137t262 50q195 0 316.5 -81.5t152.5 -225.5h-59q-29 116 -135 185t-283 69q-129 0 -240.5 -48t-190.5 -131t-135.5 -193.5t-84 -236.5t-27.5 -260
q0 -127 34 -223t96.5 -155t144.5 -88t182 -29q254 0 411.5 157.5t198.5 448.5h-424z" />
    <glyph glyph-name="H" unicode="H" horiz-adv-x="1263" 
d="M1219 1434h55l-227 -1434h-56l107 668h-918l-106 -668h-56l228 1434h55l-113 -717h918z" />
    <glyph glyph-name="I" unicode="I" horiz-adv-x="292" 
d="M76 0h-56l226 1434h55z" />
    <glyph glyph-name="J" unicode="J" horiz-adv-x="970" 
d="M14 195q87 -154 324 -154q75 0 142 23.5t127.5 73.5t105 140t63.5 211l152 945h53l-150 -942q-18 -112 -55 -200t-86 -144.5t-110.5 -93.5t-125.5 -52.5t-135 -15.5q-122 0 -212 45t-136 129z" />
    <glyph glyph-name="K" unicode="K" horiz-adv-x="1191" 
d="M1229 1434l-758 -680l586 -754h-74l-551 719l-285 -256l-73 -463h-56l228 1434h55l-139 -883l983 883h84z" />
    <glyph glyph-name="L" unicode="L" horiz-adv-x="1069" 
d="M84 53h797l-11 -53h-852l228 1434h55z" />
    <glyph glyph-name="M" unicode="M" horiz-adv-x="1646" 
d="M246 1434h47l442 -1379l867 1379h55l-227 -1434h-56l205 1288h-2l-811 -1288h-68l-417 1288h-2l-205 -1288h-56z" />
    <glyph glyph-name="N" unicode="N" horiz-adv-x="1282" 
d="M1292 1434l-227 -1434h-74l-696 1372h-4l-217 -1372h-56l228 1434h73l699 -1366h2l217 1366h55z" />
    <glyph glyph-name="O" unicode="O" horiz-adv-x="1409" 
d="M829 1452q234 0 375.5 -139.5t141.5 -401.5q0 -148 -31.5 -285.5t-95 -254.5t-152.5 -203.5t-210.5 -136t-262.5 -49.5q-236 0 -375 138t-139 400q0 147 31 284.5t94 255t151 205t210 137.5t263 50zM598 37q131 0 243.5 48t193.5 131t139 194t86 238t28 261
q0 241 -124.5 364.5t-340.5 123.5q-131 0 -243.5 -48t-193 -132t-138 -195.5t-85.5 -239.5t-28 -264q0 -239 123.5 -360t339.5 -121z" />
    <glyph glyph-name="P" unicode="P" horiz-adv-x="1153" 
d="M715 1434q201 0 308 -88t107 -256q0 -248 -148 -386.5t-404 -138.5h-414l-90 -565h-56l228 1434h469zM584 618q233 0 362 123t129 344q0 295 -362 295h-420l-123 -762h414z" />
    <glyph glyph-name="Q" unicode="Q" horiz-adv-x="1409" 
d="M1346 911q0 -214 -67 -404t-192 -319l138 -163l-39 -37l-137 164q-191 -170 -455 -170q-236 0 -375 138t-139 400q0 147 31 284.5t94 255t151 205t210 137.5t263 50q234 0 375.5 -139.5t141.5 -401.5zM598 37q243 0 414 158l-269 321l39 37l269 -322q115 124 176 302.5
t61 375.5q0 241 -124.5 364.5t-340.5 123.5q-131 0 -243.5 -48t-193 -132t-138 -195.5t-85.5 -239.5t-28 -264q0 -239 123.5 -360t339.5 -121z" />
    <glyph glyph-name="R" unicode="R" horiz-adv-x="1198" 
d="M840 670q93 -12 146.5 -69.5t53.5 -154.5q0 -37 -21.5 -180t-21.5 -186q0 -62 21 -80h-57q-21 21 -21 80q0 40 21.5 177t21.5 185q0 60 -21.5 101t-61.5 61t-82.5 27.5t-98.5 7.5h-543l-102 -639h-56l228 1434h516q197 0 296 -79t99 -231q0 -161 -91 -288t-226 -166z
M692 688q120 0 215.5 62.5t146 161t50.5 210.5q0 258 -348 258h-463l-111 -692h510z" />
    <glyph glyph-name="S" unicode="S" horiz-adv-x="1157" 
d="M686 752q85 -20 146 -45t110 -63.5t73.5 -95t24.5 -132.5q0 -197 -154.5 -315.5t-400.5 -118.5q-100 0 -177 21.5t-126.5 57t-81 87t-44 107t-11.5 120.5h55q4 -338 394 -338q217 0 354 102.5t137 274.5q0 55 -16.5 98.5t-42 72t-65.5 50.5t-76.5 34.5t-86.5 24.5
l-215 51q-299 66 -299 306q0 83 29.5 154t89 127t159 88t228.5 32q105 0 185 -26t128.5 -73t73.5 -106t27 -129h-53q-2 36 -11 68.5t-26.5 65t-47 58.5t-68.5 46.5t-95.5 31.5t-124.5 11q-110 0 -196 -27.5t-137 -75.5t-77 -107.5t-26 -127.5q0 -113 62 -175t202 -93z" />
    <glyph glyph-name="T" unicode="T" horiz-adv-x="1136" 
d="M1204 1434l-6 -54h-483l-219 -1380h-56l219 1380h-481l6 54h1020z" />
    <glyph glyph-name="U" unicode="U" horiz-adv-x="1275" 
d="M1284 1434l-139 -893q-41 -258 -203 -405.5t-405 -147.5t-357.5 147.5t-73.5 405.5l140 893h55l-141 -889q-37 -237 62 -370.5t323 -133.5q218 0 362 134.5t183 369.5l139 889h55z" />
    <glyph glyph-name="V" unicode="V" horiz-adv-x="1329" 
d="M1331 1434h60l-809 -1434h-41l-357 1434h54l333 -1350z" />
    <glyph glyph-name="W" unicode="W" horiz-adv-x="1984" 
d="M1991 1434h55l-645 -1434h-60l-231 1376l-674 -1376h-57l-195 1434h58l176 -1360l661 1360h74l225 -1360z" />
    <glyph glyph-name="X" unicode="X" horiz-adv-x="1212" 
d="M1278 1434l-619 -695l428 -739h-59l-403 698l-621 -698h-67l661 745l-397 689h57l375 -650l575 650h70z" />
    <glyph glyph-name="Y" unicode="Y" horiz-adv-x="1239" 
d="M635 588l-96 -588h-52l95 588l-398 846h58l372 -791l617 791h69z" />
    <glyph glyph-name="Z" unicode="Z" horiz-adv-x="1208" 
d="M1049 53l-11 -53h-1061l9 57l1198 1323h-953l7 54h1019l-10 -58l-1192 -1323h994z" />
    <glyph glyph-name="bracketleft" unicode="[" horiz-adv-x="481" 
d="M303 1475l-266 -1690h192l-8 -51h-246l285 1792h246l-10 -51h-193z" />
    <glyph glyph-name="backslash" unicode="\" horiz-adv-x="761" 
d="M195 1434h51l329 -1434h-51z" />
    <glyph glyph-name="bracketright" unicode="]" horiz-adv-x="483" 
d="M444 1475h-192l10 51h246l-285 -1792h-246l9 51h192z" />
    <glyph glyph-name="asciicircum" unicode="^" horiz-adv-x="946" 
d="M834 952l-252 445l-392 -445h-63l430 482h53l279 -482h-55z" />
    <glyph glyph-name="underscore" unicode="_" horiz-adv-x="1208" 
d="M-20 0h1024l-11 -51h-1024z" />
    <glyph glyph-name="grave" unicode="`" horiz-adv-x="296" 
d="M401 1190l-176 262h-80l213 -262h43z" />
    <glyph glyph-name="a" unicode="a" horiz-adv-x="1085" 
d="M938 715l-96 -602q-6 -42 12 -56.5t68 -9.5l-9 -49q-18 -6 -34 -6q-61 0 -81 32t-5 115l18 109q-20 -36 -59.5 -77t-100 -84.5t-147.5 -72t-182 -28.5q-138 0 -216.5 71.5t-78.5 192.5q0 81 28.5 140t86 97.5t129 61.5t171.5 39q7 1 48.5 7t58 8.5t58 9t64 11t58 11.5
t59 13.5t48.5 14t43 15.5l4 31q28 171 -34.5 244t-246.5 73q-162 0 -242 -50.5t-114 -146.5h-56q43 131 144.5 188.5t269.5 57.5q193 0 279 -85t55 -275zM823 340l47 287q-20 -9 -55.5 -19t-88 -20t-96 -17.5t-112 -18.5t-102.5 -17q-175 -29 -255.5 -93.5t-80.5 -195.5
q0 -100 64.5 -156.5t177.5 -56.5q85 0 163.5 25t132.5 60.5t99 80t69.5 79t36.5 62.5z" />
    <glyph glyph-name="b" unicode="b" horiz-adv-x="1118" 
d="M645 1075q176 0 287.5 -108.5t111.5 -307.5q0 -135 -40.5 -257t-112.5 -214.5t-178.5 -147t-231.5 -54.5q-296 0 -377 288l-41 -274h-53l226 1434h53l-101 -623q84 136 203 200t254 64zM475 35q122 0 222.5 53t163 141t96.5 198.5t34 229.5q0 182 -97 275.5t-247 93.5
q-157 0 -276 -84t-179.5 -221.5t-60.5 -304.5q0 -184 98.5 -282.5t245.5 -98.5z" />
    <glyph glyph-name="c" unicode="c" horiz-adv-x="1030" 
d="M440 35q136 0 230.5 56t160.5 181h62q-75 -150 -185.5 -218t-265.5 -68q-87 0 -160.5 27.5t-129.5 80t-87.5 135.5t-31.5 189q0 131 42 250.5t115.5 209.5t180.5 143.5t231 53.5q157 0 249.5 -69.5t127.5 -219.5h-57q-29 125 -107 182.5t-211 57.5q-96 0 -180.5 -34
t-146 -93t-106.5 -136.5t-67 -165t-22 -177.5q0 -99 29 -174.5t79.5 -120.5t113.5 -67.5t136 -22.5z" />
    <glyph glyph-name="d" unicode="d" 
d="M594 1075q65 0 121.5 -15t107.5 -47.5t90.5 -88.5t61.5 -133l100 643h51l-227 -1434h-51l47 258q-86 -141 -206.5 -206.5t-256.5 -65.5q-175 0 -287 109.5t-112 307.5q0 182 68 334t197.5 245t295.5 93zM430 35q158 0 276.5 83.5t178 220.5t59.5 306q0 99 -28.5 174.5
t-78 119.5t-109 65.5t-128.5 21.5q-100 0 -185 -35t-145 -94.5t-102.5 -139t-63 -168.5t-20.5 -183q0 -182 97.5 -276.5t248.5 -94.5z" />
    <glyph glyph-name="e" unicode="e" horiz-adv-x="1060" 
d="M971 496h-881q-4 -54 -4 -84q0 -190 97.5 -283.5t262.5 -93.5q125 0 207 32.5t160 116.5h68q-94 -110 -194.5 -154t-240.5 -44q-193 0 -303 111t-110 315q0 181 71 331.5t202.5 241t297.5 90.5q171 0 279 -109t108 -302q0 -32 -6.5 -87.5t-13.5 -80.5zM598 1026
q-193 0 -328 -136.5t-172 -342.5h830q10 51 10 112q0 178 -94.5 272.5t-245.5 94.5z" />
    <glyph glyph-name="f" unicode="f" horiz-adv-x="624" 
d="M516 1417q-89 0 -136.5 -40.5t-64.5 -143.5l-26 -168h307l-6 -49h-309l-160 -1016h-53l159 1016h-149l6 49h152l26 166q34 235 252 235q86 0 160 -22l-8 -43q-82 16 -150 16z" />
    <glyph glyph-name="g" unicode="g" horiz-adv-x="1107" 
d="M1069 1065l-170 -1088q-17 -101 -54.5 -177.5t-87 -123.5t-116 -76t-133 -40t-146.5 -11q-131 0 -234 48.5t-140 134.5l41 26q41 -78 131.5 -117.5t204.5 -39.5q202 0 325 89.5t158 299.5l43 268q-83 -140 -202.5 -205t-256.5 -65q-175 0 -287 108.5t-112 306.5
q0 135 40 257t111.5 214t178 146.5t231.5 54.5q87 0 158.5 -26t131.5 -91.5t87 -166.5l43 274h55zM430 37q158 0 276.5 84.5t178 221.5t59.5 304q0 98 -29 173t-78.5 119t-109.5 65.5t-129 21.5q-99 0 -183.5 -34t-144.5 -93.5t-102.5 -138.5t-63 -168.5t-20.5 -185.5
q0 -93 27 -164.5t75 -115.5t109.5 -66.5t134.5 -22.5z" />
    <glyph glyph-name="h" unicode="h" horiz-adv-x="1056" 
d="M633 1075q67 0 121 -13.5t99.5 -43.5t71.5 -78.5t36 -120t-7 -166.5l-104 -653h-53l102 657q16 86 8.5 148.5t-27.5 104.5t-59 67.5t-85 36t-107 10.5q-72 0 -139 -23t-116.5 -59t-91.5 -82.5t-68 -89.5t-42 -84l-109 -686h-53l226 1434h53l-101 -641q12 34 47.5 79
t90.5 92t137 79t170 32z" />
    <glyph glyph-name="i" unicode="i" horiz-adv-x="272" 
d="M223 1360l15 92h51l-15 -92h-51zM178 1065h51l-168 -1065h-51z" />
    <glyph glyph-name="j" unicode="j" horiz-adv-x="354" 
d="M285 1360l14 92h51l-14 -92h-51zM-305 -346q71 -51 160 -51q70 0 117.5 48.5t60.5 137.5l205 1276h53l-199 -1258q-23 -143 -84.5 -200.5t-161.5 -57.5q-47 0 -90.5 17t-70.5 39z" />
    <glyph glyph-name="k" unicode="k" horiz-adv-x="1001" 
d="M973 1065l-572 -502l471 -563h-65l-438 535l-256 -226l-50 -309h-53l226 1434h53l-166 -1059l780 690h70z" />
    <glyph glyph-name="l" unicode="l" horiz-adv-x="268" 
d="M236 1434h51l-226 -1434h-51z" />
    <glyph glyph-name="m" unicode="m" horiz-adv-x="1767" 
d="M1362 1075q80 0 141 -21.5t106.5 -70.5t58.5 -129.5t-3 -198.5l-104 -655h-54l103 655q59 369 -246 369q-85 0 -166.5 -37.5t-140 -94t-98 -120.5t-50.5 -121l-104 -651h-53l104 655q59 369 -248 369q-83 0 -162 -36t-135 -91.5t-94.5 -111t-56.5 -105.5l-109 -680h-53
l168 1065h53l-43 -272q12 33 47.5 78t89.5 92t132.5 79.5t160.5 32.5q66 0 119 -15t96 -47.5t69 -88.5t30 -133q22 48 63 96.5t96.5 91.5t130 69.5t152.5 26.5z" />
    <glyph glyph-name="n" unicode="n" horiz-adv-x="1044" 
d="M621 1075q67 0 121 -13.5t99.5 -44.5t71.5 -80.5t36 -121t-7 -166.5l-104 -649h-54l103 653q15 86 7.5 149t-27.5 105.5t-59 68.5t-85.5 37t-106.5 11q-72 0 -139 -23.5t-116.5 -60t-91 -83.5t-67.5 -90.5t-42 -84.5l-109 -682h-53l168 1065h53l-43 -274q9 26 33 60.5
t65 74t90.5 72.5t117.5 55t139 22z" />
    <glyph glyph-name="o" unicode="o" horiz-adv-x="1069" 
d="M596 1075q172 0 285.5 -114t113.5 -318q0 -173 -72 -323t-203 -242t-290 -92q-82 0 -153.5 28t-126 80.5t-86 134.5t-31.5 185q0 129 42.5 249t115.5 211t179 146t226 55zM942 649q0 94 -28 167.5t-76 118.5t-109 68t-131 23q-149 0 -267.5 -85.5t-181.5 -225.5t-63 -303
q0 -93 28 -166.5t76.5 -118.5t109.5 -68.5t130 -23.5q150 0 268.5 86.5t181 226t62.5 301.5z" />
    <glyph glyph-name="p" unicode="p" horiz-adv-x="1116" 
d="M227 1065l-43 -264q168 274 459 274q176 0 287.5 -108.5t111.5 -307.5q0 -182 -68 -334.5t-198 -245.5t-297 -93q-296 0 -377 288l-102 -663h-53l229 1454h51zM473 35q99 0 184 34.5t145 94t103 139t63.5 169.5t20.5 185q0 182 -97 275.5t-247 93.5q-118 0 -216.5 -49
t-163.5 -133t-100.5 -194.5t-35.5 -233.5q0 -184 98.5 -282.5t245.5 -98.5z" />
    <glyph glyph-name="q" unicode="q" horiz-adv-x="1107" 
d="M594 1075q137 0 237 -67.5t142 -216.5l43 274h53l-229 -1454h-54l103 647q-85 -141 -203 -206.5t-254 -65.5q-175 0 -287 109.5t-112 307.5q0 135 40 257t111.5 214t178 146.5t231.5 54.5zM430 35q158 0 276.5 85t178 222.5t59.5 304.5q0 98 -29 173t-78.5 119
t-109.5 65.5t-129 21.5q-100 0 -185 -35t-145 -94.5t-102 -139t-62 -168.5t-20 -183q0 -182 97.5 -276.5t248.5 -94.5z" />
    <glyph glyph-name="r" unicode="r" horiz-adv-x="684" 
d="M631 1075q15 0 35 -1t28 -1l-6 -47q-20 2 -65 2q-165 -3 -288.5 -104t-178.5 -267l-105 -657h-53l168 1065h53l-45 -291q37 119 166.5 210t290.5 91z" />
    <glyph glyph-name="s" unicode="s" horiz-adv-x="933" 
d="M825 836q-41 190 -301 190q-164 0 -257 -71t-93 -175q0 -76 48 -121.5t163 -72.5l154 -37q145 -38 210.5 -85.5t65.5 -144.5q0 -72 -26.5 -130t-69 -95.5t-100.5 -62t-118 -35t-124 -10.5q-80 0 -147 17.5t-119 52.5t-80 94.5t-25 136.5h53q0 -250 316 -250q76 0 143 15
t123.5 46.5t89.5 86.5t33 128q0 35 -11 62t-28 44.5t-48 32.5t-59 23.5t-73 20.5l-197 49q-110 30 -169.5 85t-59.5 148q0 131 117 214t290 83q144 0 240.5 -59t112.5 -180h-54z" />
    <glyph glyph-name="t" unicode="t" horiz-adv-x="546" 
d="M317 1016l-145 -912q-4 -39 13 -53t59 -14q68 0 143 16l-8 -49q-67 -18 -139 -18q-64 0 -96 27t-23 87l145 916h-168l6 49h168l43 266h52l-43 -266h217l-6 -49h-218z" />
    <glyph glyph-name="u" unicode="u" horiz-adv-x="1044" 
d="M952 1065h54l-168 -1065h-54l43 272q-11 -27 -34.5 -61t-64.5 -74t-90 -72.5t-117 -54.5t-140 -22q-83 0 -146.5 21.5t-111.5 71.5t-62 131t2 200l103 653h53l-102 -655q-61 -371 264 -371q92 0 174 34.5t138.5 89t94 110t56.5 108.5z" />
    <glyph glyph-name="v" unicode="v" horiz-adv-x="991" 
d="M424 0h-66l-264 1065h53l250 -1008l570 1008h57z" />
    <glyph glyph-name="w" unicode="w" horiz-adv-x="1576" 
d="M1610 1065l-494 -1065h-72l-204 989l-518 -989h-70l-158 1065h53l148 -1006l526 1006h53l211 -1006l467 1006h58z" />
    <glyph glyph-name="x" unicode="x" horiz-adv-x="909" 
d="M932 1065l-469 -528l307 -537h-55l-283 498l-440 -498h-66l480 545l-297 520h55l276 -485l426 485h66z" />
    <glyph glyph-name="y" unicode="y" horiz-adv-x="976" 
d="M950 1065h60l-666 -1202q-74 -137 -171 -194.5t-202 -39.5l11 52q91 -15 173.5 37t143.5 165q52 96 47 121l-252 1061h53l242 -1026z" />
    <glyph glyph-name="z" unicode="z" horiz-adv-x="980" 
d="M37 49h774l-8 -49h-834l6 49l928 967h-753l8 49h813l-6 -49z" />
    <glyph glyph-name="braceleft" unicode="{" horiz-adv-x="473" 
d="M248 766l-111 -139l64 -135l-101 -635q-4 -32 13 -52t49 -20h71l-8 -51h-67q-59 0 -88 42.5t-21 94.5l101 610l-72 146l115 149l100 619q7 51 47.5 91t101.5 40h68l-10 -51h-72q-32 0 -54.5 -22.5t-27.5 -55.5z" />
    <glyph glyph-name="bar" unicode="|" horiz-adv-x="358" 
d="M299 1638h51l-321 -2027h-52z" />
    <glyph glyph-name="braceright" unicode="}" horiz-adv-x="473" 
d="M246 766l98 637q6 32 -11 52t-50 20h-72l10 51h68q59 0 86 -42t20 -95l-98 -613l70 -149l-113 -146l-98 -616q-8 -51 -50 -91t-102 -40h-67l8 51h71q32 0 55.5 22.5t28.5 55.5l99 629l108 135z" />
    <glyph glyph-name="asciitilde" unicode="~" horiz-adv-x="772" 
d="M682 674l49 -8q-14 -81 -70.5 -121.5t-123.5 -40.5q-39 0 -71.5 15t-55 37t-44 43.5t-49.5 36.5t-61 15q-67 0 -104 -37.5t-41 -78.5l-48 6q11 81 68 121t123 40q40 0 73 -15t55.5 -37t44 -43.5t49 -36.5t59.5 -15q71 0 107 38t40 81z" />
    <glyph glyph-name="exclamdown" unicode="&#xa1;" horiz-adv-x="321" 
d="M170 961l16 104h76l-16 -104h-76zM199 721l-172 -1090h-54l170 1090h56z" />
    <glyph glyph-name="cent" unicode="&#xa2;" horiz-adv-x="1030" 
d="M942 918q-29 124 -104 180.5t-205 58.5l-160 -991q131 3 222.5 59t156.5 178h61q-75 -150 -184.5 -218t-261.5 -68l-33 -199h-51l33 201q-162 14 -262.5 125t-100.5 305q0 169 67 315t191 239t279 103l37 228h51l-37 -228q150 -5 237.5 -73.5t120.5 -214.5h-57zM102 551
q0 -180 90 -276t232 -107l158 987q-146 -12 -257.5 -103.5t-167 -223t-55.5 -277.5z" />
    <glyph glyph-name="sterling" unicode="&#xa3;" horiz-adv-x="1019" 
d="M627 1448q209 0 299 -120.5t63 -344.5h-49q51 414 -317 414q-176 0 -290 -110t-114 -292q0 -54 10 -108.5t28.5 -123.5t25.5 -101h321l-6 -52h-305q6 -40 6 -84q0 -229 -254 -495q108 43 223 43q65 0 190.5 -23.5t192.5 -23.5q90 0 166 24l-6 -51q-88 -23 -174 -23
q-70 0 -191.5 23t-189.5 23q-115 0 -244 -46l-28 60q266 260 266 504q0 35 -6 69h-170l6 52h153q-5 18 -26.5 91t-31 126t-9.5 112q0 203 126.5 330t334.5 127z" />
    <glyph glyph-name="currency" unicode="&#xa4;" horiz-adv-x="1150" 
d="M1096 975q0 -178 -119 -307l98 -99l-41 -41l-98 99q-127 -111 -299 -111t-299 111l-98 -99l-43 41l98 99q-117 133 -117 307t117 307l-98 98l43 41l98 -98q127 111 299 111t299 -111l98 98l41 -41l-98 -98q119 -129 119 -307zM229 975q0 -114 59.5 -209t152.5 -147
t196 -52t196.5 52t153.5 147t60 209q0 113 -60 208t-153.5 147t-196.5 52q-102 0 -195.5 -52.5t-153 -147t-59.5 -207.5z" />
    <glyph glyph-name="yen" unicode="&#xa5;" horiz-adv-x="1239" 
d="M635 588v-4h291l-8 -49h-291l-23 -136h293l-8 -49h-293l-57 -350h-52l56 350h-293l8 49h293l22 136h-294l8 49h295v4l-398 846h58l372 -791l617 791h69z" />
    <glyph glyph-name="brokenbar" unicode="&#xa6;" horiz-adv-x="358" 
d="M299 1638h51l-90 -573h-51zM70 184h51l-92 -573h-52z" />
    <glyph glyph-name="section" unicode="&#xa7;" horiz-adv-x="1196" 
d="M739 1401q-197 0 -323.5 -94.5t-126.5 -266.5q0 -202 268 -256l166 -32q354 -74 354 -328q0 -90 -35.5 -174.5t-99.5 -138.5q41 -62 41 -154q0 -210 -150 -325t-399 -115q-99 0 -177 21.5t-127 57.5t-80 86t-42 104t-8 114h51q1 -59 11 -105t35.5 -90.5t67 -74t109 -47
t158.5 -17.5q230 0 364 100.5t134 288.5q0 61 -22 109t-62 79.5t-87.5 51.5t-105.5 32l-215 45q-147 30 -221 109.5t-74 189.5q0 83 36 166.5t102 139.5l14 -9q-57 72 -57 170q0 189 140 300.5t361 111.5q402 0 402 -322h-49q-1 47 -9 83t-30.5 73.5t-60 61.5t-102 39.5
t-151.5 15.5zM532 739q-141 29 -217 105q-120 -105 -120 -273q0 -200 268 -254l166 -32q196 -42 284 -138q54 51 83.5 125t29.5 150q0 217 -278 272z" />
    <glyph glyph-name="dieresis" unicode="&#xa8;" horiz-adv-x="466" 
d="M145 1452h62l-21 -152h-63zM547 1452h63l-22 -152h-62z" />
    <glyph glyph-name="copyright" unicode="&#xa9;" horiz-adv-x="1632" 
d="M727 -14q-183 0 -328 78.5t-227 221.5t-82 326q0 166 67 320t179 266.5t267 180t323 67.5q182 0 327 -78.5t227.5 -221.5t82.5 -325q0 -168 -66.5 -322.5t-178.5 -267t-266.5 -179t-324.5 -66.5zM727 35q156 0 301 61.5t252 164.5t171.5 247t64.5 301q0 262 -166 425
t-426 163q-163 0 -310 -65t-251.5 -173t-166 -252.5t-61.5 -298.5q0 -254 167.5 -413.5t424.5 -159.5zM752 313q230 0 346 183h51q-128 -230 -397 -230q-157 0 -258 99t-101 270q0 145 65.5 266.5t179.5 192.5t251 71q260 0 323 -225h-47q-52 178 -278 178
q-125 0 -228.5 -66t-161 -178t-57.5 -245q0 -150 90 -233t222 -83z" />
    <glyph glyph-name="ordfeminine" unicode="&#xaa;" horiz-adv-x="710" 
d="M647 885q0 -43 19 -90h-62q-1 3 -7 28.5t-9 48.5t0 43q-48 -55 -108.5 -87.5t-155.5 -32.5q-82 0 -135.5 43.5t-53.5 117.5q0 100 68 151.5t172 59.5l254 23q10 102 -21 146t-131 44q-164 0 -211 -106h-57q55 164 270 164q111 0 160 -47t49 -148q0 -43 -20.5 -182.5
t-20.5 -175.5zM342 854q49 0 95 15.5t77.5 39.5t51.5 44t32 38l25 146l-242 -25q-186 -17 -186 -154q0 -104 147 -104z" />
    <glyph glyph-name="guillemotleft" unicode="&#xab;" horiz-adv-x="741" 
d="M385 793l-235 -185l176 -184l-13 -66l-221 234l4 39l297 233zM700 793l-235 -185l176 -184l-12 -66l-221 234l4 39l297 233z" />
    <glyph glyph-name="logicalnot" unicode="&#xac;" horiz-adv-x="948" 
d="M844 639l-49 -311h-54l41 258h-710l8 53h764z" />
    <glyph glyph-name="uni00AD" unicode="&#xad;" horiz-adv-x="843" 
d="M74 600h659l-6 -45h-659z" />
    <glyph glyph-name="registered" unicode="&#xae;" horiz-adv-x="1632" 
d="M727 -14q-183 0 -328 78.5t-227 221.5t-82 326q0 166 67 320t179 266.5t267 180t323 67.5q182 0 327 -78.5t227.5 -221.5t82.5 -325q0 -168 -66.5 -322.5t-178.5 -267t-266.5 -179t-324.5 -66.5zM727 35q156 0 301 61.5t252 164.5t171.5 247t64.5 301q0 262 -166 425
t-426 163q-163 0 -310 -65t-251.5 -173t-166 -252.5t-61.5 -298.5q0 -254 167.5 -413.5t424.5 -159.5zM1087 307h-47q-11 17 -11.5 49t5 63.5t11.5 72.5t6 67q0 61 -36.5 83t-99.5 22h-319l-55 -357h-52l132 819h305q237 0 237 -188q0 -89 -44 -155t-122 -97
q52 -12 76.5 -43t24.5 -86q0 -15 -6 -55t-12 -76.5t-5 -71.5t12 -47zM893 709q99 0 160 66t61 167q0 74 -45.5 106.5t-146.5 32.5h-260l-60 -372h291z" />
    <glyph glyph-name="macron" unicode="&#xaf;" horiz-adv-x="536" 
d="M145 1452h537l-6 -47h-537z" />
    <glyph glyph-name="degree" unicode="&#xb0;" horiz-adv-x="782" 
d="M449 877q-110 0 -184.5 74t-74.5 182q0 135 106.5 237.5t240.5 102.5q112 0 186 -74t74 -182q0 -135 -106.5 -237.5t-241.5 -102.5zM446 932q115 0 205 84t90 207q0 88 -58 141t-144 53q-115 0 -204 -84t-89 -207q0 -88 57 -141t143 -53z" />
    <glyph glyph-name="plusminus" unicode="&#xb1;" horiz-adv-x="880" 
d="M473 575h350l-6 -53h-352l-57 -354h-54l58 354h-351l9 53h350l55 353h55zM-4 -37l6 45h713l-6 -45h-713z" />
    <glyph glyph-name="uni00B2" unicode="&#xb2;" horiz-adv-x="491" 
d="M121 901q9 82 51 137t147 115q38 22 59.5 36.5t45 36t33.5 45t10 52.5q0 36 -29.5 61t-79.5 25q-57 0 -93.5 -33t-47.5 -90h-35q10 70 61.5 114t123.5 44q57 0 96 -33t39 -84q0 -68 -41.5 -112t-130.5 -93q-76 -41 -118.5 -90.5t-47.5 -93.5h289l-7 -37h-325z" />
    <glyph glyph-name="uni00B3" unicode="&#xb3;" horiz-adv-x="530" 
d="M424 1184q44 -7 76 -35t32 -76q0 -75 -60.5 -127.5t-156.5 -52.5q-92 0 -131.5 47t-27.5 127h34q-11 -63 22.5 -101t106.5 -38q79 0 129 41.5t50 103.5q0 47 -42 68.5t-108 21.5h-22l6 31h22q69 0 111.5 41t42.5 90q0 40 -29 62t-82 22q-127 0 -157 -133h-37
q13 79 66 123.5t132 44.5q68 0 105 -33t37 -86q0 -50 -33.5 -89.5t-85.5 -51.5z" />
    <glyph glyph-name="acute" unicode="&#xb4;" horiz-adv-x="251" 
d="M104 1190h39l254 262h-75z" />
    <glyph glyph-name="uni00B5" unicode="&#xb5;" horiz-adv-x="1046" 
d="M954 1065h54l-168 -1065h-54l43 272q-14 -35 -49.5 -79.5t-90 -91.5t-136.5 -79t-170 -32q-240 0 -305 172l-88 -551h-53l231 1454h53l-102 -655q-58 -369 264 -369q92 0 174 34t138.5 88.5t94 109.5t56.5 108z" />
    <glyph glyph-name="paragraph" unicode="&#xb6;" horiz-adv-x="999" 
d="M1018 1434l-8 -54l-289 -1831h-49l289 1831h-168l-289 -1831h-49l174 1100h-178q-181 0 -269.5 106t-60.5 287q29 183 149.5 287.5t302.5 104.5h445z" />
    <glyph glyph-name="periodcentered" unicode="&#xb7;" horiz-adv-x="262" 
d="M90 639h78l-18 -104h-76z" />
    <glyph glyph-name="cedilla" unicode="&#xb8;" horiz-adv-x="262" 
d="M-51 -111q64 26 126 -11.5t62 -110.5q0 -87 -66 -130t-169 -43v39q94 3 139 37.5t45 91.5q0 64 -50 88.5t-124 -2.5l-8 11l-10 14l92 129h65z" />
    <glyph glyph-name="uni00B9" unicode="&#xb9;" horiz-adv-x="305" 
d="M326 1434l-84 -533h-37l76 477q-39 -58 -113 -49l4 33q33 -4 66.5 18.5t50.5 53.5h37z" />
    <glyph glyph-name="ordmasculine" unicode="&#xba;" horiz-adv-x="741" 
d="M489 1450q109 0 188 -72t79 -200q0 -160 -108.5 -276t-256.5 -116q-105 0 -183.5 74.5t-78.5 198.5q0 160 107 275.5t253 115.5zM692 1182q0 104 -60 157.5t-145 53.5q-127 0 -210.5 -100.5t-83.5 -239.5q0 -102 58.5 -155.5t143.5 -53.5q123 0 210 101.5t87 236.5z" />
    <glyph glyph-name="guillemotright" unicode="&#xbb;" horiz-adv-x="741" 
d="M66 430l235 184l-176 185l12 65l221 -233l-4 -39l-297 -234zM381 430l235 184l-176 185l13 65l221 -233l-4 -39l-297 -234z" />
    <glyph glyph-name="onequarter" unicode="&#xbc;" horiz-adv-x="1144" 
d="M16 0h-43l1119 1434h43zM326 1434l-84 -533h-37l76 477q-39 -58 -113 -49l4 33q33 -4 66.5 18.5t50.5 53.5h37zM999 135h-61l-23 -135h-36l22 135h-248l4 31l308 369h36l-59 -369h62zM905 166l49 307l-256 -307h207z" />
    <glyph glyph-name="onehalf" unicode="&#xbd;" horiz-adv-x="1142" 
d="M16 0h-43l1119 1434h43zM326 1434l-84 -533h-37l76 477q-39 -58 -113 -49l4 33q33 -4 66.5 18.5t50.5 53.5h37zM641 0q9 81 51.5 136.5t147.5 115.5q76 44 111.5 80t35.5 90q0 36 -29 61t-79 25q-57 0 -94 -33t-48 -90h-35q10 70 61.5 114t123.5 44q57 0 96 -33t39 -84
q0 -68 -41.5 -112t-130.5 -93q-76 -41 -118.5 -90.5t-47.5 -93.5h289l-6 -37h-326z" />
    <glyph glyph-name="threequarters" unicode="&#xbe;" horiz-adv-x="1269" 
d="M434 1184q44 -7 76.5 -35t32.5 -76q0 -75 -60.5 -127.5t-156.5 -52.5q-92 0 -132 47t-28 127h35q-11 -63 22.5 -101t106.5 -38q79 0 128.5 41.5t49.5 103.5q0 47 -42 68.5t-108 21.5h-22l6 31h23q69 0 111 41t42 90q0 40 -29 62t-81 22q-128 0 -158 -133h-37
q13 79 66.5 123.5t132.5 44.5q68 0 104.5 -33t36.5 -86q0 -50 -33.5 -89.5t-85.5 -51.5zM141 0h-43l1119 1434h43zM1124 135h-61l-23 -135h-36l22 135h-248l4 31l308 369h36l-59 -369h61zM1030 166l49 307l-256 -307h207z" />
    <glyph glyph-name="questiondown" unicode="&#xbf;" horiz-adv-x="1017" 
d="M578 961h-76l14 104h76zM324 -383q202 0 332 116.5t161 313.5h-53q-16 -100 -58 -175t-101 -118.5t-126 -64.5t-141 -21q-167 0 -251.5 81t-57.5 247q10 59 39 107.5t69 83t86.5 67t93.5 67t88 74.5t73.5 99.5t45.5 132.5l17 94h-56l-12 -94q-10 -63 -40.5 -115.5
t-71.5 -89.5t-88.5 -71t-95.5 -69t-89.5 -74t-72.5 -95.5t-42 -124.5q-28 -173 72.5 -272t278.5 -99z" />
    <glyph glyph-name="Agrave" unicode="&#xc0;" horiz-adv-x="1310" 
d="M813 1559h-43l-213 262h80zM1108 0l-111 449h-723l-251 -449h-66l811 1434h43l354 -1434h-57zM301 498h684l-207 848z" />
    <glyph glyph-name="Aacute" unicode="&#xc1;" horiz-adv-x="1310" 
d="M1073 1821l-254 -262h-39l217 262h76zM1108 0l-111 449h-723l-251 -449h-66l811 1434h43l354 -1434h-57zM301 498h684l-207 848z" />
    <glyph glyph-name="Acircumflex" unicode="&#xc2;" horiz-adv-x="1310" 
d="M819 1774l-235 -201h-52l256 248h70l180 -248h-47zM1108 0l-111 449h-723l-251 -449h-66l811 1434h43l354 -1434h-57zM301 498h684l-207 848z" />
    <glyph glyph-name="Atilde" unicode="&#xc3;" horiz-adv-x="1310" 
d="M643 1786q-67 0 -97 -34t-28 -75h-49q0 78 51 118t117 40q37 0 70 -14.5t56.5 -35t46 -40.5t49.5 -34.5t56 -14.5q66 0 96.5 33.5t28.5 72.5h47q0 -77 -51 -116t-116 -39q-37 0 -69 14.5t-56 35t-46.5 40.5t-49.5 34.5t-56 14.5zM1108 0l-111 449h-723l-251 -449h-66
l811 1434h43l354 -1434h-57zM301 498h684l-207 848z" />
    <glyph glyph-name="Adieresis" unicode="&#xc4;" horiz-adv-x="1310" 
d="M684 1821l-20 -152h-64l23 152h61zM1087 1821l-22 -152h-61l20 152h63zM1108 0l-111 449h-723l-251 -449h-66l811 1434h43l354 -1434h-57zM301 498h684l-207 848z" />
    <glyph glyph-name="Aring" unicode="&#xc5;" horiz-adv-x="1310" 
d="M813 1559q-60 0 -98.5 38t-38.5 93q0 70 52 121t126 51q58 0 95.5 -38.5t37.5 -94.5q0 -68 -51.5 -119t-122.5 -51zM846 1817q-48 0 -84.5 -36t-36.5 -85q0 -39 26.5 -65.5t67.5 -26.5q45 0 82 36t37 84q0 39 -26.5 66t-65.5 27zM1108 0l-111 449h-723l-251 -449h-66
l811 1434h43l354 -1434h-57zM301 498h684l-207 848z" />
    <glyph glyph-name="AE" unicode="&#xc6;" horiz-adv-x="1974" 
d="M2015 1380h-813l-96 -610h709l-9 -49h-708l-109 -668h836l-10 -53h-887l71 449h-600l-376 -449h-66l1196 1419l2 15h866zM1008 502l131 823l-695 -823h564z" />
    <glyph glyph-name="Ccedilla" unicode="&#xc7;" horiz-adv-x="1277" 
d="M815 1399q-127 0 -237 -48t-189.5 -132t-137 -194.5t-86 -237t-28.5 -259.5q0 -126 34 -221.5t96 -154.5t143.5 -88t181.5 -29q174 0 305 69.5t197 182.5h65q-76 -142 -224 -223t-343 -82l-84 -93q64 26 126 -11.5t62 -110.5q0 -87 -66 -130t-169 -43v39q94 3 139 37.5
t45 91.5q0 64 -50.5 88.5t-123.5 -2.5l-8 11l-10 14l79 111q-208 16 -329 153.5t-121 392.5q0 143 31 278t93 252t149.5 204.5t208 137.5t259.5 50q195 0 316.5 -81.5t152.5 -225.5h-59q-29 116 -135 185t-283 69z" />
    <glyph glyph-name="Egrave" unicode="&#xc8;" horiz-adv-x="1064" 
d="M715 1559l-176 262h-80l213 -262h43zM1106 1380h-813l-96 -610h708l-8 -49h-709l-108 -668h835l-10 -53h-887l228 1434h866z" />
    <glyph glyph-name="Eacute" unicode="&#xc9;" horiz-adv-x="1064" 
d="M682 1559h39l254 262h-76zM1106 1380h-813l-96 -610h708l-8 -49h-709l-108 -668h835l-10 -53h-887l228 1434h866z" />
    <glyph glyph-name="Ecircumflex" unicode="&#xca;" horiz-adv-x="1064" 
d="M893 1573l-172 201l-236 -201h-51l256 248h70l180 -248h-47zM1106 1380h-813l-96 -610h708l-8 -49h-709l-108 -668h835l-10 -53h-887l228 1434h866z" />
    <glyph glyph-name="Edieresis" unicode="&#xcb;" horiz-adv-x="1064" 
d="M524 1821h62l-21 -152h-63zM926 1821h63l-22 -152h-62zM1106 1380h-813l-96 -610h708l-8 -49h-709l-108 -668h835l-10 -53h-887l228 1434h866z" />
    <glyph glyph-name="Igrave" unicode="&#xcc;" horiz-adv-x="292" 
d="M297 1559l-176 262h-80l213 -262h43zM76 0h-56l226 1434h55z" />
    <glyph glyph-name="Iacute" unicode="&#xcd;" horiz-adv-x="292" 
d="M264 1559h39l254 262h-76zM76 0h-56l226 1434h55z" />
    <glyph glyph-name="Icircumflex" unicode="&#xce;" horiz-adv-x="292" 
d="M475 1573l-172 201l-235 -201h-52l256 248h70l180 -248h-47zM76 0h-56l226 1434h55z" />
    <glyph glyph-name="Idieresis" unicode="&#xcf;" horiz-adv-x="292" 
d="M106 1821h62l-21 -152h-63zM508 1821h63l-22 -152h-62zM76 0h-56l226 1434h55z" />
    <glyph glyph-name="Eth" unicode="&#xd0;" horiz-adv-x="1280" 
d="M637 1434q291 0 439.5 -140.5t148.5 -398.5q0 -264 -94.5 -465t-279.5 -315.5t-437 -114.5h-359l109 694h-86l6 45h88l109 695h356zM410 51q245 0 418 107.5t258 297.5t85 447q0 479 -542 479h-303l-101 -643h518l-6 -45h-518l-100 -643h291z" />
    <glyph glyph-name="Ntilde" unicode="&#xd1;" horiz-adv-x="1282" 
d="M1042 1802h48q0 -77 -51 -116t-117 -39q-37 0 -69 14.5t-56 35t-46.5 40.5t-49.5 34.5t-56 14.5q-67 0 -97 -34t-28 -75h-49q0 78 51 118t117 40q37 0 70 -14.5t57 -35t46.5 -40.5t49.5 -34.5t56 -14.5q66 0 96 33.5t28 72.5zM1292 1434l-227 -1434h-74l-696 1372h-4
l-217 -1372h-56l228 1434h73l699 -1366h2l217 1366h55z" />
    <glyph glyph-name="Ograve" unicode="&#xd2;" horiz-adv-x="1409" 
d="M879 1559l-177 262h-79l213 -262h43zM829 1452q234 0 375.5 -139.5t141.5 -401.5q0 -148 -31.5 -285.5t-95 -254.5t-152.5 -203.5t-210.5 -136t-262.5 -49.5q-236 0 -375 138t-139 400q0 147 31 284.5t94 255t151 205t210 137.5t263 50zM598 37q131 0 243.5 48t193.5 131
t139 194t86 238t28 261q0 241 -124.5 364.5t-340.5 123.5q-131 0 -243.5 -48t-193 -132t-138 -195.5t-85.5 -239.5t-28 -264q0 -239 123.5 -360t339.5 -121z" />
    <glyph glyph-name="Oacute" unicode="&#xd3;" horiz-adv-x="1409" 
d="M846 1559h39l254 262h-76zM829 1452q234 0 375.5 -139.5t141.5 -401.5q0 -148 -31.5 -285.5t-95 -254.5t-152.5 -203.5t-210.5 -136t-262.5 -49.5q-236 0 -375 138t-139 400q0 147 31 284.5t94 255t151 205t210 137.5t263 50zM598 37q131 0 243.5 48t193.5 131t139 194
t86 238t28 261q0 241 -124.5 364.5t-340.5 123.5q-131 0 -243.5 -48t-193 -132t-138 -195.5t-85.5 -239.5t-28 -264q0 -239 123.5 -360t339.5 -121z" />
    <glyph glyph-name="Ocircumflex" unicode="&#xd4;" horiz-adv-x="1409" 
d="M1057 1573l-172 201l-236 -201h-51l256 248h70l180 -248h-47zM829 1452q234 0 375.5 -139.5t141.5 -401.5q0 -148 -31.5 -285.5t-95 -254.5t-152.5 -203.5t-210.5 -136t-262.5 -49.5q-236 0 -375 138t-139 400q0 147 31 284.5t94 255t151 205t210 137.5t263 50zM598 37
q131 0 243.5 48t193.5 131t139 194t86 238t28 261q0 241 -124.5 364.5t-340.5 123.5q-131 0 -243.5 -48t-193 -132t-138 -195.5t-85.5 -239.5t-28 -264q0 -239 123.5 -360t339.5 -121z" />
    <glyph glyph-name="Otilde" unicode="&#xd5;" horiz-adv-x="1409" 
d="M1106 1802h47q0 -77 -51 -116t-117 -39q-37 0 -69 14.5t-55.5 35t-46 40.5t-49.5 34.5t-56 14.5q-67 0 -97 -34t-28 -75h-49q0 78 51 118t116 40q37 0 70 -14.5t57 -35t46.5 -40.5t49.5 -34.5t56 -14.5q66 0 96.5 33.5t28.5 72.5zM829 1452q234 0 375.5 -139.5
t141.5 -401.5q0 -148 -31.5 -285.5t-95 -254.5t-152.5 -203.5t-210.5 -136t-262.5 -49.5q-236 0 -375 138t-139 400q0 147 31 284.5t94 255t151 205t210 137.5t263 50zM598 37q131 0 243.5 48t193.5 131t139 194t86 238t28 261q0 241 -124.5 364.5t-340.5 123.5
q-131 0 -243.5 -48t-193 -132t-138 -195.5t-85.5 -239.5t-28 -264q0 -239 123.5 -360t339.5 -121z" />
    <glyph glyph-name="Odieresis" unicode="&#xd6;" horiz-adv-x="1409" 
d="M688 1821h62l-21 -152h-63zM1090 1821h63l-23 -152h-61zM829 1452q234 0 375.5 -139.5t141.5 -401.5q0 -148 -31.5 -285.5t-95 -254.5t-152.5 -203.5t-210.5 -136t-262.5 -49.5q-236 0 -375 138t-139 400q0 147 31 284.5t94 255t151 205t210 137.5t263 50zM598 37
q131 0 243.5 48t193.5 131t139 194t86 238t28 261q0 241 -124.5 364.5t-340.5 123.5q-131 0 -243.5 -48t-193 -132t-138 -195.5t-85.5 -239.5t-28 -264q0 -239 123.5 -360t339.5 -121z" />
    <glyph glyph-name="multiply" unicode="&#xd7;" horiz-adv-x="698" 
d="M678 791l-289 -250l209 -248l-45 -39l-209 248l-291 -250l-30 37l288 252l-207 245l41 41l211 -249l289 251z" />
    <glyph glyph-name="Oslash" unicode="&#xd8;" horiz-adv-x="1409" 
d="M1141 1366q205 -139 205 -455q0 -148 -31.5 -285.5t-95 -254.5t-152.5 -203.5t-210.5 -136t-262.5 -49.5q-168 0 -289 71l-98 -155h-49l112 178q-190 137 -190 444q0 147 31 284.5t94 255t151 205t210 137.5t263 50q157 0 277 -66l88 140h49zM135 518q0 -274 166 -395
l774 1216q-104 58 -252 58q-131 0 -243.5 -48t-193 -132t-138 -195.5t-85.5 -239.5t-28 -264zM598 37q131 0 243.5 48t193.5 131t139 194t86 238t28 261q0 288 -178 408l-774 -1219q107 -61 262 -61z" />
    <glyph glyph-name="Ugrave" unicode="&#xd9;" horiz-adv-x="1275" 
d="M813 1559l-176 262h-80l213 -262h43zM1284 1434l-139 -893q-41 -258 -203 -405.5t-405 -147.5t-357.5 147.5t-73.5 405.5l140 893h55l-141 -889q-37 -237 62 -370.5t323 -133.5q218 0 362 134.5t183 369.5l139 889h55z" />
    <glyph glyph-name="Uacute" unicode="&#xda;" horiz-adv-x="1275" 
d="M780 1559h39l254 262h-76zM1284 1434l-139 -893q-41 -258 -203 -405.5t-405 -147.5t-357.5 147.5t-73.5 405.5l140 893h55l-141 -889q-37 -237 62 -370.5t323 -133.5q218 0 362 134.5t183 369.5l139 889h55z" />
    <glyph glyph-name="Ucircumflex" unicode="&#xdb;" horiz-adv-x="1275" 
d="M991 1573l-172 201l-235 -201h-52l256 248h70l180 -248h-47zM1284 1434l-139 -893q-41 -258 -203 -405.5t-405 -147.5t-357.5 147.5t-73.5 405.5l140 893h55l-141 -889q-37 -237 62 -370.5t323 -133.5q218 0 362 134.5t183 369.5l139 889h55z" />
    <glyph glyph-name="Udieresis" unicode="&#xdc;" horiz-adv-x="1275" 
d="M623 1821h61l-20 -152h-64zM1024 1821h63l-22 -152h-61zM1284 1434l-139 -893q-41 -258 -203 -405.5t-405 -147.5t-357.5 147.5t-73.5 405.5l140 893h55l-141 -889q-37 -237 62 -370.5t323 -133.5q218 0 362 134.5t183 369.5l139 889h55z" />
    <glyph glyph-name="Yacute" unicode="&#xdd;" horiz-adv-x="1239" 
d="M760 1559h39l254 262h-76zM635 588l-96 -588h-52l95 588l-398 846h58l372 -791l617 791h69z" />
    <glyph glyph-name="Thorn" unicode="&#xde;" horiz-adv-x="1153" 
d="M74 0h-54l226 1434h53zM649 1157q230 0 345.5 -121.5t84.5 -316.5q-33 -209 -182.5 -321.5t-384.5 -112.5h-393l8 51h397q217 0 346 104t158 283q26 169 -71.5 276t-311.5 107h-397l8 51h393z" />
    <glyph glyph-name="germandbls" unicode="&#xdf;" horiz-adv-x="1122" 
d="M729 784q270 -63 270 -313q0 -121 -42 -212t-120.5 -147t-185 -84t-239.5 -28h-170l8 51h166q250 0 390 103.5t140 318.5q0 135 -104 211t-303 76h-177l9 53h174q201 0 311.5 86.5t110.5 259.5q0 102 -80 162.5t-236 60.5q-189 0 -285.5 -69t-121.5 -223l-172 -1090h-54
l172 1098q28 164 136.5 250t324.5 86q177 0 273 -76t96 -209q0 -282 -291 -365z" />
    <glyph glyph-name="agrave" unicode="&#xe0;" horiz-adv-x="1085" 
d="M621 1190h-43l-213 262h79zM938 715l-96 -602q-6 -42 12 -56.5t68 -9.5l-9 -49q-18 -6 -34 -6q-61 0 -81 32t-5 115l18 109q-20 -36 -59.5 -77t-100 -84.5t-147.5 -72t-182 -28.5q-138 0 -216.5 71.5t-78.5 192.5q0 81 28.5 140t86 97.5t129 61.5t171.5 39q7 1 48.5 7
t58 8.5t58 9t64 11t58 11.5t59 13.5t48.5 14t43 15.5l4 31q28 171 -34.5 244t-246.5 73q-162 0 -242 -50.5t-114 -146.5h-56q43 131 144.5 188.5t269.5 57.5q193 0 279 -85t55 -275zM823 340l47 287q-20 -9 -55.5 -19t-88 -20t-96 -17.5t-112 -18.5t-102.5 -17
q-175 -29 -255.5 -93.5t-80.5 -195.5q0 -100 64.5 -156.5t177.5 -56.5q85 0 163.5 25t132.5 60.5t99 80t69.5 79t36.5 62.5z" />
    <glyph glyph-name="aacute" unicode="&#xe1;" horiz-adv-x="1085" 
d="M881 1452l-254 -262h-39l217 262h76zM938 715l-96 -602q-6 -42 12 -56.5t68 -9.5l-9 -49q-18 -6 -34 -6q-61 0 -81 32t-5 115l18 109q-20 -36 -59.5 -77t-100 -84.5t-147.5 -72t-182 -28.5q-138 0 -216.5 71.5t-78.5 192.5q0 81 28.5 140t86 97.5t129 61.5t171.5 39
q7 1 48.5 7t58 8.5t58 9t64 11t58 11.5t59 13.5t48.5 14t43 15.5l4 31q28 171 -34.5 244t-246.5 73q-162 0 -242 -50.5t-114 -146.5h-56q43 131 144.5 188.5t269.5 57.5q193 0 279 -85t55 -275zM823 340l47 287q-20 -9 -55.5 -19t-88 -20t-96 -17.5t-112 -18.5t-102.5 -17
q-175 -29 -255.5 -93.5t-80.5 -195.5q0 -100 64.5 -156.5t177.5 -56.5q85 0 163.5 25t132.5 60.5t99 80t69.5 79t36.5 62.5z" />
    <glyph glyph-name="acircumflex" unicode="&#xe2;" horiz-adv-x="1085" 
d="M627 1405l-236 -201h-51l256 248h70l180 -248h-47zM938 715l-96 -602q-6 -42 12 -56.5t68 -9.5l-9 -49q-18 -6 -34 -6q-61 0 -81 32t-5 115l18 109q-20 -36 -59.5 -77t-100 -84.5t-147.5 -72t-182 -28.5q-138 0 -216.5 71.5t-78.5 192.5q0 81 28.5 140t86 97.5t129 61.5
t171.5 39q7 1 48.5 7t58 8.5t58 9t64 11t58 11.5t59 13.5t48.5 14t43 15.5l4 31q28 171 -34.5 244t-246.5 73q-162 0 -242 -50.5t-114 -146.5h-56q43 131 144.5 188.5t269.5 57.5q193 0 279 -85t55 -275zM823 340l47 287q-20 -9 -55.5 -19t-88 -20t-96 -17.5t-112 -18.5
t-102.5 -17q-175 -29 -255.5 -93.5t-80.5 -195.5q0 -100 64.5 -156.5t177.5 -56.5q85 0 163.5 25t132.5 60.5t99 80t69.5 79t36.5 62.5z" />
    <glyph glyph-name="atilde" unicode="&#xe3;" horiz-adv-x="1085" 
d="M451 1417q-67 0 -97 -34t-28 -74h-50q0 78 51 117.5t117 39.5q37 0 70 -14.5t57 -35t46.5 -40.5t49.5 -34.5t56 -14.5q66 0 96.5 34t28.5 73h47q0 -77 -51.5 -116.5t-116.5 -39.5q-37 0 -69 14.5t-55.5 35t-46 40.5t-49.5 34.5t-56 14.5zM938 715l-96 -602
q-6 -42 12 -56.5t68 -9.5l-9 -49q-18 -6 -34 -6q-61 0 -81 32t-5 115l18 109q-20 -36 -59.5 -77t-100 -84.5t-147.5 -72t-182 -28.5q-138 0 -216.5 71.5t-78.5 192.5q0 81 28.5 140t86 97.5t129 61.5t171.5 39q7 1 48.5 7t58 8.5t58 9t64 11t58 11.5t59 13.5t48.5 14
t43 15.5l4 31q28 171 -34.5 244t-246.5 73q-162 0 -242 -50.5t-114 -146.5h-56q43 131 144.5 188.5t269.5 57.5q193 0 279 -85t55 -275zM823 340l47 287q-20 -9 -55.5 -19t-88 -20t-96 -17.5t-112 -18.5t-102.5 -17q-175 -29 -255.5 -93.5t-80.5 -195.5q0 -100 64.5 -156.5
t177.5 -56.5q85 0 163.5 25t132.5 60.5t99 80t69.5 79t36.5 62.5z" />
    <glyph glyph-name="adieresis" unicode="&#xe4;" horiz-adv-x="1085" 
d="M492 1452l-21 -152h-63l22 152h62zM895 1452l-23 -152h-61l20 152h64zM938 715l-96 -602q-6 -42 12 -56.5t68 -9.5l-9 -49q-18 -6 -34 -6q-61 0 -81 32t-5 115l18 109q-20 -36 -59.5 -77t-100 -84.5t-147.5 -72t-182 -28.5q-138 0 -216.5 71.5t-78.5 192.5q0 81 28.5 140
t86 97.5t129 61.5t171.5 39q7 1 48.5 7t58 8.5t58 9t64 11t58 11.5t59 13.5t48.5 14t43 15.5l4 31q28 171 -34.5 244t-246.5 73q-162 0 -242 -50.5t-114 -146.5h-56q43 131 144.5 188.5t269.5 57.5q193 0 279 -85t55 -275zM823 340l47 287q-20 -9 -55.5 -19t-88 -20
t-96 -17.5t-112 -18.5t-102.5 -17q-175 -29 -255.5 -93.5t-80.5 -195.5q0 -100 64.5 -156.5t177.5 -56.5q85 0 163.5 25t132.5 60.5t99 80t69.5 79t36.5 62.5z" />
    <glyph glyph-name="aring" unicode="&#xe5;" horiz-adv-x="1085" 
d="M621 1190q-60 0 -99 38t-39 93q0 70 52.5 121t126.5 51q58 0 95.5 -38.5t37.5 -94.5q0 -68 -51.5 -119t-122.5 -51zM653 1448q-48 0 -84.5 -36t-36.5 -85q0 -39 27 -65.5t68 -26.5q45 0 81.5 36t36.5 85q0 39 -26.5 65.5t-65.5 26.5zM938 715l-96 -602q-6 -42 12 -56.5
t68 -9.5l-9 -49q-18 -6 -34 -6q-61 0 -81 32t-5 115l18 109q-20 -36 -59.5 -77t-100 -84.5t-147.5 -72t-182 -28.5q-138 0 -216.5 71.5t-78.5 192.5q0 81 28.5 140t86 97.5t129 61.5t171.5 39q7 1 48.5 7t58 8.5t58 9t64 11t58 11.5t59 13.5t48.5 14t43 15.5l4 31
q28 171 -34.5 244t-246.5 73q-162 0 -242 -50.5t-114 -146.5h-56q43 131 144.5 188.5t269.5 57.5q193 0 279 -85t55 -275zM823 340l47 287q-20 -9 -55.5 -19t-88 -20t-96 -17.5t-112 -18.5t-102.5 -17q-175 -29 -255.5 -93.5t-80.5 -195.5q0 -100 64.5 -156.5t177.5 -56.5
q85 0 163.5 25t132.5 60.5t99 80t69.5 79t36.5 62.5z" />
    <glyph glyph-name="ae" unicode="&#xe6;" horiz-adv-x="1871" 
d="M1782 496h-881q-4 -54 -4 -84q0 -190 97.5 -283.5t262.5 -93.5q125 0 207 32.5t160 116.5h68q-94 -110 -194.5 -154t-240.5 -44q-164 0 -269 80.5t-134 232.5q-220 -311 -539 -311q-138 0 -215 66.5t-77 181.5q0 164 107 247t310 111q327 39 434 84l7 37
q28 169 -34.5 239t-246.5 70q-158 0 -241 -49t-115 -137h-56q42 124 145 180.5t271 56.5q170 0 256.5 -66t83.5 -212q76 129 197.5 203.5t273.5 74.5q171 0 279 -109t108 -302q0 -32 -6.5 -87.5t-13.5 -80.5zM1409 1026q-193 0 -328 -136.5t-172 -342.5h830q10 51 10 112
q0 178 -94.5 272.5t-245.5 94.5zM317 37q84 0 162.5 26t131 61t100 82.5t70 77.5t40.5 60l45 279q-80 -36 -460 -86q-161 -24 -244.5 -96.5t-83.5 -204.5q0 -95 64 -147t175 -52z" />
    <glyph glyph-name="ccedilla" unicode="&#xe7;" horiz-adv-x="1030" 
d="M604 1026q-96 0 -180.5 -34t-146 -93t-106.5 -136.5t-67 -165t-22 -177.5q0 -99 29 -174.5t79.5 -120.5t113.5 -67.5t136 -22.5q136 0 230.5 56t160.5 181h62q-72 -144 -176 -212t-248 -74l-88 -97q64 26 126 -11.5t62 -110.5q0 -87 -66 -130t-169 -43v39q94 3 139 37.5
t45 91.5q0 64 -50 88.5t-124 -2.5l-8 11l-10 14l82 115q-167 9 -271 120.5t-104 309.5q0 131 42 250.5t115.5 209.5t180.5 143.5t231 53.5q157 0 249.5 -69.5t127.5 -219.5h-57q-29 125 -107 182.5t-211 57.5z" />
    <glyph glyph-name="egrave" unicode="&#xe8;" horiz-adv-x="1060" 
d="M641 1190h-43l-213 262h80zM971 496h-881q-4 -54 -4 -84q0 -190 97.5 -283.5t262.5 -93.5q125 0 207 32.5t160 116.5h68q-94 -110 -194.5 -154t-240.5 -44q-193 0 -303 111t-110 315q0 181 71 331.5t202.5 241t297.5 90.5q171 0 279 -109t108 -302q0 -32 -6.5 -87.5
t-13.5 -80.5zM598 1026q-193 0 -328 -136.5t-172 -342.5h830q10 51 10 112q0 178 -94.5 272.5t-245.5 94.5z" />
    <glyph glyph-name="eacute" unicode="&#xe9;" horiz-adv-x="1060" 
d="M901 1452l-254 -262h-39l217 262h76zM971 496h-881q-4 -54 -4 -84q0 -190 97.5 -283.5t262.5 -93.5q125 0 207 32.5t160 116.5h68q-94 -110 -194.5 -154t-240.5 -44q-193 0 -303 111t-110 315q0 181 71 331.5t202.5 241t297.5 90.5q171 0 279 -109t108 -302
q0 -32 -6.5 -87.5t-13.5 -80.5zM598 1026q-193 0 -328 -136.5t-172 -342.5h830q10 51 10 112q0 178 -94.5 272.5t-245.5 94.5z" />
    <glyph glyph-name="ecircumflex" unicode="&#xea;" horiz-adv-x="1060" 
d="M647 1405l-235 -201h-52l256 248h70l180 -248h-47zM971 496h-881q-4 -54 -4 -84q0 -190 97.5 -283.5t262.5 -93.5q125 0 207 32.5t160 116.5h68q-94 -110 -194.5 -154t-240.5 -44q-193 0 -303 111t-110 315q0 181 71 331.5t202.5 241t297.5 90.5q171 0 279 -109t108 -302
q0 -32 -6.5 -87.5t-13.5 -80.5zM598 1026q-193 0 -328 -136.5t-172 -342.5h830q10 51 10 112q0 178 -94.5 272.5t-245.5 94.5z" />
    <glyph glyph-name="edieresis" unicode="&#xeb;" horiz-adv-x="1060" 
d="M512 1452l-20 -152h-64l23 152h61zM915 1452l-22 -152h-62l21 152h63zM971 496h-881q-4 -54 -4 -84q0 -190 97.5 -283.5t262.5 -93.5q125 0 207 32.5t160 116.5h68q-94 -110 -194.5 -154t-240.5 -44q-193 0 -303 111t-110 315q0 181 71 331.5t202.5 241t297.5 90.5
q171 0 279 -109t108 -302q0 -32 -6.5 -87.5t-13.5 -80.5zM598 1026q-193 0 -328 -136.5t-172 -342.5h830q10 51 10 112q0 178 -94.5 272.5t-245.5 94.5z" />
    <glyph glyph-name="igrave" unicode="&#xec;" horiz-adv-x="272" 
d="M227 1190l-176 262h-80l213 -262h43zM176 1065h53l-168 -1065h-53z" />
    <glyph glyph-name="iacute" unicode="&#xed;" horiz-adv-x="272" 
d="M195 1190h38l254 262h-75zM176 1065h53l-168 -1065h-53z" />
    <glyph glyph-name="icircumflex" unicode="&#xee;" horiz-adv-x="272" 
d="M406 1204l-173 201l-235 -201h-51l256 248h69l181 -248h-47zM176 1065h53l-168 -1065h-53z" />
    <glyph glyph-name="idieresis" unicode="&#xef;" horiz-adv-x="272" 
d="M37 1452h61l-20 -152h-64zM438 1452h64l-23 -152h-61zM176 1065h53l-168 -1065h-53z" />
    <glyph glyph-name="eth" unicode="&#xf0;" horiz-adv-x="1110" 
d="M1001 1274l-8 -43l-184 -25q101 -170 142.5 -290.5t41.5 -245.5q0 -196 -68 -352t-199.5 -247t-305.5 -91t-280.5 111.5t-106.5 307.5q0 186 63.5 335.5t191 240t300.5 90.5q110 0 185 -30.5t124 -96.5q-62 121 -145 262l-244 -33l8 43l211 27q-74 123 -127 197h66
q43 -68 118 -189zM422 31q101 0 186.5 34.5t146 94.5t102.5 141.5t62.5 175t20.5 195.5q0 174 -88.5 258t-267.5 84q-120 0 -216.5 -48.5t-157 -133t-92.5 -194.5t-32 -237q0 -181 95 -275.5t241 -94.5z" />
    <glyph glyph-name="ntilde" unicode="&#xf1;" horiz-adv-x="1044" 
d="M864 1434h47q0 -77 -51.5 -116.5t-116.5 -39.5q-37 0 -69 14.5t-55.5 35t-46 40.5t-49.5 34.5t-56 14.5q-67 0 -97 -34t-28 -74h-49q0 78 51 117.5t117 39.5q37 0 70 -14.5t56.5 -35t46 -40.5t49.5 -34.5t56 -14.5q66 0 96.5 34t28.5 73zM621 1075q67 0 121 -13.5
t99.5 -44.5t71.5 -80.5t36 -121t-7 -166.5l-104 -649h-54l103 653q15 86 7.5 149t-27.5 105.5t-59 68.5t-85.5 37t-106.5 11q-72 0 -139 -23.5t-116.5 -60t-91 -83.5t-67.5 -90.5t-42 -84.5l-109 -682h-53l168 1065h53l-43 -274q9 26 33 60.5t65 74t90.5 72.5t117.5 55
t139 22z" />
    <glyph glyph-name="ograve" unicode="&#xf2;" horiz-adv-x="1069" 
d="M623 1190l-177 262h-79l213 -262h43zM596 1075q172 0 285.5 -114t113.5 -318q0 -173 -72 -323t-203 -242t-290 -92q-82 0 -153.5 28t-126 80.5t-86 134.5t-31.5 185q0 129 42.5 249t115.5 211t179 146t226 55zM942 649q0 94 -28 167.5t-76 118.5t-109 68t-131 23
q-149 0 -267.5 -85.5t-181.5 -225.5t-63 -303q0 -93 28 -166.5t76.5 -118.5t109.5 -68.5t130 -23.5q150 0 268.5 86.5t181 226t62.5 301.5z" />
    <glyph glyph-name="oacute" unicode="&#xf3;" horiz-adv-x="1069" 
d="M590 1190h39l254 262h-76zM596 1075q172 0 285.5 -114t113.5 -318q0 -173 -72 -323t-203 -242t-290 -92q-82 0 -153.5 28t-126 80.5t-86 134.5t-31.5 185q0 129 42.5 249t115.5 211t179 146t226 55zM942 649q0 94 -28 167.5t-76 118.5t-109 68t-131 23
q-149 0 -267.5 -85.5t-181.5 -225.5t-63 -303q0 -93 28 -166.5t76.5 -118.5t109.5 -68.5t130 -23.5q150 0 268.5 86.5t181 226t62.5 301.5z" />
    <glyph glyph-name="ocircumflex" unicode="&#xf4;" horiz-adv-x="1069" 
d="M801 1204l-172 201l-236 -201h-51l256 248h70l180 -248h-47zM596 1075q172 0 285.5 -114t113.5 -318q0 -173 -72 -323t-203 -242t-290 -92q-82 0 -153.5 28t-126 80.5t-86 134.5t-31.5 185q0 129 42.5 249t115.5 211t179 146t226 55zM942 649q0 94 -28 167.5t-76 118.5
t-109 68t-131 23q-149 0 -267.5 -85.5t-181.5 -225.5t-63 -303q0 -93 28 -166.5t76.5 -118.5t109.5 -68.5t130 -23.5q150 0 268.5 86.5t181 226t62.5 301.5z" />
    <glyph glyph-name="otilde" unicode="&#xf5;" horiz-adv-x="1069" 
d="M850 1434h47q0 -77 -51.5 -116.5t-116.5 -39.5q-37 0 -69 14.5t-55.5 35t-46 40.5t-49.5 34.5t-56 14.5q-67 0 -97 -34t-28 -74h-49q0 78 50.5 117.5t116.5 39.5q37 0 70 -14.5t57 -35t46.5 -40.5t49.5 -34.5t56 -14.5q66 0 96.5 34t28.5 73zM596 1075q172 0 285.5 -114
t113.5 -318q0 -173 -72 -323t-203 -242t-290 -92q-82 0 -153.5 28t-126 80.5t-86 134.5t-31.5 185q0 129 42.5 249t115.5 211t179 146t226 55zM942 649q0 94 -28 167.5t-76 118.5t-109 68t-131 23q-149 0 -267.5 -85.5t-181.5 -225.5t-63 -303q0 -93 28 -166.5t76.5 -118.5
t109.5 -68.5t130 -23.5q150 0 268.5 86.5t181 226t62.5 301.5z" />
    <glyph glyph-name="odieresis" unicode="&#xf6;" horiz-adv-x="1069" 
d="M432 1452h62l-21 -152h-63zM834 1452h63l-23 -152h-61zM596 1075q172 0 285.5 -114t113.5 -318q0 -173 -72 -323t-203 -242t-290 -92q-82 0 -153.5 28t-126 80.5t-86 134.5t-31.5 185q0 129 42.5 249t115.5 211t179 146t226 55zM942 649q0 94 -28 167.5t-76 118.5
t-109 68t-131 23q-149 0 -267.5 -85.5t-181.5 -225.5t-63 -303q0 -93 28 -166.5t76.5 -118.5t109.5 -68.5t130 -23.5q150 0 268.5 86.5t181 226t62.5 301.5z" />
    <glyph glyph-name="divide" unicode="&#xf7;" horiz-adv-x="835" 
d="M467 840q-17 0 -27.5 14t-7.5 29q1 14 14.5 25.5t26.5 11.5q18 0 28.5 -13.5t8.5 -29.5q-5 -15 -17.5 -26t-25.5 -11zM70 600h714l-6 -45h-715zM373 236q-17 0 -29 14t-10 29q4 15 16.5 25.5t24.5 10.5q18 0 29.5 -13.5t11.5 -29.5q-5 -15 -17.5 -25.5t-25.5 -10.5z" />
    <glyph glyph-name="oslash" unicode="&#xf8;" horiz-adv-x="1069" 
d="M838 999q157 -114 157 -356q0 -173 -72 -323t-203 -242t-290 -92q-118 0 -207 53l-90 -141h-61l108 170q-147 118 -147 346q0 129 42.5 249t115.5 211t179 146t226 55q111 0 197 -47l100 156h61zM86 412q0 -200 123 -301l557 876q-71 39 -168 39q-149 0 -267.5 -85.5
t-181.5 -225.5t-63 -303zM430 35q150 0 268.5 86.5t181 226t62.5 301.5q0 210 -131 309l-561 -876q75 -47 180 -47z" />
    <glyph glyph-name="ugrave" unicode="&#xf9;" horiz-adv-x="1044" 
d="M600 1190h-43l-213 262h80zM952 1065h54l-168 -1065h-54l43 272q-11 -27 -34.5 -61t-64.5 -74t-90 -72.5t-117 -54.5t-140 -22q-83 0 -146.5 21.5t-111.5 71.5t-62 131t2 200l103 653h53l-102 -655q-61 -371 264 -371q92 0 174 34.5t138.5 89t94 110t56.5 108.5z" />
    <glyph glyph-name="uacute" unicode="&#xfa;" horiz-adv-x="1044" 
d="M860 1452l-254 -262h-39l217 262h76zM952 1065h54l-168 -1065h-54l43 272q-11 -27 -34.5 -61t-64.5 -74t-90 -72.5t-117 -54.5t-140 -22q-83 0 -146.5 21.5t-111.5 71.5t-62 131t2 200l103 653h53l-102 -655q-61 -371 264 -371q92 0 174 34.5t138.5 89t94 110t56.5 108.5
z" />
    <glyph glyph-name="ucircumflex" unicode="&#xfb;" horiz-adv-x="1044" 
d="M606 1405l-235 -201h-52l256 248h70l180 -248h-47zM952 1065h54l-168 -1065h-54l43 272q-11 -27 -34.5 -61t-64.5 -74t-90 -72.5t-117 -54.5t-140 -22q-83 0 -146.5 21.5t-111.5 71.5t-62 131t2 200l103 653h53l-102 -655q-61 -371 264 -371q92 0 174 34.5t138.5 89
t94 110t56.5 108.5z" />
    <glyph glyph-name="udieresis" unicode="&#xfc;" horiz-adv-x="1044" 
d="M471 1452l-20 -152h-64l23 152h61zM874 1452l-22 -152h-61l20 152h63zM952 1065h54l-168 -1065h-54l43 272q-11 -27 -34.5 -61t-64.5 -74t-90 -72.5t-117 -54.5t-140 -22q-83 0 -146.5 21.5t-111.5 71.5t-62 131t2 200l103 653h53l-102 -655q-61 -371 264 -371
q92 0 174 34.5t138.5 89t94 110t56.5 108.5z" />
    <glyph glyph-name="yacute" unicode="&#xfd;" horiz-adv-x="976" 
d="M563 1190h39l254 262h-76zM950 1065h60l-666 -1202q-74 -137 -171 -194.5t-202 -39.5l11 52q91 -15 173.5 37t143.5 165q52 96 47 121l-252 1061h53l242 -1026z" />
    <glyph glyph-name="thorn" unicode="&#xfe;" horiz-adv-x="1116" 
d="M643 1077q85 0 157 -26.5t126 -77.5t85 -132t31 -184q0 -184 -68.5 -337t-198 -245.5t-294.5 -92.5q-287 0 -375 288l-104 -659h-53l287 1823h53l-101 -623q172 266 455 266zM481 31q115 0 213 53.5t162.5 141t100.5 199t36 228.5q0 96 -28.5 169.5t-77 117.5t-109 66
t-129.5 22q-158 0 -277 -84.5t-179 -222t-60 -305.5q0 -187 99 -286t249 -99z" />
    <glyph glyph-name="ydieresis" unicode="&#xff;" horiz-adv-x="976" 
d="M406 1452h61l-21 -152h-63zM807 1452h63l-22 -152h-62zM950 1065h60l-666 -1202q-74 -137 -171 -194.5t-202 -39.5l11 52q91 -15 173.5 37t143.5 165q52 96 47 121l-252 1061h53l242 -1026z" />
    <glyph glyph-name="Amacron" unicode="&#x100;" horiz-adv-x="1310" 
d="M1124 1821l-6 -47h-536l6 47h536zM1108 0l-111 449h-723l-251 -449h-66l811 1434h43l354 -1434h-57zM301 498h684l-207 848z" />
    <glyph glyph-name="amacron" unicode="&#x101;" horiz-adv-x="1085" 
d="M932 1452l-6 -47h-537l6 47h537zM938 715l-96 -602q-6 -42 12 -56.5t68 -9.5l-9 -49q-18 -6 -34 -6q-61 0 -81 32t-5 115l18 109q-20 -36 -59.5 -77t-100 -84.5t-147.5 -72t-182 -28.5q-138 0 -216.5 71.5t-78.5 192.5q0 81 28.5 140t86 97.5t129 61.5t171.5 39
q7 1 48.5 7t58 8.5t58 9t64 11t58 11.5t59 13.5t48.5 14t43 15.5l4 31q28 171 -34.5 244t-246.5 73q-162 0 -242 -50.5t-114 -146.5h-56q43 131 144.5 188.5t269.5 57.5q193 0 279 -85t55 -275zM823 340l47 287q-20 -9 -55.5 -19t-88 -20t-96 -17.5t-112 -18.5t-102.5 -17
q-175 -29 -255.5 -93.5t-80.5 -195.5q0 -100 64.5 -156.5t177.5 -56.5q85 0 163.5 25t132.5 60.5t99 80t69.5 79t36.5 62.5z" />
    <glyph glyph-name="Abreve" unicode="&#x102;" horiz-adv-x="1310" 
d="M809 1599q-69 0 -117 21t-69.5 55.5t-29 71t-1.5 74.5h45q-3 -81 35.5 -126.5t138.5 -45.5q189 0 242 172h43q-7 -41 -25 -77.5t-50 -70.5t-87 -54t-125 -20zM1108 0l-111 449h-723l-251 -449h-66l811 1434h43l354 -1434h-57zM301 498h684l-207 848z" />
    <glyph glyph-name="abreve" unicode="&#x103;" horiz-adv-x="1085" 
d="M616 1231q-69 0 -117 21t-70 55t-29 70.5t-1 74.5h45q-3 -81 35.5 -126.5t138.5 -45.5q189 0 242 172h43q-7 -41 -25 -77.5t-50 -70t-87 -53.5t-125 -20zM938 715l-96 -602q-6 -42 12 -56.5t68 -9.5l-9 -49q-18 -6 -34 -6q-61 0 -81 32t-5 115l18 109q-20 -36 -59.5 -77
t-100 -84.5t-147.5 -72t-182 -28.5q-138 0 -216.5 71.5t-78.5 192.5q0 81 28.5 140t86 97.5t129 61.5t171.5 39q7 1 48.5 7t58 8.5t58 9t64 11t58 11.5t59 13.5t48.5 14t43 15.5l4 31q28 171 -34.5 244t-246.5 73q-162 0 -242 -50.5t-114 -146.5h-56q43 131 144.5 188.5
t269.5 57.5q193 0 279 -85t55 -275zM823 340l47 287q-20 -9 -55.5 -19t-88 -20t-96 -17.5t-112 -18.5t-102.5 -17q-175 -29 -255.5 -93.5t-80.5 -195.5q0 -100 64.5 -156.5t177.5 -56.5q85 0 163.5 25t132.5 60.5t99 80t69.5 79t36.5 62.5z" />
    <glyph glyph-name="Aogonek" unicode="&#x104;" horiz-adv-x="1310" 
d="M1155 0q-68 -28 -123 -62t-100 -85t-53 -105q-9 -68 41 -98t153 -17l-8 -43q-38 -16 -83.5 -12.5t-84 18.5t-60.5 54t-14 94t55 107.5t105 87.5t125 61l-111 449h-723l-251 -449h-66l811 1434h43l354 -1434h-10zM301 498h684l-207 848z" />
    <glyph glyph-name="aogonek" unicode="&#x105;" horiz-adv-x="1048" 
d="M938 715l-96 -602q-6 -42 12 -56.5t68 -9.5l-9 -49q-18 -6 -34 -6q-99 -45 -163.5 -106.5t-64.5 -139.5q0 -68 56 -99t155 -16v-43q-29 -11 -64.5 -13t-71 6t-64.5 26.5t-47.5 52t-18.5 78.5q0 82 74.5 154t169.5 104q-37 9 -48 41.5t1 101.5l18 109q-20 -36 -59.5 -77
t-100 -84.5t-147.5 -72t-182 -28.5q-138 0 -216.5 71.5t-78.5 192.5q0 81 28.5 140t86 97.5t129 61.5t171.5 39q7 1 48.5 7t58 8.5t58 9t64 11t58 11.5t59 13.5t48.5 14t43 15.5l4 31q28 171 -34.5 244t-246.5 73q-162 0 -242 -50.5t-114 -146.5h-56q43 131 144.5 188.5
t269.5 57.5q193 0 279 -85t55 -275zM823 340l47 287q-20 -9 -55.5 -19t-88 -20t-96 -17.5t-112 -18.5t-102.5 -17q-175 -29 -255.5 -93.5t-80.5 -195.5q0 -100 64.5 -156.5t177.5 -56.5q85 0 163.5 25t132.5 60.5t99 80t69.5 79t36.5 62.5z" />
    <glyph glyph-name="Cacute" unicode="&#x106;" horiz-adv-x="1277" 
d="M788 1559h39l254 262h-75zM592 35q174 0 305 69.5t197 182.5h65q-76 -142 -225.5 -223.5t-345.5 -81.5q-112 0 -203.5 33t-159.5 99t-105.5 172t-37.5 244q0 143 31 278t93 252t149.5 204.5t208 137.5t259.5 50q195 0 316.5 -81.5t152.5 -225.5h-59q-29 116 -135 185
t-283 69q-127 0 -237 -48t-189.5 -132t-137 -194.5t-86 -237t-28.5 -259.5q0 -126 34 -221.5t96 -154.5t143.5 -88t181.5 -29z" />
    <glyph glyph-name="cacute" unicode="&#x107;" horiz-adv-x="1030" 
d="M600 1190h39l254 262h-76zM440 35q136 0 230.5 56t160.5 181h62q-75 -150 -185.5 -218t-265.5 -68q-87 0 -160.5 27.5t-129.5 80t-87.5 135.5t-31.5 189q0 131 42 250.5t115.5 209.5t180.5 143.5t231 53.5q157 0 249.5 -69.5t127.5 -219.5h-57q-29 125 -107 182.5
t-211 57.5q-96 0 -180.5 -34t-146 -93t-106.5 -136.5t-67 -165t-22 -177.5q0 -99 29 -174.5t79.5 -120.5t113.5 -67.5t136 -22.5z" />
    <glyph glyph-name="Cdotaccent" unicode="&#x10a;" horiz-adv-x="1277" 
d="M827 1821h62l-21 -152h-63zM592 35q174 0 305 69.5t197 182.5h65q-76 -142 -225.5 -223.5t-345.5 -81.5q-112 0 -203.5 33t-159.5 99t-105.5 172t-37.5 244q0 143 31 278t93 252t149.5 204.5t208 137.5t259.5 50q195 0 316.5 -81.5t152.5 -225.5h-59q-29 116 -135 185
t-283 69q-127 0 -237 -48t-189.5 -132t-137 -194.5t-86 -237t-28.5 -259.5q0 -126 34 -221.5t96 -154.5t143.5 -88t181.5 -29z" />
    <glyph glyph-name="cdotaccent" unicode="&#x10b;" horiz-adv-x="1030" 
d="M639 1452h61l-20 -152h-64zM440 35q136 0 230.5 56t160.5 181h62q-75 -150 -185.5 -218t-265.5 -68q-87 0 -160.5 27.5t-129.5 80t-87.5 135.5t-31.5 189q0 131 42 250.5t115.5 209.5t180.5 143.5t231 53.5q157 0 249.5 -69.5t127.5 -219.5h-57q-29 125 -107 182.5
t-211 57.5q-96 0 -180.5 -34t-146 -93t-106.5 -136.5t-67 -165t-22 -177.5q0 -99 29 -174.5t79.5 -120.5t113.5 -67.5t136 -22.5z" />
    <glyph glyph-name="Ccaron" unicode="&#x10c;" horiz-adv-x="1277" 
d="M1059 1821h51l-258 -248h-70l-178 248h47l172 -201zM592 35q174 0 305 69.5t197 182.5h65q-76 -142 -225.5 -223.5t-345.5 -81.5q-112 0 -203.5 33t-159.5 99t-105.5 172t-37.5 244q0 143 31 278t93 252t149.5 204.5t208 137.5t259.5 50q195 0 316.5 -81.5t152.5 -225.5
h-59q-29 116 -135 185t-283 69q-127 0 -237 -48t-189.5 -132t-137 -194.5t-86 -237t-28.5 -259.5q0 -126 34 -221.5t96 -154.5t143.5 -88t181.5 -29z" />
    <glyph glyph-name="ccaron" unicode="&#x10d;" horiz-adv-x="1030" 
d="M870 1452h52l-258 -248h-70l-178 248h47l172 -201zM440 35q136 0 230.5 56t160.5 181h62q-75 -150 -185.5 -218t-265.5 -68q-87 0 -160.5 27.5t-129.5 80t-87.5 135.5t-31.5 189q0 131 42 250.5t115.5 209.5t180.5 143.5t231 53.5q157 0 249.5 -69.5t127.5 -219.5h-57
q-29 125 -107 182.5t-211 57.5q-96 0 -180.5 -34t-146 -93t-106.5 -136.5t-67 -165t-22 -177.5q0 -99 29 -174.5t79.5 -120.5t113.5 -67.5t136 -22.5z" />
    <glyph glyph-name="Dcaron" unicode="&#x10e;" horiz-adv-x="1245" 
d="M1018 1821h51l-258 -248h-70l-178 248h47l172 -201zM602 1434q291 0 439.5 -140.5t148.5 -398.5q0 -264 -94.5 -465t-279.5 -315.5t-437 -114.5h-359l226 1434h356zM375 51q245 0 418.5 107.5t258.5 297.5t85 447q0 239 -137 359t-406 120h-303l-207 -1331h291z" />
    <glyph glyph-name="dcaron" unicode="&#x10f;" horiz-adv-x="1236" 
d="M594 1075q65 0 121.5 -15t107.5 -47.5t90.5 -88.5t61.5 -133l100 643h51l-227 -1434h-51l47 258q-86 -141 -206.5 -206.5t-256.5 -65.5q-175 0 -287 109.5t-112 307.5q0 182 68 334t197.5 245t295.5 93zM1137 1130h55l223 304h-84zM430 35q158 0 276.5 83.5t178 220.5
t59.5 306q0 99 -28.5 174.5t-78 119.5t-109 65.5t-128.5 21.5q-100 0 -185 -35t-145 -94.5t-102.5 -139t-63 -168.5t-20.5 -183q0 -182 97.5 -276.5t248.5 -94.5z" />
    <glyph glyph-name="Dcroat" unicode="&#x110;" horiz-adv-x="1280" 
d="M637 1434q291 0 439.5 -140.5t148.5 -398.5q0 -264 -94.5 -465t-279.5 -315.5t-437 -114.5h-359l109 694h-86l6 45h88l109 695h356zM410 51q245 0 418 107.5t258 297.5t85 447q0 479 -542 479h-303l-101 -643h518l-6 -45h-518l-100 -643h291z" />
    <glyph glyph-name="dcroat" unicode="&#x111;" horiz-adv-x="1206" 
d="M1311 1321l-8 -47h-201l-203 -1274h-51l47 258q-86 -141 -206.5 -206.5t-256.5 -65.5q-175 0 -287 109.5t-112 307.5q0 182 68 334t197.5 245t295.5 93q65 0 121.5 -15t107.5 -47.5t90.5 -88.5t61.5 -133l76 483h-293l8 47h291l18 113h51l-18 -113h203zM430 35
q158 0 276.5 83.5t178 220.5t59.5 306q0 99 -28.5 174.5t-78 119.5t-109 65.5t-128.5 21.5q-100 0 -185 -35t-145 -94.5t-102.5 -139t-63 -168.5t-20.5 -183q0 -182 97.5 -276.5t248.5 -94.5z" />
    <glyph glyph-name="Emacron" unicode="&#x112;" horiz-adv-x="1064" 
d="M489 1821h537l-6 -47h-537zM1106 1380h-813l-96 -610h708l-8 -49h-709l-108 -668h835l-10 -53h-887l228 1434h866z" />
    <glyph glyph-name="emacron" unicode="&#x113;" horiz-adv-x="1060" 
d="M952 1452l-6 -47h-536l6 47h536zM971 496h-881q-4 -54 -4 -84q0 -190 97.5 -283.5t262.5 -93.5q125 0 207 32.5t160 116.5h68q-94 -110 -194.5 -154t-240.5 -44q-193 0 -303 111t-110 315q0 181 71 331.5t202.5 241t297.5 90.5q171 0 279 -109t108 -302q0 -32 -6.5 -87.5
t-13.5 -80.5zM598 1026q-193 0 -328 -136.5t-172 -342.5h830q10 51 10 112q0 178 -94.5 272.5t-245.5 94.5z" />
    <glyph glyph-name="Edotaccent" unicode="&#x116;" horiz-adv-x="1064" 
d="M721 1821h61l-20 -152h-64zM1106 1380h-813l-96 -610h708l-8 -49h-709l-108 -668h835l-10 -53h-887l228 1434h866z" />
    <glyph glyph-name="edotaccent" unicode="&#x117;" horiz-adv-x="1060" 
d="M709 1452l-21 -152h-63l22 152h62zM971 496h-881q-4 -54 -4 -84q0 -190 97.5 -283.5t262.5 -93.5q125 0 207 32.5t160 116.5h68q-94 -110 -194.5 -154t-240.5 -44q-193 0 -303 111t-110 315q0 181 71 331.5t202.5 241t297.5 90.5q171 0 279 -109t108 -302
q0 -32 -6.5 -87.5t-13.5 -80.5zM598 1026q-193 0 -328 -136.5t-172 -342.5h830q10 51 10 112q0 178 -94.5 272.5t-245.5 94.5z" />
    <glyph glyph-name="Eogonek" unicode="&#x118;" horiz-adv-x="1071" 
d="M1106 1380h-813l-96 -610h708l-8 -49h-709l-108 -668h835l-10 -53h10q-265 -114 -282 -252q-9 -68 41 -98t153 -17l-8 -43q-38 -16 -82.5 -12.5t-83 18.5t-60.5 54t-15 94q13 83 89.5 150.5t182.5 105.5h-832l228 1434h866z" />
    <glyph glyph-name="eogonek" unicode="&#x119;" horiz-adv-x="1054" 
d="M594 1077q167 0 278 -105t111 -304q0 -46 -10 -121l-8 -45h-875q-6 -47 -6 -90q0 -95 29 -169.5t79.5 -120t113.5 -68.5t134 -23q117 0 201 31.5t166 113.5h63q-80 -96 -174.5 -141t-210.5 -51q-108 -44 -185 -107.5t-91 -142.5q-9 -68 41 -98t153 -17l-8 -43
q-38 -16 -83 -12.5t-83.5 18.5t-60.5 54t-14 94q12 78 90 144t180 108q-174 6 -282.5 118t-108.5 316q0 175 71 325.5t201 243t289 92.5zM594 1028q-125 0 -231 -67t-172.5 -174t-92.5 -236h822v8q12 78 12 109q0 89 -27.5 159.5t-75 113.5t-107.5 65t-128 22z" />
    <glyph glyph-name="Ecaron" unicode="&#x11a;" horiz-adv-x="1064" 
d="M952 1821h52l-259 -248h-69l-178 248h47l172 -201zM1106 1380h-813l-96 -610h708l-8 -49h-709l-108 -668h835l-10 -53h-887l228 1434h866z" />
    <glyph glyph-name="ecaron" unicode="&#x11b;" horiz-adv-x="1054" 
d="M647 1186h-67l-183 248h49l172 -201l236 201h49zM594 1077q167 0 278 -105t111 -304q0 -46 -10 -121l-8 -45h-875q-6 -47 -6 -90q0 -95 29 -169.5t79.5 -120t113.5 -68.5t134 -23q117 0 201 31.5t166 113.5h63q-87 -104 -192 -149t-236 -45q-180 0 -294.5 112t-114.5 322
q0 175 71 325.5t201 243t289 92.5zM594 1028q-125 0 -231 -67t-172.5 -174t-92.5 -236h822v8q12 78 12 109q0 89 -27.5 159.5t-75 113.5t-107.5 65t-128 22z" />
    <glyph glyph-name="Gbreve" unicode="&#x11e;" horiz-adv-x="1323" 
d="M1081 1821h43q-7 -41 -24.5 -77.5t-50 -70.5t-87 -54t-124.5 -20q-69 0 -117 21t-69.5 55.5t-29 71t-1.5 74.5h45q-3 -81 35.5 -126.5t138.5 -45.5q188 0 241 172zM786 692h482l-11 -71q-52 -315 -226 -477t-447 -162q-228 0 -365 137.5t-137 408.5q0 145 30 280.5
t92 252.5t149 204t208 137t262 50q195 0 316.5 -81.5t152.5 -225.5h-59q-29 116 -135 185t-283 69q-129 0 -240.5 -48t-190.5 -131t-135.5 -193.5t-84 -236.5t-27.5 -260q0 -127 34 -223t96.5 -155t144.5 -88t182 -29q254 0 411.5 157.5t198.5 448.5h-424z" />
    <glyph glyph-name="gbreve" unicode="&#x11f;" horiz-adv-x="1107" 
d="M913 1452h43q-7 -41 -24.5 -77.5t-50 -70t-87 -53.5t-124.5 -20q-69 0 -117 21t-70 55t-29 70.5t-1 74.5h45q-3 -81 35.5 -126.5t138.5 -45.5q188 0 241 172zM1069 1065l-170 -1088q-17 -101 -54.5 -177.5t-87 -123.5t-116 -76t-133 -40t-146.5 -11q-131 0 -234 48.5
t-140 134.5l41 26q41 -78 131.5 -117.5t204.5 -39.5q202 0 325 89.5t158 299.5l43 268q-83 -140 -202.5 -205t-256.5 -65q-175 0 -287 108.5t-112 306.5q0 135 40 257t111.5 214t178 146.5t231.5 54.5q87 0 158.5 -26t131.5 -91.5t87 -166.5l43 274h55zM430 37
q158 0 276.5 84.5t178 221.5t59.5 304q0 98 -29 173t-78.5 119t-109.5 65.5t-129 21.5q-99 0 -183.5 -34t-144.5 -93.5t-102.5 -138.5t-63 -168.5t-20.5 -185.5q0 -93 27 -164.5t75 -115.5t109.5 -66.5t134.5 -22.5z" />
    <glyph glyph-name="Gdotaccent" unicode="&#x120;" horiz-adv-x="1323" 
d="M848 1821h61l-20 -152h-64zM786 692h482l-11 -71q-52 -315 -226 -477t-447 -162q-228 0 -365 137.5t-137 408.5q0 145 30 280.5t92 252.5t149 204t208 137t262 50q195 0 316.5 -81.5t152.5 -225.5h-59q-29 116 -135 185t-283 69q-129 0 -240.5 -48t-190.5 -131
t-135.5 -193.5t-84 -236.5t-27.5 -260q0 -127 34 -223t96.5 -155t144.5 -88t182 -29q254 0 411.5 157.5t198.5 448.5h-424z" />
    <glyph glyph-name="gdotaccent" unicode="&#x121;" horiz-adv-x="1107" 
d="M680 1452h61l-20 -152h-64zM1069 1065l-170 -1088q-17 -101 -54.5 -177.5t-87 -123.5t-116 -76t-133 -40t-146.5 -11q-131 0 -234 48.5t-140 134.5l41 26q41 -78 131.5 -117.5t204.5 -39.5q202 0 325 89.5t158 299.5l43 268q-83 -140 -202.5 -205t-256.5 -65
q-175 0 -287 108.5t-112 306.5q0 135 40 257t111.5 214t178 146.5t231.5 54.5q87 0 158.5 -26t131.5 -91.5t87 -166.5l43 274h55zM430 37q158 0 276.5 84.5t178 221.5t59.5 304q0 98 -29 173t-78.5 119t-109.5 65.5t-129 21.5q-99 0 -183.5 -34t-144.5 -93.5t-102.5 -138.5
t-63 -168.5t-20.5 -185.5q0 -93 27 -164.5t75 -115.5t109.5 -66.5t134.5 -22.5z" />
    <glyph glyph-name="Gcommaaccent" unicode="&#x122;" horiz-adv-x="1323" 
d="M786 692h482l-11 -71q-52 -315 -226 -477t-447 -162q-228 0 -365 137.5t-137 408.5q0 145 30 280.5t92 252.5t149 204t208 137t262 50q195 0 316.5 -81.5t152.5 -225.5h-59q-29 116 -135 185t-283 69q-129 0 -240.5 -48t-190.5 -131t-135.5 -193.5t-84 -236.5t-27.5 -260
q0 -127 34 -223t96.5 -155t144.5 -88t182 -29q254 0 411.5 157.5t198.5 448.5h-424zM477 -465l4 27q33 27 47.5 61t24.5 111l6 61h-43l19 103h90l-33 -209q-12 -69 -43 -110t-72 -44z" />
    <glyph glyph-name="gcommaaccent" unicode="&#x123;" horiz-adv-x="1107" 
d="M778 1591l-4 -26q-33 -27 -47.5 -61t-24.5 -111l-6 -62h43l-18 -102h-90l33 209q12 69 42.5 109.5t71.5 43.5zM1069 1065l-170 -1088q-17 -101 -54.5 -177.5t-87 -123.5t-116 -76t-133 -40t-146.5 -11q-131 0 -234 48.5t-140 134.5l41 26q41 -78 131.5 -117.5
t204.5 -39.5q202 0 325 89.5t158 299.5l43 268q-83 -140 -202.5 -205t-256.5 -65q-175 0 -287 108.5t-112 306.5q0 135 40 257t111.5 214t178 146.5t231.5 54.5q87 0 158.5 -26t131.5 -91.5t87 -166.5l43 274h55zM430 37q158 0 276.5 84.5t178 221.5t59.5 304q0 98 -29 173
t-78.5 119t-109.5 65.5t-129 21.5q-99 0 -183.5 -34t-144.5 -93.5t-102.5 -138.5t-63 -168.5t-20.5 -185.5q0 -93 27 -164.5t75 -115.5t109.5 -66.5t134.5 -22.5z" />
    <glyph glyph-name="Hbar" unicode="&#x126;" horiz-adv-x="1263" 
d="M1219 1434h55l-227 -1434h-56l107 668h-918l-106 -668h-56l228 1434h55l-63 -402h917zM188 717h918l43 274h-918z" />
    <glyph glyph-name="hbar" unicode="&#x127;" horiz-adv-x="1132" 
d="M709 1075q67 0 121 -13.5t99.5 -43.5t71.5 -78.5t36 -120t-7 -166.5l-104 -653h-54l103 657q16 86 8.5 148.5t-27.5 104.5t-59 67.5t-85 36t-107 10.5q-72 0 -139 -23t-116.5 -59t-91.5 -82.5t-68 -89.5t-42 -84l-109 -686h-53l190 1208h-137l6 49h138l28 177h54
l-27 -177h266l-6 -49h-268l-66 -415q12 34 47.5 79t90.5 92t137 79t170 32z" />
    <glyph glyph-name="Imacron" unicode="&#x12a;" horiz-adv-x="292" 
d="M72 1821h536l-6 -47h-536zM76 0h-56l226 1434h55z" />
    <glyph glyph-name="imacron" unicode="&#x12b;" horiz-adv-x="272" 
d="M2 1452h537l-7 -47h-536zM176 1065h53l-168 -1065h-53z" />
    <glyph glyph-name="Iogonek" unicode="&#x12e;" horiz-adv-x="346" 
d="M301 1434h53l-225 -1434h-6q-108 -45 -186 -109t-89 -143q-9 -68 41 -98t152 -17l-6 -43q-38 -16 -83.5 -12.5t-84 18.5t-60.5 54t-14 94q11 80 94 147.5t189 108.5z" />
    <glyph glyph-name="iogonek" unicode="&#x12f;" horiz-adv-x="296" 
d="M254 1452h61l-24 -152h-62zM45 0l168 1065h53l-168 -1065h-6q-108 -45 -185.5 -109t-88.5 -143q-9 -68 40.5 -98t151.5 -17l-6 -43q-38 -16 -83.5 -12.5t-84 18.5t-60.5 54t-14 94q11 80 94 147.5t189 108.5z" />
    <glyph glyph-name="Idotaccent" unicode="&#x130;" horiz-adv-x="292" 
d="M303 1821h62l-21 -152h-63zM76 0h-56l226 1434h55z" />
    <glyph glyph-name="dotlessi" unicode="&#x131;" horiz-adv-x="272" 
d="M176 1065h53l-168 -1065h-53z" />
    <glyph glyph-name="IJ" unicode="&#x132;" horiz-adv-x="1273" 
d="M76 0h-56l226 1434h55zM317 195q87 -154 324 -154q75 0 142 23.5t127.5 73.5t105 140t63.5 211l152 945h53l-149 -942q-18 -112 -55 -200t-86 -144.5t-110.5 -93.5t-125.5 -52.5t-135 -15.5q-123 0 -213 45t-136 129z" />
    <glyph glyph-name="Kcommaaccent" unicode="&#x136;" horiz-adv-x="1191" 
d="M1229 1434l-758 -680l586 -754h-74l-551 719l-285 -256l-73 -463h-56l228 1434h55l-139 -883l983 883h84zM399 -244l13 84h84l-31 -192q-10 -70 -35 -105.5t-70 -46.5l7 29q6 6 11 12t8.5 11t7 12.5t6 12t5 15.5t4 16t4 19.5t4 21t4.5 26t5 28.5l10 57h-37z" />
    <glyph glyph-name="kcommaaccent" unicode="&#x137;" horiz-adv-x="1001" 
d="M973 1065l-572 -502l471 -563h-65l-438 535l-256 -226l-50 -309h-53l226 1434h53l-166 -1059l780 690h70zM330 -205l18 103h90l-32 -209q-12 -69 -43 -110t-72 -44l4 27q33 27 47.5 61t24.5 111l6 61h-43z" />
    <glyph glyph-name="Lacute" unicode="&#x139;" horiz-adv-x="1069" 
d="M268 1559h39l254 262h-76zM84 53h797l-11 -53h-852l228 1434h55z" />
    <glyph glyph-name="lacute" unicode="&#x13a;" horiz-adv-x="307" 
d="M270 1559h39l254 262h-76zM240 1434h53l-225 -1434h-54z" />
    <glyph glyph-name="Lcommaaccent" unicode="&#x13b;" horiz-adv-x="1069" 
d="M84 53h797l-11 -53h-852l228 1434h55zM338 -465l4 27q33 27 47.5 61t24.5 111l6 61h-43l18 103h90l-32 -209q-12 -69 -43 -110t-72 -44z" />
    <glyph glyph-name="lcommaaccent" unicode="&#x13c;" horiz-adv-x="299" 
d="M250 1434h53l-225 -1434h-53zM-70 -504l7 29q10 10 17 20.5t11 18t8.5 25.5t6.5 26.5t7.5 38.5t8.5 45l10 57h-37l13 84h84l-31 -192q-10 -70 -35 -105.5t-70 -46.5z" />
    <glyph glyph-name="Lcaron" unicode="&#x13d;" horiz-adv-x="1069" 
d="M84 53h797l-11 -53h-852l228 1434h55zM528 1090l4 28q29 28 40 60t22 114l8 58h-37l15 84h84l-33 -193q-10 -70 -34.5 -105t-68.5 -46z" />
    <glyph glyph-name="lcaron" unicode="&#x13e;" horiz-adv-x="419" 
d="M236 1434h53l-226 -1434h-53zM344 1090l6 28l12.5 12.5t10 13.5t7.5 13t6 15.5t5 16.5t4.5 21t4 22.5t5 28t5.5 31.5l12 58h-37l12 84h84l-30 -193q-10 -69 -36 -104.5t-71 -46.5z" />
    <glyph glyph-name="Lslash" unicode="&#x141;" horiz-adv-x="1161" 
d="M176 53h797l-10 -53h-852l92 580l-185 -179l9 66l186 180l125 787h55l-114 -723l315 303h4l-12 -64l-318 -307z" />
    <glyph glyph-name="lslash" unicode="&#x142;" horiz-adv-x="614" 
d="M645 1042l-16 -90l-295 -268l-109 -684h-53l98 629l-264 -240l17 86l262 238l112 721h54l-105 -664z" />
    <glyph glyph-name="Nacute" unicode="&#x143;" horiz-adv-x="1282" 
d="M782 1559h39l254 262h-76zM1292 1434l-227 -1434h-74l-696 1372h-4l-217 -1372h-56l228 1434h73l699 -1366h2l217 1366h55z" />
    <glyph glyph-name="nacute" unicode="&#x144;" horiz-adv-x="1044" 
d="M604 1190h39l254 262h-76zM621 1075q67 0 121 -13.5t99.5 -44.5t71.5 -80.5t36 -121t-7 -166.5l-104 -649h-54l103 653q15 86 7.5 149t-27.5 105.5t-59 68.5t-85.5 37t-106.5 11q-72 0 -139 -23.5t-116.5 -60t-91 -83.5t-67.5 -90.5t-42 -84.5l-109 -682h-53l168 1065h53
l-43 -274q9 26 33 60.5t65 74t90.5 72.5t117.5 55t139 22z" />
    <glyph glyph-name="Ncommaaccent" unicode="&#x145;" horiz-adv-x="1282" 
d="M1292 1434l-227 -1434h-74l-696 1372h-4l-217 -1372h-56l228 1434h73l699 -1366h2l217 1366h55zM451 -465l4 27q32 26 46.5 60t24.5 112l6 61h-43l19 103h90l-33 -209q-12 -69 -43 -110t-71 -44z" />
    <glyph glyph-name="ncommaaccent" unicode="&#x146;" horiz-adv-x="1044" 
d="M621 1075q67 0 121 -13.5t99.5 -44.5t71.5 -80.5t36 -121t-7 -166.5l-104 -649h-54l103 653q15 86 7.5 149t-27.5 105.5t-59 68.5t-85.5 37t-106.5 11q-72 0 -139 -23.5t-116.5 -60t-91 -83.5t-67.5 -90.5t-42 -84.5l-109 -682h-53l168 1065h53l-43 -274q9 26 33 60.5
t65 74t90.5 72.5t117.5 55t139 22zM332 -465l4 27q33 27 47.5 61t24.5 111l6 61h-43l18 103h90l-33 -209q-12 -69 -43 -110t-71 -44z" />
    <glyph glyph-name="Ncaron" unicode="&#x147;" horiz-adv-x="1282" 
d="M1053 1821h51l-258 -248h-70l-178 248h47l172 -201zM1292 1434l-227 -1434h-74l-696 1372h-4l-217 -1372h-56l228 1434h73l699 -1366h2l217 1366h55z" />
    <glyph glyph-name="ncaron" unicode="&#x148;" horiz-adv-x="1044" 
d="M874 1452h52l-258 -248h-70l-178 248h47l172 -201zM621 1075q67 0 121 -13.5t99.5 -44.5t71.5 -80.5t36 -121t-7 -166.5l-104 -649h-54l103 653q15 86 7.5 149t-27.5 105.5t-59 68.5t-85.5 37t-106.5 11q-72 0 -139 -23.5t-116.5 -60t-91 -83.5t-67.5 -90.5t-42 -84.5
l-109 -682h-53l168 1065h53l-43 -274q9 26 33 60.5t65 74t90.5 72.5t117.5 55t139 22z" />
    <glyph glyph-name="Eng" unicode="&#x14a;" horiz-adv-x="1282" 
d="M1237 1434h55l-219 -1379q-18 -112 -55 -200t-86 -144.5t-110.5 -93.5t-125.5 -52.5t-135 -15.5q-124 0 -214 45.5t-136 129.5l43 34q87 -153 324 -153q69 0 131.5 19.5t120.5 62t103.5 118t70.5 177.5l-709 1390h-4l-217 -1372h-56l228 1434h73l699 -1366l149 929z" />
    <glyph glyph-name="eng" unicode="&#x14b;" horiz-adv-x="1044" 
d="M621 1079q67 0 121 -13.5t99.5 -44.5t71.5 -80.5t36 -121t-7 -166.5l-133 -846q-23 -143 -84.5 -200.5t-161.5 -57.5q-47 0 -91 17t-71 39l11 49q71 -51 157 -51q72 0 120 48.5t61 137.5l137 868q15 86 7.5 149t-27.5 105.5t-59 68.5t-85.5 37t-106.5 11
q-72 0 -139 -23.5t-116.5 -60t-91 -83.5t-67.5 -90.5t-42 -84.5l-109 -686h-53l168 1065h53l-43 -272q9 27 33 61.5t65 74.5t90.5 73t117.5 55t139 22z" />
    <glyph glyph-name="Omacron" unicode="&#x14c;" horiz-adv-x="1409" 
d="M653 1821h537l-6 -47h-537zM829 1452q234 0 375.5 -139.5t141.5 -401.5q0 -148 -31.5 -285.5t-95 -254.5t-152.5 -203.5t-210.5 -136t-262.5 -49.5q-236 0 -375 138t-139 400q0 147 31 284.5t94 255t151 205t210 137.5t263 50zM598 37q131 0 243.5 48t193.5 131t139 194
t86 238t28 261q0 241 -124.5 364.5t-340.5 123.5q-131 0 -243.5 -48t-193 -132t-138 -195.5t-85.5 -239.5t-28 -264q0 -239 123.5 -360t339.5 -121z" />
    <glyph glyph-name="omacron" unicode="&#x14d;" horiz-adv-x="1069" 
d="M397 1452h537l-6 -47h-537zM596 1075q172 0 285.5 -114t113.5 -318q0 -173 -72 -323t-203 -242t-290 -92q-82 0 -153.5 28t-126 80.5t-86 134.5t-31.5 185q0 129 42.5 249t115.5 211t179 146t226 55zM942 649q0 94 -28 167.5t-76 118.5t-109 68t-131 23
q-149 0 -267.5 -85.5t-181.5 -225.5t-63 -303q0 -93 28 -166.5t76.5 -118.5t109.5 -68.5t130 -23.5q150 0 268.5 86.5t181 226t62.5 301.5z" />
    <glyph glyph-name="Ohungarumlaut" unicode="&#x150;" horiz-adv-x="1409" 
d="M594 1559h43l213 262h-80zM858 1559h43l213 262h-80zM829 1452q234 0 375.5 -139.5t141.5 -401.5q0 -148 -31.5 -285.5t-95 -254.5t-152.5 -203.5t-210.5 -136t-262.5 -49.5q-236 0 -375 138t-139 400q0 147 31 284.5t94 255t151 205t210 137.5t263 50zM598 37
q131 0 243.5 48t193.5 131t139 194t86 238t28 261q0 241 -124.5 364.5t-340.5 123.5q-131 0 -243.5 -48t-193 -132t-138 -195.5t-85.5 -239.5t-28 -264q0 -239 123.5 -360t339.5 -121z" />
    <glyph glyph-name="ohungarumlaut" unicode="&#x151;" horiz-adv-x="1069" 
d="M338 1190h43l213 262h-80zM602 1190h43l213 262h-80zM596 1075q172 0 285.5 -114t113.5 -318q0 -173 -72 -323t-203 -242t-290 -92q-82 0 -153.5 28t-126 80.5t-86 134.5t-31.5 185q0 129 42.5 249t115.5 211t179 146t226 55zM942 649q0 94 -28 167.5t-76 118.5t-109 68
t-131 23q-149 0 -267.5 -85.5t-181.5 -225.5t-63 -303q0 -93 28 -166.5t76.5 -118.5t109.5 -68.5t130 -23.5q150 0 268.5 86.5t181 226t62.5 301.5z" />
    <glyph glyph-name="OE" unicode="&#x152;" horiz-adv-x="2211" 
d="M2253 1380h-813l-97 -610h709l-8 -49h-709l-108 -668h835l-10 -53h-887l62 385q-96 -187 -257.5 -295t-375.5 -108q-236 0 -375 138t-139 400q0 147 31 284.5t94 255t151 205t210 137.5t263 50q198 0 332.5 -101.5t171.5 -295.5l60 379h866zM598 37q131 0 243.5 48
t193.5 131t139 194t86 238t28 261q0 241 -124.5 364.5t-340.5 123.5q-131 0 -243.5 -48t-193 -132t-138 -195.5t-85.5 -239.5t-28 -264q0 -239 123.5 -360t339.5 -121z" />
    <glyph glyph-name="oe" unicode="&#x153;" horiz-adv-x="1949" 
d="M981 496q-2 -4 -2 -13q-4 -50 -4 -71q0 -190 97.5 -283.5t262.5 -93.5q125 0 207 32.5t160 116.5h67q-95 -110 -194.5 -154t-239.5 -44q-172 0 -279 89t-130 255q-71 -156 -202 -250t-294 -94q-82 0 -153.5 28t-126 80.5t-86 134.5t-31.5 185q0 129 42.5 249t115.5 211
t179 146t226 55q151 0 259 -89.5t134 -252.5q71 157 203 249.5t301 92.5q171 0 279 -109t108 -302q0 -32 -6.5 -87.5t-13.5 -80.5h-879zM430 35q187 0 320 129.5t176 327.5q3 45 12 88q4 50 4 69q0 94 -28 167.5t-76 118.5t-109 68t-131 23q-149 0 -267.5 -85.5
t-181.5 -225.5t-63 -303q0 -93 28 -166.5t76.5 -118.5t109.5 -68.5t130 -23.5zM1487 1026q-187 0 -320 -127.5t-176 -325.5q0 -18 -2 -26h828q10 51 10 112q0 178 -94.5 272.5t-245.5 94.5z" />
    <glyph glyph-name="Racute" unicode="&#x154;" horiz-adv-x="1198" 
d="M1024 1821l-254 -262h-39l217 262h76zM840 670q93 -12 146.5 -69.5t53.5 -154.5q0 -37 -21.5 -180t-21.5 -186q0 -62 21 -80h-57q-21 21 -21 80q0 40 21.5 177t21.5 185q0 60 -21.5 101t-61.5 61t-82.5 27.5t-98.5 7.5h-543l-102 -639h-56l228 1434h516q197 0 296 -79
t99 -231q0 -161 -91 -288t-226 -166zM692 688q120 0 215.5 62.5t146 161t50.5 210.5q0 258 -348 258h-463l-111 -692h510z" />
    <glyph glyph-name="racute" unicode="&#x155;" horiz-adv-x="684" 
d="M670 1452l-254 -262h-39l217 262h76zM631 1075q15 0 35 -1t28 -1l-6 -47q-20 2 -65 2q-165 -3 -288.5 -104t-178.5 -267l-105 -657h-53l168 1065h53l-45 -291q37 119 166.5 210t290.5 91z" />
    <glyph glyph-name="Rcommaaccent" unicode="&#x156;" horiz-adv-x="1198" 
d="M840 670q93 -12 146.5 -69.5t53.5 -154.5q0 -37 -21.5 -180t-21.5 -186q0 -62 21 -80h-57q-21 21 -21 80q0 40 21.5 177t21.5 185q0 60 -21.5 101t-61.5 61t-82.5 27.5t-98.5 7.5h-543l-102 -639h-56l228 1434h516q197 0 296 -79t99 -231q0 -161 -91 -288t-226 -166z
M692 688q120 0 215.5 62.5t146 161t50.5 210.5q0 258 -348 258h-463l-111 -692h510zM438 -205l19 103h90l-33 -209q-12 -69 -43 -110t-72 -44l4 27q33 27 47.5 61t24.5 111l6 61h-43z" />
    <glyph glyph-name="rcommaaccent" unicode="&#x157;" horiz-adv-x="684" 
d="M631 1075q15 0 35 -1t28 -1l-6 -47q-20 2 -65 2q-165 -3 -288.5 -104t-178.5 -267l-105 -657h-53l168 1065h53l-45 -291q37 119 166.5 210t290.5 91zM-49 -205l18 103h90l-32 -209q-12 -69 -43 -110t-72 -44l4 27q33 27 47.5 61t24.5 111l6 61h-43z" />
    <glyph glyph-name="Rcaron" unicode="&#x158;" horiz-adv-x="1198" 
d="M795 1573h-70l-178 248h47l172 -201l235 201h52zM840 670q93 -12 146.5 -69.5t53.5 -154.5q0 -37 -21.5 -180t-21.5 -186q0 -62 21 -80h-57q-21 21 -21 80q0 40 21.5 177t21.5 185q0 60 -21.5 101t-61.5 61t-82.5 27.5t-98.5 7.5h-543l-102 -639h-56l228 1434h516
q197 0 296 -79t99 -231q0 -161 -91 -288t-226 -166zM692 688q120 0 215.5 62.5t146 161t50.5 210.5q0 258 -348 258h-463l-111 -692h510z" />
    <glyph glyph-name="rcaron" unicode="&#x159;" horiz-adv-x="684" 
d="M440 1204h-69l-178 248h47l172 -201l235 201h51zM174 774q37 119 166.5 210t290.5 91q15 0 35 -1t28 -1l-6 -47q-20 2 -65 2q-165 -3 -288.5 -104t-178.5 -267l-105 -657h-53l168 1065h53z" />
    <glyph glyph-name="Sacute" unicode="&#x15a;" horiz-adv-x="1157" 
d="M705 1559h38l254 262h-75zM686 752q85 -20 146 -45t110 -63.5t73.5 -95t24.5 -132.5q0 -197 -154.5 -315.5t-400.5 -118.5q-100 0 -177 21.5t-126.5 57t-81 87t-44 107t-11.5 120.5h55q4 -338 394 -338q217 0 354 102.5t137 274.5q0 55 -16.5 98.5t-42 72t-65.5 50.5
t-76.5 34.5t-86.5 24.5l-215 51q-299 66 -299 306q0 83 29.5 154t89 127t159 88t228.5 32q105 0 185 -26t128.5 -73t73.5 -106t27 -129h-53q-2 36 -11 68.5t-26.5 65t-47 58.5t-68.5 46.5t-95.5 31.5t-124.5 11q-110 0 -196 -27.5t-137 -75.5t-77 -107.5t-26 -127.5
q0 -113 62 -175t202 -93z" />
    <glyph glyph-name="sacute" unicode="&#x15b;" horiz-adv-x="933" 
d="M547 1190h39l254 262h-76zM825 836q-41 190 -301 190q-164 0 -257 -71t-93 -175q0 -76 48 -121.5t163 -72.5l154 -37q145 -38 210.5 -85.5t65.5 -144.5q0 -72 -26.5 -130t-69 -95.5t-100.5 -62t-118 -35t-124 -10.5q-80 0 -147 17.5t-119 52.5t-80 94.5t-25 136.5h53
q0 -250 316 -250q76 0 143 15t123.5 46.5t89.5 86.5t33 128q0 35 -11 62t-28 44.5t-48 32.5t-59 23.5t-73 20.5l-197 49q-110 30 -169.5 85t-59.5 148q0 131 117 214t290 83q144 0 240.5 -59t112.5 -180h-54z" />
    <glyph glyph-name="Scedilla" unicode="&#x15e;" horiz-adv-x="1157" 
d="M678 1399q-110 0 -196 -27.5t-137 -75.5t-77 -107.5t-26 -127.5q0 -113 62 -175t202 -93l180 -41q85 -20 146 -45t110 -63.5t73.5 -95t24.5 -132.5q0 -188 -141.5 -304.5t-370.5 -127.5l-84 -95q64 26 126.5 -11.5t62.5 -110.5q0 -87 -66.5 -130t-169.5 -43v39
q94 3 139.5 37.5t45.5 91.5q0 64 -50 88.5t-124 -2.5l-9 11l-10 14l78 109q-119 2 -204 34.5t-131.5 89t-67 122.5t-19.5 147h55q4 -338 394 -338q217 0 354 102.5t137 274.5q0 55 -16.5 98.5t-42 72t-65.5 50.5t-76.5 34.5t-86.5 24.5l-215 51q-299 66 -299 306
q0 83 29.5 154t89 127t159 88t228.5 32q105 0 185 -26t128.5 -73t73.5 -106t27 -129h-53q-2 36 -11 68.5t-26.5 65t-47 58.5t-68.5 46.5t-95.5 31.5t-124.5 11z" />
    <glyph glyph-name="scedilla" unicode="&#x15f;" horiz-adv-x="933" 
d="M524 1026q-164 0 -257 -71t-93 -175q0 -76 48 -121.5t163 -72.5l154 -37q145 -38 210.5 -85.5t65.5 -144.5q0 -85 -34.5 -149.5t-93.5 -102.5t-127 -57.5t-146 -23.5l-88 -97q64 26 126 -11.5t62 -110.5q0 -87 -66 -130t-169 -43v39q94 3 139 37.5t45 91.5
q0 64 -50.5 88.5t-123.5 -2.5l-8 11l-11 14l80 113q-102 4 -178 35t-123 99t-43 167h53q0 -250 316 -250q76 0 143 15t123.5 46.5t89.5 86.5t33 128q0 35 -11 62t-28 44.5t-48 32.5t-59 23.5t-73 20.5l-197 49q-110 30 -169.5 85t-59.5 148q0 131 117 214t290 83
q144 0 240.5 -59t112.5 -180h-54q-41 190 -301 190z" />
    <glyph glyph-name="Scaron" unicode="&#x160;" horiz-adv-x="1157" 
d="M975 1821h51l-258 -248h-70l-178 248h47l172 -201zM686 752q85 -20 146 -45t110 -63.5t73.5 -95t24.5 -132.5q0 -197 -154.5 -315.5t-400.5 -118.5q-100 0 -177 21.5t-126.5 57t-81 87t-44 107t-11.5 120.5h55q4 -338 394 -338q217 0 354 102.5t137 274.5
q0 55 -16.5 98.5t-42 72t-65.5 50.5t-76.5 34.5t-86.5 24.5l-215 51q-299 66 -299 306q0 83 29.5 154t89 127t159 88t228.5 32q105 0 185 -26t128.5 -73t73.5 -106t27 -129h-53q-2 36 -11 68.5t-26.5 65t-47 58.5t-68.5 46.5t-95.5 31.5t-124.5 11q-110 0 -196 -27.5
t-137 -75.5t-77 -107.5t-26 -127.5q0 -113 62 -175t202 -93z" />
    <glyph glyph-name="scaron" unicode="&#x161;" horiz-adv-x="933" 
d="M817 1452h51l-258 -248h-69l-179 248h48l172 -201zM825 836q-41 190 -301 190q-164 0 -257 -71t-93 -175q0 -76 48 -121.5t163 -72.5l154 -37q145 -38 210.5 -85.5t65.5 -144.5q0 -72 -26.5 -130t-69 -95.5t-100.5 -62t-118 -35t-124 -10.5q-80 0 -147 17.5t-119 52.5
t-80 94.5t-25 136.5h53q0 -250 316 -250q76 0 143 15t123.5 46.5t89.5 86.5t33 128q0 35 -11 62t-28 44.5t-48 32.5t-59 23.5t-73 20.5l-197 49q-110 30 -169.5 85t-59.5 148q0 131 117 214t290 83q144 0 240.5 -59t112.5 -180h-54z" />
    <glyph glyph-name="uni0162" unicode="&#x162;" horiz-adv-x="1136" 
d="M184 1434h1020l-6 -54h-483l-219 -1380h10l-107 -104q66 14 117 -25.5t41 -110.5q-13 -87 -85.5 -127.5t-178.5 -40.5l8 39q94 3 145.5 39.5t61.5 93.5q12 62 -34.5 85.5t-123.5 -3.5l-18 25l119 129h-11l219 1380h-481z" />
    <glyph glyph-name="uni0163" unicode="&#x163;" horiz-adv-x="546" 
d="M317 1016l-145 -912q-4 -39 13 -53t59 -14q68 0 143 16l-8 -49q-55 -15 -113 -18l-88 -97q64 26 126.5 -11.5t62.5 -110.5q0 -87 -66.5 -130t-169.5 -43v39q94 3 139 37.5t45 91.5q0 64 -50.5 88.5t-123.5 -2.5l-8 11l-10 14l82 115q-98 13 -84 112l145 916h-168l6 49
h168l43 266h52l-43 -266h217l-6 -49h-218z" />
    <glyph glyph-name="Tcaron" unicode="&#x164;" horiz-adv-x="1136" 
d="M952 1821h52l-259 -248h-69l-178 248h47l172 -201zM1204 1434l-6 -54h-483l-219 -1380h-56l219 1380h-481l6 54h1020z" />
    <glyph glyph-name="tcaron" unicode="&#x165;" horiz-adv-x="503" 
d="M707 1434l-240 -304h-47l209 304h78zM367 1331l-43 -266h217l-6 -49h-218l-145 -912q-4 -39 13 -53t59 -14q68 0 143 16l-8 -49q-67 -18 -139 -18q-64 0 -96 27t-23 87l145 916h-168l6 49h168l43 266h52z" />
    <glyph glyph-name="Tbar" unicode="&#x166;" horiz-adv-x="1136" 
d="M1198 1380h-483l-47 -301h237l-6 -45h-240l-163 -1034h-56l164 1034h-237l6 45h239l47 301h-481l6 54h1020z" />
    <glyph glyph-name="tbar" unicode="&#x167;" horiz-adv-x="544" 
d="M535 1016h-218l-30 -195h215l-6 -49h-217l-107 -668q-4 -39 13 -53t59 -14q68 0 143 16l-8 -49q-67 -18 -139 -18q-64 0 -96 27t-23 87l106 672h-168l7 49h170l30 195h-168l6 49h168l43 266h52l-43 -266h217z" />
    <glyph glyph-name="Utilde" unicode="&#x168;" horiz-adv-x="1275" 
d="M1040 1802h47q0 -77 -51 -116t-116 -39q-37 0 -69 14.5t-56 35t-46.5 40.5t-49.5 34.5t-56 14.5q-67 0 -97 -34t-28 -75h-49q0 78 51 118t117 40q37 0 70 -14.5t56.5 -35t46 -40.5t49.5 -34.5t56 -14.5q66 0 96.5 33.5t28.5 72.5zM1284 1434l-139 -893
q-41 -258 -203 -405.5t-405 -147.5t-357.5 147.5t-73.5 405.5l140 893h55l-141 -889q-37 -237 62 -370.5t323 -133.5q218 0 362 134.5t183 369.5l139 889h55z" />
    <glyph glyph-name="utilde" unicode="&#x169;" horiz-adv-x="1044" 
d="M430 1417q-67 0 -97 -34t-28 -74h-49q0 78 51 117.5t117 39.5q37 0 70 -14.5t56.5 -35t46 -40.5t49.5 -34.5t56 -14.5q66 0 96.5 34t28.5 73h47q0 -77 -51 -116.5t-116 -39.5q-37 0 -69 14.5t-56 35t-46.5 40.5t-49.5 34.5t-56 14.5zM952 1065h54l-168 -1065h-54l43 272
q-11 -27 -34.5 -61t-64.5 -74t-90 -72.5t-117 -54.5t-140 -22q-83 0 -146.5 21.5t-111.5 71.5t-62 131t2 200l103 653h53l-102 -655q-61 -371 264 -371q92 0 174 34.5t138.5 89t94 110t56.5 108.5z" />
    <glyph glyph-name="Umacron" unicode="&#x16a;" horiz-adv-x="1275" 
d="M588 1821h536l-6 -47h-536zM1284 1434l-139 -893q-41 -258 -203 -405.5t-405 -147.5t-357.5 147.5t-73.5 405.5l140 893h55l-141 -889q-37 -237 62 -370.5t323 -133.5q218 0 362 134.5t183 369.5l139 889h55z" />
    <glyph glyph-name="umacron" unicode="&#x16b;" horiz-adv-x="1044" 
d="M911 1452l-6 -47h-536l6 47h536zM952 1065h54l-168 -1065h-54l43 272q-11 -27 -34.5 -61t-64.5 -74t-90 -72.5t-117 -54.5t-140 -22q-83 0 -146.5 21.5t-111.5 71.5t-62 131t2 200l103 653h53l-102 -655q-61 -371 264 -371q92 0 174 34.5t138.5 89t94 110t56.5 108.5z
" />
    <glyph glyph-name="Ubreve" unicode="&#x16c;" horiz-adv-x="1275" 
d="M1053 1821h43q-7 -41 -25 -77.5t-50 -70.5t-87 -54t-125 -20q-69 0 -117 21t-69.5 55.5t-29 71t-1.5 74.5h45q-3 -81 35.5 -126.5t138.5 -45.5q189 0 242 172zM1284 1434l-139 -893q-41 -258 -203 -405.5t-405 -147.5t-357.5 147.5t-73.5 405.5l140 893h55l-141 -889
q-37 -237 62 -370.5t323 -133.5q218 0 362 134.5t183 369.5l139 889h55z" />
    <glyph glyph-name="ubreve" unicode="&#x16d;" horiz-adv-x="1044" 
d="M596 1231q-69 0 -117 21t-70 55t-29 70.5t-1 74.5h45q-3 -81 35.5 -126.5t138.5 -45.5q189 0 242 172h43q-7 -41 -25 -77.5t-50 -70t-87 -53.5t-125 -20zM952 1065h54l-168 -1065h-54l43 272q-11 -27 -34.5 -61t-64.5 -74t-90 -72.5t-117 -54.5t-140 -22
q-83 0 -146.5 21.5t-111.5 71.5t-62 131t2 200l103 653h53l-102 -655q-61 -371 264 -371q92 0 174 34.5t138.5 89t94 110t56.5 108.5z" />
    <glyph glyph-name="Uring" unicode="&#x16e;" horiz-adv-x="1275" 
d="M813 1559q-60 0 -98.5 38t-38.5 93q0 70 52 121t126 51q58 0 95.5 -38.5t37.5 -94.5q0 -68 -51.5 -119t-122.5 -51zM819 1604q45 0 82 36t37 84q0 39 -26.5 66t-65.5 27q-48 0 -84.5 -36t-36.5 -85q0 -39 26.5 -65.5t67.5 -26.5zM1284 1434l-139 -893
q-41 -258 -203 -405.5t-405 -147.5t-357.5 147.5t-73.5 405.5l140 893h55l-141 -889q-37 -237 62 -370.5t323 -133.5q218 0 362 134.5t183 369.5l139 889h55z" />
    <glyph glyph-name="uring" unicode="&#x16f;" horiz-adv-x="1044" 
d="M600 1190q-60 0 -98.5 38t-38.5 93q0 70 52 121t126 51q58 0 95.5 -38.5t37.5 -94.5q0 -68 -51.5 -119t-122.5 -51zM633 1448q-48 0 -84.5 -36t-36.5 -85q0 -39 26.5 -65.5t67.5 -26.5q45 0 82 36t37 85q0 39 -26.5 65.5t-65.5 26.5zM952 1065h54l-168 -1065h-54l43 272
q-11 -27 -34.5 -61t-64.5 -74t-90 -72.5t-117 -54.5t-140 -22q-83 0 -146.5 21.5t-111.5 71.5t-62 131t2 200l103 653h53l-102 -655q-61 -371 264 -371q92 0 174 34.5t138.5 89t94 110t56.5 108.5z" />
    <glyph glyph-name="Uhungarumlaut" unicode="&#x170;" horiz-adv-x="1275" 
d="M528 1559h43l213 262h-79zM793 1559h43l213 262h-80zM1284 1434l-139 -893q-41 -258 -203 -405.5t-405 -147.5t-357.5 147.5t-73.5 405.5l140 893h55l-141 -889q-37 -237 62 -370.5t323 -133.5q218 0 362 134.5t183 369.5l139 889h55z" />
    <glyph glyph-name="uhungarumlaut" unicode="&#x171;" horiz-adv-x="1044" 
d="M571 1452l-213 -262h-43l177 262h79zM836 1452l-213 -262h-43l176 262h80zM952 1065h54l-168 -1065h-54l43 272q-11 -27 -34.5 -61t-64.5 -74t-90 -72.5t-117 -54.5t-140 -22q-83 0 -146.5 21.5t-111.5 71.5t-62 131t2 200l103 653h53l-102 -655q-61 -371 264 -371
q92 0 174 34.5t138.5 89t94 110t56.5 108.5z" />
    <glyph glyph-name="Uogonek" unicode="&#x172;" horiz-adv-x="1275" 
d="M1229 1434h55l-139 -893q-35 -220 -160 -362t-315 -179l24 -2q-69 -28 -123.5 -61.5t-98.5 -84t-52 -104.5q-9 -68 40.5 -98t151.5 -17l-6 -43q-38 -16 -83 -12.5t-83.5 18.5t-60.5 54t-14 94q11 77 86 142.5t174 107.5q-43 -6 -88 -6q-243 0 -357.5 147.5t-73.5 405.5
l140 893h55l-141 -889q-37 -237 62 -370.5t323 -133.5q218 0 362 134.5t183 369.5z" />
    <glyph glyph-name="uogonek" unicode="&#x173;" horiz-adv-x="1044" 
d="M1006 1065l-168 -1065h-29l22 -2q-68 -28 -123 -61.5t-100 -84t-53 -104.5q-9 -68 42 -98t153 -17l-9 -43q-30 -11 -65 -12.5t-69 7.5t-60 28t-39 53t-6 78q11 81 93.5 149.5t188.5 108.5l43 270q-14 -35 -49.5 -79.5t-90 -91.5t-136.5 -79t-170 -32q-66 0 -119.5 13.5
t-99 44t-71 79t-35.5 119.5t7 166l103 653h53l-102 -655q-61 -369 264 -369q75 0 144 23.5t119 60t92 84t67.5 91t40.5 85.5l-17 -109l125 789h54z" />
    <glyph glyph-name="Wcircumflex" unicode="&#x174;" horiz-adv-x="1984" 
d="M1319 1573l-172 201l-236 -201h-51l256 248h70l180 -248h-47zM1991 1434h55l-645 -1434h-60l-231 1376l-674 -1376h-57l-195 1434h58l176 -1360l661 1360h74l225 -1360z" />
    <glyph glyph-name="wcircumflex" unicode="&#x175;" horiz-adv-x="1576" 
d="M1075 1204l-172 201l-235 -201h-52l256 248h70l180 -248h-47zM1610 1065l-494 -1065h-72l-204 989l-518 -989h-70l-158 1065h53l148 -1006l526 1006h53l211 -1006l467 1006h58z" />
    <glyph glyph-name="Ycircumflex" unicode="&#x176;" horiz-adv-x="1239" 
d="M971 1573l-172 201l-236 -201h-51l256 248h70l180 -248h-47zM635 588l-96 -588h-52l95 588l-398 846h58l372 -791l617 791h69z" />
    <glyph glyph-name="ycircumflex" unicode="&#x177;" horiz-adv-x="976" 
d="M774 1204l-172 201l-235 -201h-52l256 248h70l180 -248h-47zM950 1065h60l-666 -1202q-74 -137 -171 -194.5t-202 -39.5l11 52q91 -15 173.5 37t143.5 165q52 96 47 121l-252 1061h53l242 -1026z" />
    <glyph glyph-name="Ydieresis" unicode="&#x178;" horiz-adv-x="1239" 
d="M602 1821h62l-21 -152h-63zM1004 1821h63l-23 -152h-61zM635 588l-96 -588h-52l95 588l-398 846h58l372 -791l617 791h69z" />
    <glyph glyph-name="Zacute" unicode="&#x179;" horiz-adv-x="1208" 
d="M729 1559h39l254 262h-76zM1049 53l-11 -53h-1061l9 57l1198 1323h-953l7 54h1019l-10 -58l-1192 -1323h994z" />
    <glyph glyph-name="zacute" unicode="&#x17a;" horiz-adv-x="980" 
d="M547 1190h39l254 262h-76zM37 49h774l-8 -49h-834l6 49l928 967h-753l8 49h813l-6 -49z" />
    <glyph glyph-name="Zdotaccent" unicode="&#x17b;" horiz-adv-x="1208" 
d="M768 1821h61l-20 -152h-64zM1049 53l-11 -53h-1061l9 57l1198 1323h-953l7 54h1019l-10 -58l-1192 -1323h994z" />
    <glyph glyph-name="zdotaccent" unicode="&#x17c;" horiz-adv-x="980" 
d="M586 1452h61l-20 -152h-64zM37 49h774l-8 -49h-834l6 49l928 967h-753l8 49h813l-6 -49z" />
    <glyph glyph-name="Zcaron" unicode="&#x17d;" horiz-adv-x="1208" 
d="M999 1821h52l-258 -248h-70l-178 248h47l172 -201zM1049 53l-11 -53h-1061l9 57l1198 1323h-953l7 54h1019l-10 -58l-1192 -1323h994z" />
    <glyph glyph-name="zcaron" unicode="&#x17e;" horiz-adv-x="980" 
d="M817 1452h51l-258 -248h-69l-179 248h48l172 -201zM37 49h774l-8 -49h-834l6 49l928 967h-753l8 49h813l-6 -49z" />
    <glyph glyph-name="florin" unicode="&#x192;" horiz-adv-x="575" 
d="M616 1403q-103 0 -164 -50t-83 -188l-45 -280h211l-9 -51h-211l-147 -926q-11 -75 -37 -131t-57.5 -87t-71.5 -50t-74 -24.5t-71 -4.5l6 51q215 0 252 238l147 934h-180l8 51h180l43 272q12 76 36 131t51.5 86t67.5 49t74.5 24t82.5 7z" />
    <glyph glyph-name="uni01CD" unicode="&#x1cd;" horiz-adv-x="1310" 
d="M844 1573h-70l-178 248h47l172 -201l236 201h51zM1108 0l-111 449h-723l-251 -449h-66l811 1434h43l354 -1434h-57zM301 498h684l-207 848z" />
    <glyph glyph-name="uni01CE" unicode="&#x1ce;" horiz-adv-x="1085" 
d="M651 1204h-69l-179 248h48l172 -201l235 201h51zM938 715l-96 -602q-6 -42 12 -56.5t68 -9.5l-9 -49q-18 -6 -34 -6q-61 0 -81 32t-5 115l18 109q-20 -36 -59.5 -77t-100 -84.5t-147.5 -72t-182 -28.5q-138 0 -216.5 71.5t-78.5 192.5q0 81 28.5 140t86 97.5t129 61.5
t171.5 39q7 1 48.5 7t58 8.5t58 9t64 11t58 11.5t59 13.5t48.5 14t43 15.5l4 31q28 171 -34.5 244t-246.5 73q-162 0 -242 -50.5t-114 -146.5h-56q43 131 144.5 188.5t269.5 57.5q193 0 279 -85t55 -275zM823 340l47 287q-20 -9 -55.5 -19t-88 -20t-96 -17.5t-112 -18.5
t-102.5 -17q-175 -29 -255.5 -93.5t-80.5 -195.5q0 -100 64.5 -156.5t177.5 -56.5q85 0 163.5 25t132.5 60.5t99 80t69.5 79t36.5 62.5z" />
    <glyph glyph-name="uni01CF" unicode="&#x1cf;" horiz-adv-x="292" 
d="M535 1821h51l-258 -248h-70l-178 248h47l172 -201zM76 0h-56l226 1434h55z" />
    <glyph glyph-name="uni01D0" unicode="&#x1d0;" horiz-adv-x="272" 
d="M465 1452h51l-258 -248h-70l-178 248h47l172 -201zM176 1065h53l-168 -1065h-53z" />
    <glyph glyph-name="uni01D1" unicode="&#x1d1;" horiz-adv-x="1409" 
d="M1116 1821h51l-258 -248h-69l-178 248h47l172 -201zM829 1452q234 0 375.5 -139.5t141.5 -401.5q0 -148 -31.5 -285.5t-95 -254.5t-152.5 -203.5t-210.5 -136t-262.5 -49.5q-236 0 -375 138t-139 400q0 147 31 284.5t94 255t151 205t210 137.5t263 50zM598 37
q131 0 243.5 48t193.5 131t139 194t86 238t28 261q0 241 -124.5 364.5t-340.5 123.5q-131 0 -243.5 -48t-193 -132t-138 -195.5t-85.5 -239.5t-28 -264q0 -239 123.5 -360t339.5 -121z" />
    <glyph glyph-name="uni01D2" unicode="&#x1d2;" horiz-adv-x="1069" 
d="M860 1452h51l-258 -248h-69l-178 248h47l172 -201zM596 1075q172 0 285.5 -114t113.5 -318q0 -173 -72 -323t-203 -242t-290 -92q-82 0 -153.5 28t-126 80.5t-86 134.5t-31.5 185q0 129 42.5 249t115.5 211t179 146t226 55zM942 649q0 94 -28 167.5t-76 118.5t-109 68
t-131 23q-149 0 -267.5 -85.5t-181.5 -225.5t-63 -303q0 -93 28 -166.5t76.5 -118.5t109.5 -68.5t130 -23.5q150 0 268.5 86.5t181 226t62.5 301.5z" />
    <glyph glyph-name="uni01D3" unicode="&#x1d3;" horiz-adv-x="1275" 
d="M1051 1821h51l-258 -248h-70l-178 248h47l172 -201zM1284 1434l-139 -893q-41 -258 -203 -405.5t-405 -147.5t-357.5 147.5t-73.5 405.5l140 893h55l-141 -889q-37 -237 62 -370.5t323 -133.5q218 0 362 134.5t183 369.5l139 889h55z" />
    <glyph glyph-name="uni01D4" unicode="&#x1d4;" horiz-adv-x="1044" 
d="M631 1204h-70l-178 248h47l172 -201l236 201h51zM952 1065h54l-168 -1065h-54l43 272q-11 -27 -34.5 -61t-64.5 -74t-90 -72.5t-117 -54.5t-140 -22q-83 0 -146.5 21.5t-111.5 71.5t-62 131t2 200l103 653h53l-102 -655q-61 -371 264 -371q92 0 174 34.5t138.5 89t94 110
t56.5 108.5z" />
    <glyph glyph-name="uni01EA" unicode="&#x1ea;" horiz-adv-x="1409" 
d="M731 -6q-67 -28 -120.5 -61.5t-95 -82.5t-50.5 -102q-9 -68 41.5 -98t152.5 -17l-6 -43q-38 -16 -83.5 -12.5t-84 18.5t-60.5 54t-13 94q10 73 67.5 135t141.5 103h-27q-236 0 -375 138t-139 400q0 147 31 284.5t94 255t151 205t210 137.5t263 50q234 0 375.5 -139.5
t141.5 -401.5q0 -167 -41 -319.5t-117.5 -276t-194.5 -208.5t-262 -113zM135 518q0 -239 123.5 -360t339.5 -121q131 0 243.5 48t193.5 131t139 194t86 238t28 261q0 241 -124.5 364.5t-340.5 123.5q-131 0 -243.5 -48t-193 -132t-138 -195.5t-85.5 -239.5t-28 -264z" />
    <glyph glyph-name="uni01EB" unicode="&#x1eb;" horiz-adv-x="1067" 
d="M594 1077q94 0 173 -35.5t135 -102.5t79 -173.5t2 -237.5q-35 -216 -153.5 -351.5t-276.5 -178.5h4q-68 -28 -123 -61.5t-100 -84t-53 -104.5q-9 -68 41 -98t153 -17l-8 -43q-38 -16 -83.5 -12.5t-84 18.5t-60.5 54t-14 94q11 71 79 134t161 106q-12 -2 -37 -2
q-93 0 -172 35.5t-135 102.5t-78.5 174.5t-1.5 240.5q21 131 77 236.5t132.5 171t164.5 100t179 34.5zM932 535q16 102 5 182t-41.5 138.5t-78 97t-104 57t-119.5 18.5q-82 0 -161.5 -31.5t-149.5 -91t-121.5 -157.5t-71.5 -220q-19 -124 1.5 -222t71.5 -156.5t119 -88.5
t148 -30q82 0 161 31.5t148.5 91.5t121 158.5t71.5 222.5z" />
    <glyph glyph-name="Scommaaccent" unicode="&#x218;" horiz-adv-x="1157" 
d="M686 752q85 -20 146 -45t110 -63.5t73.5 -95t24.5 -132.5q0 -197 -154.5 -315.5t-400.5 -118.5q-100 0 -177 21.5t-126.5 57t-81 87t-44 107t-11.5 120.5h55q4 -338 394 -338q217 0 354 102.5t137 274.5q0 55 -16.5 98.5t-42 72t-65.5 50.5t-76.5 34.5t-86.5 24.5
l-215 51q-299 66 -299 306q0 83 29.5 154t89 127t159 88t228.5 32q105 0 185 -26t128.5 -73t73.5 -106t27 -129h-53q-2 36 -11 68.5t-26.5 65t-47 58.5t-68.5 46.5t-95.5 31.5t-124.5 11q-110 0 -196 -27.5t-137 -75.5t-77 -107.5t-26 -127.5q0 -113 62 -175t202 -93z
M393 -465l4 27q33 27 47.5 61t24.5 111l6 61h-43l19 103h90l-33 -209q-12 -69 -43 -110t-72 -44z" />
    <glyph glyph-name="scommaaccent" unicode="&#x219;" horiz-adv-x="933" 
d="M825 836q-41 190 -301 190q-164 0 -257 -71t-93 -175q0 -76 48 -121.5t163 -72.5l154 -37q145 -38 210.5 -85.5t65.5 -144.5q0 -72 -26.5 -130t-69 -95.5t-100.5 -62t-118 -35t-124 -10.5q-80 0 -147 17.5t-119 52.5t-80 94.5t-25 136.5h53q0 -250 316 -250q76 0 143 15
t123.5 46.5t89.5 86.5t33 128q0 35 -11 62t-28 44.5t-48 32.5t-59 23.5t-73 20.5l-197 49q-110 30 -169.5 85t-59.5 148q0 131 117 214t290 83q144 0 240.5 -59t112.5 -180h-54zM274 -465l5 27q32 26 46.5 60t24.5 112l6 61h-43l19 103h90l-33 -209q-12 -69 -43 -110
t-72 -44z" />
    <glyph glyph-name="uni021A" unicode="&#x21a;" horiz-adv-x="1136" 
d="M1204 1434l-6 -54h-483l-219 -1380h-56l219 1380h-481l6 54h1020zM391 -504l4 29q29 28 40 60t22 114l10 57h-37l10 84h84l-28 -192q-12 -70 -37 -105.5t-68 -46.5z" />
    <glyph glyph-name="uni021B" unicode="&#x21b;" horiz-adv-x="546" 
d="M317 1016l-145 -912q-4 -39 13 -53t59 -14q68 0 143 16l-8 -49q-67 -18 -139 -18q-64 0 -96 27t-23 87l145 916h-168l6 49h168l43 266h52l-43 -266h217l-6 -49h-218zM166 -205l18 103h90l-32 -209q-12 -69 -43 -110t-72 -44l4 27q33 27 47.5 61t24.5 111l6 61h-43z" />
    <glyph glyph-name="uni0237" unicode="&#x237;" horiz-adv-x="354" 
d="M-305 -346q71 -51 160 -51q70 0 117.5 48.5t60.5 137.5l205 1276h53l-199 -1258q-23 -143 -84.5 -200.5t-161.5 -57.5q-47 0 -90.5 17t-70.5 39z" />
    <glyph glyph-name="circumflex" unicode="&#x2c6;" horiz-adv-x="505" 
d="M563 1204l-172 201l-235 -201h-52l256 248h70l180 -248h-47z" />
    <glyph glyph-name="caron" unicode="&#x2c7;" horiz-adv-x="505" 
d="M600 1452h51l-258 -248h-69l-179 248h48l172 -201z" />
    <glyph glyph-name="breve" unicode="&#x2d8;" horiz-adv-x="503" 
d="M606 1452h43q-7 -41 -25 -77.5t-50 -70t-87 -53.5t-125 -20q-69 0 -117 21t-70 55t-29 70.5t-1 74.5h45q-3 -81 36 -126.5t139 -45.5q188 0 241 172z" />
    <glyph glyph-name="dotaccent" unicode="&#x2d9;" horiz-adv-x="63" 
d="M145 1452h62l-21 -152h-63z" />
    <glyph glyph-name="ring" unicode="&#x2da;" horiz-adv-x="309" 
d="M264 1190q-60 0 -98.5 38t-38.5 93q0 70 52 121t126 51q58 0 95.5 -38.5t37.5 -94.5q0 -68 -51.5 -119t-122.5 -51zM270 1235q45 0 82 36t37 85q0 39 -26.5 65.5t-65.5 26.5q-48 0 -84.5 -36t-36.5 -85q0 -39 26.5 -65.5t67.5 -26.5z" />
    <glyph glyph-name="ogonek" unicode="&#x2db;" horiz-adv-x="286" 
d="M143 -408q-29 -11 -64.5 -13t-71 6t-64.5 26.5t-47.5 52t-18.5 78.5q0 82 74.5 154t169.5 104h47q-101 -45 -168.5 -108t-67.5 -142q0 -68 56 -99t155 -16v-43z" />
    <glyph glyph-name="tilde" unicode="&#x2dc;" horiz-adv-x="604" 
d="M696 1434h47q0 -77 -51.5 -116.5t-116.5 -39.5q-37 0 -69 14.5t-55.5 35t-46 40.5t-49.5 34.5t-56 14.5q-67 0 -97 -34t-28 -74h-49q0 78 51 117.5t117 39.5q37 0 70 -14.5t56.5 -35t46 -40.5t49.5 -34.5t56 -14.5q66 0 96.5 34t28.5 73z" />
    <glyph glyph-name="hungarumlaut" unicode="&#x2dd;" horiz-adv-x="479" 
d="M104 1190h43l213 262h-79zM369 1190h43l213 262h-80z" />
    <glyph glyph-name="uni0326" unicode="&#x326;" horiz-adv-x="0" 
d="M-248 -465l4 27q33 27 47.5 61t24.5 111l6 61h-43l19 103h90l-33 -209q-12 -69 -43 -110t-72 -44z" />
    <glyph glyph-name="uni0394" unicode="&#x394;" horiz-adv-x="1509" 
d="M1290 0h-1296l858 1434h33zM1210 51l-358 1272l-766 -1272h1124z" />
    <glyph glyph-name="uni03A9" unicode="&#x3a9;" horiz-adv-x="1595" 
d="M1044 51h316l-6 -51h-371l23 147q182 123 282 224t145.5 212t45.5 257q0 162 -79.5 292t-207 199.5t-274.5 69.5q-143 0 -284.5 -61t-250.5 -161.5t-176.5 -240.5t-67.5 -289q0 -163 59 -263t230 -239l-25 -147h-368l6 51h319l11 78q-279 207 -279 522q0 160 71 308.5
t186.5 255t266 170t304.5 63.5q123 0 234 -45t193.5 -123.5t131.5 -192t49 -243.5q0 -103 -23.5 -193t-63 -162t-100.5 -138t-128 -118t-154 -106z" />
    <glyph glyph-name="uni03BC" unicode="&#x3bc;" horiz-adv-x="1046" 
d="M954 1065h54l-168 -1065h-54l41 258q-19 -37 -56 -79.5t-92 -86.5t-133.5 -73t-162.5 -29q-240 0 -305 172l-88 -551h-53l231 1454h53l-102 -655q-58 -369 264 -369q92 0 174 34t138.5 88.5t94 109.5t56.5 108z" />
    <glyph glyph-name="pi" unicode="&#x3c0;" horiz-adv-x="1263" 
d="M999 1014l-137 -867q-18 -108 68 -108q61 0 147 35l-10 -51q-3 -1 -12.5 -6.5t-12 -6.5t-10.5 -5t-10.5 -4.5t-9.5 -3.5t-10.5 -3.5t-10.5 -2t-12 -2t-12 -1t-15 -0.5q-96 0 -125 44t-12 156l131 826h-536l-160 -1014h-53l159 1014h-204l8 51h1050l-8 -51h-203z" />
    <glyph glyph-name="uni0401" unicode="&#x401;" horiz-adv-x="1064" 
d="M524 1821h62l-21 -152h-63zM926 1821h63l-22 -152h-62zM1106 1380h-813l-96 -610h708l-8 -49h-709l-108 -668h835l-10 -53h-887l228 1434h866z" />
    <glyph glyph-name="uni0403" unicode="&#x403;" horiz-adv-x="958" 
d="M610 1559h39l254 262h-76zM1030 1434l-8 -54h-731l-217 -1380h-56l228 1434h784z" />
    <glyph glyph-name="uni0404" unicode="&#x404;" horiz-adv-x="1277" 
d="M815 1399q-129 0 -240.5 -49.5t-192.5 -136.5t-137 -199.5t-83 -243.5h594l-6 -49h-596q-17 -107 -17 -193q0 -126 34 -221.5t96 -154.5t143.5 -88t181.5 -29q174 0 305 69.5t197 182.5h65q-76 -142 -225.5 -223.5t-345.5 -81.5q-112 0 -203.5 33t-159.5 99t-105.5 172
t-37.5 244q0 143 31 278t93 252t149.5 204.5t208 137.5t259.5 50q195 0 316.5 -81.5t152.5 -225.5h-59q-29 116 -135 185t-283 69z" />
    <glyph glyph-name="uni0407" unicode="&#x407;" horiz-adv-x="292" 
d="M106 1821h62l-21 -152h-63zM508 1821h63l-22 -152h-62zM76 0h-56l226 1434h55z" />
    <glyph glyph-name="uni040C" unicode="&#x40c;" horiz-adv-x="1191" 
d="M1026 1821l-254 -262h-39l217 262h76zM1229 1434l-758 -680l586 -754h-74l-551 719l-285 -256l-73 -463h-56l228 1434h55l-139 -883l983 883h84z" />
    <glyph glyph-name="uni040E" unicode="&#x40e;" horiz-adv-x="1075" 
d="M946 1821h43q-7 -41 -25 -77.5t-50 -70.5t-87 -54t-125 -20q-69 0 -117 21t-69.5 55.5t-29 71t-1.5 74.5h45q-3 -81 36 -126.5t139 -45.5q188 0 241 172zM1079 1434h58l-691 -1215q-147 -255 -366 -223l8 55q198 -25 318 207q35 61 45 85t6 46l-273 1045h56l260 -1014z
" />
    <glyph glyph-name="uni0410" unicode="&#x410;" horiz-adv-x="1310" 
d="M1108 0l-111 449h-723l-251 -449h-66l811 1434h43l354 -1434h-57zM301 498h684l-207 848z" />
    <glyph glyph-name="uni0411" unicode="&#x411;" horiz-adv-x="1165" 
d="M629 877q202 0 312 -90.5t110 -256.5q0 -245 -151 -387.5t-406 -142.5h-476l228 1434h784l-8 -54h-731l-88 -555l10 52h416zM506 57q227 0 358 127.5t131 343.5q0 145 -91.5 219t-270.5 74h-430l-121 -764h424z" />
    <glyph glyph-name="uni0412" unicode="&#x412;" horiz-adv-x="1191" 
d="M784 782q283 -66 283 -315q0 -227 -149.5 -347t-407.5 -120h-492l228 1434h491q182 0 269.5 -73.5t87.5 -199.5q0 -141 -81 -241t-229 -138zM293 1380l-90 -571h461q165 0 270.5 102t105.5 252q0 97 -69.5 157t-229.5 60h-448zM528 53q220 0 353 111t133 301
q0 136 -102 213.5t-296 77.5h-421l-113 -703h446z" />
    <glyph glyph-name="uni0413" unicode="&#x413;" horiz-adv-x="958" 
d="M1030 1434l-8 -54h-731l-217 -1380h-56l228 1434h784z" />
    <glyph glyph-name="uni0414" unicode="&#x414;" horiz-adv-x="1374" 
d="M1317 1434l-219 -1383h129l-31 -192h-53l22 141h-1155l-22 -141h-54l31 192h82q84 82 143.5 244t87.5 307.5t88 516.5q3 14 4 22t3 20.5t4 22.5l41 250h899zM115 51h927l209 1329h-788l-33 -204q-77 -499 -111 -654q-61 -280 -155 -412q-23 -32 -49 -59z" />
    <glyph glyph-name="uni0415" unicode="&#x415;" horiz-adv-x="1064" 
d="M1106 1380h-813l-96 -610h708l-8 -49h-709l-108 -668h835l-10 -53h-887l228 1434h866z" />
    <glyph glyph-name="uni0416" unicode="&#x416;" horiz-adv-x="1619" 
d="M1663 1434l-762 -695l584 -739h-70l-563 713l-113 -713h-55l113 713l-789 -713h-71l819 739l-541 695h68l522 -666l106 666h56l-107 -668l733 668h70z" />
    <glyph glyph-name="uni0417" unicode="&#x417;" horiz-adv-x="1124" 
d="M748 782q126 -24 202 -105.5t76 -209.5q0 -144 -74.5 -257.5t-201 -174t-281.5 -60.5q-223 0 -332.5 124t-77.5 343h52q-31 -194 63.5 -304.5t292.5 -110.5q219 0 363.5 122t144.5 318q0 144 -108.5 216.5t-299.5 72.5h-35l9 49h28q116 0 212.5 39t158 121t61.5 194
q0 109 -84.5 175.5t-230.5 66.5q-175 0 -290 -103.5t-144 -302.5h-51q30 224 161.5 340.5t325.5 116.5q174 0 268.5 -84.5t94.5 -216.5q0 -125 -74 -222.5t-229 -146.5z" />
    <glyph glyph-name="uni0418" unicode="&#x418;" horiz-adv-x="1282" 
d="M246 1434h55l-217 -1366h2l1124 1366h82l-227 -1434h-55l217 1372h-4l-1127 -1372h-78z" />
    <glyph glyph-name="uni0419" unicode="&#x419;" horiz-adv-x="1282" 
d="M1044 1821h43q-7 -41 -24.5 -77.5t-50 -70.5t-87 -54t-124.5 -20q-69 0 -117 21t-69.5 55.5t-29 71t-1.5 74.5h45q-3 -81 35.5 -126.5t138.5 -45.5q188 0 241 172zM246 1434h55l-217 -1366h2l1124 1366h82l-227 -1434h-55l217 1372h-4l-1127 -1372h-78z" />
    <glyph glyph-name="uni041A" unicode="&#x41a;" horiz-adv-x="1191" 
d="M1229 1434l-758 -680l586 -754h-74l-551 719l-285 -256l-73 -463h-56l228 1434h55l-139 -883l983 883h84z" />
    <glyph glyph-name="uni041B" unicode="&#x41b;" horiz-adv-x="1376" 
d="M1386 1434l-227 -1434h-55l217 1380h-801l-147 -934q-21 -131 -63.5 -224t-100.5 -144t-122.5 -72.5t-141.5 -19.5l6 53q67 -1 122.5 19t105.5 66t85.5 129t54.5 200l156 981h911z" />
    <glyph glyph-name="uni041C" unicode="&#x41c;" horiz-adv-x="1646" 
d="M246 1434h47l442 -1379l867 1379h55l-227 -1434h-56l205 1288h-2l-811 -1288h-68l-417 1288h-2l-205 -1288h-56z" />
    <glyph glyph-name="uni041D" unicode="&#x41d;" horiz-adv-x="1263" 
d="M1219 1434h55l-227 -1434h-56l107 668h-918l-106 -668h-56l228 1434h55l-113 -717h918z" />
    <glyph glyph-name="uni041E" unicode="&#x41e;" horiz-adv-x="1409" 
d="M829 1452q234 0 375.5 -139.5t141.5 -401.5q0 -148 -31.5 -285.5t-95 -254.5t-152.5 -203.5t-210.5 -136t-262.5 -49.5q-236 0 -375 138t-139 400q0 147 31 284.5t94 255t151 205t210 137.5t263 50zM598 37q131 0 243.5 48t193.5 131t139 194t86 238t28 261
q0 241 -124.5 364.5t-340.5 123.5q-131 0 -243.5 -48t-193 -132t-138 -195.5t-85.5 -239.5t-28 -264q0 -239 123.5 -360t339.5 -121z" />
    <glyph glyph-name="uni041F" unicode="&#x41f;" horiz-adv-x="1263" 
d="M1274 1434l-227 -1434h-56l217 1380h-917l-217 -1380h-56l228 1434h1028z" />
    <glyph glyph-name="uni0420" unicode="&#x420;" horiz-adv-x="1153" 
d="M715 1434q201 0 308 -88t107 -256q0 -248 -148 -386.5t-404 -138.5h-414l-90 -565h-56l228 1434h469zM584 618q233 0 362 123t129 344q0 295 -362 295h-420l-123 -762h414z" />
    <glyph glyph-name="uni0421" unicode="&#x421;" horiz-adv-x="1277" 
d="M592 35q174 0 305 69.5t197 182.5h65q-76 -142 -225.5 -223.5t-345.5 -81.5q-112 0 -203.5 33t-159.5 99t-105.5 172t-37.5 244q0 143 31 278t93 252t149.5 204.5t208 137.5t259.5 50q195 0 316.5 -81.5t152.5 -225.5h-59q-29 116 -135 185t-283 69q-127 0 -237 -48
t-189.5 -132t-137 -194.5t-86 -237t-28.5 -259.5q0 -126 34 -221.5t96 -154.5t143.5 -88t181.5 -29z" />
    <glyph glyph-name="uni0422" unicode="&#x422;" horiz-adv-x="1136" 
d="M1204 1434l-6 -54h-483l-219 -1380h-56l219 1380h-481l6 54h1020z" />
    <glyph glyph-name="uni0423" unicode="&#x423;" horiz-adv-x="1075" 
d="M1079 1434h58l-691 -1215q-147 -255 -366 -223l8 55q198 -25 318 207q35 61 45 85t6 46l-273 1045h56l260 -1014z" />
    <glyph glyph-name="uni0424" unicode="&#x424;" horiz-adv-x="1355" 
d="M1313 844q0 -319 -189 -518.5t-506 -208.5l-22 -148h-55l22 148q-233 8 -367.5 126.5t-134.5 342.5q0 213 84 376.5t242 256.5t369 98l22 147h56l-23 -147q230 -8 366 -127.5t136 -345.5zM627 162q191 7 336 97t222 241.5t77 341.5q0 207 -125 315.5t-334 114.5zM113 592
q0 -210 123.5 -317t334.5 -113l177 1110q-192 -7 -337 -97t-221.5 -241.5t-76.5 -341.5z" />
    <glyph glyph-name="uni0425" unicode="&#x425;" horiz-adv-x="1212" 
d="M1278 1434l-619 -695l428 -739h-59l-403 698l-621 -698h-67l661 745l-397 689h57l375 -650l575 650h70z" />
    <glyph glyph-name="uni0426" unicode="&#x426;" horiz-adv-x="1243" 
d="M1274 1434l-219 -1381h49l-53 -342h-54l45 289h-1024l228 1434h55l-221 -1381h917l222 1381h55z" />
    <glyph glyph-name="uni0427" unicode="&#x427;" horiz-adv-x="1200" 
d="M1155 1434h55l-227 -1434h-55l100 635q-16 -35 -63.5 -81t-118.5 -92.5t-173.5 -78t-209.5 -31.5q-82 0 -151.5 23.5t-124 71.5t-78 134t-5.5 199l105 654h55l-106 -658q-16 -105 2.5 -180t67 -115.5t111 -59t144.5 -18.5q100 0 197.5 34t169 86t121.5 107t73 105z" />
    <glyph glyph-name="uni0428" unicode="&#x428;" horiz-adv-x="1513" 
d="M1468 1434h56l-228 -1434h-1278l228 1434h55l-221 -1381h557l221 1381h53l-219 -1381h557z" />
    <glyph glyph-name="uni0429" unicode="&#x429;" horiz-adv-x="1515" 
d="M1468 1434h56l-228 -1434h-1278l228 1434h55l-221 -1381h557l221 1381h53l-219 -1381h557zM1376 53l-53 -342h-57l55 342h55z" />
    <glyph glyph-name="uni042A" unicode="&#x42a;" horiz-adv-x="1249" 
d="M715 877q201 0 310.5 -90.5t109.5 -256.5q0 -245 -151 -387.5t-404 -142.5h-469l219 1380h-152l10 54h205l-88 -557h410zM592 57q227 0 357 127t130 344q0 145 -91 219t-271 74h-422l-123 -764h420z" />
    <glyph glyph-name="uni042B" unicode="&#x42b;" horiz-adv-x="1413" 
d="M623 877q201 0 310 -90.5t109 -256.5q0 -245 -151 -387.5t-404 -142.5h-469l228 1434h55l-88 -557h410zM1196 0h-55l225 1434h55zM500 57q227 0 357 127t130 344q0 145 -91 219t-271 74h-422l-123 -764h420z" />
    <glyph glyph-name="uni042C" unicode="&#x42c;" horiz-adv-x="1157" 
d="M623 877q201 0 310 -90.5t109 -256.5q0 -245 -151 -387.5t-404 -142.5h-469l228 1434h55l-88 -557h410zM500 57q227 0 357 127t130 344q0 145 -91 219t-271 74h-422l-123 -764h420z" />
    <glyph glyph-name="uni042D" unicode="&#x42d;" horiz-adv-x="1345" 
d="M772 1452q112 0 204.5 -34t161 -100.5t106.5 -172.5t38 -242q0 -144 -31 -279t-93 -251.5t-149 -203.5t-207 -137t-259 -50q-195 0 -319 82.5t-154 222.5h57q27 -113 136.5 -182.5t283.5 -69.5q139 0 256.5 55t199.5 150t135.5 217.5t75.5 263.5h-612l8 49h611
q8 60 8 135q0 125 -34 221t-96 155t-144 88.5t-183 29.5q-176 0 -306.5 -70t-191.5 -184h-63q74 144 220.5 225.5t340.5 81.5z" />
    <glyph glyph-name="uni042E" unicode="&#x42e;" horiz-adv-x="1748" 
d="M1169 1452q234 0 375.5 -139.5t141.5 -401.5q0 -148 -31.5 -285.5t-95 -254.5t-152.5 -203.5t-210.5 -136t-262.5 -49.5q-236 0 -375 138t-139 400q0 83 8 148h-248l-104 -668h-56l226 1434h55l-113 -717h246q23 154 82.5 286.5t150.5 233t220 158t282 57.5zM938 37
q131 0 243.5 48t193.5 131t139 194t86 238t28 261q0 241 -124.5 364.5t-340.5 123.5q-131 0 -243.5 -48t-193 -132t-138 -195.5t-85.5 -239.5t-28 -264q0 -239 123.5 -360t339.5 -121z" />
    <glyph glyph-name="uni042F" unicode="&#x42f;" horiz-adv-x="1185" 
d="M1196 1434l-227 -1434h-56l101 639h-543q-309 0 -346 -254l-21 -149q-33 -203 -77 -236h-60q51 38 84 244l21 145q17 123 87.5 192.5t200.5 88.5q-202 85 -202 315q0 211 141 330t379 119h518zM502 688h520l111 696h-461q-219 0 -341 -104t-122 -295q0 -141 83 -219
t210 -78z" />
    <glyph glyph-name="uni0430" unicode="&#x430;" horiz-adv-x="1085" 
d="M938 715l-96 -602q-6 -42 12 -56.5t68 -9.5l-9 -49q-18 -6 -34 -6q-61 0 -81 32t-5 115l18 109q-20 -36 -59.5 -77t-100 -84.5t-147.5 -72t-182 -28.5q-138 0 -216.5 71.5t-78.5 192.5q0 81 28.5 140t86 97.5t129 61.5t171.5 39q7 1 48.5 7t58 8.5t58 9t64 11t58 11.5
t59 13.5t48.5 14t43 15.5l4 31q28 171 -34.5 244t-246.5 73q-162 0 -242 -50.5t-114 -146.5h-56q43 131 144.5 188.5t269.5 57.5q193 0 279 -85t55 -275zM823 340l47 287q-20 -9 -55.5 -19t-88 -20t-96 -17.5t-112 -18.5t-102.5 -17q-175 -29 -255.5 -93.5t-80.5 -195.5
q0 -100 64.5 -156.5t177.5 -56.5q85 0 163.5 25t132.5 60.5t99 80t69.5 79t36.5 62.5z" />
    <glyph glyph-name="uni0431" unicode="&#x431;" horiz-adv-x="1062" 
d="M596 1081q174 0 284.5 -111t110.5 -315q0 -134 -41 -256.5t-113.5 -214.5t-178.5 -147t-228 -55q-88 0 -159 29.5t-117 81.5t-75.5 124t-34 157.5t8.5 180.5l74 459q32 203 160 311.5t334 108.5h202q112 0 164 45h68q-45 -55 -103.5 -75t-169.5 -20h-168
q-176 0 -290.5 -92.5t-141.5 -263.5l-35 -223q45 76 103.5 132t119 86t117 44t109.5 14zM434 35q145 0 261.5 87t178.5 228.5t62 306.5q0 181 -95.5 275t-242.5 94q-145 0 -262 -86t-179.5 -225.5t-62.5 -300.5q0 -183 96 -281t244 -98z" />
    <glyph glyph-name="uni0432" unicode="&#x432;" horiz-adv-x="1019" 
d="M715 584q103 -26 154 -89t51 -143q0 -122 -60 -202t-163.5 -115t-250.5 -35h-448l168 1065h53l-76 -483l7 28h405q146 0 229.5 61t83.5 185q0 154 -260 154h-397l8 55h395q154 0 231 -56t77 -159q0 -99 -57.5 -169t-149.5 -97zM453 55q413 0 413 299q0 203 -323 203h-404
l-80 -502h394z" />
    <glyph glyph-name="uni0433" unicode="&#x433;" horiz-adv-x="794" 
d="M803 1065l-6 -49h-584l-162 -1016h-53l168 1065h637z" />
    <glyph glyph-name="uni0434" unicode="&#x434;" horiz-adv-x="1087" 
d="M1057 1065l-160 -1016h49l-28 -199h-50l23 150h-885l-22 -150h-50l29 199h31q28 19 50.5 49t41 64.5t36 92.5t30.5 112t29.5 145t29 170t31.5 207l26 176h789zM53 49h791l155 967h-684l-22 -135q-12 -69 -28 -165t-25 -150.5t-22.5 -127t-24 -114t-26 -91.5t-31 -80
t-37 -58t-46.5 -46z" />
    <glyph glyph-name="uni0435" unicode="&#x435;" horiz-adv-x="1060" 
d="M971 496h-881q-4 -54 -4 -84q0 -190 97.5 -283.5t262.5 -93.5q125 0 207 32.5t160 116.5h68q-94 -110 -194.5 -154t-240.5 -44q-193 0 -303 111t-110 315q0 181 71 331.5t202.5 241t297.5 90.5q171 0 279 -109t108 -302q0 -32 -6.5 -87.5t-13.5 -80.5zM598 1026
q-193 0 -328 -136.5t-172 -342.5h830q10 51 10 112q0 178 -94.5 272.5t-245.5 94.5z" />
    <glyph glyph-name="uni0436" unicode="&#x436;" horiz-adv-x="1292" 
d="M1317 1065l-621 -520l467 -545h-63l-436 506l-80 -506h-54l80 506l-590 -506h-79l649 547l-449 518h60l422 -479l75 479h54l-76 -477l563 477h78z" />
    <glyph glyph-name="uni0437" unicode="&#x437;" horiz-adv-x="956" 
d="M580 563q121 -12 190.5 -73.5t69.5 -157.5q0 -110 -68.5 -191.5t-174.5 -120t-232 -38.5q-177 0 -276 100t-71 246h52q-14 -142 68 -218.5t220 -76.5q191 0 309.5 82.5t118.5 212.5q0 75 -52 124t-131 68.5t-183 18.5l6 49q166 3 274.5 70.5t108.5 187.5q0 80 -73.5 132
t-192.5 52q-144 0 -243.5 -74.5t-113.5 -171.5h-53q21 124 130.5 209.5t275.5 85.5q150 0 233.5 -66.5t83.5 -168.5q0 -112 -73.5 -182t-202.5 -99z" />
    <glyph glyph-name="uni0438" unicode="&#x438;" horiz-adv-x="1085" 
d="M166 1065h53l-162 -1014h4l906 1014h80l-168 -1065h-54l164 1018h-4l-907 -1018h-80z" />
    <glyph glyph-name="uni0439" unicode="&#x439;" horiz-adv-x="1085" 
d="M891 1452h43q-7 -41 -25 -77.5t-50 -70t-87 -53.5t-125 -20q-69 0 -117 21t-70 55t-29 70.5t-1 74.5h45q-3 -81 35.5 -126.5t138.5 -45.5q189 0 242 172zM166 1065h53l-162 -1014h4l906 1014h80l-168 -1065h-54l164 1018h-4l-907 -1018h-80z" />
    <glyph glyph-name="uni043A" unicode="&#x43a;" horiz-adv-x="849" 
d="M874 1065l-684 -520l531 -545h-64l-512 526l-84 -526h-53l168 1065h53l-77 -498l643 498h79z" />
    <glyph glyph-name="uni043B" unicode="&#x43b;" horiz-adv-x="1165" 
d="M1126 1065l-168 -1065h-57l164 1016h-625l-92 -580q-22 -132 -57.5 -221.5t-86 -138.5t-109 -68.5t-136.5 -17.5l8 51q67 -1 115.5 16t90.5 61t71.5 124t48.5 200l98 623h735z" />
    <glyph glyph-name="uni043C" unicode="&#x43c;" horiz-adv-x="1318" 
d="M176 1065h45l344 -1006l672 1006h43l-168 -1065h-53l143 924l-616 -924h-51l-322 940h-4l-148 -940h-53z" />
    <glyph glyph-name="uni043D" unicode="&#x43d;" horiz-adv-x="962" 
d="M166 1065h53l-78 -487h652l77 487h54l-168 -1065h-54l82 528h-651l-82 -528h-53z" />
    <glyph glyph-name="uni043E" unicode="&#x43e;" horiz-adv-x="1069" 
d="M596 1075q172 0 285.5 -114t113.5 -318q0 -173 -72 -323t-203 -242t-290 -92q-82 0 -153.5 28t-126 80.5t-86 134.5t-31.5 185q0 129 42.5 249t115.5 211t179 146t226 55zM942 649q0 94 -28 167.5t-76 118.5t-109 68t-131 23q-149 0 -267.5 -85.5t-181.5 -225.5t-63 -303
q0 -93 28 -166.5t76.5 -118.5t109.5 -68.5t130 -23.5q150 0 268.5 86.5t181 226t62.5 301.5z" />
    <glyph glyph-name="uni043F" unicode="&#x43f;" horiz-adv-x="991" 
d="M952 1065l-168 -1065h-53l162 1016h-680l-162 -1016h-53l168 1065h786z" />
    <glyph glyph-name="uni0440" unicode="&#x440;" horiz-adv-x="1116" 
d="M227 1065l-43 -264q168 274 459 274q176 0 287.5 -108.5t111.5 -307.5q0 -182 -68 -334.5t-198 -245.5t-297 -93q-296 0 -377 288l-102 -663h-53l229 1454h51zM473 35q99 0 184 34.5t145 94t103 139t63.5 169.5t20.5 185q0 182 -97 275.5t-247 93.5q-118 0 -216.5 -49
t-163.5 -133t-100.5 -194.5t-35.5 -233.5q0 -184 98.5 -282.5t245.5 -98.5z" />
    <glyph glyph-name="uni0441" unicode="&#x441;" horiz-adv-x="1030" 
d="M440 35q136 0 230.5 56t160.5 181h62q-75 -150 -185.5 -218t-265.5 -68q-87 0 -160.5 27.5t-129.5 80t-87.5 135.5t-31.5 189q0 131 42 250.5t115.5 209.5t180.5 143.5t231 53.5q157 0 249.5 -69.5t127.5 -219.5h-57q-29 125 -107 182.5t-211 57.5q-96 0 -180.5 -34
t-146 -93t-106.5 -136.5t-67 -165t-22 -177.5q0 -99 29 -174.5t79.5 -120.5t113.5 -67.5t136 -22.5z" />
    <glyph glyph-name="uni0442" unicode="&#x442;" horiz-adv-x="860" 
d="M872 1065l-6 -49h-354l-160 -1016h-53l160 1016h-350l6 49h757z" />
    <glyph glyph-name="uni0443" unicode="&#x443;" horiz-adv-x="976" 
d="M950 1065h60l-666 -1202q-74 -137 -171 -194.5t-202 -39.5l11 52q91 -15 173.5 37t143.5 165q52 96 47 121l-252 1061h53l242 -1026z" />
    <glyph glyph-name="uni0444" unicode="&#x444;" horiz-adv-x="1132" 
d="M1061 651q0 -133 -40 -253t-113 -210.5t-182.5 -146t-240.5 -59.5l-57 -361h-49l57 361q-184 8 -293.5 119t-109.5 313q0 177 68.5 325.5t201 241.5t305.5 98l58 361h47l-58 -361q184 -8 295 -118.5t111 -309.5zM492 31q154 7 272.5 91t181 222t62.5 307
q0 181 -100.5 277.5t-258.5 101.5zM84 414q0 -185 98.5 -281t261.5 -102l156 999q-157 -8 -275.5 -94t-179.5 -222t-61 -300z" />
    <glyph glyph-name="uni0445" unicode="&#x445;" horiz-adv-x="909" 
d="M932 1065l-469 -528l307 -537h-55l-283 498l-440 -498h-66l480 545l-297 520h55l276 -485l426 485h66z" />
    <glyph glyph-name="uni0446" unicode="&#x446;" horiz-adv-x="1003" 
d="M952 1065l-159 -1016h45l-50 -336h-53l43 287h-780l168 1065h53l-162 -1016h680l162 1016h53z" />
    <glyph glyph-name="uni0447" unicode="&#x447;" horiz-adv-x="1003" 
d="M911 1065h54l-168 -1065h-54l86 551q-12 -28 -36 -61t-65 -70.5t-90 -67t-115.5 -49.5t-137.5 -20q-82 0 -145 21.5t-110 67.5t-64 126.5t0 189.5l59 377h53l-59 -387q-9 -67 -7.5 -118t18 -89.5t39.5 -64.5t58 -42t74.5 -23t87.5 -7q87 0 166.5 32t135.5 82.5
t94.5 101.5t60.5 101z" />
    <glyph glyph-name="uni0448" unicode="&#x448;" horiz-adv-x="1447" 
d="M1356 1065h53l-168 -1065h-1233l168 1065h53l-161 -1016h536l162 1016h53l-164 -1016h537z" />
    <glyph glyph-name="uni0449" unicode="&#x449;" horiz-adv-x="1441" 
d="M1399 1065l-160 -1016h39l-51 -336h-51l43 287h-1221l168 1065h53l-162 -1016h537l162 1016h53l-164 -1016h537l164 1016h53z" />
    <glyph glyph-name="uni044A" unicode="&#x44a;" horiz-adv-x="1124" 
d="M639 651q183 0 279 -70t96 -200q0 -185 -129.5 -283t-347.5 -98h-390l160 1016h-188l6 49h244l-66 -414h336zM547 49q198 0 307 85t109 245q0 108 -75.5 165.5t-248.5 57.5h-344l-86 -553h338z" />
    <glyph glyph-name="uni044B" unicode="&#x44b;" horiz-adv-x="1210" 
d="M500 651q183 0 278.5 -70t95.5 -200q0 -185 -129.5 -283t-347.5 -98h-389l168 1065h53l-65 -414h336zM1118 1065h53l-167 -1065h-54zM408 49q198 0 306.5 85t108.5 245q0 108 -75 165.5t-248 57.5h-344l-86 -553h338z" />
    <glyph glyph-name="uni044C" unicode="&#x44c;" horiz-adv-x="985" 
d="M500 651q183 0 278.5 -70t95.5 -200q0 -185 -129.5 -283t-347.5 -98h-389l168 1065h53l-65 -414h336zM408 49q198 0 306.5 85t108.5 245q0 108 -75 165.5t-248 57.5h-344l-86 -553h338z" />
    <glyph glyph-name="uni044D" unicode="&#x44d;" horiz-adv-x="1015" 
d="M532 1075q180 0 295 -112t115 -320q0 -131 -42 -250.5t-115.5 -209.5t-180.5 -143.5t-231 -53.5q-158 0 -250 69t-127 219h57q29 -125 107 -182t211 -57q105 0 196 40.5t154.5 109.5t105.5 157.5t58 187.5h-451l10 48h447q2 20 2 63q0 99 -29 174.5t-79.5 120.5
t-113.5 67.5t-136 22.5q-136 0 -231 -56.5t-161 -181.5h-61q75 151 185.5 219t264.5 68z" />
    <glyph glyph-name="uni044E" unicode="&#x44e;" horiz-adv-x="1339" 
d="M866 1075q172 0 286 -114t114 -318q0 -172 -72 -322.5t-203.5 -242.5t-290.5 -92q-82 0 -153.5 28t-126 80.5t-86 134.5t-31.5 185q0 45 6 92h-168l-80 -508h-53l168 1065h53l-79 -508h165q43 222 194 371t357 149zM700 35q150 0 268.5 86.5t181 226t62.5 301.5
q0 94 -28 167.5t-76 118.5t-109 68t-131 23q-149 0 -267.5 -85.5t-181.5 -225.5t-63 -303q0 -93 28 -166.5t76.5 -118.5t109.5 -68.5t130 -23.5z" />
    <glyph glyph-name="uni044F" unicode="&#x44f;" horiz-adv-x="1015" 
d="M588 1065h389l-168 -1065h-53l65 414h-454q-119 0 -170.5 -36.5t-67.5 -121.5l-18 -98q-14 -80 -25.5 -114t-30.5 -44h-53q18 10 29.5 43.5t25.5 114.5l17 98q16 82 58 130.5t128 66.5q-149 68 -149 231q0 185 129.5 283t347.5 98zM829 463l86 553h-337q-198 0 -307 -85
t-109 -245q0 -108 75 -165.5t248 -57.5h344z" />
    <glyph glyph-name="uni0451" unicode="&#x451;" horiz-adv-x="1060" 
d="M512 1452l-20 -152h-64l23 152h61zM915 1452l-22 -152h-62l21 152h63zM971 496h-881q-4 -54 -4 -84q0 -190 97.5 -283.5t262.5 -93.5q125 0 207 32.5t160 116.5h68q-94 -110 -194.5 -154t-240.5 -44q-193 0 -303 111t-110 315q0 181 71 331.5t202.5 241t297.5 90.5
q171 0 279 -109t108 -302q0 -32 -6.5 -87.5t-13.5 -80.5zM598 1026q-193 0 -328 -136.5t-172 -342.5h830q10 51 10 112q0 178 -94.5 272.5t-245.5 94.5z" />
    <glyph glyph-name="uni0453" unicode="&#x453;" horiz-adv-x="794" 
d="M473 1190h39l254 262h-76zM803 1065l-6 -49h-584l-162 -1016h-53l168 1065h637z" />
    <glyph glyph-name="uni0454" unicode="&#x454;" horiz-adv-x="1030" 
d="M604 1026q-99 0 -185.5 -36t-149 -98.5t-106 -142t-63.5 -171.5h445l-8 -48h-447q-8 -49 -8 -110q0 -99 29 -174.5t79.5 -120.5t113.5 -67.5t136 -22.5q136 0 230.5 56t160.5 181h62q-75 -150 -185.5 -218t-265.5 -68q-87 0 -160.5 27.5t-129.5 80t-87.5 135.5t-31.5 189
q0 131 42 250.5t115.5 209.5t180.5 143.5t231 53.5q157 0 249.5 -69.5t127.5 -219.5h-57q-29 125 -107 182.5t-211 57.5z" />
    <glyph glyph-name="uni0457" unicode="&#x457;" horiz-adv-x="272" 
d="M37 1452h61l-20 -152h-64zM438 1452h64l-23 -152h-61zM176 1065h53l-168 -1065h-53z" />
    <glyph glyph-name="uni045C" unicode="&#x45c;" horiz-adv-x="849" 
d="M793 1452l-254 -262h-39l217 262h76zM874 1065l-684 -520l531 -545h-64l-512 526l-84 -526h-53l168 1065h53l-77 -498l643 498h79z" />
    <glyph glyph-name="uni045E" unicode="&#x45e;" horiz-adv-x="976" 
d="M836 1452h43q-7 -41 -25 -77.5t-50 -70t-87 -53.5t-125 -20q-69 0 -117 21t-70 55t-29 70.5t-1 74.5h45q-3 -81 35.5 -126.5t138.5 -45.5q189 0 242 172zM950 1065h60l-666 -1202q-74 -137 -171 -194.5t-202 -39.5l11 52q91 -15 173.5 37t143.5 165q52 96 47 121
l-252 1061h53l242 -1026z" />
    <glyph glyph-name="uni0490" unicode="&#x490;" horiz-adv-x="958" 
d="M1010 1638h53l-41 -258h-731l-217 -1380h-56l228 1434h731z" />
    <glyph glyph-name="uni0491" unicode="&#x491;" horiz-adv-x="794" 
d="M774 1200h51l-28 -184h-584l-162 -1016h-53l168 1065h586z" />
    <glyph glyph-name="Wgrave" unicode="&#x1e80;" horiz-adv-x="1984" 
d="M1141 1559l-176 262h-80l213 -262h43zM1991 1434h55l-645 -1434h-60l-231 1376l-674 -1376h-57l-195 1434h58l176 -1360l661 1360h74l225 -1360z" />
    <glyph glyph-name="wgrave" unicode="&#x1e81;" horiz-adv-x="1576" 
d="M897 1190l-176 262h-80l213 -262h43zM1610 1065l-494 -1065h-72l-204 989l-518 -989h-70l-158 1065h53l148 -1006l526 1006h53l211 -1006l467 1006h58z" />
    <glyph glyph-name="Wacute" unicode="&#x1e82;" horiz-adv-x="1984" 
d="M1108 1559h39l254 262h-76zM1991 1434h55l-645 -1434h-60l-231 1376l-674 -1376h-57l-195 1434h58l176 -1360l661 1360h74l225 -1360z" />
    <glyph glyph-name="wacute" unicode="&#x1e83;" horiz-adv-x="1576" 
d="M864 1190h39l254 262h-76zM1610 1065l-494 -1065h-72l-204 989l-518 -989h-70l-158 1065h53l148 -1006l526 1006h53l211 -1006l467 1006h58z" />
    <glyph glyph-name="Wdieresis" unicode="&#x1e84;" horiz-adv-x="1984" 
d="M950 1821h62l-21 -152h-63zM1352 1821h63l-22 -152h-62zM1991 1434h55l-645 -1434h-60l-231 1376l-674 -1376h-57l-195 1434h58l176 -1360l661 1360h74l225 -1360z" />
    <glyph glyph-name="wdieresis" unicode="&#x1e85;" horiz-adv-x="1576" 
d="M707 1452h61l-20 -152h-64zM1108 1452h63l-22 -152h-62zM1610 1065l-494 -1065h-72l-204 989l-518 -989h-70l-158 1065h53l148 -1006l526 1006h53l211 -1006l467 1006h58z" />
    <glyph glyph-name="uni1E9E" unicode="&#x1e9e;" horiz-adv-x="1196" 
d="M672 856q192 -10 302.5 -113.5t110.5 -261.5q0 -212 -138 -356.5t-349 -144.5q-158 0 -252.5 82t-93.5 225h55q0 -111 77 -182.5t218 -71.5q188 0 309 131.5t121 320.5q0 152 -117.5 241t-339.5 89l484 584h-545q-125 0 -179.5 -54t-72.5 -174l-186 -1171h-56l185 1169
q27 162 100 222.5t223 60.5h639z" />
    <glyph glyph-name="Ygrave" unicode="&#x1ef2;" horiz-adv-x="1239" 
d="M793 1559l-177 262h-79l213 -262h43zM635 588l-96 -588h-52l95 588l-398 846h58l372 -791l617 791h69z" />
    <glyph glyph-name="ygrave" unicode="&#x1ef3;" horiz-adv-x="976" 
d="M596 1190l-176 262h-80l213 -262h43zM950 1065h60l-666 -1202q-74 -137 -171 -194.5t-202 -39.5l11 52q91 -15 173.5 37t143.5 165q52 96 47 121l-252 1061h53l242 -1026z" />
    <glyph glyph-name="endash" unicode="&#x2013;" horiz-adv-x="1228" 
d="M72 602h1044l-4 -41h-1044z" />
    <glyph glyph-name="emdash" unicode="&#x2014;" horiz-adv-x="1351" 
d="M72 602h1167l-4 -41h-1167z" />
    <glyph glyph-name="quoteleft" unicode="&#x2018;" horiz-adv-x="258" 
d="M315 1436l-4 -27q-32 -26 -46.5 -60t-24.5 -112l-7 -61h43l-18 -103h-90l33 209q12 69 43 110t71 44z" />
    <glyph glyph-name="quoteright" unicode="&#x2019;" horiz-adv-x="249" 
d="M172 1090l6 28q27 27 37 58t23 116l10 58h-35l10 84h84l-28 -193q-12 -70 -37 -105t-70 -46z" />
    <glyph glyph-name="quotesinglbase" unicode="&#x201a;" horiz-adv-x="247" 
d="M-57 -369l2 29q28 25 37 51t22 101q3 14 4 22l6 57h-34l14 84h84l-31 -194q-10 -69 -35 -104t-69 -46z" />
    <glyph glyph-name="quotedblleft" unicode="&#x201c;" horiz-adv-x="442" 
d="M315 1436l-4 -27q-32 -26 -46.5 -60t-24.5 -112l-7 -61h43l-18 -103h-90l33 209q12 69 43 110t71 44zM500 1436l-4 -27q-33 -27 -47.5 -61t-24.5 -111l-6 -61h43l-19 -103h-90l33 209q12 69 43 110t72 44z" />
    <glyph glyph-name="quotedblright" unicode="&#x201d;" horiz-adv-x="438" 
d="M168 1069l4 27q33 27 47.5 61t24.5 111l6 61h-43l18 103h90l-32 -209q-12 -69 -43 -110t-72 -44zM352 1069l4 27q33 27 47.5 61t24.5 111l6 61h-43l19 103h90l-33 -209q-12 -69 -43 -110t-72 -44z" />
    <glyph glyph-name="quotedblbase" unicode="&#x201e;" horiz-adv-x="442" 
d="M-41 -260l4 27q33 27 47.5 61t24.5 111l6 61h-43l18 102h90l-32 -208q-12 -69 -43 -110t-72 -44zM143 -260l4 27q33 27 47.5 61t24.5 111l6 61h-43l19 102h90l-33 -208q-12 -69 -43 -110t-72 -44z" />
    <glyph glyph-name="dagger" unicode="&#x2020;" horiz-adv-x="546" 
d="M526 1227l-8 -45h-145l-84 -535h-49l84 535h-148l8 45h146l32 207h50l-33 -207h147z" />
    <glyph glyph-name="daggerdbl" unicode="&#x2021;" horiz-adv-x="546" 
d="M498 1047h-148l-102 -660h143l-6 -45h-145l-54 -342h-49l53 342h-147l6 45h150l102 660h-145l6 45h147l53 342h50l-54 -342h146z" />
    <glyph glyph-name="bullet" unicode="&#x2022;" horiz-adv-x="505" 
d="M205 389q-65 0 -102.5 45t-26.5 109q9 63 57.5 105t110.5 42q64 0 103 -44.5t28 -106.5q-10 -64 -59.5 -107t-110.5 -43z" />
    <glyph glyph-name="ellipsis" unicode="&#x2026;" horiz-adv-x="1273" 
d="M35 104h78l-17 -104h-76zM541 104h77l-16 -104h-76zM1047 104h77l-16 -104h-76z" />
    <glyph glyph-name="perthousand" unicode="&#x2030;" horiz-adv-x="2091" 
d="M356 862q-92 0 -147 62t-55 166q0 142 81 248t207 106q91 0 148 -63.5t57 -168.5q0 -140 -83 -245t-208 -105zM164 0l1067 1436l53 -2l-1069 -1434h-51zM358 909q111 0 179.5 88t68.5 215q0 88 -46 136.5t-122 48.5t-132.5 -46.5t-82.5 -115.5t-26 -148
q0 -87 43.5 -132.5t117.5 -45.5zM1001 -10q-92 0 -146 61.5t-54 167.5q0 142 80 247t206 105q91 0 148 -63t57 -168q0 -89 -36 -169t-104 -130.5t-151 -50.5zM1659 -10q-93 0 -148 62t-55 167q0 142 81.5 247t207.5 105q91 0 148 -63t57 -168q0 -89 -36 -169t-104 -130.5
t-151 -50.5zM1004 37q112 0 179.5 87.5t67.5 215.5q0 88 -46 136t-122 48q-112 0 -176.5 -92t-64.5 -215q0 -87 44.5 -133.5t117.5 -46.5zM1661 37q111 0 179.5 88t68.5 215q0 88 -46 136t-122 48q-113 0 -177.5 -91.5t-64.5 -215.5q0 -87 44 -133.5t118 -46.5z" />
    <glyph glyph-name="guilsinglleft" unicode="&#x2039;" horiz-adv-x="425" 
d="M385 793l-235 -185l176 -184l-13 -66l-221 234l4 39l297 233z" />
    <glyph glyph-name="guilsinglright" unicode="&#x203a;" horiz-adv-x="423" 
d="M125 801l10 63l221 -233l-6 -39l-297 -234l13 78l233 185z" />
    <glyph glyph-name="fraction" unicode="&#x2044;" horiz-adv-x="217" 
d="M-399 0h-43l1118 1434h43z" />
    <glyph glyph-name="Euro" unicode="&#x20ac;" horiz-adv-x="1366" 
d="M903 1399q-122 0 -228.5 -44.5t-185.5 -124t-136 -182t-89 -223.5h461l-10 -45h-463q-18 -91 -23 -159h463l-8 -46h-459v-47q0 -126 34 -221.5t96 -154.5t143.5 -88t181.5 -29q174 0 305 69.5t197 182.5h65q-76 -142 -225.5 -223.5t-345.5 -81.5q-112 0 -203.5 33
t-159.5 99t-105.5 172t-37.5 244v45h-121l8 46h117q2 64 21 159h-115l10 45h115q34 134 95.5 246t148.5 198t205.5 134.5t256.5 48.5q195 0 316.5 -81.5t152.5 -225.5h-59q-29 116 -135 185t-283 69z" />
    <glyph glyph-name="trademark" unicode="&#x2122;" horiz-adv-x="1071" 
d="M561 1386h-135l-51 -321h-51l51 321h-135l6 48h321zM1051 1434l-58 -369h-51l43 270l-178 -270h-35l-90 270l-43 -270h-51l57 369h51l103 -306l198 306h54z" />
    <glyph glyph-name="partialdiff" unicode="&#x2202;" horiz-adv-x="1171" 
d="M623 963q161 0 267.5 -81.5t133.5 -246.5q19 107 25.5 201.5t0.5 182t-30.5 156t-65 120t-105 79t-149.5 27.5q-86 0 -159 -26t-122.5 -68.5t-81 -90t-46.5 -98.5h-47q36 142 157 236t299 94q109 0 188.5 -39.5t126 -109t68 -168t18.5 -212t-26 -245.5
q-24 -154 -69.5 -277.5t-116.5 -218.5t-173.5 -146.5t-230.5 -51.5q-102 0 -181 31t-127 86t-72.5 125.5t-24.5 154.5q0 159 68.5 292.5t193.5 213.5t281 80zM487 31q136 0 251 78t179 201t64 259q0 154 -95 249t-257 95q-109 0 -203.5 -43t-159 -115t-101 -169t-36.5 -203
q0 -160 92 -256t266 -96z" />
    <glyph glyph-name="product" unicode="&#x220f;" horiz-adv-x="1277" 
d="M238 1638h1093l-321 -2027h-45l313 1980h-1002l-315 -1980h-45z" />
    <glyph glyph-name="summation" unicode="&#x2211;" horiz-adv-x="1302" 
d="M1350 1585h-1033l385 -960l-686 -961h1028l-10 -53h-1120l727 1014l-401 1013h1116z" />
    <glyph glyph-name="minus" unicode="&#x2212;" horiz-adv-x="835" 
d="M66 567h712l-6 -45h-715z" />
    <glyph glyph-name="radical" unicode="&#x221a;" horiz-adv-x="1382" 
d="M1436 1638l-901 -2027h-39l-215 989h-207l8 49h240l204 -944l863 1933h47z" />
    <glyph glyph-name="infinity" unicode="&#x221e;" horiz-adv-x="1591" 
d="M1212 862q122 0 199.5 -78.5t77.5 -197.5q0 -152 -112 -266.5t-263 -114.5q-116 0 -195.5 71t-150.5 211q-114 -140 -215 -211t-215 -71q-122 0 -198.5 79t-76.5 201q0 154 113 265.5t260 111.5q116 0 195.5 -70t150.5 -208q115 137 216.5 207.5t213.5 70.5zM344 260
q55 0 109.5 22.5t107 66t92.5 86t90 102.5q-29 57 -56.5 100t-65 83.5t-84 62.5t-99.5 22q-132 0 -224.5 -91t-92.5 -229q0 -100 61.5 -162.5t161.5 -62.5zM1110 260q133 0 227.5 99t94.5 225q0 100 -62.5 160.5t-165.5 60.5q-55 0 -109 -21.5t-105.5 -63.5t-91.5 -83
t-89 -100q30 -60 56.5 -102.5t63.5 -86t82.5 -66t98.5 -22.5z" />
    <glyph glyph-name="integral" unicode="&#x222b;" horiz-adv-x="575" 
d="M313 1157q12 76 36 131t51.5 86t67.5 49t74.5 24t82.5 7l-9 -51q-103 0 -164 -50t-83 -188l-201 -1257q-11 -75 -37 -131t-57.5 -87t-71.5 -50t-74 -24.5t-71 -4.5l6 51q215 0 252 238z" />
    <glyph glyph-name="approxequal" unicode="&#x2248;" horiz-adv-x="772" 
d="M705 813l49 -8q-14 -81 -71 -121.5t-124 -40.5q-39 0 -71.5 15t-54.5 37t-43.5 44t-49.5 37t-61 15q-67 0 -104.5 -38t-41.5 -79l-47 6q11 81 67.5 121.5t122.5 40.5q40 0 73 -15t55.5 -37t44 -44t49 -37t59.5 -15q71 0 107.5 38t40.5 81zM653 485l47 -8
q-11 -80 -69.5 -121t-124.5 -41q-40 0 -72.5 15t-54 37t-42.5 44t-48 37t-60 15q-69 0 -106 -38t-41 -79l-51 6q14 81 70.5 121.5t121.5 40.5q39 0 72 -15t56 -37t45 -43.5t50 -36.5t60 -15q71 0 107 37.5t40 80.5z" />
    <glyph glyph-name="notequal" unicode="&#x2260;" horiz-adv-x="847" 
d="M811 719h-289l-153 -283h395l-6 -45h-414l-213 -391h-45l213 391h-256l8 45h273l153 283h-379l6 45h398l211 385h45l-211 -385h272z" />
    <glyph glyph-name="lessequal" unicode="&#x2264;" horiz-adv-x="825" 
d="M739 379l-608 389l731 387l6 59l-766 -413l-10 -68l637 -411zM-6 4h686l-6 -45h-686z" />
    <glyph glyph-name="greaterequal" unicode="&#x2265;" horiz-adv-x="825" 
d="M37 379l-10 -57l768 411l12 68l-641 413l-6 -59l608 -387zM664 4l-7 -45h-686l6 45h687z" />
    <glyph glyph-name="lozenge" unicode="&#x25ca;" horiz-adv-x="872" 
d="M780 717l-428 -713l2 -4h-61l2 4l-203 713l428 713l-2 4h62l-2 -4zM150 717l184 -647l389 647l-184 647z" />
    <glyph glyph-name="G.ss01" horiz-adv-x="1310" 
d="M813 690h438l-106 -690h-51l45 283q-89 -152 -229.5 -232t-315.5 -80q-240 0 -376 135t-136 410q0 152 30 291.5t91 259t147.5 207.5t207 138t261.5 50q190 0 303 -76.5t146 -211.5h-60q-29 110 -126 172.5t-267 62.5q-131 0 -243 -48.5t-191.5 -132.5t-136 -196.5
t-84 -242t-27.5 -267.5q0 -129 34 -226t96 -155.5t143 -87t182 -28.5q228 0 388 134t193 345l23 137h-387z" />
    <glyph glyph-name="R.ss01" horiz-adv-x="1169" 
d="M1130 1090q0 -205 -103 -336.5t-288 -171.5l250 -582h-59l-250 571q-50 -6 -102 -6h-414l-90 -565h-56l228 1434h469q201 0 308 -88t107 -256zM584 618q233 0 362 123t129 344q0 295 -362 295h-420l-123 -762h414z" />
    <glyph glyph-name="G.ss05" horiz-adv-x="1310" 
d="M813 690h438l-106 -690h-51l45 283q-89 -152 -229.5 -232t-315.5 -80q-240 0 -376 135t-136 410q0 152 30 291.5t91 259t147.5 207.5t207 138t261.5 50q190 0 303 -76.5t146 -211.5h-60q-29 110 -126 172.5t-267 62.5q-131 0 -243 -48.5t-191.5 -132.5t-136 -196.5
t-84 -242t-27.5 -267.5q0 -129 34 -226t96 -155.5t143 -87t182 -28.5q228 0 388 134t193 345l23 137h-387z" />
    <glyph glyph-name="i.loclTRK" horiz-adv-x="272" 
d="M233 1452h62l-21 -152h-63zM176 1065h53l-168 -1065h-53z" />
    <glyph glyph-name="a.ss01" 
d="M1067 1065l-168 -1065h-53l45 266q-177 -284 -459 -284q-179 0 -289 110t-110 318q0 182 70 334t200 242.5t295 90.5q136 0 233 -64t140 -198l41 250h55zM428 31q149 0 269 88t184.5 230.5t64.5 307.5q0 96 -28.5 169t-78.5 116t-111 64.5t-132 21.5q-114 0 -211.5 -50
t-162.5 -135t-101.5 -197t-36.5 -236q0 -96 28 -170t76 -119t109 -67.5t131 -22.5z" />
    <glyph glyph-name="aacute.ss01" 
d="M639 1190h39l254 262h-76zM1067 1065l-168 -1065h-53l45 266q-177 -284 -459 -284q-179 0 -289 110t-110 318q0 182 70 334t200 242.5t295 90.5q136 0 233 -64t140 -198l41 250h55zM428 31q149 0 269 88t184.5 230.5t64.5 307.5q0 96 -28.5 169t-78.5 116t-111 64.5
t-132 21.5q-114 0 -211.5 -50t-162.5 -135t-101.5 -197t-36.5 -236q0 -96 28 -170t76 -119t109 -67.5t131 -22.5z" />
    <glyph glyph-name="abreve.ss01" 
d="M911 1452h43q-7 -41 -24.5 -77.5t-50 -70t-87 -53.5t-124.5 -20q-69 0 -117 21t-70 55t-29 70.5t-1 74.5h45q-3 -81 35.5 -126.5t138.5 -45.5q188 0 241 172zM1067 1065l-168 -1065h-53l45 266q-177 -284 -459 -284q-179 0 -289 110t-110 318q0 182 70 334t200 242.5
t295 90.5q136 0 233 -64t140 -198l41 250h55zM428 31q149 0 269 88t184.5 230.5t64.5 307.5q0 96 -28.5 169t-78.5 116t-111 64.5t-132 21.5q-114 0 -211.5 -50t-162.5 -135t-101.5 -197t-36.5 -236q0 -96 28 -170t76 -119t109 -67.5t131 -22.5z" />
    <glyph glyph-name="uni01CE.ss01" 
d="M909 1452h52l-259 -248h-69l-178 248h47l172 -201zM1067 1065l-168 -1065h-53l45 266q-177 -284 -459 -284q-179 0 -289 110t-110 318q0 182 70 334t200 242.5t295 90.5q136 0 233 -64t140 -198l41 250h55zM428 31q149 0 269 88t184.5 230.5t64.5 307.5q0 96 -28.5 169
t-78.5 116t-111 64.5t-132 21.5q-114 0 -211.5 -50t-162.5 -135t-101.5 -197t-36.5 -236q0 -96 28 -170t76 -119t109 -67.5t131 -22.5z" />
    <glyph glyph-name="acircumflex.ss01" 
d="M850 1204l-172 201l-236 -201h-51l256 248h70l180 -248h-47zM1067 1065l-168 -1065h-53l45 266q-177 -284 -459 -284q-179 0 -289 110t-110 318q0 182 70 334t200 242.5t295 90.5q136 0 233 -64t140 -198l41 250h55zM428 31q149 0 269 88t184.5 230.5t64.5 307.5
q0 96 -28.5 169t-78.5 116t-111 64.5t-132 21.5q-114 0 -211.5 -50t-162.5 -135t-101.5 -197t-36.5 -236q0 -96 28 -170t76 -119t109 -67.5t131 -22.5z" />
    <glyph glyph-name="adieresis.ss01" 
d="M481 1452h62l-21 -152h-63zM883 1452h63l-22 -152h-62zM1067 1065l-168 -1065h-53l45 266q-177 -284 -459 -284q-179 0 -289 110t-110 318q0 182 70 334t200 242.5t295 90.5q136 0 233 -64t140 -198l41 250h55zM428 31q149 0 269 88t184.5 230.5t64.5 307.5
q0 96 -28.5 169t-78.5 116t-111 64.5t-132 21.5q-114 0 -211.5 -50t-162.5 -135t-101.5 -197t-36.5 -236q0 -96 28 -170t76 -119t109 -67.5t131 -22.5z" />
    <glyph glyph-name="agrave.ss01" 
d="M672 1190l-176 262h-80l213 -262h43zM1067 1065l-168 -1065h-53l45 266q-177 -284 -459 -284q-179 0 -289 110t-110 318q0 182 70 334t200 242.5t295 90.5q136 0 233 -64t140 -198l41 250h55zM428 31q149 0 269 88t184.5 230.5t64.5 307.5q0 96 -28.5 169t-78.5 116
t-111 64.5t-132 21.5q-114 0 -211.5 -50t-162.5 -135t-101.5 -197t-36.5 -236q0 -96 28 -170t76 -119t109 -67.5t131 -22.5z" />
    <glyph glyph-name="amacron.ss01" 
d="M446 1452h537l-6 -47h-537zM1067 1065l-168 -1065h-53l45 266q-177 -284 -459 -284q-179 0 -289 110t-110 318q0 182 70 334t200 242.5t295 90.5q136 0 233 -64t140 -198l41 250h55zM428 31q149 0 269 88t184.5 230.5t64.5 307.5q0 96 -28.5 169t-78.5 116t-111 64.5
t-132 21.5q-114 0 -211.5 -50t-162.5 -135t-101.5 -197t-36.5 -236q0 -96 28 -170t76 -119t109 -67.5t131 -22.5z" />
    <glyph glyph-name="aogonek.ss01" 
d="M1012 1065h55l-168 -1065h-6q-101 -45 -168.5 -108t-67.5 -142q0 -68 56 -99t155 -16v-43q-29 -11 -64.5 -13t-71 6t-64.5 26.5t-47.5 52t-18.5 78.5q0 82 74.5 154t169.5 104l45 266q-177 -284 -459 -284q-179 0 -289 110t-110 318q0 182 70 334t200 242.5t295 90.5
q136 0 233 -64t140 -198zM428 31q149 0 269 88t184.5 230.5t64.5 307.5q0 96 -28.5 169t-78.5 116t-111 64.5t-132 21.5q-114 0 -211.5 -50t-162.5 -135t-101.5 -197t-36.5 -236q0 -96 28 -170t76 -119t109 -67.5t131 -22.5z" />
    <glyph glyph-name="aring.ss01" 
d="M672 1190q-60 0 -98.5 38t-38.5 93q0 70 52 121t126 51q58 0 95.5 -38.5t37.5 -94.5q0 -68 -51.5 -119t-122.5 -51zM678 1235q45 0 82 36t37 85q0 39 -26.5 65.5t-65.5 26.5q-48 0 -84.5 -36t-36.5 -85q0 -39 26.5 -65.5t67.5 -26.5zM1067 1065l-168 -1065h-53l45 266
q-177 -284 -459 -284q-179 0 -289 110t-110 318q0 182 70 334t200 242.5t295 90.5q136 0 233 -64t140 -198l41 250h55zM428 31q149 0 269 88t184.5 230.5t64.5 307.5q0 96 -28.5 169t-78.5 116t-111 64.5t-132 21.5q-114 0 -211.5 -50t-162.5 -135t-101.5 -197t-36.5 -236
q0 -96 28 -170t76 -119t109 -67.5t131 -22.5z" />
    <glyph glyph-name="atilde.ss01" 
d="M899 1434h47q0 -77 -51.5 -116.5t-116.5 -39.5q-37 0 -69 14.5t-55.5 35t-46 40.5t-49.5 34.5t-56 14.5q-67 0 -97 -34t-28 -74h-49q0 78 51 117.5t117 39.5q37 0 70 -14.5t56.5 -35t46 -40.5t49.5 -34.5t56 -14.5q66 0 96.5 34t28.5 73zM1067 1065l-168 -1065h-53
l45 266q-177 -284 -459 -284q-179 0 -289 110t-110 318q0 182 70 334t200 242.5t295 90.5q136 0 233 -64t140 -198l41 250h55zM428 31q149 0 269 88t184.5 230.5t64.5 307.5q0 96 -28.5 169t-78.5 116t-111 64.5t-132 21.5q-114 0 -211.5 -50t-162.5 -135t-101.5 -197
t-36.5 -236q0 -96 28 -170t76 -119t109 -67.5t131 -22.5z" />
    <glyph glyph-name="g.ss01" horiz-adv-x="1009" 
d="M995 1016q-108 0 -141 -78h-2q37 -58 37 -145q0 -178 -121.5 -296t-306.5 -118q-131 0 -219 63q-76 -4 -113 -36t-37 -74q0 -94 172 -94h166q81 0 151.5 -17.5t126 -52t87.5 -91.5t32 -130q0 -126 -69 -217.5t-180.5 -136t-251.5 -44.5q-79 0 -146.5 17t-122.5 51
t-86.5 91.5t-31.5 133.5q0 129 75.5 222.5t212.5 134.5q-87 3 -136.5 37t-49.5 92q0 54 43 95t121 50l10 -6q-78 75 -78 201q0 179 119.5 294t306.5 115q177 0 262 -102q54 93 179 90zM459 428q171 0 276 103.5t105 265.5q0 109 -74 170t-201 61q-169 0 -273 -101t-104 -265
q0 -113 72.5 -173.5t198.5 -60.5zM424 188q-189 0 -312.5 -93.5t-123.5 -256.5q0 -66 29.5 -114.5t79.5 -74.5t107 -38t122 -12q204 0 328 91.5t124 260.5q0 65 -29.5 112.5t-81 74t-112 38.5t-131.5 12z" />
    <glyph glyph-name="l.ss01" horiz-adv-x="327" 
d="M145 -4q-66 -9 -97.5 22.5t-20.5 94.5l209 1321h53l-211 -1315q-6 -43 10.5 -61t65.5 -17z" />
    <glyph glyph-name="a.ss02" 
d="M1067 1065l-168 -1065h-53l45 266q-177 -284 -459 -284q-179 0 -289 110t-110 318q0 182 70 334t200 242.5t295 90.5q136 0 233 -64t140 -198l41 250h55zM428 31q149 0 269 88t184.5 230.5t64.5 307.5q0 96 -28.5 169t-78.5 116t-111 64.5t-132 21.5q-114 0 -211.5 -50
t-162.5 -135t-101.5 -197t-36.5 -236q0 -96 28 -170t76 -119t109 -67.5t131 -22.5z" />
    <glyph glyph-name="aacute.ss02" 
d="M639 1190h39l254 262h-76zM1067 1065l-168 -1065h-53l45 266q-177 -284 -459 -284q-179 0 -289 110t-110 318q0 182 70 334t200 242.5t295 90.5q136 0 233 -64t140 -198l41 250h55zM428 31q149 0 269 88t184.5 230.5t64.5 307.5q0 96 -28.5 169t-78.5 116t-111 64.5
t-132 21.5q-114 0 -211.5 -50t-162.5 -135t-101.5 -197t-36.5 -236q0 -96 28 -170t76 -119t109 -67.5t131 -22.5z" />
    <glyph glyph-name="abreve.ss02" 
d="M911 1452h43q-7 -41 -24.5 -77.5t-50 -70t-87 -53.5t-124.5 -20q-69 0 -117 21t-70 55t-29 70.5t-1 74.5h45q-3 -81 35.5 -126.5t138.5 -45.5q188 0 241 172zM1067 1065l-168 -1065h-53l45 266q-177 -284 -459 -284q-179 0 -289 110t-110 318q0 182 70 334t200 242.5
t295 90.5q136 0 233 -64t140 -198l41 250h55zM428 31q149 0 269 88t184.5 230.5t64.5 307.5q0 96 -28.5 169t-78.5 116t-111 64.5t-132 21.5q-114 0 -211.5 -50t-162.5 -135t-101.5 -197t-36.5 -236q0 -96 28 -170t76 -119t109 -67.5t131 -22.5z" />
    <glyph glyph-name="uni01CE.ss02" 
d="M909 1452h52l-259 -248h-69l-178 248h47l172 -201zM1067 1065l-168 -1065h-53l45 266q-177 -284 -459 -284q-179 0 -289 110t-110 318q0 182 70 334t200 242.5t295 90.5q136 0 233 -64t140 -198l41 250h55zM428 31q149 0 269 88t184.5 230.5t64.5 307.5q0 96 -28.5 169
t-78.5 116t-111 64.5t-132 21.5q-114 0 -211.5 -50t-162.5 -135t-101.5 -197t-36.5 -236q0 -96 28 -170t76 -119t109 -67.5t131 -22.5z" />
    <glyph glyph-name="acircumflex.ss02" 
d="M850 1204l-172 201l-236 -201h-51l256 248h70l180 -248h-47zM1067 1065l-168 -1065h-53l45 266q-177 -284 -459 -284q-179 0 -289 110t-110 318q0 182 70 334t200 242.5t295 90.5q136 0 233 -64t140 -198l41 250h55zM428 31q149 0 269 88t184.5 230.5t64.5 307.5
q0 96 -28.5 169t-78.5 116t-111 64.5t-132 21.5q-114 0 -211.5 -50t-162.5 -135t-101.5 -197t-36.5 -236q0 -96 28 -170t76 -119t109 -67.5t131 -22.5z" />
    <glyph glyph-name="adieresis.ss02" 
d="M481 1452h62l-21 -152h-63zM883 1452h63l-22 -152h-62zM1067 1065l-168 -1065h-53l45 266q-177 -284 -459 -284q-179 0 -289 110t-110 318q0 182 70 334t200 242.5t295 90.5q136 0 233 -64t140 -198l41 250h55zM428 31q149 0 269 88t184.5 230.5t64.5 307.5
q0 96 -28.5 169t-78.5 116t-111 64.5t-132 21.5q-114 0 -211.5 -50t-162.5 -135t-101.5 -197t-36.5 -236q0 -96 28 -170t76 -119t109 -67.5t131 -22.5z" />
    <glyph glyph-name="agrave.ss02" 
d="M672 1190l-176 262h-80l213 -262h43zM1067 1065l-168 -1065h-53l45 266q-177 -284 -459 -284q-179 0 -289 110t-110 318q0 182 70 334t200 242.5t295 90.5q136 0 233 -64t140 -198l41 250h55zM428 31q149 0 269 88t184.5 230.5t64.5 307.5q0 96 -28.5 169t-78.5 116
t-111 64.5t-132 21.5q-114 0 -211.5 -50t-162.5 -135t-101.5 -197t-36.5 -236q0 -96 28 -170t76 -119t109 -67.5t131 -22.5z" />
    <glyph glyph-name="amacron.ss02" 
d="M446 1452h537l-6 -47h-537zM1067 1065l-168 -1065h-53l45 266q-177 -284 -459 -284q-179 0 -289 110t-110 318q0 182 70 334t200 242.5t295 90.5q136 0 233 -64t140 -198l41 250h55zM428 31q149 0 269 88t184.5 230.5t64.5 307.5q0 96 -28.5 169t-78.5 116t-111 64.5
t-132 21.5q-114 0 -211.5 -50t-162.5 -135t-101.5 -197t-36.5 -236q0 -96 28 -170t76 -119t109 -67.5t131 -22.5z" />
    <glyph glyph-name="aogonek.ss02" 
d="M1012 1065h55l-168 -1065h-6q-101 -45 -168.5 -108t-67.5 -142q0 -68 56 -99t155 -16v-43q-29 -11 -64.5 -13t-71 6t-64.5 26.5t-47.5 52t-18.5 78.5q0 82 74.5 154t169.5 104l45 266q-177 -284 -459 -284q-179 0 -289 110t-110 318q0 182 70 334t200 242.5t295 90.5
q136 0 233 -64t140 -198zM428 31q149 0 269 88t184.5 230.5t64.5 307.5q0 96 -28.5 169t-78.5 116t-111 64.5t-132 21.5q-114 0 -211.5 -50t-162.5 -135t-101.5 -197t-36.5 -236q0 -96 28 -170t76 -119t109 -67.5t131 -22.5z" />
    <glyph glyph-name="aring.ss02" 
d="M672 1190q-60 0 -98.5 38t-38.5 93q0 70 52 121t126 51q58 0 95.5 -38.5t37.5 -94.5q0 -68 -51.5 -119t-122.5 -51zM678 1235q45 0 82 36t37 85q0 39 -26.5 65.5t-65.5 26.5q-48 0 -84.5 -36t-36.5 -85q0 -39 26.5 -65.5t67.5 -26.5zM1067 1065l-168 -1065h-53l45 266
q-177 -284 -459 -284q-179 0 -289 110t-110 318q0 182 70 334t200 242.5t295 90.5q136 0 233 -64t140 -198l41 250h55zM428 31q149 0 269 88t184.5 230.5t64.5 307.5q0 96 -28.5 169t-78.5 116t-111 64.5t-132 21.5q-114 0 -211.5 -50t-162.5 -135t-101.5 -197t-36.5 -236
q0 -96 28 -170t76 -119t109 -67.5t131 -22.5z" />
    <glyph glyph-name="atilde.ss02" 
d="M899 1434h47q0 -77 -51.5 -116.5t-116.5 -39.5q-37 0 -69 14.5t-55.5 35t-46 40.5t-49.5 34.5t-56 14.5q-67 0 -97 -34t-28 -74h-49q0 78 51 117.5t117 39.5q37 0 70 -14.5t56.5 -35t46 -40.5t49.5 -34.5t56 -14.5q66 0 96.5 34t28.5 73zM1067 1065l-168 -1065h-53
l45 266q-177 -284 -459 -284q-179 0 -289 110t-110 318q0 182 70 334t200 242.5t295 90.5q136 0 233 -64t140 -198l41 250h55zM428 31q149 0 269 88t184.5 230.5t64.5 307.5q0 96 -28.5 169t-78.5 116t-111 64.5t-132 21.5q-114 0 -211.5 -50t-162.5 -135t-101.5 -197
t-36.5 -236q0 -96 28 -170t76 -119t109 -67.5t131 -22.5z" />
    <glyph glyph-name="g.ss03" horiz-adv-x="1009" 
d="M995 1016q-108 0 -141 -78h-2q37 -58 37 -145q0 -178 -121.5 -296t-306.5 -118q-131 0 -219 63q-76 -4 -113 -36t-37 -74q0 -94 172 -94h166q81 0 151.5 -17.5t126 -52t87.5 -91.5t32 -130q0 -126 -69 -217.5t-180.5 -136t-251.5 -44.5q-79 0 -146.5 17t-122.5 51
t-86.5 91.5t-31.5 133.5q0 129 75.5 222.5t212.5 134.5q-87 3 -136.5 37t-49.5 92q0 54 43 95t121 50l10 -6q-78 75 -78 201q0 179 119.5 294t306.5 115q177 0 262 -102q54 93 179 90zM459 428q171 0 276 103.5t105 265.5q0 109 -74 170t-201 61q-169 0 -273 -101t-104 -265
q0 -113 72.5 -173.5t198.5 -60.5zM424 188q-189 0 -312.5 -93.5t-123.5 -256.5q0 -66 29.5 -114.5t79.5 -74.5t107 -38t122 -12q204 0 328 91.5t124 260.5q0 65 -29.5 112.5t-81 74t-112 38.5t-131.5 12z" />
    <glyph glyph-name="l.ss04" horiz-adv-x="327" 
d="M145 -4q-66 -9 -97.5 22.5t-20.5 94.5l209 1321h53l-211 -1315q-6 -43 10.5 -61t65.5 -17z" />
    <glyph glyph-name="f_t" horiz-adv-x="1118" 
d="M889 1016l-146 -912q-4 -39 13 -53t59 -14q68 0 143 16l-8 -49q-68 -18 -139 -18q-64 0 -96 27t-23 87l146 916h-557l-160 -1016h-53l159 1016h-149l6 49h152l26 166q34 235 252 235q86 0 160 -22l-8 -43q-82 16 -150 16q-89 0 -136.5 -40.5t-64.5 -143.5l-26 -168h555
l43 266h51l-43 -266h217l-6 -49h-217z" />
    <glyph glyph-name="r_t" horiz-adv-x="1122" 
d="M895 1016l-145 -912q-4 -39 12.5 -53t58.5 -14q69 0 144 16l-9 -49q-68 -18 -139 -18q-64 0 -96 27t-23 87l146 916h-168l6 49h168l43 266h51l-43 -266h217l-6 -49h-217zM176 793q21 55 59 101.5t97.5 86t149 62t200.5 22.5l-10 -49q-210 -1 -330.5 -89t-185.5 -261
l-105 -666h-53l168 1065h53z" />
    <glyph glyph-name="zero.dnom" horiz-adv-x="569" 
d="M197 -4q110 0 187 92t77 238q0 97 -47 155t-129 58q-116 0 -187 -98t-71 -234q0 -98 44 -154.5t126 -56.5zM279 506q67 0 107 -46t40 -134q0 -133 -68 -215t-155 -82q-66 0 -104 45t-38 133q0 134 65 216.5t153 82.5z" />
    <glyph glyph-name="one.dnom" horiz-adv-x="325" 
d="M182 532l-84 -532h-37l76 477q-39 -58 -112 -49l4 33q33 -4 66.5 18t49.5 53h37z" />
    <glyph glyph-name="two.dnom" horiz-adv-x="509" 
d="M8 0q9 81 51.5 136.5t147.5 115.5q76 44 111.5 80t35.5 90q0 36 -29 61t-79 25q-57 0 -94 -33t-48 -90h-34q11 71 61.5 114.5t122.5 43.5q57 0 96 -33t39 -84q0 -68 -41.5 -112t-130.5 -93q-76 -41 -118.5 -90.5t-47.5 -93.5h289l-6 -37h-326z" />
    <glyph glyph-name="three.dnom" horiz-adv-x="542" 
d="M293 283q44 -7 76 -35t32 -76q0 -75 -60.5 -127.5t-156.5 -52.5q-92 0 -131.5 47t-27.5 127h34q-11 -63 22.5 -101t106.5 -38q79 0 129 41.5t50 103.5q0 47 -42 68.5t-108 21.5h-22l6 31h22q69 0 111.5 41t42.5 90q0 40 -29 62t-82 22q-127 0 -157 -133h-37
q13 79 66 123.5t132 44.5q68 0 105 -33t37 -86q0 -50 -33.5 -89.5t-85.5 -51.5z" />
    <glyph glyph-name="four.dnom" horiz-adv-x="512" 
d="M367 135h-62l-22 -135h-37l22 135h-248l5 31l307 369h37l-60 -369h62zM272 166l50 307l-256 -307h206z" />
    <glyph glyph-name="five.dnom" horiz-adv-x="475" 
d="M221 350q66 0 107 -47.5t28 -130.5q-11 -80 -68 -131t-136 -51q-77 0 -119 49t-31 125h33q-8 -57 20.5 -98t98.5 -41q71 0 116 41.5t54 105.5q12 75 -23.5 111t-87.5 36q-86 0 -154 -71h-36l90 287h262l-6 -33h-236l-67 -217q16 23 57.5 44t97.5 21z" />
    <glyph glyph-name="six.dnom" horiz-adv-x="526" 
d="M242 342q58 0 102.5 -33t44.5 -98q0 -95 -53 -158t-148 -63t-133 72.5t-16 193.5q46 285 225 285q79 0 114.5 -44t31.5 -100h-31q-4 109 -117 109q-32 0 -59 -11t-46 -33.5t-32.5 -43.5t-24.5 -54.5t-16 -51.5t-12 -50q26 32 71 56t99 24zM188 23q43 0 76.5 16.5t52 43.5
t28 58t9.5 64q0 51 -31.5 78.5t-84.5 27.5q-70 0 -121 -46.5t-51 -114.5q0 -56 32 -91.5t90 -35.5z" />
    <glyph glyph-name="seven.dnom" horiz-adv-x="452" 
d="M391 535l-4 -33l-289 -502h-41l293 502h-313l4 33h350z" />
    <glyph glyph-name="eight.dnom" horiz-adv-x="464" 
d="M272 287q80 -39 80 -115q0 -81 -60 -128.5t-149 -47.5q-67 0 -110 34.5t-43 92.5q0 60 34.5 102.5t92.5 65.5q-58 39 -58 96q0 62 48 107t129 45q63 0 97 -32.5t34 -78.5q0 -82 -95 -141zM92 389q0 -39 31.5 -64.5t73.5 -25.5q52 -2 94.5 35.5t42.5 89.5q0 82 -107 82
q-62 0 -98.5 -35t-36.5 -82zM145 31q73 0 123.5 35.5t50.5 105.5q0 49 -33 73.5t-93 24.5q-65 0 -116.5 -38t-51.5 -103q0 -48 31.5 -73t88.5 -25z" />
    <glyph glyph-name="nine.dnom" horiz-adv-x="522" 
d="M199 188q-58 0 -103 33t-45 98q0 96 52.5 159t148.5 63q94 0 132 -72.5t17 -194.5q-46 -284 -227 -284q-77 0 -112 43.5t-31 99.5h28q4 -108 119 -108q32 0 59 11t46 33.5t32.5 43t24 54.5t15.5 51.5t12 49.5q-27 -32 -70.5 -56t-97.5 -24zM252 508q-43 0 -76.5 -16.5
t-52 -43.5t-28 -58t-9.5 -64q0 -51 32 -79t85 -28q70 0 120 47t50 115q0 56 -32 91.5t-89 35.5z" />
    <glyph glyph-name="zero.numr" horiz-adv-x="567" 
d="M338 897q110 0 187 92t77 238q0 97 -47 155t-129 58q-116 0 -187 -98t-71 -234q0 -98 44 -154.5t126 -56.5zM420 1407q67 0 107 -46t40 -134q0 -133 -68 -215t-155 -82q-66 0 -103.5 44.5t-37.5 133.5q0 134 64.5 216.5t152.5 82.5z" />
    <glyph glyph-name="one.numr" horiz-adv-x="325" 
d="M326 1434l-84 -533h-37l76 477q-39 -58 -113 -49l4 33q33 -4 66.5 18.5t50.5 53.5h37z" />
    <glyph glyph-name="two.numr" horiz-adv-x="509" 
d="M152 901q9 82 51 137t147 115q38 22 59.5 36.5t45 36t33.5 45t10 52.5q0 36 -29.5 61t-79.5 25q-57 0 -93.5 -33t-47.5 -90h-35q11 71 61.5 114.5t122.5 43.5q57 0 96 -33t39 -84q0 -68 -41.5 -112t-130.5 -93q-75 -41 -117.5 -90t-47.5 -94h288l-6 -37h-325z" />
    <glyph glyph-name="three.numr" horiz-adv-x="540" 
d="M434 1184q44 -7 76.5 -35t32.5 -76q0 -75 -60.5 -127.5t-156.5 -52.5q-92 0 -132 47t-28 127h35q-11 -63 22.5 -101t106.5 -38q79 0 128.5 41.5t49.5 103.5q0 47 -42 68.5t-108 21.5h-22l6 31h23q69 0 111 41t42 90q0 40 -29 62t-81 22q-128 0 -158 -133h-37
q13 79 66.5 123.5t132.5 44.5q68 0 104.5 -33t36.5 -86q0 -50 -33.5 -89.5t-85.5 -51.5z" />
    <glyph glyph-name="four.numr" horiz-adv-x="512" 
d="M510 1036h-61l-23 -135h-37l23 135h-248l4 31l307 369h37l-59 -369h61zM416 1067l49 307l-256 -307h207z" />
    <glyph glyph-name="five.numr" horiz-adv-x="475" 
d="M365 1251q66 0 107 -47.5t28 -130.5q-11 -80 -68.5 -131t-136.5 -51q-77 0 -119 49t-31 125h33q-8 -57 20.5 -98t98.5 -41q71 0 116 41.5t54 105.5q12 75 -23.5 111.5t-87.5 36.5q-84 0 -153 -72h-37l90 287h262l-6 -33h-236l-67 -217q16 23 58 44t98 21z" />
    <glyph glyph-name="six.numr" horiz-adv-x="526" 
d="M385 1241q58 0 102.5 -33t44.5 -98q0 -95 -52.5 -158t-147.5 -63t-133.5 72.5t-16.5 193.5q46 285 226 285q79 0 114 -44t31 -100h-31q-4 109 -116 109q-39 0 -70 -18t-49.5 -41t-34.5 -62.5t-22 -62t-15 -60.5q26 32 71 56t99 24zM332 922q43 0 76.5 16.5t52 43.5t28 58
t9.5 64q0 51 -32 78.5t-85 27.5q-70 0 -121 -46.5t-51 -114.5q0 -56 32.5 -91.5t90.5 -35.5z" />
    <glyph glyph-name="seven.numr" horiz-adv-x="452" 
d="M535 1436l-5 -33l-288 -502h-41l293 502h-314l4 33h351z" />
    <glyph glyph-name="eight.numr" horiz-adv-x="464" 
d="M416 1188q80 -39 80 -115q0 -81 -60 -128.5t-149 -47.5q-67 0 -110.5 34.5t-43.5 92.5q0 60 34.5 102.5t92.5 65.5q-57 39 -57 96q0 62 47.5 107t128.5 45q63 0 97 -32.5t34 -78.5q0 -83 -94 -141zM236 1290q0 -39 31 -64.5t73 -25.5q52 -2 94.5 35.5t42.5 89.5
q0 82 -106 82q-62 0 -98.5 -35t-36.5 -82zM289 932q73 0 123.5 35.5t50.5 105.5q0 48 -33.5 73t-93.5 25q-65 0 -116.5 -38t-51.5 -103q0 -48 32 -73t89 -25z" />
    <glyph glyph-name="nine.numr" horiz-adv-x="522" 
d="M342 1090q-58 0 -102.5 33t-44.5 98q0 96 52 158.5t148 62.5q94 0 132.5 -72t17.5 -194q-46 -285 -228 -285q-77 0 -112 43.5t-31 99.5h29q4 -108 119 -108q28 0 52 9.5t40.5 22.5t32 37t23.5 41t17.5 47.5t12.5 43.5t10 42q-26 -32 -70 -55.5t-98 -23.5zM395 1409
q-43 0 -76.5 -16.5t-52 -43.5t-28 -58t-9.5 -64q0 -51 32 -79t85 -28q70 0 120 47t50 115q0 56 -32 91.5t-89 35.5z" />
    <glyph glyph-name="Aacutecy" horiz-adv-x="1310" 
d="M1073 1821l-254 -262h-39l217 262h76zM1108 0l-111 449h-723l-251 -449h-66l811 1434h43l354 -1434h-57zM301 498h684l-207 848z" />
    <glyph glyph-name="Ieacutecy" horiz-adv-x="1064" 
d="M682 1559h39l254 262h-76zM1106 1380h-813l-96 -610h708l-8 -49h-709l-108 -668h835l-10 -53h-887l228 1434h866z" />
    <glyph glyph-name="Iiacutecy" horiz-adv-x="1282" 
d="M772 1559h39l254 262h-76zM246 1434h55l-217 -1366h2l1124 1366h82l-227 -1434h-55l217 1372h-4l-1127 -1372h-78z" />
    <glyph glyph-name="Oacutecy" horiz-adv-x="1409" 
d="M846 1559h39l254 262h-76zM829 1452q234 0 375.5 -139.5t141.5 -401.5q0 -148 -31.5 -285.5t-95 -254.5t-152.5 -203.5t-210.5 -136t-262.5 -49.5q-236 0 -375 138t-139 400q0 147 31 284.5t94 255t151 205t210 137.5t263 50zM598 37q131 0 243.5 48t193.5 131t139 194
t86 238t28 261q0 241 -124.5 364.5t-340.5 123.5q-131 0 -243.5 -48t-193 -132t-138 -195.5t-85.5 -239.5t-28 -264q0 -239 123.5 -360t339.5 -121z" />
    <glyph glyph-name="Uacutecy" horiz-adv-x="1075" 
d="M674 1559h39l254 262h-76zM1079 1434h58l-691 -1215q-147 -255 -366 -223l8 55q198 -25 318 207q35 61 45 85t6 46l-273 1045h56l260 -1014z" />
    <glyph glyph-name="Yeruacutecy" horiz-adv-x="1413" 
d="M842 1559h39l254 262h-76zM623 877q201 0 310 -90.5t109 -256.5q0 -245 -151 -387.5t-404 -142.5h-469l228 1434h55l-88 -557h410zM1196 0h-55l225 1434h55zM500 57q227 0 357 127t130 344q0 145 -91 219t-271 74h-422l-123 -764h420z" />
    <glyph glyph-name="Ereversedacutecy" horiz-adv-x="1345" 
d="M1102 1821l-254 -262h-39l217 262h76zM772 1452q112 0 204.5 -34t161 -100.5t106.5 -172.5t38 -242q0 -144 -31 -279t-93 -251.5t-149 -203.5t-207 -137t-259 -50q-195 0 -319 82.5t-154 222.5h57q27 -113 136.5 -182.5t283.5 -69.5q139 0 256.5 55t199.5 150
t135.5 217.5t75.5 263.5h-612l8 49h611q8 60 8 135q0 125 -34 221t-96 155t-144 88.5t-183 29.5q-176 0 -306.5 -70t-191.5 -184h-63q74 144 220.5 225.5t340.5 81.5z" />
    <glyph glyph-name="Iuacutecy" horiz-adv-x="1748" 
d="M1303 1821l-254 -262h-39l217 262h76zM1169 1452q234 0 375.5 -139.5t141.5 -401.5q0 -148 -31.5 -285.5t-95 -254.5t-152.5 -203.5t-210.5 -136t-262.5 -49.5q-236 0 -375 138t-139 400q0 83 8 148h-248l-104 -668h-56l226 1434h55l-113 -717h246q23 154 82.5 286.5
t150.5 233t220 158t282 57.5zM938 37q131 0 243.5 48t193.5 131t139 194t86 238t28 261q0 241 -124.5 364.5t-340.5 123.5q-131 0 -243.5 -48t-193 -132t-138 -195.5t-85.5 -239.5t-28 -264q0 -239 123.5 -360t339.5 -121z" />
    <glyph glyph-name="Iaacutecy" horiz-adv-x="1185" 
d="M1022 1821l-254 -262h-39l217 262h76zM1196 1434l-227 -1434h-56l101 639h-543q-309 0 -346 -254l-21 -149q-33 -203 -77 -236h-60q51 38 84 244l21 145q17 123 87.5 192.5t200.5 88.5q-202 85 -202 315q0 211 141 330t379 119h518zM502 688h520l111 696h-461
q-219 0 -341 -104t-122 -295q0 -141 83 -219t210 -78z" />
    <glyph glyph-name="aacutecy" horiz-adv-x="1085" 
d="M881 1452l-254 -262h-39l217 262h76zM938 715l-96 -602q-6 -42 12 -56.5t68 -9.5l-9 -49q-18 -6 -34 -6q-61 0 -81 32t-5 115l18 109q-20 -36 -59.5 -77t-100 -84.5t-147.5 -72t-182 -28.5q-138 0 -216.5 71.5t-78.5 192.5q0 81 28.5 140t86 97.5t129 61.5t171.5 39
q7 1 48.5 7t58 8.5t58 9t64 11t58 11.5t59 13.5t48.5 14t43 15.5l4 31q28 171 -34.5 244t-246.5 73q-162 0 -242 -50.5t-114 -146.5h-56q43 131 144.5 188.5t269.5 57.5q193 0 279 -85t55 -275zM823 340l47 287q-20 -9 -55.5 -19t-88 -20t-96 -17.5t-112 -18.5t-102.5 -17
q-175 -29 -255.5 -93.5t-80.5 -195.5q0 -100 64.5 -156.5t177.5 -56.5q85 0 163.5 25t132.5 60.5t99 80t69.5 79t36.5 62.5z" />
    <glyph glyph-name="ieacutecy" horiz-adv-x="1060" 
d="M901 1452l-254 -262h-39l217 262h76zM971 496h-881q-4 -54 -4 -84q0 -190 97.5 -283.5t262.5 -93.5q125 0 207 32.5t160 116.5h68q-94 -110 -194.5 -154t-240.5 -44q-193 0 -303 111t-110 315q0 181 71 331.5t202.5 241t297.5 90.5q171 0 279 -109t108 -302
q0 -32 -6.5 -87.5t-13.5 -80.5zM598 1026q-193 0 -328 -136.5t-172 -342.5h830q10 51 10 112q0 178 -94.5 272.5t-245.5 94.5z" />
    <glyph glyph-name="iiacutecy" horiz-adv-x="1085" 
d="M618 1190h39l254 262h-75zM166 1065h53l-162 -1014h4l906 1014h80l-168 -1065h-54l164 1018h-4l-907 -1018h-80z" />
    <glyph glyph-name="oacutecy" horiz-adv-x="1069" 
d="M590 1190h39l254 262h-76zM596 1075q172 0 285.5 -114t113.5 -318q0 -173 -72 -323t-203 -242t-290 -92q-82 0 -153.5 28t-126 80.5t-86 134.5t-31.5 185q0 129 42.5 249t115.5 211t179 146t226 55zM942 649q0 94 -28 167.5t-76 118.5t-109 68t-131 23
q-149 0 -267.5 -85.5t-181.5 -225.5t-63 -303q0 -93 28 -166.5t76.5 -118.5t109.5 -68.5t130 -23.5q150 0 268.5 86.5t181 226t62.5 301.5z" />
    <glyph glyph-name="uacutecy" horiz-adv-x="976" 
d="M563 1190h39l254 262h-76zM950 1065h60l-666 -1202q-74 -137 -171 -194.5t-202 -39.5l11 52q91 -15 173.5 37t143.5 165q52 96 47 121l-252 1061h53l242 -1026z" />
    <glyph glyph-name="yeruacutecy" horiz-adv-x="1210" 
d="M682 1190h39l254 262h-76zM500 651q183 0 278.5 -70t95.5 -200q0 -185 -129.5 -283t-347.5 -98h-389l168 1065h53l-65 -414h336zM1118 1065h53l-167 -1065h-54zM408 49q198 0 306.5 85t108.5 245q0 108 -75 165.5t-248 57.5h-344l-86 -553h338z" />
    <glyph glyph-name="ereversedacutecy" horiz-adv-x="1015" 
d="M879 1452l-254 -262h-39l217 262h76zM532 1075q180 0 295 -112t115 -320q0 -131 -42 -250.5t-115.5 -209.5t-180.5 -143.5t-231 -53.5q-158 0 -250 69t-127 219h57q29 -125 107 -182t211 -57q105 0 196 40.5t154.5 109.5t105.5 157.5t58 187.5h-451l10 48h447q2 20 2 63
q0 99 -29 174.5t-79.5 120.5t-113.5 67.5t-136 22.5q-136 0 -231 -56.5t-161 -181.5h-61q75 151 185.5 219t264.5 68z" />
    <glyph glyph-name="iuacutecy" horiz-adv-x="1339" 
d="M1038 1452l-254 -262h-39l218 262h75zM866 1075q172 0 286 -114t114 -318q0 -172 -72 -322.5t-203.5 -242.5t-290.5 -92q-82 0 -153.5 28t-126 80.5t-86 134.5t-31.5 185q0 45 6 92h-168l-80 -508h-53l168 1065h53l-79 -508h165q43 222 194 371t357 149zM700 35
q150 0 268.5 86.5t181 226t62.5 301.5q0 94 -28 167.5t-76 118.5t-109 68t-131 23q-149 0 -267.5 -85.5t-181.5 -225.5t-63 -303q0 -93 28 -166.5t76.5 -118.5t109.5 -68.5t130 -23.5z" />
    <glyph glyph-name="iaacutecy" horiz-adv-x="1015" 
d="M877 1452l-254 -262h-39l217 262h76zM588 1065h389l-168 -1065h-53l65 414h-454q-119 0 -170.5 -36.5t-67.5 -121.5l-18 -98q-14 -80 -25.5 -114t-30.5 -44h-53q18 10 29.5 43.5t25.5 114.5l17 98q16 82 58 130.5t128 66.5q-149 68 -149 231q0 185 129.5 283t347.5 98z
M829 463l86 553h-337q-198 0 -307 -85t-109 -245q0 -108 75 -165.5t248 -57.5h344z" />
    </font>
</defs>
</svg>
