<?xml version="1.0" standalone="no"?>
<!DOCTYPE svg PUBLIC "-//W3C//DTD SVG 1.1//EN" "http://www.w3.org/Graphics/SVG/1.1/DTD/svg11.dtd" >
<svg xmlns="http://www.w3.org/2000/svg" xmlns:xlink="http://www.w3.org/1999/xlink" version="1.1">
<metadata>
Created by FontForge 20170731 at Wed May 12 04:41:43 2021
 By Aleksey,,,
(c) Copyright David Jonathan Ross, 2016, 2021. All rights reserved.
</metadata>
<defs>
<font id="FormaDJRText-Black" horiz-adv-x="0" >
  <font-face 
    font-family="Forma DJR Text Black"
    font-weight="900"
    font-stretch="normal"
    units-per-em="2000"
    panose-1="0 0 0 0 0 0 0 9 0 0"
    ascent="1500"
    descent="-500"
    x-height="1030"
    cap-height="1400"
    bbox="-1237 -578 2874 2316"
    underline-thickness="50"
    underline-position="-150"
    unicode-range="U+0020-FB01"
  />
<missing-glyph horiz-adv-x="1200" 
d="M50 1388q0 5 3.5 8.5t8.5 3.5h1076q5 0 8.5 -3.5t3.5 -8.5v-1716q0 -5 -3.5 -8.5t-8.5 -3.5h-1076q-5 0 -8.5 3.5t-3.5 8.5v1716zM800 1105h-400v-1140h400v1140z" />
    <glyph glyph-name=".notdef" horiz-adv-x="1200" 
d="M50 1388q0 5 3.5 8.5t8.5 3.5h1076q5 0 8.5 -3.5t3.5 -8.5v-1716q0 -5 -3.5 -8.5t-8.5 -3.5h-1076q-5 0 -8.5 3.5t-3.5 8.5v1716zM800 1105h-400v-1140h400v1140z" />
    <glyph glyph-name=".null" 
 />
    <glyph glyph-name="nonmarkingreturn" horiz-adv-x="666" 
 />
    <glyph glyph-name="space" unicode=" " horiz-adv-x="356" 
 />
    <glyph glyph-name="space" unicode="&#xa0;" horiz-adv-x="356" 
 />
    <glyph glyph-name="exclam" unicode="!" horiz-adv-x="528" 
d="M80 426q-24 0 -24 24v927q0 23 24 23h367q11 0 17 -6t6 -17v-927q0 -24 -23 -24h-367zM80 0q-24 0 -24 24v327q0 11 6.5 17t17.5 6h367q11 0 17 -6t6 -17v-327q0 -11 -6 -17.5t-17 -6.5h-367z" />
    <glyph glyph-name="quotedbl" unicode="&#x22;" horiz-adv-x="998" 
d="M155 754q-24 0 -25 23l-48 599q-1 24 23 24h339q24 0 22 -24l-46 -599q-1 -23 -24 -23h-241zM605 754q-24 0 -25 23l-48 599q-1 24 23 24h339q24 0 22 -24l-46 -599q-1 -23 -24 -23h-241z" />
    <glyph glyph-name="numbersign" unicode="#" horiz-adv-x="1494" 
d="M1399 1164q11 0 17 -6.5t5 -18.5l-36 -249q-3 -22 -25 -22h-136l-47 -328h135q12 0 18 -7t4 -18l-44 -249q-5 -22 -26 -22h-130l-31 -222q-3 -22 -25 -22h-343q-11 0 -17 7t-4 18l31 219h-121l-31 -222q-3 -22 -25 -22h-343q-11 0 -17 7t-4 18l31 219h-137q-12 0 -17.5 7
t-3.5 18l43 250q5 21 26 21h131l47 328h-131q-11 0 -16.5 6.5t-4.5 18.5l35 249q3 22 25 22h135l30 214q3 22 25 22h343q11 0 17 -7t5 -18l-31 -211h121l30 214q3 22 25 22h343q11 0 17 -7t5 -18l-31 -211h133zM714 868l-47 -328h120l47 328h-120z" />
    <glyph glyph-name="dollar" unicode="$" horiz-adv-x="1396" 
d="M1213.5 133.5q-110.5 -119.5 -309.5 -157.5v-153q0 -11 -6 -17t-17 -6h-379q-24 0 -24 23v162q-184 42 -291.5 154t-113.5 299q-1 24 23 24h396q22 0 26 -21q11 -55 30.5 -90.5t62.5 -56t117 -20.5q84 0 126 25t42 79q0 41 -33.5 66.5t-85 40t-144.5 32.5
q-163 32 -270 71.5t-186 134t-79 261.5q0 161 93.5 273t274.5 155v125q0 11 6.5 17t17.5 6h379q11 0 17 -6t6 -17v-122q318 -73 380 -402l1 -6q0 -8 -6.5 -13.5t-16.5 -5.5h-400q-20 0 -25 21q-14 52 -54.5 81.5t-98.5 29.5q-69 2 -109.5 -21t-40.5 -71q0 -40 33.5 -65
t85 -39t146.5 -33q164 -32 271.5 -70t186.5 -129t79 -252q0 -187 -110.5 -306.5z" />
    <glyph glyph-name="percent" unicode="%" horiz-adv-x="2024" 
d="M187.5 752q-117.5 92 -117.5 278q0 126 53.5 213.5t153 132t235.5 44.5q134 0 232.5 -44.5t152 -131.5t53.5 -212q0 -187 -115.5 -279.5t-322.5 -92.5t-324.5 92zM305 0q-20 0 -20 13q0 8 7 16l1119 1358q10 13 28 13h286q9 0 14.5 -4t5.5 -10t-6 -15l-1120 -1357
q-10 -14 -28 -14h-286zM565.5 907.5q19.5 11.5 28 41t8.5 83.5q0 86 -22.5 120t-69.5 34t-68.5 -33.5t-21.5 -120.5q0 -76 21 -106t71 -30q34 0 53.5 11.5zM1280 24.5q-99 44.5 -152.5 131.5t-53.5 212q0 187 116 279.5t322 92.5q207 0 324.5 -92t117.5 -278
q0 -126 -53.5 -213.5t-152 -132t-234.5 -44.5q-135 0 -234 44.5zM1584.5 249.5q21.5 33.5 21.5 120.5q0 76 -21 106t-71 30q-34 0 -53.5 -11.5t-28 -41t-8.5 -83.5q0 -86 22.5 -120t69.5 -34t68.5 33.5z" />
    <glyph glyph-name="ampersand" unicode="&#x26;" horiz-adv-x="1560" 
d="M1485 29q6 -9 6 -15t-5.5 -10t-14.5 -4h-435q-17 0 -29 15l-33 42q-168 -87 -362 -87q-156 0 -280 52t-195 147.5t-71 220.5q0 149 84.5 250t229.5 181q-114 172 -114 293q0 92 56.5 167.5t159 119t236.5 43.5q126 0 228 -35.5t162.5 -107.5t63.5 -175
q0 -79 -38.5 -140.5t-100.5 -108t-153 -95.5l41 -50l105 -131q13 39 21 85q3 22 25 22h340q12 0 18 -5.5t4 -16.5q-21 -104 -64.5 -201t-106.5 -181zM671.5 1071q15.5 -31 51.5 -83q53 31 81 63t28 69q0 43 -23.5 67.5t-66.5 24.5t-64.5 -23.5t-21.5 -66.5q0 -20 15.5 -51z
M785 300l-193 248l-33 41q-83 -78 -83 -175q0 -70 47.5 -107t122.5 -37q71 0 139 30z" />
    <glyph glyph-name="quotesingle" unicode="'" horiz-adv-x="548" 
d="M155 754q-24 0 -25 23l-48 599q-1 24 23 24h339q24 0 22 -24l-46 -599q-1 -23 -24 -23h-241z" />
    <glyph glyph-name="parenleft" unicode="(" horiz-adv-x="604" 
d="M271 -280q-20 0 -27 17q-102 207 -155 416t-53 447q0 449 205 844q9 16 28 16h277q9 0 14.5 -4t5.5 -11q0 -6 -3 -12q-179 -408 -179 -833q0 -437 182 -853q3 -6 3 -11q0 -7 -5.5 -11.5t-15.5 -4.5h-277z" />
    <glyph glyph-name="parenright" unicode=")" horiz-adv-x="604" 
d="M56 -280q-9 0 -14.5 4t-5.5 11q0 6 3 12q181 413 181 853q0 429 -179 833q-3 6 -3 11q0 16 20 16h277q19 0 28 -16q205 -395 205 -844q0 -239 -53 -448t-155 -415q-7 -17 -27 -17h-277z" />
    <glyph glyph-name="asterisk" unicode="*" horiz-adv-x="854" 
d="M334 786q-24 0 -23 24l7 146l-122 -82q-6 -5 -14 -5q-10 0 -18 12l-94 160q-4 8 -4 13q0 11 14 19l112 59l-115 61q-14 8 -14 19q0 3 4 13l88 173q6 14 18 14q6 0 14 -5l129 -83l-10 152q-1 24 23 24h192q24 0 22 -23l-5 -147l127 87q8 5 14 5q13 0 19 -14l89 -165
q3 -6 3 -12q0 -13 -13 -20l-117 -65l113 -56q14 -8 14 -19q0 -4 -3 -12l-85 -174q-6 -14 -18 -14q-6 0 -14 5l-123 76l10 -141q1 -12 -5 -18.5t-17 -6.5h-198z" />
    <glyph glyph-name="plus" unicode="+" horiz-adv-x="1240" 
d="M1087 840q11 0 17 -6t6 -17v-255q0 -11 -6 -17.5t-17 -6.5h-309v-354q0 -11 -6 -17.5t-17 -6.5h-267q-24 0 -24 24v354h-310q-24 0 -24 24v255q0 11 6.5 17t17.5 6h310v357q0 11 6.5 17t17.5 6h267q11 0 17 -6t6 -17v-357h309z" />
    <glyph glyph-name="comma" unicode="," horiz-adv-x="530" 
d="M15 -276q-12 0 -17.5 7t-2.5 19l73 262v337q0 23 24 23h353q11 0 17 -6t6 -17v-317q0 -15 -10 -29l-211 -266q-10 -13 -29 -13h-203z" />
    <glyph glyph-name="hyphen" unicode="-" horiz-adv-x="810" 
d="M74 458q-24 0 -24 24v235q0 11 6.5 17t17.5 6h663q11 0 17 -6t6 -17v-235q0 -11 -6 -17.5t-17 -6.5h-663z" />
    <glyph glyph-name="hyphen" unicode="&#x2011;" horiz-adv-x="810" 
d="M74 458q-24 0 -24 24v235q0 11 6.5 17t17.5 6h663q11 0 17 -6t6 -17v-235q0 -11 -6 -17.5t-17 -6.5h-663z" />
    <glyph glyph-name="hyphen" unicode="&#x2010;" horiz-adv-x="810" 
d="M74 458q-24 0 -24 24v235q0 11 6.5 17t17.5 6h663q11 0 17 -6t6 -17v-235q0 -11 -6 -17.5t-17 -6.5h-663z" />
    <glyph glyph-name="hyphen" unicode="&#xad;" horiz-adv-x="810" 
d="M74 458q-24 0 -24 24v235q0 11 6.5 17t17.5 6h663q11 0 17 -6t6 -17v-235q0 -11 -6 -17.5t-17 -6.5h-663z" />
    <glyph glyph-name="period" unicode="." horiz-adv-x="530" 
d="M78 0q-11 0 -17.5 6.5t-6.5 17.5v325q0 11 6.5 17t17.5 6h375q11 0 17 -6t6 -17v-325q0 -11 -6 -17.5t-17 -6.5h-375z" />
    <glyph glyph-name="slash" unicode="/" horiz-adv-x="888" 
d="M107 -250q-12 0 -17.5 7t-3.5 19l414 1693q4 21 25 21h252q12 0 18 -7t3 -19l-413 -1693q-6 -21 -26 -21h-252z" />
    <glyph glyph-name="zero" unicode="0" horiz-adv-x="1370" 
d="M349.5 47.5q-141.5 83.5 -218.5 247.5t-77 399q0 247 76 413t216.5 247.5t335.5 81.5q194 0 335.5 -80t219 -245.5t77.5 -416.5q0 -234 -77.5 -398t-219.5 -248t-335 -84q-191 0 -332.5 83.5zM796 323.5q42 37.5 62 126t20 244.5t-20.5 248t-63 132t-112.5 40t-111.5 -38
t-61 -129t-19.5 -253q0 -155 21 -244t63.5 -126.5t111.5 -37.5q68 0 110 37.5z" />
    <glyph glyph-name="one" unicode="1" horiz-adv-x="880" 
d="M357 0q-24 0 -24 24l6 581l-3 331q-110 -106 -248 -149q-3 -1 -8 -1q-8 0 -13 5.5t-5 15.5v271q0 20 19 26q103 37 170.5 105.5t109.5 171.5q7 19 27 19h347q23 0 23 -23l-3 -700l6 -653q0 -24 -23 -24h-381z" />
    <glyph glyph-name="two" unicode="2" horiz-adv-x="1214" 
d="M92 0q-11 0 -17.5 6.5t-6.5 17.5v186q0 172 62.5 281.5t147.5 167.5t218 120q83 38 129.5 64.5t76.5 65t30 91.5q0 54 -33 84t-93 30q-53 0 -88 -32.5t-42 -90.5q-3 -23 -25 -23h-339q-11 0 -17.5 6.5t-5.5 17.5q13 217 151 330t394 114q150 0 260 -52t169 -150t59 -232
q0 -137 -60 -231t-142 -148.5t-208 -116.5q-75 -36 -116 -60t-67.5 -53.5t-26.5 -66.5v-16h607q11 0 17 -6t6 -17v-263q0 -11 -6 -17.5t-17 -6.5h-1017z" />
    <glyph glyph-name="three" unicode="3" horiz-adv-x="1214" 
d="M212 84q-139 120 -162 352q-1 11 5 17.5t18 6.5h354q22 0 24 -23q5 -74 45 -115.5t106 -41.5q63 0 102.5 45.5t39.5 118.5q0 69 -43.5 107.5t-122.5 38.5h-132q-24 0 -24 24v233q0 23 24 23h132q66 0 107 32t41 84q0 69 -36.5 101.5t-91.5 32.5q-50 0 -84 -28.5
t-40 -85.5q-3 -24 -25 -24h-354q-12 0 -18 6.5t-5 18.5q14 135 86 231.5t189 147t265 50.5q144 0 258.5 -50t179.5 -140t66 -204q0 -113 -52 -181t-142 -99q252 -84 252 -320q0 -153 -80 -261t-209 -162.5t-275 -54.5q-259 0 -398 120z" />
    <glyph glyph-name="four" unicode="4" horiz-adv-x="1306" 
d="M1233 564q11 0 17 -6t6 -17v-261q0 -11 -6 -17.5t-17 -6.5h-135v-232q0 -11 -6 -17.5t-17 -6.5h-378q-24 0 -24 24l2 232h-577q-11 0 -17.5 6.5t-6.5 17.5v321q0 15 8 29l460 755q9 15 28 15h505q11 0 17 -6t6 -17v-813h135zM678 564l1 196l5 280l-278 -476h272z" />
    <glyph glyph-name="five" unicode="5" horiz-adv-x="1272" 
d="M231.5 70.5q-134.5 108.5 -153.5 305.5q-1 11 5 17.5t18 6.5h371q22 0 26 -22q11 -64 39.5 -89t72.5 -25q83 0 122.5 49t39.5 159q0 102 -35.5 155t-114.5 53q-104 0 -151 -87q-11 -17 -28 -17h-318q-25 0 -23 25l58 777q1 22 25 22h932q11 0 17 -6t6 -17v-261
q0 -11 -6 -17.5t-17 -6.5h-589l-16 -144q111 40 238 40q140 0 246.5 -61.5t165 -171.5t58.5 -251q0 -165 -76 -288t-213 -188.5t-317 -65.5q-248 0 -382.5 108.5z" />
    <glyph glyph-name="six" unicode="6" horiz-adv-x="1296" 
d="M228.5 142q-154.5 178 -154.5 558q0 236 73 401t209 250t324 85q221 0 355.5 -101.5t168.5 -283.5l1 -6q0 -19 -22 -19h-381q-20 0 -25 21q-10 38 -38 60.5t-75 22.5q-80 0 -115.5 -64t-38.5 -198q49 22 77 32t75.5 18t115.5 8q143 0 251 -54.5t167.5 -154.5t59.5 -233
q0 -152 -71.5 -270t-202.5 -184t-304 -66q-295 0 -449.5 178zM812 464q0 84 -38 129t-108 45q-72 0 -109 -46t-37 -132q0 -87 37 -132.5t109 -45.5q146 0 146 182z" />
    <glyph glyph-name="seven" unicode="7" horiz-adv-x="1086" 
d="M267 -4q-12 0 -17.5 6.5t-3.5 18.5q45 312 130.5 595.5t207.5 475.5h-520q-24 0 -24 24v261q0 11 6.5 17t17.5 6h959q11 0 17 -6t6 -17v-282q0 -14 -7 -28q-137 -263 -230 -517t-130 -532q-3 -22 -25 -22h-387z" />
    <glyph glyph-name="eight" unicode="8" horiz-adv-x="1326" 
d="M353.5 16.5q-136.5 46.5 -216 142t-79.5 235.5q0 242 246 342q-61 20 -106.5 64.5t-69.5 102.5t-24 119q0 126 69.5 218t195 141t291.5 49q169 0 295.5 -49t195.5 -141t69 -218q0 -100 -53 -176.5t-145 -109.5q244 -100 244 -342q0 -140 -79.5 -235.5t-216.5 -142
t-310 -46.5q-170 0 -306.5 46.5zM757 892q33 32 33 108q0 142 -130 142q-65 0 -96.5 -35.5t-31.5 -100.5q0 -146 128 -146q64 0 97 32zM773 304q43 40 43 114q0 76 -42.5 114t-118.5 38q-71 0 -110 -39t-39 -113q0 -75 41.5 -114.5t112.5 -39.5q70 0 113 40z" />
    <glyph glyph-name="nine" unicode="9" horiz-adv-x="1296" 
d="M261 65.5q-134 101.5 -168 283.5q-1 3 -1 8q0 17 21 17h381q11 0 17 -5t9 -16q10 -38 37.5 -60.5t74.5 -22.5q80 0 115.5 64t38.5 198q-49 -22 -77 -32t-75.5 -18t-115.5 -8q-143 0 -251 54.5t-167.5 154.5t-59.5 233q0 152 71.5 270t202.5 184t304 66q295 0 449.5 -178
t154.5 -558q0 -236 -73 -401t-209 -250t-324 -85q-221 0 -355 101.5zM739 808q37 46 37 132q0 87 -37 132.5t-109 45.5q-146 0 -146 -182q0 -84 38 -129t108 -45q72 0 109 46z" />
    <glyph glyph-name="colon" unicode=":" horiz-adv-x="530" 
d="M78 0q-11 0 -17.5 6.5t-6.5 17.5v325q0 11 6.5 17t17.5 6h375q11 0 17 -6t6 -17v-325q0 -11 -6 -17.5t-17 -6.5h-375zM78 658q-11 0 -17.5 6.5t-6.5 17.5v325q0 11 6.5 17t17.5 6h375q11 0 17 -6t6 -17v-325q0 -11 -6 -17.5t-17 -6.5h-375z" />
    <glyph glyph-name="semicolon" unicode=";" horiz-adv-x="536" 
d="M15 -276q-12 0 -17.5 7t-2.5 19l73 262v337q0 23 24 23h353q11 0 17 -6t6 -17v-317q0 -15 -10 -29l-211 -266q-10 -13 -29 -13h-203zM80 658q-11 0 -17.5 6.5t-6.5 17.5v325q0 11 6.5 17t17.5 6h375q11 0 17 -6t6 -17v-325q0 -11 -6 -17.5t-17 -6.5h-375z" />
    <glyph glyph-name="less" unicode="&#x3c;" horiz-adv-x="1240" 
d="M148 530q-18 9 -18 28v262q0 21 18 28l935 410q6 3 11 3q7 0 11.5 -5.5t4.5 -15.5v-266q0 -20 -18 -27l-644 -257l644 -257q18 -6 18 -27v-268q0 -10 -4.5 -15.5t-11.5 -5.5q-5 0 -11 3z" />
    <glyph glyph-name="equal" unicode="=" horiz-adv-x="1240" 
d="M154 788q-24 0 -24 24v255q0 11 6.5 17t17.5 6h933q11 0 17 -6t6 -17v-255q0 -11 -6 -17.5t-17 -6.5h-933zM154 288q-24 0 -24 24v255q0 11 6.5 17t17.5 6h933q11 0 17 -6t6 -17v-255q0 -11 -6 -17.5t-17 -6.5h-933z" />
    <glyph glyph-name="greater" unicode="&#x3e;" horiz-adv-x="1240" 
d="M157 120q-6 -3 -11 -3q-7 0 -11.5 5.5t-4.5 15.5v268q0 21 18 27l644 257l-644 257q-18 7 -18 27v266q0 10 4.5 15.5t11.5 5.5q5 0 11 -3l935 -410q18 -7 18 -28v-262q0 -19 -18 -28z" />
    <glyph glyph-name="question" unicode="?" horiz-adv-x="1178" 
d="M406 426q-24 0 -24 25q4 114 39 195t79 130t111 105q53 45 77 73.5t24 63.5q0 52 -34 79t-98 27q-60 0 -94.5 -30.5t-41.5 -88.5q-3 -23 -25 -23h-349q-11 0 -17 6.5t-5 18.5q16 210 158 319.5t398 109.5q150 0 270.5 -53t189 -149.5t68.5 -221.5q0 -76 -23 -131
t-56.5 -92t-89.5 -84q-50 -42 -80 -73.5t-52 -76.5t-26 -105q-1 -24 -24 -24h-375zM406 0q-11 0 -17.5 6.5t-6.5 17.5v327q0 11 6.5 17t17.5 6h375q11 0 17 -6t6 -17v-327q0 -11 -6 -17.5t-17 -6.5h-375z" />
    <glyph glyph-name="at" unicode="@" horiz-adv-x="1726" 
d="M977 871l-2 35q-1 24 23 24h309q11 0 17 -6t6 -17v-615q0 -26 10.5 -42t29.5 -16q27 0 48.5 29.5t34.5 89.5t13 147q0 214 -73.5 368.5t-210 236t-320.5 81.5q-176 0 -313 -82t-214 -236.5t-77 -365.5q0 -205 77.5 -356.5t214.5 -231.5t312 -80q127 0 245 41t191 113
q13 12 29 12h195q10 0 15.5 -4t5.5 -10q0 -7 -5 -13q-117 -154 -295 -243.5t-381 -89.5q-233 0 -417 105t-288.5 300.5t-104.5 458.5q0 267 104.5 465.5t289 304.5t418.5 106q243 0 426.5 -105.5t283.5 -304.5t100 -470q0 -145 -48.5 -249t-134.5 -157.5t-195 -53.5
q-104 0 -182.5 39.5t-101.5 114.5q-46 -69 -115.5 -105.5t-156.5 -36.5q-124 0 -211.5 61t-132 166.5t-44.5 238.5q0 121 49 220.5t138.5 157.5t206.5 58q142 0 231 -83zM954.5 334.5q33.5 58.5 33.5 183.5q0 111 -32 159.5t-98 50.5q-138 9 -138 -222q0 -117 34 -173.5
t93 -56.5q74 0 107.5 58.5z" />
    <glyph glyph-name="A" unicode="A" horiz-adv-x="1532" 
d="M1517 27l2 -9q0 -8 -5.5 -13t-15.5 -5h-405q-21 0 -26 20l-79 268h-453l-73 -268q-6 -20 -27 -20h-403q-10 0 -15.5 5t-5.5 13l2 9l457 1354q6 19 26 19h556q20 0 26 -19zM889 624l-135 458l-126 -458h261z" />
    <glyph glyph-name="B" unicode="B" horiz-adv-x="1374" 
d="M93 0q-23 0 -23 24l13 654l-13 699q0 23 23 23h669q238 0 377 -84.5t139 -271.5q0 -118 -54.5 -189.5t-167.5 -114.5q134 -30 205 -119t71 -223q0 -131 -79.5 -221t-206.5 -133.5t-268 -43.5h-685zM518 1096l-9 -232h221q61 0 94.5 30t33.5 86t-33.5 86t-94.5 30h-212z
M509 576l9 -272h212q84 0 120 32.5t36 107.5q0 71 -36 101.5t-120 30.5h-221z" />
    <glyph glyph-name="C" unicode="C" horiz-adv-x="1538" 
d="M410 58.5q-171 94.5 -264.5 260.5t-93.5 373q0 221 93 389.5t262.5 261.5t392.5 93q273 0 446 -131t229 -389l1 -6q0 -20 -22 -20h-384q-21 0 -26 21q-24 102 -85.5 151.5t-164.5 49.5q-136 0 -209 -105.5t-73 -300.5q0 -202 74.5 -310t217.5 -108q99 0 160.5 48.5
t82.5 145.5q3 22 25 22h392q12 0 17.5 -7t3.5 -19q-57 -255 -232 -384.5t-449 -129.5q-223 0 -394 94.5z" />
    <glyph glyph-name="D" unicode="D" horiz-adv-x="1480" 
d="M93 0q-23 0 -23 24l11 656l-11 697q0 23 23 23h539q220 0 399 -72t288 -233t109 -415q0 -246 -106 -397.5t-283 -217t-403 -65.5h-543zM511 688l10 -376h131q159 0 239.5 88t80.5 284q0 208 -87.5 307t-240.5 99h-123z" />
    <glyph glyph-name="E" unicode="E" horiz-adv-x="1210" 
d="M93 0q-23 0 -23 24l13 652l-13 701q0 23 23 23h1032q11 0 17 -6t6 -17v-263q0 -11 -6 -17.5t-17 -6.5h-609l-5 -204h546q11 0 17 -6t6 -17v-263q0 -11 -6 -17.5t-17 -6.5h-546l5 -264h625q11 0 17 -6t6 -17v-265q0 -24 -23 -24h-1048z" />
    <glyph glyph-name="F" unicode="F" horiz-adv-x="1158" 
d="M93 0q-23 0 -23 24l13 678l-13 675q0 23 23 23h998q11 0 17 -6t6 -17v-263q0 -11 -6 -17.5t-17 -6.5h-573l-7 -266h556q11 0 17 -6t6 -17v-263q0 -11 -6 -17.5t-17 -6.5h-556l7 -490q0 -24 -24 -24h-401z" />
    <glyph glyph-name="G" unicode="G" horiz-adv-x="1588" 
d="M413.5 58.5q-172.5 94.5 -267 261.5t-94.5 380q0 216 94 383.5t263 260t387 92.5q286 0 466 -124t241 -348q1 -3 1 -8q0 -8 -5.5 -13t-15.5 -5h-411q-20 0 -26 19q-30 78 -88.5 116.5t-151.5 38.5q-151 0 -224.5 -107.5t-73.5 -306.5q0 -197 74 -304t225 -107
q104 0 174.5 51t86.5 146h-282q-24 0 -24 24v265q0 23 24 23h723q11 0 17 -7.5t6 -21.5q0 -264 -87.5 -444t-249.5 -269.5t-385 -89.5q-224 0 -396.5 94.5z" />
    <glyph glyph-name="H" unicode="H" horiz-adv-x="1482" 
d="M1399 708l13 -684q0 -24 -22 -24h-407q-24 0 -24 24l8 564h-452l8 -564q0 -24 -23 -24h-407q-23 0 -23 24l13 684l-13 669q0 23 23 23h407q23 0 23 -23l-7 -479h451l-8 479q0 23 24 23h407q22 0 22 -23z" />
    <glyph glyph-name="I" unicode="I" horiz-adv-x="604" 
d="M103 0q-23 0 -23 24l11 662l-11 691q0 23 23 23h399q22 0 22 -23l-11 -691l11 -662q0 -24 -22 -24h-399z" />
    <glyph glyph-name="J" unicode="J" horiz-adv-x="1222" 
d="M298.5 31.5q-120.5 63.5 -185 180t-69.5 272.5q0 23 24 23h385q23 0 23 -24q7 -185 116 -185q36 0 59 18.5t35 64.5t12 127v444l-7 425q0 23 23 23h412q24 0 24 -23l-6 -425v-448q0 -270 -143.5 -403t-412.5 -133q-169 0 -289.5 63.5z" />
    <glyph glyph-name="K" unicode="K" horiz-adv-x="1398" 
d="M1405 29q5 -6 5 -15q0 -14 -19 -14h-469q-17 0 -28 15l-320 471l-79 -100l4 -362q0 -24 -23 -24h-383q-23 0 -23 24l13 677l-11 676q0 23 23 23h381q23 0 23 -23l-5 -443l300 451q10 15 28 15h443q10 0 15.5 -4t5.5 -10q0 -4 -7 -15l-439 -550z" />
    <glyph glyph-name="L" unicode="L" horiz-adv-x="1078" 
d="M93 0q-23 0 -23 24l11 655l-11 698q0 23 23 23h403q23 0 23 -23l-7 -685l6 -380h493q11 0 17 -6t6 -17v-265q0 -24 -23 -24h-918z" />
    <glyph glyph-name="M" unicode="M" horiz-adv-x="1828" 
d="M93 0q-24 0 -24 24l10 690l-10 663q0 23 24 23h523q20 0 27 -19l291 -817l262 817q6 19 27 19h513q23 0 23 -23l-10 -663l10 -690q0 -24 -23 -24h-400q-11 0 -17 6.5t-6 17.5l-1 604l14 210l-262 -819q-6 -19 -27 -19h-289q-20 0 -26 19l-286 811l14 -202v-604
q0 -24 -24 -24h-333z" />
    <glyph glyph-name="N" unicode="N" horiz-adv-x="1438" 
d="M93 0q-24 0 -24 24l10 664l-10 689q0 23 24 23h440q19 0 28 -16l419 -748l-8 98l-1 643q0 23 24 23h349q23 0 23 -23l-10 -689l11 -664q0 -24 -22 -24h-455q-18 0 -28 16l-405 740l8 -116l1 -616q0 -24 -23 -24h-351z" />
    <glyph glyph-name="O" unicode="O" horiz-adv-x="1614" 
d="M410 58.5q-171 94.5 -264.5 261t-93.5 374.5q0 221 92.5 389t263 260.5t398.5 92.5q226 0 397 -91t265 -259t94 -392q0 -208 -93.5 -374t-265.5 -261t-397 -95t-396 94.5zM1031.5 395q74.5 107 74.5 299q0 196 -75 307t-225 111t-224 -108.5t-74 -309.5q0 -190 77.5 -298
t224.5 -108t221.5 107z" />
    <glyph glyph-name="P" unicode="P" horiz-adv-x="1308" 
d="M686 1400q289 0 437.5 -120t148.5 -356q0 -149 -69 -259.5t-202 -171.5t-321 -61h-163l6 -408q0 -24 -23 -24h-407q-23 0 -23 24l13 658l-13 695q0 23 23 23h593zM795 781q51 43 51 135q0 91 -52.5 135.5t-149.5 44.5h-125l-5 -358h138q92 0 143 43z" />
    <glyph glyph-name="Q" unicode="Q" horiz-adv-x="1642" 
d="M1561 322q11 0 17 -6t6 -17v-275q0 -11 -6 -17.5t-17 -6.5h-500q-122 -36 -255 -36q-225 0 -396 94.5t-264.5 261t-93.5 374.5q0 221 92.5 389t263 260.5t398.5 92.5q226 0 397 -91t265 -259t94 -392q0 -208 -94 -374l46 2h47zM585.5 396q77.5 -108 224.5 -108t221.5 107
t74.5 299q0 196 -75 307t-225 111t-224 -108.5t-74 -309.5q0 -190 77.5 -298z" />
    <glyph glyph-name="R" unicode="R" horiz-adv-x="1406" 
d="M1381 28q5 -8 5 -14t-5.5 -10t-14.5 -4h-457q-18 0 -29 16l-224 374l-50 74h-94l7 -440q0 -24 -23 -24h-403q-24 0 -24 24l10 654l-10 699q0 23 24 23h641q298 0 454 -119t156 -351q0 -143 -73.5 -248.5t-212.5 -160.5zM515 1096l-4 -328h243q39 0 76.5 16t62.5 50t25 86
q0 91 -44.5 133.5t-131.5 42.5h-227z" />
    <glyph glyph-name="S" unicode="S" horiz-adv-x="1438" 
d="M269.5 81.5q-174.5 121.5 -213.5 347.5l-1 6q0 9 6 14t16 5h397q21 0 27 -21q20 -82 81 -120.5t162 -38.5q96 0 145 25t49 79q0 40 -35.5 64.5t-89.5 38.5t-154 33q-175 32 -291.5 71.5t-202 134t-85.5 260.5q0 138 69 240.5t205.5 159t333.5 56.5q266 0 435.5 -101.5
t210.5 -321.5l1 -6q0 -19 -22 -19h-399q-11 0 -17 5.5t-8 16.5q-12 53 -63 81.5t-136 28.5q-77 0 -122.5 -23t-45.5 -73q0 -37 35 -60t88.5 -36.5t153.5 -31.5q177 -31 295.5 -70t206 -131.5t87.5 -254.5q0 -152 -76.5 -260t-222.5 -164t-351 -56q-294 0 -468.5 121.5z" />
    <glyph glyph-name="T" unicode="T" horiz-adv-x="1306" 
d="M448 0q-24 0 -24 24l12 684l-6 382h-362q-11 0 -17.5 6.5t-6.5 17.5v263q0 11 6.5 17t17.5 6h1171q11 0 17 -6t6 -17v-263q0 -11 -6 -17.5t-17 -6.5h-363l-6 -382l12 -684q0 -24 -23 -24h-411z" />
    <glyph glyph-name="U" unicode="U" horiz-adv-x="1389" 
d="M236.5 103q-161.5 139 -161.5 407v318l-6 549q0 23 24 23h412q23 0 23 -23l-7 -537v-326q0 -115 45 -164.5t137 -49.5q108 0 159 49t51 165v316l-6 547q0 23 24 23h366q23 0 23 -23l-5 -549v-318q0 -270 -154 -408t-458 -138q-305 0 -466.5 139z" />
    <glyph glyph-name="V" unicode="V" horiz-adv-x="1436" 
d="M12 1374q-1 3 -1 8q0 8 5.5 13t15.5 5h443q21 0 27 -20l248 -926l239 926q4 20 26 20h387q10 0 15.5 -5t5.5 -13q0 -5 -1 -8l-402 -1354q-6 -20 -27 -20h-536q-21 0 -27 20z" />
    <glyph glyph-name="W" unicode="W" horiz-adv-x="1972" 
d="M36 1374q-1 3 -1 7q0 8 5.5 13.5t15.5 5.5h394q21 0 26 -21l140 -789l168 789q3 21 26 21h385q22 0 26 -21l181 -791l131 790q3 22 25 22h358q12 0 17.5 -7.5t3.5 -18.5l-294 -1353q-4 -21 -26 -21h-440q-22 0 -25 21l-166 721l-167 -721q-4 -21 -26 -21h-440
q-22 0 -25 21z" />
    <glyph glyph-name="X" unicode="X" horiz-adv-x="1438" 
d="M44 0q-10 0 -15.5 4t-5.5 11q0 5 5 13l428 682l-409 662q-4 7 -4 13q0 7 5.5 11t15.5 4h443q20 0 28 -16l191 -330l189 330q8 16 28 16h432q9 0 14.5 -4t5.5 -10t-5 -14l-412 -646l433 -698q5 -8 5 -13q0 -7 -5.5 -11t-15.5 -4h-444q-19 0 -28 16l-213 380l-207 -380
q-10 -16 -28 -16h-431z" />
    <glyph glyph-name="Y" unicode="Y" horiz-adv-x="1392" 
d="M5 1372q-4 7 -4 13q0 7 5 11t15 4h449q20 0 27 -18l215 -515l217 515q8 18 27 18h415q20 0 20 -16q0 -6 -3 -12l-470 -936l7 -412q0 -24 -23 -24h-407q-24 0 -24 24l7 408z" />
    <glyph glyph-name="Z" unicode="Z" horiz-adv-x="1332" 
d="M88 0q-24 0 -24 24v302q0 17 11 29l669 735h-602q-11 0 -17.5 6.5t-6.5 17.5v263q0 11 6.5 17t17.5 6h1111q11 0 17 -6t6 -17v-315q0 -16 -11 -28l-649 -722h629q11 0 17 -6t6 -17v-265q0 -24 -23 -24h-1157z" />
    <glyph glyph-name="bracketleft" unicode="[" horiz-adv-x="702" 
d="M94 -280q-24 0 -24 23v1694q0 23 24 23h525q11 0 17 -6t6 -17v-263q0 -11 -6 -17.5t-17 -6.5h-193v-1118h193q11 0 17 -6t6 -17v-266q0 -11 -6 -17t-17 -6h-525z" />
    <glyph glyph-name="backslash" unicode="\" horiz-adv-x="886" 
d="M525 -250q-21 0 -25 21l-414 1693l-1 6q0 20 22 20h252q20 0 26 -21l413 -1693q1 -3 1 -7q0 -9 -6 -14t-16 -5h-252z" />
    <glyph glyph-name="bracketright" unicode="]" horiz-adv-x="702" 
d="M84 -280q-24 0 -24 23v266q0 23 24 23h190v1118h-190q-24 0 -24 24v263q0 11 6.5 17t17.5 6h525q11 0 17 -6t6 -17v-1694q0 -11 -6 -17t-17 -6h-525z" />
    <glyph glyph-name="asciicircum" unicode="^" horiz-adv-x="1270" 
d="M60 356q-10 0 -15.5 4.5t-5.5 11.5q0 5 3 11l426 999q8 18 28 18h276q20 0 27 -18l425 -999q3 -6 3 -11q0 -7 -5.5 -11.5t-15.5 -4.5h-266q-21 0 -27 18l-279 712l-279 -712q-6 -18 -27 -18h-268z" />
    <glyph glyph-name="underscore" unicode="_" horiz-adv-x="954" 
d="M80 -340q-24 0 -24 23v233q0 24 24 24h793q11 0 17 -6.5t6 -17.5v-233q0 -11 -6 -17t-17 -6h-793z" />
    <glyph glyph-name="grave" unicode="`" horiz-adv-x="852" 
d="M698 1102q-5 -22 -28 -17l-545 103q-19 3 -19 20q0 5 1 8l76 259q5 16 19 16q7 0 11 -2l518 -197q16 -6 16 -21q0 -6 -1 -9z" />
    <glyph glyph-name="a" unicode="a" horiz-adv-x="1272" 
d="M1203 518l9 -494q0 -24 -22 -24h-367q-24 0 -23 24l4 87q-55 -63 -131.5 -97t-172.5 -34q-141 0 -242.5 69.5t-154.5 190t-53 272.5q0 149 59.5 272t167.5 194.5t249 71.5q169 0 269 -109l-6 65v4q0 20 22 20h379q22 0 22 -23zM760.5 314q41.5 65 41.5 207
q0 135 -38.5 197.5t-117.5 62.5q-168 0 -168 -270q0 -137 41.5 -199.5t119.5 -62.5q80 0 121.5 65z" />
    <glyph glyph-name="b" unicode="b" horiz-adv-x="1272" 
d="M1014.5 980.5q101.5 -69.5 154.5 -190t53 -272.5q0 -149 -59.5 -272t-167.5 -194.5t-249 -71.5q-169 0 -270 110l6 -65q1 -12 -5 -18.5t-17 -6.5h-377q-24 0 -24 24l10 622l-10 731q0 23 24 23h381q23 0 23 -23l-6 -444q112 117 291 117q141 0 242.5 -69.5zM794 518
q0 138 -41 200t-119 62q-80 0 -122 -64.5t-42 -207.5q0 -134 39 -197t118 -63q167 0 167 270z" />
    <glyph glyph-name="c" unicode="c" horiz-adv-x="1174" 
d="M312.5 36.5q-125.5 66.5 -194 189t-68.5 286.5t68.5 288.5t193.5 192t290 67.5q147 0 258.5 -49t176.5 -138.5t79 -207.5q1 -12 -5 -18.5t-17 -6.5h-342q-22 0 -25 23q-11 65 -38.5 92t-74.5 27q-69 0 -101.5 -60.5t-32.5 -205.5q0 -146 32.5 -208t99.5 -62q49 0 82 30
t40 93q3 23 25 23h349q12 0 17.5 -5.5t4.5 -15.5q-12 -115 -82.5 -206.5t-186 -143t-257.5 -51.5q-166 0 -291.5 66.5z" />
    <glyph glyph-name="d" unicode="d" horiz-adv-x="1272" 
d="M1203 646l10 -622q0 -24 -23 -24h-367q-24 0 -23 24l4 87q-55 -63 -131.5 -97t-172.5 -34q-141 0 -242.5 69.5t-154.5 190t-53 272.5q0 149 59.5 272t167.5 194.5t249 71.5q165 0 265 -105l-2 432q0 23 24 23h376q24 0 24 -23zM760.5 314q41.5 65 41.5 207
q0 135 -38.5 197.5t-117.5 62.5q-168 0 -168 -270q0 -137 41.5 -199.5t119.5 -62.5q80 0 121.5 65z" />
    <glyph glyph-name="e" unicode="e" horiz-adv-x="1208" 
d="M466 426q6 -72 25 -112t48.5 -55t72.5 -15q94 0 128 84q7 20 26 20h354q12 0 18 -3.5t5 -10.5q-17 -91 -83.5 -174.5t-180 -136.5t-263.5 -53q-170 0 -298 67.5t-198 190t-70 284.5q0 165 70 289.5t194 191.5t284 67q271 0 415 -153t149 -457q0 -24 -23 -24h-673z
M522 766q-35 -32 -50 -116h264q0 67 -33 107.5t-91 40.5q-55 0 -90 -32z" />
    <glyph glyph-name="f" unicode="f" horiz-adv-x="896" 
d="M208 0q-23 0 -23 24l9 420v296h-126q-24 0 -24 24v243q0 23 24 23h126v24q0 185 116.5 272.5t303.5 87.5q109 0 217 -18q21 -3 21 -26v-242q0 -12 -7 -17t-18 -2q-47 9 -103 9q-64 0 -92 -17t-28 -69v-2h227q11 0 17 -6t6 -17v-243q0 -24 -23 -24h-227v-296l11 -420
q0 -24 -22 -24h-385z" />
    <glyph glyph-name="g" unicode="g" horiz-adv-x="1268" 
d="M267 100q-106 66 -161.5 181t-55.5 258q0 141 59.5 258t168 185t248.5 68q163 0 268 -90l-4 46q-3 24 23 24h371q24 0 24 -23l-6 -521v-482q0 -125 -67.5 -217.5t-193.5 -142.5t-297 -50q-156 -3 -278 38t-193.5 123t-79.5 199q-1 24 23 24h366q11 0 17 -5t9 -16
q10 -37 44.5 -60t93.5 -23q68 0 106 34.5t38 101.5v116q-106 -92 -270 -92q-147 0 -253 66zM760.5 361.5q41.5 57.5 41.5 185.5q0 121 -38.5 177.5t-117.5 56.5q-168 0 -168 -243q0 -123 41.5 -178.5t119.5 -55.5q80 0 121.5 57.5z" />
    <glyph glyph-name="h" unicode="h" horiz-adv-x="1220" 
d="M988 1005.5q84 -48.5 127 -137t43 -208.5v-224l8 -412q0 -24 -22 -24h-383q-23 0 -23 24l8 412v186q0 71 -23 100.5t-73 29.5q-41 0 -77 -31.5t-60 -98.5t-27 -170l8 -428q0 -24 -22 -24h-389q-24 0 -24 24l7 496l-1 857q0 23 24 23h361q22 0 22 -23l-7 -467
q45 68 126.5 106t192.5 38q120 0 204 -48.5z" />
    <glyph glyph-name="i" unicode="i" horiz-adv-x="556" 
d="M90 0q-24 0 -24 24l6 472l-6 511q0 23 24 23h377q23 0 23 -23l-6 -511l6 -472q0 -24 -23 -24h-377zM88 1090q-24 0 -24 24v263q0 11 6.5 17t17.5 6h379q10 0 16.5 -6t6.5 -17v-263q0 -11 -6 -17.5t-17 -6.5h-379z" />
    <glyph glyph-name="j" unicode="j" horiz-adv-x="556" 
d="M87 -340q-23 0 -23 23l11 695l-11 629q0 23 23 23h383q22 0 22 -23l-11 -629l11 -695q0 -23 -22 -23h-383zM88 1090q-24 0 -24 24v263q0 11 6.5 17t17.5 6h379q10 0 16.5 -6t6.5 -17v-263q0 -11 -6 -17.5t-17 -6.5h-379z" />
    <glyph glyph-name="k" unicode="k" horiz-adv-x="1186" 
d="M1158 28q3 -6 3 -12q0 -16 -20 -16h-431q-20 0 -27 17l-149 326l-58 -82l2 -237q0 -24 -23 -24h-371q-23 0 -23 24l13 682l-13 671q0 23 23 23h371q23 0 23 -23l-6 -656l205 295q10 14 28 14h394q9 0 14.5 -4t5.5 -10q0 -7 -6 -15l-287 -334z" />
    <glyph glyph-name="l" unicode="l" horiz-adv-x="544" 
d="M90 0q-24 0 -24 24l8 668l-8 685q0 23 24 23h365q23 0 23 -23l-8 -687l8 -666q0 -24 -23 -24h-365z" />
    <glyph glyph-name="m" unicode="m" horiz-adv-x="1756" 
d="M1694 436l8 -412q0 -24 -24 -24h-382q-23 0 -23 24l7 412v190q0 64 -17.5 95t-48.5 31q-55 0 -87 -66t-37 -194v-6v-50l6 -412q0 -24 -24 -24h-380q-24 0 -24 24l6 412v190q0 64 -17.5 95t-48.5 31q-60 0 -92.5 -80t-33.5 -239l6 -409q0 -24 -23 -24h-381q-23 0 -23 24
l8 496l-4 487q0 23 23 23h358q25 0 23 -24l-5 -96q48 76 130.5 110t181.5 34q194 0 269 -134q43 68 119.5 101t175.5 33q113 0 193 -48.5t120.5 -134.5t40.5 -197v-238z" />
    <glyph glyph-name="n" unicode="n" horiz-adv-x="1220" 
d="M1158 436l6 -412q0 -24 -23 -24h-381q-24 0 -24 24l6 412v190q0 64 -25.5 95t-70.5 31q-77 0 -119.5 -85.5t-44.5 -234.5l6 -408q0 -24 -23 -24h-381q-23 0 -23 24l8 496l-4 487q0 23 24 23h357q25 0 23 -24l-5 -96q49 76 133.5 110t186.5 34q119 0 203.5 -48.5
t127.5 -134.5t43 -197v-238z" />
    <glyph glyph-name="o" unicode="o" horiz-adv-x="1236" 
d="M314.5 36q-128.5 66 -196.5 188.5t-68 287.5q0 166 68 289.5t196.5 191t305.5 67.5q178 0 305.5 -65.5t194 -187t66.5 -287.5t-67 -290t-194.5 -192t-304.5 -68t-305.5 66zM699 269.5q30 23.5 44.5 81t14.5 161.5q0 149 -33.5 211.5t-106.5 62.5q-51 -2 -82 -29
t-45.5 -87t-14.5 -162q0 -99 15.5 -156.5t47 -81.5t81.5 -24q49 0 79 23.5z" />
    <glyph glyph-name="p" unicode="p" horiz-adv-x="1272" 
d="M1014.5 980.5q101.5 -69.5 154.5 -190t53 -272.5q0 -149 -59.5 -272t-167.5 -194.5t-249 -71.5q-163 0 -263 102l6 -399q0 -23 -23 -23h-383q-24 0 -24 23l10 701l-10 623q0 23 24 23h366q25 0 23 -24l-3 -86q55 63 131 96.5t172 33.5q141 0 242.5 -69.5zM794 518
q0 138 -41 200t-119 62q-80 0 -122 -64.5t-42 -207.5q0 -134 39 -197t118 -63q167 0 167 270z" />
    <glyph glyph-name="q" unicode="q" horiz-adv-x="1272" 
d="M795 954l-4 52v5q0 19 22 19h377q23 0 23 -23l-10 -717l9 -607q0 -23 -22 -23h-377q-24 0 -24 23l1 400q-111 -103 -274 -103q-149 0 -254 69t-158.5 190t-53.5 273q0 149 59.5 272t167.5 194.5t249 71.5q165 0 269 -96zM763 316.5q39 64.5 39 200.5q0 258 -156 258
q-80 0 -124 -55.5t-44 -197.5q0 -147 41.5 -208.5t119.5 -61.5q85 0 124 64.5z" />
    <glyph glyph-name="r" unicode="r" horiz-adv-x="884" 
d="M83 0q-24 0 -23 24l13 482l-13 501q-2 23 23 23h369q25 0 23 -24l-7 -134q61 82 143.5 123t182.5 41q10 0 28 -2q22 -4 22 -26v-259q0 -24 -16 -24q-6 1 -16 1q-157 0 -246 -86.5t-89 -247.5q0 -22 1 -34l1 -334q0 -24 -23 -24h-373z" />
    <glyph glyph-name="s" unicode="s" horiz-adv-x="1152" 
d="M327 11.5q-122 37.5 -196.5 114t-86.5 188.5q-1 11 5 17.5t18 6.5h361q11 0 17 -5t9 -17q21 -92 136 -92q64 0 92 15t28 47t-45 47t-146 30q-134 20 -225 47t-158.5 95.5t-67.5 192.5q0 109 59.5 190t167 124.5t249.5 43.5q217 0 351.5 -83.5t168.5 -243.5l1 -6
q0 -8 -6.5 -13.5t-16.5 -5.5h-343q-20 0 -25 21q-12 39 -41 60t-73 21q-94 0 -94 -56q0 -27 25.5 -43.5t65 -25t113.5 -19.5q132 -19 220.5 -45.5t154 -94.5t65.5 -192q0 -109 -63.5 -189.5t-178 -123.5t-264.5 -43q-155 0 -277 37.5z" />
    <glyph glyph-name="t" unicode="t" horiz-adv-x="890" 
d="M380 15.5q-91 39.5 -144.5 123t-53.5 211.5l2 283l1 107h-111q-24 0 -24 24v243q0 23 24 23h111l-1 235q0 23 24 23h369q23 0 23 -23l-1 -235h218q11 0 17 -6t6 -17v-243q0 -24 -23 -24h-218l1 -110l2 -252q0 -63 25 -85.5t65 -22.5q35 0 60.5 5t57.5 14q3 1 8 1
q8 0 13 -5.5t5 -15.5v-219q0 -22 -19 -27q-120 -47 -231 -47q-115 0 -206 39.5z" />
    <glyph glyph-name="u" unicode="u" horiz-adv-x="1220" 
d="M232 25.5q-84 49.5 -127 139.5t-43 211v218l-6 413q0 23 24 23h380q24 0 24 -23l-7 -413v-206q0 -53 24.5 -81.5t68.5 -28.5q70 0 118 73.5t49 246.5l-5 409q0 23 24 23h380q23 0 23 -23l-8 -497l4 -486q0 -24 -23 -24h-358q-24 0 -23 24l5 96q-101 -144 -320 -144
q-120 0 -204 49.5z" />
    <glyph glyph-name="v" unicode="v" horiz-adv-x="1188" 
d="M-1 1003l-2 9q0 8 5.5 13t15.5 5h421q21 0 26 -21l149 -641l171 642q4 20 26 20h359q10 0 15.5 -5t5.5 -13l-2 -9l-319 -992q-6 -19 -27 -19h-495q-20 0 -26 19z" />
    <glyph glyph-name="w" unicode="w" horiz-adv-x="1620" 
d="M36 1004q-1 3 -1 7q0 8 5.5 13.5t15.5 5.5h354q22 0 25 -22l61 -556l110 557q3 21 26 21h390q22 0 26 -21l98 -545l73 544q3 22 25 22h320q12 0 17.5 -7.5t3.5 -18.5l-222 -983q-4 -21 -26 -21h-392q-22 0 -25 21l-124 561l-106 -561q-4 -21 -26 -21h-391q-22 0 -25 21z
" />
    <glyph glyph-name="x" unicode="x" horiz-adv-x="1138" 
d="M42 0q-20 0 -20 16q0 6 3 12l273 510l-260 464q-4 5 -4 12t5.5 11.5t15.5 4.5h401q19 0 27 -18l107 -258l103 258q6 18 27 18h366q10 0 15.5 -4.5t5.5 -11.5t-4 -12l-257 -476l267 -498q3 -6 3 -12q0 -16 -20 -16h-414q-19 0 -27 18l-105 248l-105 -248q-7 -18 -27 -18
h-376z" />
    <glyph glyph-name="y" unicode="y" horiz-adv-x="1188" 
d="M773 1010q4 20 26 20h371q21 0 21 -17q0 -2 -2 -10l-449 -1324q-6 -19 -26 -19h-352q-21 0 -21 18q0 6 1 9l84 261l-425 1055q-2 4 -2 10q0 17 21 17h421q21 0 27 -19l166 -519z" />
    <glyph glyph-name="z" unicode="z" horiz-adv-x="1048" 
d="M84 0q-24 0 -24 24v250q0 15 11 29l369 437h-316q-24 0 -24 24v243q0 23 24 23h807q11 0 17 -6t6 -17v-259q0 -17 -11 -29l-373 -427h395q11 0 17 -6t6 -17v-245q0 -11 -6 -17.5t-17 -6.5h-881z" />
    <glyph glyph-name="braceleft" unicode="{" horiz-adv-x="700" 
d="M528 1150q-45 0 -70.5 -28t-25.5 -74q0 -30 10 -60l34 -104q13 -39 13 -79q0 -66 -34.5 -124t-107.5 -91q73 -33 107.5 -91t34.5 -124q0 -40 -13 -79l-34 -104q-10 -30 -10 -60q0 -46 25.5 -74t70.5 -28h99q11 0 17 -6t6 -17v-264q0 -11 -6 -17t-17 -6h-101
q-136 0 -234.5 50.5t-149.5 139t-51 200.5q0 72 21 148l32 116q4 13 4 27q0 18 -11 28.5t-33 10.5h-30q-24 0 -24 24v253q0 11 6.5 17t17.5 6h30q22 0 33 10.5t11 28.5q0 14 -4 27l-32 116q-21 77 -21 148q0 112 51 200.5t149.5 139t234.5 50.5h101q11 0 17 -6t6 -17v-263
q0 -11 -6 -17.5t-17 -6.5h-99z" />
    <glyph glyph-name="bar" unicode="|" horiz-adv-x="456" 
d="M102 -280q-11 0 -17.5 6t-6.5 17v1694q0 23 24 23h253q11 0 17 -6t6 -17v-1694q0 -11 -6 -17t-17 -6h-253z" />
    <glyph glyph-name="braceright" unicode="}" horiz-adv-x="700" 
d="M650 464q0 -11 -6 -17.5t-17 -6.5h-31q-22 0 -33 -10.5t-11 -28.5q0 -14 4 -27l32 -116q21 -76 21 -148q0 -112 -51 -200.5t-149.5 -139t-234.5 -50.5h-100q-11 0 -17.5 6t-6.5 17v264q0 11 6.5 17t17.5 6h98q45 0 70.5 28t25.5 74q0 30 -10 60l-34 104q-13 39 -13 79
q0 66 34.5 124t107.5 91q-73 33 -107.5 91t-34.5 124q0 40 13 79l34 104q10 30 10 60q0 46 -25.5 74t-70.5 28h-98q-11 0 -17.5 6.5t-6.5 17.5v263q0 11 6.5 17t17.5 6h100q136 0 234.5 -50.5t149.5 -139t51 -200.5q0 -71 -21 -148l-32 -116q-4 -13 -4 -27q0 -18 11 -28.5
t33 -10.5h31q11 0 17 -6t6 -17v-253z" />
    <glyph glyph-name="asciitilde" unicode="~" horiz-adv-x="1250" 
d="M100 522q-24 0 -24 24q5 234 90.5 373t257.5 139q77 0 137 -26.5t98.5 -61.5t80.5 -84q30 -34 45.5 -48t30.5 -14q41 0 55 48.5t15 145.5q0 24 24 24h243q23 0 23 -24q-4 -232 -88.5 -357t-249.5 -125q-71 0 -127 24t-93 56.5t-83 81.5q-34 38 -56 56t-44 18
q-40 0 -55 -57.5t-16 -167.5q0 -25 -23 -25h-241z" />
    <glyph glyph-name="exclamdown" unicode="&#xa1;" horiz-adv-x="528" 
d="M449 1030q11 0 17 -6t6 -17v-327q0 -11 -6 -17.5t-17 -6.5h-367q-11 0 -17.5 6.5t-6.5 17.5v327q0 11 6.5 17t17.5 6h367zM449 604q11 0 17 -6t6 -17v-928q0 -11 -6 -17t-17 -6h-367q-11 0 -17.5 6t-6.5 17v928q0 23 24 23h367z" />
    <glyph glyph-name="cent" unicode="&#xa2;" horiz-adv-x="1180" 
d="M1108 592q12 0 17.5 -5.5t4.5 -15.5q-13 -122 -90.5 -217t-202.5 -143v-187q0 -11 -6 -17.5t-17 -6.5h-379q-24 0 -24 24v173q-112 33 -193 104.5t-124.5 176t-43.5 234.5t43.5 236t125 179t192.5 106v134q0 11 6.5 17t17.5 6h379q11 0 17 -6t6 -17v-146
q120 -46 192.5 -138.5t86.5 -217.5q1 -12 -5 -18.5t-17 -6.5h-342q-22 0 -25 23q-11 65 -38.5 92t-74.5 27q-69 0 -101.5 -60.5t-32.5 -205.5q0 -146 32.5 -208t99.5 -62q49 0 82 30t40 93q3 23 25 23h349z" />
    <glyph glyph-name="sterling" unicode="&#xa3;" horiz-adv-x="1368" 
d="M1307 538q24 0 22 -31q-5 -183 -72 -302t-183.5 -173t-271.5 -50l-710 17q-11 0 -17.5 7t-6.5 18v256q0 23 21 27l37 7q55 7 76.5 51.5t27.5 116.5q2 54 -15 148h-169q-24 0 -24 24v233q0 23 24 23h109q-9 63 -9 98q0 127 65 223.5t191 150.5t302 54q237 0 389 -100.5
t184 -340.5q1 -12 -5 -18.5t-17 -6.5h-366q-22 0 -26 23q-9 63 -42.5 92t-96.5 29q-68 0 -103 -36.5t-35 -97.5q0 -24 4 -70h217q11 0 17 -6t6 -17v-233q0 -24 -23 -24h-171q4 -54 4 -86q0 -40 -14 -85.5t-48 -86t-90 -60.5l274 -6q60 -1 91.5 25.5t42.5 71t12 112.5
q0 23 24 23h375z" />
    <glyph glyph-name="currency" unicode="&#xa4;" horiz-adv-x="1288" 
d="M1224 308q8 -7 8 -16q0 -8 -8 -16l-154 -150q-7 -7 -16 -7t-17 7l-191 183q-95 -41 -198 -41q-98 0 -190 38l-186 -180q-7 -7 -16 -7t-17 7l-156 150q-8 10 -8 16q0 8 8 16l169 163q-68 101 -68 215q0 113 64 208l-175 170q-8 10 -8 16q0 8 8 16l154 150q10 8 17 8
q8 0 16 -8l191 -183q95 41 197 41q98 0 191 -38l186 180q10 8 17 8q8 0 16 -8l156 -150q8 -7 8 -16q0 -8 -8 -16l-168 -164q68 -100 68 -214q0 -113 -64 -208zM736.5 516.5q42.5 24.5 69 68.5t26.5 101t-26.5 101.5t-69 68.5t-88.5 24q-49 0 -90.5 -24t-66.5 -68t-25 -102
q0 -57 25 -101.5t67 -68.5t90 -24q46 0 88.5 24.5z" />
    <glyph glyph-name="yen" unicode="&#xa5;" horiz-adv-x="1360" 
d="M1343 1400q10 0 15.5 -4t5.5 -11q0 -5 -5 -13l-304 -492h92q11 0 17 -6t6 -17v-225q0 -24 -23 -24h-257l2 -122h255q11 0 17 -6t6 -17v-225q0 -24 -23 -24h-250l4 -190q0 -24 -22 -24h-395q-23 0 -23 24l4 190h-251q-24 0 -24 24v225q0 23 24 23h257l3 122h-260
q-24 0 -24 24v225q0 23 24 23h92l-305 492q-5 8 -5 13q0 7 6 11t16 4h427q20 0 27 -17l226 -487l224 487q7 17 27 17h394z" />
    <glyph glyph-name="brokenbar" unicode="&#xa6;" horiz-adv-x="456" 
d="M102 720q-11 0 -17.5 6.5t-6.5 17.5v693q0 23 24 23h253q11 0 17 -6t6 -17v-693q0 -24 -23 -24h-253zM102 -280q-11 0 -17.5 6t-6.5 17v694q0 23 24 23h253q11 0 17 -6t6 -17v-694q0 -11 -6 -17t-17 -6h-253z" />
    <glyph glyph-name="section" unicode="&#xa7;" horiz-adv-x="1392" 
d="M1283 170.5q51 -69.5 51 -176.5q0 -130 -78.5 -222.5t-216.5 -140t-313 -47.5q-179 0 -327.5 43t-239.5 124t-100 192q-1 24 23 24h362q11 0 16.5 -5t8.5 -17q11 -46 74.5 -67.5t182.5 -21.5q110 0 160 19.5t50 58.5q0 34 -34 55t-87 32t-151 25l-63 9q-151 21 -260 56
t-183 113t-74 212q0 93 51.5 161.5t150.5 110.5q-95 44 -148.5 113t-53.5 173q0 134 70 227t202.5 141t319.5 48q180 0 312 -42.5t209 -125t92 -199.5l1 -6q0 -9 -6 -14t-16 -5h-345q-20 0 -26 20q-19 51 -71 78.5t-156 27.5q-91 0 -139.5 -22t-48.5 -74q0 -35 34 -55.5
t89 -32t144 -21.5l31 -4q171 -22 281.5 -49.5t191.5 -98t81 -197.5q0 -100 -50 -178t-142 -130q90 -42 141 -111.5zM518 433q36 -23 93 -35.5t156 -26.5q89 28 129 56.5t40 64.5q0 34 -34.5 56t-89.5 35.5t-149 29.5q-94 -25 -137.5 -52.5t-43.5 -66.5q0 -38 36 -61z" />
    <glyph glyph-name="dieresis" unicode="&#xa8;" horiz-adv-x="944" 
d="M124 1090q-11 0 -17.5 6.5t-6.5 17.5v263q0 11 6.5 17t17.5 6h297q11 0 17 -6t6 -17v-263q0 -11 -6 -17.5t-17 -6.5h-297zM524 1090q-11 0 -17.5 6.5t-6.5 17.5v263q0 11 6.5 17t17.5 6h297q11 0 17 -6t6 -17v-263q0 -11 -6 -17.5t-17 -6.5h-297z" />
    <glyph glyph-name="copyright" unicode="&#xa9;" horiz-adv-x="1558" 
d="M387 58.5q-169 94.5 -261 261t-92 374.5q0 221 91 389t259.5 260.5t393.5 92.5q223 0 391.5 -91t261.5 -259t93 -392q0 -208 -92.5 -374t-262 -261t-391.5 -95t-391 94.5zM1096.5 178q128.5 70 193 201.5t64.5 314.5q0 182 -64.5 316.5t-194 208t-317.5 73.5
q-284 0 -428 -156t-144 -442q0 -182 65.5 -313.5t194.5 -202t316 -70.5q186 0 314.5 70zM554.5 304q-105.5 60 -163 163t-57.5 227q0 139 57.5 245.5t162 165.5t240.5 59q160 0 266 -70t150 -234q1 -3 1 -7q0 -9 -6 -14t-16 -5h-204q-21 0 -27 20q-19 54 -58.5 85t-107.5 31
q-96 0 -144 -69t-48 -203q0 -120 49 -191t139 -71q73 0 111.5 34t62.5 104q6 20 26 20h209q9 0 14.5 -5.5t5.5 -15.5l-2 -12q-50 -173 -152 -245t-265 -72q-138 0 -243.5 60z" />
    <glyph glyph-name="ordfeminine" unicode="&#xaa;" horiz-adv-x="1022" 
d="M955 1044l7 -424q0 -24 -24 -24h-274q-24 0 -23 24l2 65q-43 -51 -103 -78t-136 -27q-111 0 -191 54.5t-121.5 149.5t-41.5 214q0 117 46.5 213.5t132 152.5t195.5 56q134 0 211 -86l-3 48q-1 24 23 24h285q22 0 22 -23zM607.5 848.5q32.5 48.5 32.5 157.5q0 102 -30 149
t-92 47q-132 0 -132 -206q0 -103 32.5 -149.5t93.5 -46.5q63 0 95.5 48.5z" />
    <glyph glyph-name="guillemotleft" unicode="&#xab;" horiz-adv-x="1254" 
d="M400 68q-18 0 -29 14l-292 374q-7 11 -7 17q0 8 6 15l293 406q11 14 29 14h289q9 0 14.5 -4t5.5 -10q0 -7 -6 -15l-297 -407l296 -375q6 -7 6 -15q0 -6 -5.5 -10t-14.5 -4h-288zM880 68q-18 0 -29 14l-292 374q-7 11 -7 17q0 8 6 15l293 406q11 14 29 14h289q9 0 14.5 -4
t5.5 -10q0 -7 -6 -15l-297 -407l296 -375q6 -7 6 -15q0 -6 -5.5 -10t-14.5 -4h-288z" />
    <glyph glyph-name="logicalnot" unicode="&#xac;" horiz-adv-x="1240" 
d="M154 538q-24 0 -24 24v255q0 11 6.5 17t17.5 6h933q11 0 17 -6t6 -17v-633q0 -24 -23 -24h-267q-24 0 -24 24v354h-642z" />
    <glyph glyph-name="registered" unicode="&#xae;" horiz-adv-x="858" 
d="M230.5 703.5q-86.5 49.5 -133.5 136t-47 196.5q0 117 46 205t132 135.5t202 47.5q113 0 199 -47.5t133.5 -135t47.5 -205.5q0 -110 -47 -196.5t-133.5 -136t-199.5 -49.5t-199.5 49.5zM635.5 823.5q72.5 77.5 72.5 212.5q0 138 -71.5 217t-206.5 79q-140 0 -210 -77
t-70 -219q0 -136 72 -213t208 -77q133 0 205.5 77.5zM276 846q-24 0 -24 24v345q0 23 24 23h158q88 0 134 -32t46 -94q0 -81 -82 -114l81 -124q5 -8 5 -14t-5.5 -10t-14.5 -4h-99q-19 0 -29 16l-71 120h-13l-2 -112q0 -11 -6 -17.5t-17 -6.5h-85zM384 1146v-76h54
q18 0 33 10.5t15 29.5t-13 27.5t-39 8.5h-50z" />
    <glyph glyph-name="macron" unicode="&#xaf;" horiz-adv-x="914" 
d="M124 1120q-24 0 -24 24v203q0 11 6.5 17t17.5 6h667q10 0 16.5 -6t6.5 -17v-203q0 -11 -6 -17.5t-17 -6.5h-667z" />
    <glyph glyph-name="macron" unicode="&#x2c9;" horiz-adv-x="914" 
d="M124 1120q-24 0 -24 24v203q0 11 6.5 17t17.5 6h667q10 0 16.5 -6t6.5 -17v-203q0 -11 -6 -17.5t-17 -6.5h-667z" />
    <glyph glyph-name="degree" unicode="&#xb0;" horiz-adv-x="862" 
d="M239 771q-86 45 -134.5 124t-48.5 177q0 99 49 178t134.5 123.5t192.5 44.5t192.5 -44.5t134.5 -123.5t49 -178q0 -98 -49 -177t-135 -124t-192 -45q-107 0 -193 45zM498 982q26 30 26 90q0 61 -26 91.5t-66 30.5q-43 0 -67.5 -30t-24.5 -92q0 -61 25 -90.5t67 -29.5
q40 0 66 30z" />
    <glyph glyph-name="plusminus" unicode="&#xb1;" horiz-adv-x="1240" 
d="M778 658v-354v-2h309q11 0 17 -6t6 -17v-255q0 -11 -6 -17.5t-17 -6.5h-933q-24 0 -24 24v255q0 11 6.5 17t17.5 6h310v2v354h-310q-24 0 -24 24v255q0 11 6.5 17t17.5 6h310v357q0 11 6.5 17t17.5 6h267q11 0 17 -6t6 -17v-357h309q11 0 17 -6t6 -17v-255
q0 -11 -6 -17.5t-17 -6.5h-309z" />
    <glyph glyph-name="two.sups" unicode="&#xb2;" horiz-adv-x="697" 
d="M63 596q-11 0 -17.5 6.5t-6.5 17.5v97q0 98 35.5 161t85 96.5t125.5 68.5q48 22 74 37.5t43.5 37t17.5 52.5t-19 48t-53 17q-28 0 -47.5 -15.5t-25.5 -44.5q-4 -23 -25 -23h-175q-12 0 -18 6.5t-5 17.5q11 119 89.5 181t222.5 63q130 0 205 -66.5t75 -182.5
q0 -79 -34.5 -132.5t-81.5 -85t-119 -66.5q-64 -32 -92.5 -53t-28.5 -51v-9h339q11 0 17 -6t6 -17v-131q0 -24 -23 -24h-564z" />
    <glyph glyph-name="three.sups" unicode="&#xb3;" horiz-adv-x="697" 
d="M30 836l-1 5q0 9 6.5 14t16.5 5h184q21 0 24 -23q5 -38 27.5 -59t57.5 -21q37 0 59.5 26t22.5 68q0 40 -25 62t-70 22h-66q-11 0 -17.5 6.5t-6.5 17.5v113q0 23 24 23h66q38 0 61.5 18.5t23.5 48.5q0 39 -21 58t-53 19q-26 0 -44.5 -14t-24.5 -42q-5 -23 -25 -23h-184
q-12 0 -18 6.5t-4 18.5q15 111 98.5 173t209.5 62q84 0 149.5 -29t102.5 -81t37 -119q0 -118 -111 -157q145 -49 145 -184q0 -88 -46 -150t-120 -93.5t-158 -31.5q-289 0 -320 261z" />
    <glyph glyph-name="acute" unicode="&#xb4;" horiz-adv-x="852" 
d="M182 1085q-2 -1 -7 -1q-17 0 -21 18l-48 160q-1 3 -1 9q0 15 16 21l518 197q4 2 11 2q14 0 19 -16l76 -259q1 -3 1 -9q0 -16 -18 -19z" />
    <glyph glyph-name="uni03BC" unicode="&#xb5;" horiz-adv-x="1228" 
d="M485 388q0 -54 24 -82t69 -28q70 0 118 73.5t49 246.5l-1 64l-4 345q0 23 23 23h381q22 0 22 -23l-7 -497l4 -486q0 -24 -24 -24h-357q-24 0 -23 24l5 96q-43 -65 -117 -102.5t-155 -39.5h-5l3 -295q0 -23 -24 -23h-383q-23 0 -23 23l10 911l-6 413q0 23 23 23h381
q23 0 23 -23l-6 -413v-206z" />
    <glyph glyph-name="uni03BC" unicode="&#x3bc;" horiz-adv-x="1228" 
d="M485 388q0 -54 24 -82t69 -28q70 0 118 73.5t49 246.5l-1 64l-4 345q0 23 23 23h381q22 0 22 -23l-7 -497l4 -486q0 -24 -24 -24h-357q-24 0 -23 24l5 96q-43 -65 -117 -102.5t-155 -39.5h-5l3 -295q0 -23 -24 -23h-383q-23 0 -23 23l10 911l-6 413q0 23 23 23h381
q23 0 23 -23l-6 -413v-206z" />
    <glyph glyph-name="paragraph" unicode="&#xb6;" horiz-adv-x="1620" 
d="M1503 657l14 -944q0 -23 -23 -23h-392q-24 0 -24 23l10 511v208h-64l2 -210l11 -509q0 -23 -22 -23h-388q-23 0 -23 23l10 503l5 216q-173 5 -295 67t-185 171t-63 254q0 236 143.5 356t422.5 120h852q22 0 22 -23z" />
    <glyph glyph-name="periodcentered" unicode="&#xb7;" horiz-adv-x="530" 
d="M78 420q-11 0 -17.5 6.5t-6.5 17.5v325q0 11 6.5 17t17.5 6h375q11 0 17 -6t6 -17v-325q0 -11 -6 -17.5t-17 -6.5h-375z" />
    <glyph glyph-name="periodcentered" unicode="&#x2219;" horiz-adv-x="530" 
d="M78 420q-11 0 -17.5 6.5t-6.5 17.5v325q0 11 6.5 17t17.5 6h375q11 0 17 -6t6 -17v-325q0 -11 -6 -17.5t-17 -6.5h-375z" />
    <glyph glyph-name="cedilla" unicode="&#xb8;" horiz-adv-x="684" 
d="M496 -354q-6 -22 -28 -19l-342 45q-20 3 -20 19l2 9l111 320q6 21 28 19l312 -19q24 -1 19 -27z" />
    <glyph glyph-name="one.sups" unicode="&#xb9;" horiz-adv-x="505" 
d="M215 596q-24 0 -24 24l4 323l-2 190q-61 -58 -131 -81q-3 -1 -8 -1q-9 0 -14 5.5t-5 15.5v134q0 19 19 27q104 40 150 149q8 18 27 18h181q23 0 23 -23l-1 -393l3 -364q0 -24 -24 -24h-198z" />
    <glyph glyph-name="ordmasculine" unicode="&#xba;" horiz-adv-x="992" 
d="M258 624q-101 52 -154.5 148t-53.5 226t53.5 227t154.5 150t240 53q140 0 239.5 -51t152 -146.5t52.5 -226.5q0 -130 -52.5 -227.5t-152.5 -151t-239 -53.5t-240 52zM560 808.5q23 18.5 34.5 63.5t11.5 126q0 117 -26.5 166.5t-83.5 49.5q-40 -2 -64.5 -23.5t-36 -68
t-11.5 -126.5q0 -79 12.5 -124t37 -63.5t64.5 -18.5q39 0 62 18.5z" />
    <glyph glyph-name="guillemotright" unicode="&#xbb;" horiz-adv-x="1254" 
d="M86 68q-9 0 -14 4t-5 10q0 8 6 15l295 375l-297 407q-6 8 -6 15q0 6 5.5 10t14.5 4h289q19 0 29 -14l293 -406q6 -7 6 -16q0 -8 -7 -16l-292 -374q-10 -14 -29 -14h-288zM566 68q-9 0 -14 4t-5 10q0 8 6 15l295 375l-297 407q-6 8 -6 15q0 6 5.5 10t14.5 4h289
q19 0 29 -14l293 -406q6 -7 6 -16q0 -8 -7 -16l-292 -374q-10 -14 -29 -14h-288z" />
    <glyph glyph-name="onequarter" unicode="&#xbc;" horiz-adv-x="1619" 
d="M215 596q-24 0 -24 24l4 323l-2 190q-61 -58 -131 -81q-3 -1 -8 -1q-9 0 -14 5.5t-5 15.5v134q0 19 19 27q104 40 150 149q8 18 27 18h181q23 0 23 -23l-1 -393l3 -364q0 -24 -24 -24h-198zM129 0q-9 0 -14.5 4t-5.5 10t6 15l1106 1358q10 13 28 13h232q9 0 14.5 -4
t5.5 -10t-6 -15l-1106 -1357q-10 -14 -28 -14h-232zM1566 324q11 0 17 -6t6 -17v-130q0 -24 -23 -24h-68v-124q0 -11 -6 -17t-17 -6h-197q-24 0 -24 23l1 124h-321q-11 0 -17.5 6.5t-6.5 17.5v168q0 16 9 29l256 421q11 15 29 15h271q11 0 17 -6t6 -17v-457h68zM1257 324
l1 112l2 162l-159 -274h156z" />
    <glyph glyph-name="onehalf" unicode="&#xbd;" horiz-adv-x="1703" 
d="M215 596q-24 0 -24 24l4 323l-2 190q-61 -58 -131 -81q-3 -1 -8 -1q-9 0 -14 5.5t-5 15.5v134q0 19 19 27q104 40 150 149q8 18 27 18h181q23 0 23 -23l-1 -393l3 -364q0 -24 -24 -24h-198zM120 0q-9 0 -14.5 4t-5.5 10t6 15l1106 1358q10 13 28 13h232q9 0 14.5 -4
t5.5 -10t-6 -15l-1106 -1357q-10 -14 -28 -14h-232zM1069 0q-11 0 -17.5 6.5t-6.5 17.5v97q0 98 35.5 161t85 96.5t125.5 68.5q48 22 74 37.5t43.5 37t17.5 52.5t-19 48t-53 17q-28 0 -47.5 -15.5t-25.5 -44.5q-4 -23 -25 -23h-175q-12 0 -18 6.5t-5 17.5q11 119 89.5 181
t222.5 63q130 0 205 -66.5t75 -182.5q0 -79 -34.5 -132.5t-81.5 -85t-119 -66.5q-64 -32 -92.5 -53t-28.5 -51v-9h339q11 0 17 -6t6 -17v-131q0 -24 -23 -24h-564z" />
    <glyph glyph-name="threequarters" unicode="&#xbe;" horiz-adv-x="1671" 
d="M30 836l-1 5q0 9 6.5 14t16.5 5h184q21 0 24 -23q5 -38 27.5 -59t57.5 -21q37 0 59.5 26t22.5 68q0 40 -25 62t-70 22h-66q-11 0 -17.5 6.5t-6.5 17.5v113q0 23 24 23h66q38 0 61.5 18.5t23.5 48.5q0 39 -21 58t-53 19q-26 0 -44.5 -14t-24.5 -42q-5 -23 -25 -23h-184
q-12 0 -18 6.5t-4 18.5q15 111 98.5 173t209.5 62q84 0 149.5 -29t102.5 -81t37 -119q0 -118 -111 -157q145 -49 145 -184q0 -88 -46 -150t-120 -93.5t-158 -31.5q-289 0 -320 261zM182 0q-9 0 -14.5 4t-5.5 10t6 15l1106 1358q10 13 28 13h232q9 0 14.5 -4t5.5 -10t-6 -15
l-1106 -1357q-10 -14 -28 -14h-232zM1618 324q11 0 17 -6t6 -17v-130q0 -24 -23 -24h-68v-124q0 -11 -6 -17t-17 -6h-197q-24 0 -24 23l1 124h-321q-11 0 -17.5 6.5t-6.5 17.5v168q0 16 9 29l256 421q11 15 29 15h271q11 0 17 -6t6 -17v-457h68zM1309 324l1 112l2 162
l-159 -274h156z" />
    <glyph glyph-name="questiondown" unicode="&#xbf;" horiz-adv-x="1178" 
d="M773 1030q11 0 17 -6t6 -17v-327q0 -11 -6 -17.5t-17 -6.5h-375q-11 0 -17.5 6.5t-6.5 17.5v327q0 11 6.5 17t17.5 6h375zM773 604q23 0 23 -25q-4 -114 -38.5 -195t-79 -130t-110.5 -104q-55 -46 -78.5 -74t-23.5 -64q0 -52 34 -79t98 -27q60 0 94.5 30.5t41.5 88.5
q3 23 25 23h349q11 0 17 -6.5t5 -17.5q-16 -211 -157.5 -320.5t-398.5 -109.5q-150 0 -270.5 53t-189 149.5t-68.5 221.5q0 76 23 131t56.5 92t89.5 84q50 42 80 74t52 77t26 105q2 23 25 23h375z" />
    <glyph glyph-name="Agrave" unicode="&#xc0;" horiz-adv-x="1532" 
d="M1517 27l2 -9q0 -8 -5.5 -13t-15.5 -5h-405q-21 0 -26 20l-79 268h-453l-73 -268q-6 -20 -27 -20h-403q-10 0 -15.5 5t-5.5 13l2 9l457 1354q6 19 26 19h556q20 0 26 -19zM889 624l-135 458l-126 -458h261zM1008 1472q-5 -22 -28 -17l-545 103q-19 3 -19 20q0 5 1 8
l76 259q5 16 19 16q7 0 11 -2l518 -197q16 -6 16 -21q0 -6 -1 -9z" />
    <glyph glyph-name="Aacute" unicode="&#xc1;" horiz-adv-x="1532" 
d="M1517 27l2 -9q0 -8 -5.5 -13t-15.5 -5h-405q-21 0 -26 20l-79 268h-453l-73 -268q-6 -20 -27 -20h-403q-10 0 -15.5 5t-5.5 13l2 9l457 1354q6 19 26 19h556q20 0 26 -19zM889 624l-135 458l-126 -458h261zM568 1455q-2 -1 -7 -1q-17 0 -21 18l-48 160q-1 3 -1 9
q0 15 16 21l518 197q4 2 11 2q14 0 19 -16l76 -259q1 -3 1 -9q0 -16 -18 -19z" />
    <glyph glyph-name="Acircumflex" unicode="&#xc2;" horiz-adv-x="1532" 
d="M1517 27l2 -9q0 -8 -5.5 -13t-15.5 -5h-405q-21 0 -26 20l-79 268h-453l-73 -268q-6 -20 -27 -20h-403q-10 0 -15.5 5t-5.5 13l2 9l457 1354q6 19 26 19h556q20 0 26 -19zM889 624l-135 458l-126 -458h261zM368 1615q-2 4 -2 12q0 13 10 20l303 243q13 10 29 10h132
q16 0 29 -10l303 -243q11 -8 11 -19q0 -7 -3 -13l-61 -148q-5 -15 -18 -15q-3 0 -13 4l-314 162l-312 -164q-10 -4 -13 -4q-12 0 -18 15z" />
    <glyph glyph-name="Atilde" unicode="&#xc3;" horiz-adv-x="1532" 
d="M1517 27l2 -9q0 -8 -5.5 -13t-15.5 -5h-405q-21 0 -26 20l-79 268h-453l-73 -268q-6 -20 -27 -20h-403q-10 0 -15.5 5t-5.5 13l2 9l457 1354q6 19 26 19h556q20 0 26 -19zM889 624l-135 458l-126 -458h261zM817.5 1490.5q-38.5 13.5 -83.5 37.5q-27 14 -43.5 20.5
t-30.5 6.5q-22 0 -31.5 -16t-11.5 -45q-2 -23 -24 -23h-155q-24 0 -24 24q5 141 64 225.5t174 84.5q45 0 81 -13.5t87 -38.5q27 -14 41 -20t25 -6q23 0 33 14.5t12 43.5q1 11 7.5 17.5t17.5 6.5h155q24 0 22 -32q-5 -145 -61 -222.5t-166 -77.5q-50 0 -88.5 13.5z" />
    <glyph glyph-name="Adieresis" unicode="&#xc4;" horiz-adv-x="1532" 
d="M1517 27l2 -9q0 -8 -5.5 -13t-15.5 -5h-405q-21 0 -26 20l-79 268h-453l-73 -268q-6 -20 -27 -20h-403q-10 0 -15.5 5t-5.5 13l2 9l457 1354q6 19 26 19h556q20 0 26 -19zM889 624l-135 458l-126 -458h261zM426 1460q-11 0 -17.5 6.5t-6.5 17.5v263q0 11 6.5 17t17.5 6
h297q11 0 17 -6t6 -17v-263q0 -11 -6 -17.5t-17 -6.5h-297zM826 1460q-11 0 -17.5 6.5t-6.5 17.5v263q0 11 6.5 17t17.5 6h297q11 0 17 -6t6 -17v-263q0 -11 -6 -17.5t-17 -6.5h-297z" />
    <glyph glyph-name="Aring" unicode="&#xc5;" horiz-adv-x="1532" 
d="M1517 27l2 -9q0 -8 -5.5 -13t-15.5 -5h-405q-21 0 -26 20l-79 268h-453l-73 -268q-6 -20 -27 -20h-403q-10 0 -15.5 5t-5.5 13l2 9l457 1354q6 19 26 19h556q20 0 26 -19zM889 624l-135 458l-126 -458h261zM626 1497.5q-69 35.5 -108.5 97t-39.5 137.5q0 77 39.5 139
t108.5 97.5t154 35.5t154 -35.5t108.5 -97.5t39.5 -139q0 -76 -39.5 -137.5t-108.5 -97t-154 -35.5t-154 35.5zM849.5 1651.5q26.5 27.5 26.5 80.5q0 56 -26.5 83t-69.5 27q-44 0 -70 -27t-26 -83q0 -55 26 -81.5t70 -26.5q43 0 69.5 27.5z" />
    <glyph glyph-name="AE" unicode="&#xc6;" horiz-adv-x="1978" 
d="M1909 312q11 0 17 -6t6 -17v-265q0 -24 -23 -24h-943q-23 0 -23 24l3 264h-400l-116 -270q-7 -18 -28 -18h-381q-10 0 -15.5 4.5t-5.5 11.5q0 6 3 12l639 1355q7 17 27 17h1224q11 0 17 -6t6 -17v-263q0 -11 -6 -17.5t-17 -6.5h-525l-5 -204h462q11 0 17 -6t6 -17v-263
q0 -11 -6 -17.5t-17 -6.5h-462l5 -264h541zM946 1120h-42l-213 -496h260l1 52z" />
    <glyph glyph-name="Ccedilla" unicode="&#xc7;" horiz-adv-x="1538" 
d="M1464 504q12 0 17.5 -7t3.5 -19q-47 -212 -177 -337.5t-331 -161.5l-79 -333q-6 -22 -28 -19l-342 45q-20 3 -20 19l2 9l99 285q-169 38 -295 138t-194 247t-68 322q0 221 93 389.5t262.5 261.5t392.5 93q273 0 446 -131t229 -389l1 -6q0 -20 -22 -20h-384q-21 0 -26 21
q-24 102 -85.5 151.5t-164.5 49.5q-136 0 -209 -105.5t-73 -300.5q0 -202 74.5 -310t217.5 -108q99 0 160.5 48.5t82.5 145.5q3 22 25 22h392z" />
    <glyph glyph-name="Egrave" unicode="&#xc8;" horiz-adv-x="1210" 
d="M93 0q-23 0 -23 24l13 652l-13 701q0 23 23 23h1032q11 0 17 -6t6 -17v-263q0 -11 -6 -17.5t-17 -6.5h-609l-5 -204h546q11 0 17 -6t6 -17v-263q0 -11 -6 -17.5t-17 -6.5h-546l5 -264h625q11 0 17 -6t6 -17v-265q0 -24 -23 -24h-1048zM853 1472q-5 -22 -28 -17l-545 103
q-19 3 -19 20q0 5 1 8l76 259q5 16 19 16q7 0 11 -2l518 -197q16 -6 16 -21q0 -6 -1 -9z" />
    <glyph glyph-name="Eacute" unicode="&#xc9;" horiz-adv-x="1210" 
d="M93 0q-23 0 -23 24l13 652l-13 701q0 23 23 23h1032q11 0 17 -6t6 -17v-263q0 -11 -6 -17.5t-17 -6.5h-609l-5 -204h546q11 0 17 -6t6 -17v-263q0 -11 -6 -17.5t-17 -6.5h-546l5 -264h625q11 0 17 -6t6 -17v-265q0 -24 -23 -24h-1048zM413 1455q-2 -1 -7 -1q-17 0 -21 18
l-48 160q-1 3 -1 9q0 15 16 21l518 197q4 2 11 2q14 0 19 -16l76 -259q1 -3 1 -9q0 -16 -18 -19z" />
    <glyph glyph-name="Ecircumflex" unicode="&#xca;" horiz-adv-x="1210" 
d="M93 0q-23 0 -23 24l13 652l-13 701q0 23 23 23h1032q11 0 17 -6t6 -17v-263q0 -11 -6 -17.5t-17 -6.5h-609l-5 -204h546q11 0 17 -6t6 -17v-263q0 -11 -6 -17.5t-17 -6.5h-546l5 -264h625q11 0 17 -6t6 -17v-265q0 -24 -23 -24h-1048zM213 1615q-2 4 -2 12q0 13 10 20
l303 243q13 10 29 10h132q16 0 29 -10l303 -243q11 -8 11 -19q0 -7 -3 -13l-61 -148q-5 -15 -18 -15q-3 0 -13 4l-314 162l-312 -164q-10 -4 -13 -4q-12 0 -18 15z" />
    <glyph glyph-name="Edieresis" unicode="&#xcb;" horiz-adv-x="1210" 
d="M93 0q-23 0 -23 24l13 652l-13 701q0 23 23 23h1032q11 0 17 -6t6 -17v-263q0 -11 -6 -17.5t-17 -6.5h-609l-5 -204h546q11 0 17 -6t6 -17v-263q0 -11 -6 -17.5t-17 -6.5h-546l5 -264h625q11 0 17 -6t6 -17v-265q0 -24 -23 -24h-1048zM271 1460q-11 0 -17.5 6.5
t-6.5 17.5v263q0 11 6.5 17t17.5 6h297q11 0 17 -6t6 -17v-263q0 -11 -6 -17.5t-17 -6.5h-297zM671 1460q-11 0 -17.5 6.5t-6.5 17.5v263q0 11 6.5 17t17.5 6h297q11 0 17 -6t6 -17v-263q0 -11 -6 -17.5t-17 -6.5h-297z" />
    <glyph glyph-name="Igrave" unicode="&#xcc;" horiz-adv-x="604" 
d="M103 0q-23 0 -23 24l11 662l-11 691q0 23 23 23h399q22 0 22 -23l-11 -691l11 -662q0 -24 -22 -24h-399zM536 1472q-5 -22 -28 -17l-545 103q-19 3 -19 20q0 5 1 8l76 259q5 16 19 16q7 0 11 -2l518 -197q16 -6 16 -21q0 -6 -1 -9z" />
    <glyph glyph-name="Iacute" unicode="&#xcd;" horiz-adv-x="604" 
d="M103 0q-23 0 -23 24l11 662l-11 691q0 23 23 23h399q22 0 22 -23l-11 -691l11 -662q0 -24 -22 -24h-399zM96 1455q-2 -1 -7 -1q-17 0 -21 18l-48 160q-1 3 -1 9q0 15 16 21l518 197q4 2 11 2q14 0 19 -16l76 -259q1 -3 1 -9q0 -16 -18 -19z" />
    <glyph glyph-name="Icircumflex" unicode="&#xce;" horiz-adv-x="604" 
d="M103 0q-23 0 -23 24l11 662l-11 691q0 23 23 23h399q22 0 22 -23l-11 -691l11 -662q0 -24 -22 -24h-399zM-104 1615q-2 4 -2 12q0 13 10 20l303 243q13 10 29 10h132q16 0 29 -10l303 -243q11 -8 11 -19q0 -7 -3 -13l-61 -148q-5 -15 -18 -15q-3 0 -13 4l-314 162
l-312 -164q-10 -4 -13 -4q-12 0 -18 15z" />
    <glyph glyph-name="Idieresis" unicode="&#xcf;" horiz-adv-x="604" 
d="M103 0q-23 0 -23 24l11 662l-11 691q0 23 23 23h399q22 0 22 -23l-11 -691l11 -662q0 -24 -22 -24h-399zM-46 1460q-11 0 -17.5 6.5t-6.5 17.5v263q0 11 6.5 17t17.5 6h297q11 0 17 -6t6 -17v-263q0 -11 -6 -17.5t-17 -6.5h-297zM354 1460q-11 0 -17.5 6.5t-6.5 17.5v263
q0 11 6.5 17t17.5 6h297q11 0 17 -6t6 -17v-263q0 -11 -6 -17.5t-17 -6.5h-297z" />
    <glyph glyph-name="Eth" unicode="&#xd0;" horiz-adv-x="1524" 
d="M676 1400q220 0 399 -72t288 -233t109 -415q0 -246 -106 -397.5t-283 -217t-403 -65.5h-543q-23 0 -23 24l9 564h-49q-11 0 -17.5 6.5t-6.5 17.5v261q0 11 6.5 17t17.5 6h48l-8 481q0 23 23 23h539zM696 312q159 0 239.5 88t80.5 284q0 208 -87.5 307t-240.5 99h-123
l-5 -194h203q11 0 17 -6t6 -17v-261q0 -11 -6 -17.5t-17 -6.5h-205l7 -276h131z" />
    <glyph glyph-name="Ntilde" unicode="&#xd1;" horiz-adv-x="1438" 
d="M93 0q-24 0 -24 24l10 664l-10 689q0 23 24 23h440q19 0 28 -16l419 -748l-8 98l-1 643q0 23 24 23h349q23 0 23 -23l-10 -689l11 -664q0 -24 -22 -24h-455q-18 0 -28 16l-405 740l8 -116l1 -616q0 -24 -23 -24h-351zM783.5 1490.5q-38.5 13.5 -83.5 37.5
q-27 14 -43.5 20.5t-30.5 6.5q-22 0 -31.5 -16t-11.5 -45q-2 -23 -24 -23h-155q-24 0 -24 24q5 141 64 225.5t174 84.5q45 0 81 -13.5t87 -38.5q27 -14 41 -20t25 -6q23 0 33 14.5t12 43.5q1 11 7.5 17.5t17.5 6.5h155q24 0 22 -32q-5 -145 -61 -222.5t-166 -77.5
q-50 0 -88.5 13.5z" />
    <glyph glyph-name="Ograve" unicode="&#xd2;" horiz-adv-x="1614" 
d="M410 58.5q-171 94.5 -264.5 261t-93.5 374.5q0 221 92.5 389t263 260.5t398.5 92.5q226 0 397 -91t265 -259t94 -392q0 -208 -93.5 -374t-265.5 -261t-397 -95t-396 94.5zM1031.5 395q74.5 107 74.5 299q0 196 -75 307t-225 111t-224 -108.5t-74 -309.5q0 -190 77.5 -298
t224.5 -108t221.5 107zM1032 1472q-5 -22 -28 -17l-545 103q-19 3 -19 20q0 5 1 8l76 259q5 16 19 16q7 0 11 -2l518 -197q16 -6 16 -21q0 -6 -1 -9z" />
    <glyph glyph-name="Oacute" unicode="&#xd3;" horiz-adv-x="1614" 
d="M410 58.5q-171 94.5 -264.5 261t-93.5 374.5q0 221 92.5 389t263 260.5t398.5 92.5q226 0 397 -91t265 -259t94 -392q0 -208 -93.5 -374t-265.5 -261t-397 -95t-396 94.5zM1031.5 395q74.5 107 74.5 299q0 196 -75 307t-225 111t-224 -108.5t-74 -309.5q0 -190 77.5 -298
t224.5 -108t221.5 107zM592 1455q-2 -1 -7 -1q-17 0 -21 18l-48 160q-1 3 -1 9q0 15 16 21l518 197q4 2 11 2q14 0 19 -16l76 -259q1 -3 1 -9q0 -16 -18 -19z" />
    <glyph glyph-name="Ocircumflex" unicode="&#xd4;" horiz-adv-x="1614" 
d="M410 58.5q-171 94.5 -264.5 261t-93.5 374.5q0 221 92.5 389t263 260.5t398.5 92.5q226 0 397 -91t265 -259t94 -392q0 -208 -93.5 -374t-265.5 -261t-397 -95t-396 94.5zM1031.5 395q74.5 107 74.5 299q0 196 -75 307t-225 111t-224 -108.5t-74 -309.5q0 -190 77.5 -298
t224.5 -108t221.5 107zM392 1615q-2 4 -2 12q0 13 10 20l303 243q13 10 29 10h132q16 0 29 -10l303 -243q11 -8 11 -19q0 -7 -3 -13l-61 -148q-5 -15 -18 -15q-3 0 -13 4l-314 162l-312 -164q-10 -4 -13 -4q-12 0 -18 15z" />
    <glyph glyph-name="Otilde" unicode="&#xd5;" horiz-adv-x="1614" 
d="M410 58.5q-171 94.5 -264.5 261t-93.5 374.5q0 221 92.5 389t263 260.5t398.5 92.5q226 0 397 -91t265 -259t94 -392q0 -208 -93.5 -374t-265.5 -261t-397 -95t-396 94.5zM1031.5 395q74.5 107 74.5 299q0 196 -75 307t-225 111t-224 -108.5t-74 -309.5q0 -190 77.5 -298
t224.5 -108t221.5 107zM841.5 1490.5q-38.5 13.5 -83.5 37.5q-27 14 -43.5 20.5t-30.5 6.5q-22 0 -31.5 -16t-11.5 -45q-2 -23 -24 -23h-155q-24 0 -24 24q5 141 64 225.5t174 84.5q45 0 81 -13.5t87 -38.5q27 -14 41 -20t25 -6q23 0 33 14.5t12 43.5q1 11 7.5 17.5
t17.5 6.5h155q24 0 22 -32q-5 -145 -61 -222.5t-166 -77.5q-50 0 -88.5 13.5z" />
    <glyph glyph-name="Odieresis" unicode="&#xd6;" horiz-adv-x="1614" 
d="M410 58.5q-171 94.5 -264.5 261t-93.5 374.5q0 221 92.5 389t263 260.5t398.5 92.5q226 0 397 -91t265 -259t94 -392q0 -208 -93.5 -374t-265.5 -261t-397 -95t-396 94.5zM1031.5 395q74.5 107 74.5 299q0 196 -75 307t-225 111t-224 -108.5t-74 -309.5q0 -190 77.5 -298
t224.5 -108t221.5 107zM450 1468q-11 0 -17.5 6.5t-6.5 17.5v263q0 11 6.5 17t17.5 6h297q11 0 17 -6t6 -17v-263q0 -11 -6 -17.5t-17 -6.5h-297zM850 1468q-11 0 -17.5 6.5t-6.5 17.5v263q0 11 6.5 17t17.5 6h297q11 0 17 -6t6 -17v-263q0 -11 -6 -17.5t-17 -6.5h-297z" />
    <glyph glyph-name="multiply" unicode="&#xd7;" horiz-adv-x="1240" 
d="M834 690l250 -250q8 -7 8 -16q0 -8 -8 -16l-180 -183q-7 -9 -16 -9q-8 0 -16 8l-252 252l-252 -252q-8 -8 -15 -8q-8 0 -17 9l-180 183q-8 10 -8 16q0 8 8 16l250 250l-252 252q-8 8 -8 15q0 8 9 17l183 180q8 8 16 8q9 0 16 -8l251 -251l251 251q8 8 16 8q9 0 16 -8
l183 -180q8 -7 8 -16q0 -8 -8 -16z" />
    <glyph glyph-name="Oslash" unicode="&#xd8;" horiz-adv-x="1594" 
d="M1416 1166q71 -93 108.5 -212.5t37.5 -259.5q0 -208 -93.5 -374t-265.5 -261t-397 -95q-181 0 -329 63l-128 -154q-7 -10 -17 -10q-9 0 -16 7l-233 213q-8 8 -8 17q0 7 6 16l110 133q-68 92 -103.5 205t-35.5 240q0 221 92.5 389t263 260.5t398.5 92.5q173 0 317 -55
l128 153q8 9 17 9t16 -7l233 -212q9 -9 9 -18q0 -8 -6 -16zM582 1003.5q-74 -108.5 -74 -309.5q0 -58 8 -116l417 507q-54 27 -127 27q-150 0 -224 -108.5zM1031.5 395q74.5 107 74.5 299q0 83 -13 148l-426 -520q62 -34 143 -34q147 0 221.5 107z" />
    <glyph glyph-name="Ugrave" unicode="&#xd9;" horiz-adv-x="1389" 
d="M236.5 103q-161.5 139 -161.5 407v318l-6 549q0 23 24 23h412q23 0 23 -23l-7 -537v-326q0 -115 45 -164.5t137 -49.5q108 0 159 49t51 165v316l-6 547q0 23 24 23h366q23 0 23 -23l-5 -549v-318q0 -270 -154 -408t-458 -138q-305 0 -466.5 139zM953 1472q-5 -22 -28 -17
l-545 103q-19 3 -19 20q0 5 1 8l76 259q5 16 19 16q7 0 11 -2l518 -197q16 -6 16 -21q0 -6 -1 -9z" />
    <glyph glyph-name="Uacute" unicode="&#xda;" horiz-adv-x="1389" 
d="M236.5 103q-161.5 139 -161.5 407v318l-6 549q0 23 24 23h412q23 0 23 -23l-7 -537v-326q0 -115 45 -164.5t137 -49.5q108 0 159 49t51 165v316l-6 547q0 23 24 23h366q23 0 23 -23l-5 -549v-318q0 -270 -154 -408t-458 -138q-305 0 -466.5 139zM513 1455q-2 -1 -7 -1
q-17 0 -21 18l-48 160q-1 3 -1 9q0 15 16 21l518 197q4 2 11 2q14 0 19 -16l76 -259q1 -3 1 -9q0 -16 -18 -19z" />
    <glyph glyph-name="Ucircumflex" unicode="&#xdb;" horiz-adv-x="1389" 
d="M236.5 103q-161.5 139 -161.5 407v318l-6 549q0 23 24 23h412q23 0 23 -23l-7 -537v-326q0 -115 45 -164.5t137 -49.5q108 0 159 49t51 165v316l-6 547q0 23 24 23h366q23 0 23 -23l-5 -549v-318q0 -270 -154 -408t-458 -138q-305 0 -466.5 139zM313 1615q-2 4 -2 12
q0 13 10 20l303 243q13 10 29 10h132q16 0 29 -10l303 -243q11 -8 11 -19q0 -7 -3 -13l-61 -148q-5 -15 -18 -15q-3 0 -13 4l-314 162l-312 -164q-10 -4 -13 -4q-12 0 -18 15z" />
    <glyph glyph-name="Udieresis" unicode="&#xdc;" horiz-adv-x="1389" 
d="M236.5 103q-161.5 139 -161.5 407v318l-6 549q0 23 24 23h412q23 0 23 -23l-7 -537v-326q0 -115 45 -164.5t137 -49.5q108 0 159 49t51 165v316l-6 547q0 23 24 23h366q23 0 23 -23l-5 -549v-318q0 -270 -154 -408t-458 -138q-305 0 -466.5 139zM371 1460
q-11 0 -17.5 6.5t-6.5 17.5v263q0 11 6.5 17t17.5 6h297q11 0 17 -6t6 -17v-263q0 -11 -6 -17.5t-17 -6.5h-297zM771 1460q-11 0 -17.5 6.5t-6.5 17.5v263q0 11 6.5 17t17.5 6h297q11 0 17 -6t6 -17v-263q0 -11 -6 -17.5t-17 -6.5h-297z" />
    <glyph glyph-name="Yacute" unicode="&#xdd;" horiz-adv-x="1392" 
d="M5 1372q-4 7 -4 13q0 7 5 11t15 4h449q20 0 27 -18l215 -515l217 515q8 18 27 18h415q20 0 20 -16q0 -6 -3 -12l-470 -936l7 -412q0 -24 -23 -24h-407q-24 0 -24 24l7 408zM508 1455q-2 -1 -7 -1q-17 0 -21 18l-48 160q-1 3 -1 9q0 15 16 21l518 197q4 2 11 2
q14 0 19 -16l76 -259q1 -3 1 -9q0 -16 -18 -19z" />
    <glyph glyph-name="Thorn" unicode="&#xde;" horiz-adv-x="1278" 
d="M686 1186q278 0 422 -120.5t144 -355.5q0 -150 -66.5 -260.5t-195 -171t-310.5 -60.5h-184l3 -194q0 -24 -23 -24h-383q-24 0 -24 24l10 658l-10 695q0 23 24 23h383q23 0 23 -23l-2 -191h189zM712 522q30 0 61 20t52 60.5t21 97.5q0 180 -142 180h-212l-3 -238l2 -120
h221z" />
    <glyph glyph-name="germandbls" unicode="&#xdf;" horiz-adv-x="1360" 
d="M158 0q-23 0 -23 24l7 420v510q0 242 149 351t403 109q180 0 300 -46t178 -125t60 -181q0 -111 -72.5 -182t-187.5 -88q170 -27 249 -119t79 -231q0 -144 -69 -243t-193.5 -149t-289.5 -50h-48q-11 0 -17.5 6.5t-6.5 17.5v245q0 11 6.5 17t17.5 6h48q51 0 86.5 36.5
t35.5 111.5q0 87 -37.5 128.5t-96.5 41.5h-36q-24 0 -24 24v213q0 23 24 23h24q52 0 74 30.5t22 85.5q0 67 -29 99.5t-99 32.5q-52 0 -81.5 -13.5t-44 -51t-14.5 -111.5v-498l9 -420q0 -24 -23 -24h-380z" />
    <glyph glyph-name="agrave" unicode="&#xe0;" horiz-adv-x="1272" 
d="M1203 518l9 -494q0 -24 -22 -24h-367q-24 0 -23 24l4 87q-55 -63 -131.5 -97t-172.5 -34q-141 0 -242.5 69.5t-154.5 190t-53 272.5q0 149 59.5 272t167.5 194.5t249 71.5q169 0 269 -109l-6 65v4q0 20 22 20h379q22 0 22 -23zM760.5 314q41.5 65 41.5 207
q0 135 -38.5 197.5t-117.5 62.5q-168 0 -168 -270q0 -137 41.5 -199.5t119.5 -62.5q80 0 121.5 65zM880 1102q-5 -22 -28 -17l-545 103q-19 3 -19 20q0 5 1 8l76 259q5 16 19 16q7 0 11 -2l518 -197q16 -6 16 -21q0 -6 -1 -9z" />
    <glyph glyph-name="aacute" unicode="&#xe1;" horiz-adv-x="1272" 
d="M1203 518l9 -494q0 -24 -22 -24h-367q-24 0 -23 24l4 87q-55 -63 -131.5 -97t-172.5 -34q-141 0 -242.5 69.5t-154.5 190t-53 272.5q0 149 59.5 272t167.5 194.5t249 71.5q169 0 269 -109l-6 65v4q0 20 22 20h379q22 0 22 -23zM760.5 314q41.5 65 41.5 207
q0 135 -38.5 197.5t-117.5 62.5q-168 0 -168 -270q0 -137 41.5 -199.5t119.5 -62.5q80 0 121.5 65zM440 1085q-2 -1 -7 -1q-17 0 -21 18l-48 160q-1 3 -1 9q0 15 16 21l518 197q4 2 11 2q14 0 19 -16l76 -259q1 -3 1 -9q0 -16 -18 -19z" />
    <glyph glyph-name="acircumflex" unicode="&#xe2;" horiz-adv-x="1272" 
d="M1203 518l9 -494q0 -24 -22 -24h-367q-24 0 -23 24l4 87q-55 -63 -131.5 -97t-172.5 -34q-141 0 -242.5 69.5t-154.5 190t-53 272.5q0 149 59.5 272t167.5 194.5t249 71.5q169 0 269 -109l-6 65v4q0 20 22 20h379q22 0 22 -23zM760.5 314q41.5 65 41.5 207
q0 135 -38.5 197.5t-117.5 62.5q-168 0 -168 -270q0 -137 41.5 -199.5t119.5 -62.5q80 0 121.5 65zM240 1245q-2 4 -2 12q0 13 10 20l303 243q13 10 29 10h132q16 0 29 -10l303 -243q11 -8 11 -19q0 -7 -3 -13l-61 -148q-5 -15 -18 -15q-3 0 -13 4l-314 162l-312 -164
q-10 -4 -13 -4q-12 0 -18 15z" />
    <glyph glyph-name="atilde" unicode="&#xe3;" horiz-adv-x="1272" 
d="M1203 518l9 -494q0 -24 -22 -24h-367q-24 0 -23 24l4 87q-55 -63 -131.5 -97t-172.5 -34q-141 0 -242.5 69.5t-154.5 190t-53 272.5q0 149 59.5 272t167.5 194.5t249 71.5q169 0 269 -109l-6 65v4q0 20 22 20h379q22 0 22 -23zM760.5 314q41.5 65 41.5 207
q0 135 -38.5 197.5t-117.5 62.5q-168 0 -168 -270q0 -137 41.5 -199.5t119.5 -62.5q80 0 121.5 65zM689.5 1120.5q-38.5 13.5 -83.5 37.5q-27 14 -43.5 20.5t-30.5 6.5q-22 0 -31.5 -16t-11.5 -45q-2 -23 -24 -23h-155q-24 0 -24 24q5 141 64 225.5t174 84.5q45 0 81 -13.5
t87 -38.5q27 -14 41 -20t25 -6q23 0 33 14.5t12 43.5q1 11 7.5 17.5t17.5 6.5h155q24 0 22 -32q-5 -145 -61 -222.5t-166 -77.5q-50 0 -88.5 13.5z" />
    <glyph glyph-name="adieresis" unicode="&#xe4;" horiz-adv-x="1272" 
d="M1203 518l9 -494q0 -24 -22 -24h-367q-24 0 -23 24l4 87q-55 -63 -131.5 -97t-172.5 -34q-141 0 -242.5 69.5t-154.5 190t-53 272.5q0 149 59.5 272t167.5 194.5t249 71.5q169 0 269 -109l-6 65v4q0 20 22 20h379q22 0 22 -23zM760.5 314q41.5 65 41.5 207
q0 135 -38.5 197.5t-117.5 62.5q-168 0 -168 -270q0 -137 41.5 -199.5t119.5 -62.5q80 0 121.5 65zM298 1090q-11 0 -17.5 6.5t-6.5 17.5v263q0 11 6.5 17t17.5 6h297q11 0 17 -6t6 -17v-263q0 -11 -6 -17.5t-17 -6.5h-297zM698 1090q-11 0 -17.5 6.5t-6.5 17.5v263
q0 11 6.5 17t17.5 6h297q11 0 17 -6t6 -17v-263q0 -11 -6 -17.5t-17 -6.5h-297z" />
    <glyph glyph-name="aring" unicode="&#xe5;" horiz-adv-x="1272" 
d="M1203 518l9 -494q0 -24 -22 -24h-367q-24 0 -23 24l4 87q-55 -63 -131.5 -97t-172.5 -34q-141 0 -242.5 69.5t-154.5 190t-53 272.5q0 149 59.5 272t167.5 194.5t249 71.5q169 0 269 -109l-6 65v4q0 20 22 20h379q22 0 22 -23zM760.5 314q41.5 65 41.5 207
q0 135 -38.5 197.5t-117.5 62.5q-168 0 -168 -270q0 -137 41.5 -199.5t119.5 -62.5q80 0 121.5 65zM498 1127.5q-69 35.5 -108.5 97t-39.5 137.5q0 77 39.5 139t108.5 97.5t154 35.5t154 -35.5t108.5 -97.5t39.5 -139q0 -76 -39.5 -137.5t-108.5 -97t-154 -35.5t-154 35.5z
M721.5 1281.5q26.5 27.5 26.5 80.5q0 56 -26.5 83t-69.5 27q-44 0 -70 -27t-26 -83q0 -55 26 -81.5t70 -26.5q43 0 69.5 27.5z" />
    <glyph glyph-name="ae" unicode="&#xe6;" horiz-adv-x="2036" 
d="M257.5 49.5q-101.5 69.5 -154.5 190t-53 272.5q0 149 59.5 272t167.5 194.5t249 71.5q169 0 269 -109l-6 65v5q0 19 22 19h380q22 0 22 -23v-14q119 67 273 67q153 0 264.5 -68t174 -205t65.5 -337q0 -24 -23 -24h-673q6 -72 25 -112t48.5 -55t72.5 -15q94 0 128 84
q7 20 26 20h354q12 0 18 -4.5t5 -12.5q-18 -89 -80.5 -172t-162.5 -136t-224 -53q-167 0 -291 69v-15q0 -24 -22 -24h-369q-24 0 -23 24l4 86q-55 -63 -131 -96.5t-172 -33.5q-141 0 -242.5 69.5zM1350 766q-35 -32 -50 -116h264q0 67 -33 107.5t-91 40.5q-55 0 -90 -32z
M760 313.5q42 63.5 42 206.5q0 135 -38.5 198.5t-117.5 63.5q-81 0 -124.5 -67t-43.5 -205q0 -137 41 -198.5t119 -61.5q80 0 122 63.5z" />
    <glyph glyph-name="ccedilla" unicode="&#xe7;" horiz-adv-x="1174" 
d="M1108 392q12 0 17.5 -5.5t4.5 -15.5q-13 -132 -102 -231t-229 -142l-1 -5l-82 -347q-6 -22 -28 -19l-342 45q-20 3 -20 19l2 9l101 291q-117 31 -202.5 102.5t-131 178.5t-45.5 240q0 164 68.5 288.5t193.5 192t290 67.5q147 0 258.5 -49t176.5 -138.5t79 -207.5
q1 -12 -5 -18.5t-17 -6.5h-342q-22 0 -25 23q-11 65 -38.5 92t-74.5 27q-69 0 -101.5 -60.5t-32.5 -205.5q0 -146 32.5 -208t99.5 -62q49 0 82 30t40 93q3 23 25 23h349z" />
    <glyph glyph-name="egrave" unicode="&#xe8;" horiz-adv-x="1208" 
d="M466 426q6 -72 25 -112t48.5 -55t72.5 -15q94 0 128 84q7 20 26 20h354q12 0 18 -3.5t5 -10.5q-17 -91 -83.5 -174.5t-180 -136.5t-263.5 -53q-170 0 -298 67.5t-198 190t-70 284.5q0 165 70 289.5t194 191.5t284 67q271 0 415 -153t149 -457q0 -24 -23 -24h-673z
M522 766q-35 -32 -50 -116h264q0 67 -33 107.5t-91 40.5q-55 0 -90 -32zM842 1102q-5 -22 -28 -17l-545 103q-19 3 -19 20q0 5 1 8l76 259q5 16 19 16q7 0 11 -2l518 -197q16 -6 16 -21q0 -6 -1 -9z" />
    <glyph glyph-name="eacute" unicode="&#xe9;" horiz-adv-x="1208" 
d="M466 426q6 -72 25 -112t48.5 -55t72.5 -15q94 0 128 84q7 20 26 20h354q12 0 18 -3.5t5 -10.5q-17 -91 -83.5 -174.5t-180 -136.5t-263.5 -53q-170 0 -298 67.5t-198 190t-70 284.5q0 165 70 289.5t194 191.5t284 67q271 0 415 -153t149 -457q0 -24 -23 -24h-673z
M522 766q-35 -32 -50 -116h264q0 67 -33 107.5t-91 40.5q-55 0 -90 -32zM402 1085q-2 -1 -7 -1q-17 0 -21 18l-48 160q-1 3 -1 9q0 15 16 21l518 197q4 2 11 2q14 0 19 -16l76 -259q1 -3 1 -9q0 -16 -18 -19z" />
    <glyph glyph-name="ecircumflex" unicode="&#xea;" horiz-adv-x="1208" 
d="M466 426q6 -72 25 -112t48.5 -55t72.5 -15q94 0 128 84q7 20 26 20h354q12 0 18 -3.5t5 -10.5q-17 -91 -83.5 -174.5t-180 -136.5t-263.5 -53q-170 0 -298 67.5t-198 190t-70 284.5q0 165 70 289.5t194 191.5t284 67q271 0 415 -153t149 -457q0 -24 -23 -24h-673z
M522 766q-35 -32 -50 -116h264q0 67 -33 107.5t-91 40.5q-55 0 -90 -32zM202 1245q-2 4 -2 12q0 13 10 20l303 243q13 10 29 10h132q16 0 29 -10l303 -243q11 -8 11 -19q0 -7 -3 -13l-61 -148q-5 -15 -18 -15q-3 0 -13 4l-314 162l-312 -164q-10 -4 -13 -4q-12 0 -18 15z
" />
    <glyph glyph-name="edieresis" unicode="&#xeb;" horiz-adv-x="1208" 
d="M466 426q6 -72 25 -112t48.5 -55t72.5 -15q94 0 128 84q7 20 26 20h354q12 0 18 -3.5t5 -10.5q-17 -91 -83.5 -174.5t-180 -136.5t-263.5 -53q-170 0 -298 67.5t-198 190t-70 284.5q0 165 70 289.5t194 191.5t284 67q271 0 415 -153t149 -457q0 -24 -23 -24h-673z
M522 766q-35 -32 -50 -116h264q0 67 -33 107.5t-91 40.5q-55 0 -90 -32zM260 1090q-11 0 -17.5 6.5t-6.5 17.5v263q0 11 6.5 17t17.5 6h297q11 0 17 -6t6 -17v-263q0 -11 -6 -17.5t-17 -6.5h-297zM660 1090q-11 0 -17.5 6.5t-6.5 17.5v263q0 11 6.5 17t17.5 6h297
q11 0 17 -6t6 -17v-263q0 -11 -6 -17.5t-17 -6.5h-297z" />
    <glyph glyph-name="igrave" unicode="&#xec;" horiz-adv-x="556" 
d="M509 1102q-2 -11 -9.5 -15.5t-18.5 -2.5l-494 92q-18 3 -18 19q0 6 1 9l76 259q5 16 19 16q7 0 11 -2l466 -185q16 -6 16 -21q0 -6 -1 -9zM90 0q-24 0 -24 24l6 472l-6 511q0 23 24 23h377q23 0 23 -23l-6 -511l6 -472q0 -24 -23 -24h-377z" />
    <glyph glyph-name="iacute" unicode="&#xed;" horiz-adv-x="556" 
d="M75 1084l-6 -1q-17 0 -22 19l-48 160q-1 3 -1 9q0 15 16 21l466 185q4 2 11 2q14 0 19 -16l76 -259q1 -3 1 -9q0 -16 -18 -19zM90 0q-24 0 -24 24l6 472l-6 511q0 23 24 23h377q23 0 23 -23l-6 -511l6 -472q0 -24 -23 -24h-377z" />
    <glyph glyph-name="icircumflex" unicode="&#xee;" horiz-adv-x="556" 
d="M-76 1240q-4 7 -4 15q0 11 8 18l256 245q14 12 29 12h130q17 0 29 -12l256 -245q9 -7 9 -19q0 -4 -4 -14l-75 -145q-6 -13 -18 -13q-7 0 -15 5l-247 171l-245 -171q-8 -5 -14 -5q-12 0 -19 13zM90 0q-24 0 -24 24l6 472l-6 511q0 23 24 23h377q23 0 23 -23l-6 -511
l6 -472q0 -24 -23 -24h-377z" />
    <glyph glyph-name="idieresis" unicode="&#xef;" horiz-adv-x="556" 
d="M-21 1090q-23 0 -23 24v263q0 11 6 17t17 6h252q11 0 17 -6t6 -17v-263q0 -11 -6 -17.5t-17 -6.5h-252zM326 1090q-24 0 -24 24v263q0 11 6.5 17t17.5 6h251q11 0 17 -6t6 -17v-263q0 -11 -6 -17.5t-17 -6.5h-251zM90 0q-24 0 -24 24l6 472l-6 511q0 23 24 23h377
q23 0 23 -23l-6 -511l6 -472q0 -24 -23 -24h-377z" />
    <glyph glyph-name="eth" unicode="&#xf0;" horiz-adv-x="1242" 
d="M1022 1151q170 -214 170 -567q0 -182 -68.5 -321t-201.5 -216t-320 -77q-164 0 -289 55t-194 159t-69 246q0 139 66 241.5t177.5 156.5t246.5 54q58 0 109.5 -9t106.5 -25q-12 79 -67 149l-207 -95q-6 -3 -12 -3q-13 0 -19 15l-76 172q-3 8 -3 12q0 14 15 20l90 41
q-56 28 -130 50q-17 5 -17 17q0 6 5 14l128 214q8 14 22 14q6 0 9 -1q198 -56 337 -146l229 105q6 3 12 3q14 0 20 -15l75 -170q3 -7 3 -12q0 -14 -15 -20zM722 293.5q38 47.5 38 136.5t-38 134.5t-100 45.5q-63 0 -101.5 -45.5t-38.5 -134.5t39 -136.5t101 -47.5t100 47.5z
" />
    <glyph glyph-name="ntilde" unicode="&#xf1;" horiz-adv-x="1220" 
d="M1158 436l6 -412q0 -24 -23 -24h-381q-24 0 -24 24l6 412v190q0 64 -25.5 95t-70.5 31q-77 0 -119.5 -85.5t-44.5 -234.5l6 -408q0 -24 -23 -24h-381q-23 0 -23 24l8 496l-4 487q0 23 24 23h357q25 0 23 -24l-5 -96q49 76 133.5 110t186.5 34q119 0 203.5 -48.5
t127.5 -134.5t43 -197v-238zM655.5 1120.5q-38.5 13.5 -83.5 37.5q-27 14 -43.5 20.5t-30.5 6.5q-22 0 -31.5 -16t-11.5 -45q-2 -23 -24 -23h-155q-24 0 -24 24q5 141 64 225.5t174 84.5q45 0 81 -13.5t87 -38.5q27 -14 41 -20t25 -6q23 0 33 14.5t12 43.5q1 11 7.5 17.5
t17.5 6.5h155q24 0 22 -32q-5 -145 -61 -222.5t-166 -77.5q-50 0 -88.5 13.5z" />
    <glyph glyph-name="ograve" unicode="&#xf2;" horiz-adv-x="1236" 
d="M314.5 36q-128.5 66 -196.5 188.5t-68 287.5q0 166 68 289.5t196.5 191t305.5 67.5q178 0 305.5 -65.5t194 -187t66.5 -287.5t-67 -290t-194.5 -192t-304.5 -68t-305.5 66zM699 269.5q30 23.5 44.5 81t14.5 161.5q0 149 -33.5 211.5t-106.5 62.5q-51 -2 -82 -29
t-45.5 -87t-14.5 -162q0 -99 15.5 -156.5t47 -81.5t81.5 -24q49 0 79 23.5zM854 1102q-5 -22 -28 -17l-545 103q-19 3 -19 20q0 5 1 8l76 259q5 16 19 16q7 0 11 -2l518 -197q16 -6 16 -21q0 -6 -1 -9z" />
    <glyph glyph-name="oacute" unicode="&#xf3;" horiz-adv-x="1236" 
d="M314.5 36q-128.5 66 -196.5 188.5t-68 287.5q0 166 68 289.5t196.5 191t305.5 67.5q178 0 305.5 -65.5t194 -187t66.5 -287.5t-67 -290t-194.5 -192t-304.5 -68t-305.5 66zM699 269.5q30 23.5 44.5 81t14.5 161.5q0 149 -33.5 211.5t-106.5 62.5q-51 -2 -82 -29
t-45.5 -87t-14.5 -162q0 -99 15.5 -156.5t47 -81.5t81.5 -24q49 0 79 23.5zM414 1085q-2 -1 -7 -1q-17 0 -21 18l-48 160q-1 3 -1 9q0 15 16 21l518 197q4 2 11 2q14 0 19 -16l76 -259q1 -3 1 -9q0 -16 -18 -19z" />
    <glyph glyph-name="ocircumflex" unicode="&#xf4;" horiz-adv-x="1236" 
d="M314.5 36q-128.5 66 -196.5 188.5t-68 287.5q0 166 68 289.5t196.5 191t305.5 67.5q178 0 305.5 -65.5t194 -187t66.5 -287.5t-67 -290t-194.5 -192t-304.5 -68t-305.5 66zM699 269.5q30 23.5 44.5 81t14.5 161.5q0 149 -33.5 211.5t-106.5 62.5q-51 -2 -82 -29
t-45.5 -87t-14.5 -162q0 -99 15.5 -156.5t47 -81.5t81.5 -24q49 0 79 23.5zM214 1245q-2 4 -2 12q0 13 10 20l303 243q13 10 29 10h132q16 0 29 -10l303 -243q11 -8 11 -19q0 -7 -3 -13l-61 -148q-5 -15 -18 -15q-3 0 -13 4l-314 162l-312 -164q-10 -4 -13 -4q-12 0 -18 15z
" />
    <glyph glyph-name="otilde" unicode="&#xf5;" horiz-adv-x="1236" 
d="M314.5 36q-128.5 66 -196.5 188.5t-68 287.5q0 166 68 289.5t196.5 191t305.5 67.5q178 0 305.5 -65.5t194 -187t66.5 -287.5t-67 -290t-194.5 -192t-304.5 -68t-305.5 66zM699 269.5q30 23.5 44.5 81t14.5 161.5q0 149 -33.5 211.5t-106.5 62.5q-51 -2 -82 -29
t-45.5 -87t-14.5 -162q0 -99 15.5 -156.5t47 -81.5t81.5 -24q49 0 79 23.5zM663.5 1120.5q-38.5 13.5 -83.5 37.5q-27 14 -43.5 20.5t-30.5 6.5q-22 0 -31.5 -16t-11.5 -45q-2 -23 -24 -23h-155q-24 0 -24 24q5 141 64 225.5t174 84.5q45 0 81 -13.5t87 -38.5q27 -14 41 -20
t25 -6q23 0 33 14.5t12 43.5q1 11 7.5 17.5t17.5 6.5h155q24 0 22 -32q-5 -145 -61 -222.5t-166 -77.5q-50 0 -88.5 13.5z" />
    <glyph glyph-name="odieresis" unicode="&#xf6;" horiz-adv-x="1236" 
d="M314.5 36q-128.5 66 -196.5 188.5t-68 287.5q0 166 68 289.5t196.5 191t305.5 67.5q178 0 305.5 -65.5t194 -187t66.5 -287.5t-67 -290t-194.5 -192t-304.5 -68t-305.5 66zM699 269.5q30 23.5 44.5 81t14.5 161.5q0 149 -33.5 211.5t-106.5 62.5q-51 -2 -82 -29
t-45.5 -87t-14.5 -162q0 -99 15.5 -156.5t47 -81.5t81.5 -24q49 0 79 23.5zM272 1090q-11 0 -17.5 6.5t-6.5 17.5v263q0 11 6.5 17t17.5 6h297q11 0 17 -6t6 -17v-263q0 -11 -6 -17.5t-17 -6.5h-297zM672 1090q-11 0 -17.5 6.5t-6.5 17.5v263q0 11 6.5 17t17.5 6h297
q11 0 17 -6t6 -17v-263q0 -11 -6 -17.5t-17 -6.5h-297z" />
    <glyph glyph-name="divide" unicode="&#xf7;" horiz-adv-x="1250" 
d="M439 934q-11 0 -17.5 6.5t-6.5 17.5v325q0 11 6.5 17t17.5 6h375q11 0 17 -6t6 -17v-325q0 -11 -6 -17.5t-17 -6.5h-375zM159 538q-24 0 -24 24v255q0 11 6.5 17t17.5 6h933q11 0 17 -6t6 -17v-255q0 -11 -6 -17.5t-17 -6.5h-933zM439 80q-11 0 -17.5 6.5t-6.5 17.5v325
q0 11 6.5 17t17.5 6h375q11 0 17 -6t6 -17v-325q0 -11 -6 -17.5t-17 -6.5h-375z" />
    <glyph glyph-name="oslash" unicode="&#xf8;" horiz-adv-x="1244" 
d="M1072 878q114 -140 114 -358q0 -166 -67 -290t-194.5 -192t-304.5 -68q-118 0 -219 31l-89 -110q-7 -10 -17 -10q-9 0 -17 8l-160 152q-8 8 -8 16q0 7 7 16l57 71q-60 70 -92 163t-32 205q0 166 68 289.5t196.5 191t305.5 67.5q127 0 227 -33l108 127q8 9 17 9q8 0 15 -7
l162 -150q9 -9 9 -18q0 -7 -6 -15zM536 757q-31 -27 -45.5 -87t-14.5 -162v-30l212 288q-27 20 -70 20q-51 -2 -82 -29zM699 269.5q30 23.5 44.5 81t14.5 161.5v9l-194 -266q26 -9 56 -9q49 0 79 23.5z" />
    <glyph glyph-name="ugrave" unicode="&#xf9;" horiz-adv-x="1220" 
d="M232 25.5q-84 49.5 -127 139.5t-43 211v218l-6 413q0 23 24 23h380q24 0 24 -23l-7 -413v-206q0 -53 24.5 -81.5t68.5 -28.5q70 0 118 73.5t49 246.5l-5 409q0 23 24 23h380q23 0 23 -23l-8 -497l4 -486q0 -24 -23 -24h-358q-24 0 -23 24l5 96q-101 -144 -320 -144
q-120 0 -204 49.5zM842 1102q-5 -22 -28 -17l-545 103q-19 3 -19 20q0 5 1 8l76 259q5 16 19 16q7 0 11 -2l518 -197q16 -6 16 -21q0 -6 -1 -9z" />
    <glyph glyph-name="uacute" unicode="&#xfa;" horiz-adv-x="1220" 
d="M232 25.5q-84 49.5 -127 139.5t-43 211v218l-6 413q0 23 24 23h380q24 0 24 -23l-7 -413v-206q0 -53 24.5 -81.5t68.5 -28.5q70 0 118 73.5t49 246.5l-5 409q0 23 24 23h380q23 0 23 -23l-8 -497l4 -486q0 -24 -23 -24h-358q-24 0 -23 24l5 96q-101 -144 -320 -144
q-120 0 -204 49.5zM402 1085q-2 -1 -7 -1q-17 0 -21 18l-48 160q-1 3 -1 9q0 15 16 21l518 197q4 2 11 2q14 0 19 -16l76 -259q1 -3 1 -9q0 -16 -18 -19z" />
    <glyph glyph-name="ucircumflex" unicode="&#xfb;" horiz-adv-x="1220" 
d="M232 25.5q-84 49.5 -127 139.5t-43 211v218l-6 413q0 23 24 23h380q24 0 24 -23l-7 -413v-206q0 -53 24.5 -81.5t68.5 -28.5q70 0 118 73.5t49 246.5l-5 409q0 23 24 23h380q23 0 23 -23l-8 -497l4 -486q0 -24 -23 -24h-358q-24 0 -23 24l5 96q-101 -144 -320 -144
q-120 0 -204 49.5zM202 1245q-2 4 -2 12q0 13 10 20l303 243q13 10 29 10h132q16 0 29 -10l303 -243q11 -8 11 -19q0 -7 -3 -13l-61 -148q-5 -15 -18 -15q-3 0 -13 4l-314 162l-312 -164q-10 -4 -13 -4q-12 0 -18 15z" />
    <glyph glyph-name="udieresis" unicode="&#xfc;" horiz-adv-x="1220" 
d="M232 25.5q-84 49.5 -127 139.5t-43 211v218l-6 413q0 23 24 23h380q24 0 24 -23l-7 -413v-206q0 -53 24.5 -81.5t68.5 -28.5q70 0 118 73.5t49 246.5l-5 409q0 23 24 23h380q23 0 23 -23l-8 -497l4 -486q0 -24 -23 -24h-358q-24 0 -23 24l5 96q-101 -144 -320 -144
q-120 0 -204 49.5zM260 1090q-11 0 -17.5 6.5t-6.5 17.5v263q0 11 6.5 17t17.5 6h297q11 0 17 -6t6 -17v-263q0 -11 -6 -17.5t-17 -6.5h-297zM660 1090q-11 0 -17.5 6.5t-6.5 17.5v263q0 11 6.5 17t17.5 6h297q11 0 17 -6t6 -17v-263q0 -11 -6 -17.5t-17 -6.5h-297z" />
    <glyph glyph-name="yacute" unicode="&#xfd;" horiz-adv-x="1188" 
d="M773 1010q4 20 26 20h371q21 0 21 -17q0 -2 -2 -10l-449 -1324q-6 -19 -26 -19h-352q-21 0 -21 18q0 6 1 9l84 261l-425 1055q-2 4 -2 10q0 17 21 17h421q21 0 27 -19l166 -519zM414 1085q-2 -1 -7 -1q-17 0 -21 18l-48 160q-1 3 -1 9q0 15 16 21l518 197q4 2 11 2
q14 0 19 -16l76 -259q1 -3 1 -9q0 -16 -18 -19z" />
    <glyph glyph-name="thorn" unicode="&#xfe;" horiz-adv-x="1278" 
d="M1013.5 981q104.5 -69 157.5 -190t53 -273q0 -149 -59 -272t-166.5 -194.5t-246.5 -71.5q-164 0 -268 102l7 -399q0 -23 -22 -23h-386q-24 0 -24 23l16 881l-15 813q0 23 23 23h382q24 0 24 -23l-8 -440q110 113 281 113q147 0 251.5 -69zM754 319.5q42 61.5 42 195.5
q0 137 -41 196t-121 59q-83 0 -122.5 -60t-39.5 -195q0 -131 39.5 -194t119.5 -63q81 0 123 61.5z" />
    <glyph glyph-name="ydieresis" unicode="&#xff;" horiz-adv-x="1188" 
d="M773 1010q4 20 26 20h371q21 0 21 -17q0 -2 -2 -10l-449 -1324q-6 -19 -26 -19h-352q-21 0 -21 18q0 6 1 9l84 261l-425 1055q-2 4 -2 10q0 17 21 17h421q21 0 27 -19l166 -519zM272 1090q-11 0 -17.5 6.5t-6.5 17.5v263q0 11 6.5 17t17.5 6h297q11 0 17 -6t6 -17v-263
q0 -11 -6 -17.5t-17 -6.5h-297zM672 1090q-11 0 -17.5 6.5t-6.5 17.5v263q0 11 6.5 17t17.5 6h297q11 0 17 -6t6 -17v-263q0 -11 -6 -17.5t-17 -6.5h-297z" />
    <glyph glyph-name="Amacron" unicode="&#x100;" horiz-adv-x="1532" 
d="M1517 27l2 -9q0 -8 -5.5 -13t-15.5 -5h-405q-21 0 -26 20l-79 268h-453l-73 -268q-6 -20 -27 -20h-403q-10 0 -15.5 5t-5.5 13l2 9l457 1354q6 19 26 19h556q20 0 26 -19zM889 624l-135 458l-126 -458h261zM440 1490q-24 0 -24 24v203q0 11 6.5 17t17.5 6h667
q10 0 16.5 -6t6.5 -17v-203q0 -11 -6 -17.5t-17 -6.5h-667z" />
    <glyph glyph-name="amacron" unicode="&#x101;" horiz-adv-x="1272" 
d="M1203 518l9 -494q0 -24 -22 -24h-367q-24 0 -23 24l4 87q-55 -63 -131.5 -97t-172.5 -34q-141 0 -242.5 69.5t-154.5 190t-53 272.5q0 149 59.5 272t167.5 194.5t249 71.5q169 0 269 -109l-6 65v4q0 20 22 20h379q22 0 22 -23zM760.5 314q41.5 65 41.5 207
q0 135 -38.5 197.5t-117.5 62.5q-168 0 -168 -270q0 -137 41.5 -199.5t119.5 -62.5q80 0 121.5 65zM312 1120q-24 0 -24 24v203q0 11 6.5 17t17.5 6h667q10 0 16.5 -6t6.5 -17v-203q0 -11 -6 -17.5t-17 -6.5h-667z" />
    <glyph glyph-name="Abreve" unicode="&#x102;" horiz-adv-x="1532" 
d="M1517 27l2 -9q0 -8 -5.5 -13t-15.5 -5h-405q-21 0 -26 20l-79 268h-453l-73 -268q-6 -20 -27 -20h-403q-10 0 -15.5 5t-5.5 13l2 9l457 1354q6 19 26 19h556q20 0 26 -19zM889 624l-135 458l-126 -458h261zM569 1515.5q-89 45.5 -139.5 124.5t-56.5 179q-2 23 23 23h219
q20 0 25 -23q7 -48 41.5 -76.5t92.5 -28.5q55 0 91 29t43 76q5 23 25 23h220q23 0 22 -21q-5 -100 -55.5 -180t-140 -125.5t-205.5 -45.5t-205 45.5z" />
    <glyph glyph-name="abreve" unicode="&#x103;" horiz-adv-x="1272" 
d="M1203 518l9 -494q0 -24 -22 -24h-367q-24 0 -23 24l4 87q-55 -63 -131.5 -97t-172.5 -34q-141 0 -242.5 69.5t-154.5 190t-53 272.5q0 149 59.5 272t167.5 194.5t249 71.5q169 0 269 -109l-6 65v4q0 20 22 20h379q22 0 22 -23zM760.5 314q41.5 65 41.5 207
q0 135 -38.5 197.5t-117.5 62.5q-168 0 -168 -270q0 -137 41.5 -199.5t119.5 -62.5q80 0 121.5 65zM441 1145.5q-89 45.5 -139.5 124.5t-56.5 179q-2 23 23 23h219q20 0 25 -23q7 -48 41.5 -76.5t92.5 -28.5q55 0 91 29t43 76q5 23 25 23h220q23 0 22 -21
q-5 -100 -55.5 -180t-140 -125.5t-205.5 -45.5t-205 45.5z" />
    <glyph glyph-name="Aogonek" unicode="&#x104;" horiz-adv-x="1532" 
d="M1517 27l2 -9q0 -8 -5.5 -13t-15.5 -5h-237q-13 -25 -24 -63t-11 -67q0 -35 23.5 -49.5t66.5 -14.5h99q11 0 17 -6.5t6 -17.5v-219q0 -11 -6 -17t-17 -6h-141q-108 0 -189.5 31t-126 89t-44.5 136q0 150 149 236l-75 256h-453l-73 -268q-6 -20 -27 -20h-403
q-10 0 -15.5 5t-5.5 13l2 9l457 1354q6 19 26 19h556q20 0 26 -19zM754 1082l-126 -458h261z" />
    <glyph glyph-name="aogonek" unicode="&#x105;" horiz-adv-x="1272" 
d="M1196 -194q11 0 17 -6.5t6 -17.5v-219q0 -11 -6 -17t-17 -6h-141q-108 0 -189.5 31t-126 89t-44.5 136q0 129 110 210q-5 5 -5 18l4 87q-55 -63 -131.5 -97t-172.5 -34q-141 0 -242.5 69.5t-154.5 190t-53 272.5q0 149 59.5 272t167.5 194.5t249 71.5q169 0 269 -109
l-6 65v4q0 20 22 20h379q22 0 22 -23l-9 -489l9 -494q0 -24 -22 -24h-148q-13 -25 -24 -63t-11 -67q0 -35 23.5 -49.5t66.5 -14.5h99zM763.5 718.5q-38.5 62.5 -117.5 62.5q-168 0 -168 -270q0 -137 41.5 -199.5t119.5 -62.5q80 0 121.5 65t41.5 207q0 135 -38.5 197.5z" />
    <glyph glyph-name="Cacute" unicode="&#x106;" horiz-adv-x="1538" 
d="M410 58.5q-171 94.5 -264.5 260.5t-93.5 373q0 221 93 389.5t262.5 261.5t392.5 93q273 0 446 -131t229 -389l1 -6q0 -20 -22 -20h-384q-21 0 -26 21q-24 102 -85.5 151.5t-164.5 49.5q-136 0 -209 -105.5t-73 -300.5q0 -202 74.5 -310t217.5 -108q99 0 160.5 48.5
t82.5 145.5q3 22 25 22h392q12 0 17.5 -7t3.5 -19q-57 -255 -232 -384.5t-449 -129.5q-223 0 -394 94.5zM598 1455q-2 -1 -7 -1q-17 0 -21 18l-48 160q-1 3 -1 9q0 15 16 21l518 197q4 2 11 2q14 0 19 -16l76 -259q1 -3 1 -9q0 -16 -18 -19z" />
    <glyph glyph-name="cacute" unicode="&#x107;" horiz-adv-x="1174" 
d="M312.5 36.5q-125.5 66.5 -194 189t-68.5 286.5t68.5 288.5t193.5 192t290 67.5q147 0 258.5 -49t176.5 -138.5t79 -207.5q1 -12 -5 -18.5t-17 -6.5h-342q-22 0 -25 23q-11 65 -38.5 92t-74.5 27q-69 0 -101.5 -60.5t-32.5 -205.5q0 -146 32.5 -208t99.5 -62q49 0 82 30
t40 93q3 23 25 23h349q12 0 17.5 -5.5t4.5 -15.5q-12 -115 -82.5 -206.5t-186 -143t-257.5 -51.5q-166 0 -291.5 66.5zM386 1085q-2 -1 -7 -1q-17 0 -21 18l-48 160q-1 3 -1 9q0 15 16 21l518 197q4 2 11 2q14 0 19 -16l76 -259q1 -3 1 -9q0 -16 -18 -19z" />
    <glyph glyph-name="Ccircumflex" unicode="&#x108;" horiz-adv-x="1538" 
d="M410 58.5q-171 94.5 -264.5 260.5t-93.5 373q0 221 93 389.5t262.5 261.5t392.5 93q273 0 446 -131t229 -389l1 -6q0 -20 -22 -20h-384q-21 0 -26 21q-24 102 -85.5 151.5t-164.5 49.5q-136 0 -209 -105.5t-73 -300.5q0 -202 74.5 -310t217.5 -108q99 0 160.5 48.5
t82.5 145.5q3 22 25 22h392q12 0 17.5 -7t3.5 -19q-57 -255 -232 -384.5t-449 -129.5q-223 0 -394 94.5zM398 1615q-2 4 -2 12q0 13 10 20l303 243q13 10 29 10h132q16 0 29 -10l303 -243q11 -8 11 -19q0 -7 -3 -13l-61 -148q-5 -15 -18 -15q-3 0 -13 4l-314 162l-312 -164
q-10 -4 -13 -4q-12 0 -18 15z" />
    <glyph glyph-name="ccircumflex" unicode="&#x109;" horiz-adv-x="1174" 
d="M312.5 36.5q-125.5 66.5 -194 189t-68.5 286.5t68.5 288.5t193.5 192t290 67.5q147 0 258.5 -49t176.5 -138.5t79 -207.5q1 -12 -5 -18.5t-17 -6.5h-342q-22 0 -25 23q-11 65 -38.5 92t-74.5 27q-69 0 -101.5 -60.5t-32.5 -205.5q0 -146 32.5 -208t99.5 -62q49 0 82 30
t40 93q3 23 25 23h349q12 0 17.5 -5.5t4.5 -15.5q-12 -115 -82.5 -206.5t-186 -143t-257.5 -51.5q-166 0 -291.5 66.5zM186 1245q-2 4 -2 12q0 13 10 20l303 243q13 10 29 10h132q16 0 29 -10l303 -243q11 -8 11 -19q0 -7 -3 -13l-61 -148q-5 -15 -18 -15q-3 0 -13 4
l-314 162l-312 -164q-10 -4 -13 -4q-12 0 -18 15z" />
    <glyph glyph-name="Cdotaccent" unicode="&#x10a;" horiz-adv-x="1538" 
d="M410 58.5q-171 94.5 -264.5 260.5t-93.5 373q0 221 93 389.5t262.5 261.5t392.5 93q273 0 446 -131t229 -389l1 -6q0 -20 -22 -20h-384q-21 0 -26 21q-24 102 -85.5 151.5t-164.5 49.5q-136 0 -209 -105.5t-73 -300.5q0 -202 74.5 -310t217.5 -108q99 0 160.5 48.5
t82.5 145.5q3 22 25 22h392q12 0 17.5 -7t3.5 -19q-57 -255 -232 -384.5t-449 -129.5q-223 0 -394 94.5zM620 1468q-24 0 -24 24v263q0 11 6.5 17t17.5 6h379q10 0 16.5 -6t6.5 -17v-263q0 -11 -6 -17.5t-17 -6.5h-379z" />
    <glyph glyph-name="cdotaccent" unicode="&#x10b;" horiz-adv-x="1174" 
d="M312.5 36.5q-125.5 66.5 -194 189t-68.5 286.5t68.5 288.5t193.5 192t290 67.5q147 0 258.5 -49t176.5 -138.5t79 -207.5q1 -12 -5 -18.5t-17 -6.5h-342q-22 0 -25 23q-11 65 -38.5 92t-74.5 27q-69 0 -101.5 -60.5t-32.5 -205.5q0 -146 32.5 -208t99.5 -62q49 0 82 30
t40 93q3 23 25 23h349q12 0 17.5 -5.5t4.5 -15.5q-12 -115 -82.5 -206.5t-186 -143t-257.5 -51.5q-166 0 -291.5 66.5zM402 1090q-24 0 -24 24v263q0 11 6.5 17t17.5 6h379q10 0 16.5 -6t6.5 -17v-263q0 -11 -6 -17.5t-17 -6.5h-379z" />
    <glyph glyph-name="Ccaron" unicode="&#x10c;" horiz-adv-x="1538" 
d="M410 58.5q-171 94.5 -264.5 260.5t-93.5 373q0 221 93 389.5t262.5 261.5t392.5 93q273 0 446 -131t229 -389l1 -6q0 -20 -22 -20h-384q-21 0 -26 21q-24 102 -85.5 151.5t-164.5 49.5q-136 0 -209 -105.5t-73 -300.5q0 -202 74.5 -310t217.5 -108q99 0 160.5 48.5
t82.5 145.5q3 22 25 22h392q12 0 17.5 -7t3.5 -19q-57 -255 -232 -384.5t-449 -129.5q-223 0 -394 94.5zM406 1717q-10 9 -10 20q0 8 2 12l61 149q6 14 18 14q6 0 13 -4l314 -162l312 164q7 4 13 4q12 0 18 -14l63 -151q3 -6 3 -12q0 -11 -11 -20l-303 -243q-13 -10 -29 -10
h-132q-16 0 -29 10z" />
    <glyph glyph-name="ccaron" unicode="&#x10d;" horiz-adv-x="1174" 
d="M312.5 36.5q-125.5 66.5 -194 189t-68.5 286.5t68.5 288.5t193.5 192t290 67.5q147 0 258.5 -49t176.5 -138.5t79 -207.5q1 -12 -5 -18.5t-17 -6.5h-342q-22 0 -25 23q-11 65 -38.5 92t-74.5 27q-69 0 -101.5 -60.5t-32.5 -205.5q0 -146 32.5 -208t99.5 -62q49 0 82 30
t40 93q3 23 25 23h349q12 0 17.5 -5.5t4.5 -15.5q-12 -115 -82.5 -206.5t-186 -143t-257.5 -51.5q-166 0 -291.5 66.5zM194 1347q-10 9 -10 20q0 8 2 12l61 149q6 14 18 14q6 0 13 -4l314 -162l312 164q7 4 13 4q12 0 18 -14l63 -151q3 -6 3 -12q0 -11 -11 -20l-303 -243
q-13 -10 -29 -10h-132q-16 0 -29 10z" />
    <glyph glyph-name="Dcaron" unicode="&#x10e;" horiz-adv-x="1480" 
d="M93 0q-23 0 -23 24l11 656l-11 697q0 23 23 23h539q220 0 399 -72t288 -233t109 -415q0 -246 -106 -397.5t-283 -217t-403 -65.5h-543zM511 688l10 -376h131q159 0 239.5 88t80.5 284q0 208 -87.5 307t-240.5 99h-123zM316 1717q-10 9 -10 20q0 8 2 12l61 149q6 14 18 14
q6 0 13 -4l314 -162l312 164q7 4 13 4q12 0 18 -14l63 -151q3 -6 3 -12q0 -11 -11 -20l-303 -243q-13 -10 -29 -10h-132q-16 0 -29 10z" />
    <glyph glyph-name="dcaron" unicode="&#x10f;" horiz-adv-x="1272" 
d="M1203 646l10 -622q0 -24 -23 -24h-367q-24 0 -23 24l4 87q-55 -63 -131.5 -97t-172.5 -34q-141 0 -242.5 69.5t-154.5 190t-53 272.5q0 149 59.5 272t167.5 194.5t249 71.5q165 0 265 -105l-2 432q0 23 24 23h376q24 0 24 -23zM760.5 314q41.5 65 41.5 207
q0 135 -38.5 197.5t-117.5 62.5q-168 0 -168 -270q0 -137 41.5 -199.5t119.5 -62.5q80 0 121.5 65zM1518 1100q-5 -21 -27 -21h-213q-25 0 -23 25l34 483q1 22 25 22h283q12 0 17.5 -7t3.5 -18z" />
    <glyph glyph-name="Dcroat" unicode="&#x110;" horiz-adv-x="1524" 
d="M676 1400q220 0 399 -72t288 -233t109 -415q0 -246 -106 -397.5t-283 -217t-403 -65.5h-543q-23 0 -23 24l9 564h-49q-11 0 -17.5 6.5t-6.5 17.5v261q0 11 6.5 17t17.5 6h48l-8 481q0 23 23 23h539zM696 312q159 0 239.5 88t80.5 284q0 208 -87.5 307t-240.5 99h-123
l-5 -194h203q11 0 17 -6t6 -17v-261q0 -11 -6 -17.5t-17 -6.5h-205l7 -276h131z" />
    <glyph glyph-name="dcroat" unicode="&#x111;" horiz-adv-x="1274" 
d="M1254 1332q11 0 17.5 -6t6.5 -17v-219q0 -24 -24 -24h-45l-6 -420l10 -622q0 -24 -23 -24h-367q-24 0 -23 24l4 84q-55 -62 -131.5 -95t-172.5 -33q-141 0 -242.5 68t-154.5 186.5t-53 267.5q0 146 59.5 266.5t168 191t248.5 70.5q166 0 266 -103l-1 139h-241
q-11 0 -17.5 6.5t-6.5 17.5v219q0 23 24 23h239v45q0 23 24 23h376q24 0 24 -23l-1 -45h42zM760 311q42 62 42 199q0 131 -38.5 192t-117.5 61q-168 0 -168 -263q0 -132 41 -191.5t119 -59.5q80 0 122 62z" />
    <glyph glyph-name="Emacron" unicode="&#x112;" horiz-adv-x="1210" 
d="M93 0q-23 0 -23 24l13 652l-13 701q0 23 23 23h1032q11 0 17 -6t6 -17v-263q0 -11 -6 -17.5t-17 -6.5h-609l-5 -204h546q11 0 17 -6t6 -17v-263q0 -11 -6 -17.5t-17 -6.5h-546l5 -264h625q11 0 17 -6t6 -17v-265q0 -24 -23 -24h-1048zM285 1490q-24 0 -24 24v203
q0 11 6.5 17t17.5 6h667q10 0 16.5 -6t6.5 -17v-203q0 -11 -6 -17.5t-17 -6.5h-667z" />
    <glyph glyph-name="emacron" unicode="&#x113;" horiz-adv-x="1208" 
d="M466 426q6 -72 25 -112t48.5 -55t72.5 -15q94 0 128 84q7 20 26 20h354q12 0 18 -3.5t5 -10.5q-17 -91 -83.5 -174.5t-180 -136.5t-263.5 -53q-170 0 -298 67.5t-198 190t-70 284.5q0 165 70 289.5t194 191.5t284 67q271 0 415 -153t149 -457q0 -24 -23 -24h-673z
M522 766q-35 -32 -50 -116h264q0 67 -33 107.5t-91 40.5q-55 0 -90 -32zM274 1120q-24 0 -24 24v203q0 11 6.5 17t17.5 6h667q10 0 16.5 -6t6.5 -17v-203q0 -11 -6 -17.5t-17 -6.5h-667z" />
    <glyph glyph-name="Ebreve" unicode="&#x114;" horiz-adv-x="1210" 
d="M93 0q-23 0 -23 24l13 652l-13 701q0 23 23 23h1032q11 0 17 -6t6 -17v-263q0 -11 -6 -17.5t-17 -6.5h-609l-5 -204h546q11 0 17 -6t6 -17v-263q0 -11 -6 -17.5t-17 -6.5h-546l5 -264h625q11 0 17 -6t6 -17v-265q0 -24 -23 -24h-1048zM414 1515.5q-89 45.5 -139.5 124.5
t-56.5 179q-2 23 23 23h219q20 0 25 -23q7 -48 41.5 -76.5t92.5 -28.5q55 0 91 29t43 76q5 23 25 23h220q23 0 22 -21q-5 -100 -55.5 -180t-140 -125.5t-205.5 -45.5t-205 45.5z" />
    <glyph glyph-name="ebreve" unicode="&#x115;" horiz-adv-x="1208" 
d="M466 426q6 -72 25 -112t48.5 -55t72.5 -15q94 0 128 84q7 20 26 20h354q12 0 18 -3.5t5 -10.5q-17 -91 -83.5 -174.5t-180 -136.5t-263.5 -53q-170 0 -298 67.5t-198 190t-70 284.5q0 165 70 289.5t194 191.5t284 67q271 0 415 -153t149 -457q0 -24 -23 -24h-673z
M522 766q-35 -32 -50 -116h264q0 67 -33 107.5t-91 40.5q-55 0 -90 -32zM403 1145.5q-89 45.5 -139.5 124.5t-56.5 179q-2 23 23 23h219q20 0 25 -23q7 -48 41.5 -76.5t92.5 -28.5q55 0 91 29t43 76q5 23 25 23h220q23 0 22 -21q-5 -100 -55.5 -180t-140 -125.5
t-205.5 -45.5t-205 45.5z" />
    <glyph glyph-name="Edotaccent" unicode="&#x116;" horiz-adv-x="1210" 
d="M93 0q-23 0 -23 24l13 652l-13 701q0 23 23 23h1032q11 0 17 -6t6 -17v-263q0 -11 -6 -17.5t-17 -6.5h-609l-5 -204h546q11 0 17 -6t6 -17v-263q0 -11 -6 -17.5t-17 -6.5h-546l5 -264h625q11 0 17 -6t6 -17v-265q0 -24 -23 -24h-1048zM429 1460q-24 0 -24 24v263
q0 11 6.5 17t17.5 6h379q10 0 16.5 -6t6.5 -17v-263q0 -11 -6 -17.5t-17 -6.5h-379z" />
    <glyph glyph-name="edotaccent" unicode="&#x117;" horiz-adv-x="1208" 
d="M466 426q6 -72 25 -112t48.5 -55t72.5 -15q94 0 128 84q7 20 26 20h354q12 0 18 -3.5t5 -10.5q-17 -91 -83.5 -174.5t-180 -136.5t-263.5 -53q-170 0 -298 67.5t-198 190t-70 284.5q0 165 70 289.5t194 191.5t284 67q271 0 415 -153t149 -457q0 -24 -23 -24h-673z
M522 766q-35 -32 -50 -116h264q0 67 -33 107.5t-91 40.5q-55 0 -90 -32zM418 1090q-24 0 -24 24v263q0 11 6.5 17t17.5 6h379q10 0 16.5 -6t6.5 -17v-263q0 -11 -6 -17.5t-17 -6.5h-379z" />
    <glyph glyph-name="Eogonek" unicode="&#x118;" horiz-adv-x="1210" 
d="M987 0q-13 -25 -24 -63t-11 -67q0 -35 23.5 -49.5t66.5 -14.5h99q11 0 17 -6.5t6 -17.5v-219q0 -11 -6 -17t-17 -6h-141q-108 0 -189.5 31t-126 89t-44.5 136q0 123 102 204h-649q-23 0 -23 24l13 652l-13 701q0 23 23 23h1032q11 0 17 -6t6 -17v-263q0 -11 -6 -17.5
t-17 -6.5h-609l-5 -204h546q11 0 17 -6t6 -17v-263q0 -11 -6 -17.5t-17 -6.5h-546l5 -264h625q11 0 17 -6t6 -17v-265q0 -24 -23 -24h-154z" />
    <glyph glyph-name="eogonek" unicode="&#x119;" horiz-adv-x="1208" 
d="M1139 426h-673q6 -72 25 -112t48.5 -55t72.5 -15q94 0 128 84q7 20 26 20h354q12 0 18 -3.5t5 -10.5q-13 -68 -55 -134t-111.5 -119t-162.5 -82q-12 -26 -23 -63.5t-11 -65.5q0 -35 23.5 -49.5t66.5 -14.5h99q11 0 17 -6.5t6 -17.5v-219q0 -11 -6 -17t-17 -6h-141
q-108 0 -189.5 31t-126 89t-44.5 136q0 103 72 178q-149 14 -259.5 84.5t-170.5 187.5t-60 266q0 165 70 289.5t194 191.5t284 67q271 0 415 -153t149 -457q0 -24 -23 -24zM736 650q0 67 -33 107.5t-91 40.5q-55 0 -90 -32t-50 -116h264z" />
    <glyph glyph-name="Ecaron" unicode="&#x11a;" horiz-adv-x="1210" 
d="M93 0q-23 0 -23 24l13 652l-13 701q0 23 23 23h1032q11 0 17 -6t6 -17v-263q0 -11 -6 -17.5t-17 -6.5h-609l-5 -204h546q11 0 17 -6t6 -17v-263q0 -11 -6 -17.5t-17 -6.5h-546l5 -264h625q11 0 17 -6t6 -17v-265q0 -24 -23 -24h-1048zM221 1717q-10 9 -10 20q0 8 2 12
l61 149q6 14 18 14q6 0 13 -4l314 -162l312 164q7 4 13 4q12 0 18 -14l63 -151q3 -6 3 -12q0 -11 -11 -20l-303 -243q-13 -10 -29 -10h-132q-16 0 -29 10z" />
    <glyph glyph-name="ecaron" unicode="&#x11b;" horiz-adv-x="1208" 
d="M466 426q6 -72 25 -112t48.5 -55t72.5 -15q94 0 128 84q7 20 26 20h354q12 0 18 -3.5t5 -10.5q-17 -91 -83.5 -174.5t-180 -136.5t-263.5 -53q-170 0 -298 67.5t-198 190t-70 284.5q0 165 70 289.5t194 191.5t284 67q271 0 415 -153t149 -457q0 -24 -23 -24h-673z
M522 766q-35 -32 -50 -116h264q0 67 -33 107.5t-91 40.5q-55 0 -90 -32zM210 1347q-10 9 -10 20q0 8 2 12l61 149q6 14 18 14q6 0 13 -4l314 -162l312 164q7 4 13 4q12 0 18 -14l63 -151q3 -6 3 -12q0 -11 -11 -20l-303 -243q-13 -10 -29 -10h-132q-16 0 -29 10z" />
    <glyph glyph-name="Gcircumflex" unicode="&#x11c;" horiz-adv-x="1588" 
d="M413.5 58.5q-172.5 94.5 -267 261.5t-94.5 380q0 216 94 383.5t263 260t387 92.5q286 0 466 -124t241 -348q1 -3 1 -8q0 -8 -5.5 -13t-15.5 -5h-411q-20 0 -26 19q-30 78 -88.5 116.5t-151.5 38.5q-151 0 -224.5 -107.5t-73.5 -306.5q0 -197 74 -304t225 -107
q104 0 174.5 51t86.5 146h-282q-24 0 -24 24v265q0 23 24 23h723q11 0 17 -7.5t6 -21.5q0 -264 -87.5 -444t-249.5 -269.5t-385 -89.5q-224 0 -396.5 94.5zM390 1615q-2 4 -2 12q0 13 10 20l303 243q13 10 29 10h132q16 0 29 -10l303 -243q11 -8 11 -19q0 -7 -3 -13
l-61 -148q-5 -15 -18 -15q-3 0 -13 4l-314 162l-312 -164q-10 -4 -13 -4q-12 0 -18 15z" />
    <glyph glyph-name="gcircumflex" unicode="&#x11d;" horiz-adv-x="1268" 
d="M267 100q-106 66 -161.5 181t-55.5 258q0 141 59.5 258t168 185t248.5 68q163 0 268 -90l-4 46q-3 24 23 24h371q24 0 24 -23l-6 -521v-482q0 -125 -67.5 -217.5t-193.5 -142.5t-297 -50q-156 -3 -278 38t-193.5 123t-79.5 199q-1 24 23 24h366q11 0 17 -5t9 -16
q10 -37 44.5 -60t93.5 -23q68 0 106 34.5t38 101.5v116q-106 -92 -270 -92q-147 0 -253 66zM760.5 361.5q41.5 57.5 41.5 185.5q0 121 -38.5 177.5t-117.5 56.5q-168 0 -168 -243q0 -123 41.5 -178.5t119.5 -55.5q80 0 121.5 57.5zM230 1245q-2 4 -2 12q0 13 10 20l303 243
q13 10 29 10h132q16 0 29 -10l303 -243q11 -8 11 -19q0 -7 -3 -13l-61 -148q-5 -15 -18 -15q-3 0 -13 4l-314 162l-312 -164q-10 -4 -13 -4q-12 0 -18 15z" />
    <glyph glyph-name="Gbreve" unicode="&#x11e;" horiz-adv-x="1588" 
d="M413.5 58.5q-172.5 94.5 -267 261.5t-94.5 380q0 216 94 383.5t263 260t387 92.5q286 0 466 -124t241 -348q1 -3 1 -8q0 -8 -5.5 -13t-15.5 -5h-411q-20 0 -26 19q-30 78 -88.5 116.5t-151.5 38.5q-151 0 -224.5 -107.5t-73.5 -306.5q0 -197 74 -304t225 -107
q104 0 174.5 51t86.5 146h-282q-24 0 -24 24v265q0 23 24 23h723q11 0 17 -7.5t6 -21.5q0 -264 -87.5 -444t-249.5 -269.5t-385 -89.5q-224 0 -396.5 94.5zM591 1515.5q-89 45.5 -139.5 124.5t-56.5 179q-2 23 23 23h219q20 0 25 -23q7 -48 41.5 -76.5t92.5 -28.5
q55 0 91 29t43 76q5 23 25 23h220q23 0 22 -21q-5 -100 -55.5 -180t-140 -125.5t-205.5 -45.5t-205 45.5z" />
    <glyph glyph-name="gbreve" unicode="&#x11f;" horiz-adv-x="1268" 
d="M267 100q-106 66 -161.5 181t-55.5 258q0 141 59.5 258t168 185t248.5 68q163 0 268 -90l-4 46q-3 24 23 24h371q24 0 24 -23l-6 -521v-482q0 -125 -67.5 -217.5t-193.5 -142.5t-297 -50q-156 -3 -278 38t-193.5 123t-79.5 199q-1 24 23 24h366q11 0 17 -5t9 -16
q10 -37 44.5 -60t93.5 -23q68 0 106 34.5t38 101.5v116q-106 -92 -270 -92q-147 0 -253 66zM760.5 361.5q41.5 57.5 41.5 185.5q0 121 -38.5 177.5t-117.5 56.5q-168 0 -168 -243q0 -123 41.5 -178.5t119.5 -55.5q80 0 121.5 57.5zM431 1145.5q-89 45.5 -139.5 124.5
t-56.5 179q-2 23 23 23h219q20 0 25 -23q7 -48 41.5 -76.5t92.5 -28.5q55 0 91 29t43 76q5 23 25 23h220q23 0 22 -21q-5 -100 -55.5 -180t-140 -125.5t-205.5 -45.5t-205 45.5z" />
    <glyph glyph-name="Gdotaccent" unicode="&#x120;" horiz-adv-x="1588" 
d="M413.5 58.5q-172.5 94.5 -267 261.5t-94.5 380q0 216 94 383.5t263 260t387 92.5q286 0 466 -124t241 -348q1 -3 1 -8q0 -8 -5.5 -13t-15.5 -5h-411q-20 0 -26 19q-30 78 -88.5 116.5t-151.5 38.5q-151 0 -224.5 -107.5t-73.5 -306.5q0 -197 74 -304t225 -107
q104 0 174.5 51t86.5 146h-282q-24 0 -24 24v265q0 23 24 23h723q11 0 17 -7.5t6 -21.5q0 -264 -87.5 -444t-249.5 -269.5t-385 -89.5q-224 0 -396.5 94.5zM608 1470q-24 0 -24 24v263q0 11 6.5 17t17.5 6h379q10 0 16.5 -6t6.5 -17v-263q0 -11 -6 -17.5t-17 -6.5h-379z" />
    <glyph glyph-name="gdotaccent" unicode="&#x121;" horiz-adv-x="1268" 
d="M267 100q-106 66 -161.5 181t-55.5 258q0 141 59.5 258t168 185t248.5 68q163 0 268 -90l-4 46q-3 24 23 24h371q24 0 24 -23l-6 -521v-482q0 -125 -67.5 -217.5t-193.5 -142.5t-297 -50q-156 -3 -278 38t-193.5 123t-79.5 199q-1 24 23 24h366q11 0 17 -5t9 -16
q10 -37 44.5 -60t93.5 -23q68 0 106 34.5t38 101.5v116q-106 -92 -270 -92q-147 0 -253 66zM760.5 361.5q41.5 57.5 41.5 185.5q0 121 -38.5 177.5t-117.5 56.5q-168 0 -168 -243q0 -123 41.5 -178.5t119.5 -55.5q80 0 121.5 57.5zM446 1090q-24 0 -24 24v263q0 11 6.5 17
t17.5 6h379q10 0 16.5 -6t6.5 -17v-263q0 -11 -6 -17.5t-17 -6.5h-379z" />
    <glyph glyph-name="uni0122" unicode="&#x122;" horiz-adv-x="1588" 
d="M413.5 58.5q-172.5 94.5 -267 261.5t-94.5 380q0 216 94 383.5t263 260t387 92.5q286 0 466 -124t241 -348q1 -3 1 -8q0 -8 -5.5 -13t-15.5 -5h-411q-20 0 -26 19q-30 78 -88.5 116.5t-151.5 38.5q-151 0 -224.5 -107.5t-73.5 -306.5q0 -197 74 -304t225 -107
q104 0 174.5 51t86.5 146h-282q-24 0 -24 24v265q0 23 24 23h723q11 0 17 -7.5t6 -21.5q0 -264 -87.5 -444t-249.5 -269.5t-385 -89.5q-224 0 -396.5 94.5zM582 -578q-12 0 -17.5 7t-2.5 18l40 197v254q0 11 6.5 17.5t17.5 6.5h367q11 0 17 -6.5t6 -17.5v-235q0 -17 -12 -29
l-211 -200q-14 -12 -30 -12h-181z" />
    <glyph glyph-name="uni0123" unicode="&#x123;" horiz-adv-x="1268" 
d="M267 100q-106 66 -161.5 181t-55.5 258q0 141 59.5 258t168 185t248.5 68q163 0 268 -90l-4 46q-3 24 23 24h371q24 0 24 -23l-6 -521v-482q0 -125 -67.5 -217.5t-193.5 -142.5t-297 -50q-156 -3 -278 38t-193.5 123t-79.5 199q-1 24 23 24h366q11 0 17 -5t9 -16
q10 -37 44.5 -60t93.5 -23q68 0 106 34.5t38 101.5v116q-106 -92 -270 -92q-147 0 -253 66zM760.5 361.5q41.5 57.5 41.5 185.5q0 121 -38.5 177.5t-117.5 56.5q-168 0 -168 -243q0 -123 41.5 -178.5t119.5 -55.5q80 0 121.5 57.5zM432 1094q-24 0 -24 24v235q0 16 13 29
l211 200q12 12 29 12h181q12 0 17.5 -7t3.5 -18l-41 -197v-254q0 -11 -6 -17.5t-17 -6.5h-367z" />
    <glyph glyph-name="Hcircumflex" unicode="&#x124;" horiz-adv-x="1482" 
d="M1399 708l13 -684q0 -24 -22 -24h-407q-24 0 -24 24l8 564h-452l8 -564q0 -24 -23 -24h-407q-23 0 -23 24l13 684l-13 669q0 23 23 23h407q23 0 23 -23l-7 -479h451l-8 479q0 23 24 23h407q22 0 22 -23zM336 1615q-2 4 -2 12q0 13 10 20l303 243q13 10 29 10h132
q16 0 29 -10l303 -243q11 -8 11 -19q0 -7 -3 -13l-61 -148q-5 -15 -18 -15q-3 0 -13 4l-314 162l-312 -164q-10 -4 -13 -4q-12 0 -18 15z" />
    <glyph glyph-name="hcircumflex" unicode="&#x125;" horiz-adv-x="1220" 
d="M988 1005.5q84 -48.5 127 -137t43 -208.5v-224l8 -412q0 -24 -22 -24h-383q-23 0 -23 24l8 412v186q0 71 -23 100.5t-73 29.5q-41 0 -77 -31.5t-60 -98.5t-27 -170l8 -428q0 -24 -22 -24h-389q-24 0 -24 24l7 496l-1 857q0 23 24 23h361q22 0 22 -23l-7 -467
q45 68 126.5 106t192.5 38q120 0 204 -48.5zM-136 1615q-2 4 -2 12q0 13 10 20l303 243q13 10 29 10h132q16 0 29 -10l303 -243q11 -8 11 -19q0 -7 -3 -13l-61 -148q-5 -15 -18 -15q-3 0 -13 4l-314 162l-312 -164q-10 -4 -13 -4q-12 0 -18 15z" />
    <glyph glyph-name="Hbar" unicode="&#x126;" horiz-adv-x="1492" 
d="M1441 1216q11 0 17 -6t6 -17v-263q0 -11 -6 -17.5t-17 -6.5h-42l-4 -198l13 -684q0 -24 -22 -24h-387q-24 0 -24 24l6 394h-468l6 -394q0 -24 -23 -24h-387q-23 0 -23 24l13 684l-3 198h-42q-11 0 -17.5 6.5t-6.5 17.5v263q0 11 6.5 17t17.5 6h35l-3 161q0 23 23 23h387
q23 0 23 -23l-2 -161h461l-3 161q0 23 24 23h387q22 0 22 -23l-3 -161h36zM512 906l-3 -178h476l-3 178h-470z" />
    <glyph glyph-name="hbar" unicode="&#x127;" horiz-adv-x="1218" 
d="M1156 436l8 -412q0 -24 -22 -24h-383q-23 0 -23 24l8 412v166q0 71 -22.5 100.5t-72.5 29.5q-41 0 -77.5 -31.5t-60.5 -99t-26 -169.5l7 -408q0 -24 -22 -24h-389q-24 0 -24 24l7 496v546h-44q-11 0 -17.5 6.5t-6.5 17.5v219q0 11 6.5 17t17.5 6h43v45q0 23 24 23h361
q22 0 22 -23l-1 -45h256q11 0 17 -6t6 -17v-219q0 -24 -23 -24h-260l-3 -177q46 69 127 107t194 38q120 0 203.5 -48.5t126.5 -137t43 -208.5v-204z" />
    <glyph glyph-name="Itilde" unicode="&#x128;" horiz-adv-x="604" 
d="M103 0q-23 0 -23 24l11 662l-11 691q0 23 23 23h399q22 0 22 -23l-11 -691l11 -662q0 -24 -22 -24h-399zM345.5 1490.5q-38.5 13.5 -83.5 37.5q-27 14 -43.5 20.5t-30.5 6.5q-22 0 -31.5 -16t-11.5 -45q-2 -23 -24 -23h-155q-24 0 -24 24q5 141 64 225.5t174 84.5
q45 0 81 -13.5t87 -38.5q27 -14 41 -20t25 -6q23 0 33 14.5t12 43.5q1 11 7.5 17.5t17.5 6.5h155q24 0 22 -32q-5 -145 -61 -222.5t-166 -77.5q-50 0 -88.5 13.5z" />
    <glyph glyph-name="itilde" unicode="&#x129;" horiz-adv-x="556" 
d="M322 1120.5q-32 13.5 -72 37.5q-23 14 -36 20.5t-24 6.5q-21 0 -29 -15.5t-10 -45.5q-2 -23 -24 -23h-136q-23 0 -23 24q4 141 53.5 225.5t146.5 84.5q37 0 68 -13.5t71 -37.5q23 -14 35.5 -20.5t23.5 -6.5q21 0 29.5 14.5t9.5 43.5q1 11 7.5 17.5t17.5 6.5h135
q24 0 22 -37q-5 -143 -52 -219t-139 -76q-42 0 -74 13.5zM90 0q-24 0 -24 24l6 472l-6 511q0 23 24 23h377q23 0 23 -23l-6 -511l6 -472q0 -24 -23 -24h-377z" />
    <glyph glyph-name="Imacron" unicode="&#x12a;" horiz-adv-x="604" 
d="M103 0q-23 0 -23 24l11 662l-11 691q0 23 23 23h399q22 0 22 -23l-11 -691l11 -662q0 -24 -22 -24h-399zM-32 1490q-24 0 -24 24v203q0 11 6.5 17t17.5 6h667q10 0 16.5 -6t6.5 -17v-203q0 -11 -6 -17.5t-17 -6.5h-667z" />
    <glyph glyph-name="imacron" unicode="&#x12b;" horiz-adv-x="556" 
d="M-7 1120q-23 0 -23 24v203q0 11 6 17t17 6h568q11 0 17 -6t6 -17v-203q0 -11 -6 -17.5t-17 -6.5h-568zM90 0q-24 0 -24 24l6 472l-6 511q0 23 24 23h377q23 0 23 -23l-6 -511l6 -472q0 -24 -23 -24h-377z" />
    <glyph glyph-name="Ibreve" unicode="&#x12c;" horiz-adv-x="604" 
d="M103 0q-23 0 -23 24l11 662l-11 691q0 23 23 23h399q22 0 22 -23l-11 -691l11 -662q0 -24 -22 -24h-399zM97 1515.5q-89 45.5 -139.5 124.5t-56.5 179q-2 23 23 23h219q20 0 25 -23q7 -48 41.5 -76.5t92.5 -28.5q55 0 91 29t43 76q5 23 25 23h220q23 0 22 -21
q-5 -100 -55.5 -180t-140 -125.5t-205.5 -45.5t-205 45.5z" />
    <glyph glyph-name="ibreve" unicode="&#x12d;" horiz-adv-x="556" 
d="M97.5 1143q-77.5 43 -122 121.5t-48.5 183.5q-2 24 22 24h202q22 0 24 -23q9 -111 103 -111q46 0 72.5 28t30.5 83q2 23 24 23h202q11 0 17 -6.5t5 -18.5q-4 -104 -48.5 -182.5t-122 -121.5t-180.5 -43t-180.5 43zM90 0q-24 0 -24 24l6 472l-6 511q0 23 24 23h377
q23 0 23 -23l-6 -511l6 -472q0 -24 -23 -24h-377z" />
    <glyph glyph-name="Iogonek" unicode="&#x12e;" horiz-adv-x="604" 
d="M513 686l11 -662q0 -24 -22 -24h-185q-13 -25 -24 -63t-11 -67q0 -35 23.5 -49.5t66.5 -14.5h99q11 0 17 -6.5t6 -17.5v-219q0 -11 -6 -17t-17 -6h-141q-108 0 -189.5 31t-126 89t-44.5 136q0 129 113 213q-3 6 -3 15l11 662l-11 691q0 23 23 23h399q22 0 22 -23z" />
    <glyph glyph-name="iogonek" unicode="&#x12f;" horiz-adv-x="556" 
d="M467 1400q11 0 17 -6t6 -17v-263q0 -11 -6 -17.5t-17 -6.5h-379q-24 0 -24 24v263q0 11 6.5 17t17.5 6h379zM467 1030q23 0 23 -23l-6 -511l6 -472q0 -24 -23 -24h-158q-13 -25 -24 -63t-11 -67q0 -35 23.5 -49.5t66.5 -14.5h99q11 0 17 -6.5t6 -17.5v-219q0 -11 -6 -17
t-17 -6h-141q-108 0 -189.5 31t-126 89t-44.5 136q0 129 110 210q-6 6 -6 18l6 472l-6 511q0 23 24 23h377z" />
    <glyph glyph-name="Idotaccent" unicode="&#x130;" horiz-adv-x="604" 
d="M103 0q-23 0 -23 24l11 662l-11 691q0 23 23 23h399q22 0 22 -23l-11 -691l11 -662q0 -24 -22 -24h-399zM112 1460q-24 0 -24 24v263q0 11 6.5 17t17.5 6h379q10 0 16.5 -6t6.5 -17v-263q0 -11 -6 -17.5t-17 -6.5h-379z" />
    <glyph glyph-name="dotlessi" unicode="&#x131;" horiz-adv-x="556" 
d="M90 0q-24 0 -24 24l6 472l-6 511q0 23 24 23h377q23 0 23 -23l-6 -511l6 -472q0 -24 -23 -24h-377z" />
    <glyph glyph-name="IJ" unicode="&#x132;" horiz-adv-x="1826" 
d="M103 0q-23 0 -23 24l11 662l-11 691q0 23 23 23h399q22 0 22 -23l-11 -691l11 -662q0 -24 -22 -24h-399zM902.5 31.5q-120.5 63.5 -185 180t-69.5 272.5q0 23 24 23h385q23 0 23 -24q7 -185 116 -185q36 0 59 18.5t35 64.5t12 127v444l-7 425q0 23 23 23h412q24 0 24 -23
l-6 -425v-448q0 -270 -143.5 -403t-412.5 -133q-169 0 -289.5 63.5z" />
    <glyph glyph-name="ij" unicode="&#x133;" horiz-adv-x="1112" 
d="M90 0q-24 0 -24 24l6 472l-6 511q0 23 24 23h377q23 0 23 -23l-6 -511l6 -472q0 -24 -23 -24h-377zM88 1090q-24 0 -24 24v263q0 11 6.5 17t17.5 6h379q10 0 16.5 -6t6.5 -17v-263q0 -11 -6 -17.5t-17 -6.5h-379zM643 -340q-23 0 -23 23l11 695l-11 629q0 23 23 23h383
q22 0 22 -23l-11 -629l11 -695q0 -23 -22 -23h-383zM644 1090q-24 0 -24 24v263q0 11 6.5 17t17.5 6h379q10 0 16.5 -6t6.5 -17v-263q0 -11 -6 -17.5t-17 -6.5h-379z" />
    <glyph glyph-name="Jcircumflex" unicode="&#x134;" horiz-adv-x="1222" 
d="M298.5 31.5q-120.5 63.5 -185 180t-69.5 272.5q0 23 24 23h385q23 0 23 -24q7 -185 116 -185q36 0 59 18.5t35 64.5t12 127v444l-7 425q0 23 23 23h412q24 0 24 -23l-6 -425v-448q0 -270 -143.5 -403t-412.5 -133q-169 0 -289.5 63.5zM514 1615q-2 4 -2 12q0 13 10 20
l303 243q13 10 29 10h132q16 0 29 -10l303 -243q11 -8 11 -19q0 -7 -3 -13l-61 -148q-5 -15 -18 -15q-3 0 -13 4l-314 162l-312 -164q-10 -4 -13 -4q-12 0 -18 15z" />
    <glyph glyph-name="jcircumflex" unicode="&#x135;" horiz-adv-x="556" 
d="M-76 1240q-4 7 -4 15q0 11 8 18l256 245q14 12 29 12h130q17 0 29 -12l256 -245q9 -7 9 -19q0 -4 -4 -14l-75 -145q-6 -13 -18 -13q-7 0 -15 5l-247 171l-245 -171q-8 -5 -14 -5q-12 0 -19 13zM87 -340q-23 0 -23 23l11 695l-11 629q0 23 23 23h383q22 0 22 -23l-11 -629
l11 -695q0 -23 -22 -23h-383z" />
    <glyph glyph-name="uni0136" unicode="&#x136;" horiz-adv-x="1398" 
d="M1405 29q5 -6 5 -15q0 -14 -19 -14h-469q-17 0 -28 15l-320 471l-79 -100l4 -362q0 -24 -23 -24h-383q-23 0 -23 24l13 677l-11 676q0 23 23 23h381q23 0 23 -23l-5 -443l300 451q10 15 28 15h443q10 0 15.5 -4t5.5 -10q0 -4 -7 -15l-439 -550zM468 -578q-12 0 -17.5 7
t-2.5 18l40 197v254q0 11 6.5 17.5t17.5 6.5h367q11 0 17 -6.5t6 -17.5v-235q0 -17 -12 -29l-211 -200q-14 -12 -30 -12h-181z" />
    <glyph glyph-name="uni0137" unicode="&#x137;" horiz-adv-x="1186" 
d="M1158 28q3 -6 3 -12q0 -16 -20 -16h-431q-20 0 -27 17l-149 326l-58 -82l2 -237q0 -24 -23 -24h-371q-23 0 -23 24l13 682l-13 671q0 23 23 23h371q23 0 23 -23l-6 -656l205 295q10 14 28 14h394q9 0 14.5 -4t5.5 -10q0 -7 -6 -15l-287 -334zM354 -578q-12 0 -17.5 7
t-2.5 18l40 197v254q0 11 6.5 17.5t17.5 6.5h367q11 0 17 -6.5t6 -17.5v-235q0 -17 -12 -29l-211 -200q-14 -12 -30 -12h-181z" />
    <glyph glyph-name="Lacute" unicode="&#x139;" horiz-adv-x="1078" 
d="M93 0q-23 0 -23 24l11 655l-11 698q0 23 23 23h403q23 0 23 -23l-7 -685l6 -380h493q11 0 17 -6t6 -17v-265q0 -24 -23 -24h-918zM88 1455q-2 -1 -7 -1q-17 0 -21 18l-48 160q-1 3 -1 9q0 15 16 21l518 197q4 2 11 2q14 0 19 -16l76 -259q1 -3 1 -9q0 -16 -18 -19z" />
    <glyph glyph-name="lacute" unicode="&#x13a;" horiz-adv-x="544" 
d="M90 0q-24 0 -24 24l8 668l-8 685q0 23 24 23h365q23 0 23 -23l-8 -687l8 -666q0 -24 -23 -24h-365zM66 1455q-2 -1 -7 -1q-17 0 -21 18l-48 160q-1 3 -1 9q0 15 16 21l518 197q4 2 11 2q14 0 19 -16l76 -259q1 -3 1 -9q0 -16 -18 -19z" />
    <glyph glyph-name="uni013B" unicode="&#x13b;" horiz-adv-x="1078" 
d="M93 0q-23 0 -23 24l11 655l-11 698q0 23 23 23h403q23 0 23 -23l-7 -685l6 -380h493q11 0 17 -6t6 -17v-265q0 -24 -23 -24h-918zM326 -578q-12 0 -17.5 7t-2.5 18l40 197v254q0 11 6.5 17.5t17.5 6.5h367q11 0 17 -6.5t6 -17.5v-235q0 -17 -12 -29l-211 -200
q-14 -12 -30 -12h-181z" />
    <glyph glyph-name="uni013C" unicode="&#x13c;" horiz-adv-x="544" 
d="M90 0q-24 0 -24 24l8 668l-8 685q0 23 24 23h365q23 0 23 -23l-8 -687l8 -666q0 -24 -23 -24h-365zM44 -578q-12 0 -17.5 7t-2.5 18l40 197v254q0 11 6.5 17.5t17.5 6.5h367q11 0 17 -6.5t6 -17.5v-235q0 -17 -12 -29l-211 -200q-14 -12 -30 -12h-181z" />
    <glyph glyph-name="Lcaron" unicode="&#x13d;" horiz-adv-x="1078" 
d="M93 0q-23 0 -23 24l11 655l-11 698q0 23 23 23h403q23 0 23 -23l-7 -685l6 -380h493q11 0 17 -6t6 -17v-265q0 -24 -23 -24h-918zM872 891q-5 -21 -27 -21h-213q-25 0 -23 25l34 483q1 22 25 22h283q12 0 17.5 -7t3.5 -18z" />
    <glyph glyph-name="lcaron" unicode="&#x13e;" horiz-adv-x="544" 
d="M90 0q-24 0 -24 24l8 668l-8 685q0 23 24 23h365q23 0 23 -23l-8 -687l8 -666q0 -24 -23 -24h-365zM785 1100q-5 -21 -27 -21h-213q-25 0 -23 25l34 483q1 22 25 22h283q12 0 17.5 -7t3.5 -18z" />
    <glyph glyph-name="Ldot" unicode="&#x13f;" horiz-adv-x="1078" 
d="M93 0q-23 0 -23 24l11 655l-11 698q0 23 23 23h403q23 0 23 -23l-7 -685l6 -380h493q11 0 17 -6t6 -17v-265q0 -24 -23 -24h-918zM616 590q-24 0 -24 24v263q0 11 6.5 17t17.5 6h379q10 0 16.5 -6t6.5 -17v-263q0 -11 -6 -17.5t-17 -6.5h-379z" />
    <glyph glyph-name="ldot" unicode="&#x140;" horiz-adv-x="893" 
d="M90 0q-24 0 -24 24l8 668l-8 685q0 23 24 23h365q23 0 23 -23l-8 -687l8 -666q0 -24 -23 -24h-365zM568 488q-10 0 -16.5 6.5t-6.5 16.5v284q0 11 6 17t17 6h301q11 0 17.5 -6t6.5 -17v-284q0 -23 -24 -23h-301z" />
    <glyph glyph-name="Lslash" unicode="&#x141;" horiz-adv-x="1094" 
d="M703 985q8 2 10 2q8 0 12.5 -5.5t4.5 -15.5v-260q0 -20 -19 -26l-182 -60l5 -308h493q11 0 17 -6t6 -17v-265q0 -24 -23 -24h-918q-23 0 -23 24l8 453l-37 -12l-9 -2q-8 0 -13 5.5t-5 15.5v260q0 20 19 26l46 16l-9 591q0 23 23 23h403q23 0 23 -23l-4 -449z" />
    <glyph glyph-name="lslash" unicode="&#x142;" horiz-adv-x="554" 
d="M490 781q6 3 12 3q16 0 16 -20v-261q0 -19 -16 -28l-29 -16l5 -435q0 -24 -23 -24h-365q-24 0 -24 24l3 219l-7 -4q-6 -3 -12 -3q-16 0 -16 20v261q0 18 16 28l22 12l2 135l-8 685q0 23 24 23h365q23 0 23 -23l-7 -606z" />
    <glyph glyph-name="Nacute" unicode="&#x143;" horiz-adv-x="1438" 
d="M93 0q-24 0 -24 24l10 664l-10 689q0 23 24 23h440q19 0 28 -16l419 -748l-8 98l-1 643q0 23 24 23h349q23 0 23 -23l-10 -689l11 -664q0 -24 -22 -24h-455q-18 0 -28 16l-405 740l8 -116l1 -616q0 -24 -23 -24h-351zM534 1455q-2 -1 -7 -1q-17 0 -21 18l-48 160
q-1 3 -1 9q0 15 16 21l518 197q4 2 11 2q14 0 19 -16l76 -259q1 -3 1 -9q0 -16 -18 -19z" />
    <glyph glyph-name="nacute" unicode="&#x144;" horiz-adv-x="1220" 
d="M1158 436l6 -412q0 -24 -23 -24h-381q-24 0 -24 24l6 412v190q0 64 -25.5 95t-70.5 31q-77 0 -119.5 -85.5t-44.5 -234.5l6 -408q0 -24 -23 -24h-381q-23 0 -23 24l8 496l-4 487q0 23 24 23h357q25 0 23 -24l-5 -96q49 76 133.5 110t186.5 34q119 0 203.5 -48.5
t127.5 -134.5t43 -197v-238zM406 1085q-2 -1 -7 -1q-17 0 -21 18l-48 160q-1 3 -1 9q0 15 16 21l518 197q4 2 11 2q14 0 19 -16l76 -259q1 -3 1 -9q0 -16 -18 -19z" />
    <glyph glyph-name="uni0145" unicode="&#x145;" horiz-adv-x="1438" 
d="M93 0q-24 0 -24 24l10 664l-10 689q0 23 24 23h440q19 0 28 -16l419 -748l-8 98l-1 643q0 23 24 23h349q23 0 23 -23l-10 -689l11 -664q0 -24 -22 -24h-455q-18 0 -28 16l-405 740l8 -116l1 -616q0 -24 -23 -24h-351zM492 -578q-12 0 -17.5 7t-2.5 18l40 197v254
q0 11 6.5 17.5t17.5 6.5h367q11 0 17 -6.5t6 -17.5v-235q0 -17 -12 -29l-211 -200q-14 -12 -30 -12h-181z" />
    <glyph glyph-name="uni0146" unicode="&#x146;" horiz-adv-x="1220" 
d="M1158 436l6 -412q0 -24 -23 -24h-381q-24 0 -24 24l6 412v190q0 64 -25.5 95t-70.5 31q-77 0 -119.5 -85.5t-44.5 -234.5l6 -408q0 -24 -23 -24h-381q-23 0 -23 24l8 496l-4 487q0 23 24 23h357q25 0 23 -24l-5 -96q49 76 133.5 110t186.5 34q119 0 203.5 -48.5
t127.5 -134.5t43 -197v-238zM384 -578q-12 0 -17.5 7t-2.5 18l40 197v254q0 11 6.5 17.5t17.5 6.5h367q11 0 17 -6.5t6 -17.5v-235q0 -17 -12 -29l-211 -200q-14 -12 -30 -12h-181z" />
    <glyph glyph-name="Ncaron" unicode="&#x147;" horiz-adv-x="1438" 
d="M93 0q-24 0 -24 24l10 664l-10 689q0 23 24 23h440q19 0 28 -16l419 -748l-8 98l-1 643q0 23 24 23h349q23 0 23 -23l-10 -689l11 -664q0 -24 -22 -24h-455q-18 0 -28 16l-405 740l8 -116l1 -616q0 -24 -23 -24h-351zM342 1717q-10 9 -10 20q0 8 2 12l61 149q6 14 18 14
q6 0 13 -4l314 -162l312 164q7 4 13 4q12 0 18 -14l63 -151q3 -6 3 -12q0 -11 -11 -20l-303 -243q-13 -10 -29 -10h-132q-16 0 -29 10z" />
    <glyph glyph-name="ncaron" unicode="&#x148;" horiz-adv-x="1220" 
d="M1158 436l6 -412q0 -24 -23 -24h-381q-24 0 -24 24l6 412v190q0 64 -25.5 95t-70.5 31q-77 0 -119.5 -85.5t-44.5 -234.5l6 -408q0 -24 -23 -24h-381q-23 0 -23 24l8 496l-4 487q0 23 24 23h357q25 0 23 -24l-5 -96q49 76 133.5 110t186.5 34q119 0 203.5 -48.5
t127.5 -134.5t43 -197v-238zM214 1347q-10 9 -10 20q0 8 2 12l61 149q6 14 18 14q6 0 13 -4l314 -162l312 164q7 4 13 4q12 0 18 -14l63 -151q3 -6 3 -12q0 -11 -11 -20l-303 -243q-13 -10 -29 -10h-132q-16 0 -29 10z" />
    <glyph glyph-name="Eng" unicode="&#x14a;" horiz-adv-x="1437" 
d="M93 0q-24 0 -24 24l10 664l-10 689q0 23 24 23h441q19 0 28 -15l410 -647v85l2 554q0 11 6.5 17t17.5 6h346q23 0 23 -23l-10 -689l11 -690q1 -126 -54.5 -206.5t-151 -117t-216.5 -36.5q-109 0 -217 18q-21 3 -21 26v242q0 20 18 20q5 0 8 -1q45 -9 102 -9
q63 0 91.5 16.5t28.5 63.5v4l-502 794l12 -172l-2 -616q0 -11 -6 -17.5t-17 -6.5h-348z" />
    <glyph glyph-name="eng" unicode="&#x14b;" horiz-adv-x="1214" 
d="M510 -342q-22 1 -22 24v243q0 12 7 17.5t19 3.5q57 -12 130 -12q44 0 67.5 18.5t24.5 69.5l6 604q1 64 -25 95t-71 31q-78 0 -121 -88t-43 -242v-8l6 -390q0 -24 -23 -24h-381q-23 0 -23 24l8 496l-4 487q0 23 24 23h357q25 0 23 -24l-5 -96q49 76 133.5 110t186.5 34
q119 0 203.5 -48.5t128 -134.5t42.5 -197l-2 -694q0 -116 -54 -192t-144 -112t-200 -36q-95 0 -248 18z" />
    <glyph glyph-name="Omacron" unicode="&#x14c;" horiz-adv-x="1614" 
d="M410 58.5q-171 94.5 -264.5 261t-93.5 374.5q0 221 92.5 389t263 260.5t398.5 92.5q226 0 397 -91t265 -259t94 -392q0 -208 -93.5 -374t-265.5 -261t-397 -95t-396 94.5zM1031.5 395q74.5 107 74.5 299q0 196 -75 307t-225 111t-224 -108.5t-74 -309.5q0 -190 77.5 -298
t224.5 -108t221.5 107zM464 1490q-24 0 -24 24v203q0 11 6.5 17t17.5 6h667q10 0 16.5 -6t6.5 -17v-203q0 -11 -6 -17.5t-17 -6.5h-667z" />
    <glyph glyph-name="omacron" unicode="&#x14d;" horiz-adv-x="1236" 
d="M314.5 36q-128.5 66 -196.5 188.5t-68 287.5q0 166 68 289.5t196.5 191t305.5 67.5q178 0 305.5 -65.5t194 -187t66.5 -287.5t-67 -290t-194.5 -192t-304.5 -68t-305.5 66zM699 269.5q30 23.5 44.5 81t14.5 161.5q0 149 -33.5 211.5t-106.5 62.5q-51 -2 -82 -29
t-45.5 -87t-14.5 -162q0 -99 15.5 -156.5t47 -81.5t81.5 -24q49 0 79 23.5zM286 1120q-24 0 -24 24v203q0 11 6.5 17t17.5 6h667q10 0 16.5 -6t6.5 -17v-203q0 -11 -6 -17.5t-17 -6.5h-667z" />
    <glyph glyph-name="Obreve" unicode="&#x14e;" horiz-adv-x="1614" 
d="M410 58.5q-171 94.5 -264.5 261t-93.5 374.5q0 221 92.5 389t263 260.5t398.5 92.5q226 0 397 -91t265 -259t94 -392q0 -208 -93.5 -374t-265.5 -261t-397 -95t-396 94.5zM1031.5 395q74.5 107 74.5 299q0 196 -75 307t-225 111t-224 -108.5t-74 -309.5q0 -190 77.5 -298
t224.5 -108t221.5 107zM593 1515.5q-89 45.5 -139.5 124.5t-56.5 179q-2 23 23 23h219q20 0 25 -23q7 -48 41.5 -76.5t92.5 -28.5q55 0 91 29t43 76q5 23 25 23h220q23 0 22 -21q-5 -100 -55.5 -180t-140 -125.5t-205.5 -45.5t-205 45.5z" />
    <glyph glyph-name="obreve" unicode="&#x14f;" horiz-adv-x="1236" 
d="M314.5 36q-128.5 66 -196.5 188.5t-68 287.5q0 166 68 289.5t196.5 191t305.5 67.5q178 0 305.5 -65.5t194 -187t66.5 -287.5t-67 -290t-194.5 -192t-304.5 -68t-305.5 66zM699 269.5q30 23.5 44.5 81t14.5 161.5q0 149 -33.5 211.5t-106.5 62.5q-51 -2 -82 -29
t-45.5 -87t-14.5 -162q0 -99 15.5 -156.5t47 -81.5t81.5 -24q49 0 79 23.5zM415 1145.5q-89 45.5 -139.5 124.5t-56.5 179q-2 23 23 23h219q20 0 25 -23q7 -48 41.5 -76.5t92.5 -28.5q55 0 91 29t43 76q5 23 25 23h220q23 0 22 -21q-5 -100 -55.5 -180t-140 -125.5
t-205.5 -45.5t-205 45.5z" />
    <glyph glyph-name="Ohungarumlaut" unicode="&#x150;" horiz-adv-x="1614" 
d="M410 58.5q-171 94.5 -264.5 261t-93.5 374.5q0 221 92.5 389t263 260.5t398.5 92.5q226 0 397 -91t265 -259t94 -392q0 -208 -93.5 -374t-265.5 -261t-397 -95t-396 94.5zM1031.5 395q74.5 107 74.5 299q0 196 -75 307t-225 111t-224 -108.5t-74 -309.5q0 -190 77.5 -298
t224.5 -108t221.5 107zM628 1493q-7 -7 -16 -7t-17 7l-104 85q-10 9 -10 19q0 6 5 14l240 367q7 11 17 11q9 0 16 -7l174 -168q8 -8 8 -16q0 -6 -8 -16zM1010 1477q-8 -8 -17 -8q-7 0 -16 7l-106 84q-9 8 -9 18q0 7 5 15l241 367q8 12 17 12q8 0 16 -8l172 -164q8 -8 8 -16
q0 -6 -8 -16z" />
    <glyph glyph-name="ohungarumlaut" unicode="&#x151;" horiz-adv-x="1236" 
d="M314.5 36q-128.5 66 -196.5 188.5t-68 287.5q0 166 68 289.5t196.5 191t305.5 67.5q178 0 305.5 -65.5t194 -187t66.5 -287.5t-67 -290t-194.5 -192t-304.5 -68t-305.5 66zM699 269.5q30 23.5 44.5 81t14.5 161.5q0 149 -33.5 211.5t-106.5 62.5q-51 -2 -82 -29
t-45.5 -87t-14.5 -162q0 -99 15.5 -156.5t47 -81.5t81.5 -24q49 0 79 23.5zM450 1123q-7 -7 -16 -7t-17 7l-104 85q-10 9 -10 19q0 6 5 14l240 367q7 11 17 11q9 0 16 -7l174 -168q8 -8 8 -16q0 -6 -8 -16zM832 1107q-8 -8 -17 -8q-7 0 -16 7l-106 84q-9 8 -9 18q0 7 5 15
l241 367q8 12 17 12q8 0 16 -8l172 -164q8 -8 8 -16q0 -6 -8 -16z" />
    <glyph glyph-name="OE" unicode="&#x152;" horiz-adv-x="2106" 
d="M2037 312q11 0 17 -6t6 -17v-265q0 -24 -23 -24h-1211q-222 0 -395 65.5t-276 217t-103 397.5q0 254 106.5 415t281.5 233t390 72h1191q11 0 17 -6t6 -17v-263q0 -11 -6 -17.5t-17 -6.5h-608l-3 -204h543q11 0 17 -6t6 -17v-263q0 -11 -6 -17.5t-17 -6.5h-545l5 -264h624
zM972 312l4 364l-5 414h-153q-154 0 -241 -99t-87 -307q0 -197 80 -284.5t240 -87.5h162z" />
    <glyph glyph-name="oe" unicode="&#x153;" horiz-adv-x="1956" 
d="M287.5 36q-122.5 66 -187 188.5t-64.5 287.5q0 166 65 289.5t187 191t290 67.5q125 0 223 -39.5t165 -115.5q67 76 164.5 115.5t221.5 39.5q175 0 298.5 -76t188.5 -215.5t69 -328.5q0 -24 -23 -24h-708q10 -94 47 -132t106 -38q46 0 77 14.5t47 57.5q7 20 27 20h357
q11 0 17.5 -3.5t5.5 -10.5q-8 -86 -73.5 -168t-178.5 -134t-255 -52q-125 0 -223 41.5t-166 118.5q-67 -78 -165 -119t-222 -41q-168 0 -290.5 66zM1236 760.5q-33 -27.5 -49 -88.5h269q-18 50 -47.5 83t-82.5 33q-57 0 -90 -27.5zM686.5 269.5q29.5 23.5 43.5 81t14 161.5
q0 101 -15 161t-45.5 86.5t-79.5 26.5q-51 -2 -82 -29t-45.5 -87t-14.5 -162q0 -100 16 -157t47.5 -81t82.5 -24q49 0 78.5 23.5z" />
    <glyph glyph-name="Racute" unicode="&#x154;" horiz-adv-x="1406" 
d="M1381 28q5 -8 5 -14t-5.5 -10t-14.5 -4h-457q-18 0 -29 16l-224 374l-50 74h-94l7 -440q0 -24 -23 -24h-403q-24 0 -24 24l10 654l-10 699q0 23 24 23h641q298 0 454 -119t156 -351q0 -143 -73.5 -248.5t-212.5 -160.5zM515 1096l-4 -328h243q39 0 76.5 16t62.5 50t25 86
q0 91 -44.5 133.5t-131.5 42.5h-227zM480 1455q-2 -1 -7 -1q-17 0 -21 18l-48 160q-1 3 -1 9q0 15 16 21l518 197q4 2 11 2q14 0 19 -16l76 -259q1 -3 1 -9q0 -16 -18 -19z" />
    <glyph glyph-name="racute" unicode="&#x155;" horiz-adv-x="884" 
d="M83 0q-24 0 -23 24l13 482l-13 501q-2 23 23 23h369q25 0 23 -24l-7 -134q61 82 143.5 123t182.5 41q10 0 28 -2q22 -4 22 -26v-259q0 -24 -16 -24q-6 1 -16 1q-157 0 -246 -86.5t-89 -247.5q0 -22 1 -34l1 -334q0 -24 -23 -24h-373zM238 1085q-2 -1 -7 -1q-17 0 -21 18
l-48 160q-1 3 -1 9q0 15 16 21l518 197q4 2 11 2q14 0 19 -16l76 -259q1 -3 1 -9q0 -16 -18 -19z" />
    <glyph glyph-name="uni0156" unicode="&#x156;" horiz-adv-x="1406" 
d="M1381 28q5 -8 5 -14t-5.5 -10t-14.5 -4h-457q-18 0 -29 16l-224 374l-50 74h-94l7 -440q0 -24 -23 -24h-403q-24 0 -24 24l10 654l-10 699q0 23 24 23h641q298 0 454 -119t156 -351q0 -143 -73.5 -248.5t-212.5 -160.5zM515 1096l-4 -328h243q39 0 76.5 16t62.5 50t25 86
q0 91 -44.5 133.5t-131.5 42.5h-227zM477 -578q-12 0 -17.5 7t-2.5 18l40 197v254q0 11 6.5 17.5t17.5 6.5h367q11 0 17 -6.5t6 -17.5v-235q0 -17 -12 -29l-211 -200q-14 -12 -30 -12h-181z" />
    <glyph glyph-name="uni0157" unicode="&#x157;" horiz-adv-x="884" 
d="M83 0q-24 0 -23 24l13 482l-13 501q-2 23 23 23h369q25 0 23 -24l-7 -134q61 82 143.5 123t182.5 41q10 0 28 -2q22 -4 22 -26v-259q0 -24 -16 -24q-6 1 -16 1q-157 0 -246 -86.5t-89 -247.5q0 -22 1 -34l1 -334q0 -24 -23 -24h-373zM42 -578q-12 0 -17.5 7t-2.5 18
l40 197v254q0 11 6.5 17.5t17.5 6.5h367q11 0 17 -6.5t6 -17.5v-235q0 -17 -12 -29l-211 -200q-14 -12 -30 -12h-181z" />
    <glyph glyph-name="Rcaron" unicode="&#x158;" horiz-adv-x="1406" 
d="M1381 28q5 -8 5 -14t-5.5 -10t-14.5 -4h-457q-18 0 -29 16l-224 374l-50 74h-94l7 -440q0 -24 -23 -24h-403q-24 0 -24 24l10 654l-10 699q0 23 24 23h641q298 0 454 -119t156 -351q0 -143 -73.5 -248.5t-212.5 -160.5zM515 1096l-4 -328h243q39 0 76.5 16t62.5 50t25 86
q0 91 -44.5 133.5t-131.5 42.5h-227zM288 1717q-10 9 -10 20q0 8 2 12l61 149q6 14 18 14q6 0 13 -4l314 -162l312 164q7 4 13 4q12 0 18 -14l63 -151q3 -6 3 -12q0 -11 -11 -20l-303 -243q-13 -10 -29 -10h-132q-16 0 -29 10z" />
    <glyph glyph-name="rcaron" unicode="&#x159;" horiz-adv-x="884" 
d="M83 0q-24 0 -23 24l13 482l-13 501q-2 23 23 23h369q25 0 23 -24l-7 -134q61 82 143.5 123t182.5 41q10 0 28 -2q22 -4 22 -26v-259q0 -24 -16 -24q-6 1 -16 1q-157 0 -246 -86.5t-89 -247.5q0 -22 1 -34l1 -334q0 -24 -23 -24h-373zM46 1347q-10 9 -10 20q0 8 2 12
l61 149q6 14 18 14q6 0 13 -4l314 -162l312 164q7 4 13 4q12 0 18 -14l63 -151q3 -6 3 -12q0 -11 -11 -20l-303 -243q-13 -10 -29 -10h-132q-16 0 -29 10z" />
    <glyph glyph-name="Sacute" unicode="&#x15a;" horiz-adv-x="1438" 
d="M269.5 81.5q-174.5 121.5 -213.5 347.5l-1 6q0 9 6 14t16 5h397q21 0 27 -21q20 -82 81 -120.5t162 -38.5q96 0 145 25t49 79q0 40 -35.5 64.5t-89.5 38.5t-154 33q-175 32 -291.5 71.5t-202 134t-85.5 260.5q0 138 69 240.5t205.5 159t333.5 56.5q266 0 435.5 -101.5
t210.5 -321.5l1 -6q0 -19 -22 -19h-399q-11 0 -17 5.5t-8 16.5q-12 53 -63 81.5t-136 28.5q-77 0 -122.5 -23t-45.5 -73q0 -37 35 -60t88.5 -36.5t153.5 -31.5q177 -31 295.5 -70t206 -131.5t87.5 -254.5q0 -152 -76.5 -260t-222.5 -164t-351 -56q-294 0 -468.5 121.5z
M502 1455q-2 -1 -7 -1q-17 0 -21 18l-48 160q-1 3 -1 9q0 15 16 21l518 197q4 2 11 2q14 0 19 -16l76 -259q1 -3 1 -9q0 -16 -18 -19z" />
    <glyph glyph-name="sacute" unicode="&#x15b;" horiz-adv-x="1152" 
d="M327 11.5q-122 37.5 -196.5 114t-86.5 188.5q-1 11 5 17.5t18 6.5h361q11 0 17 -5t9 -17q21 -92 136 -92q64 0 92 15t28 47t-45 47t-146 30q-134 20 -225 47t-158.5 95.5t-67.5 192.5q0 109 59.5 190t167 124.5t249.5 43.5q217 0 351.5 -83.5t168.5 -243.5l1 -6
q0 -8 -6.5 -13.5t-16.5 -5.5h-343q-20 0 -25 21q-12 39 -41 60t-73 21q-94 0 -94 -56q0 -27 25.5 -43.5t65 -25t113.5 -19.5q132 -19 220.5 -45.5t154 -94.5t65.5 -192q0 -109 -63.5 -189.5t-178 -123.5t-264.5 -43q-155 0 -277 37.5zM360 1085q-2 -1 -7 -1q-17 0 -21 18
l-48 160q-1 3 -1 9q0 15 16 21l518 197q4 2 11 2q14 0 19 -16l76 -259q1 -3 1 -9q0 -16 -18 -19z" />
    <glyph glyph-name="Scircumflex" unicode="&#x15c;" horiz-adv-x="1438" 
d="M269.5 81.5q-174.5 121.5 -213.5 347.5l-1 6q0 9 6 14t16 5h397q21 0 27 -21q20 -82 81 -120.5t162 -38.5q96 0 145 25t49 79q0 40 -35.5 64.5t-89.5 38.5t-154 33q-175 32 -291.5 71.5t-202 134t-85.5 260.5q0 138 69 240.5t205.5 159t333.5 56.5q266 0 435.5 -101.5
t210.5 -321.5l1 -6q0 -19 -22 -19h-399q-11 0 -17 5.5t-8 16.5q-12 53 -63 81.5t-136 28.5q-77 0 -122.5 -23t-45.5 -73q0 -37 35 -60t88.5 -36.5t153.5 -31.5q177 -31 295.5 -70t206 -131.5t87.5 -254.5q0 -152 -76.5 -260t-222.5 -164t-351 -56q-294 0 -468.5 121.5z
M302 1615q-2 4 -2 12q0 13 10 20l303 243q13 10 29 10h132q16 0 29 -10l303 -243q11 -8 11 -19q0 -7 -3 -13l-61 -148q-5 -15 -18 -15q-3 0 -13 4l-314 162l-312 -164q-10 -4 -13 -4q-12 0 -18 15z" />
    <glyph glyph-name="scircumflex" unicode="&#x15d;" horiz-adv-x="1152" 
d="M327 11.5q-122 37.5 -196.5 114t-86.5 188.5q-1 11 5 17.5t18 6.5h361q11 0 17 -5t9 -17q21 -92 136 -92q64 0 92 15t28 47t-45 47t-146 30q-134 20 -225 47t-158.5 95.5t-67.5 192.5q0 109 59.5 190t167 124.5t249.5 43.5q217 0 351.5 -83.5t168.5 -243.5l1 -6
q0 -8 -6.5 -13.5t-16.5 -5.5h-343q-20 0 -25 21q-12 39 -41 60t-73 21q-94 0 -94 -56q0 -27 25.5 -43.5t65 -25t113.5 -19.5q132 -19 220.5 -45.5t154 -94.5t65.5 -192q0 -109 -63.5 -189.5t-178 -123.5t-264.5 -43q-155 0 -277 37.5zM160 1245q-2 4 -2 12q0 13 10 20
l303 243q13 10 29 10h132q16 0 29 -10l303 -243q11 -8 11 -19q0 -7 -3 -13l-61 -148q-5 -15 -18 -15q-3 0 -13 4l-314 162l-312 -164q-10 -4 -13 -4q-12 0 -18 15z" />
    <glyph glyph-name="Scedilla" unicode="&#x15e;" horiz-adv-x="1438" 
d="M1261.5 122q-126.5 -121 -360.5 -152l-77 -324q-6 -22 -28 -19l-342 45q-20 3 -20 19l2 9l96 278q-203 37 -324 152.5t-152 298.5l-1 6q0 9 6 14t16 5h397q21 0 27 -21q20 -82 81 -120.5t162 -38.5q96 0 145 25t49 79q0 40 -35.5 64.5t-89.5 38.5t-154 33
q-175 32 -291.5 71.5t-202 134t-85.5 260.5q0 138 69 240.5t205.5 159t333.5 56.5q266 0 435.5 -101.5t210.5 -321.5l1 -6q0 -19 -22 -19h-399q-11 0 -17 5.5t-8 16.5q-12 53 -63 81.5t-136 28.5q-77 0 -122.5 -23t-45.5 -73q0 -37 35 -60t88.5 -36.5t153.5 -31.5
q177 -31 295.5 -70t206 -131.5t87.5 -254.5q0 -197 -126.5 -318z" />
    <glyph glyph-name="scedilla" unicode="&#x15f;" horiz-adv-x="1152" 
d="M1013.5 104q-96.5 -90 -263.5 -118l-80 -340q-6 -22 -28 -19l-342 45q-20 3 -20 19l2 9l103 296q-148 33 -238 113.5t-103 204.5q-1 11 5 17.5t18 6.5h361q11 0 17 -5t9 -17q21 -92 136 -92q64 0 92 15t28 47t-45 47t-146 30q-134 20 -225 47t-158.5 95.5t-67.5 192.5
q0 109 59.5 190t167 124.5t249.5 43.5q217 0 351.5 -83.5t168.5 -243.5l1 -6q0 -8 -6.5 -13.5t-16.5 -5.5h-343q-20 0 -25 21q-12 39 -41 60t-73 21q-94 0 -94 -56q0 -27 25.5 -43.5t65 -25t113.5 -19.5q132 -19 220.5 -45.5t154 -94.5t65.5 -192q0 -136 -96.5 -226z" />
    <glyph glyph-name="Scaron" unicode="&#x160;" horiz-adv-x="1438" 
d="M269.5 81.5q-174.5 121.5 -213.5 347.5l-1 6q0 9 6 14t16 5h397q21 0 27 -21q20 -82 81 -120.5t162 -38.5q96 0 145 25t49 79q0 40 -35.5 64.5t-89.5 38.5t-154 33q-175 32 -291.5 71.5t-202 134t-85.5 260.5q0 138 69 240.5t205.5 159t333.5 56.5q266 0 435.5 -101.5
t210.5 -321.5l1 -6q0 -19 -22 -19h-399q-11 0 -17 5.5t-8 16.5q-12 53 -63 81.5t-136 28.5q-77 0 -122.5 -23t-45.5 -73q0 -37 35 -60t88.5 -36.5t153.5 -31.5q177 -31 295.5 -70t206 -131.5t87.5 -254.5q0 -152 -76.5 -260t-222.5 -164t-351 -56q-294 0 -468.5 121.5z
M310 1717q-10 9 -10 20q0 8 2 12l61 149q6 14 18 14q6 0 13 -4l314 -162l312 164q7 4 13 4q12 0 18 -14l63 -151q3 -6 3 -12q0 -11 -11 -20l-303 -243q-13 -10 -29 -10h-132q-16 0 -29 10z" />
    <glyph glyph-name="scaron" unicode="&#x161;" horiz-adv-x="1152" 
d="M327 11.5q-122 37.5 -196.5 114t-86.5 188.5q-1 11 5 17.5t18 6.5h361q11 0 17 -5t9 -17q21 -92 136 -92q64 0 92 15t28 47t-45 47t-146 30q-134 20 -225 47t-158.5 95.5t-67.5 192.5q0 109 59.5 190t167 124.5t249.5 43.5q217 0 351.5 -83.5t168.5 -243.5l1 -6
q0 -8 -6.5 -13.5t-16.5 -5.5h-343q-20 0 -25 21q-12 39 -41 60t-73 21q-94 0 -94 -56q0 -27 25.5 -43.5t65 -25t113.5 -19.5q132 -19 220.5 -45.5t154 -94.5t65.5 -192q0 -109 -63.5 -189.5t-178 -123.5t-264.5 -43q-155 0 -277 37.5zM168 1347q-10 9 -10 20q0 8 2 12
l61 149q6 14 18 14q6 0 13 -4l314 -162l312 164q7 4 13 4q12 0 18 -14l63 -151q3 -6 3 -12q0 -11 -11 -20l-303 -243q-13 -10 -29 -10h-132q-16 0 -29 10z" />
    <glyph glyph-name="uni0162" unicode="&#x162;" horiz-adv-x="1306" 
d="M1239 1400q11 0 17 -6t6 -17v-263q0 -11 -6 -17.5t-17 -6.5h-363l-6 -382l12 -684q0 -24 -23 -24h-27l-84 -354q-6 -22 -28 -19l-342 45q-20 3 -20 19l2 9l104 300h-16q-24 0 -24 24l12 684l-6 382h-362q-11 0 -17.5 6.5t-6.5 17.5v263q0 11 6.5 17t17.5 6h1171z" />
    <glyph glyph-name="uni0163" unicode="&#x163;" horiz-adv-x="890" 
d="M840 764q0 -24 -23 -24h-218l1 -110l2 -252q0 -63 25 -85.5t65 -22.5q35 0 60.5 5t57.5 14q3 1 8 1q8 0 13 -5.5t5 -15.5v-219q0 -22 -19 -27q-59 -23 -110 -34l-81 -343q-6 -22 -28 -19l-342 45q-20 3 -20 19l2 9l111 320q2 6 4 9q-81 44 -126 124t-45 197l2 283l1 107
h-111q-24 0 -24 24v243q0 23 24 23h111l-1 235q0 23 24 23h369q23 0 23 -23l-1 -235h218q11 0 17 -6t6 -17v-243z" />
    <glyph glyph-name="Tcaron" unicode="&#x164;" horiz-adv-x="1306" 
d="M448 0q-24 0 -24 24l12 684l-6 382h-362q-11 0 -17.5 6.5t-6.5 17.5v263q0 11 6.5 17t17.5 6h1171q11 0 17 -6t6 -17v-263q0 -11 -6 -17.5t-17 -6.5h-363l-6 -382l12 -684q0 -24 -23 -24h-411zM256 1717q-10 9 -10 20q0 8 2 12l61 149q6 14 18 14q6 0 13 -4l314 -162
l312 164q7 4 13 4q12 0 18 -14l63 -151q3 -6 3 -12q0 -11 -11 -20l-303 -243q-13 -10 -29 -10h-132q-16 0 -29 10z" />
    <glyph glyph-name="tcaron" unicode="&#x165;" horiz-adv-x="890" 
d="M380 15.5q-91 39.5 -144.5 123t-53.5 211.5l2 283l1 107h-111q-24 0 -24 24v243q0 23 24 23h111l-1 235q0 23 24 23h369q23 0 23 -23l-1 -235h218q11 0 17 -6t6 -17v-243q0 -24 -23 -24h-218l1 -110l2 -252q0 -63 25 -85.5t65 -22.5q35 0 60.5 5t57.5 14q3 1 8 1
q8 0 13 -5.5t5 -15.5v-219q0 -22 -19 -27q-120 -47 -231 -47q-115 0 -206 39.5zM912 1100q-5 -21 -27 -21h-213q-25 0 -23 25l34 483q1 22 25 22h283q12 0 17.5 -7t3.5 -18z" />
    <glyph glyph-name="Tbar" unicode="&#x166;" horiz-adv-x="1306" 
d="M1239 1400q11 0 17 -6t6 -17v-263q0 -11 -6 -17.5t-17 -6.5h-363l-4 -274h199q11 0 17 -6t6 -17v-261q0 -11 -6 -17.5t-17 -6.5h-197l8 -484q0 -24 -23 -24h-411q-24 0 -24 24l8 484h-194q-11 0 -17.5 6.5t-6.5 17.5v261q0 11 6.5 17t17.5 6h196l-4 274h-362
q-11 0 -17.5 6.5t-6.5 17.5v263q0 11 6.5 17t17.5 6h1171z" />
    <glyph glyph-name="tbar" unicode="&#x167;" horiz-adv-x="890" 
d="M599 740l1 -80h215q11 0 17 -6t6 -17v-223q0 -11 -6 -17.5t-17 -6.5h-213v-12q0 -63 25 -85.5t65 -22.5q35 0 60.5 5t57.5 14q3 1 8 1q8 0 13 -5.5t5 -15.5v-219q0 -22 -19 -27q-120 -47 -231 -47q-115 0 -206 39.5t-144.5 123t-53.5 211.5v40h-106q-11 0 -17.5 6.5
t-6.5 17.5v223q0 11 6.5 17t17.5 6h108l1 80h-111q-24 0 -24 24v243q0 23 24 23h111l-1 235q0 23 24 23h369q23 0 23 -23l-1 -235h218q11 0 17 -6t6 -17v-243q0 -24 -23 -24h-218z" />
    <glyph glyph-name="Utilde" unicode="&#x168;" horiz-adv-x="1389" 
d="M236.5 103q-161.5 139 -161.5 407v318l-6 549q0 23 24 23h412q23 0 23 -23l-7 -537v-326q0 -115 45 -164.5t137 -49.5q108 0 159 49t51 165v316l-6 547q0 23 24 23h366q23 0 23 -23l-5 -549v-318q0 -270 -154 -408t-458 -138q-305 0 -466.5 139zM762.5 1490.5
q-38.5 13.5 -83.5 37.5q-27 14 -43.5 20.5t-30.5 6.5q-22 0 -31.5 -16t-11.5 -45q-2 -23 -24 -23h-155q-24 0 -24 24q5 141 64 225.5t174 84.5q45 0 81 -13.5t87 -38.5q27 -14 41 -20t25 -6q23 0 33 14.5t12 43.5q1 11 7.5 17.5t17.5 6.5h155q24 0 22 -32
q-5 -145 -61 -222.5t-166 -77.5q-50 0 -88.5 13.5z" />
    <glyph glyph-name="utilde" unicode="&#x169;" horiz-adv-x="1220" 
d="M232 25.5q-84 49.5 -127 139.5t-43 211v218l-6 413q0 23 24 23h380q24 0 24 -23l-7 -413v-206q0 -53 24.5 -81.5t68.5 -28.5q70 0 118 73.5t49 246.5l-5 409q0 23 24 23h380q23 0 23 -23l-8 -497l4 -486q0 -24 -23 -24h-358q-24 0 -23 24l5 96q-101 -144 -320 -144
q-120 0 -204 49.5zM651.5 1120.5q-38.5 13.5 -83.5 37.5q-27 14 -43.5 20.5t-30.5 6.5q-22 0 -31.5 -16t-11.5 -45q-2 -23 -24 -23h-155q-24 0 -24 24q5 141 64 225.5t174 84.5q45 0 81 -13.5t87 -38.5q27 -14 41 -20t25 -6q23 0 33 14.5t12 43.5q1 11 7.5 17.5t17.5 6.5
h155q24 0 22 -32q-5 -145 -61 -222.5t-166 -77.5q-50 0 -88.5 13.5z" />
    <glyph glyph-name="Umacron" unicode="&#x16a;" horiz-adv-x="1389" 
d="M236.5 103q-161.5 139 -161.5 407v318l-6 549q0 23 24 23h412q23 0 23 -23l-7 -537v-326q0 -115 45 -164.5t137 -49.5q108 0 159 49t51 165v316l-6 547q0 23 24 23h366q23 0 23 -23l-5 -549v-318q0 -270 -154 -408t-458 -138q-305 0 -466.5 139zM385 1490q-24 0 -24 24
v203q0 11 6.5 17t17.5 6h667q10 0 16.5 -6t6.5 -17v-203q0 -11 -6 -17.5t-17 -6.5h-667z" />
    <glyph glyph-name="umacron" unicode="&#x16b;" horiz-adv-x="1220" 
d="M232 25.5q-84 49.5 -127 139.5t-43 211v218l-6 413q0 23 24 23h380q24 0 24 -23l-7 -413v-206q0 -53 24.5 -81.5t68.5 -28.5q70 0 118 73.5t49 246.5l-5 409q0 23 24 23h380q23 0 23 -23l-8 -497l4 -486q0 -24 -23 -24h-358q-24 0 -23 24l5 96q-101 -144 -320 -144
q-120 0 -204 49.5zM274 1120q-24 0 -24 24v203q0 11 6.5 17t17.5 6h667q10 0 16.5 -6t6.5 -17v-203q0 -11 -6 -17.5t-17 -6.5h-667z" />
    <glyph glyph-name="Ubreve" unicode="&#x16c;" horiz-adv-x="1389" 
d="M236.5 103q-161.5 139 -161.5 407v318l-6 549q0 23 24 23h412q23 0 23 -23l-7 -537v-326q0 -115 45 -164.5t137 -49.5q108 0 159 49t51 165v316l-6 547q0 23 24 23h366q23 0 23 -23l-5 -549v-318q0 -270 -154 -408t-458 -138q-305 0 -466.5 139zM514 1515.5
q-89 45.5 -139.5 124.5t-56.5 179q-2 23 23 23h219q20 0 25 -23q7 -48 41.5 -76.5t92.5 -28.5q55 0 91 29t43 76q5 23 25 23h220q23 0 22 -21q-5 -100 -55.5 -180t-140 -125.5t-205.5 -45.5t-205 45.5z" />
    <glyph glyph-name="ubreve" unicode="&#x16d;" horiz-adv-x="1220" 
d="M232 25.5q-84 49.5 -127 139.5t-43 211v218l-6 413q0 23 24 23h380q24 0 24 -23l-7 -413v-206q0 -53 24.5 -81.5t68.5 -28.5q70 0 118 73.5t49 246.5l-5 409q0 23 24 23h380q23 0 23 -23l-8 -497l4 -486q0 -24 -23 -24h-358q-24 0 -23 24l5 96q-101 -144 -320 -144
q-120 0 -204 49.5zM403 1145.5q-89 45.5 -139.5 124.5t-56.5 179q-2 23 23 23h219q20 0 25 -23q7 -48 41.5 -76.5t92.5 -28.5q55 0 91 29t43 76q5 23 25 23h220q23 0 22 -21q-5 -100 -55.5 -180t-140 -125.5t-205.5 -45.5t-205 45.5z" />
    <glyph glyph-name="Uring" unicode="&#x16e;" horiz-adv-x="1389" 
d="M236.5 103q-161.5 139 -161.5 407v318l-6 549q0 23 24 23h412q23 0 23 -23l-7 -537v-326q0 -115 45 -164.5t137 -49.5q108 0 159 49t51 165v316l-6 547q0 23 24 23h366q23 0 23 -23l-5 -549v-318q0 -270 -154 -408t-458 -138q-305 0 -466.5 139zM571 1497.5
q-69 35.5 -108.5 97t-39.5 137.5q0 77 39.5 139t108.5 97.5t154 35.5t154 -35.5t108.5 -97.5t39.5 -139q0 -76 -39.5 -137.5t-108.5 -97t-154 -35.5t-154 35.5zM794.5 1651.5q26.5 27.5 26.5 80.5q0 56 -26.5 83t-69.5 27q-44 0 -70 -27t-26 -83q0 -55 26 -81.5t70 -26.5
q43 0 69.5 27.5z" />
    <glyph glyph-name="uring" unicode="&#x16f;" horiz-adv-x="1220" 
d="M232 25.5q-84 49.5 -127 139.5t-43 211v218l-6 413q0 23 24 23h380q24 0 24 -23l-7 -413v-206q0 -53 24.5 -81.5t68.5 -28.5q70 0 118 73.5t49 246.5l-5 409q0 23 24 23h380q23 0 23 -23l-8 -497l4 -486q0 -24 -23 -24h-358q-24 0 -23 24l5 96q-101 -144 -320 -144
q-120 0 -204 49.5zM460 1127.5q-69 35.5 -108.5 97t-39.5 137.5q0 77 39.5 139t108.5 97.5t154 35.5t154 -35.5t108.5 -97.5t39.5 -139q0 -76 -39.5 -137.5t-108.5 -97t-154 -35.5t-154 35.5zM683.5 1281.5q26.5 27.5 26.5 80.5q0 56 -26.5 83t-69.5 27q-44 0 -70 -27
t-26 -83q0 -55 26 -81.5t70 -26.5q43 0 69.5 27.5z" />
    <glyph glyph-name="Uhungarumlaut" unicode="&#x170;" horiz-adv-x="1389" 
d="M236.5 103q-161.5 139 -161.5 407v318l-6 549q0 23 24 23h412q23 0 23 -23l-7 -537v-326q0 -115 45 -164.5t137 -49.5q108 0 159 49t51 165v316l-6 547q0 23 24 23h366q23 0 23 -23l-5 -549v-318q0 -270 -154 -408t-458 -138q-305 0 -466.5 139zM549 1493q-7 -7 -16 -7
t-17 7l-104 85q-10 9 -10 19q0 6 5 14l240 367q7 11 17 11q9 0 16 -7l174 -168q8 -8 8 -16q0 -6 -8 -16zM931 1477q-8 -8 -17 -8q-7 0 -16 7l-106 84q-9 8 -9 18q0 7 5 15l241 367q8 12 17 12q8 0 16 -8l172 -164q8 -8 8 -16q0 -6 -8 -16z" />
    <glyph glyph-name="uhungarumlaut" unicode="&#x171;" horiz-adv-x="1220" 
d="M232 25.5q-84 49.5 -127 139.5t-43 211v218l-6 413q0 23 24 23h380q24 0 24 -23l-7 -413v-206q0 -53 24.5 -81.5t68.5 -28.5q70 0 118 73.5t49 246.5l-5 409q0 23 24 23h380q23 0 23 -23l-8 -497l4 -486q0 -24 -23 -24h-358q-24 0 -23 24l5 96q-101 -144 -320 -144
q-120 0 -204 49.5zM438 1123q-7 -7 -16 -7t-17 7l-104 85q-10 9 -10 19q0 6 5 14l240 367q7 11 17 11q9 0 16 -7l174 -168q8 -8 8 -16q0 -6 -8 -16zM820 1107q-8 -8 -17 -8q-7 0 -16 7l-106 84q-9 8 -9 18q0 7 5 15l241 367q8 12 17 12q8 0 16 -8l172 -164q8 -8 8 -16
q0 -6 -8 -16z" />
    <glyph glyph-name="Uogonek" unicode="&#x172;" horiz-adv-x="1389" 
d="M1297 1400q23 0 23 -23l-5 -549v-318q0 -253 -135 -390.5t-402 -153.5q-21 -55 -21 -96q0 -35 23.5 -49.5t66.5 -14.5h99q11 0 17 -6.5t6 -17.5v-219q0 -11 -6 -17t-17 -6h-141q-108 0 -189.5 31t-126 89t-44.5 136q0 107 77 182q-218 38 -332.5 172.5t-114.5 359.5v318
l-6 549q0 23 24 23h412q23 0 23 -23l-7 -537v-326q0 -115 45 -164.5t137 -49.5q108 0 159 49t51 165v316l-6 547q0 23 24 23h366z" />
    <glyph glyph-name="uogonek" unicode="&#x173;" horiz-adv-x="1220" 
d="M1147 -194q11 0 17 -6.5t6 -17.5v-219q0 -11 -6 -17t-17 -6h-141q-108 0 -189.5 31t-126 89t-44.5 136q0 129 110 210q-5 5 -5 18l5 96q-101 -144 -320 -144q-120 0 -204 49.5t-127 139.5t-43 211v218l-6 413q0 23 24 23h380q24 0 24 -23l-7 -413v-206q0 -53 24.5 -81.5
t68.5 -28.5q70 0 118 73.5t49 246.5l-5 409q0 23 24 23h380q23 0 23 -23l-8 -497l4 -486q0 -24 -23 -24h-139q-13 -25 -24 -63t-11 -67q0 -35 23.5 -49.5t66.5 -14.5h99z" />
    <glyph glyph-name="Wcircumflex" unicode="&#x174;" horiz-adv-x="1972" 
d="M36 1374q-1 3 -1 7q0 8 5.5 13.5t15.5 5.5h394q21 0 26 -21l140 -789l168 789q3 21 26 21h385q22 0 26 -21l181 -791l131 790q3 22 25 22h358q12 0 17.5 -7.5t3.5 -18.5l-294 -1353q-4 -21 -26 -21h-440q-22 0 -25 21l-166 721l-167 -721q-4 -21 -26 -21h-440
q-22 0 -25 21zM604 1615q-2 4 -2 12q0 13 10 20l303 243q13 10 29 10h132q16 0 29 -10l303 -243q11 -8 11 -19q0 -7 -3 -13l-61 -148q-5 -15 -18 -15q-3 0 -13 4l-314 162l-312 -164q-10 -4 -13 -4q-12 0 -18 15z" />
    <glyph glyph-name="wcircumflex" unicode="&#x175;" horiz-adv-x="1620" 
d="M36 1004q-1 3 -1 7q0 8 5.5 13.5t15.5 5.5h354q22 0 25 -22l61 -556l110 557q3 21 26 21h390q22 0 26 -21l98 -545l73 544q3 22 25 22h320q12 0 17.5 -7.5t3.5 -18.5l-222 -983q-4 -21 -26 -21h-392q-22 0 -25 21l-124 561l-106 -561q-4 -21 -26 -21h-391q-22 0 -25 21z
M410 1245q-2 4 -2 12q0 13 10 20l303 243q13 10 29 10h132q16 0 29 -10l303 -243q11 -8 11 -19q0 -7 -3 -13l-61 -148q-5 -15 -18 -15q-3 0 -13 4l-314 162l-312 -164q-10 -4 -13 -4q-12 0 -18 15z" />
    <glyph glyph-name="Ycircumflex" unicode="&#x176;" horiz-adv-x="1392" 
d="M5 1372q-4 7 -4 13q0 7 5 11t15 4h449q20 0 27 -18l215 -515l217 515q8 18 27 18h415q20 0 20 -16q0 -6 -3 -12l-470 -936l7 -412q0 -24 -23 -24h-407q-24 0 -24 24l7 408zM308 1615q-2 4 -2 12q0 13 10 20l303 243q13 10 29 10h132q16 0 29 -10l303 -243q11 -8 11 -19
q0 -7 -3 -13l-61 -148q-5 -15 -18 -15q-3 0 -13 4l-314 162l-312 -164q-10 -4 -13 -4q-12 0 -18 15z" />
    <glyph glyph-name="ycircumflex" unicode="&#x177;" horiz-adv-x="1188" 
d="M773 1010q4 20 26 20h371q21 0 21 -17q0 -2 -2 -10l-449 -1324q-6 -19 -26 -19h-352q-21 0 -21 18q0 6 1 9l84 261l-425 1055q-2 4 -2 10q0 17 21 17h421q21 0 27 -19l166 -519zM214 1245q-2 4 -2 12q0 13 10 20l303 243q13 10 29 10h132q16 0 29 -10l303 -243
q11 -8 11 -19q0 -7 -3 -13l-61 -148q-5 -15 -18 -15q-3 0 -13 4l-314 162l-312 -164q-10 -4 -13 -4q-12 0 -18 15z" />
    <glyph glyph-name="Ydieresis" unicode="&#x178;" horiz-adv-x="1392" 
d="M5 1372q-4 7 -4 13q0 7 5 11t15 4h449q20 0 27 -18l215 -515l217 515q8 18 27 18h415q20 0 20 -16q0 -6 -3 -12l-470 -936l7 -412q0 -24 -23 -24h-407q-24 0 -24 24l7 408zM366 1460q-11 0 -17.5 6.5t-6.5 17.5v263q0 11 6.5 17t17.5 6h297q11 0 17 -6t6 -17v-263
q0 -11 -6 -17.5t-17 -6.5h-297zM766 1460q-11 0 -17.5 6.5t-6.5 17.5v263q0 11 6.5 17t17.5 6h297q11 0 17 -6t6 -17v-263q0 -11 -6 -17.5t-17 -6.5h-297z" />
    <glyph glyph-name="Zacute" unicode="&#x179;" horiz-adv-x="1332" 
d="M88 0q-24 0 -24 24v302q0 17 11 29l669 735h-602q-11 0 -17.5 6.5t-6.5 17.5v263q0 11 6.5 17t17.5 6h1111q11 0 17 -6t6 -17v-315q0 -16 -11 -28l-649 -722h629q11 0 17 -6t6 -17v-265q0 -24 -23 -24h-1157zM492 1455q-2 -1 -7 -1q-17 0 -21 18l-48 160q-1 3 -1 9
q0 15 16 21l518 197q4 2 11 2q14 0 19 -16l76 -259q1 -3 1 -9q0 -16 -18 -19z" />
    <glyph glyph-name="zacute" unicode="&#x17a;" horiz-adv-x="1048" 
d="M84 0q-24 0 -24 24v250q0 15 11 29l369 437h-316q-24 0 -24 24v243q0 23 24 23h807q11 0 17 -6t6 -17v-259q0 -17 -11 -29l-373 -427h395q11 0 17 -6t6 -17v-245q0 -11 -6 -17.5t-17 -6.5h-881zM322 1085q-2 -1 -7 -1q-17 0 -21 18l-48 160q-1 3 -1 9q0 15 16 21l518 197
q4 2 11 2q14 0 19 -16l76 -259q1 -3 1 -9q0 -16 -18 -19z" />
    <glyph glyph-name="Zdotaccent" unicode="&#x17b;" horiz-adv-x="1332" 
d="M88 0q-24 0 -24 24v302q0 17 11 29l669 735h-602q-11 0 -17.5 6.5t-6.5 17.5v263q0 11 6.5 17t17.5 6h1111q11 0 17 -6t6 -17v-315q0 -16 -11 -28l-649 -722h629q11 0 17 -6t6 -17v-265q0 -24 -23 -24h-1157zM508 1460q-24 0 -24 24v263q0 11 6.5 17t17.5 6h379
q10 0 16.5 -6t6.5 -17v-263q0 -11 -6 -17.5t-17 -6.5h-379z" />
    <glyph glyph-name="zdotaccent" unicode="&#x17c;" horiz-adv-x="1048" 
d="M84 0q-24 0 -24 24v250q0 15 11 29l369 437h-316q-24 0 -24 24v243q0 23 24 23h807q11 0 17 -6t6 -17v-259q0 -17 -11 -29l-373 -427h395q11 0 17 -6t6 -17v-245q0 -11 -6 -17.5t-17 -6.5h-881zM338 1090q-24 0 -24 24v263q0 11 6.5 17t17.5 6h379q10 0 16.5 -6t6.5 -17
v-263q0 -11 -6 -17.5t-17 -6.5h-379z" />
    <glyph glyph-name="Zcaron" unicode="&#x17d;" horiz-adv-x="1332" 
d="M88 0q-24 0 -24 24v302q0 17 11 29l669 735h-602q-11 0 -17.5 6.5t-6.5 17.5v263q0 11 6.5 17t17.5 6h1111q11 0 17 -6t6 -17v-315q0 -16 -11 -28l-649 -722h629q11 0 17 -6t6 -17v-265q0 -24 -23 -24h-1157zM300 1717q-10 9 -10 20q0 8 2 12l61 149q6 14 18 14
q6 0 13 -4l314 -162l312 164q7 4 13 4q12 0 18 -14l63 -151q3 -6 3 -12q0 -11 -11 -20l-303 -243q-13 -10 -29 -10h-132q-16 0 -29 10z" />
    <glyph glyph-name="zcaron" unicode="&#x17e;" horiz-adv-x="1048" 
d="M84 0q-24 0 -24 24v250q0 15 11 29l369 437h-316q-24 0 -24 24v243q0 23 24 23h807q11 0 17 -6t6 -17v-259q0 -17 -11 -29l-373 -427h395q11 0 17 -6t6 -17v-245q0 -11 -6 -17.5t-17 -6.5h-881zM130 1347q-10 9 -10 20q0 8 2 12l61 149q6 14 18 14q6 0 13 -4l314 -162
l312 164q7 4 13 4q12 0 18 -14l63 -151q3 -6 3 -12q0 -11 -11 -20l-303 -243q-13 -10 -29 -10h-132q-16 0 -29 10z" />
    <glyph glyph-name="florin" unicode="&#x192;" horiz-adv-x="996" 
d="M675 1100.5q-27 -17.5 -27 -68.5v-2h225q11 0 17 -6t6 -17v-245q0 -11 -6 -17.5t-17 -6.5h-225v-758q0 -116 -53.5 -192t-143 -112t-199.5 -36q-91 0 -242 18q-22 1 -22 24v243q0 12 7 17.5t19 3.5q57 -12 132 -12q43 0 67.5 18.5t24.5 69.5v716h-126q-24 0 -24 24v245
q0 11 6.5 17t17.5 6h126v44q0 116 54 192t144.5 112t201.5 36q56 0 121.5 -5t115.5 -13q21 -3 21 -26v-242q0 -25 -25 -20q-66 10 -116 10q-53 0 -80 -17.5z" />
    <glyph glyph-name="Ohorn" unicode="&#x1a0;" horiz-adv-x="1614" 
d="M1344 1245q105 -98 161.5 -238.5t56.5 -312.5q0 -208 -93.5 -374t-265.5 -261t-397 -95t-396 94.5t-264.5 261t-93.5 374.5q0 221 92.5 389t263 260.5t398.5 92.5q188 0 340 -64l140 304q6 13 19 13q5 0 13 -3l224 -129q13 -9 13 -19q0 -6 -5 -14zM1031.5 395
q74.5 107 74.5 299q0 196 -75 307t-225 111t-224 -108.5t-74 -309.5q0 -190 77.5 -298t224.5 -108t221.5 107z" />
    <glyph glyph-name="ohorn" unicode="&#x1a1;" horiz-adv-x="1236" 
d="M1227 1187q13 -9 13 -19q0 -6 -5 -14l-186 -251q68 -70 102.5 -167t34.5 -216q0 -166 -67 -290t-194.5 -192t-304.5 -68t-305.5 66t-196.5 188.5t-68 287.5q0 166 68 289.5t196.5 191t305.5 67.5q123 0 224 -32l127 278q6 14 18 14q7 0 14 -4zM699 269.5q30 23.5 44.5 81
t14.5 161.5q0 149 -33.5 211.5t-106.5 62.5q-51 -2 -82 -29t-45.5 -87t-14.5 -162q0 -99 15.5 -156.5t47 -81.5t81.5 -24q49 0 79 23.5z" />
    <glyph glyph-name="Uhorn" unicode="&#x1af;" horiz-adv-x="1389" 
d="M1507 1557q12 -7 12 -19q0 -6 -5 -14l-195 -264l-4 -432v-318q0 -270 -154 -408t-458 -138q-305 0 -466.5 139t-161.5 407v318l-6 549q0 23 24 23h412q23 0 23 -23l-7 -537v-326q0 -115 45 -164.5t137 -49.5q108 0 159 49t51 165v316l-6 547q0 23 24 23h196l126 276
q6 14 18 14q5 0 13 -5z" />
    <glyph glyph-name="uhorn" unicode="&#x1b0;" horiz-adv-x="1220" 
d="M1157 896l-6 -386l4 -486q0 -24 -23 -24h-358q-24 0 -23 24l5 96q-101 -144 -320 -144q-120 0 -204 49.5t-127 139.5t-43 211v218l-6 413q0 23 24 23h380q24 0 24 -23l-7 -413v-206q0 -53 24.5 -81.5t68.5 -28.5q70 0 118 73.5t49 246.5l-5 409q0 23 24 23h205l126 276
q6 14 18 14q5 0 13 -5l223 -128q12 -7 12 -19q0 -6 -5 -14z" />
    <glyph glyph-name="uni0218" unicode="&#x218;" horiz-adv-x="1438" 
d="M269.5 81.5q-174.5 121.5 -213.5 347.5l-1 6q0 9 6 14t16 5h397q21 0 27 -21q20 -82 81 -120.5t162 -38.5q96 0 145 25t49 79q0 40 -35.5 64.5t-89.5 38.5t-154 33q-175 32 -291.5 71.5t-202 134t-85.5 260.5q0 138 69 240.5t205.5 159t333.5 56.5q266 0 435.5 -101.5
t210.5 -321.5l1 -6q0 -19 -22 -19h-399q-11 0 -17 5.5t-8 16.5q-12 53 -63 81.5t-136 28.5q-77 0 -122.5 -23t-45.5 -73q0 -37 35 -60t88.5 -36.5t153.5 -31.5q177 -31 295.5 -70t206 -131.5t87.5 -254.5q0 -152 -76.5 -260t-222.5 -164t-351 -56q-294 0 -468.5 121.5z
M502 -578q-12 0 -17.5 7t-2.5 18l40 197v254q0 11 6.5 17.5t17.5 6.5h367q11 0 17 -6.5t6 -17.5v-235q0 -17 -12 -29l-211 -200q-14 -12 -30 -12h-181z" />
    <glyph glyph-name="uni0219" unicode="&#x219;" horiz-adv-x="1152" 
d="M327 11.5q-122 37.5 -196.5 114t-86.5 188.5q-1 11 5 17.5t18 6.5h361q11 0 17 -5t9 -17q21 -92 136 -92q64 0 92 15t28 47t-45 47t-146 30q-134 20 -225 47t-158.5 95.5t-67.5 192.5q0 109 59.5 190t167 124.5t249.5 43.5q217 0 351.5 -83.5t168.5 -243.5l1 -6
q0 -8 -6.5 -13.5t-16.5 -5.5h-343q-20 0 -25 21q-12 39 -41 60t-73 21q-94 0 -94 -56q0 -27 25.5 -43.5t65 -25t113.5 -19.5q132 -19 220.5 -45.5t154 -94.5t65.5 -192q0 -109 -63.5 -189.5t-178 -123.5t-264.5 -43q-155 0 -277 37.5zM348 -578q-12 0 -17.5 7t-2.5 18
l40 197v254q0 11 6.5 17.5t17.5 6.5h367q11 0 17 -6.5t6 -17.5v-235q0 -17 -12 -29l-211 -200q-14 -12 -30 -12h-181z" />
    <glyph glyph-name="uni021A" unicode="&#x21a;" horiz-adv-x="1306" 
d="M448 0q-24 0 -24 24l12 684l-6 382h-362q-11 0 -17.5 6.5t-6.5 17.5v263q0 11 6.5 17t17.5 6h1171q11 0 17 -6t6 -17v-263q0 -11 -6 -17.5t-17 -6.5h-363l-6 -382l12 -684q0 -24 -23 -24h-411zM426 -578q-12 0 -17.5 7t-2.5 18l40 197v254q0 11 6.5 17.5t17.5 6.5h367
q11 0 17 -6.5t6 -17.5v-235q0 -17 -12 -29l-211 -200q-14 -12 -30 -12h-181z" />
    <glyph glyph-name="uni021B" unicode="&#x21b;" horiz-adv-x="890" 
d="M380 15.5q-91 39.5 -144.5 123t-53.5 211.5l2 283l1 107h-111q-24 0 -24 24v243q0 23 24 23h111l-1 235q0 23 24 23h369q23 0 23 -23l-1 -235h218q11 0 17 -6t6 -17v-243q0 -24 -23 -24h-218l1 -110l2 -252q0 -63 25 -85.5t65 -22.5q35 0 60.5 5t57.5 14q3 1 8 1
q8 0 13 -5.5t5 -15.5v-219q0 -22 -19 -27q-120 -47 -231 -47q-115 0 -206 39.5zM304 -578q-12 0 -17.5 7t-2.5 18l40 197v254q0 11 6.5 17.5t17.5 6.5h367q11 0 17 -6.5t6 -17.5v-235q0 -17 -12 -29l-211 -200q-14 -12 -30 -12h-181z" />
    <glyph glyph-name="uni0237" unicode="&#x237;" horiz-adv-x="556" 
d="M87 -340q-23 0 -23 23l11 695l-11 629q0 23 23 23h383q22 0 22 -23l-11 -629l11 -695q0 -23 -22 -23h-383z" />
    <glyph glyph-name="uni0237" unicode="&#xf6be;" horiz-adv-x="556" 
d="M87 -340q-23 0 -23 23l11 695l-11 629q0 23 23 23h383q22 0 22 -23l-11 -629l11 -695q0 -23 -22 -23h-383z" />
    <glyph glyph-name="uni0259" unicode="&#x259;" horiz-adv-x="1208" 
d="M742 604q-6 72 -25 112t-48.5 55t-72.5 15q-95 0 -128 -84q-4 -11 -10 -15.5t-16 -4.5h-354q-12 0 -18.5 4t-4.5 11q18 90 84 173.5t179.5 136.5t263.5 53q170 0 298 -67.5t198 -190t70 -284.5q0 -165 -70 -289.5t-194 -191.5t-284 -67q-271 0 -415 153t-149 457
q0 24 24 24h672zM686 264q35 32 50 116h-264q0 -67 33 -107.5t91 -40.5q55 0 90 32z" />
    <glyph glyph-name="quoteleft" unicode="&#x2bb;" horiz-adv-x="602" 
d="M537 1400q12 0 17.5 -7t2.5 -19l-73 -262v-336q0 -24 -23 -24h-353q-11 0 -17.5 6.5t-6.5 17.5v316q0 16 10 29l211 266q12 13 29 13h203z" />
    <glyph glyph-name="quoteleft" unicode="&#x2018;" horiz-adv-x="602" 
d="M537 1400q12 0 17.5 -7t2.5 -19l-73 -262v-336q0 -24 -23 -24h-353q-11 0 -17.5 6.5t-6.5 17.5v316q0 16 10 29l211 266q12 13 29 13h203z" />
    <glyph glyph-name="circumflex" unicode="&#x2c6;" horiz-adv-x="1028" 
d="M108 1245q-2 4 -2 12q0 13 10 20l303 243q13 10 29 10h132q16 0 29 -10l303 -243q11 -8 11 -19q0 -7 -3 -13l-61 -148q-5 -15 -18 -15q-3 0 -13 4l-314 162l-312 -164q-10 -4 -13 -4q-12 0 -18 15z" />
    <glyph glyph-name="caron" unicode="&#x2c7;" horiz-adv-x="1028" 
d="M116 1347q-10 9 -10 20q0 8 2 12l61 149q6 14 18 14q6 0 13 -4l314 -162l312 164q7 4 13 4q12 0 18 -14l63 -151q3 -6 3 -12q0 -11 -11 -20l-303 -243q-13 -10 -29 -10h-132q-16 0 -29 10z" />
    <glyph glyph-name="breve" unicode="&#x2d8;" horiz-adv-x="1004" 
d="M297 1145.5q-89 45.5 -139.5 124.5t-56.5 179q-2 23 23 23h219q20 0 25 -23q7 -48 41.5 -76.5t92.5 -28.5q55 0 91 29t43 76q5 23 25 23h220q23 0 22 -21q-5 -100 -55.5 -180t-140 -125.5t-205.5 -45.5t-205 45.5z" />
    <glyph glyph-name="dotaccent" unicode="&#x2d9;" horiz-adv-x="626" 
d="M124 1090q-24 0 -24 24v263q0 11 6.5 17t17.5 6h379q10 0 16.5 -6t6.5 -17v-263q0 -11 -6 -17.5t-17 -6.5h-379z" />
    <glyph glyph-name="ring" unicode="&#x2da;" horiz-adv-x="804" 
d="M248 1127.5q-69 35.5 -108.5 97t-39.5 137.5q0 77 39.5 139t108.5 97.5t154 35.5t154 -35.5t108.5 -97.5t39.5 -139q0 -76 -39.5 -137.5t-108.5 -97t-154 -35.5t-154 35.5zM471.5 1281.5q26.5 27.5 26.5 80.5q0 56 -26.5 83t-69.5 27q-44 0 -70 -27t-26 -83
q0 -55 26 -81.5t70 -26.5q43 0 69.5 27.5z" />
    <glyph glyph-name="ogonek" unicode="&#x2db;" horiz-adv-x="724" 
d="M460 -460q-108 0 -189.5 31t-126 89t-44.5 136q0 109 75.5 180.5t205.5 110.5q3 1 8 1q12 0 23 -14l32 -38q8 -11 8 -19q0 -7 -5 -17q-13 -25 -24 -63t-11 -67q0 -35 23.5 -49.5t66.5 -14.5h99q11 0 17 -6.5t6 -17.5v-219q0 -11 -6 -17t-17 -6h-141z" />
    <glyph glyph-name="tilde" unicode="&#x2dc;" horiz-adv-x="920" 
d="M503.5 1120.5q-38.5 13.5 -83.5 37.5q-27 14 -43.5 20.5t-30.5 6.5q-22 0 -31.5 -16t-11.5 -45q-2 -23 -24 -23h-155q-24 0 -24 24q5 141 64 225.5t174 84.5q45 0 81 -13.5t87 -38.5q27 -14 41 -20t25 -6q23 0 33 14.5t12 43.5q1 11 7.5 17.5t17.5 6.5h155q24 0 22 -32
q-5 -145 -61 -222.5t-166 -77.5q-50 0 -88.5 13.5z" />
    <glyph glyph-name="hungarumlaut" unicode="&#x2dd;" horiz-adv-x="1056" 
d="M254 1123q-7 -7 -16 -7t-17 7l-104 85q-10 9 -10 19q0 6 5 14l240 367q7 11 17 11q9 0 16 -7l174 -168q8 -8 8 -16q0 -6 -8 -16zM636 1107q-8 -8 -17 -8q-7 0 -16 7l-106 84q-9 8 -9 18q0 7 5 15l241 367q8 12 17 12q8 0 16 -8l172 -164q8 -8 8 -16q0 -6 -8 -16z" />
    <glyph glyph-name="gravecomb" unicode="&#x300;" 
d="M-154 1102q-5 -22 -28 -17l-545 103q-19 3 -19 20q0 5 1 8l76 259q5 16 19 16q7 0 11 -2l518 -197q16 -6 16 -21q0 -6 -1 -9z" />
    <glyph glyph-name="acutecomb" unicode="&#x301;" 
d="M-670 1085q-2 -1 -7 -1q-17 0 -21 18l-48 160q-1 3 -1 9q0 15 16 21l518 197q4 2 11 2q14 0 19 -16l76 -259q1 -3 1 -9q0 -16 -18 -19z" />
    <glyph glyph-name="uni0302" unicode="&#x302;" 
d="M-920 1245q-2 4 -2 12q0 13 10 20l303 243q13 10 29 10h132q16 0 29 -10l303 -243q11 -8 11 -19q0 -7 -3 -13l-61 -148q-5 -15 -18 -15q-3 0 -13 4l-314 162l-312 -164q-10 -4 -13 -4q-12 0 -18 15z" />
    <glyph glyph-name="tildecomb" unicode="&#x303;" 
d="M-416.5 1120.5q-38.5 13.5 -83.5 37.5q-27 14 -43.5 20.5t-30.5 6.5q-22 0 -31.5 -16t-11.5 -45q-2 -23 -24 -23h-155q-24 0 -24 24q5 141 64 225.5t174 84.5q45 0 81 -13.5t87 -38.5q27 -14 41 -20t25 -6q23 0 33 14.5t12 43.5q1 11 7.5 17.5t17.5 6.5h155q24 0 22 -32
q-5 -145 -61 -222.5t-166 -77.5q-50 0 -88.5 13.5z" />
    <glyph glyph-name="uni0304" unicode="&#x304;" 
d="M-790 1120q-24 0 -24 24v203q0 11 6.5 17t17.5 6h667q10 0 16.5 -6t6.5 -17v-203q0 -11 -6 -17.5t-17 -6.5h-667z" />
    <glyph glyph-name="uni0306" unicode="&#x306;" 
d="M-707 1145.5q-89 45.5 -139.5 124.5t-56.5 179q-2 23 23 23h219q20 0 25 -23q7 -48 41.5 -76.5t92.5 -28.5q55 0 91 29t43 76q5 23 25 23h220q23 0 22 -21q-5 -100 -55.5 -180t-140 -125.5t-205.5 -45.5t-205 45.5z" />
    <glyph glyph-name="uni0307" unicode="&#x307;" 
d="M-502 1090q-24 0 -24 24v263q0 11 6.5 17t17.5 6h379q10 0 16.5 -6t6.5 -17v-263q0 -11 -6 -17.5t-17 -6.5h-379z" />
    <glyph glyph-name="uni0308" unicode="&#x308;" 
d="M-820 1090q-11 0 -17.5 6.5t-6.5 17.5v263q0 11 6.5 17t17.5 6h297q11 0 17 -6t6 -17v-263q0 -11 -6 -17.5t-17 -6.5h-297zM-420 1090q-11 0 -17.5 6.5t-6.5 17.5v263q0 11 6.5 17t17.5 6h297q11 0 17 -6t6 -17v-263q0 -11 -6 -17.5t-17 -6.5h-297z" />
    <glyph glyph-name="hookabovecomb" unicode="&#x309;" 
d="M-554 1094q-12 0 -18 6.5t-4 18.5q5 45 26 74.5t48 45t65 30.5q34 14 49.5 25t15.5 28q0 42 -64 42q-59 0 -69 -44q-3 -12 -8.5 -17t-16.5 -5h-213q-12 0 -18 6.5t-5 18.5q13 106 99 162.5t235 56.5q100 0 175 -25t116 -72.5t41 -112.5q0 -40 -17 -67t-40.5 -43.5
t-61.5 -36.5q-37 -19 -56.5 -34t-26.5 -36q-4 -11 -10 -16t-16 -5h-226z" />
    <glyph glyph-name="uni030A" unicode="&#x30a;" 
d="M-556 1127.5q-69 35.5 -108.5 97t-39.5 137.5q0 77 39.5 139t108.5 97.5t154 35.5t154 -35.5t108.5 -97.5t39.5 -139q0 -76 -39.5 -137.5t-108.5 -97t-154 -35.5t-154 35.5zM-332.5 1281.5q26.5 27.5 26.5 80.5q0 56 -26.5 83t-69.5 27q-44 0 -70 -27t-26 -83
q0 -55 26 -81.5t70 -26.5q43 0 69.5 27.5z" />
    <glyph glyph-name="uni030B" unicode="&#x30b;" 
d="M-802 1123q-7 -7 -16 -7t-17 7l-104 85q-10 9 -10 19q0 6 5 14l240 367q7 11 17 11q9 0 16 -7l174 -168q8 -8 8 -16q0 -6 -8 -16zM-420 1107q-8 -8 -17 -8q-7 0 -16 7l-106 84q-9 8 -9 18q0 7 5 15l241 367q8 12 17 12q8 0 16 -8l172 -164q8 -8 8 -16q0 -6 -8 -16z" />
    <glyph glyph-name="uni030C" unicode="&#x30c;" 
d="M-912 1347q-10 9 -10 20q0 8 2 12l61 149q6 14 18 14q6 0 13 -4l314 -162l312 164q7 4 13 4q12 0 18 -14l63 -151q3 -6 3 -12q0 -11 -11 -20l-303 -243q-13 -10 -29 -10h-132q-16 0 -29 10z" />
    <glyph glyph-name="uni0312" unicode="&#x312;" 
d="M-536 1094q-24 0 -24 24v235q0 16 13 29l211 200q12 12 29 12h181q12 0 17.5 -7t3.5 -18l-41 -197v-254q0 -11 -6 -17.5t-17 -6.5h-367z" />
    <glyph glyph-name="uni031B" unicode="&#x31b;" 
d="M-310 846q-7 -10 -18 -10q-5 0 -15 5l-147 97q-12 9 -12 20q0 6 3 12l153 336q6 14 18 14q7 0 14 -4l224 -129q13 -9 13 -19q0 -6 -5 -14z" />
    <glyph glyph-name="dotbelowcomb" unicode="&#x323;" 
d="M-502 -390q-24 0 -24 24v263q0 11 6.5 17t17.5 6h379q10 0 16.5 -6t6.5 -17v-263q0 -11 -6 -17.5t-17 -6.5h-379z" />
    <glyph glyph-name="uni0326" unicode="&#x326;" 
d="M-534 -578q-12 0 -17.5 7t-2.5 18l40 197v254q0 11 6.5 17.5t17.5 6.5h367q11 0 17 -6.5t6 -17.5v-235q0 -17 -12 -29l-211 -200q-14 -12 -30 -12h-181z" />
    <glyph glyph-name="uni0327" unicode="&#x327;" 
d="M-188 -354q-6 -22 -28 -19l-342 45q-20 3 -20 19l2 9l111 320q6 21 28 19l312 -19q24 -1 19 -27z" />
    <glyph glyph-name="uni0328" unicode="&#x328;" 
d="M-264 -460q-108 0 -189.5 31t-126 89t-44.5 136q0 109 75.5 180.5t205.5 110.5q3 1 8 1q12 0 23 -14l32 -38q8 -11 8 -19q0 -7 -5 -17q-13 -25 -24 -63t-11 -67q0 -35 23.5 -49.5t66.5 -14.5h99q11 0 17 -6.5t6 -17.5v-219q0 -11 -6 -17t-17 -6h-141z" />
    <glyph glyph-name="uni0394" unicode="&#x394;" horiz-adv-x="1582" 
d="M64 0q-11 0 -17.5 6.5t-6.5 17.5v297q0 13 6 29l456 1032q9 18 28 18h536q21 0 28 -18l442 -1032q6 -16 6 -29v-297q0 -24 -23 -24h-1455zM1108 336l-330 808l-306 -808h636z" />
    <glyph glyph-name="uni0394" unicode="&#x2206;" horiz-adv-x="1582" 
d="M64 0q-11 0 -17.5 6.5t-6.5 17.5v297q0 13 6 29l456 1032q9 18 28 18h536q21 0 28 -18l442 -1032q6 -16 6 -29v-297q0 -24 -23 -24h-1455zM1108 336l-330 808l-306 -808h636z" />
    <glyph glyph-name="uni03A9" unicode="&#x3a9;" horiz-adv-x="1584" 
d="M1457 310q11 0 17 -6t6 -17v-263q0 -24 -23 -24h-587q-24 0 -24 24v263q0 23 24 30q70 24 122.5 82.5t82 144.5t29.5 190q0 170 -72 270t-216 107h-47q-144 -7 -216.5 -107t-72.5 -270q0 -104 29 -190t81.5 -144.5t122.5 -82.5q23 -7 23 -30v-263q0 -11 -6 -17.5
t-17 -6.5h-585q-24 0 -24 24v263q0 11 6.5 17t17.5 6h93q-85 92 -131 208.5t-46 245.5q0 200 89.5 350.5t253.5 234t382 87.5h47q216 -4 379.5 -87.5t253 -234t89.5 -350.5q0 -129 -46 -245.5t-130 -208.5h95z" />
    <glyph glyph-name="uni03A9" unicode="&#x2126;" horiz-adv-x="1584" 
d="M1457 310q11 0 17 -6t6 -17v-263q0 -24 -23 -24h-587q-24 0 -24 24v263q0 23 24 30q70 24 122.5 82.5t82 144.5t29.5 190q0 170 -72 270t-216 107h-47q-144 -7 -216.5 -107t-72.5 -270q0 -104 29 -190t81.5 -144.5t122.5 -82.5q23 -7 23 -30v-263q0 -11 -6 -17.5
t-17 -6.5h-585q-24 0 -24 24v263q0 11 6.5 17t17.5 6h93q-85 92 -131 208.5t-46 245.5q0 200 89.5 350.5t253.5 234t382 87.5h47q216 -4 379.5 -87.5t253 -234t89.5 -350.5q0 -129 -46 -245.5t-130 -208.5h95z" />
    <glyph glyph-name="pi" unicode="&#x3c0;" horiz-adv-x="1234" 
d="M85 0q-23 0 -23 24l8 496l-5 487q0 23 24 23h1059q23 0 23 -23l-7 -487l8 -496q0 -24 -22 -24h-379q-24 0 -24 24l5 412l-9 304h-252l-9 -304l5 -412q0 -24 -23 -24h-379z" />
    <glyph glyph-name="Wgrave" unicode="&#x1e80;" horiz-adv-x="1972" 
d="M36 1374q-1 3 -1 7q0 8 5.5 13.5t15.5 5.5h394q21 0 26 -21l140 -789l168 789q3 21 26 21h385q22 0 26 -21l181 -791l131 790q3 22 25 22h358q12 0 17.5 -7.5t3.5 -18.5l-294 -1353q-4 -21 -26 -21h-440q-22 0 -25 21l-166 721l-167 -721q-4 -21 -26 -21h-440
q-22 0 -25 21zM1244 1472q-5 -22 -28 -17l-545 103q-19 3 -19 20q0 5 1 8l76 259q5 16 19 16q7 0 11 -2l518 -197q16 -6 16 -21q0 -6 -1 -9z" />
    <glyph glyph-name="wgrave" unicode="&#x1e81;" horiz-adv-x="1620" 
d="M36 1004q-1 3 -1 7q0 8 5.5 13.5t15.5 5.5h354q22 0 25 -22l61 -556l110 557q3 21 26 21h390q22 0 26 -21l98 -545l73 544q3 22 25 22h320q12 0 17.5 -7.5t3.5 -18.5l-222 -983q-4 -21 -26 -21h-392q-22 0 -25 21l-124 561l-106 -561q-4 -21 -26 -21h-391q-22 0 -25 21z
M1056 1102q-5 -22 -28 -17l-545 103q-19 3 -19 20q0 5 1 8l76 259q5 16 19 16q7 0 11 -2l518 -197q16 -6 16 -21q0 -6 -1 -9z" />
    <glyph glyph-name="Wacute" unicode="&#x1e82;" horiz-adv-x="1972" 
d="M36 1374q-1 3 -1 7q0 8 5.5 13.5t15.5 5.5h394q21 0 26 -21l140 -789l168 789q3 21 26 21h385q22 0 26 -21l181 -791l131 790q3 22 25 22h358q12 0 17.5 -7.5t3.5 -18.5l-294 -1353q-4 -21 -26 -21h-440q-22 0 -25 21l-166 721l-167 -721q-4 -21 -26 -21h-440
q-22 0 -25 21zM804 1455q-2 -1 -7 -1q-17 0 -21 18l-48 160q-1 3 -1 9q0 15 16 21l518 197q4 2 11 2q14 0 19 -16l76 -259q1 -3 1 -9q0 -16 -18 -19z" />
    <glyph glyph-name="wacute" unicode="&#x1e83;" horiz-adv-x="1620" 
d="M36 1004q-1 3 -1 7q0 8 5.5 13.5t15.5 5.5h354q22 0 25 -22l61 -556l110 557q3 21 26 21h390q22 0 26 -21l98 -545l73 544q3 22 25 22h320q12 0 17.5 -7.5t3.5 -18.5l-222 -983q-4 -21 -26 -21h-392q-22 0 -25 21l-124 561l-106 -561q-4 -21 -26 -21h-391q-22 0 -25 21z
M610 1085q-2 -1 -7 -1q-17 0 -21 18l-48 160q-1 3 -1 9q0 15 16 21l518 197q4 2 11 2q14 0 19 -16l76 -259q1 -3 1 -9q0 -16 -18 -19z" />
    <glyph glyph-name="Wdieresis" unicode="&#x1e84;" horiz-adv-x="1972" 
d="M36 1374q-1 3 -1 7q0 8 5.5 13.5t15.5 5.5h394q21 0 26 -21l140 -789l168 789q3 21 26 21h385q22 0 26 -21l181 -791l131 790q3 22 25 22h358q12 0 17.5 -7.5t3.5 -18.5l-294 -1353q-4 -21 -26 -21h-440q-22 0 -25 21l-166 721l-167 -721q-4 -21 -26 -21h-440
q-22 0 -25 21zM662 1460q-11 0 -17.5 6.5t-6.5 17.5v263q0 11 6.5 17t17.5 6h297q11 0 17 -6t6 -17v-263q0 -11 -6 -17.5t-17 -6.5h-297zM1062 1460q-11 0 -17.5 6.5t-6.5 17.5v263q0 11 6.5 17t17.5 6h297q11 0 17 -6t6 -17v-263q0 -11 -6 -17.5t-17 -6.5h-297z" />
    <glyph glyph-name="wdieresis" unicode="&#x1e85;" horiz-adv-x="1620" 
d="M36 1004q-1 3 -1 7q0 8 5.5 13.5t15.5 5.5h354q22 0 25 -22l61 -556l110 557q3 21 26 21h390q22 0 26 -21l98 -545l73 544q3 22 25 22h320q12 0 17.5 -7.5t3.5 -18.5l-222 -983q-4 -21 -26 -21h-392q-22 0 -25 21l-124 561l-106 -561q-4 -21 -26 -21h-391q-22 0 -25 21z
M468 1090q-11 0 -17.5 6.5t-6.5 17.5v263q0 11 6.5 17t17.5 6h297q11 0 17 -6t6 -17v-263q0 -11 -6 -17.5t-17 -6.5h-297zM868 1090q-11 0 -17.5 6.5t-6.5 17.5v263q0 11 6.5 17t17.5 6h297q11 0 17 -6t6 -17v-263q0 -11 -6 -17.5t-17 -6.5h-297z" />
    <glyph glyph-name="uni1EA0" unicode="&#x1ea0;" horiz-adv-x="1532" 
d="M1517 27l2 -9q0 -8 -5.5 -13t-15.5 -5h-405q-21 0 -26 20l-79 268h-453l-73 -268q-6 -20 -27 -20h-403q-10 0 -15.5 5t-5.5 13l2 9l457 1354q6 19 26 19h556q20 0 26 -19zM889 624l-135 458l-126 -458h261zM574 -390q-24 0 -24 24v263q0 11 6.5 17t17.5 6h379
q10 0 16.5 -6t6.5 -17v-263q0 -11 -6 -17.5t-17 -6.5h-379z" />
    <glyph glyph-name="uni1EA1" unicode="&#x1ea1;" horiz-adv-x="1272" 
d="M1203 518l9 -494q0 -24 -22 -24h-367q-24 0 -23 24l4 87q-55 -63 -131.5 -97t-172.5 -34q-141 0 -242.5 69.5t-154.5 190t-53 272.5q0 149 59.5 272t167.5 194.5t249 71.5q169 0 269 -109l-6 65v4q0 20 22 20h379q22 0 22 -23zM760.5 314q41.5 65 41.5 207
q0 135 -38.5 197.5t-117.5 62.5q-168 0 -168 -270q0 -137 41.5 -199.5t119.5 -62.5q80 0 121.5 65zM449 -390q-24 0 -24 24v263q0 11 6.5 17t17.5 6h379q10 0 16.5 -6t6.5 -17v-263q0 -11 -6 -17.5t-17 -6.5h-379z" />
    <glyph glyph-name="uni1EA2" unicode="&#x1ea2;" horiz-adv-x="1532" 
d="M1517 27l2 -9q0 -8 -5.5 -13t-15.5 -5h-405q-21 0 -26 20l-79 268h-453l-73 -268q-6 -20 -27 -20h-403q-10 0 -15.5 5t-5.5 13l2 9l457 1354q6 19 26 19h556q20 0 26 -19zM889 624l-135 458l-126 -458h261zM662 1464q-12 0 -18 6.5t-4 18.5q5 45 26 74.5t48 45t65 30.5
q34 14 49.5 25t15.5 28q0 42 -64 42q-59 0 -69 -44q-3 -12 -8.5 -17t-16.5 -5h-213q-12 0 -18 6.5t-5 18.5q13 106 99 162.5t235 56.5q100 0 175 -25t116 -72.5t41 -112.5q0 -40 -17 -67t-40.5 -43.5t-61.5 -36.5q-37 -19 -56.5 -34t-26.5 -36q-4 -11 -10 -16t-16 -5h-226z
" />
    <glyph glyph-name="uni1EA3" unicode="&#x1ea3;" horiz-adv-x="1272" 
d="M1203 518l9 -494q0 -24 -22 -24h-367q-24 0 -23 24l4 87q-55 -63 -131.5 -97t-172.5 -34q-141 0 -242.5 69.5t-154.5 190t-53 272.5q0 149 59.5 272t167.5 194.5t249 71.5q169 0 269 -109l-6 65v4q0 20 22 20h379q22 0 22 -23zM760.5 314q41.5 65 41.5 207
q0 135 -38.5 197.5t-117.5 62.5q-168 0 -168 -270q0 -137 41.5 -199.5t119.5 -62.5q80 0 121.5 65zM534 1094q-12 0 -18 6.5t-4 18.5q5 45 26 74.5t48 45t65 30.5q34 14 49.5 25t15.5 28q0 42 -64 42q-59 0 -69 -44q-3 -12 -8.5 -17t-16.5 -5h-213q-12 0 -18 6.5t-5 18.5
q13 106 99 162.5t235 56.5q100 0 175 -25t116 -72.5t41 -112.5q0 -40 -17 -67t-40.5 -43.5t-61.5 -36.5q-37 -19 -56.5 -34t-26.5 -36q-4 -11 -10 -16t-16 -5h-226z" />
    <glyph glyph-name="uni1EA4" unicode="&#x1ea4;" horiz-adv-x="1532" 
d="M1517 27l2 -9q0 -8 -5.5 -13t-15.5 -5h-405q-21 0 -26 20l-79 268h-453l-73 -268q-6 -20 -27 -20h-403q-10 0 -15.5 5t-5.5 13l2 9l457 1354q6 19 26 19h556q20 0 26 -19zM889 624l-135 458l-126 -458h261zM1146 1749q-8 -8 -17 -8q-10 0 -17 7l-127 109q-9 9 -9 18
q0 7 5 15l224 314q7 10 17 10q9 0 17 -7l182 -161q9 -7 9 -17q0 -9 -8 -17zM368 1595q-2 4 -2 12q0 13 10 20l303 243q13 10 29 10h132q16 0 29 -10l303 -243q11 -8 11 -19q0 -7 -3 -13l-61 -148q-5 -15 -18 -15q-3 0 -13 4l-314 162l-312 -164q-10 -4 -13 -4q-12 0 -18 15z
" />
    <glyph glyph-name="uni1EA5" unicode="&#x1ea5;" horiz-adv-x="1272" 
d="M1203 518l9 -494q0 -24 -22 -24h-367q-24 0 -23 24l4 87q-55 -63 -131.5 -97t-172.5 -34q-141 0 -242.5 69.5t-154.5 190t-53 272.5q0 149 59.5 272t167.5 194.5t249 71.5q169 0 269 -109l-6 65v4q0 20 22 20h379q22 0 22 -23zM760.5 314q41.5 65 41.5 207
q0 135 -38.5 197.5t-117.5 62.5q-168 0 -168 -270q0 -137 41.5 -199.5t119.5 -62.5q80 0 121.5 65zM1018 1379q-8 -8 -17 -8q-10 0 -17 7l-127 109q-9 9 -9 18q0 7 5 15l224 314q7 10 17 10q9 0 17 -7l182 -161q9 -7 9 -17q0 -9 -8 -17zM240 1225q-2 4 -2 12q0 13 10 20
l303 243q13 10 29 10h132q16 0 29 -10l303 -243q11 -8 11 -19q0 -7 -3 -13l-61 -148q-5 -15 -18 -15q-3 0 -13 4l-314 162l-312 -164q-10 -4 -13 -4q-12 0 -18 15z" />
    <glyph glyph-name="uni1EA6" unicode="&#x1ea6;" horiz-adv-x="1532" 
d="M1517 27l2 -9q0 -8 -5.5 -13t-15.5 -5h-405q-21 0 -26 20l-79 268h-453l-73 -268q-6 -20 -27 -20h-403q-10 0 -15.5 5t-5.5 13l2 9l457 1354q6 19 26 19h556q20 0 26 -19zM889 624l-135 458l-126 -458h261zM1147 1744q-7 -7 -17 -7q-9 0 -17 8l-275 263q-9 9 -9 18
q0 8 9 16l183 161q7 7 16 7q10 0 17 -10l225 -314q5 -8 5 -14q0 -10 -10 -19zM368 1595q-2 4 -2 12q0 13 10 20l303 243q13 10 29 10h132q16 0 29 -10l303 -243q11 -8 11 -19q0 -7 -3 -13l-61 -148q-5 -15 -18 -15q-3 0 -13 4l-314 162l-312 -164q-10 -4 -13 -4
q-12 0 -18 15z" />
    <glyph glyph-name="uni1EA7" unicode="&#x1ea7;" horiz-adv-x="1272" 
d="M1203 518l9 -494q0 -24 -22 -24h-367q-24 0 -23 24l4 87q-55 -63 -131.5 -97t-172.5 -34q-141 0 -242.5 69.5t-154.5 190t-53 272.5q0 149 59.5 272t167.5 194.5t249 71.5q169 0 269 -109l-6 65v4q0 20 22 20h379q22 0 22 -23zM760.5 314q41.5 65 41.5 207
q0 135 -38.5 197.5t-117.5 62.5q-168 0 -168 -270q0 -137 41.5 -199.5t119.5 -62.5q80 0 121.5 65zM1019 1374q-7 -7 -17 -7q-9 0 -17 8l-275 263q-9 9 -9 18q0 8 9 16l183 161q7 7 16 7q10 0 17 -10l225 -314q5 -8 5 -14q0 -10 -10 -19zM240 1225q-2 4 -2 12q0 13 10 20
l303 243q13 10 29 10h132q16 0 29 -10l303 -243q11 -8 11 -19q0 -7 -3 -13l-61 -148q-5 -15 -18 -15q-3 0 -13 4l-314 162l-312 -164q-10 -4 -13 -4q-12 0 -18 15z" />
    <glyph glyph-name="uni1EA8" unicode="&#x1ea8;" horiz-adv-x="1532" 
d="M1517 27l2 -9q0 -8 -5.5 -13t-15.5 -5h-405q-21 0 -26 20l-79 268h-453l-73 -268q-6 -20 -27 -20h-403q-10 0 -15.5 5t-5.5 13l2 9l457 1354q6 19 26 19h556q20 0 26 -19zM889 624l-135 458l-126 -458h261zM368 1595q-2 4 -2 12q0 13 10 20l303 243q13 10 29 10h132
q16 0 29 -10l303 -243q11 -8 11 -19q0 -7 -3 -13l-61 -148q-5 -15 -18 -15q-3 0 -13 4l-314 162l-312 -164q-10 -4 -13 -4q-12 0 -18 15zM1049 1775q-12 0 -18 6.5t-4 18.5q5 45 26 74.5t48 45t65 30.5q34 14 49.5 25t15.5 28q0 42 -64 42q-59 0 -69 -44q-3 -12 -8.5 -17
t-16.5 -5h-213q-12 0 -18 6.5t-5 18.5q13 106 99 162.5t235 56.5q100 0 175 -25t116 -72.5t41 -112.5q0 -40 -17 -67t-40.5 -43.5t-61.5 -36.5q-37 -19 -56.5 -34t-26.5 -36q-4 -11 -10 -16t-16 -5h-226z" />
    <glyph glyph-name="uni1EA9" unicode="&#x1ea9;" horiz-adv-x="1272" 
d="M1203 518l9 -494q0 -24 -22 -24h-367q-24 0 -23 24l4 87q-55 -63 -131.5 -97t-172.5 -34q-141 0 -242.5 69.5t-154.5 190t-53 272.5q0 149 59.5 272t167.5 194.5t249 71.5q169 0 269 -109l-6 65v4q0 20 22 20h379q22 0 22 -23zM760.5 314q41.5 65 41.5 207
q0 135 -38.5 197.5t-117.5 62.5q-168 0 -168 -270q0 -137 41.5 -199.5t119.5 -62.5q80 0 121.5 65zM240 1225q-2 4 -2 12q0 13 10 20l303 243q13 10 29 10h132q16 0 29 -10l303 -243q11 -8 11 -19q0 -7 -3 -13l-61 -148q-5 -15 -18 -15q-3 0 -13 4l-314 162l-312 -164
q-10 -4 -13 -4q-12 0 -18 15zM921 1405q-12 0 -18 6.5t-4 18.5q5 45 26 74.5t48 45t65 30.5q34 14 49.5 25t15.5 28q0 42 -64 42q-59 0 -69 -44q-3 -12 -8.5 -17t-16.5 -5h-213q-12 0 -18 6.5t-5 18.5q13 106 99 162.5t235 56.5q100 0 175 -25t116 -72.5t41 -112.5
q0 -40 -17 -67t-40.5 -43.5t-61.5 -36.5q-37 -19 -56.5 -34t-26.5 -36q-4 -11 -10 -16t-16 -5h-226z" />
    <glyph glyph-name="uni1EAA" unicode="&#x1eaa;" horiz-adv-x="1532" 
d="M1517 27l2 -9q0 -8 -5.5 -13t-15.5 -5h-405q-21 0 -26 20l-79 268h-453l-73 -268q-6 -20 -27 -20h-403q-10 0 -15.5 5t-5.5 13l2 9l457 1354q6 19 26 19h556q20 0 26 -19zM889 624l-135 458l-126 -458h261zM368 1595q-2 4 -2 12q0 13 10 20l303 243q13 10 29 10h132
q16 0 29 -10l303 -243q11 -8 11 -19q0 -7 -3 -13l-61 -148q-5 -15 -18 -15q-3 0 -13 4l-314 162l-312 -164q-10 -4 -13 -4q-12 0 -18 15zM817.5 1934.5q-38.5 13.5 -83.5 37.5q-27 14 -43.5 20.5t-30.5 6.5q-22 0 -31.5 -16t-11.5 -45q-2 -23 -24 -23h-155q-24 0 -24 24
q5 141 64 225.5t174 84.5q45 0 81 -13.5t87 -38.5q27 -14 41 -20t25 -6q23 0 33 14.5t12 43.5q1 11 7.5 17.5t17.5 6.5h155q24 0 22 -32q-5 -145 -61 -222.5t-166 -77.5q-50 0 -88.5 13.5z" />
    <glyph glyph-name="uni1EAB" unicode="&#x1eab;" horiz-adv-x="1272" 
d="M1203 518l9 -494q0 -24 -22 -24h-367q-24 0 -23 24l4 87q-55 -63 -131.5 -97t-172.5 -34q-141 0 -242.5 69.5t-154.5 190t-53 272.5q0 149 59.5 272t167.5 194.5t249 71.5q169 0 269 -109l-6 65v4q0 20 22 20h379q22 0 22 -23zM760.5 314q41.5 65 41.5 207
q0 135 -38.5 197.5t-117.5 62.5q-168 0 -168 -270q0 -137 41.5 -199.5t119.5 -62.5q80 0 121.5 65zM240 1225q-2 4 -2 12q0 13 10 20l303 243q13 10 29 10h132q16 0 29 -10l303 -243q11 -8 11 -19q0 -7 -3 -13l-61 -148q-5 -15 -18 -15q-3 0 -13 4l-314 162l-312 -164
q-10 -4 -13 -4q-12 0 -18 15zM689.5 1564.5q-38.5 13.5 -83.5 37.5q-27 14 -43.5 20.5t-30.5 6.5q-22 0 -31.5 -16t-11.5 -45q-2 -23 -24 -23h-155q-24 0 -24 24q5 141 64 225.5t174 84.5q45 0 81 -13.5t87 -38.5q27 -14 41 -20t25 -6q23 0 33 14.5t12 43.5q1 11 7.5 17.5
t17.5 6.5h155q24 0 22 -32q-5 -145 -61 -222.5t-166 -77.5q-50 0 -88.5 13.5z" />
    <glyph glyph-name="uni1EAC" unicode="&#x1eac;" horiz-adv-x="1532" 
d="M1517 27l2 -9q0 -8 -5.5 -13t-15.5 -5h-405q-21 0 -26 20l-79 268h-453l-73 -268q-6 -20 -27 -20h-403q-10 0 -15.5 5t-5.5 13l2 9l457 1354q6 19 26 19h556q20 0 26 -19zM889 624l-135 458l-126 -458h261zM574 -390q-24 0 -24 24v263q0 11 6.5 17t17.5 6h379
q10 0 16.5 -6t6.5 -17v-263q0 -11 -6 -17.5t-17 -6.5h-379zM368 1615q-2 4 -2 12q0 13 10 20l303 243q13 10 29 10h132q16 0 29 -10l303 -243q11 -8 11 -19q0 -7 -3 -13l-61 -148q-5 -15 -18 -15q-3 0 -13 4l-314 162l-312 -164q-10 -4 -13 -4q-12 0 -18 15z" />
    <glyph glyph-name="uni1EAD" unicode="&#x1ead;" horiz-adv-x="1272" 
d="M1203 518l9 -494q0 -24 -22 -24h-367q-24 0 -23 24l4 87q-55 -63 -131.5 -97t-172.5 -34q-141 0 -242.5 69.5t-154.5 190t-53 272.5q0 149 59.5 272t167.5 194.5t249 71.5q169 0 269 -109l-6 65v4q0 20 22 20h379q22 0 22 -23zM760.5 314q41.5 65 41.5 207
q0 135 -38.5 197.5t-117.5 62.5q-168 0 -168 -270q0 -137 41.5 -199.5t119.5 -62.5q80 0 121.5 65zM449 -390q-24 0 -24 24v263q0 11 6.5 17t17.5 6h379q10 0 16.5 -6t6.5 -17v-263q0 -11 -6 -17.5t-17 -6.5h-379zM240 1245q-2 4 -2 12q0 13 10 20l303 243q13 10 29 10h132
q16 0 29 -10l303 -243q11 -8 11 -19q0 -7 -3 -13l-61 -148q-5 -15 -18 -15q-3 0 -13 4l-314 162l-312 -164q-10 -4 -13 -4q-12 0 -18 15z" />
    <glyph glyph-name="uni1EAE" unicode="&#x1eae;" horiz-adv-x="1532" 
d="M1517 27l2 -9q0 -8 -5.5 -13t-15.5 -5h-405q-21 0 -26 20l-79 268h-453l-73 -268q-6 -20 -27 -20h-403q-10 0 -15.5 5t-5.5 13l2 9l457 1354q6 19 26 19h556q20 0 26 -19zM889 624l-135 458l-126 -458h261zM796 1786q-8 -8 -17 -8t-16 7l-128 109q-9 9 -9 18q0 7 5 15
l247 346q7 10 16 10t17 -7l191 -167q9 -7 9 -16t-9 -18zM569 1510.5q-89 45.5 -139.5 124.5t-56.5 179q-2 23 23 23h219q20 0 25 -23q7 -48 41.5 -76.5t92.5 -28.5q55 0 91 29t43 76q5 23 25 23h220q23 0 22 -21q-5 -100 -55.5 -180t-140 -125.5t-205.5 -45.5t-205 45.5z
" />
    <glyph glyph-name="uni1EAF" unicode="&#x1eaf;" horiz-adv-x="1272" 
d="M1203 518l9 -494q0 -24 -22 -24h-367q-24 0 -23 24l4 87q-55 -63 -131.5 -97t-172.5 -34q-141 0 -242.5 69.5t-154.5 190t-53 272.5q0 149 59.5 272t167.5 194.5t249 71.5q169 0 269 -109l-6 65v4q0 20 22 20h379q22 0 22 -23zM760.5 314q41.5 65 41.5 207
q0 135 -38.5 197.5t-117.5 62.5q-168 0 -168 -270q0 -137 41.5 -199.5t119.5 -62.5q80 0 121.5 65zM668 1416q-8 -8 -17 -8t-16 7l-128 109q-9 9 -9 18q0 7 5 15l247 346q7 10 16 10t17 -7l191 -167q9 -7 9 -16t-9 -18zM441 1140.5q-89 45.5 -139.5 124.5t-56.5 179
q-2 23 23 23h219q20 0 25 -23q7 -48 41.5 -76.5t92.5 -28.5q55 0 91 29t43 76q5 23 25 23h220q23 0 22 -21q-5 -100 -55.5 -180t-140 -125.5t-205.5 -45.5t-205 45.5z" />
    <glyph glyph-name="uni1EB0" unicode="&#x1eb0;" horiz-adv-x="1532" 
d="M1517 27l2 -9q0 -8 -5.5 -13t-15.5 -5h-405q-21 0 -26 20l-79 268h-453l-73 -268q-6 -20 -27 -20h-403q-10 0 -15.5 5t-5.5 13l2 9l457 1354q6 19 26 19h556q20 0 26 -19zM889 624l-135 458l-126 -458h261zM785 1785q-7 -7 -15 -7t-18 8l-306 289q-8 8 -8 17q0 10 9 17
l190 167q8 7 17 7q10 0 17 -10l246 -346q6 -7 6 -15t-10 -18zM569 1510.5q-89 45.5 -139.5 124.5t-56.5 179q-2 23 23 23h219q20 0 25 -23q7 -48 41.5 -76.5t92.5 -28.5q55 0 91 29t43 76q5 23 25 23h220q23 0 22 -21q-5 -100 -55.5 -180t-140 -125.5t-205.5 -45.5
t-205 45.5z" />
    <glyph glyph-name="uni1EB1" unicode="&#x1eb1;" horiz-adv-x="1272" 
d="M1203 518l9 -494q0 -24 -22 -24h-367q-24 0 -23 24l4 87q-55 -63 -131.5 -97t-172.5 -34q-141 0 -242.5 69.5t-154.5 190t-53 272.5q0 149 59.5 272t167.5 194.5t249 71.5q169 0 269 -109l-6 65v4q0 20 22 20h379q22 0 22 -23zM760.5 314q41.5 65 41.5 207
q0 135 -38.5 197.5t-117.5 62.5q-168 0 -168 -270q0 -137 41.5 -199.5t119.5 -62.5q80 0 121.5 65zM657 1415q-7 -7 -15 -7t-18 8l-306 289q-8 8 -8 17q0 10 9 17l190 167q8 7 17 7q10 0 17 -10l246 -346q6 -7 6 -15t-10 -18zM441 1140.5q-89 45.5 -139.5 124.5t-56.5 179
q-2 23 23 23h219q20 0 25 -23q7 -48 41.5 -76.5t92.5 -28.5q55 0 91 29t43 76q5 23 25 23h220q23 0 22 -21q-5 -100 -55.5 -180t-140 -125.5t-205.5 -45.5t-205 45.5z" />
    <glyph glyph-name="uni1EB2" unicode="&#x1eb2;" horiz-adv-x="1532" 
d="M1517 27l2 -9q0 -8 -5.5 -13t-15.5 -5h-405q-21 0 -26 20l-79 268h-453l-73 -268q-6 -20 -27 -20h-403q-10 0 -15.5 5t-5.5 13l2 9l457 1354q6 19 26 19h556q20 0 26 -19zM889 624l-135 458l-126 -458h261zM569 1510.5q-89 45.5 -139.5 124.5t-56.5 179q-2 23 23 23h219
q20 0 25 -23q7 -48 41.5 -76.5t92.5 -28.5q55 0 91 29t43 76q5 23 25 23h220q23 0 22 -21q-5 -100 -55.5 -180t-140 -125.5t-205.5 -45.5t-205 45.5zM662 1868q-12 0 -18 6.5t-4 18.5q5 45 26 74.5t48 45t65 30.5q34 14 49.5 25t15.5 28q0 42 -64 42q-59 0 -69 -44
q-3 -12 -8.5 -17t-16.5 -5h-213q-12 0 -18 6.5t-5 18.5q13 106 99 162.5t235 56.5q100 0 175 -25t116 -72.5t41 -112.5q0 -40 -17 -67t-40.5 -43.5t-61.5 -36.5q-37 -19 -56.5 -34t-26.5 -36q-4 -11 -10 -16t-16 -5h-226z" />
    <glyph glyph-name="uni1EB3" unicode="&#x1eb3;" horiz-adv-x="1272" 
d="M1203 518l9 -494q0 -24 -22 -24h-367q-24 0 -23 24l4 87q-55 -63 -131.5 -97t-172.5 -34q-141 0 -242.5 69.5t-154.5 190t-53 272.5q0 149 59.5 272t167.5 194.5t249 71.5q169 0 269 -109l-6 65v4q0 20 22 20h379q22 0 22 -23zM760.5 314q41.5 65 41.5 207
q0 135 -38.5 197.5t-117.5 62.5q-168 0 -168 -270q0 -137 41.5 -199.5t119.5 -62.5q80 0 121.5 65zM441 1140.5q-89 45.5 -139.5 124.5t-56.5 179q-2 23 23 23h219q20 0 25 -23q7 -48 41.5 -76.5t92.5 -28.5q55 0 91 29t43 76q5 23 25 23h220q23 0 22 -21
q-5 -100 -55.5 -180t-140 -125.5t-205.5 -45.5t-205 45.5zM534 1498q-12 0 -18 6.5t-4 18.5q5 45 26 74.5t48 45t65 30.5q34 14 49.5 25t15.5 28q0 42 -64 42q-59 0 -69 -44q-3 -12 -8.5 -17t-16.5 -5h-213q-12 0 -18 6.5t-5 18.5q13 106 99 162.5t235 56.5q100 0 175 -25
t116 -72.5t41 -112.5q0 -40 -17 -67t-40.5 -43.5t-61.5 -36.5q-37 -19 -56.5 -34t-26.5 -36q-4 -11 -10 -16t-16 -5h-226z" />
    <glyph glyph-name="uni1EB4" unicode="&#x1eb4;" horiz-adv-x="1532" 
d="M1517 27l2 -9q0 -8 -5.5 -13t-15.5 -5h-405q-21 0 -26 20l-79 268h-453l-73 -268q-6 -20 -27 -20h-403q-10 0 -15.5 5t-5.5 13l2 9l457 1354q6 19 26 19h556q20 0 26 -19zM889 624l-135 458l-126 -458h261zM816.5 1906q-39.5 14 -83.5 38q-26 14 -41 20t-28 6
q-24 0 -34 -15.5t-13 -45.5q-2 -23 -24 -23h-155q-24 0 -24 24q5 141 64 225.5t174 84.5q44 0 80 -13t84 -38q24 -14 40 -20.5t28 -6.5q25 0 35 14.5t12 43.5q1 11 7.5 17.5t17.5 6.5h155q24 0 22 -32q-5 -145 -61 -222.5t-166 -77.5q-50 0 -89.5 14zM569 1510.5
q-89 45.5 -139.5 124.5t-56.5 179q-2 23 23 23h219q20 0 25 -23q7 -48 41.5 -76.5t92.5 -28.5q55 0 91 29t43 76q5 23 25 23h220q23 0 22 -21q-5 -100 -55.5 -180t-140 -125.5t-205.5 -45.5t-205 45.5z" />
    <glyph glyph-name="uni1EB5" unicode="&#x1eb5;" horiz-adv-x="1272" 
d="M1203 518l9 -494q0 -24 -22 -24h-367q-24 0 -23 24l4 87q-55 -63 -131.5 -97t-172.5 -34q-141 0 -242.5 69.5t-154.5 190t-53 272.5q0 149 59.5 272t167.5 194.5t249 71.5q169 0 269 -109l-6 65v4q0 20 22 20h379q22 0 22 -23zM760.5 314q41.5 65 41.5 207
q0 135 -38.5 197.5t-117.5 62.5q-168 0 -168 -270q0 -137 41.5 -199.5t119.5 -62.5q80 0 121.5 65zM688.5 1536q-39.5 14 -83.5 38q-26 14 -41 20t-28 6q-24 0 -34 -15.5t-13 -45.5q-2 -23 -24 -23h-155q-24 0 -24 24q5 141 64 225.5t174 84.5q44 0 80 -13t84 -38
q24 -14 40 -20.5t28 -6.5q25 0 35 14.5t12 43.5q1 11 7.5 17.5t17.5 6.5h155q24 0 22 -32q-5 -145 -61 -222.5t-166 -77.5q-50 0 -89.5 14zM441 1140.5q-89 45.5 -139.5 124.5t-56.5 179q-2 23 23 23h219q20 0 25 -23q7 -48 41.5 -76.5t92.5 -28.5q55 0 91 29t43 76
q5 23 25 23h220q23 0 22 -21q-5 -100 -55.5 -180t-140 -125.5t-205.5 -45.5t-205 45.5z" />
    <glyph glyph-name="uni1EB6" unicode="&#x1eb6;" horiz-adv-x="1532" 
d="M1517 27l2 -9q0 -8 -5.5 -13t-15.5 -5h-405q-21 0 -26 20l-79 268h-453l-73 -268q-6 -20 -27 -20h-403q-10 0 -15.5 5t-5.5 13l2 9l457 1354q6 19 26 19h556q20 0 26 -19zM889 624l-135 458l-126 -458h261zM574 -390q-24 0 -24 24v263q0 11 6.5 17t17.5 6h379
q10 0 16.5 -6t6.5 -17v-263q0 -11 -6 -17.5t-17 -6.5h-379zM569 1515.5q-89 45.5 -139.5 124.5t-56.5 179q-2 23 23 23h219q20 0 25 -23q7 -48 41.5 -76.5t92.5 -28.5q55 0 91 29t43 76q5 23 25 23h220q23 0 22 -21q-5 -100 -55.5 -180t-140 -125.5t-205.5 -45.5t-205 45.5z
" />
    <glyph glyph-name="uni1EB7" unicode="&#x1eb7;" horiz-adv-x="1272" 
d="M1203 518l9 -494q0 -24 -22 -24h-367q-24 0 -23 24l4 87q-55 -63 -131.5 -97t-172.5 -34q-141 0 -242.5 69.5t-154.5 190t-53 272.5q0 149 59.5 272t167.5 194.5t249 71.5q169 0 269 -109l-6 65v4q0 20 22 20h379q22 0 22 -23zM760.5 314q41.5 65 41.5 207
q0 135 -38.5 197.5t-117.5 62.5q-168 0 -168 -270q0 -137 41.5 -199.5t119.5 -62.5q80 0 121.5 65zM449 -390q-24 0 -24 24v263q0 11 6.5 17t17.5 6h379q10 0 16.5 -6t6.5 -17v-263q0 -11 -6 -17.5t-17 -6.5h-379zM441 1145.5q-89 45.5 -139.5 124.5t-56.5 179q-2 23 23 23
h219q20 0 25 -23q7 -48 41.5 -76.5t92.5 -28.5q55 0 91 29t43 76q5 23 25 23h220q23 0 22 -21q-5 -100 -55.5 -180t-140 -125.5t-205.5 -45.5t-205 45.5z" />
    <glyph glyph-name="uni1EB8" unicode="&#x1eb8;" horiz-adv-x="1210" 
d="M93 0q-23 0 -23 24l13 652l-13 701q0 23 23 23h1032q11 0 17 -6t6 -17v-263q0 -11 -6 -17.5t-17 -6.5h-609l-5 -204h546q11 0 17 -6t6 -17v-263q0 -11 -6 -17.5t-17 -6.5h-546l5 -264h625q11 0 17 -6t6 -17v-265q0 -24 -23 -24h-1048zM420 -390q-24 0 -24 24v263
q0 11 6.5 17t17.5 6h379q10 0 16.5 -6t6.5 -17v-263q0 -11 -6 -17.5t-17 -6.5h-379z" />
    <glyph glyph-name="uni1EB9" unicode="&#x1eb9;" horiz-adv-x="1208" 
d="M466 426q6 -72 25 -112t48.5 -55t72.5 -15q94 0 128 84q7 20 26 20h354q12 0 18 -3.5t5 -10.5q-17 -91 -83.5 -174.5t-180 -136.5t-263.5 -53q-170 0 -298 67.5t-198 190t-70 284.5q0 165 70 289.5t194 191.5t284 67q271 0 415 -153t149 -457q0 -24 -23 -24h-673z
M522 766q-35 -32 -50 -116h264q0 67 -33 107.5t-91 40.5q-55 0 -90 -32zM418 -390q-24 0 -24 24v263q0 11 6.5 17t17.5 6h379q10 0 16.5 -6t6.5 -17v-263q0 -11 -6 -17.5t-17 -6.5h-379z" />
    <glyph glyph-name="uni1EBA" unicode="&#x1eba;" horiz-adv-x="1210" 
d="M93 0q-23 0 -23 24l13 652l-13 701q0 23 23 23h1032q11 0 17 -6t6 -17v-263q0 -11 -6 -17.5t-17 -6.5h-609l-5 -204h546q11 0 17 -6t6 -17v-263q0 -11 -6 -17.5t-17 -6.5h-546l5 -264h625q11 0 17 -6t6 -17v-265q0 -24 -23 -24h-1048zM507 1464q-12 0 -18 6.5t-4 18.5
q5 45 26 74.5t48 45t65 30.5q34 14 49.5 25t15.5 28q0 42 -64 42q-59 0 -69 -44q-3 -12 -8.5 -17t-16.5 -5h-213q-12 0 -18 6.5t-5 18.5q13 106 99 162.5t235 56.5q100 0 175 -25t116 -72.5t41 -112.5q0 -40 -17 -67t-40.5 -43.5t-61.5 -36.5q-37 -19 -56.5 -34t-26.5 -36
q-4 -11 -10 -16t-16 -5h-226z" />
    <glyph glyph-name="uni1EBB" unicode="&#x1ebb;" horiz-adv-x="1208" 
d="M466 426q6 -72 25 -112t48.5 -55t72.5 -15q94 0 128 84q7 20 26 20h354q12 0 18 -3.5t5 -10.5q-17 -91 -83.5 -174.5t-180 -136.5t-263.5 -53q-170 0 -298 67.5t-198 190t-70 284.5q0 165 70 289.5t194 191.5t284 67q271 0 415 -153t149 -457q0 -24 -23 -24h-673z
M522 766q-35 -32 -50 -116h264q0 67 -33 107.5t-91 40.5q-55 0 -90 -32zM496 1094q-12 0 -18 6.5t-4 18.5q5 45 26 74.5t48 45t65 30.5q34 14 49.5 25t15.5 28q0 42 -64 42q-59 0 -69 -44q-3 -12 -8.5 -17t-16.5 -5h-213q-12 0 -18 6.5t-5 18.5q13 106 99 162.5t235 56.5
q100 0 175 -25t116 -72.5t41 -112.5q0 -40 -17 -67t-40.5 -43.5t-61.5 -36.5q-37 -19 -56.5 -34t-26.5 -36q-4 -11 -10 -16t-16 -5h-226z" />
    <glyph glyph-name="uni1EBC" unicode="&#x1ebc;" horiz-adv-x="1210" 
d="M93 0q-23 0 -23 24l13 652l-13 701q0 23 23 23h1032q11 0 17 -6t6 -17v-263q0 -11 -6 -17.5t-17 -6.5h-609l-5 -204h546q11 0 17 -6t6 -17v-263q0 -11 -6 -17.5t-17 -6.5h-546l5 -264h625q11 0 17 -6t6 -17v-265q0 -24 -23 -24h-1048zM662.5 1490.5
q-38.5 13.5 -83.5 37.5q-27 14 -43.5 20.5t-30.5 6.5q-22 0 -31.5 -16t-11.5 -45q-2 -23 -24 -23h-155q-24 0 -24 24q5 141 64 225.5t174 84.5q45 0 81 -13.5t87 -38.5q27 -14 41 -20t25 -6q23 0 33 14.5t12 43.5q1 11 7.5 17.5t17.5 6.5h155q24 0 22 -32
q-5 -145 -61 -222.5t-166 -77.5q-50 0 -88.5 13.5z" />
    <glyph glyph-name="uni1EBD" unicode="&#x1ebd;" horiz-adv-x="1208" 
d="M466 426q6 -72 25 -112t48.5 -55t72.5 -15q94 0 128 84q7 20 26 20h354q12 0 18 -3.5t5 -10.5q-17 -91 -83.5 -174.5t-180 -136.5t-263.5 -53q-170 0 -298 67.5t-198 190t-70 284.5q0 165 70 289.5t194 191.5t284 67q271 0 415 -153t149 -457q0 -24 -23 -24h-673z
M522 766q-35 -32 -50 -116h264q0 67 -33 107.5t-91 40.5q-55 0 -90 -32zM651.5 1120.5q-38.5 13.5 -83.5 37.5q-27 14 -43.5 20.5t-30.5 6.5q-22 0 -31.5 -16t-11.5 -45q-2 -23 -24 -23h-155q-24 0 -24 24q5 141 64 225.5t174 84.5q45 0 81 -13.5t87 -38.5q27 -14 41 -20
t25 -6q23 0 33 14.5t12 43.5q1 11 7.5 17.5t17.5 6.5h155q24 0 22 -32q-5 -145 -61 -222.5t-166 -77.5q-50 0 -88.5 13.5z" />
    <glyph glyph-name="uni1EBE" unicode="&#x1ebe;" horiz-adv-x="1210" 
d="M93 0q-23 0 -23 24l13 652l-13 701q0 23 23 23h1032q11 0 17 -6t6 -17v-263q0 -11 -6 -17.5t-17 -6.5h-609l-5 -204h546q11 0 17 -6t6 -17v-263q0 -11 -6 -17.5t-17 -6.5h-546l5 -264h625q11 0 17 -6t6 -17v-265q0 -24 -23 -24h-1048zM991 1749q-8 -8 -17 -8q-10 0 -17 7
l-127 109q-9 9 -9 18q0 7 5 15l224 314q7 10 17 10q9 0 17 -7l182 -161q9 -7 9 -17q0 -9 -8 -17zM213 1595q-2 4 -2 12q0 13 10 20l303 243q13 10 29 10h132q16 0 29 -10l303 -243q11 -8 11 -19q0 -7 -3 -13l-61 -148q-5 -15 -18 -15q-3 0 -13 4l-314 162l-312 -164
q-10 -4 -13 -4q-12 0 -18 15z" />
    <glyph glyph-name="uni1EBF" unicode="&#x1ebf;" horiz-adv-x="1208" 
d="M466 426q6 -72 25 -112t48.5 -55t72.5 -15q94 0 128 84q7 20 26 20h354q12 0 18 -3.5t5 -10.5q-17 -91 -83.5 -174.5t-180 -136.5t-263.5 -53q-170 0 -298 67.5t-198 190t-70 284.5q0 165 70 289.5t194 191.5t284 67q271 0 415 -153t149 -457q0 -24 -23 -24h-673z
M522 766q-35 -32 -50 -116h264q0 67 -33 107.5t-91 40.5q-55 0 -90 -32zM980 1379q-8 -8 -17 -8q-10 0 -17 7l-127 109q-9 9 -9 18q0 7 5 15l224 314q7 10 17 10q9 0 17 -7l182 -161q9 -7 9 -17q0 -9 -8 -17zM202 1225q-2 4 -2 12q0 13 10 20l303 243q13 10 29 10h132
q16 0 29 -10l303 -243q11 -8 11 -19q0 -7 -3 -13l-61 -148q-5 -15 -18 -15q-3 0 -13 4l-314 162l-312 -164q-10 -4 -13 -4q-12 0 -18 15z" />
    <glyph glyph-name="uni1EC0" unicode="&#x1ec0;" horiz-adv-x="1210" 
d="M93 0q-23 0 -23 24l13 652l-13 701q0 23 23 23h1032q11 0 17 -6t6 -17v-263q0 -11 -6 -17.5t-17 -6.5h-609l-5 -204h546q11 0 17 -6t6 -17v-263q0 -11 -6 -17.5t-17 -6.5h-546l5 -264h625q11 0 17 -6t6 -17v-265q0 -24 -23 -24h-1048zM992 1744q-7 -7 -17 -7q-9 0 -17 8
l-275 263q-9 9 -9 18q0 8 9 16l183 161q7 7 16 7q10 0 17 -10l225 -314q5 -8 5 -14q0 -10 -10 -19zM213 1595q-2 4 -2 12q0 13 10 20l303 243q13 10 29 10h132q16 0 29 -10l303 -243q11 -8 11 -19q0 -7 -3 -13l-61 -148q-5 -15 -18 -15q-3 0 -13 4l-314 162l-312 -164
q-10 -4 -13 -4q-12 0 -18 15z" />
    <glyph glyph-name="uni1EC1" unicode="&#x1ec1;" horiz-adv-x="1208" 
d="M466 426q6 -72 25 -112t48.5 -55t72.5 -15q94 0 128 84q7 20 26 20h354q12 0 18 -3.5t5 -10.5q-17 -91 -83.5 -174.5t-180 -136.5t-263.5 -53q-170 0 -298 67.5t-198 190t-70 284.5q0 165 70 289.5t194 191.5t284 67q271 0 415 -153t149 -457q0 -24 -23 -24h-673z
M522 766q-35 -32 -50 -116h264q0 67 -33 107.5t-91 40.5q-55 0 -90 -32zM981 1374q-7 -7 -17 -7q-9 0 -17 8l-275 263q-9 9 -9 18q0 8 9 16l183 161q7 7 16 7q10 0 17 -10l225 -314q5 -8 5 -14q0 -10 -10 -19zM202 1225q-2 4 -2 12q0 13 10 20l303 243q13 10 29 10h132
q16 0 29 -10l303 -243q11 -8 11 -19q0 -7 -3 -13l-61 -148q-5 -15 -18 -15q-3 0 -13 4l-314 162l-312 -164q-10 -4 -13 -4q-12 0 -18 15z" />
    <glyph glyph-name="uni1EC2" unicode="&#x1ec2;" horiz-adv-x="1210" 
d="M93 0q-23 0 -23 24l13 652l-13 701q0 23 23 23h1032q11 0 17 -6t6 -17v-263q0 -11 -6 -17.5t-17 -6.5h-609l-5 -204h546q11 0 17 -6t6 -17v-263q0 -11 -6 -17.5t-17 -6.5h-546l5 -264h625q11 0 17 -6t6 -17v-265q0 -24 -23 -24h-1048zM213 1595q-2 4 -2 12q0 13 10 20
l303 243q13 10 29 10h132q16 0 29 -10l303 -243q11 -8 11 -19q0 -7 -3 -13l-61 -148q-5 -15 -18 -15q-3 0 -13 4l-314 162l-312 -164q-10 -4 -13 -4q-12 0 -18 15zM894 1775q-12 0 -18 6.5t-4 18.5q5 45 26 74.5t48 45t65 30.5q34 14 49.5 25t15.5 28q0 42 -64 42
q-59 0 -69 -44q-3 -12 -8.5 -17t-16.5 -5h-213q-12 0 -18 6.5t-5 18.5q13 106 99 162.5t235 56.5q100 0 175 -25t116 -72.5t41 -112.5q0 -40 -17 -67t-40.5 -43.5t-61.5 -36.5q-37 -19 -56.5 -34t-26.5 -36q-4 -11 -10 -16t-16 -5h-226z" />
    <glyph glyph-name="uni1EC3" unicode="&#x1ec3;" horiz-adv-x="1208" 
d="M466 426q6 -72 25 -112t48.5 -55t72.5 -15q94 0 128 84q7 20 26 20h354q12 0 18 -3.5t5 -10.5q-17 -91 -83.5 -174.5t-180 -136.5t-263.5 -53q-170 0 -298 67.5t-198 190t-70 284.5q0 165 70 289.5t194 191.5t284 67q271 0 415 -153t149 -457q0 -24 -23 -24h-673z
M522 766q-35 -32 -50 -116h264q0 67 -33 107.5t-91 40.5q-55 0 -90 -32zM202 1225q-2 4 -2 12q0 13 10 20l303 243q13 10 29 10h132q16 0 29 -10l303 -243q11 -8 11 -19q0 -7 -3 -13l-61 -148q-5 -15 -18 -15q-3 0 -13 4l-314 162l-312 -164q-10 -4 -13 -4q-12 0 -18 15z
M883 1405q-12 0 -18 6.5t-4 18.5q5 45 26 74.5t48 45t65 30.5q34 14 49.5 25t15.5 28q0 42 -64 42q-59 0 -69 -44q-3 -12 -8.5 -17t-16.5 -5h-213q-12 0 -18 6.5t-5 18.5q13 106 99 162.5t235 56.5q100 0 175 -25t116 -72.5t41 -112.5q0 -40 -17 -67t-40.5 -43.5
t-61.5 -36.5q-37 -19 -56.5 -34t-26.5 -36q-4 -11 -10 -16t-16 -5h-226z" />
    <glyph glyph-name="uni1EC4" unicode="&#x1ec4;" horiz-adv-x="1210" 
d="M93 0q-23 0 -23 24l13 652l-13 701q0 23 23 23h1032q11 0 17 -6t6 -17v-263q0 -11 -6 -17.5t-17 -6.5h-609l-5 -204h546q11 0 17 -6t6 -17v-263q0 -11 -6 -17.5t-17 -6.5h-546l5 -264h625q11 0 17 -6t6 -17v-265q0 -24 -23 -24h-1048zM213 1595q-2 4 -2 12q0 13 10 20
l303 243q13 10 29 10h132q16 0 29 -10l303 -243q11 -8 11 -19q0 -7 -3 -13l-61 -148q-5 -15 -18 -15q-3 0 -13 4l-314 162l-312 -164q-10 -4 -13 -4q-12 0 -18 15zM662.5 1934.5q-38.5 13.5 -83.5 37.5q-27 14 -43.5 20.5t-30.5 6.5q-22 0 -31.5 -16t-11.5 -45
q-2 -23 -24 -23h-155q-24 0 -24 24q5 141 64 225.5t174 84.5q45 0 81 -13.5t87 -38.5q27 -14 41 -20t25 -6q23 0 33 14.5t12 43.5q1 11 7.5 17.5t17.5 6.5h155q24 0 22 -32q-5 -145 -61 -222.5t-166 -77.5q-50 0 -88.5 13.5z" />
    <glyph glyph-name="uni1EC5" unicode="&#x1ec5;" horiz-adv-x="1208" 
d="M466 426q6 -72 25 -112t48.5 -55t72.5 -15q94 0 128 84q7 20 26 20h354q12 0 18 -3.5t5 -10.5q-17 -91 -83.5 -174.5t-180 -136.5t-263.5 -53q-170 0 -298 67.5t-198 190t-70 284.5q0 165 70 289.5t194 191.5t284 67q271 0 415 -153t149 -457q0 -24 -23 -24h-673z
M522 766q-35 -32 -50 -116h264q0 67 -33 107.5t-91 40.5q-55 0 -90 -32zM202 1225q-2 4 -2 12q0 13 10 20l303 243q13 10 29 10h132q16 0 29 -10l303 -243q11 -8 11 -19q0 -7 -3 -13l-61 -148q-5 -15 -18 -15q-3 0 -13 4l-314 162l-312 -164q-10 -4 -13 -4q-12 0 -18 15z
M651.5 1564.5q-38.5 13.5 -83.5 37.5q-27 14 -43.5 20.5t-30.5 6.5q-22 0 -31.5 -16t-11.5 -45q-2 -23 -24 -23h-155q-24 0 -24 24q5 141 64 225.5t174 84.5q45 0 81 -13.5t87 -38.5q27 -14 41 -20t25 -6q23 0 33 14.5t12 43.5q1 11 7.5 17.5t17.5 6.5h155q24 0 22 -32
q-5 -145 -61 -222.5t-166 -77.5q-50 0 -88.5 13.5z" />
    <glyph glyph-name="uni1EC6" unicode="&#x1ec6;" horiz-adv-x="1210" 
d="M93 0q-23 0 -23 24l13 652l-13 701q0 23 23 23h1032q11 0 17 -6t6 -17v-263q0 -11 -6 -17.5t-17 -6.5h-609l-5 -204h546q11 0 17 -6t6 -17v-263q0 -11 -6 -17.5t-17 -6.5h-546l5 -264h625q11 0 17 -6t6 -17v-265q0 -24 -23 -24h-1048zM420 -390q-24 0 -24 24v263
q0 11 6.5 17t17.5 6h379q10 0 16.5 -6t6.5 -17v-263q0 -11 -6 -17.5t-17 -6.5h-379zM213 1615q-2 4 -2 12q0 13 10 20l303 243q13 10 29 10h132q16 0 29 -10l303 -243q11 -8 11 -19q0 -7 -3 -13l-61 -148q-5 -15 -18 -15q-3 0 -13 4l-314 162l-312 -164q-10 -4 -13 -4
q-12 0 -18 15z" />
    <glyph glyph-name="uni1EC7" unicode="&#x1ec7;" horiz-adv-x="1208" 
d="M466 426q6 -72 25 -112t48.5 -55t72.5 -15q94 0 128 84q7 20 26 20h354q12 0 18 -3.5t5 -10.5q-17 -91 -83.5 -174.5t-180 -136.5t-263.5 -53q-170 0 -298 67.5t-198 190t-70 284.5q0 165 70 289.5t194 191.5t284 67q271 0 415 -153t149 -457q0 -24 -23 -24h-673z
M522 766q-35 -32 -50 -116h264q0 67 -33 107.5t-91 40.5q-55 0 -90 -32zM418 -390q-24 0 -24 24v263q0 11 6.5 17t17.5 6h379q10 0 16.5 -6t6.5 -17v-263q0 -11 -6 -17.5t-17 -6.5h-379zM202 1245q-2 4 -2 12q0 13 10 20l303 243q13 10 29 10h132q16 0 29 -10l303 -243
q11 -8 11 -19q0 -7 -3 -13l-61 -148q-5 -15 -18 -15q-3 0 -13 4l-314 162l-312 -164q-10 -4 -13 -4q-12 0 -18 15z" />
    <glyph glyph-name="uni1EC8" unicode="&#x1ec8;" horiz-adv-x="604" 
d="M103 0q-23 0 -23 24l11 662l-11 691q0 23 23 23h399q22 0 22 -23l-11 -691l11 -662q0 -24 -22 -24h-399zM190 1464q-12 0 -18 6.5t-4 18.5q5 45 26 74.5t48 45t65 30.5q34 14 49.5 25t15.5 28q0 42 -64 42q-59 0 -69 -44q-3 -12 -8.5 -17t-16.5 -5h-213q-12 0 -18 6.5
t-5 18.5q13 106 99 162.5t235 56.5q100 0 175 -25t116 -72.5t41 -112.5q0 -40 -17 -67t-40.5 -43.5t-61.5 -36.5q-37 -19 -56.5 -34t-26.5 -36q-4 -11 -10 -16t-16 -5h-226z" />
    <glyph glyph-name="uni1EC9" unicode="&#x1ec9;" horiz-adv-x="556" 
d="M166 1094q-12 0 -18 6.5t-4 18.5q5 45 25.5 74.5t46 45t62.5 30.5q34 14 49 24.5t15 28.5q0 42 -58 42q-54 0 -63 -43q-3 -12 -8.5 -17.5t-16.5 -5.5h-179q-12 0 -18 6.5t-5 18.5q12 106 87.5 162.5t206.5 56.5q88 0 154 -25t102 -72.5t36 -112.5q0 -39 -13.5 -66.5
t-32.5 -44t-50 -37.5q-29 -19 -45 -33t-22 -35q-3 -12 -8.5 -17t-16.5 -5h-226zM90 0q-24 0 -24 24l6 472l-6 511q0 23 24 23h377q23 0 23 -23l-6 -511l6 -472q0 -24 -23 -24h-377z" />
    <glyph glyph-name="uni1ECA" unicode="&#x1eca;" horiz-adv-x="604" 
d="M103 0q-23 0 -23 24l11 662l-11 691q0 23 23 23h399q22 0 22 -23l-11 -691l11 -662q0 -24 -22 -24h-399zM112 -390q-24 0 -24 24v263q0 11 6.5 17t17.5 6h379q10 0 16.5 -6t6.5 -17v-263q0 -11 -6 -17.5t-17 -6.5h-379z" />
    <glyph glyph-name="uni1ECB" unicode="&#x1ecb;" horiz-adv-x="556" 
d="M90 0q-24 0 -24 24l6 472l-6 511q0 23 24 23h377q23 0 23 -23l-6 -511l6 -472q0 -24 -23 -24h-377zM88 1090q-24 0 -24 24v263q0 11 6.5 17t17.5 6h379q10 0 16.5 -6t6.5 -17v-263q0 -11 -6 -17.5t-17 -6.5h-379zM90 -390q-24 0 -24 24v263q0 11 6.5 17t17.5 6h379
q10 0 16.5 -6t6.5 -17v-263q0 -11 -6 -17.5t-17 -6.5h-379z" />
    <glyph glyph-name="uni1ECC" unicode="&#x1ecc;" horiz-adv-x="1614" 
d="M410 58.5q-171 94.5 -264.5 261t-93.5 374.5q0 221 92.5 389t263 260.5t398.5 92.5q226 0 397 -91t265 -259t94 -392q0 -208 -93.5 -374t-265.5 -261t-397 -95t-396 94.5zM1031.5 395q74.5 107 74.5 299q0 196 -75 307t-225 111t-224 -108.5t-74 -309.5q0 -190 77.5 -298
t224.5 -108t221.5 107zM608 -390q-24 0 -24 24v263q0 11 6.5 17t17.5 6h379q10 0 16.5 -6t6.5 -17v-263q0 -11 -6 -17.5t-17 -6.5h-379z" />
    <glyph glyph-name="uni1ECD" unicode="&#x1ecd;" horiz-adv-x="1236" 
d="M314.5 36q-128.5 66 -196.5 188.5t-68 287.5q0 166 68 289.5t196.5 191t305.5 67.5q178 0 305.5 -65.5t194 -187t66.5 -287.5t-67 -290t-194.5 -192t-304.5 -68t-305.5 66zM699 269.5q30 23.5 44.5 81t14.5 161.5q0 149 -33.5 211.5t-106.5 62.5q-51 -2 -82 -29
t-45.5 -87t-14.5 -162q0 -99 15.5 -156.5t47 -81.5t81.5 -24q49 0 79 23.5zM428 -390q-24 0 -24 24v263q0 11 6.5 17t17.5 6h379q10 0 16.5 -6t6.5 -17v-263q0 -11 -6 -17.5t-17 -6.5h-379z" />
    <glyph glyph-name="uni1ECE" unicode="&#x1ece;" horiz-adv-x="1614" 
d="M410 58.5q-171 94.5 -264.5 261t-93.5 374.5q0 221 92.5 389t263 260.5t398.5 92.5q226 0 397 -91t265 -259t94 -392q0 -208 -93.5 -374t-265.5 -261t-397 -95t-396 94.5zM1031.5 395q74.5 107 74.5 299q0 196 -75 307t-225 111t-224 -108.5t-74 -309.5q0 -190 77.5 -298
t224.5 -108t221.5 107zM686 1464q-12 0 -18 6.5t-4 18.5q5 45 26 74.5t48 45t65 30.5q34 14 49.5 25t15.5 28q0 42 -64 42q-59 0 -69 -44q-3 -12 -8.5 -17t-16.5 -5h-213q-12 0 -18 6.5t-5 18.5q13 106 99 162.5t235 56.5q100 0 175 -25t116 -72.5t41 -112.5q0 -40 -17 -67
t-40.5 -43.5t-61.5 -36.5q-37 -19 -56.5 -34t-26.5 -36q-4 -11 -10 -16t-16 -5h-226z" />
    <glyph glyph-name="uni1ECF" unicode="&#x1ecf;" horiz-adv-x="1236" 
d="M314.5 36q-128.5 66 -196.5 188.5t-68 287.5q0 166 68 289.5t196.5 191t305.5 67.5q178 0 305.5 -65.5t194 -187t66.5 -287.5t-67 -290t-194.5 -192t-304.5 -68t-305.5 66zM699 269.5q30 23.5 44.5 81t14.5 161.5q0 149 -33.5 211.5t-106.5 62.5q-51 -2 -82 -29
t-45.5 -87t-14.5 -162q0 -99 15.5 -156.5t47 -81.5t81.5 -24q49 0 79 23.5zM508 1094q-12 0 -18 6.5t-4 18.5q5 45 26 74.5t48 45t65 30.5q34 14 49.5 25t15.5 28q0 42 -64 42q-59 0 -69 -44q-3 -12 -8.5 -17t-16.5 -5h-213q-12 0 -18 6.5t-5 18.5q13 106 99 162.5t235 56.5
q100 0 175 -25t116 -72.5t41 -112.5q0 -40 -17 -67t-40.5 -43.5t-61.5 -36.5q-37 -19 -56.5 -34t-26.5 -36q-4 -11 -10 -16t-16 -5h-226z" />
    <glyph glyph-name="uni1ED0" unicode="&#x1ed0;" horiz-adv-x="1614" 
d="M410 58.5q-171 94.5 -264.5 261t-93.5 374.5q0 221 92.5 389t263 260.5t398.5 92.5q226 0 397 -91t265 -259t94 -392q0 -208 -93.5 -374t-265.5 -261t-397 -95t-396 94.5zM1031.5 395q74.5 107 74.5 299q0 196 -75 307t-225 111t-224 -108.5t-74 -309.5q0 -190 77.5 -298
t224.5 -108t221.5 107zM1170 1749q-8 -8 -17 -8q-10 0 -17 7l-127 109q-9 9 -9 18q0 7 5 15l224 314q7 10 17 10q9 0 17 -7l182 -161q9 -7 9 -17q0 -9 -8 -17zM392 1595q-2 4 -2 12q0 13 10 20l303 243q13 10 29 10h132q16 0 29 -10l303 -243q11 -8 11 -19q0 -7 -3 -13
l-61 -148q-5 -15 -18 -15q-3 0 -13 4l-314 162l-312 -164q-10 -4 -13 -4q-12 0 -18 15z" />
    <glyph glyph-name="uni1ED1" unicode="&#x1ed1;" horiz-adv-x="1236" 
d="M314.5 36q-128.5 66 -196.5 188.5t-68 287.5q0 166 68 289.5t196.5 191t305.5 67.5q178 0 305.5 -65.5t194 -187t66.5 -287.5t-67 -290t-194.5 -192t-304.5 -68t-305.5 66zM699 269.5q30 23.5 44.5 81t14.5 161.5q0 149 -33.5 211.5t-106.5 62.5q-51 -2 -82 -29
t-45.5 -87t-14.5 -162q0 -99 15.5 -156.5t47 -81.5t81.5 -24q49 0 79 23.5zM992 1379q-8 -8 -17 -8q-10 0 -17 7l-127 109q-9 9 -9 18q0 7 5 15l224 314q7 10 17 10q9 0 17 -7l182 -161q9 -7 9 -17q0 -9 -8 -17zM214 1225q-2 4 -2 12q0 13 10 20l303 243q13 10 29 10h132
q16 0 29 -10l303 -243q11 -8 11 -19q0 -7 -3 -13l-61 -148q-5 -15 -18 -15q-3 0 -13 4l-314 162l-312 -164q-10 -4 -13 -4q-12 0 -18 15z" />
    <glyph glyph-name="uni1ED2" unicode="&#x1ed2;" horiz-adv-x="1614" 
d="M410 58.5q-171 94.5 -264.5 261t-93.5 374.5q0 221 92.5 389t263 260.5t398.5 92.5q226 0 397 -91t265 -259t94 -392q0 -208 -93.5 -374t-265.5 -261t-397 -95t-396 94.5zM1031.5 395q74.5 107 74.5 299q0 196 -75 307t-225 111t-224 -108.5t-74 -309.5q0 -190 77.5 -298
t224.5 -108t221.5 107zM1171 1744q-7 -7 -17 -7q-9 0 -17 8l-275 263q-9 9 -9 18q0 8 9 16l183 161q7 7 16 7q10 0 17 -10l225 -314q5 -8 5 -14q0 -10 -10 -19zM392 1595q-2 4 -2 12q0 13 10 20l303 243q13 10 29 10h132q16 0 29 -10l303 -243q11 -8 11 -19q0 -7 -3 -13
l-61 -148q-5 -15 -18 -15q-3 0 -13 4l-314 162l-312 -164q-10 -4 -13 -4q-12 0 -18 15z" />
    <glyph glyph-name="uni1ED3" unicode="&#x1ed3;" horiz-adv-x="1236" 
d="M314.5 36q-128.5 66 -196.5 188.5t-68 287.5q0 166 68 289.5t196.5 191t305.5 67.5q178 0 305.5 -65.5t194 -187t66.5 -287.5t-67 -290t-194.5 -192t-304.5 -68t-305.5 66zM699 269.5q30 23.5 44.5 81t14.5 161.5q0 149 -33.5 211.5t-106.5 62.5q-51 -2 -82 -29
t-45.5 -87t-14.5 -162q0 -99 15.5 -156.5t47 -81.5t81.5 -24q49 0 79 23.5zM993 1374q-7 -7 -17 -7q-9 0 -17 8l-275 263q-9 9 -9 18q0 8 9 16l183 161q7 7 16 7q10 0 17 -10l225 -314q5 -8 5 -14q0 -10 -10 -19zM214 1225q-2 4 -2 12q0 13 10 20l303 243q13 10 29 10h132
q16 0 29 -10l303 -243q11 -8 11 -19q0 -7 -3 -13l-61 -148q-5 -15 -18 -15q-3 0 -13 4l-314 162l-312 -164q-10 -4 -13 -4q-12 0 -18 15z" />
    <glyph glyph-name="uni1ED4" unicode="&#x1ed4;" horiz-adv-x="1614" 
d="M410 58.5q-171 94.5 -264.5 261t-93.5 374.5q0 221 92.5 389t263 260.5t398.5 92.5q226 0 397 -91t265 -259t94 -392q0 -208 -93.5 -374t-265.5 -261t-397 -95t-396 94.5zM1031.5 395q74.5 107 74.5 299q0 196 -75 307t-225 111t-224 -108.5t-74 -309.5q0 -190 77.5 -298
t224.5 -108t221.5 107zM392 1595q-2 4 -2 12q0 13 10 20l303 243q13 10 29 10h132q16 0 29 -10l303 -243q11 -8 11 -19q0 -7 -3 -13l-61 -148q-5 -15 -18 -15q-3 0 -13 4l-314 162l-312 -164q-10 -4 -13 -4q-12 0 -18 15zM1073 1775q-12 0 -18 6.5t-4 18.5q5 45 26 74.5
t48 45t65 30.5q34 14 49.5 25t15.5 28q0 42 -64 42q-59 0 -69 -44q-3 -12 -8.5 -17t-16.5 -5h-213q-12 0 -18 6.5t-5 18.5q13 106 99 162.5t235 56.5q100 0 175 -25t116 -72.5t41 -112.5q0 -40 -17 -67t-40.5 -43.5t-61.5 -36.5q-37 -19 -56.5 -34t-26.5 -36q-4 -11 -10 -16
t-16 -5h-226z" />
    <glyph glyph-name="uni1ED5" unicode="&#x1ed5;" horiz-adv-x="1236" 
d="M314.5 36q-128.5 66 -196.5 188.5t-68 287.5q0 166 68 289.5t196.5 191t305.5 67.5q178 0 305.5 -65.5t194 -187t66.5 -287.5t-67 -290t-194.5 -192t-304.5 -68t-305.5 66zM699 269.5q30 23.5 44.5 81t14.5 161.5q0 149 -33.5 211.5t-106.5 62.5q-51 -2 -82 -29
t-45.5 -87t-14.5 -162q0 -99 15.5 -156.5t47 -81.5t81.5 -24q49 0 79 23.5zM214 1225q-2 4 -2 12q0 13 10 20l303 243q13 10 29 10h132q16 0 29 -10l303 -243q11 -8 11 -19q0 -7 -3 -13l-61 -148q-5 -15 -18 -15q-3 0 -13 4l-314 162l-312 -164q-10 -4 -13 -4q-12 0 -18 15z
M895 1405q-12 0 -18 6.5t-4 18.5q5 45 26 74.5t48 45t65 30.5q34 14 49.5 25t15.5 28q0 42 -64 42q-59 0 -69 -44q-3 -12 -8.5 -17t-16.5 -5h-213q-12 0 -18 6.5t-5 18.5q13 106 99 162.5t235 56.5q100 0 175 -25t116 -72.5t41 -112.5q0 -40 -17 -67t-40.5 -43.5
t-61.5 -36.5q-37 -19 -56.5 -34t-26.5 -36q-4 -11 -10 -16t-16 -5h-226z" />
    <glyph glyph-name="uni1ED6" unicode="&#x1ed6;" horiz-adv-x="1614" 
d="M410 58.5q-171 94.5 -264.5 261t-93.5 374.5q0 221 92.5 389t263 260.5t398.5 92.5q226 0 397 -91t265 -259t94 -392q0 -208 -93.5 -374t-265.5 -261t-397 -95t-396 94.5zM1031.5 395q74.5 107 74.5 299q0 196 -75 307t-225 111t-224 -108.5t-74 -309.5q0 -190 77.5 -298
t224.5 -108t221.5 107zM392 1595q-2 4 -2 12q0 13 10 20l303 243q13 10 29 10h132q16 0 29 -10l303 -243q11 -8 11 -19q0 -7 -3 -13l-61 -148q-5 -15 -18 -15q-3 0 -13 4l-314 162l-312 -164q-10 -4 -13 -4q-12 0 -18 15zM841.5 1934.5q-38.5 13.5 -83.5 37.5
q-27 14 -43.5 20.5t-30.5 6.5q-22 0 -31.5 -16t-11.5 -45q-2 -23 -24 -23h-155q-24 0 -24 24q5 141 64 225.5t174 84.5q45 0 81 -13.5t87 -38.5q27 -14 41 -20t25 -6q23 0 33 14.5t12 43.5q1 11 7.5 17.5t17.5 6.5h155q24 0 22 -32q-5 -145 -61 -222.5t-166 -77.5
q-50 0 -88.5 13.5z" />
    <glyph glyph-name="uni1ED7" unicode="&#x1ed7;" horiz-adv-x="1236" 
d="M314.5 36q-128.5 66 -196.5 188.5t-68 287.5q0 166 68 289.5t196.5 191t305.5 67.5q178 0 305.5 -65.5t194 -187t66.5 -287.5t-67 -290t-194.5 -192t-304.5 -68t-305.5 66zM699 269.5q30 23.5 44.5 81t14.5 161.5q0 149 -33.5 211.5t-106.5 62.5q-51 -2 -82 -29
t-45.5 -87t-14.5 -162q0 -99 15.5 -156.5t47 -81.5t81.5 -24q49 0 79 23.5zM214 1225q-2 4 -2 12q0 13 10 20l303 243q13 10 29 10h132q16 0 29 -10l303 -243q11 -8 11 -19q0 -7 -3 -13l-61 -148q-5 -15 -18 -15q-3 0 -13 4l-314 162l-312 -164q-10 -4 -13 -4q-12 0 -18 15z
M663.5 1564.5q-38.5 13.5 -83.5 37.5q-27 14 -43.5 20.5t-30.5 6.5q-22 0 -31.5 -16t-11.5 -45q-2 -23 -24 -23h-155q-24 0 -24 24q5 141 64 225.5t174 84.5q45 0 81 -13.5t87 -38.5q27 -14 41 -20t25 -6q23 0 33 14.5t12 43.5q1 11 7.5 17.5t17.5 6.5h155q24 0 22 -32
q-5 -145 -61 -222.5t-166 -77.5q-50 0 -88.5 13.5z" />
    <glyph glyph-name="uni1ED8" unicode="&#x1ed8;" horiz-adv-x="1614" 
d="M410 58.5q-171 94.5 -264.5 261t-93.5 374.5q0 221 92.5 389t263 260.5t398.5 92.5q226 0 397 -91t265 -259t94 -392q0 -208 -93.5 -374t-265.5 -261t-397 -95t-396 94.5zM1031.5 395q74.5 107 74.5 299q0 196 -75 307t-225 111t-224 -108.5t-74 -309.5q0 -190 77.5 -298
t224.5 -108t221.5 107zM608 -390q-24 0 -24 24v263q0 11 6.5 17t17.5 6h379q10 0 16.5 -6t6.5 -17v-263q0 -11 -6 -17.5t-17 -6.5h-379zM392 1615q-2 4 -2 12q0 13 10 20l303 243q13 10 29 10h132q16 0 29 -10l303 -243q11 -8 11 -19q0 -7 -3 -13l-61 -148q-5 -15 -18 -15
q-3 0 -13 4l-314 162l-312 -164q-10 -4 -13 -4q-12 0 -18 15z" />
    <glyph glyph-name="uni1ED9" unicode="&#x1ed9;" horiz-adv-x="1236" 
d="M314.5 36q-128.5 66 -196.5 188.5t-68 287.5q0 166 68 289.5t196.5 191t305.5 67.5q178 0 305.5 -65.5t194 -187t66.5 -287.5t-67 -290t-194.5 -192t-304.5 -68t-305.5 66zM699 269.5q30 23.5 44.5 81t14.5 161.5q0 149 -33.5 211.5t-106.5 62.5q-51 -2 -82 -29
t-45.5 -87t-14.5 -162q0 -99 15.5 -156.5t47 -81.5t81.5 -24q49 0 79 23.5zM428 -390q-24 0 -24 24v263q0 11 6.5 17t17.5 6h379q10 0 16.5 -6t6.5 -17v-263q0 -11 -6 -17.5t-17 -6.5h-379zM214 1245q-2 4 -2 12q0 13 10 20l303 243q13 10 29 10h132q16 0 29 -10l303 -243
q11 -8 11 -19q0 -7 -3 -13l-61 -148q-5 -15 -18 -15q-3 0 -13 4l-314 162l-312 -164q-10 -4 -13 -4q-12 0 -18 15z" />
    <glyph glyph-name="uni1EDA" unicode="&#x1eda;" horiz-adv-x="1614" 
d="M1344 1245q105 -98 161.5 -238.5t56.5 -312.5q0 -208 -93.5 -374t-265.5 -261t-397 -95t-396 94.5t-264.5 261t-93.5 374.5q0 221 92.5 389t263 260.5t398.5 92.5q188 0 340 -64l140 304q6 13 19 13q5 0 13 -3l224 -129q13 -9 13 -19q0 -6 -5 -14zM1031.5 395
q74.5 107 74.5 299q0 196 -75 307t-225 111t-224 -108.5t-74 -309.5q0 -190 77.5 -298t224.5 -108t221.5 107zM592 1455q-2 -1 -7 -1q-17 0 -21 18l-48 160q-1 3 -1 9q0 15 16 21l518 197q4 2 11 2q14 0 19 -16l76 -259q1 -3 1 -9q0 -16 -18 -19z" />
    <glyph glyph-name="uni1EDB" unicode="&#x1edb;" horiz-adv-x="1236" 
d="M1227 1187q13 -9 13 -19q0 -6 -5 -14l-186 -251q68 -70 102.5 -167t34.5 -216q0 -166 -67 -290t-194.5 -192t-304.5 -68t-305.5 66t-196.5 188.5t-68 287.5q0 166 68 289.5t196.5 191t305.5 67.5q123 0 224 -32l127 278q6 14 18 14q7 0 14 -4zM699 269.5q30 23.5 44.5 81
t14.5 161.5q0 149 -33.5 211.5t-106.5 62.5q-51 -2 -82 -29t-45.5 -87t-14.5 -162q0 -99 15.5 -156.5t47 -81.5t81.5 -24q49 0 79 23.5zM303 1085q-2 -1 -7 -1q-17 0 -21 18l-48 160q-1 3 -1 9q0 15 16 21l518 197q4 2 11 2q14 0 19 -16l76 -259q1 -3 1 -9q0 -16 -18 -19z
" />
    <glyph glyph-name="uni1EDC" unicode="&#x1edc;" horiz-adv-x="1614" 
d="M1344 1245q105 -98 161.5 -238.5t56.5 -312.5q0 -208 -93.5 -374t-265.5 -261t-397 -95t-396 94.5t-264.5 261t-93.5 374.5q0 221 92.5 389t263 260.5t398.5 92.5q188 0 340 -64l140 304q6 13 19 13q5 0 13 -3l224 -129q13 -9 13 -19q0 -6 -5 -14zM1031.5 395
q74.5 107 74.5 299q0 196 -75 307t-225 111t-224 -108.5t-74 -309.5q0 -190 77.5 -298t224.5 -108t221.5 107zM1032 1472q-5 -22 -28 -17l-545 103q-19 3 -19 20q0 5 1 8l76 259q5 16 19 16q7 0 11 -2l518 -197q16 -6 16 -21q0 -6 -1 -9z" />
    <glyph glyph-name="uni1EDD" unicode="&#x1edd;" horiz-adv-x="1236" 
d="M1227 1187q13 -9 13 -19q0 -6 -5 -14l-186 -251q68 -70 102.5 -167t34.5 -216q0 -166 -67 -290t-194.5 -192t-304.5 -68t-305.5 66t-196.5 188.5t-68 287.5q0 166 68 289.5t196.5 191t305.5 67.5q123 0 224 -32l127 278q6 14 18 14q7 0 14 -4zM699 269.5q30 23.5 44.5 81
t14.5 161.5q0 149 -33.5 211.5t-106.5 62.5q-51 -2 -82 -29t-45.5 -87t-14.5 -162q0 -99 15.5 -156.5t47 -81.5t81.5 -24q49 0 79 23.5zM834 1102q-5 -22 -28 -17l-545 103q-19 3 -19 20q0 5 1 8l76 259q5 16 19 16q7 0 11 -2l518 -197q16 -6 16 -21q0 -6 -1 -9z" />
    <glyph glyph-name="uni1EDE" unicode="&#x1ede;" horiz-adv-x="1614" 
d="M1344 1245q105 -98 161.5 -238.5t56.5 -312.5q0 -208 -93.5 -374t-265.5 -261t-397 -95t-396 94.5t-264.5 261t-93.5 374.5q0 221 92.5 389t263 260.5t398.5 92.5q188 0 340 -64l140 304q6 13 19 13q5 0 13 -3l224 -129q13 -9 13 -19q0 -6 -5 -14zM1031.5 395
q74.5 107 74.5 299q0 196 -75 307t-225 111t-224 -108.5t-74 -309.5q0 -190 77.5 -298t224.5 -108t221.5 107zM686 1464q-12 0 -18 6.5t-4 18.5q5 45 26 74.5t48 45t65 30.5q34 14 49.5 25t15.5 28q0 42 -64 42q-59 0 -69 -44q-3 -12 -8.5 -17t-16.5 -5h-213q-12 0 -18 6.5
t-5 18.5q13 106 99 162.5t235 56.5q100 0 175 -25t116 -72.5t41 -112.5q0 -40 -17 -67t-40.5 -43.5t-61.5 -36.5q-37 -19 -56.5 -34t-26.5 -36q-4 -11 -10 -16t-16 -5h-226z" />
    <glyph glyph-name="uni1EDF" unicode="&#x1edf;" horiz-adv-x="1236" 
d="M1227 1187q13 -9 13 -19q0 -6 -5 -14l-186 -251q68 -70 102.5 -167t34.5 -216q0 -166 -67 -290t-194.5 -192t-304.5 -68t-305.5 66t-196.5 188.5t-68 287.5q0 166 68 289.5t196.5 191t305.5 67.5q123 0 224 -32l127 278q6 14 18 14q7 0 14 -4zM699 269.5q30 23.5 44.5 81
t14.5 161.5q0 149 -33.5 211.5t-106.5 62.5q-51 -2 -82 -29t-45.5 -87t-14.5 -162q0 -99 15.5 -156.5t47 -81.5t81.5 -24q49 0 79 23.5zM470 1094q-12 0 -18 6.5t-4 18.5q5 45 26 74.5t48 45t65 30.5q34 14 49.5 25t15.5 28q0 42 -64 42q-59 0 -69 -44q-3 -12 -8.5 -17
t-16.5 -5h-213q-12 0 -18 6.5t-5 18.5q13 106 99 162.5t235 56.5q100 0 175 -25t116 -72.5t41 -112.5q0 -40 -17 -67t-40.5 -43.5t-61.5 -36.5q-37 -19 -56.5 -34t-26.5 -36q-4 -11 -10 -16t-16 -5h-226z" />
    <glyph glyph-name="uni1EE0" unicode="&#x1ee0;" horiz-adv-x="1614" 
d="M1344 1245q105 -98 161.5 -238.5t56.5 -312.5q0 -208 -93.5 -374t-265.5 -261t-397 -95t-396 94.5t-264.5 261t-93.5 374.5q0 221 92.5 389t263 260.5t398.5 92.5q188 0 340 -64l140 304q6 13 19 13q5 0 13 -3l224 -129q13 -9 13 -19q0 -6 -5 -14zM1031.5 395
q74.5 107 74.5 299q0 196 -75 307t-225 111t-224 -108.5t-74 -309.5q0 -190 77.5 -298t224.5 -108t221.5 107zM841.5 1490.5q-38.5 13.5 -83.5 37.5q-27 14 -43.5 20.5t-30.5 6.5q-22 0 -31.5 -16t-11.5 -45q-2 -23 -24 -23h-155q-24 0 -24 24q5 141 64 225.5t174 84.5
q45 0 81 -13.5t87 -38.5q27 -14 41 -20t25 -6q23 0 33 14.5t12 43.5q1 11 7.5 17.5t17.5 6.5h155q24 0 22 -32q-5 -145 -61 -222.5t-166 -77.5q-50 0 -88.5 13.5z" />
    </font>
</defs>
</svg>
