<?xml version="1.0" standalone="no"?>
<!DOCTYPE svg PUBLIC "-//W3C//DTD SVG 1.1//EN" "http://www.w3.org/Graphics/SVG/1.1/DTD/svg11.dtd" >
<svg xmlns="http://www.w3.org/2000/svg" xmlns:xlink="http://www.w3.org/1999/xlink" version="1.1">
<metadata>
Created by FontForge 20170731 at Wed May 12 04:41:42 2021
 By Aleksey,,,
(c) Copyright David Jonathan Ross, 2016, 2021. All rights reserved.
</metadata>
<defs>
<font id="FormaDJRText-BlackItalic" horiz-adv-x="0" >
  <font-face 
    font-family="Forma DJR Text Black"
    font-weight="900"
    font-style="italic"
    font-stretch="normal"
    units-per-em="2000"
    panose-1="0 0 0 0 0 0 0 9 0 0"
    ascent="1500"
    descent="-500"
    x-height="1030"
    cap-height="1400"
    bbox="-1037 -580 2728 2290"
    underline-thickness="50"
    underline-position="-150"
    slope="-13"
    unicode-range="U+0020-FB02"
  />
<missing-glyph horiz-adv-x="1200" 
d="M248 1388q2 5 6 8.5t9 3.5h1076q5 0 7.5 -3.5t1.5 -8.5l-396 -1716q-2 -5 -6 -8.5t-9 -3.5h-1076q-5 0 -7.5 3.5t-1.5 8.5zM533 1105l-263 -1140h400l263 1140h-400z" />
    <glyph glyph-name=".notdef" horiz-adv-x="1200" 
d="M248 1388q2 5 6 8.5t9 3.5h1076q5 0 7.5 -3.5t1.5 -8.5l-396 -1716q-2 -5 -6 -8.5t-9 -3.5h-1076q-5 0 -7.5 3.5t-1.5 8.5zM533 1105l-263 -1140h400l263 1140h-400z" />
    <glyph glyph-name=".null" 
 />
    <glyph glyph-name="nonmarkingreturn" horiz-adv-x="666" 
 />
    <glyph glyph-name="space" unicode=" " horiz-adv-x="356" 
 />
    <glyph glyph-name="space" unicode="&#xa0;" horiz-adv-x="356" 
 />
    <glyph glyph-name="exclam" unicode="!" horiz-adv-x="528" 
d="M62 426q-12 0 -17 7t-3 19l216 927q3 21 25 21h367q12 0 17 -7t3 -19l-215 -927q-4 -21 -26 -21h-367zM-36 0q-12 0 -17 7t-3 19l76 327q3 21 25 21h367q12 0 17 -7t3 -19l-75 -327q-4 -21 -26 -21h-367z" />
    <glyph glyph-name="quotedbl" unicode="&#x22;" horiz-adv-x="998" 
d="M213 754q-12 0 -18 7t-4 18l91 599q3 22 25 22h339q20 0 20 -17q0 -6 -1 -9l-185 -600q-6 -20 -27 -20h-240zM663 754q-12 0 -18 7t-4 18l91 599q3 22 25 22h339q20 0 20 -17q0 -6 -1 -9l-185 -600q-6 -20 -27 -20h-240z" />
    <glyph glyph-name="numbersign" unicode="#" horiz-adv-x="1494" 
d="M1545 1164q21 0 21 -17q0 -2 -2 -10l-95 -250q-6 -19 -27 -19h-137l-123 -328h132q21 0 21 -17q0 -2 -2 -10l-104 -251q-7 -18 -27 -18h-131l-84 -225q-6 -19 -27 -19h-341q-10 0 -15.5 4.5t-5.5 12.5q0 2 2 10l81 217h-120l-84 -225q-6 -19 -27 -19h-341
q-10 0 -15.5 4.5t-5.5 12.5q0 2 2 10l81 217h-133q-10 0 -15.5 4.5t-5.5 12.5q0 2 2 10l104 251q8 18 27 18h132l123 328h-128q-10 0 -15.5 4.5t-5.5 12.5q0 2 2 10l95 250q6 19 27 19h136l81 217q6 19 27 19h341q21 0 21 -17q0 -2 -2 -10l-78 -209h120l81 217q6 19 27 19
h341q21 0 21 -17q0 -2 -2 -10l-78 -209h129zM795 868l-123 -328h120l123 328h-120z" />
    <glyph glyph-name="dollar" unicode="$" horiz-adv-x="1338" 
d="M1059 1388q131 -51 207.5 -148t79.5 -228q0 -24 -23 -24h-400q-21 0 -24 23q-6 51 -45 80t-104 29q-60 0 -103 -22.5t-43 -71.5q0 -35 28 -59t71 -40t121 -38q136 -39 225.5 -79.5t155 -125.5t65.5 -226q0 -140 -69 -245t-188.5 -166.5t-269.5 -77.5l-34 -148
q-4 -21 -26 -21h-379q-12 0 -17 7t-3 19l46 193q-144 57 -227 164t-83 250q0 10 6.5 15.5t17.5 5.5h397q21 0 23 -23q4 -71 52 -114t144 -43q67 0 116.5 29t49.5 87q0 42 -29.5 69.5t-75 44t-127.5 38.5q-132 36 -217 74.5t-147 121t-62 222.5q0 128 63 225.5t170 157.5
t240 82l27 114q3 21 25 21h379q12 0 17 -7t3 -19z" />
    <glyph glyph-name="percent" unicode="%" horiz-adv-x="1939" 
d="M355.5 693.5q-89.5 35.5 -143 111.5t-53.5 191q0 110 50 207t151.5 157t250.5 60q112 0 200 -37.5t139 -114.5t51 -192q0 -110 -47.5 -205t-147.5 -154t-249 -59q-112 0 -201.5 35.5zM236 0q-9 0 -14.5 4t-5.5 10q0 7 8 15l1269 1358q12 13 29 13h273q9 0 14.5 -3.5
t5.5 -9.5q0 -8 -7 -16l-1270 -1358q-12 -13 -29 -13h-273zM657 959.5q24 63.5 24 122.5q0 55 -22.5 77.5t-57.5 22.5q-73 0 -97.5 -64t-24.5 -122q0 -55 23.5 -77.5t58.5 -22.5q72 0 96 63.5zM1219.5 15.5q-89.5 35.5 -143 111.5t-53.5 191q0 110 50 207t151.5 157t250.5 60
q112 0 200 -37.5t139 -114.5t51 -192q0 -110 -47.5 -205t-147.5 -154t-249 -59q-112 0 -201.5 35.5zM1521 281.5q24 63.5 24 122.5q0 55 -22.5 77.5t-57.5 22.5q-73 0 -97.5 -64t-24.5 -122q0 -55 23.5 -77.5t58.5 -22.5q72 0 96 63.5z" />
    <glyph glyph-name="ampersand" unicode="&#x26;" horiz-adv-x="1498" 
d="M285 10q-115 40 -188 129t-73 229q0 123 57 212t148 148t217 109q-50 124 -50 223q0 119 65.5 205.5t175.5 131.5t241 45q119 0 217 -37t155.5 -109t57.5 -172q0 -91 -48.5 -158t-127 -114t-190.5 -91q6 -9 16 -27l15 -27l72 -128q22 43 39 90q6 19 26 19h335
q10 0 16 -4.5t6 -11.5q0 -3 -2 -9q-39 -106 -101.5 -205t-144.5 -183l141 -247q4 -7 4 -13q0 -7 -5 -11t-15 -4h-413q-19 0 -28 16l-16 28q-173 -74 -355 -74q-132 0 -247 40zM825 976q69 33 105 70.5t36 85.5q0 40 -24 62t-62 22q-50 0 -73 -33t-23 -71q0 -43 41 -136z
M751 283l-149 261l-31 54q-125 -82 -125 -196q0 -75 47 -110.5t123 -35.5q71 0 135 27z" />
    <glyph glyph-name="quotesingle" unicode="'" horiz-adv-x="548" 
d="M213 754q-12 0 -18 7t-4 18l91 599q3 22 25 22h339q20 0 20 -17q0 -6 -1 -9l-185 -600q-6 -20 -27 -20h-240z" />
    <glyph glyph-name="parenleft" unicode="(" horiz-adv-x="604" 
d="M91 -280q-22 0 -26 20q-59 222 -59 438q0 331 119 657t334 611q11 14 29 14h274q9 0 14.5 -4t5.5 -10q0 -7 -5 -15q-204 -303 -315.5 -632.5t-111.5 -664.5q0 -200 41 -388l1 -6q0 -20 -22 -20h-279z" />
    <glyph glyph-name="parenright" unicode=")" horiz-adv-x="604" 
d="M547 1460q21 0 27 -20q58 -224 58 -438q0 -330 -119 -657t-334 -611q-10 -14 -29 -14h-274q-9 0 -14.5 4t-5.5 10q0 7 5 15q204 303 315.5 632.5t111.5 664.5q0 197 -40 388q-1 3 -1 8q0 8 5.5 13t15.5 5h279z" />
    <glyph glyph-name="asterisk" unicode="*" horiz-adv-x="804" 
d="M392 786q-12 0 -17.5 7t-3.5 18l25 145l-147 -81q-7 -4 -13 -4q-14 0 -18 16l-55 155q-1 4 -1 10q0 16 15 21l131 57l-98 59q-12 8 -12 18q0 9 5 15l135 179q8 12 18 12q7 0 15 -6l107 -79l7 149q2 23 24 23h192q11 0 17 -6.5t5 -18.5l-21 -147l153 87q7 4 13 4
q13 0 18 -16l50 -160q1 -3 1 -9q0 -13 -15 -21l-140 -67l98 -52q13 -7 13 -19q0 -6 -5 -14l-132 -182q-8 -11 -18 -11q-7 0 -15 6l-101 74l-8 -139q-2 -23 -25 -23h-197z" />
    <glyph glyph-name="plus" unicode="+" horiz-adv-x="1240" 
d="M1160 840q12 0 17 -7t3 -19l-59 -255q-4 -21 -26 -21h-312l-82 -357q-4 -21 -26 -21h-267q-12 0 -17 7t-3 19l82 352h-308q-12 0 -17 7t-3 19l60 255q3 21 25 21h313l84 359q3 21 25 21h267q12 0 17 -7t3 -19l-82 -354h306z" />
    <glyph glyph-name="comma" unicode="," horiz-adv-x="522" 
d="M-163 -276q-20 0 -20 16q0 6 3 12l132 260l80 339q3 21 25 21h353q12 0 17 -7t3 -19l-72 -314q-4 -16 -16 -27l-276 -269q-12 -12 -29 -12h-200z" />
    <glyph glyph-name="hyphen" unicode="-" horiz-adv-x="812" 
d="M64 458q-12 0 -17 7t-3 19l54 235q3 21 25 21h663q12 0 17 -7t3 -19l-53 -235q-4 -21 -26 -21h-663z" />
    <glyph glyph-name="hyphen" unicode="&#x2011;" horiz-adv-x="812" 
d="M64 458q-12 0 -17 7t-3 19l54 235q3 21 25 21h663q12 0 17 -7t3 -19l-53 -235q-4 -21 -26 -21h-663z" />
    <glyph glyph-name="hyphen" unicode="&#x2010;" horiz-adv-x="812" 
d="M64 458q-12 0 -17 7t-3 19l54 235q3 21 25 21h663q12 0 17 -7t3 -19l-53 -235q-4 -21 -26 -21h-663z" />
    <glyph glyph-name="hyphen" unicode="&#xad;" horiz-adv-x="812" 
d="M64 458q-12 0 -17 7t-3 19l54 235q3 21 25 21h663q12 0 17 -7t3 -19l-53 -235q-4 -21 -26 -21h-663z" />
    <glyph glyph-name="period" unicode="." horiz-adv-x="530" 
d="M-38 0q-12 0 -17 7t-3 19l76 325q3 21 25 21h375q12 0 17 -7t3 -19l-75 -325q-4 -21 -26 -21h-375z" />
    <glyph glyph-name="slash" unicode="/" horiz-adv-x="870" 
d="M-99 -340q-10 0 -15.5 4.5t-5.5 12.5q0 5 3 11l803 1695q8 17 28 17h264q10 0 15.5 -4.5t5.5 -12.5q0 -5 -3 -11l-803 -1695q-8 -17 -27 -17h-265z" />
    <glyph glyph-name="zero" unicode="0" horiz-adv-x="1360" 
d="M339.5 38q-122.5 72 -186 204.5t-63.5 309.5q0 199 77 403.5t239 342.5t402 138q170 0 293 -72.5t188 -205.5t65 -312q0 -197 -77 -400.5t-240 -341.5t-405 -138q-170 0 -292.5 72zM816.5 397.5q62.5 111.5 89 255t26.5 245.5q0 103 -34.5 160.5t-105.5 57.5
q-102 0 -165 -111t-89 -254.5t-26 -246.5q0 -106 35 -162t105 -56q102 0 164.5 111.5z" />
    <glyph glyph-name="one" unicode="1" horiz-adv-x="880" 
d="M231 0q-12 0 -18 7t-3 19l167 660l56 250q-131 -105 -278 -148q-3 -1 -9 -1q-9 0 -13 6.5t-2 17.5l63 269q3 18 22 24q113 37 197.5 106t150.5 175q10 15 28 15h358q12 0 18 -7t3 -19l-175 -688l-138 -665q-4 -21 -26 -21h-401z" />
    <glyph glyph-name="two" unicode="2" horiz-adv-x="1194" 
d="M-23 0q-12 0 -17.5 7t-3.5 19l56 238q42 178 132.5 288t191 164t244.5 106q89 33 136 55t77.5 56t30.5 85q0 53 -29.5 79.5t-74.5 26.5q-102 0 -135 -121q-6 -21 -26 -21h-364q-12 0 -17.5 6.5t-2.5 18.5q37 214 184 320.5t383 106.5q148 0 261 -42.5t177 -130t64 -219.5
q0 -144 -73.5 -242t-174.5 -155.5t-258 -122.5q-92 -38 -144 -63.5t-89 -57.5t-45 -71l-4 -20h604q12 0 17 -7t3 -19l-61 -263q-4 -21 -26 -21h-1016z" />
    <glyph glyph-name="three" unicode="3" horiz-adv-x="1214" 
d="M283.5 17.5q-119.5 51.5 -185 149.5t-65.5 233q0 27 1 40q1 22 25 22h353q23 0 23 -27q0 -71 34 -115t105 -44q74 0 115 49t41 125q0 66 -38 103t-108 37h-129q-12 0 -17.5 7t-3.5 19l56 231q4 21 25 21h135q84 0 134 34.5t50 103.5q0 56 -33 87t-85 31t-89 -30.5
t-51 -91.5q-4 -22 -26 -22h-348q-12 0 -17.5 7t-3.5 19q47 216 191 322t360 106q146 0 260 -46t178 -130.5t64 -195.5q0 -77 -30.5 -146t-91.5 -121t-148 -75q180 -99 180 -300q0 -134 -74 -237t-206 -160t-302 -57q-159 0 -278.5 51.5z" />
    <glyph glyph-name="four" unicode="4" horiz-adv-x="1296" 
d="M1270 1400q12 0 17 -7t3 -19l-187 -810h131q12 0 17 -7t3 -19l-59 -261q-4 -21 -26 -21h-137l-55 -239q-4 -21 -26 -21h-375q-12 0 -17 7t-3 19l54 234h-576q-12 0 -17 7t-3 19l73 319q3 15 13 27l619 759q10 13 28 13h523zM726 760l58 232l-338 -428h235z" />
    <glyph glyph-name="five" unicode="5" horiz-adv-x="1274" 
d="M309.5 13q-122.5 47 -192.5 140t-63 225q2 22 25 22h354q21 0 23 -23q4 -51 38 -82t90 -31q64 0 106.5 40t63 99.5t20.5 118.5q0 78 -35 118t-101 40q-96 0 -154 -88q-10 -16 -28 -16h-314q-12 0 -17.5 7t-2.5 19l240 778q6 20 27 20h930q12 0 17.5 -7t3.5 -19l-61 -261
q-4 -21 -26 -21h-597l-48 -156q90 42 196 42q113 0 207.5 -47.5t151.5 -144.5t57 -238q0 -159 -74 -292t-218 -211.5t-346 -78.5q-150 0 -272.5 47z" />
    <glyph glyph-name="six" unicode="6" horiz-adv-x="1314" 
d="M243 122q-144 156 -145 452q0 141 28 256q41 176 135 313t236 215t319 78q146 0 262 -52.5t183 -145.5t72 -212q2 -24 -22 -24h-354q-22 0 -25 23q-8 49 -43.5 80t-92.5 31q-64 0 -111 -38t-74 -97.5t-33 -126.5q111 54 238 54q119 0 220 -49.5t161.5 -145t60.5 -225.5
q0 -135 -65.5 -259t-201 -203.5t-333.5 -79.5q-271 0 -415 156zM748 306.5q38 30.5 56 78t18 99.5q0 76 -37.5 117t-102.5 41q-66 0 -108.5 -41.5t-55.5 -102.5q-6 -30 -6 -62q0 -77 38.5 -118.5t103.5 -41.5q56 0 94 30.5z" />
    <glyph glyph-name="seven" unicode="7" horiz-adv-x="1086" 
d="M153 -4q-10 0 -15.5 4.5t-5.5 12.5q0 2 2 10q117 312 267.5 594.5t316.5 474.5h-517q-12 0 -17.5 7t-3.5 19l62 261q3 21 25 21h959q12 0 17 -7t3 -19l-64 -279q-3 -13 -13 -27q-196 -259 -349.5 -516t-254.5 -537q-7 -19 -27 -19h-385z" />
    <glyph glyph-name="eight" unicode="8" horiz-adv-x="1328" 
d="M325 16.5q-128 50.5 -198 143.5t-70 218q0 94 40.5 174.5t114 137.5t169.5 82q-65 33 -101.5 99t-36.5 139q0 93 54.5 191t178 165.5t315.5 67.5q149 0 268.5 -45t188.5 -131t69 -206q0 -110 -68 -199.5t-202 -132.5q180 -100 180 -296q0 -138 -75 -241.5t-212 -160
t-317 -56.5q-170 0 -298 50.5zM842.5 883.5q30.5 23.5 45.5 60t15 76.5q0 59 -31.5 91.5t-86.5 32.5q-47 0 -77.5 -24.5t-44.5 -61t-14 -74.5q0 -58 32 -91t86 -33q45 0 75.5 23.5zM728.5 290.5q36.5 26.5 52.5 66.5t16 81q0 68 -42 100t-102 32q-57 0 -93.5 -26.5
t-52.5 -66.5t-16 -81q0 -68 42 -100t102 -32q57 0 93.5 26.5z" />
    <glyph glyph-name="nine" unicode="9" horiz-adv-x="1314" 
d="M322.5 18.5q-115.5 52.5 -183 146t-72.5 212.5q-2 23 23 23h354q21 0 24 -22q8 -50 43.5 -81t92.5 -31q64 0 111 38t74 97.5t33 126.5q-111 -54 -238 -54q-119 0 -220 49.5t-161.5 145t-60.5 225.5q0 135 65.5 259t201 203.5t333.5 79.5q271 0 415 -156t145 -452
q0 -141 -28 -256q-41 -176 -135 -313t-236 -215t-319 -78q-146 0 -261.5 52.5zM826.5 801.5q42.5 41.5 55.5 102.5q6 30 6 62q0 77 -38.5 118.5t-103.5 41.5q-56 0 -94 -30.5t-56 -78t-18 -99.5q0 -76 37.5 -117t102.5 -41q66 0 108.5 41.5z" />
    <glyph glyph-name="colon" unicode=":" horiz-adv-x="537" 
d="M122 660q-12 0 -17 7t-3 19l76 325q3 21 25 21h375q12 0 17 -7t3 -19l-75 -325q-4 -21 -26 -21h-375zM-38 0q-12 0 -17 7t-3 19l76 325q3 21 25 21h375q12 0 17 -7t3 -19l-75 -325q-4 -21 -26 -21h-375z" />
    <glyph glyph-name="semicolon" unicode=";" horiz-adv-x="527" 
d="M112 660q-12 0 -17 7t-3 19l76 325q3 21 25 21h375q12 0 17 -7t3 -19l-75 -325q-4 -21 -26 -21h-375zM-163 -276q-20 0 -20 16q0 6 3 12l132 260l80 339q3 21 25 21h353q12 0 17 -7t3 -19l-72 -314q-4 -16 -16 -27l-276 -269q-12 -12 -29 -12h-200z" />
    <glyph glyph-name="less" unicode="&#x3c;" horiz-adv-x="1240" 
d="M155 529q-18 9 -14 30l61 264q3 16 21 24l1031 410q6 3 12 3t9.5 -4t3.5 -11q0 -5 -1 -8l-65 -285q-5 -18 -22 -24l-705 -258l580 -255q20 -9 16 -30l-60 -251q-3 -17 -18 -17q-5 0 -11 3z" />
    <glyph glyph-name="equal" unicode="=" horiz-adv-x="1240" 
d="M220 788q-12 0 -17 7t-3 19l60 255q3 21 25 21h933q12 0 17 -7t3 -19l-59 -255q-4 -21 -26 -21h-933zM104 288q-12 0 -17 7t-3 19l60 255q3 21 25 21h933q12 0 17 -7t3 -19l-59 -255q-4 -21 -26 -21h-933z" />
    <glyph glyph-name="greater" unicode="&#x3e;" horiz-adv-x="1240" 
d="M69 121q-4 -2 -11 -2q-8 0 -12 6t-2 17l66 286q3 17 21 24l707 258l-582 255q-16 7 -16 21q0 6 1 9l59 249q5 17 18 17q6 0 12 -3l837 -409q18 -8 15 -30l-61 -264q-4 -17 -22 -23z" />
    <glyph glyph-name="question" unicode="?" horiz-adv-x="1178" 
d="M387 426q-12 0 -18 7t-3 20q24 107 73 184t104 124.5t133 100.5q52 36 79 58t44.5 49t17.5 59q0 45 -33.5 70.5t-86.5 25.5q-62 0 -100 -32t-48 -88q-3 -22 -24 -22h-349q-12 0 -17.5 6.5t-4.5 18.5q35 214 182 321.5t377 107.5q148 0 266 -43.5t187 -131t69 -213.5
q0 -86 -32.5 -150t-79.5 -107t-125 -100q-61 -45 -98.5 -76.5t-68.5 -73.5t-44 -94q-4 -21 -25 -21h-375zM293 0q-12 0 -17.5 7.5t-2.5 18.5l75 327q5 21 25 21h375q12 0 17.5 -7t2.5 -19l-75 -327q-4 -21 -25 -21h-375z" />
    <glyph glyph-name="at" unicode="@" horiz-adv-x="1727" 
d="M1343.5 1296q163.5 -84 257 -242t93.5 -372q0 -162 -53.5 -309t-158.5 -239t-254 -92q-95 0 -175.5 36.5t-107.5 101.5q-115 -128 -275 -128q-97 0 -172 46t-116.5 130t-41.5 196q0 127 53.5 250.5t158 203.5t248.5 80q167 0 248 -106l15 67q5 21 25 21h313q12 0 17.5 -7
t2.5 -19l-135 -594q-1 -4 -3.5 -15t-2.5 -23q0 -48 34 -48q47 0 88 75t65.5 184.5t24.5 202.5q0 152 -70 263.5t-192 170t-276 58.5q-210 0 -367 -105.5t-241 -281.5t-84 -383q0 -178 64 -310t185 -204t289 -72q211 0 374 120q15 10 31 8l195 -22q20 -3 20 -15q0 -6 -6 -13
q-124 -129 -283.5 -199.5t-348.5 -70.5q-216 0 -382.5 92.5t-259 263.5t-92.5 400q0 261 118.5 487t330 361.5t477.5 135.5q206 0 369.5 -84zM917 329q42 53 60.5 125.5t18.5 131.5q0 70 -31 109t-87 39q-64 0 -105 -50.5t-59 -119.5t-18 -128q0 -72 28 -116t86 -44
q65 0 107 53z" />
    <glyph glyph-name="A" unicode="A" horiz-adv-x="1532" 
d="M1403 25v-5q0 -20 -21 -20h-377q-24 0 -25 23l-17 265h-451l-137 -271q-8 -17 -28 -17h-431q-10 0 -15 4t-5 11q0 6 4 13l771 1356q8 16 28 16h555q11 0 17 -6t7 -16zM941 624l-29 458l-231 -458h260z" />
    <glyph glyph-name="B" unicode="B" horiz-adv-x="1365" 
d="M-26 0q-10 0 -15.5 5t-5.5 13q0 5 1 8l171 674l142 679q4 21 26 21h621q261 0 376.5 -89.5t115.5 -238.5q0 -130 -82 -220t-240 -126q114 -37 166 -105.5t52 -170.5q0 -127 -73.5 -229t-220.5 -161.5t-360 -59.5h-674zM804 864q84 0 124 37t40 97q0 47 -27 72.5t-93 25.5
h-193l-67 -232h216zM686 304q98 0 145 43t47 113q0 57 -31 86.5t-109 29.5h-218l-49 -272h215z" />
    <glyph glyph-name="C" unicode="C" horiz-adv-x="1529" 
d="M417 39.5q-151 75.5 -237 220.5t-86 346q0 216 101.5 407t289.5 307t437 116q179 0 312.5 -62.5t211.5 -179.5t92 -279q1 -12 -5 -18.5t-17 -6.5h-363q-22 0 -26 23q-15 101 -74.5 151t-154.5 50q-130 0 -212.5 -85t-118 -205.5t-35.5 -231.5q0 -155 69.5 -230.5
t186.5 -75.5q186 0 265 199q7 19 27 19h371q12 0 18 -5.5t4 -15.5q-40 -149 -136 -266.5t-242.5 -185t-332.5 -67.5q-194 0 -345 75.5z" />
    <glyph glyph-name="D" unicode="D" horiz-adv-x="1476" 
d="M-26 0q-12 0 -17.5 7t-2.5 19l175 682l138 671q4 21 26 21h507q195 0 346.5 -71.5t236.5 -208t85 -326.5q0 -207 -100 -389.5t-285 -293.5t-429 -111h-680zM668 310q133 0 216.5 80.5t119.5 195t36 220.5q0 144 -68 214t-192 70h-125l-99 -382l-81 -398h193z" />
    <glyph glyph-name="E" unicode="E" horiz-adv-x="1210" 
d="M-26 0q-12 0 -17.5 7t-2.5 19l167 650l146 703q4 21 26 21h1033q12 0 17 -7t3 -19l-61 -263q-4 -21 -26 -21h-606l-60 -204h545q12 0 17 -7t3 -19l-61 -263q-4 -21 -26 -21h-550l-48 -264h617q12 0 17 -7t3 -19l-61 -265q-4 -21 -26 -21h-1049z" />
    <glyph glyph-name="F" unicode="F" horiz-adv-x="1159" 
d="M-26 0q-12 0 -17.5 7t-2.5 19l173 676l140 677q4 21 26 21h999q12 0 17 -7t3 -19l-61 -263q-4 -21 -26 -21h-572l-74 -266h555q12 0 17 -7t3 -19l-61 -263q-4 -21 -26 -21h-560l-102 -493q-4 -21 -26 -21h-405z" />
    <glyph glyph-name="G" unicode="G" horiz-adv-x="1582" 
d="M418 42q-154 78 -238 223t-84 341q0 217 101.5 407.5t291.5 306.5t443 116q176 0 312 -57.5t217.5 -164.5t96.5 -251q1 -12 -5 -18.5t-18 -6.5h-375q-19 0 -25 21q-22 82 -82 122.5t-147 40.5q-134 0 -217.5 -86t-119 -207t-35.5 -233q0 -160 74 -237t198 -77
q205 0 284 208h-292q-12 0 -17.5 7.5t-3.5 18.5l58 255q5 21 25 21h696q12 0 18 -8t4 -23q-35 -259 -142 -437.5t-275 -269t-385 -90.5q-204 0 -358 78z" />
    <glyph glyph-name="H" unicode="H" horiz-adv-x="1483" 
d="M1592 1400q10 0 15.5 -5t5.5 -13q0 -5 -1 -8l-170 -666l-142 -687q-4 -21 -26 -21h-409q-12 0 -17.5 7t-3.5 19l141 562h-454l-121 -567q-4 -21 -26 -21h-409q-10 0 -15.5 5t-5.5 13q0 5 1 8l174 682l139 671q3 21 26 21h408q12 0 18 -7t3 -19l-120 -476h452l103 481
q3 21 26 21h408z" />
    <glyph glyph-name="I" unicode="I" horiz-adv-x="606" 
d="M-16 0q-10 0 -15.5 5t-5.5 13q0 5 1 8l167 660l146 693q4 21 26 21h401q10 0 15.5 -5t5.5 -13q0 -5 -1 -8l-174 -688l-139 -665q-4 -21 -26 -21h-401z" />
    <glyph glyph-name="J" unicode="J" horiz-adv-x="1215" 
d="M256.5 20.5q-111.5 52.5 -169.5 149.5t-58 229q0 42 6 87q3 22 25 22h385q24 0 22 -26q-3 -30 -3 -56q0 -65 21.5 -96.5t66.5 -31.5q49 0 83 45.5t61 164.5l103 444l88 427q3 21 26 21h413q10 0 15.5 -5t5.5 -13q0 -5 -1 -8l-107 -422l-102 -448q-63 -274 -215.5 -405
t-397.5 -131q-156 0 -267.5 52.5z" />
    <glyph glyph-name="K" unicode="K" horiz-adv-x="1399" 
d="M269 1379q4 21 26 21h383q12 0 17.5 -7t2.5 -19l-108 -441l406 454q12 13 29 13h460q9 0 14.5 -3.5t5.5 -9.5q0 -7 -9 -16l-594 -577l371 -766q3 -6 3 -12q0 -7 -5.5 -11.5t-15.5 -4.5h-431q-20 0 -28 18l-209 468l-129 -126l-73 -339q-4 -21 -26 -21h-385q-10 0 -15.5 5
t-5.5 13q0 5 1 8l165 654z" />
    <glyph glyph-name="L" unicode="L" horiz-adv-x="1078" 
d="M-26 0q-12 0 -17.5 7t-2.5 19l163 638l150 715q4 21 26 21h405q12 0 17.5 -7t2.5 -19l-170 -682l-77 -380h489q12 0 17 -7t3 -19l-61 -265q-4 -21 -26 -21h-919z" />
    <glyph glyph-name="M" unicode="M" horiz-adv-x="1828" 
d="M-26 0q-12 0 -17.5 7t-2.5 19l171 688l142 665q4 21 26 21h485q22 0 25 -22l101 -814l453 820q9 16 28 16h553q10 0 15.5 -5t5.5 -13q0 -5 -1 -8l-166 -660l-147 -693q-4 -21 -26 -21h-399q-12 0 -17.5 7.5t-2.5 18.5l134 592l2 10l62 208l-451 -820q-10 -16 -28 -16
h-288q-23 0 -26 22l-97 804l-34 -198l-3 -14l-138 -593q-4 -21 -26 -21h-333z" />
    <glyph glyph-name="N" unicode="N" horiz-adv-x="1439" 
d="M-26 0q-12 0 -17.5 7t-2.5 19l165 662l148 691q4 21 26 21h442q22 0 27 -20l240 -770l22 132l150 637q3 21 25 21h347q12 0 17.5 -7t2.5 -19l-172 -686l-139 -667q-4 -21 -26 -21h-456q-21 0 -26 20l-229 766l-26 -154l-143 -611q-4 -21 -26 -21h-349z" />
    <glyph glyph-name="O" unicode="O" horiz-adv-x="1605" 
d="M421.5 39.5q-153.5 75.5 -241 220t-87.5 344.5q0 217 103 408t292 307.5t435 116.5q194 0 347.5 -75.5t241 -219.5t87.5 -343q0 -217 -103 -409t-292.5 -308.5t-434.5 -116.5q-194 0 -347.5 75.5zM1003 371q84 85 121 206t37 233q0 154 -69.5 229t-186.5 75
q-132 0 -216 -85t-121 -206t-37 -233q0 -154 69.5 -229t186.5 -75q132 0 216 85z" />
    <glyph glyph-name="P" unicode="P" horiz-adv-x="1312" 
d="M846 1400q267 0 394.5 -114.5t127.5 -311.5q0 -160 -78.5 -282.5t-228 -191t-357.5 -68.5h-208l-87 -411q-4 -21 -26 -21h-409q-12 0 -17.5 7t-2.5 19l169 656l144 697q4 21 26 21h553zM884 795.5q58 57.5 58 150.5q0 150 -166 150h-123l-90 -358h147q116 0 174 57.5z
" />
    <glyph glyph-name="Q" unicode="Q" horiz-adv-x="1624" 
d="M1527 322q12 0 17 -7t3 -19l-63 -275q-4 -21 -26 -21h-437q-122 -36 -252 -36q-194 0 -347.5 75.5t-241 220t-87.5 344.5q0 217 103 408t292 307.5t435 116.5q194 0 347.5 -75.5t241 -219.5t87.5 -343q0 -128 -37 -250.5t-108 -227.5l29 2h44zM600.5 361
q69.5 -75 186.5 -75q132 0 216 85t121 206t37 233q0 154 -69.5 229t-186.5 75q-132 0 -216 -85t-121 -206t-37 -233q0 -154 69.5 -229z" />
    <glyph glyph-name="R" unicode="R" horiz-adv-x="1408" 
d="M1339.5 690q-96.5 -127 -275.5 -184l204 -479q3 -6 3 -11q0 -7 -5.5 -11.5t-15.5 -4.5h-420q-19 0 -27 18l-153 376l-29 70h-122l-94 -443q-4 -21 -26 -21h-405q-10 0 -15.5 5t-5.5 13q0 5 1 8l163 652l150 701q4 21 26 21h621q267 0 394.5 -110.5t127.5 -299.5
q0 -173 -96.5 -300zM976.5 1059q-35.5 37 -116.5 37h-210l-82 -328h232q106 0 159 52.5t53 137.5q0 64 -35.5 101z" />
    <glyph glyph-name="S" unicode="S" horiz-adv-x="1438" 
d="M349 21q-153 57 -241 163.5t-88 248.5q0 10 6.5 15.5t17.5 5.5h397q21 0 24 -23q7 -70 73.5 -113.5t183.5 -43.5q85 0 138.5 28.5t53.5 87.5q0 42 -33.5 69.5t-85 44t-144.5 38.5q-150 36 -246 74.5t-166.5 121t-70.5 222.5q0 150 92.5 257.5t244 163t327.5 55.5
q174 0 314 -52t220 -148.5t80 -225.5q0 -11 -6.5 -16.5t-16.5 -5.5h-400q-11 0 -17 5.5t-8 17.5q-8 50 -60.5 79.5t-137.5 29.5q-79 0 -131.5 -22t-52.5 -72q0 -35 31.5 -59t80.5 -40t137 -38q154 -39 255 -79.5t175.5 -125.5t74.5 -226q0 -156 -91 -267.5t-245 -169
t-342 -57.5q-190 0 -343 57z" />
    <glyph glyph-name="T" unicode="T" horiz-adv-x="1306" 
d="M331 0q-12 0 -17.5 7t-3.5 19l173 682l79 382h-360q-12 0 -17 7t-3 19l62 263q3 21 25 21h1171q12 0 17 -7t3 -19l-61 -263q-4 -21 -26 -21h-365l-98 -382l-143 -687q-4 -21 -26 -21h-410z" />
    <glyph glyph-name="U" unicode="U" horiz-adv-x="1392" 
d="M336.5 17q-128.5 53 -197 154t-68.5 242q0 77 21 165l61 250l114 551q4 21 26 21h397q12 0 17.5 -7t2.5 -19l-138 -534l-59 -266q-15 -63 -15 -112q0 -81 42 -121.5t128 -40.5q92 0 145 49t81 165l77 316l114 549q4 21 26 21h391q10 0 15.5 -5t5.5 -13q0 -5 -1 -8
l-138 -546l-71 -318q-41 -184 -124 -304t-217.5 -181t-329.5 -61q-177 0 -305.5 53z" />
    <glyph glyph-name="V" unicode="V" horiz-adv-x="1437" 
d="M210 1376q-1 24 23 24h404q10 0 16.5 -6t7.5 -17l33 -925l456 931q7 17 27 17h425q10 0 15.5 -4.5t5.5 -11.5q0 -6 -3 -12l-717 -1355q-9 -17 -28 -17h-536q-24 0 -25 23z" />
    <glyph glyph-name="W" unicode="W" horiz-adv-x="1973" 
d="M236 0q-24 0 -24 24l22 1353q0 11 6.5 17t17.5 6h354q25 0 23 -24l-43 -786l352 792q9 18 28 18h385q23 0 23 -23l-2 -789l315 794q6 18 27 18h396q10 0 15.5 -4.5t5.5 -11.5q0 -5 -3 -11l-608 -1355q-7 -18 -27 -18h-439q-24 0 -24 24v718l-334 -725q-7 -17 -27 -17
h-439z" />
    <glyph glyph-name="X" unicode="X" horiz-adv-x="1439" 
d="M-71 0q-9 0 -14.5 4t-5.5 10q0 8 7 15l612 683l-282 661q-3 6 -3 11q0 7 5.5 11.5t15.5 4.5h406q20 0 27 -18l147 -352l279 357q12 13 29 13h422q9 0 14.5 -4t5.5 -10q0 -7 -6 -15l-578 -675l286 -669q3 -6 3 -11q0 -7 -5.5 -11.5t-15.5 -4.5h-406q-19 0 -27 18l-153 364
l-314 -368q-11 -14 -29 -14h-420z" />
    <glyph glyph-name="Y" unicode="Y" horiz-adv-x="1393" 
d="M201 1374q-1 3 -1 8q0 8 5.5 13t15.5 5h411q21 0 26 -21l92 -517l340 523q10 15 28 15h453q9 0 14.5 -4t5.5 -10q0 -7 -6 -15l-687 -935l-91 -415q-4 -21 -26 -21h-400q-12 0 -17.5 7t-3.5 19l98 402z" />
    <glyph glyph-name="Z" unicode="Z" horiz-adv-x="1332" 
d="M-30 0q-12 0 -17 7t-3 19l69 301q3 15 15 26l844 737h-602q-12 0 -17 7t-3 19l62 263q3 21 25 21h1111q12 0 17 -7t3 -19l-72 -312q-4 -16 -16 -27l-818 -723h626q12 0 17 -7t3 -19l-61 -265q-4 -21 -26 -21h-1157z" />
    <glyph glyph-name="bracketleft" unicode="[" horiz-adv-x="702" 
d="M-88 -280q-12 0 -17 7t-3 19l392 1693q3 21 25 21h525q12 0 17 -7t3 -19l-61 -263q-4 -21 -26 -21h-195l-258 -1118h190q12 0 17 -7t3 -19l-61 -265q-4 -21 -26 -21h-525z" />
    <glyph glyph-name="backslash" unicode="\" horiz-adv-x="849" 
d="M320 -340q-10 0 -16.5 6t-6.5 17l-24 1694q0 23 23 23h239q11 0 17.5 -6t6.5 -17l24 -1694q0 -23 -24 -23h-239z" />
    <glyph glyph-name="bracketright" unicode="]" horiz-adv-x="702" 
d="M-98 -280q-12 0 -17 7t-3 19l61 265q4 21 26 21h193l258 1118h-188q-12 0 -17 7t-3 19l62 263q3 21 25 21h525q12 0 17 -7t3 -19l-391 -1693q-5 -21 -26 -21h-525z" />
    <glyph glyph-name="asciicircum" unicode="^" horiz-adv-x="1270" 
d="M28 356q-9 0 -14.5 4t-5.5 10t5 14l659 1001q11 15 28 15h276q23 0 27 -21l193 -998q1 -12 -4.5 -18.5t-17.5 -6.5h-268q-22 0 -25 22l-115 708l-444 -714q-9 -16 -28 -16h-266z" />
    <glyph glyph-name="underscore" unicode="_" horiz-adv-x="954" 
d="M-114 -340q-12 0 -17 7t-3 19l53 233q4 21 26 21h793q12 0 17 -7t3 -19l-53 -233q-4 -21 -26 -21h-793z" />
    <glyph glyph-name="grave" unicode="`" horiz-adv-x="843" 
d="M829 1085q-6 -21 -29 -16l-529 118q-18 3 -18 20q0 6 1 9l90 261q5 16 19 16q7 0 11 -2l501 -206q15 -5 15 -21q0 -7 -1 -10z" />
    <glyph glyph-name="a" unicode="a" horiz-adv-x="1251" 
d="M1281 1030q12 0 17.5 -7t2.5 -19l-125 -512l-102 -471q-4 -21 -26 -21h-358q-21 0 -21 17q0 6 1 9l13 49q-116 -95 -260 -95q-112 0 -198.5 54.5t-134 154t-47.5 229.5q0 151 62 297t183 240.5t289 94.5q95 0 165.5 -32t115.5 -92l18 83q4 21 26 21h379zM707 307
q46 63 67 149.5t21 155.5q0 84 -33 129t-95 45q-73 0 -118.5 -59t-65.5 -140.5t-20 -152.5q0 -86 31 -138t95 -52q72 0 118 63z" />
    <glyph glyph-name="b" unicode="b" horiz-adv-x="1264" 
d="M1039.5 995.5q86.5 -54.5 134 -154t47.5 -229.5q0 -151 -62 -297t-183 -240.5t-289 -94.5q-100 0 -173.5 36t-117.5 102l-18 -96q-5 -22 -25 -22h-382q-12 0 -18 7t-3 19l168 666l146 687q3 21 26 21h381q12 0 18 -7t3 -19l-104 -413q114 89 253 89q112 0 198.5 -54.5z
M715.5 303q45.5 59 65.5 140.5t20 152.5q0 86 -31 138t-95 52q-72 0 -118 -63t-67 -149.5t-21 -155.5q0 -84 33 -129t95 -45q73 0 118.5 59z" />
    <glyph glyph-name="c" unicode="c" horiz-adv-x="1175" 
d="M295.5 29q-115.5 55 -181 162.5t-65.5 258.5q0 165 76.5 303.5t218.5 220.5t331 82q141 0 247 -47t166 -135.5t65 -209.5q0 -24 -24 -24h-352q-21 0 -23 24q-6 61 -36 91.5t-73 30.5q-59 0 -100 -54.5t-61.5 -136.5t-20.5 -163q0 -188 110 -188q52 0 89.5 37.5t54.5 94.5
q7 20 26 20h351q13 0 19 -5t3 -15q-26 -115 -100 -206t-190.5 -143.5t-264.5 -52.5q-150 0 -265.5 55z" />
    <glyph glyph-name="d" unicode="d" horiz-adv-x="1251" 
d="M1365 1400q12 0 17.5 -7t2.5 -19l-169 -684l-142 -669q-4 -21 -26 -21h-358q-21 0 -21 17q0 6 1 9l12 50q-114 -96 -259 -96q-112 0 -198.5 54.5t-134 154t-47.5 229.5q0 151 62 297t183 240.5t289 94.5q94 0 164.5 -31.5t115.5 -90.5l100 451q4 21 25 21h383zM707 307
q46 63 67 149.5t21 155.5q0 84 -33 129t-95 45q-73 0 -118.5 -59t-65.5 -140.5t-20 -152.5q0 -86 31 -138t95 -52q72 0 118 63z" />
    <glyph glyph-name="e" unicode="e" horiz-adv-x="1220" 
d="M945 995.5q115 -60.5 176 -167t61 -243.5q0 -66 -15 -138q-4 -21 -25 -21h-683v-9q4 -89 40 -131t98 -42q51 0 84.5 24t49.5 62q9 18 28 18h351q12 0 18.5 -5t3.5 -13q-25 -103 -97 -183.5t-186.5 -126.5t-261.5 -46q-156 0 -278 55t-191 163t-69 260q0 163 77.5 301.5
t220 220.5t328.5 82q155 0 270 -60.5zM769 650q3 62 -27.5 101t-94.5 39q-117 0 -161 -140h283z" />
    <glyph glyph-name="f" unicode="f" horiz-adv-x="897" 
d="M1048.5 1387.5q4.5 -7.5 2.5 -18.5l-57 -243q-6 -23 -29 -18q-41 10 -101 10q-64 0 -95.5 -17t-44.5 -69v-2h223q12 0 17.5 -7t3.5 -19l-57 -243q-4 -21 -26 -21h-228l-69 -296l-82 -423q-4 -21 -27 -21h-389q-12 0 -17.5 7t-2.5 19l108 418l70 296h-125q-12 0 -17.5 7
t-3.5 19l58 243q3 21 25 21h129l6 24q42 185 178.5 272.5t323.5 87.5q111 0 211 -17q11 -2 15.5 -9.5z" />
    <glyph glyph-name="g" unicode="g" horiz-adv-x="1256" 
d="M1286 1030q12 0 17.5 -7t3.5 -19l-152 -634l-85 -388q-43 -197 -190.5 -293.5t-381.5 -96.5q-166 0 -287.5 49t-187 132.5t-72.5 186.5q-2 24 22 24h374q20 0 25 -23q8 -48 45 -74.5t99 -26.5q64 0 101.5 30.5t52.5 97.5l31 138q-112 -86 -263 -86q-117 0 -205.5 50.5
t-136.5 143.5t-48 218q0 142 61.5 280.5t182.5 228t290 89.5q99 0 171.5 -32.5t117.5 -93.5l17 85q3 21 26 21h372zM713.5 361.5q46.5 57.5 66.5 134.5t20 138q0 74 -33.5 113t-94.5 39q-74 0 -120 -53.5t-65 -126.5t-19 -136q0 -76 31.5 -121t94.5 -45q73 0 119.5 57.5z
" />
    <glyph glyph-name="h" unicode="h" horiz-adv-x="1222" 
d="M-29 0q-12 0 -18 7t-3 19l124 494l194 859q3 21 25 21h360q12 0 17.5 -7t3.5 -19l-107 -444q67 58 147.5 91t170.5 33q91 0 163 -34.5t113.5 -102t41.5 -162.5q0 -57 -16 -121l-49 -198l-87 -415q-4 -21 -26 -21h-380q-12 0 -17.5 7t-2.5 19l92 360l48 226q6 27 6 51
q0 41 -20.5 65t-63.5 24q-155 0 -221 -316l-12 -56l-75 -359q-4 -21 -26 -21h-382z" />
    <glyph glyph-name="i" unicode="i" horiz-adv-x="556" 
d="M-28 0q-12 0 -18 7t-3 19l120 470l108 513q3 21 26 21h381q12 0 18 -7t3 -19l-130 -508l-97 -475q-4 -21 -26 -21h-382zM225 1093q-13 0 -18.5 7t-2.5 19l61 260q4 21 25 21h380q12 0 17.5 -7t2.5 -19l-61 -260q-4 -21 -25 -21h-379z" />
    <glyph glyph-name="j" unicode="j" horiz-adv-x="556" 
d="M-106 -340q-12 0 -18 7t-3 19l172 692l134 631q3 21 26 21h381q12 0 18 -7t3 -19l-156 -626l-149 -697q-4 -21 -26 -21h-382zM225 1093q-13 0 -18.5 7t-2.5 19l61 260q4 21 25 21h380q12 0 17.5 -7t2.5 -19l-61 -260q-4 -21 -25 -21h-379z" />
    <glyph glyph-name="k" unicode="k" horiz-adv-x="1173" 
d="M1197 1030q20 0 20 -13q0 -7 -9 -16l-357 -341l183 -634q1 -3 1 -8q0 -8 -5.5 -13t-15.5 -5h-418q-22 0 -25 21l-58 249l-16 73l-78 -81l-52 -241q-4 -21 -26 -21h-370q-12 0 -18 7t-3 19l170 680l144 673q3 21 26 21h369q12 0 18 -7t3 -19l-159 -645l-1 -5l257 293
q10 13 29 13h391z" />
    <glyph glyph-name="l" unicode="l" horiz-adv-x="545" 
d="M-28 0q-12 0 -18 7t-3 19l168 666l146 687q3 21 26 21h369q12 0 18 -7t3 -19l-172 -684l-141 -669q-4 -21 -26 -21h-370z" />
    <glyph glyph-name="m" unicode="m" horiz-adv-x="1771" 
d="M1671 979q82 -75 82 -213q0 -58 -17 -132l-47 -198l-89 -415q-4 -21 -26 -21h-380q-12 0 -17.5 7t-3.5 19l91 360l50 226q8 34 8 64q0 76 -59 76q-62 0 -102.5 -68t-64.5 -166q-6 -28 -10 -42l-9 -40l-89 -415q-4 -21 -26 -21h-379q-13 0 -18.5 7t-2.5 19l91 360l50 226
q8 32 8 63q0 77 -60 77q-76 0 -117 -94t-68 -222l-12 -56l-75 -359q-4 -21 -26 -21h-382q-12 0 -18 7t-3 19l124 494l110 489q3 21 25 21h355q12 0 18 -7t3 -19l-18 -74q134 124 306 124q88 0 149 -33t91 -98q150 131 334 131q142 0 224 -75z" />
    <glyph glyph-name="n" unicode="n" horiz-adv-x="1222" 
d="M-29 0q-12 0 -18 7t-3 19l124 494l110 489q3 21 25 21h355q12 0 18 -7t3 -19l-18 -74q67 58 147.5 91t170.5 33q91 0 163 -34.5t113.5 -102t41.5 -162.5q0 -57 -16 -121l-49 -198l-87 -415q-4 -21 -26 -21h-380q-12 0 -17.5 7t-2.5 19l92 360l48 226q6 27 6 51
q0 41 -20.5 65t-63.5 24q-155 0 -221 -316l-12 -56l-75 -359q-4 -21 -26 -21h-382z" />
    <glyph glyph-name="o" unicode="o" horiz-adv-x="1239" 
d="M300.5 29.5q-117.5 55.5 -184.5 163t-67 259.5q0 163 77.5 301.5t220 220.5t328.5 82q149 0 266 -55t183.5 -162.5t66.5 -258.5q0 -164 -77.5 -302.5t-219.5 -221t-327 -82.5q-149 0 -266.5 55.5zM693 301q44 57 64 139t20 158q0 95 -31.5 141.5t-88.5 46.5
q-64 0 -107.5 -54.5t-65 -136.5t-21.5 -163q0 -188 118 -188q68 0 112 57z" />
    <glyph glyph-name="p" unicode="p" horiz-adv-x="1263" 
d="M1039.5 995.5q86.5 -54.5 134 -154t47.5 -229.5q0 -151 -62 -297t-183 -240.5t-289 -94.5q-99 0 -172.5 35t-117.5 101l-97 -435q-4 -21 -25 -21h-383q-12 0 -17.5 7t-2.5 19l172 698l133 625q4 21 26 21h359q12 0 17.5 -7t2.5 -19l-17 -62q121 108 276 108
q112 0 198.5 -54.5zM715.5 303q45.5 59 65.5 140.5t20 152.5q0 86 -31 138t-95 52q-72 0 -118 -63t-67 -149.5t-21 -155.5q0 -84 33 -129t95 -45q73 0 118.5 59z" />
    <glyph glyph-name="q" unicode="q" horiz-adv-x="1256" 
d="M1287 1030q12 0 17.5 -7t2.5 -19l-171 -714l-134 -611q-4 -21 -26 -21l-375 2q-13 0 -18.5 7t-2.5 19l94 382q-112 -88 -251 -88q-112 0 -198.5 54.5t-134 154t-47.5 229.5q0 151 62 297t183 240.5t289 94.5q95 0 166.5 -32.5t115.5 -93.5l19 85q4 21 26 21h383zM707 307
q46 63 67 149.5t21 155.5q0 84 -33 129t-95 45q-73 0 -118.5 -59t-65.5 -140.5t-20 -152.5q0 -86 31 -138t95 -52q72 0 118 63z" />
    <glyph glyph-name="r" unicode="r" horiz-adv-x="885" 
d="M-32 0q-10 0 -15.5 5t-5.5 13q0 5 1 8l123 480l104 503q3 21 26 21h368q12 0 17.5 -7t2.5 -19l-37 -132q79 82 171.5 123t192.5 41q8 0 24 -2q12 -1 16.5 -8.5t2.5 -18.5l-60 -261q-5 -21 -20 -21q-7 1 -17 1q-164 0 -275.5 -95.5t-147.5 -272.5l-73 -337q-4 -21 -26 -21
h-372z" />
    <glyph glyph-name="s" unicode="s" horiz-adv-x="1152" 
d="M257 19q-123 45 -188 122t-72 174q-1 11 5.5 17t17.5 6h355q20 0 25 -23q13 -87 150 -87q55 0 80.5 16t25.5 44q0 24 -21.5 39.5t-55 26t-95.5 25.5q-113 27 -188 56.5t-130.5 94t-55.5 172.5q0 103 61.5 183.5t177 125.5t273.5 45q152 0 262 -42.5t169 -116.5t66 -169
q2 -24 -23 -24h-335q-11 0 -17 5.5t-8 17.5q-7 38 -36.5 60.5t-79.5 22.5q-47 0 -68.5 -16t-21.5 -42q0 -25 23 -42.5t58 -29t100 -27.5q109 -27 181 -56t125 -88t53 -157q0 -106 -64.5 -192t-181.5 -136t-270 -50q-174 0 -297 45z" />
    <glyph glyph-name="t" unicode="t" horiz-adv-x="890" 
d="M933 1030q12 0 17.5 -7t3.5 -19l-57 -243q-4 -21 -26 -21h-218l-81 -362q-5 -21 -5 -43q0 -37 18.5 -51t50.5 -14q57 0 119 18q3 1 9 1q19 0 15 -24l-50 -217q-5 -18 -23 -24q-134 -48 -244 -48q-149 0 -240.5 66.5t-91.5 199.5q0 47 14 108l93 390h-108q-12 0 -17.5 7
t-3.5 19l58 243q3 21 25 21h114l55 237q3 21 25 21h368q12 0 17.5 -7t3.5 -19l-55 -232h214z" />
    <glyph glyph-name="u" unicode="u" horiz-adv-x="1226" 
d="M1255 1030q12 0 18 -7t3 -19l-124 -494l-109 -489q-4 -21 -26 -21h-355q-12 0 -17.5 7t-3.5 19l18 74q-67 -58 -147.5 -91t-170.5 -33q-91 0 -163 34.5t-113.5 102t-41.5 162.5q0 57 16 121l49 198l88 415q3 21 26 21h379q10 0 15.5 -5t5.5 -13q0 -5 -1 -8l-91 -360
l-49 -226q-6 -27 -6 -50q0 -42 20.5 -66t63.5 -24q156 0 222 316l12 56l74 359q4 21 26 21h382z" />
    <glyph glyph-name="v" unicode="v" horiz-adv-x="1209" 
d="M121 1006v5q0 19 22 19h360q10 0 16.5 -6t7.5 -17l21 -643l341 649q9 17 28 17h381q10 0 15 -4t5 -11q0 -6 -4 -13l-575 -994q-8 -16 -28 -16h-468q-22 0 -25 23z" />
    <glyph glyph-name="w" unicode="w" horiz-adv-x="1620" 
d="M157 0q-23 0 -23 24l16 983q0 11 6.5 17t16.5 6h333q12 0 18.5 -7t4.5 -18l-67 -553l240 560q8 18 27 18h390q26 0 24 -24l-27 -540l198 545q7 19 28 19h337q10 0 15.5 -4.5t5.5 -11.5q0 -6 -3 -12l-449 -984q-8 -18 -27 -18h-392q-23 0 -23 24l6 558l-237 -564
q-7 -18 -27 -18h-391z" />
    <glyph glyph-name="x" unicode="x" horiz-adv-x="1138" 
d="M-71 0q-9 0 -14.5 4t-5.5 10t6 15l419 513l-181 461q-2 8 -2 10q0 17 20 17h365q11 0 17 -4.5t9 -14.5l74 -223l154 227q11 15 28 15h383q9 0 14.5 -4t5.5 -10t-6 -15l-407 -507l191 -467q2 -8 2 -10q0 -17 -21 -17h-376q-21 0 -27 19l-81 211l-153 -215q-10 -15 -29 -15
h-385z" />
    <glyph glyph-name="y" unicode="y" horiz-adv-x="1208" 
d="M170 -340q-10 0 -15 4t-5 11q0 6 4 13l136 248l-166 1069l-1 6q0 8 6 13.5t16 5.5h385q23 0 24 -22l50 -568l286 573q7 17 27 17h379q10 0 15 -4t5 -11q0 -6 -4 -13l-755 -1326q-8 -16 -28 -16h-359z" />
    <glyph glyph-name="z" unicode="z" horiz-adv-x="1049" 
d="M-32 0q-12 0 -17 7t-3 19l57 249q2 13 15 26l472 439h-313q-12 0 -17.5 7t-3.5 19l58 243q3 21 25 21h806q12 0 17.5 -7t3.5 -19l-60 -256q-4 -15 -16 -27l-472 -429h392q12 0 17 -7t3 -19l-57 -245q-4 -21 -26 -21h-881z" />
    <glyph glyph-name="braceleft" unicode="{" horiz-adv-x="702" 
d="M384 -280q-121 0 -209 40t-134.5 112t-46.5 164q0 105 60 222l58 116q13 24 13 39q0 27 -37 27h-28q-12 0 -17.5 7.5t-2.5 18.5l58 253q3 21 25 21h33q29 0 43.5 17.5t12.5 48.5l-6 116q-1 11 -1 32q0 141 58.5 256.5t171.5 182.5t271 67h138q12 0 17 -7t3 -19l-61 -263
q-4 -21 -26 -21h-101q-38 0 -67.5 -21t-44.5 -58t-12 -83l10 -144q5 -77 -41 -148.5t-149 -109.5q48 -26 70 -66.5t22 -89.5q0 -68 -38 -134l-58 -104q-23 -42 -23 -79q0 -38 23.5 -60.5t63.5 -22.5h80q12 0 17.5 -7.5t3.5 -18.5l-60 -263q-4 -21 -26 -21h-63z" />
    <glyph glyph-name="bar" unicode="|" horiz-adv-x="456" 
d="M-79 -280q-21 0 -21 18q0 5 1 8l391 1693q5 21 25 21h253q21 0 21 -18q0 -5 -1 -8l-391 -1693q-4 -21 -25 -21h-253z" />
    <glyph glyph-name="braceright" unicode="}" horiz-adv-x="702" 
d="M-108 -280q-12 0 -17 7t-3 19l61 263q4 21 26 21h101q38 0 67.5 21t44.5 58t12 83l-10 144q-5 77 41 148.5t149 109.5q-48 26 -70 66.5t-22 89.5q0 68 38 134l58 104q23 42 23 79q0 38 -23.5 60.5t-63.5 22.5h-80q-12 0 -17.5 7.5t-2.5 18.5l60 263q3 21 25 21h63
q121 0 209 -40t134.5 -112t46.5 -164q0 -105 -60 -222l-58 -116q-13 -24 -13 -39q0 -27 37 -27h28q12 0 17.5 -7.5t3.5 -18.5l-58 -253q-4 -21 -26 -21h-33q-29 0 -43.5 -17.5t-12.5 -48.5l6 -116q1 -11 1 -32q0 -141 -58.5 -256.5t-171.5 -182.5t-271 -67h-138z" />
    <glyph glyph-name="asciitilde" unicode="~" horiz-adv-x="1240" 
d="M98 522q-12 0 -17.5 7t-3.5 19q44 234 150 372t277 138q73 0 128.5 -23.5t91.5 -55.5t78 -81q37 -41 57 -57.5t43 -16.5q40 0 65 53t33 142q3 23 25 23h241q12 0 18 -7t4 -19q-42 -232 -144 -356t-266 -124q-70 0 -123 23t-88 54t-77 79q-38 43 -60.5 61.5t-49.5 18.5
q-47 0 -76 -61t-41 -166q-3 -23 -25 -23h-240z" />
    <glyph glyph-name="exclamdown" unicode="&#xa1;" horiz-adv-x="528" 
d="M564 1030q12 0 17 -7t3 -19l-75 -327q-4 -21 -26 -21h-367q-12 0 -17 7t-3 19l76 327q3 21 25 21h367zM466 604q12 0 17 -7t3 -19l-215 -927q-4 -21 -26 -21h-367q-12 0 -17 7t-3 19l216 927q3 21 25 21h367z" />
    <glyph glyph-name="cent" unicode="&#xa2;" horiz-adv-x="1180" 
d="M972 1204q101 -48 158.5 -135t62.5 -205q0 -24 -23 -24h-352q-22 0 -24 24q-5 61 -35.5 91.5t-73.5 30.5q-59 0 -100 -54.5t-61.5 -136.5t-20.5 -163q0 -188 110 -188q53 0 90 37.5t55 94.5q6 20 26 20h351q12 0 18 -5t4 -15q-31 -137 -129.5 -238.5t-247.5 -141.5
l-41 -175q-4 -21 -26 -21h-379q-12 0 -17 7t-3 19l45 192q-127 53 -198.5 163t-71.5 269q0 140 55.5 262.5t161 208.5t248.5 118l30 130q3 21 25 21h379q12 0 17 -7t3 -19z" />
    <glyph glyph-name="sterling" unicode="&#xa3;" horiz-adv-x="1369" 
d="M1367 968h-368q-22 0 -26 23q-9 60 -40 92.5t-91 32.5q-71 0 -113 -47.5t-51 -158.5h220q12 0 17 -7t3 -19l-53 -233q-4 -21 -26 -21h-173q-13 -126 -64.5 -210t-161.5 -108l252 -6q65 -2 105 15.5t66.5 63t46.5 131.5q3 22 25 22h373q10 0 15.5 -6.5t5.5 -17.5
q0 -6 -1 -10q-42 -206 -135 -321t-224.5 -157.5t-310.5 -39.5l-684 13q-12 0 -17 7t-3 19l60 258q3 19 24 22l40 5q90 12 125 95.5t40 224.5h-165q-12 0 -17 7t-3 19l54 233q3 21 25 21h107q5 161 72 278.5t200.5 182.5t329.5 65q252 0 394 -112.5t149 -331.5q2 -24 -22 -24
z" />
    <glyph glyph-name="currency" unicode="&#xa4;" horiz-adv-x="1288" 
d="M1309 1025q6 -7 6 -15q0 -10 -11 -18l-176 -135q25 -66 25 -141t-24.5 -143.5t-70.5 -124.5l115 -155q6 -7 6 -15q0 -10 -11 -18l-174 -131q-7 -6 -16 -6q-10 0 -17 10l-125 164q-85 -29 -183 -29q-138 0 -244 57l-193 -148q-9 -6 -16 -6q-10 0 -17 10l-127 164
q-6 8 -6 16q0 11 10 18l178 136q-25 67 -25 141q0 75 25 143.5t71 125.5l-115 154q-6 8 -6 16q0 11 10 18l174 131q8 6 16 6q10 0 18 -11l124 -164q85 29 183 29q137 0 243 -57l194 149q8 6 15 6q11 0 19 -11zM543 536.5q46 -46.5 122 -46.5q64 0 109.5 32t69 82t23.5 103
q0 84 -47.5 129.5t-122.5 45.5q-62 0 -107.5 -30.5t-69 -80.5t-23.5 -108q0 -80 46 -126.5z" />
    <glyph glyph-name="yen" unicode="&#xa5;" horiz-adv-x="1367" 
d="M1546 1400q9 0 14.5 -4t5.5 -10q0 -8 -7 -15l-424 -501h94q12 0 17.5 -7t2.5 -19l-51 -225q-4 -21 -25 -21h-267l-23 -112h256q12 0 17.5 -7t2.5 -19l-51 -225q-4 -21 -25 -21h-254l-39 -193q-4 -21 -26 -21h-393q-21 0 -21 17q0 6 1 9l49 188h-250q-12 0 -17.5 7.5
t-2.5 18.5l51 225q5 21 25 21h266l29 112h-261q-12 0 -17.5 7.5t-2.5 18.5l51 225q5 21 25 21h102l-196 503q-2 8 -2 11q0 16 21 16h410q21 0 25 -21l114 -481l338 488q10 14 28 14h410z" />
    <glyph glyph-name="brokenbar" unicode="&#xa6;" horiz-adv-x="457" 
d="M152 720q-21 0 -21 18q0 5 1 8l161 693q5 21 25 21h253q12 0 17.5 -7t2.5 -19l-161 -693q-4 -21 -25 -21h-253zM-79 -280q-12 0 -17 7t-3 19l160 693q5 21 25 21h253q12 0 17.5 -7.5t2.5 -18.5l-159 -693q-4 -21 -25 -21h-254z" />
    <glyph glyph-name="section" unicode="&#xa7;" horiz-adv-x="1392" 
d="M1114.5 1364.5q131.5 -45.5 208 -130.5t79.5 -198q1 -12 -5.5 -18t-17.5 -6h-346q-21 0 -24 23q-9 50 -66 78.5t-149 28.5q-88 0 -146 -22.5t-58 -75.5q0 -30 31.5 -50t80 -33.5t135.5 -32.5q153 -33 253 -67.5t174 -107t74 -191.5q0 -106 -63.5 -187.5t-176.5 -132.5
q108 -85 108 -222q0 -136 -85 -235t-229.5 -150t-319.5 -51q-178 0 -321.5 50.5t-226 144t-82.5 217.5q0 11 6.5 16.5t16.5 5.5h326q21 0 24 -23q9 -66 82 -107.5t201 -41.5q90 0 150 29.5t60 88.5q0 36 -33.5 59t-84.5 37t-144 33q-148 30 -245 62.5t-167 102.5t-70 188
q0 105 66.5 184.5t182.5 128.5q-119 84 -119 229q0 133 87.5 228.5t230.5 144.5t308 49q163 0 294.5 -45.5zM907 560q-31 25 -81.5 40.5t-131.5 32.5q-119 -8 -176.5 -37t-57.5 -82q0 -37 36 -61t87.5 -38.5t155.5 -38.5q94 7 146.5 40t52.5 82q0 37 -31 62z" />
    <glyph glyph-name="dieresis" unicode="&#xa8;" horiz-adv-x="944" 
d="M258 1090q-12 0 -17 7t-3 19l62 263q3 21 25 21h297q12 0 17 -7t3 -19l-61 -263q-5 -21 -26 -21h-297zM658 1090q-12 0 -17 7t-3 19l62 263q3 21 25 21h297q12 0 17 -7t3 -19l-61 -263q-4 -21 -26 -21h-297z" />
    <glyph glyph-name="copyright" unicode="&#xa9;" horiz-adv-x="1638" 
d="M471 58.5q-169 94.5 -261 261t-92 374.5q0 221 91 389t259.5 260.5t393.5 92.5q223 0 391.5 -91t261.5 -259t93 -392q0 -208 -92.5 -374t-262 -261t-391.5 -95t-391 94.5zM1180.5 178q128.5 70 193 201.5t64.5 314.5q0 182 -64.5 316.5t-194 208t-317.5 73.5
q-284 0 -428 -156t-144 -442q0 -182 65.5 -313.5t194.5 -202t316 -70.5q186 0 314.5 70zM638.5 304q-105.5 60 -163 163t-57.5 227q0 139 57.5 245.5t162 165.5t240.5 59q160 0 266 -70t150 -234q1 -3 1 -7q0 -9 -6 -14t-16 -5h-204q-21 0 -27 20q-19 54 -58.5 85t-107.5 31
q-96 0 -144 -69t-48 -203q0 -120 49 -191t139 -71q73 0 111.5 34t62.5 104q6 20 26 20h209q9 0 14.5 -5.5t5.5 -15.5l-2 -12q-50 -173 -152 -245t-265 -72q-138 0 -243.5 60z" />
    <glyph glyph-name="ordfeminine" unicode="&#xaa;" horiz-adv-x="1011" 
d="M1131 1406q12 0 18 -7t3 -19l-94 -396l-83 -367q-5 -21 -26 -21h-272q-12 0 -17.5 7t-3.5 19l8 31q-91 -73 -204 -73q-88 0 -156 43t-106 121.5t-38 181.5q0 119 49 233t144.5 187.5t228.5 73.5q148 0 222 -94l14 59q3 21 25 21h288zM684.5 848q36.5 48 53 113.5
t16.5 118.5q0 59 -26 90.5t-74 31.5q-58 0 -94.5 -44.5t-52 -105t-15.5 -112.5q0 -64 24.5 -102t75.5 -38q56 0 92.5 48z" />
    <glyph glyph-name="guillemotleft" unicode="&#xab;" horiz-adv-x="1254" 
d="M299 68q-18 0 -28 16l-205 370q-3 8 -3 13q0 12 8 20l391 409q11 12 29 12h285q20 0 20 -13q0 -8 -8 -16l-392 -407l211 -376q4 -5 4 -12t-5.5 -11.5t-15.5 -4.5h-291zM779 68q-18 0 -28 16l-205 370q-3 8 -3 13q0 12 8 20l391 409q11 12 29 12h285q20 0 20 -13
q0 -8 -8 -16l-392 -407l211 -376q4 -5 4 -12t-5.5 -11.5t-15.5 -4.5h-291z" />
    <glyph glyph-name="logicalnot" unicode="&#xac;" horiz-adv-x="1240" 
d="M1177 833q5 -7 3 -19l-59 -255l-1 -5l-87 -373q-4 -21 -26 -21h-267q-12 0 -17 7t-3 19l82 352h-640q-12 0 -17 7t-3 19l60 255q3 21 25 21h933q12 0 17 -7z" />
    <glyph glyph-name="registered" unicode="&#xae;" horiz-adv-x="858" 
d="M352.5 703.5q-86.5 49.5 -133.5 136t-47 196.5q0 117 46 205t132 135.5t202 47.5q113 0 199 -47.5t133.5 -135t47.5 -205.5q0 -110 -47 -196.5t-133.5 -136t-199.5 -49.5t-199.5 49.5zM757.5 823.5q72.5 77.5 72.5 212.5q0 138 -71.5 217t-206.5 79q-140 0 -210 -77
t-70 -219q0 -136 72 -213t208 -77q133 0 205.5 77.5zM398 846q-24 0 -24 24v345q0 23 24 23h158q88 0 134 -32t46 -94q0 -81 -82 -114l81 -124q5 -8 5 -14t-5.5 -10t-14.5 -4h-99q-19 0 -28 16l-71 120h-14l-2 -112q0 -11 -6 -17.5t-17 -6.5h-85zM560 1070q18 0 33 10.5
t15 29.5t-13 27.5t-39 8.5h-50l2 -76h52z" />
    <glyph glyph-name="macron" unicode="&#xaf;" horiz-adv-x="914" 
d="M266 1120q-12 0 -17 7t-3 19l48 203q3 21 25 21h667q12 0 17 -7t3 -19l-47 -203q-4 -21 -26 -21h-667z" />
    <glyph glyph-name="macron" unicode="&#x2c9;" horiz-adv-x="914" 
d="M266 1120q-12 0 -17 7t-3 19l48 203q3 21 25 21h667q12 0 17 -7t3 -19l-47 -203q-4 -21 -26 -21h-667z" />
    <glyph glyph-name="degree" unicode="&#xb0;" horiz-adv-x="862" 
d="M351.5 764q-81.5 38 -129.5 108.5t-48 163.5q0 98 52 186t146.5 142t215.5 54q101 0 182.5 -39t128.5 -109.5t47 -161.5q0 -97 -52.5 -185t-147.5 -142.5t-214 -54.5q-99 0 -180.5 38zM604.5 974.5q26.5 24.5 40 61.5t13.5 72q0 44 -21.5 66t-56.5 22q-41 0 -67.5 -27
t-38.5 -64t-12 -69q0 -40 21 -63t57 -23q38 0 64.5 24.5z" />
    <glyph glyph-name="plusminus" unicode="&#xb1;" horiz-adv-x="1242" 
d="M1188 960q12 0 17 -7t3 -19l-59 -255q-4 -21 -26 -21h-312l-82 -356h309q12 0 17 -7t3 -19l-59 -255q-5 -21 -26 -21h-933q-12 0 -17 7t-3 19l60 255q3 21 25 21h310q1 1 1 4l82 352h-308q-12 0 -17 7t-3 19l60 255q3 21 25 21h313l84 359q3 21 25 21h267q12 0 17 -7
t3 -19l-82 -354h306z" />
    <glyph glyph-name="two.sups" unicode="&#xb2;" horiz-adv-x="665" 
d="M70 600q-13 0 -18.5 7t-2.5 19l30 128q24 103 77.5 166t112 93.5t143.5 59.5q51 17 78 29t44 30.5t17 45.5q0 28 -16 43t-42 15q-29 0 -50 -19.5t-30 -61.5q-3 -23 -24 -23h-184q-11 0 -17 6.5t-5 18.5q16 129 101 195t221 66q128 0 206 -57t78 -169q0 -82 -42.5 -138.5
t-100 -90t-145.5 -70.5q-73 -30 -106.5 -51.5t-33.5 -49.5v-6h313q13 0 18.5 -7.5t2.5 -18.5l-32 -139q-4 -21 -25 -21h-568z" />
    <glyph glyph-name="three.sups" unicode="&#xb3;" horiz-adv-x="675" 
d="M244.5 611.5q-70.5 31.5 -108 90.5t-33.5 140q1 10 7 16t17 6h194q22 0 24 -23q2 -34 19.5 -54.5t52.5 -20.5q37 0 58.5 25.5t21.5 66.5q0 35 -20.5 54.5t-57.5 19.5h-63q-13 0 -18.5 7t-2.5 19l29 119q6 21 25 21h70q46 0 72 20t26 56q0 28 -17 43t-43 15q-54 0 -71 -51
q-7 -21 -26 -21h-189q-12 0 -18 7t-3 19q30 117 112.5 174.5t202.5 57.5q84 0 150 -27t103 -75.5t37 -111.5q0 -67 -39 -120.5t-113 -75.5q102 -56 102 -168q0 -78 -43 -137t-119 -91t-174 -32q-94 0 -164.5 31.5z" />
    <glyph glyph-name="acute" unicode="&#xb4;" horiz-adv-x="866" 
d="M345 1086q-3 -1 -7 -1q-17 0 -20 19l-33 168q-1 2 -1 7q0 16 17 22l543 190q6 2 10 2q8 0 13.5 -5t6.5 -14l51 -261q3 -23 -19 -28z" />
    <glyph glyph-name="uni03BC" unicode="&#xb5;" horiz-adv-x="1234" 
d="M183 1009q4 21 26 21h383q10 0 15.5 -5t5.5 -13q0 -5 -1 -8l-143 -593q-6 -27 -6 -49q0 -40 20.5 -62t63.5 -22q95 0 144.5 94.5t76.5 221.5l12 56l75 359q3 21 26 21h382q10 0 15.5 -5t5.5 -13q0 -5 -1 -8l-123 -494l-110 -489q-4 -21 -25 -21h-355q-13 0 -18.5 7
t-2.5 19l18 74q-144 -121 -286 -124h-11l-65 -295q-4 -21 -25 -21h-385q-12 0 -17.5 7t-3.5 19l190 774z" />
    <glyph glyph-name="uni03BC" unicode="&#x3bc;" horiz-adv-x="1234" 
d="M183 1009q4 21 26 21h383q10 0 15.5 -5t5.5 -13q0 -5 -1 -8l-143 -593q-6 -27 -6 -49q0 -40 20.5 -62t63.5 -22q95 0 144.5 94.5t76.5 221.5l12 56l75 359q3 21 26 21h382q10 0 15.5 -5t5.5 -13q0 -5 -1 -8l-123 -494l-110 -489q-4 -21 -25 -21h-355q-13 0 -18.5 7
t-2.5 19l18 74q-144 -121 -286 -124h-11l-65 -295q-4 -21 -25 -21h-385q-12 0 -17.5 7t-3.5 19l190 774z" />
    <glyph glyph-name="paragraph" unicode="&#xb6;" horiz-adv-x="1600" 
d="M1673 1400q12 0 18 -7t3 -19l-170 -702l-215 -961q-4 -21 -26 -21h-388q-12 0 -17.5 7t-3.5 19l128 508l48 208h-64l-46 -210l-107 -511q-4 -21 -26 -21h-384q-12 0 -17.5 7t-3.5 19l124 500l54 220h-2q-134 0 -229.5 57t-144 153t-48.5 212q0 160 78.5 282.5t228 191
t357.5 68.5h853z" />
    <glyph glyph-name="periodcentered" unicode="&#xb7;" horiz-adv-x="530" 
d="M54 420q-12 0 -17 7t-3 19l76 325q3 21 25 21h375q12 0 17 -7t3 -19l-75 -325q-4 -21 -26 -21h-375z" />
    <glyph glyph-name="periodcentered" unicode="&#x2219;" horiz-adv-x="530" 
d="M54 420q-12 0 -17 7t-3 19l76 325q3 21 25 21h375q12 0 17 -7t3 -19l-75 -325q-4 -21 -26 -21h-375z" />
    <glyph glyph-name="cedilla" unicode="&#xb8;" horiz-adv-x="682" 
d="M323 -358q-8 -18 -29 -15l-329 45q-19 3 -19 17q0 7 4 12l186 323q9 17 29 15l304 -19q10 -1 15 -5.5t5 -11.5q0 -5 -3 -11z" />
    <glyph glyph-name="one.sups" unicode="&#xb9;" horiz-adv-x="525" 
d="M250 600q-21 0 -21 17q0 6 1 9l99 374l20 120q-65 -51 -162 -81q-3 -1 -9 -1q-15 0 -15 16q0 5 1 8l32 142q4 18 23 24q65 23 113 60t85 94q5 9 11.5 12.5t16.5 3.5h204q21 0 21 -17q0 -6 -1 -9l-114 -430l-59 -321q-3 -21 -25 -21h-221z" />
    <glyph glyph-name="ordmasculine" unicode="&#xba;" horiz-adv-x="1006" 
d="M362 618q-92 44 -145 129t-53 205q0 129 61 238t173.5 173.5t259.5 64.5q118 0 210 -43.5t145 -128t53 -204.5q0 -129 -61.5 -238.5t-174 -174.5t-258.5 -65q-118 0 -210 44zM671.5 832.5q34.5 44.5 50.5 109t16 124.5q0 148 -94 148q-51 0 -85.5 -43t-51.5 -107
t-17 -128q0 -148 94 -148q53 0 87.5 44.5z" />
    <glyph glyph-name="guillemotright" unicode="&#xbb;" horiz-adv-x="1254" 
d="M-12 68q-9 0 -14.5 3.5t-5.5 9.5q0 8 8 16l382 395l-201 388q-4 5 -4 12t5.5 11.5t15.5 4.5h291q21 0 28 -17l196 -381q3 -7 3 -13q0 -11 -8 -19l-382 -397q-12 -13 -29 -13h-285zM468 68q-9 0 -14.5 3.5t-5.5 9.5q0 8 8 16l382 395l-201 388q-4 5 -4 12t5.5 11.5
t15.5 4.5h291q21 0 28 -17l196 -381q3 -7 3 -13q0 -11 -8 -19l-382 -397q-12 -13 -29 -13h-285z" />
    <glyph glyph-name="onequarter" unicode="&#xbc;" horiz-adv-x="1593" 
d="M250 600q-21 0 -21 17q0 6 1 9l99 374l20 120q-65 -51 -162 -81q-3 -1 -9 -1q-15 0 -15 16q0 5 1 8l32 142q4 18 23 24q65 23 113 60t85 94q5 9 11.5 12.5t16.5 3.5h204q21 0 21 -17q0 -6 -1 -9l-114 -430l-59 -321q-3 -21 -25 -21h-221zM-4 0q-20 0 -20 13q0 8 8 16
l1422 1359q14 12 29 12h227q20 0 20 -13q0 -8 -8 -16l-1422 -1359q-14 -12 -29 -12h-227zM1523 798q12 0 17.5 -7t2.5 -19l-102 -448h64q12 0 17.5 -7t2.5 -19l-33 -139q-4 -21 -25 -21h-69l-28 -119q-4 -21 -25 -21h-207q-12 0 -17.5 7.5t-2.5 18.5l26 114h-314
q-12 0 -17.5 7.5t-3.5 18.5l39 175q5 18 14 27l345 419q10 13 28 13h288zM1208 418l42 154l-198 -248h134z" />
    <glyph glyph-name="onehalf" unicode="&#xbd;" horiz-adv-x="1671" 
d="M937 0q-13 0 -18.5 7t-2.5 19l30 128q24 103 77.5 166t112 93.5t143.5 59.5q51 17 78 29t44 30.5t17 45.5q0 28 -16 43t-42 15q-29 0 -50 -19.5t-30 -61.5q-3 -23 -24 -23h-184q-11 0 -17 6.5t-5 18.5q16 129 101 195t221 66q128 0 206 -57t78 -169q0 -82 -42.5 -138.5
t-100 -90t-145.5 -70.5q-73 -30 -106.5 -51.5t-33.5 -49.5v-6h313q13 0 18.5 -7.5t2.5 -18.5l-32 -139q-4 -21 -25 -21h-568zM250 600q-21 0 -21 17q0 6 1 9l99 374l20 120q-65 -51 -162 -81q-3 -1 -9 -1q-15 0 -15 16q0 5 1 8l32 142q4 18 23 24q65 23 113 60t85 94
q5 9 11.5 12.5t16.5 3.5h204q21 0 21 -17q0 -6 -1 -9l-114 -430l-59 -321q-3 -21 -25 -21h-221zM-6 0q-20 0 -20 13q0 8 8 16l1422 1359q14 12 29 12h227q20 0 20 -13q0 -8 -8 -16l-1422 -1359q-14 -12 -29 -12h-227z" />
    <glyph glyph-name="threequarters" unicode="&#xbe;" horiz-adv-x="1701" 
d="M244.5 611.5q-70.5 31.5 -108 90.5t-33.5 140q1 10 7 16t17 6h194q22 0 24 -23q2 -34 19.5 -54.5t52.5 -20.5q37 0 58.5 25.5t21.5 66.5q0 35 -20.5 54.5t-57.5 19.5h-63q-13 0 -18.5 7t-2.5 19l29 119q6 21 25 21h70q46 0 72 20t26 56q0 28 -17 43t-43 15q-54 0 -71 -51
q-7 -21 -26 -21h-189q-12 0 -18 7t-3 19q30 117 112.5 174.5t202.5 57.5q84 0 150 -27t103 -75.5t37 -111.5q0 -67 -39 -120.5t-113 -75.5q102 -56 102 -168q0 -78 -43 -137t-119 -91t-174 -32q-94 0 -164.5 31.5zM104 0q-20 0 -20 13q0 8 8 16l1422 1359q14 12 29 12h227
q20 0 20 -13q0 -8 -8 -16l-1422 -1359q-14 -12 -29 -12h-227zM1631 798q12 0 17.5 -7t2.5 -19l-102 -448h64q12 0 17.5 -7t2.5 -19l-33 -139q-4 -21 -25 -21h-69l-28 -119q-4 -21 -25 -21h-207q-12 0 -17.5 7.5t-2.5 18.5l26 114h-314q-12 0 -17.5 7.5t-3.5 18.5l39 175
q5 18 14 27l345 419q10 13 28 13h288zM1316 418l42 154l-198 -248h134z" />
    <glyph glyph-name="questiondown" unicode="&#xbf;" horiz-adv-x="1178" 
d="M885 1030q12 0 17.5 -7t2.5 -19l-75 -327q-4 -21 -25 -21h-375q-12 0 -17.5 7.5t-2.5 18.5l75 327q5 21 25 21h375zM791 604q22 0 22 -19q0 -5 -1 -8q-24 -107 -73 -183.5t-103 -123.5t-133 -101q-51 -35 -78.5 -57.5t-45 -49.5t-17.5 -60q0 -45 33.5 -70.5t86.5 -25.5
q61 0 99 32t48 88q4 22 24 22h349q12 0 18 -6.5t4 -18.5q-35 -214 -181.5 -321.5t-376.5 -107.5q-148 0 -266.5 43.5t-187.5 131t-69 213.5q0 86 32.5 150t79.5 107t125 100q61 45 98.5 76.5t68.5 73.5t44 94q6 21 26 21h374z" />
    <glyph glyph-name="Agrave" unicode="&#xc0;" horiz-adv-x="1532" 
d="M1403 25v-5q0 -20 -21 -20h-377q-24 0 -25 23l-17 265h-451l-137 -271q-8 -17 -28 -17h-431q-10 0 -15 4t-5 11q0 6 4 13l771 1356q8 16 28 16h555q11 0 17 -6t7 -16zM941 624l-29 458l-231 -458h260zM1223 1455q-6 -21 -29 -16l-529 118q-18 3 -18 20q0 6 1 9l90 261
q5 16 19 16q7 0 11 -2l501 -206q15 -5 15 -21q0 -7 -1 -10z" />
    <glyph glyph-name="Aacute" unicode="&#xc1;" horiz-adv-x="1532" 
d="M1403 25v-5q0 -20 -21 -20h-377q-24 0 -25 23l-17 265h-451l-137 -271q-8 -17 -28 -17h-431q-10 0 -15 4t-5 11q0 6 4 13l771 1356q8 16 28 16h555q11 0 17 -6t7 -16zM941 624l-29 458l-231 -458h260zM784 1456q-3 -1 -7 -1q-17 0 -20 19l-33 168q-1 2 -1 7q0 16 17 22
l543 190q6 2 10 2q8 0 13.5 -5t6.5 -14l51 -261q3 -23 -19 -28z" />
    <glyph glyph-name="Acircumflex" unicode="&#xc2;" horiz-adv-x="1532" 
d="M1403 25v-5q0 -20 -21 -20h-377q-24 0 -25 23l-17 265h-451l-137 -271q-8 -17 -28 -17h-431q-10 0 -15 4t-5 11q0 6 4 13l771 1356q8 16 28 16h555q11 0 17 -6t7 -16zM941 624l-29 458l-231 -458h260zM592 1624q-2 4 -2 12q0 13 11 20l356 245q12 9 29 9h132q17 0 29 -11
l273 -246q9 -9 9 -18q0 -7 -5 -15l-92 -147q-8 -12 -18 -12q-7 0 -14 4l-288 161l-328 -161q-6 -3 -12 -3q-13 0 -19 15z" />
    <glyph glyph-name="Atilde" unicode="&#xc3;" horiz-adv-x="1532" 
d="M1403 25v-5q0 -20 -21 -20h-377q-24 0 -25 23l-17 265h-451l-137 -271q-8 -17 -28 -17h-431q-10 0 -15 4t-5 11q0 6 4 13l771 1356q8 16 28 16h555q11 0 17 -6t7 -16zM941 624l-29 458l-231 -458h260zM1034 1491.5q-36 13.5 -78 38.5q-26 14 -38.5 20t-25.5 6
q-49 0 -64 -62q-3 -12 -9 -17t-17 -5h-155q-11 0 -17 6.5t-5 18.5q13 90 52 160t100.5 109.5t140.5 39.5q44 0 78 -13.5t76 -37.5q23 -14 37.5 -20.5t26.5 -6.5q26 0 41 15.5t22 44.5q4 22 25 22h155q11 0 17 -8.5t4 -23.5q-23 -143 -95.5 -221.5t-184.5 -78.5
q-50 0 -86 13.5z" />
    <glyph glyph-name="Adieresis" unicode="&#xc4;" horiz-adv-x="1532" 
d="M1403 25v-5q0 -20 -21 -20h-377q-24 0 -25 23l-17 265h-451l-137 -271q-8 -17 -28 -17h-431q-10 0 -15 4t-5 11q0 6 4 13l771 1356q8 16 28 16h555q11 0 17 -6t7 -16zM941 624l-29 458l-231 -458h260zM626 1460q-12 0 -17 7t-3 19l62 263q3 21 25 21h297q12 0 17 -7
t3 -19l-61 -263q-5 -21 -26 -21h-297zM1026 1460q-12 0 -17 7t-3 19l62 263q3 21 25 21h297q12 0 17 -7t3 -19l-61 -263q-4 -21 -26 -21h-297z" />
    <glyph glyph-name="Aring" unicode="&#xc5;" horiz-adv-x="1532" 
d="M1403 25v-5q0 -20 -21 -20h-377q-24 0 -25 23l-17 265h-451l-137 -271q-8 -17 -28 -17h-431q-10 0 -15 4t-5 11q0 6 4 13l771 1356q8 16 28 16h555q11 0 17 -6t7 -16zM941 624l-29 458l-231 -458h260zM867.5 1493.5q-67.5 31.5 -107.5 89.5t-40 135q0 76 41.5 141.5
t116 105t166.5 39.5q81 0 148.5 -31.5t107.5 -89.5t40 -135q0 -76 -41.5 -141.5t-116 -105t-166.5 -39.5q-81 0 -148.5 31.5zM1101.5 1660.5q28.5 38.5 28.5 87.5q0 45 -26 70.5t-66 25.5q-35 0 -59.5 -19t-36.5 -48t-12 -59q0 -45 26.5 -70.5t65.5 -25.5q51 0 79.5 38.5z
" />
    <glyph glyph-name="AE" unicode="&#xc6;" horiz-adv-x="1992" 
d="M2108 1400q12 0 17 -7t3 -19l-61 -263q-4 -21 -26 -21h-522l-60 -204h461q12 0 17 -7t3 -19l-61 -263q-4 -21 -26 -21h-466l-48 -264h533q12 0 17 -7t3 -19l-61 -265q-4 -21 -26 -21h-943q-12 0 -17.5 7t-2.5 19l67 262h-403l-180 -273q-10 -15 -28 -15h-379q-10 0 -15 4
t-5 11q0 8 5 14l954 1357q10 14 28 14h1222zM728 624h266l14 52l94 444h-46z" />
    <glyph glyph-name="Ccedilla" unicode="&#xc7;" horiz-adv-x="1529" 
d="M1533 896.5q-6 -6.5 -17 -6.5h-363q-22 0 -26 23q-15 101 -74.5 151t-154.5 50q-130 0 -212.5 -85t-118 -205.5t-35.5 -231.5q0 -155 69.5 -230.5t186.5 -75.5q186 0 265 199q7 19 27 19h371q12 0 18 -5.5t4 -15.5q-37 -138 -122 -249t-214 -181t-292 -85l-152 -326
q-8 -18 -29 -15l-329 45q-18 3 -18 16q0 6 4 13l175 305q-187 65 -294.5 219.5t-107.5 380.5q0 216 101.5 407t289.5 307t437 116q179 0 312.5 -62.5t211.5 -179.5t92 -279q1 -12 -5 -18.5z" />
    <glyph glyph-name="Egrave" unicode="&#xc8;" horiz-adv-x="1210" 
d="M-26 0q-12 0 -17.5 7t-2.5 19l167 650l146 703q4 21 26 21h1033q12 0 17 -7t3 -19l-61 -263q-4 -21 -26 -21h-606l-60 -204h545q12 0 17 -7t3 -19l-61 -263q-4 -21 -26 -21h-550l-48 -264h617q12 0 17 -7t3 -19l-61 -265q-4 -21 -26 -21h-1049zM1079 1455q-6 -21 -29 -16
l-529 118q-18 3 -18 20q0 6 1 9l90 261q5 16 19 16q7 0 11 -2l501 -206q15 -5 15 -21q0 -7 -1 -10z" />
    <glyph glyph-name="Eacute" unicode="&#xc9;" horiz-adv-x="1210" 
d="M-26 0q-12 0 -17.5 7t-2.5 19l167 650l146 703q4 21 26 21h1033q12 0 17 -7t3 -19l-61 -263q-4 -21 -26 -21h-606l-60 -204h545q12 0 17 -7t3 -19l-61 -263q-4 -21 -26 -21h-550l-48 -264h617q12 0 17 -7t3 -19l-61 -265q-4 -21 -26 -21h-1049zM640 1456q-3 -1 -7 -1
q-17 0 -20 19l-33 168q-1 2 -1 7q0 16 17 22l543 190q6 2 10 2q8 0 13.5 -5t6.5 -14l51 -261q3 -23 -19 -28z" />
    <glyph glyph-name="Ecircumflex" unicode="&#xca;" horiz-adv-x="1210" 
d="M-26 0q-12 0 -17.5 7t-2.5 19l167 650l146 703q4 21 26 21h1033q12 0 17 -7t3 -19l-61 -263q-4 -21 -26 -21h-606l-60 -204h545q12 0 17 -7t3 -19l-61 -263q-4 -21 -26 -21h-550l-48 -264h617q12 0 17 -7t3 -19l-61 -265q-4 -21 -26 -21h-1049zM448 1624q-2 4 -2 12
q0 13 11 20l356 245q12 9 29 9h132q17 0 29 -11l273 -246q9 -9 9 -18q0 -7 -5 -15l-92 -147q-8 -12 -18 -12q-7 0 -14 4l-288 161l-328 -161q-6 -3 -12 -3q-13 0 -19 15z" />
    <glyph glyph-name="Edieresis" unicode="&#xcb;" horiz-adv-x="1210" 
d="M-26 0q-12 0 -17.5 7t-2.5 19l167 650l146 703q4 21 26 21h1033q12 0 17 -7t3 -19l-61 -263q-4 -21 -26 -21h-606l-60 -204h545q12 0 17 -7t3 -19l-61 -263q-4 -21 -26 -21h-550l-48 -264h617q12 0 17 -7t3 -19l-61 -265q-4 -21 -26 -21h-1049zM482 1460q-12 0 -17 7
t-3 19l62 263q3 21 25 21h297q12 0 17 -7t3 -19l-61 -263q-5 -21 -26 -21h-297zM882 1460q-12 0 -17 7t-3 19l62 263q3 21 25 21h297q12 0 17 -7t3 -19l-61 -263q-4 -21 -26 -21h-297z" />
    <glyph glyph-name="Igrave" unicode="&#xcc;" horiz-adv-x="606" 
d="M-16 0q-10 0 -15.5 5t-5.5 13q0 5 1 8l167 660l146 693q4 21 26 21h401q10 0 15.5 -5t5.5 -13q0 -5 -1 -8l-174 -688l-139 -665q-4 -21 -26 -21h-401zM771 1455q-6 -21 -29 -16l-529 118q-18 3 -18 20q0 6 1 9l90 261q5 16 19 16q7 0 11 -2l501 -206q15 -5 15 -21
q0 -7 -1 -10z" />
    <glyph glyph-name="Iacute" unicode="&#xcd;" horiz-adv-x="606" 
d="M-16 0q-10 0 -15.5 5t-5.5 13q0 5 1 8l167 660l146 693q4 21 26 21h401q10 0 15.5 -5t5.5 -13q0 -5 -1 -8l-174 -688l-139 -665q-4 -21 -26 -21h-401zM332 1456q-3 -1 -7 -1q-17 0 -20 19l-33 168q-1 2 -1 7q0 16 17 22l543 190q6 2 10 2q8 0 13.5 -5t6.5 -14l51 -261
q3 -23 -19 -28z" />
    <glyph glyph-name="Icircumflex" unicode="&#xce;" horiz-adv-x="606" 
d="M-16 0q-10 0 -15.5 5t-5.5 13q0 5 1 8l167 660l146 693q4 21 26 21h401q10 0 15.5 -5t5.5 -13q0 -5 -1 -8l-174 -688l-139 -665q-4 -21 -26 -21h-401zM140 1624q-2 4 -2 12q0 13 11 20l356 245q12 9 29 9h132q17 0 29 -11l273 -246q9 -9 9 -18q0 -7 -5 -15l-92 -147
q-8 -12 -18 -12q-7 0 -14 4l-288 161l-328 -161q-6 -3 -12 -3q-13 0 -19 15z" />
    <glyph glyph-name="Idieresis" unicode="&#xcf;" horiz-adv-x="606" 
d="M-16 0q-10 0 -15.5 5t-5.5 13q0 5 1 8l167 660l146 693q4 21 26 21h401q10 0 15.5 -5t5.5 -13q0 -5 -1 -8l-174 -688l-139 -665q-4 -21 -26 -21h-401zM174 1460q-12 0 -17 7t-3 19l62 263q3 21 25 21h297q12 0 17 -7t3 -19l-61 -263q-5 -21 -26 -21h-297zM574 1460
q-12 0 -17 7t-3 19l62 263q3 21 25 21h297q12 0 17 -7t3 -19l-61 -263q-4 -21 -26 -21h-297z" />
    <glyph glyph-name="Eth" unicode="&#xd0;" horiz-adv-x="1520" 
d="M844 1400q195 0 346.5 -71.5t236.5 -208t85 -326.5q0 -207 -100 -389.5t-285 -293.5t-429 -111h-679q-13 0 -18.5 7t-2.5 19l144 562h-50q-13 0 -18.5 7t-2.5 19l61 261q5 21 25 21h54l100 483q4 21 26 21h507zM712 310q133 0 216.5 80.5t119.5 195t36 220.5
q0 144 -68 214t-192 70h-125l-51 -194h198q12 0 17.5 -7t2.5 -19l-61 -261q-4 -21 -25 -21h-205l-56 -278h193z" />
    <glyph glyph-name="Ntilde" unicode="&#xd1;" horiz-adv-x="1439" 
d="M-26 0q-12 0 -17.5 7t-2.5 19l165 662l148 691q4 21 26 21h442q22 0 27 -20l240 -770l22 132l150 637q3 21 25 21h347q12 0 17.5 -7t2.5 -19l-172 -686l-139 -667q-4 -21 -26 -21h-456q-21 0 -26 20l-229 766l-26 -154l-143 -611q-4 -21 -26 -21h-349zM1000 1491.5
q-36 13.5 -78 38.5q-26 14 -38.5 20t-25.5 6q-49 0 -64 -62q-3 -12 -9 -17t-17 -5h-155q-11 0 -17 6.5t-5 18.5q13 90 52 160t100.5 109.5t140.5 39.5q44 0 78 -13.5t76 -37.5q23 -14 37.5 -20.5t26.5 -6.5q26 0 41 15.5t22 44.5q4 22 25 22h155q11 0 17 -8.5t4 -23.5
q-23 -143 -95.5 -221.5t-184.5 -78.5q-50 0 -86 13.5z" />
    <glyph glyph-name="Ograve" unicode="&#xd2;" horiz-adv-x="1605" 
d="M421.5 39.5q-153.5 75.5 -241 220t-87.5 344.5q0 217 103 408t292 307.5t435 116.5q194 0 347.5 -75.5t241 -219.5t87.5 -343q0 -217 -103 -409t-292.5 -308.5t-434.5 -116.5q-194 0 -347.5 75.5zM1003 371q84 85 121 206t37 233q0 154 -69.5 229t-186.5 75
q-132 0 -216 -85t-121 -206t-37 -233q0 -154 69.5 -229t186.5 -75q132 0 216 85zM1272 1455q-6 -21 -29 -16l-529 118q-18 3 -18 20q0 6 1 9l90 261q5 16 19 16q7 0 11 -2l501 -206q15 -5 15 -21q0 -7 -1 -10z" />
    <glyph glyph-name="Oacute" unicode="&#xd3;" horiz-adv-x="1605" 
d="M421.5 39.5q-153.5 75.5 -241 220t-87.5 344.5q0 217 103 408t292 307.5t435 116.5q194 0 347.5 -75.5t241 -219.5t87.5 -343q0 -217 -103 -409t-292.5 -308.5t-434.5 -116.5q-194 0 -347.5 75.5zM1003 371q84 85 121 206t37 233q0 154 -69.5 229t-186.5 75
q-132 0 -216 -85t-121 -206t-37 -233q0 -154 69.5 -229t186.5 -75q132 0 216 85zM833 1456q-3 -1 -7 -1q-17 0 -20 19l-33 168q-1 2 -1 7q0 16 17 22l543 190q6 2 10 2q8 0 13.5 -5t6.5 -14l51 -261q3 -23 -19 -28z" />
    <glyph glyph-name="Ocircumflex" unicode="&#xd4;" horiz-adv-x="1605" 
d="M421.5 39.5q-153.5 75.5 -241 220t-87.5 344.5q0 217 103 408t292 307.5t435 116.5q194 0 347.5 -75.5t241 -219.5t87.5 -343q0 -217 -103 -409t-292.5 -308.5t-434.5 -116.5q-194 0 -347.5 75.5zM1003 371q84 85 121 206t37 233q0 154 -69.5 229t-186.5 75
q-132 0 -216 -85t-121 -206t-37 -233q0 -154 69.5 -229t186.5 -75q132 0 216 85zM641 1624q-2 4 -2 12q0 13 11 20l356 245q12 9 29 9h132q17 0 29 -11l273 -246q9 -9 9 -18q0 -7 -5 -15l-92 -147q-8 -12 -18 -12q-7 0 -14 4l-288 161l-328 -161q-6 -3 -12 -3q-13 0 -19 15z
" />
    <glyph glyph-name="Otilde" unicode="&#xd5;" horiz-adv-x="1605" 
d="M421.5 39.5q-153.5 75.5 -241 220t-87.5 344.5q0 217 103 408t292 307.5t435 116.5q194 0 347.5 -75.5t241 -219.5t87.5 -343q0 -217 -103 -409t-292.5 -308.5t-434.5 -116.5q-194 0 -347.5 75.5zM1003 371q84 85 121 206t37 233q0 154 -69.5 229t-186.5 75
q-132 0 -216 -85t-121 -206t-37 -233q0 -154 69.5 -229t186.5 -75q132 0 216 85zM1083 1491.5q-36 13.5 -78 38.5q-26 14 -38.5 20t-25.5 6q-49 0 -64 -62q-3 -12 -9 -17t-17 -5h-155q-11 0 -17 6.5t-5 18.5q13 90 52 160t100.5 109.5t140.5 39.5q44 0 78 -13.5t76 -37.5
q23 -14 37.5 -20.5t26.5 -6.5q26 0 41 15.5t22 44.5q4 22 25 22h155q11 0 17 -8.5t4 -23.5q-23 -143 -95.5 -221.5t-184.5 -78.5q-50 0 -86 13.5z" />
    <glyph glyph-name="Odieresis" unicode="&#xd6;" horiz-adv-x="1605" 
d="M421.5 39.5q-153.5 75.5 -241 220t-87.5 344.5q0 217 103 408t292 307.5t435 116.5q194 0 347.5 -75.5t241 -219.5t87.5 -343q0 -217 -103 -409t-292.5 -308.5t-434.5 -116.5q-194 0 -347.5 75.5zM1003 371q84 85 121 206t37 233q0 154 -69.5 229t-186.5 75
q-132 0 -216 -85t-121 -206t-37 -233q0 -154 69.5 -229t186.5 -75q132 0 216 85zM675 1460q-12 0 -17 7t-3 19l62 263q3 21 25 21h297q12 0 17 -7t3 -19l-61 -263q-5 -21 -26 -21h-297zM1075 1460q-12 0 -17 7t-3 19l62 263q3 21 25 21h297q12 0 17 -7t3 -19l-61 -263
q-4 -21 -26 -21h-297z" />
    <glyph glyph-name="multiply" unicode="&#xd7;" horiz-adv-x="1240" 
d="M1198 976q7 -8 7 -16q0 -9 -9 -17l-325 -264l182 -237q6 -7 6 -15t-10 -18l-206 -185q-7 -7 -16 -7q-10 0 -17 10l-191 249l-312 -253q-9 -6 -17 -6q-10 0 -17 9l-151 180q-7 7 -7 16q0 10 10 17l322 261l-185 240q-6 8 -6 15q0 10 10 18l209 181q7 7 15 7q10 0 17 -10
l191 -247l311 252q8 6 15 6q9 0 18 -9z" />
    <glyph glyph-name="Oslash" unicode="&#xd8;" horiz-adv-x="1603" 
d="M1703 1319q7 -7 7 -16t-8 -17l-178 -168q75 -139 75 -320q0 -217 -103 -409t-292.5 -308.5t-434.5 -116.5q-214 0 -377 90l-195 -184q-8 -8 -15 -8q-9 0 -17 10l-182 209q-7 7 -7 16q0 10 8 17l182 172q-73 138 -73 318q0 217 103 408t292 307.5t435 116.5q212 0 372 -89
l194 183q8 8 16 8q9 0 17 -10zM689 1029q-84 -85 -121 -206t-37 -233v-12l525 492q-62 44 -151 44q-132 0 -216 -85zM1003 371q84 85 121 206t37 233v18l-529 -496q60 -46 155 -46q132 0 216 85z" />
    <glyph glyph-name="Ugrave" unicode="&#xd9;" horiz-adv-x="1392" 
d="M336.5 17q-128.5 53 -197 154t-68.5 242q0 77 21 165l61 250l114 551q4 21 26 21h397q12 0 17.5 -7t2.5 -19l-138 -534l-59 -266q-15 -63 -15 -112q0 -81 42 -121.5t128 -40.5q92 0 145 49t81 165l77 316l114 549q4 21 26 21h391q10 0 15.5 -5t5.5 -13q0 -5 -1 -8
l-138 -546l-71 -318q-41 -184 -124 -304t-217.5 -181t-329.5 -61q-177 0 -305.5 53zM1169 1455q-6 -21 -29 -16l-529 118q-18 3 -18 20q0 6 1 9l90 261q5 16 19 16q7 0 11 -2l501 -206q15 -5 15 -21q0 -7 -1 -10z" />
    <glyph glyph-name="Uacute" unicode="&#xda;" horiz-adv-x="1392" 
d="M336.5 17q-128.5 53 -197 154t-68.5 242q0 77 21 165l61 250l114 551q4 21 26 21h397q12 0 17.5 -7t2.5 -19l-138 -534l-59 -266q-15 -63 -15 -112q0 -81 42 -121.5t128 -40.5q92 0 145 49t81 165l77 316l114 549q4 21 26 21h391q10 0 15.5 -5t5.5 -13q0 -5 -1 -8
l-138 -546l-71 -318q-41 -184 -124 -304t-217.5 -181t-329.5 -61q-177 0 -305.5 53zM730 1456q-3 -1 -7 -1q-17 0 -20 19l-33 168q-1 2 -1 7q0 16 17 22l543 190q6 2 10 2q8 0 13.5 -5t6.5 -14l51 -261q3 -23 -19 -28z" />
    <glyph glyph-name="Ucircumflex" unicode="&#xdb;" horiz-adv-x="1392" 
d="M336.5 17q-128.5 53 -197 154t-68.5 242q0 77 21 165l61 250l114 551q4 21 26 21h397q12 0 17.5 -7t2.5 -19l-138 -534l-59 -266q-15 -63 -15 -112q0 -81 42 -121.5t128 -40.5q92 0 145 49t81 165l77 316l114 549q4 21 26 21h391q10 0 15.5 -5t5.5 -13q0 -5 -1 -8
l-138 -546l-71 -318q-41 -184 -124 -304t-217.5 -181t-329.5 -61q-177 0 -305.5 53zM538 1624q-2 4 -2 12q0 13 11 20l356 245q12 9 29 9h132q17 0 29 -11l273 -246q9 -9 9 -18q0 -7 -5 -15l-92 -147q-8 -12 -18 -12q-7 0 -14 4l-288 161l-328 -161q-6 -3 -12 -3
q-13 0 -19 15z" />
    <glyph glyph-name="Udieresis" unicode="&#xdc;" horiz-adv-x="1392" 
d="M336.5 17q-128.5 53 -197 154t-68.5 242q0 77 21 165l61 250l114 551q4 21 26 21h397q12 0 17.5 -7t2.5 -19l-138 -534l-59 -266q-15 -63 -15 -112q0 -81 42 -121.5t128 -40.5q92 0 145 49t81 165l77 316l114 549q4 21 26 21h391q10 0 15.5 -5t5.5 -13q0 -5 -1 -8
l-138 -546l-71 -318q-41 -184 -124 -304t-217.5 -181t-329.5 -61q-177 0 -305.5 53zM572 1460q-12 0 -17 7t-3 19l62 263q3 21 25 21h297q12 0 17 -7t3 -19l-61 -263q-5 -21 -26 -21h-297zM972 1460q-12 0 -17 7t-3 19l62 263q3 21 25 21h297q12 0 17 -7t3 -19l-61 -263
q-4 -21 -26 -21h-297z" />
    <glyph glyph-name="Yacute" unicode="&#xdd;" horiz-adv-x="1393" 
d="M201 1374q-1 3 -1 8q0 8 5.5 13t15.5 5h411q21 0 26 -21l92 -517l340 523q10 15 28 15h453q9 0 14.5 -4t5.5 -10q0 -7 -6 -15l-687 -935l-91 -415q-4 -21 -26 -21h-400q-12 0 -17.5 7t-3.5 19l98 402zM704 1456q-3 -1 -7 -1q-17 0 -20 19l-33 168q-1 2 -1 7q0 16 17 22
l543 190q6 2 10 2q8 0 13.5 -5t6.5 -14l51 -261q3 -23 -19 -28z" />
    <glyph glyph-name="Thorn" unicode="&#xde;" horiz-adv-x="1298" 
d="M776 1186q267 0 394.5 -114.5t127.5 -311.5q0 -160 -78.5 -282.5t-228 -191t-357.5 -68.5h-207l-42 -197q-4 -21 -26 -21h-385q-12 0 -17.5 7t-2.5 19l165 656l148 697q4 21 26 21h385q12 0 17.5 -7t2.5 -19l-47 -188h125zM640 524q116 0 174 57.5t58 150.5
q0 150 -166 150h-130l-60 -240l-25 -118h149z" />
    <glyph glyph-name="germandbls" unicode="&#xdf;" horiz-adv-x="1282" 
d="M-28 0q-10 0 -15.5 5t-5.5 13q0 5 1 8l107 418l119 530q50 220 196.5 331t410.5 111q168 0 276.5 -45t158.5 -121t50 -170q0 -116 -72.5 -196.5t-211.5 -117.5q124 -35 181 -110t57 -190q0 -133 -68.5 -238t-211.5 -166.5t-356 -61.5h-115q-12 0 -17.5 7t-3.5 19l60 245
q4 21 25 21h65q100 0 148 50.5t48 133.5q0 65 -30 99.5t-98 34.5h-57q-12 0 -17.5 7t-3.5 19l52 213q4 21 25 21h37q82 0 119 38t37 102q0 51 -26.5 79.5t-89.5 28.5q-66 0 -102.5 -33.5t-55.5 -114.5l-125 -526l-83 -423q-4 -21 -26 -21h-382z" />
    <glyph glyph-name="agrave" unicode="&#xe0;" horiz-adv-x="1251" 
d="M1281 1030q12 0 17.5 -7t2.5 -19l-125 -512l-102 -471q-4 -21 -26 -21h-358q-21 0 -21 17q0 6 1 9l13 49q-116 -95 -260 -95q-112 0 -198.5 54.5t-134 154t-47.5 229.5q0 151 62 297t183 240.5t289 94.5q95 0 165.5 -32t115.5 -92l18 83q4 21 26 21h379zM707 307
q46 63 67 149.5t21 155.5q0 84 -33 129t-95 45q-73 0 -118.5 -59t-65.5 -140.5t-20 -152.5q0 -86 31 -138t95 -52q72 0 118 63zM1010 1085q-6 -21 -29 -16l-529 118q-18 3 -18 20q0 6 1 9l90 261q5 16 19 16q7 0 11 -2l501 -206q15 -5 15 -21q0 -7 -1 -10z" />
    <glyph glyph-name="aacute" unicode="&#xe1;" horiz-adv-x="1251" 
d="M1281 1030q12 0 17.5 -7t2.5 -19l-125 -512l-102 -471q-4 -21 -26 -21h-358q-21 0 -21 17q0 6 1 9l13 49q-116 -95 -260 -95q-112 0 -198.5 54.5t-134 154t-47.5 229.5q0 151 62 297t183 240.5t289 94.5q95 0 165.5 -32t115.5 -92l18 83q4 21 26 21h379zM707 307
q46 63 67 149.5t21 155.5q0 84 -33 129t-95 45q-73 0 -118.5 -59t-65.5 -140.5t-20 -152.5q0 -86 31 -138t95 -52q72 0 118 63zM571 1086q-3 -1 -7 -1q-17 0 -20 19l-33 168q-1 2 -1 7q0 16 17 22l543 190q6 2 10 2q8 0 13.5 -5t6.5 -14l51 -261q3 -23 -19 -28z" />
    <glyph glyph-name="acircumflex" unicode="&#xe2;" horiz-adv-x="1251" 
d="M1281 1030q12 0 17.5 -7t2.5 -19l-125 -512l-102 -471q-4 -21 -26 -21h-358q-21 0 -21 17q0 6 1 9l13 49q-116 -95 -260 -95q-112 0 -198.5 54.5t-134 154t-47.5 229.5q0 151 62 297t183 240.5t289 94.5q95 0 165.5 -32t115.5 -92l18 83q4 21 26 21h379zM707 307
q46 63 67 149.5t21 155.5q0 84 -33 129t-95 45q-73 0 -118.5 -59t-65.5 -140.5t-20 -152.5q0 -86 31 -138t95 -52q72 0 118 63zM379 1254q-2 4 -2 12q0 13 11 20l356 245q12 9 29 9h132q17 0 29 -11l273 -246q9 -9 9 -18q0 -7 -5 -15l-92 -147q-8 -12 -18 -12q-7 0 -14 4
l-288 161l-328 -161q-6 -3 -12 -3q-13 0 -19 15z" />
    <glyph glyph-name="atilde" unicode="&#xe3;" horiz-adv-x="1251" 
d="M1281 1030q12 0 17.5 -7t2.5 -19l-125 -512l-102 -471q-4 -21 -26 -21h-358q-21 0 -21 17q0 6 1 9l13 49q-116 -95 -260 -95q-112 0 -198.5 54.5t-134 154t-47.5 229.5q0 151 62 297t183 240.5t289 94.5q95 0 165.5 -32t115.5 -92l18 83q4 21 26 21h379zM707 307
q46 63 67 149.5t21 155.5q0 84 -33 129t-95 45q-73 0 -118.5 -59t-65.5 -140.5t-20 -152.5q0 -86 31 -138t95 -52q72 0 118 63zM821 1121.5q-36 13.5 -78 38.5q-26 14 -38.5 20t-25.5 6q-49 0 -64 -62q-3 -12 -9 -17t-17 -5h-155q-11 0 -17 6.5t-5 18.5q13 90 52 160
t100.5 109.5t140.5 39.5q44 0 78 -13.5t76 -37.5q23 -14 37.5 -20.5t26.5 -6.5q26 0 41 15.5t22 44.5q4 22 25 22h155q11 0 17 -8.5t4 -23.5q-23 -143 -95.5 -221.5t-184.5 -78.5q-50 0 -86 13.5z" />
    <glyph glyph-name="adieresis" unicode="&#xe4;" horiz-adv-x="1251" 
d="M1281 1030q12 0 17.5 -7t2.5 -19l-125 -512l-102 -471q-4 -21 -26 -21h-358q-21 0 -21 17q0 6 1 9l13 49q-116 -95 -260 -95q-112 0 -198.5 54.5t-134 154t-47.5 229.5q0 151 62 297t183 240.5t289 94.5q95 0 165.5 -32t115.5 -92l18 83q4 21 26 21h379zM707 307
q46 63 67 149.5t21 155.5q0 84 -33 129t-95 45q-73 0 -118.5 -59t-65.5 -140.5t-20 -152.5q0 -86 31 -138t95 -52q72 0 118 63zM413 1090q-12 0 -17 7t-3 19l62 263q3 21 25 21h297q12 0 17 -7t3 -19l-61 -263q-5 -21 -26 -21h-297zM813 1090q-12 0 -17 7t-3 19l62 263
q3 21 25 21h297q12 0 17 -7t3 -19l-61 -263q-4 -21 -26 -21h-297z" />
    <glyph glyph-name="aring" unicode="&#xe5;" horiz-adv-x="1251" 
d="M1281 1030q12 0 17.5 -7t2.5 -19l-125 -512l-102 -471q-4 -21 -26 -21h-358q-21 0 -21 17q0 6 1 9l13 49q-116 -95 -260 -95q-112 0 -198.5 54.5t-134 154t-47.5 229.5q0 151 62 297t183 240.5t289 94.5q95 0 165.5 -32t115.5 -92l18 83q4 21 26 21h379zM707 307
q46 63 67 149.5t21 155.5q0 84 -33 129t-95 45q-73 0 -118.5 -59t-65.5 -140.5t-20 -152.5q0 -86 31 -138t95 -52q72 0 118 63zM654.5 1123.5q-67.5 31.5 -107.5 89.5t-40 135q0 76 41.5 141.5t116 105t166.5 39.5q81 0 148.5 -31.5t107.5 -89.5t40 -135q0 -76 -41.5 -141.5
t-116 -105t-166.5 -39.5q-81 0 -148.5 31.5zM888.5 1290.5q28.5 38.5 28.5 87.5q0 45 -26 70.5t-66 25.5q-35 0 -59.5 -19t-36.5 -48t-12 -59q0 -45 26.5 -70.5t65.5 -25.5q51 0 79.5 38.5z" />
    <glyph glyph-name="ae" unicode="&#xe6;" horiz-adv-x="2039" 
d="M1784 997q106 -59 162.5 -164t56.5 -240q0 -73 -16 -146q-4 -21 -25 -21h-682v-9q2 -93 36 -133t97 -40q53 0 87.5 24t50.5 62q9 18 28 18h351q12 0 18.5 -5t3.5 -14q-25 -102 -95.5 -182.5t-183 -126.5t-256.5 -46q-102 0 -187.5 24.5t-146.5 71.5l-12 -49
q-4 -21 -25 -21h-356q-13 0 -18.5 7t-2.5 19l12 48q-113 -94 -258 -94q-112 0 -198.5 54.5t-134 154t-47.5 229.5q0 151 62 297t183 240.5t289 94.5q174 0 264 -102l14 61q6 21 26 21h357q12 0 17.5 -7t2.5 -18l-7 -29q123 80 284 80q143 0 249 -59zM1589 650q3 62 -27 101
t-93 39q-59 0 -100.5 -36.5t-63.5 -103.5h284zM707 307q46 63 67 149.5t21 155.5q0 84 -33 129t-95 45q-73 0 -118.5 -59t-65.5 -140.5t-20 -152.5q0 -86 31 -138t95 -52q72 0 118 63z" />
    <glyph glyph-name="ccedilla" unicode="&#xe7;" horiz-adv-x="1175" 
d="M922 1009q106 -47 166 -135.5t65 -209.5q0 -24 -24 -24h-352q-21 0 -23 24q-6 61 -36 91.5t-73 30.5q-59 0 -100 -54.5t-61.5 -136.5t-20.5 -163q0 -188 110 -188q52 0 89.5 37.5t54.5 94.5q7 20 26 20h351q13 0 19 -5t3 -15q-23 -102 -83.5 -185.5t-155.5 -138.5
t-217 -72l-158 -338q-8 -18 -29 -15l-329 45q-18 3 -18 16q0 6 4 13l183 320q-124 53 -194 162.5t-70 266.5q0 165 76.5 303.5t218.5 220.5t331 82q141 0 247 -47z" />
    <glyph glyph-name="egrave" unicode="&#xe8;" horiz-adv-x="1220" 
d="M945 995.5q115 -60.5 176 -167t61 -243.5q0 -66 -15 -138q-4 -21 -25 -21h-683v-9q4 -89 40 -131t98 -42q51 0 84.5 24t49.5 62q9 18 28 18h351q12 0 18.5 -5t3.5 -13q-25 -103 -97 -183.5t-186.5 -126.5t-261.5 -46q-156 0 -278 55t-191 163t-69 260q0 163 77.5 301.5
t220 220.5t328.5 82q155 0 270 -60.5zM769 650q3 62 -27.5 101t-94.5 39q-117 0 -161 -140h283zM998 1085q-6 -21 -29 -16l-529 118q-18 3 -18 20q0 6 1 9l90 261q5 16 19 16q7 0 11 -2l501 -206q15 -5 15 -21q0 -7 -1 -10z" />
    <glyph glyph-name="eacute" unicode="&#xe9;" horiz-adv-x="1220" 
d="M945 995.5q115 -60.5 176 -167t61 -243.5q0 -66 -15 -138q-4 -21 -25 -21h-683v-9q4 -89 40 -131t98 -42q51 0 84.5 24t49.5 62q9 18 28 18h351q12 0 18.5 -5t3.5 -13q-25 -103 -97 -183.5t-186.5 -126.5t-261.5 -46q-156 0 -278 55t-191 163t-69 260q0 163 77.5 301.5
t220 220.5t328.5 82q155 0 270 -60.5zM769 650q3 62 -27.5 101t-94.5 39q-117 0 -161 -140h283zM559 1086q-3 -1 -7 -1q-17 0 -20 19l-33 168q-1 2 -1 7q0 16 17 22l543 190q6 2 10 2q8 0 13.5 -5t6.5 -14l51 -261q3 -23 -19 -28z" />
    <glyph glyph-name="ecircumflex" unicode="&#xea;" horiz-adv-x="1220" 
d="M945 995.5q115 -60.5 176 -167t61 -243.5q0 -66 -15 -138q-4 -21 -25 -21h-683v-9q4 -89 40 -131t98 -42q51 0 84.5 24t49.5 62q9 18 28 18h351q12 0 18.5 -5t3.5 -13q-25 -103 -97 -183.5t-186.5 -126.5t-261.5 -46q-156 0 -278 55t-191 163t-69 260q0 163 77.5 301.5
t220 220.5t328.5 82q155 0 270 -60.5zM769 650q3 62 -27.5 101t-94.5 39q-117 0 -161 -140h283zM367 1254q-2 4 -2 12q0 13 11 20l356 245q12 9 29 9h132q17 0 29 -11l273 -246q9 -9 9 -18q0 -7 -5 -15l-92 -147q-8 -12 -18 -12q-7 0 -14 4l-288 161l-328 -161q-6 -3 -12 -3
q-13 0 -19 15z" />
    <glyph glyph-name="edieresis" unicode="&#xeb;" horiz-adv-x="1220" 
d="M945 995.5q115 -60.5 176 -167t61 -243.5q0 -66 -15 -138q-4 -21 -25 -21h-683v-9q4 -89 40 -131t98 -42q51 0 84.5 24t49.5 62q9 18 28 18h351q12 0 18.5 -5t3.5 -13q-25 -103 -97 -183.5t-186.5 -126.5t-261.5 -46q-156 0 -278 55t-191 163t-69 260q0 163 77.5 301.5
t220 220.5t328.5 82q155 0 270 -60.5zM769 650q3 62 -27.5 101t-94.5 39q-117 0 -161 -140h283zM401 1090q-12 0 -17 7t-3 19l62 263q3 21 25 21h297q12 0 17 -7t3 -19l-61 -263q-5 -21 -26 -21h-297zM801 1090q-12 0 -17 7t-3 19l62 263q3 21 25 21h297q12 0 17 -7t3 -19
l-61 -263q-4 -21 -26 -21h-297z" />
    <glyph glyph-name="igrave" unicode="&#xec;" horiz-adv-x="556" 
d="M658 1100q-9 -20 -29 -15l-476 100q-18 3 -18 19q0 4 2 10l100 256q6 15 21 15q6 0 10 -2l441 -188q15 -6 15 -21q0 -2 -2 -10zM-28 0q-12 0 -18 7t-3 19l120 470l108 513q3 21 26 21h381q12 0 18 -7t3 -19l-130 -508l-97 -475q-4 -21 -26 -21h-382z" />
    <glyph glyph-name="iacute" unicode="&#xed;" horiz-adv-x="556" 
d="M213 1084l-7 -1q-15 0 -20 20l-34 167q-1 3 -1 7q0 16 17 22l500 181q6 2 9 2q8 0 13.5 -5t6.5 -14l52 -261q3 -23 -19 -28zM-28 0q-12 0 -18 7t-3 19l120 470l108 513q3 21 26 21h381q12 0 18 -7t3 -19l-130 -508l-97 -475q-4 -21 -26 -21h-382z" />
    <glyph glyph-name="icircumflex" unicode="&#xee;" horiz-adv-x="556" 
d="M94 1239q-3 8 -3 13q0 11 10 20l296 257q12 11 29 11h131q17 0 29 -13l215 -253q7 -8 7 -17q0 -8 -6 -16l-94 -137q-8 -12 -18 -12q-7 0 -15 6l-225 160l-268 -161q-7 -4 -14 -4q-12 0 -18 15zM-28 0q-12 0 -18 7t-3 19l120 470l108 513q3 21 26 21h381q12 0 18 -7t3 -19
l-130 -508l-97 -475q-4 -21 -26 -21h-382z" />
    <glyph glyph-name="idieresis" unicode="&#xef;" horiz-adv-x="556" 
d="M115 1090q-12 0 -17.5 7t-2.5 19l61 263q5 21 25 21h251q21 0 21 -18q0 -5 -1 -8l-61 -263q-4 -21 -25 -21h-251zM461 1090q-12 0 -17.5 7t-2.5 19l61 263q5 21 25 21h251q21 0 21 -18q0 -5 -1 -8l-61 -263q-4 -21 -25 -21h-251zM-28 0q-12 0 -18 7t-3 19l120 470
l108 513q3 21 26 21h381q12 0 18 -7t3 -19l-130 -508l-97 -475q-4 -21 -26 -21h-382z" />
    <glyph glyph-name="eth" unicode="&#xf0;" horiz-adv-x="1242" 
d="M1265 1348q3 1 8 1q7 0 13 -5t8 -13l41 -174q1 -3 1 -8q0 -16 -18 -21l-185 -53q79 -161 79 -371q0 -199 -68.5 -365t-217 -267.5t-376.5 -101.5q-151 0 -268 47t-183.5 140t-66.5 227q0 131 63.5 245t185 183.5t287.5 69.5q146 0 258 -56v20q0 68 -33 132l-221 -64
q-3 -1 -8 -1q-8 0 -14 5t-7 14l-41 174q-1 3 -1 9q0 16 17 19l102 30q-58 37 -119 64q-14 8 -14 18q0 8 7 15l181 193q8 9 18 9q4 0 14 -4q173 -81 283 -190zM667.5 274.5q37.5 34.5 56 87.5t18.5 108q0 66 -29 104t-87 38q-55 0 -92.5 -35t-55.5 -88.5t-18 -108.5
q0 -65 28 -102.5t86 -37.5q56 0 93.5 34.5z" />
    <glyph glyph-name="ntilde" unicode="&#xf1;" horiz-adv-x="1222" 
d="M-29 0q-12 0 -18 7t-3 19l124 494l110 489q3 21 25 21h355q12 0 18 -7t3 -19l-18 -74q67 58 147.5 91t170.5 33q91 0 163 -34.5t113.5 -102t41.5 -162.5q0 -57 -16 -121l-49 -198l-87 -415q-4 -21 -26 -21h-380q-12 0 -17.5 7t-2.5 19l92 360l48 226q6 27 6 51
q0 41 -20.5 65t-63.5 24q-155 0 -221 -316l-12 -56l-75 -359q-4 -21 -26 -21h-382zM815 1121.5q-36 13.5 -78 38.5q-26 14 -38.5 20t-25.5 6q-49 0 -64 -62q-3 -12 -9 -17t-17 -5h-155q-11 0 -17 6.5t-5 18.5q13 90 52 160t100.5 109.5t140.5 39.5q44 0 78 -13.5t76 -37.5
q23 -14 37.5 -20.5t26.5 -6.5q26 0 41 15.5t22 44.5q4 22 25 22h155q11 0 17 -8.5t4 -23.5q-23 -143 -95.5 -221.5t-184.5 -78.5q-50 0 -86 13.5z" />
    <glyph glyph-name="ograve" unicode="&#xf2;" horiz-adv-x="1239" 
d="M300.5 29.5q-117.5 55.5 -184.5 163t-67 259.5q0 163 77.5 301.5t220 220.5t328.5 82q149 0 266 -55t183.5 -162.5t66.5 -258.5q0 -164 -77.5 -302.5t-219.5 -221t-327 -82.5q-149 0 -266.5 55.5zM693 301q44 57 64 139t20 158q0 95 -31.5 141.5t-88.5 46.5
q-64 0 -107.5 -54.5t-65 -136.5t-21.5 -163q0 -188 118 -188q68 0 112 57zM1004 1085q-6 -21 -29 -16l-529 118q-18 3 -18 20q0 6 1 9l90 261q5 16 19 16q7 0 11 -2l501 -206q15 -5 15 -21q0 -7 -1 -10z" />
    <glyph glyph-name="oacute" unicode="&#xf3;" horiz-adv-x="1239" 
d="M300.5 29.5q-117.5 55.5 -184.5 163t-67 259.5q0 163 77.5 301.5t220 220.5t328.5 82q149 0 266 -55t183.5 -162.5t66.5 -258.5q0 -164 -77.5 -302.5t-219.5 -221t-327 -82.5q-149 0 -266.5 55.5zM693 301q44 57 64 139t20 158q0 95 -31.5 141.5t-88.5 46.5
q-64 0 -107.5 -54.5t-65 -136.5t-21.5 -163q0 -188 118 -188q68 0 112 57zM565 1086q-3 -1 -7 -1q-17 0 -20 19l-33 168q-1 2 -1 7q0 16 17 22l543 190q6 2 10 2q8 0 13.5 -5t6.5 -14l51 -261q3 -23 -19 -28z" />
    <glyph glyph-name="ocircumflex" unicode="&#xf4;" horiz-adv-x="1239" 
d="M300.5 29.5q-117.5 55.5 -184.5 163t-67 259.5q0 163 77.5 301.5t220 220.5t328.5 82q149 0 266 -55t183.5 -162.5t66.5 -258.5q0 -164 -77.5 -302.5t-219.5 -221t-327 -82.5q-149 0 -266.5 55.5zM693 301q44 57 64 139t20 158q0 95 -31.5 141.5t-88.5 46.5
q-64 0 -107.5 -54.5t-65 -136.5t-21.5 -163q0 -188 118 -188q68 0 112 57zM373 1254q-2 4 -2 12q0 13 11 20l356 245q12 9 29 9h132q17 0 29 -11l273 -246q9 -9 9 -18q0 -7 -5 -15l-92 -147q-8 -12 -18 -12q-7 0 -14 4l-288 161l-328 -161q-6 -3 -12 -3q-13 0 -19 15z" />
    <glyph glyph-name="otilde" unicode="&#xf5;" horiz-adv-x="1239" 
d="M300.5 29.5q-117.5 55.5 -184.5 163t-67 259.5q0 163 77.5 301.5t220 220.5t328.5 82q149 0 266 -55t183.5 -162.5t66.5 -258.5q0 -164 -77.5 -302.5t-219.5 -221t-327 -82.5q-149 0 -266.5 55.5zM693 301q44 57 64 139t20 158q0 95 -31.5 141.5t-88.5 46.5
q-64 0 -107.5 -54.5t-65 -136.5t-21.5 -163q0 -188 118 -188q68 0 112 57zM815 1121.5q-36 13.5 -78 38.5q-26 14 -38.5 20t-25.5 6q-49 0 -64 -62q-3 -12 -9 -17t-17 -5h-155q-11 0 -17 6.5t-5 18.5q13 90 52 160t100.5 109.5t140.5 39.5q44 0 78 -13.5t76 -37.5
q23 -14 37.5 -20.5t26.5 -6.5q26 0 41 15.5t22 44.5q4 22 25 22h155q11 0 17 -8.5t4 -23.5q-23 -143 -95.5 -221.5t-184.5 -78.5q-50 0 -86 13.5z" />
    <glyph glyph-name="odieresis" unicode="&#xf6;" horiz-adv-x="1239" 
d="M300.5 29.5q-117.5 55.5 -184.5 163t-67 259.5q0 163 77.5 301.5t220 220.5t328.5 82q149 0 266 -55t183.5 -162.5t66.5 -258.5q0 -164 -77.5 -302.5t-219.5 -221t-327 -82.5q-149 0 -266.5 55.5zM693 301q44 57 64 139t20 158q0 95 -31.5 141.5t-88.5 46.5
q-64 0 -107.5 -54.5t-65 -136.5t-21.5 -163q0 -188 118 -188q68 0 112 57zM407 1090q-12 0 -17 7t-3 19l62 263q3 21 25 21h297q12 0 17 -7t3 -19l-61 -263q-5 -21 -26 -21h-297zM807 1090q-12 0 -17 7t-3 19l62 263q3 21 25 21h297q12 0 17 -7t3 -19l-61 -263
q-4 -21 -26 -21h-297z" />
    <glyph glyph-name="divide" unicode="&#xf7;" horiz-adv-x="1240" 
d="M532 934q-12 0 -17 7t-3 19l76 325q3 21 25 21h375q12 0 17 -7t3 -19l-75 -325q-4 -21 -26 -21h-375zM162 538q-12 0 -17 7t-3 19l60 255q3 21 25 21h933q12 0 17 -7t3 -19l-59 -255q-4 -21 -26 -21h-933zM334 72q-12 0 -17 7t-3 19l76 325q3 21 25 21h375q12 0 17 -7
t3 -19l-75 -325q-4 -21 -26 -21h-375z" />
    <glyph glyph-name="oslash" unicode="&#xf8;" horiz-adv-x="1236" 
d="M310 25l-144 -137q-8 -8 -15 -8q-10 0 -18 11l-122 148q-7 9 -7 16t8 17l113 106q-76 113 -76 274q0 163 77.5 301.5t220 220.5t328.5 82q139 0 251 -49l142 135q8 8 16 8q10 0 18 -11l122 -148q7 -9 7 -16q0 -8 -9 -16l-109 -104q78 -114 78 -275q0 -164 -77.5 -302.5
t-219.5 -221t-327 -82.5q-144 0 -257 51zM527.5 701.5q-48.5 -84.5 -60.5 -201.5q-2 -12 -2 -18l258 282q-26 22 -66 22q-81 0 -129.5 -84.5zM714.5 332.5q47.5 88.5 59.5 205.5l1 17l-263 -288q27 -23 69 -23q86 0 133.5 88.5z" />
    <glyph glyph-name="ugrave" unicode="&#xf9;" horiz-adv-x="1226" 
d="M1255 1030q12 0 18 -7t3 -19l-124 -494l-109 -489q-4 -21 -26 -21h-355q-12 0 -17.5 7t-3.5 19l18 74q-67 -58 -147.5 -91t-170.5 -33q-91 0 -163 34.5t-113.5 102t-41.5 162.5q0 57 16 121l49 198l88 415q3 21 26 21h379q10 0 15.5 -5t5.5 -13q0 -5 -1 -8l-91 -360
l-49 -226q-6 -27 -6 -50q0 -42 20.5 -66t63.5 -24q156 0 222 316l12 56l74 359q4 21 26 21h382zM994 1085q-6 -21 -29 -16l-529 118q-18 3 -18 20q0 6 1 9l90 261q5 16 19 16q7 0 11 -2l501 -206q15 -5 15 -21q0 -7 -1 -10z" />
    <glyph glyph-name="uacute" unicode="&#xfa;" horiz-adv-x="1226" 
d="M1255 1030q12 0 18 -7t3 -19l-124 -494l-109 -489q-4 -21 -26 -21h-355q-12 0 -17.5 7t-3.5 19l18 74q-67 -58 -147.5 -91t-170.5 -33q-91 0 -163 34.5t-113.5 102t-41.5 162.5q0 57 16 121l49 198l88 415q3 21 26 21h379q10 0 15.5 -5t5.5 -13q0 -5 -1 -8l-91 -360
l-49 -226q-6 -27 -6 -50q0 -42 20.5 -66t63.5 -24q156 0 222 316l12 56l74 359q4 21 26 21h382zM555 1086q-3 -1 -7 -1q-17 0 -20 19l-33 168q-1 2 -1 7q0 16 17 22l543 190q6 2 10 2q8 0 13.5 -5t6.5 -14l51 -261q3 -23 -19 -28z" />
    <glyph glyph-name="ucircumflex" unicode="&#xfb;" horiz-adv-x="1226" 
d="M1255 1030q12 0 18 -7t3 -19l-124 -494l-109 -489q-4 -21 -26 -21h-355q-12 0 -17.5 7t-3.5 19l18 74q-67 -58 -147.5 -91t-170.5 -33q-91 0 -163 34.5t-113.5 102t-41.5 162.5q0 57 16 121l49 198l88 415q3 21 26 21h379q10 0 15.5 -5t5.5 -13q0 -5 -1 -8l-91 -360
l-49 -226q-6 -27 -6 -50q0 -42 20.5 -66t63.5 -24q156 0 222 316l12 56l74 359q4 21 26 21h382zM363 1254q-2 4 -2 12q0 13 11 20l356 245q12 9 29 9h132q17 0 29 -11l273 -246q9 -9 9 -18q0 -7 -5 -15l-92 -147q-8 -12 -18 -12q-7 0 -14 4l-288 161l-328 -161q-6 -3 -12 -3
q-13 0 -19 15z" />
    <glyph glyph-name="udieresis" unicode="&#xfc;" horiz-adv-x="1226" 
d="M1255 1030q12 0 18 -7t3 -19l-124 -494l-109 -489q-4 -21 -26 -21h-355q-12 0 -17.5 7t-3.5 19l18 74q-67 -58 -147.5 -91t-170.5 -33q-91 0 -163 34.5t-113.5 102t-41.5 162.5q0 57 16 121l49 198l88 415q3 21 26 21h379q10 0 15.5 -5t5.5 -13q0 -5 -1 -8l-91 -360
l-49 -226q-6 -27 -6 -50q0 -42 20.5 -66t63.5 -24q156 0 222 316l12 56l74 359q4 21 26 21h382zM397 1090q-12 0 -17 7t-3 19l62 263q3 21 25 21h297q12 0 17 -7t3 -19l-61 -263q-5 -21 -26 -21h-297zM797 1090q-12 0 -17 7t-3 19l62 263q3 21 25 21h297q12 0 17 -7t3 -19
l-61 -263q-4 -21 -26 -21h-297z" />
    <glyph glyph-name="yacute" unicode="&#xfd;" horiz-adv-x="1208" 
d="M170 -340q-10 0 -15 4t-5 11q0 6 4 13l136 248l-166 1069l-1 6q0 8 6 13.5t16 5.5h385q23 0 24 -22l50 -568l286 573q7 17 27 17h379q10 0 15 -4t5 -11q0 -6 -4 -13l-755 -1326q-8 -16 -28 -16h-359zM552 1086q-3 -1 -7 -1q-17 0 -20 19l-33 168q-1 2 -1 7q0 16 17 22
l543 190q6 2 10 2q8 0 13.5 -5t6.5 -14l51 -261q3 -23 -19 -28z" />
    <glyph glyph-name="thorn" unicode="&#xfe;" horiz-adv-x="1263" 
d="M1038.5 995.5q86.5 -54.5 134 -154t47.5 -229.5q0 -151 -62 -297t-183 -240.5t-289 -94.5q-99 0 -172 35t-117 101l-97 -435q-4 -21 -25 -21h-383q-12 0 -17.5 7t-3.5 19l218 910l174 783q4 21 25 21h372q10 0 16 -5t6 -13q0 -5 -1 -8l-105 -423q117 99 264 99
q112 0 198.5 -54.5zM714.5 303q45.5 59 65.5 140.5t20 152.5q0 86 -31 138t-95 52q-72 0 -118 -63t-67 -149.5t-21 -155.5q0 -84 33 -129t95 -45q73 0 118.5 59z" />
    <glyph glyph-name="ydieresis" unicode="&#xff;" horiz-adv-x="1208" 
d="M170 -340q-10 0 -15 4t-5 11q0 6 4 13l136 248l-166 1069l-1 6q0 8 6 13.5t16 5.5h385q23 0 24 -22l50 -568l286 573q7 17 27 17h379q10 0 15 -4t5 -11q0 -6 -4 -13l-755 -1326q-8 -16 -28 -16h-359zM394 1090q-12 0 -17 7t-3 19l62 263q3 21 25 21h297q12 0 17 -7t3 -19
l-61 -263q-5 -21 -26 -21h-297zM794 1090q-12 0 -17 7t-3 19l62 263q3 21 25 21h297q12 0 17 -7t3 -19l-61 -263q-4 -21 -26 -21h-297z" />
    <glyph glyph-name="Amacron" unicode="&#x100;" horiz-adv-x="1532" 
d="M1403 25v-5q0 -20 -21 -20h-377q-24 0 -25 23l-17 265h-451l-137 -271q-8 -17 -28 -17h-431q-10 0 -15 4t-5 11q0 6 4 13l771 1356q8 16 28 16h555q11 0 17 -6t7 -16zM941 624l-29 458l-231 -458h260zM648 1490q-12 0 -17 7t-3 19l48 203q3 21 25 21h667q12 0 17 -7
t3 -19l-47 -203q-4 -21 -26 -21h-667z" />
    <glyph glyph-name="amacron" unicode="&#x101;" horiz-adv-x="1251" 
d="M1281 1030q12 0 17.5 -7t2.5 -19l-125 -512l-102 -471q-4 -21 -26 -21h-358q-21 0 -21 17q0 6 1 9l13 49q-116 -95 -260 -95q-112 0 -198.5 54.5t-134 154t-47.5 229.5q0 151 62 297t183 240.5t289 94.5q95 0 165.5 -32t115.5 -92l18 83q4 21 26 21h379zM707 307
q46 63 67 149.5t21 155.5q0 84 -33 129t-95 45q-73 0 -118.5 -59t-65.5 -140.5t-20 -152.5q0 -86 31 -138t95 -52q72 0 118 63zM434 1120q-12 0 -17 7t-3 19l48 203q3 21 25 21h667q12 0 17 -7t3 -19l-47 -203q-4 -21 -26 -21h-667z" />
    <glyph glyph-name="Abreve" unicode="&#x102;" horiz-adv-x="1532" 
d="M1403 25v-5q0 -20 -21 -20h-377q-24 0 -25 23l-17 265h-451l-137 -271q-8 -17 -28 -17h-431q-10 0 -15 4t-5 11q0 6 4 13l771 1356q8 16 28 16h555q11 0 17 -6t7 -16zM941 624l-29 458l-231 -458h260zM817.5 1510.5q-83.5 40.5 -128.5 112.5t-45 162q0 11 2 35
q1 22 24 22h220q22 0 24 -24q0 -48 30.5 -76t88.5 -28q55 0 93 29t55 79q7 20 26 20h220q13 0 19 -6t4 -16q-20 -101 -79 -180.5t-151.5 -124.5t-208.5 -45q-110 0 -193.5 40.5z" />
    <glyph glyph-name="abreve" unicode="&#x103;" horiz-adv-x="1251" 
d="M1281 1030q12 0 17.5 -7t2.5 -19l-125 -512l-102 -471q-4 -21 -26 -21h-358q-21 0 -21 17q0 6 1 9l13 49q-116 -95 -260 -95q-112 0 -198.5 54.5t-134 154t-47.5 229.5q0 151 62 297t183 240.5t289 94.5q95 0 165.5 -32t115.5 -92l18 83q4 21 26 21h379zM707 307
q46 63 67 149.5t21 155.5q0 84 -33 129t-95 45q-73 0 -118.5 -59t-65.5 -140.5t-20 -152.5q0 -86 31 -138t95 -52q72 0 118 63zM603.5 1140.5q-83.5 40.5 -128.5 112.5t-45 162q0 11 2 35q1 22 24 22h220q22 0 24 -24q0 -48 30.5 -76t88.5 -28q55 0 93 29t55 79q7 20 26 20
h220q13 0 19 -6t4 -16q-20 -101 -79 -180.5t-151.5 -124.5t-208.5 -45q-110 0 -193.5 40.5z" />
    <glyph glyph-name="Aogonek" unicode="&#x104;" horiz-adv-x="1532" 
d="M1403 25v-5q0 -20 -21 -20h-159q-22 -25 -40 -65.5t-18 -72.5q0 -27 20.5 -41.5t67.5 -14.5h86q12 0 17 -7t3 -19l-51 -219q-4 -21 -26 -21h-133q-103 0 -174 29.5t-106.5 81.5t-35.5 119q0 74 41.5 134t114.5 100q-8 6 -9 19l-17 265h-451l-137 -271q-8 -17 -28 -17
h-431q-10 0 -15 4t-5 11q0 6 4 13l771 1356q8 16 28 16h555q11 0 17 -6t7 -16zM912 1082l-231 -458h260z" />
    <glyph glyph-name="aogonek" unicode="&#x105;" horiz-adv-x="1251" 
d="M1281 1030q12 0 17.5 -7t2.5 -19l-125 -512l-102 -471q-4 -21 -26 -21h-146q-22 -25 -40 -65.5t-18 -72.5q0 -27 20.5 -41.5t67.5 -14.5h86q12 0 17 -7t3 -19l-51 -219q-5 -21 -26 -21h-133q-103 0 -174 29.5t-106.5 81.5t-35.5 119q0 75 42.5 135.5t117.5 101.5
q-4 4 -4 10q0 3 2 9l13 49q-116 -95 -260 -95q-112 0 -198.5 54.5t-134 154t-47.5 229.5q0 151 62 297t183 240.5t289 94.5q95 0 165.5 -32t115.5 -92l18 83q4 21 26 21h379zM707 307q46 63 67 149.5t21 155.5q0 84 -33 129t-95 45q-73 0 -118.5 -59t-65.5 -140.5
t-20 -152.5q0 -86 31 -138t95 -52q72 0 118 63z" />
    <glyph glyph-name="Cacute" unicode="&#x106;" horiz-adv-x="1529" 
d="M417 39.5q-151 75.5 -237 220.5t-86 346q0 216 101.5 407t289.5 307t437 116q179 0 312.5 -62.5t211.5 -179.5t92 -279q1 -12 -5 -18.5t-17 -6.5h-363q-22 0 -26 23q-15 101 -74.5 151t-154.5 50q-130 0 -212.5 -85t-118 -205.5t-35.5 -231.5q0 -155 69.5 -230.5
t186.5 -75.5q186 0 265 199q7 19 27 19h371q12 0 18 -5.5t4 -15.5q-40 -149 -136 -266.5t-242.5 -185t-332.5 -67.5q-194 0 -345 75.5zM790 1456q-3 -1 -7 -1q-17 0 -20 19l-33 168q-1 2 -1 7q0 16 17 22l543 190q6 2 10 2q8 0 13.5 -5t6.5 -14l51 -261q3 -23 -19 -28z" />
    <glyph glyph-name="cacute" unicode="&#x107;" horiz-adv-x="1175" 
d="M295.5 29q-115.5 55 -181 162.5t-65.5 258.5q0 165 76.5 303.5t218.5 220.5t331 82q141 0 247 -47t166 -135.5t65 -209.5q0 -24 -24 -24h-352q-21 0 -23 24q-6 61 -36 91.5t-73 30.5q-59 0 -100 -54.5t-61.5 -136.5t-20.5 -163q0 -188 110 -188q52 0 89.5 37.5t54.5 94.5
q7 20 26 20h351q13 0 19 -5t3 -15q-26 -115 -100 -206t-190.5 -143.5t-264.5 -52.5q-150 0 -265.5 55zM535 1086q-3 -1 -7 -1q-17 0 -20 19l-33 168q-1 2 -1 7q0 16 17 22l543 190q6 2 10 2q8 0 13.5 -5t6.5 -14l51 -261q3 -23 -19 -28z" />
    <glyph glyph-name="Ccircumflex" unicode="&#x108;" horiz-adv-x="1529" 
d="M417 39.5q-151 75.5 -237 220.5t-86 346q0 216 101.5 407t289.5 307t437 116q179 0 312.5 -62.5t211.5 -179.5t92 -279q1 -12 -5 -18.5t-17 -6.5h-363q-22 0 -26 23q-15 101 -74.5 151t-154.5 50q-130 0 -212.5 -85t-118 -205.5t-35.5 -231.5q0 -155 69.5 -230.5
t186.5 -75.5q186 0 265 199q7 19 27 19h371q12 0 18 -5.5t4 -15.5q-40 -149 -136 -266.5t-242.5 -185t-332.5 -67.5q-194 0 -345 75.5zM598 1624q-2 4 -2 12q0 13 11 20l356 245q12 9 29 9h132q17 0 29 -11l273 -246q9 -9 9 -18q0 -7 -5 -15l-92 -147q-8 -12 -18 -12
q-7 0 -14 4l-288 161l-328 -161q-6 -3 -12 -3q-13 0 -19 15z" />
    <glyph glyph-name="ccircumflex" unicode="&#x109;" horiz-adv-x="1175" 
d="M295.5 29q-115.5 55 -181 162.5t-65.5 258.5q0 165 76.5 303.5t218.5 220.5t331 82q141 0 247 -47t166 -135.5t65 -209.5q0 -24 -24 -24h-352q-21 0 -23 24q-6 61 -36 91.5t-73 30.5q-59 0 -100 -54.5t-61.5 -136.5t-20.5 -163q0 -188 110 -188q52 0 89.5 37.5t54.5 94.5
q7 20 26 20h351q13 0 19 -5t3 -15q-26 -115 -100 -206t-190.5 -143.5t-264.5 -52.5q-150 0 -265.5 55zM343 1254q-2 4 -2 12q0 13 11 20l356 245q12 9 29 9h132q17 0 29 -11l273 -246q9 -9 9 -18q0 -7 -5 -15l-92 -147q-8 -12 -18 -12q-7 0 -14 4l-288 161l-328 -161
q-6 -3 -12 -3q-13 0 -19 15z" />
    <glyph glyph-name="Cdotaccent" unicode="&#x10a;" horiz-adv-x="1529" 
d="M417 39.5q-151 75.5 -237 220.5t-86 346q0 216 101.5 407t289.5 307t437 116q179 0 312.5 -62.5t211.5 -179.5t92 -279q1 -12 -5 -18.5t-17 -6.5h-363q-22 0 -26 23q-15 101 -74.5 151t-154.5 50q-130 0 -212.5 -85t-118 -205.5t-35.5 -231.5q0 -155 69.5 -230.5
t186.5 -75.5q186 0 265 199q7 19 27 19h371q12 0 18 -5.5t4 -15.5q-40 -149 -136 -266.5t-242.5 -185t-332.5 -67.5q-194 0 -345 75.5zM791 1483q-13 0 -18.5 7t-2.5 19l61 260q4 21 25 21h380q12 0 17.5 -7t2.5 -19l-61 -260q-4 -21 -25 -21h-379z" />
    <glyph glyph-name="cdotaccent" unicode="&#x10b;" horiz-adv-x="1175" 
d="M295.5 29q-115.5 55 -181 162.5t-65.5 258.5q0 165 76.5 303.5t218.5 220.5t331 82q141 0 247 -47t166 -135.5t65 -209.5q0 -24 -24 -24h-352q-21 0 -23 24q-6 61 -36 91.5t-73 30.5q-59 0 -100 -54.5t-61.5 -136.5t-20.5 -163q0 -188 110 -188q52 0 89.5 37.5t54.5 94.5
q7 20 26 20h351q13 0 19 -5t3 -15q-26 -115 -100 -206t-190.5 -143.5t-264.5 -52.5q-150 0 -265.5 55zM536 1093q-13 0 -18.5 7t-2.5 19l61 260q4 21 25 21h380q12 0 17.5 -7t2.5 -19l-61 -260q-4 -21 -25 -21h-379z" />
    <glyph glyph-name="Ccaron" unicode="&#x10c;" horiz-adv-x="1529" 
d="M417 39.5q-151 75.5 -237 220.5t-86 346q0 216 101.5 407t289.5 307t437 116q179 0 312.5 -62.5t211.5 -179.5t92 -279q1 -12 -5 -18.5t-17 -6.5h-363q-22 0 -26 23q-15 101 -74.5 151t-154.5 50q-130 0 -212.5 -85t-118 -205.5t-35.5 -231.5q0 -155 69.5 -230.5
t186.5 -75.5q186 0 265 199q7 19 27 19h371q12 0 18 -5.5t4 -15.5q-40 -149 -136 -266.5t-242.5 -185t-332.5 -67.5q-194 0 -345 75.5zM628 1722q-9 8 -9 17q0 7 5 15l92 147q8 12 18 12q7 0 14 -4l288 -161l328 161q8 3 13 3q13 0 18 -14l61 -148q3 -6 3 -12q0 -11 -12 -20
l-355 -245q-15 -9 -30 -9h-132q-17 0 -28 11z" />
    <glyph glyph-name="ccaron" unicode="&#x10d;" horiz-adv-x="1175" 
d="M295.5 29q-115.5 55 -181 162.5t-65.5 258.5q0 165 76.5 303.5t218.5 220.5t331 82q141 0 247 -47t166 -135.5t65 -209.5q0 -24 -24 -24h-352q-21 0 -23 24q-6 61 -36 91.5t-73 30.5q-59 0 -100 -54.5t-61.5 -136.5t-20.5 -163q0 -188 110 -188q52 0 89.5 37.5t54.5 94.5
q7 20 26 20h351q13 0 19 -5t3 -15q-26 -115 -100 -206t-190.5 -143.5t-264.5 -52.5q-150 0 -265.5 55zM373 1352q-9 8 -9 17q0 7 5 15l92 147q8 12 18 12q7 0 14 -4l288 -161l328 161q8 3 13 3q13 0 18 -14l61 -148q3 -6 3 -12q0 -11 -12 -20l-355 -245q-15 -9 -30 -9h-132
q-17 0 -28 11z" />
    <glyph glyph-name="Dcaron" unicode="&#x10e;" horiz-adv-x="1476" 
d="M-26 0q-12 0 -17.5 7t-2.5 19l175 682l138 671q4 21 26 21h507q195 0 346.5 -71.5t236.5 -208t85 -326.5q0 -207 -100 -389.5t-285 -293.5t-429 -111h-680zM668 310q133 0 216.5 80.5t119.5 195t36 220.5q0 144 -68 214t-192 70h-125l-99 -382l-81 -398h193zM522 1722
q-9 8 -9 17q0 7 5 15l92 147q8 12 18 12q7 0 14 -4l288 -161l328 161q8 3 13 3q13 0 18 -14l61 -148q3 -6 3 -12q0 -11 -12 -20l-355 -245q-15 -9 -30 -9h-132q-17 0 -28 11z" />
    <glyph glyph-name="dcaron" unicode="&#x10f;" horiz-adv-x="1251" 
d="M1365 1400q12 0 17.5 -7t2.5 -19l-169 -684l-142 -669q-4 -21 -26 -21h-358q-21 0 -21 17q0 6 1 9l12 50q-114 -96 -259 -96q-112 0 -198.5 54.5t-134 154t-47.5 229.5q0 151 62 297t183 240.5t289 94.5q94 0 164.5 -31.5t115.5 -90.5l100 451q4 21 25 21h383zM707 307
q46 63 67 149.5t21 155.5q0 84 -33 129t-95 45q-73 0 -118.5 -59t-65.5 -140.5t-20 -152.5q0 -86 31 -138t95 -52q72 0 118 63zM1645 1114q-7 -18 -28 -18h-212q-12 0 -17.5 7t-2.5 19l148 484q6 20 27 20h281q10 0 15.5 -4.5t5.5 -11.5q0 -5 -3 -11z" />
    <glyph glyph-name="Dcroat" unicode="&#x110;" horiz-adv-x="1520" 
d="M844 1400q195 0 346.5 -71.5t236.5 -208t85 -326.5q0 -207 -100 -389.5t-285 -293.5t-429 -111h-679q-13 0 -18.5 7t-2.5 19l144 562h-50q-13 0 -18.5 7t-2.5 19l61 261q5 21 25 21h54l100 483q4 21 26 21h507zM712 310q133 0 216.5 80.5t119.5 195t36 220.5
q0 144 -68 214t-192 70h-125l-51 -194h198q12 0 17.5 -7t2.5 -19l-61 -261q-4 -21 -25 -21h-205l-56 -278h193z" />
    <glyph glyph-name="dcroat" unicode="&#x111;" horiz-adv-x="1253" 
d="M1412 1332q21 0 21 -18q0 -5 -1 -8l-51 -219q-4 -21 -25 -21h-49l-93 -376l-142 -669q-4 -21 -26 -21h-358q-21 0 -21 17q0 6 1 9l12 49q-116 -95 -261 -95q-111 0 -197 53.5t-133.5 151.5t-47.5 227q0 148 62 291t183 235t289 92q92 0 162 -29.5t115 -85.5l34 151h-227
q-12 0 -17.5 7t-2.5 19l51 219q5 21 25 21h230l10 47q4 21 25 21h383q12 0 17.5 -7t2.5 -19l-10 -42h39zM705 306q47 62 67.5 146t20.5 150q0 79 -33 121.5t-93 42.5q-74 0 -120.5 -58t-66 -137t-19.5 -147q0 -81 30.5 -130.5t93.5 -49.5q73 0 120 62z" />
    <glyph glyph-name="Emacron" unicode="&#x112;" horiz-adv-x="1210" 
d="M-26 0q-12 0 -17.5 7t-2.5 19l167 650l146 703q4 21 26 21h1033q12 0 17 -7t3 -19l-61 -263q-4 -21 -26 -21h-606l-60 -204h545q12 0 17 -7t3 -19l-61 -263q-4 -21 -26 -21h-550l-48 -264h617q12 0 17 -7t3 -19l-61 -265q-4 -21 -26 -21h-1049zM504 1490q-12 0 -17 7
t-3 19l48 203q3 21 25 21h667q12 0 17 -7t3 -19l-47 -203q-4 -21 -26 -21h-667z" />
    <glyph glyph-name="emacron" unicode="&#x113;" horiz-adv-x="1220" 
d="M945 995.5q115 -60.5 176 -167t61 -243.5q0 -66 -15 -138q-4 -21 -25 -21h-683v-9q4 -89 40 -131t98 -42q51 0 84.5 24t49.5 62q9 18 28 18h351q12 0 18.5 -5t3.5 -13q-25 -103 -97 -183.5t-186.5 -126.5t-261.5 -46q-156 0 -278 55t-191 163t-69 260q0 163 77.5 301.5
t220 220.5t328.5 82q155 0 270 -60.5zM769 650q3 62 -27.5 101t-94.5 39q-117 0 -161 -140h283zM422 1120q-12 0 -17 7t-3 19l48 203q3 21 25 21h667q12 0 17 -7t3 -19l-47 -203q-4 -21 -26 -21h-667z" />
    <glyph glyph-name="Ebreve" unicode="&#x114;" horiz-adv-x="1210" 
d="M-26 0q-12 0 -17.5 7t-2.5 19l167 650l146 703q4 21 26 21h1033q12 0 17 -7t3 -19l-61 -263q-4 -21 -26 -21h-606l-60 -204h545q12 0 17 -7t3 -19l-61 -263q-4 -21 -26 -21h-550l-48 -264h617q12 0 17 -7t3 -19l-61 -265q-4 -21 -26 -21h-1049zM673.5 1510.5
q-83.5 40.5 -128.5 112.5t-45 162q0 11 2 35q1 22 24 22h220q22 0 24 -24q0 -48 30.5 -76t88.5 -28q55 0 93 29t55 79q7 20 26 20h220q13 0 19 -6t4 -16q-20 -101 -79 -180.5t-151.5 -124.5t-208.5 -45q-110 0 -193.5 40.5z" />
    <glyph glyph-name="ebreve" unicode="&#x115;" horiz-adv-x="1220" 
d="M945 995.5q115 -60.5 176 -167t61 -243.5q0 -66 -15 -138q-4 -21 -25 -21h-683v-9q4 -89 40 -131t98 -42q51 0 84.5 24t49.5 62q9 18 28 18h351q12 0 18.5 -5t3.5 -13q-25 -103 -97 -183.5t-186.5 -126.5t-261.5 -46q-156 0 -278 55t-191 163t-69 260q0 163 77.5 301.5
t220 220.5t328.5 82q155 0 270 -60.5zM769 650q3 62 -27.5 101t-94.5 39q-117 0 -161 -140h283zM591.5 1140.5q-83.5 40.5 -128.5 112.5t-45 162q0 11 2 35q1 22 24 22h220q22 0 24 -24q0 -48 30.5 -76t88.5 -28q55 0 93 29t55 79q7 20 26 20h220q13 0 19 -6t4 -16
q-20 -101 -79 -180.5t-151.5 -124.5t-208.5 -45q-110 0 -193.5 40.5z" />
    <glyph glyph-name="Edotaccent" unicode="&#x116;" horiz-adv-x="1210" 
d="M-26 0q-12 0 -17.5 7t-2.5 19l167 650l146 703q4 21 26 21h1033q12 0 17 -7t3 -19l-61 -263q-4 -21 -26 -21h-606l-60 -204h545q12 0 17 -7t3 -19l-61 -263q-4 -21 -26 -21h-550l-48 -264h617q12 0 17 -7t3 -19l-61 -265q-4 -21 -26 -21h-1049zM642 1463q-13 0 -18.5 7
t-2.5 19l61 260q4 21 25 21h380q12 0 17.5 -7t2.5 -19l-61 -260q-4 -21 -25 -21h-379z" />
    <glyph glyph-name="edotaccent" unicode="&#x117;" horiz-adv-x="1220" 
d="M945 995.5q115 -60.5 176 -167t61 -243.5q0 -66 -15 -138q-4 -21 -25 -21h-683v-9q4 -89 40 -131t98 -42q51 0 84.5 24t49.5 62q9 18 28 18h351q12 0 18.5 -5t3.5 -13q-25 -103 -97 -183.5t-186.5 -126.5t-261.5 -46q-156 0 -278 55t-191 163t-69 260q0 163 77.5 301.5
t220 220.5t328.5 82q155 0 270 -60.5zM769 650q3 62 -27.5 101t-94.5 39q-117 0 -161 -140h283zM560 1093q-13 0 -18.5 7t-2.5 19l61 260q4 21 25 21h380q12 0 17.5 -7t2.5 -19l-61 -260q-4 -21 -25 -21h-379z" />
    <glyph glyph-name="Eogonek" unicode="&#x118;" horiz-adv-x="1210" 
d="M1326 1400q12 0 17 -7t3 -19l-61 -263q-4 -21 -26 -21h-606l-60 -204h545q12 0 17 -7t3 -19l-61 -263q-4 -21 -26 -21h-550l-48 -264h617q12 0 17 -7t3 -19l-61 -265q-4 -21 -26 -21h-165q-22 -25 -40 -65.5t-18 -72.5q0 -27 20.5 -41.5t67.5 -14.5h86q12 0 17 -7t3 -19
l-51 -219q-4 -21 -26 -21h-133q-103 0 -174 29.5t-106.5 81.5t-35.5 119q0 72 39.5 130.5t109.5 99.5h-643q-12 0 -17.5 7t-2.5 19l167 650l146 703q4 21 26 21h1033z" />
    <glyph glyph-name="eogonek" unicode="&#x119;" horiz-adv-x="1220" 
d="M945 995.5q115 -60.5 176 -167t61 -243.5q0 -66 -15 -138q-4 -21 -25 -21h-683v-9q4 -89 40 -131t98 -42q51 0 84.5 24t49.5 62q9 18 28 18h351q12 0 18.5 -5t3.5 -13q-22 -89 -79 -161.5t-146.5 -121.5t-205.5 -65q-18 -27 -31 -60.5t-13 -59.5q0 -27 20.5 -41.5
t67.5 -14.5h86q12 0 17 -7t3 -19l-51 -219q-4 -21 -26 -21h-133q-103 0 -174 29.5t-106.5 81.5t-35.5 119q0 66 33 121t93 95q-120 22 -210.5 82t-141 157.5t-50.5 226.5q0 163 77.5 301.5t220 220.5t328.5 82q155 0 270 -60.5zM769 650q3 62 -27.5 101t-94.5 39
q-117 0 -161 -140h283z" />
    <glyph glyph-name="Ecaron" unicode="&#x11a;" horiz-adv-x="1210" 
d="M-26 0q-12 0 -17.5 7t-2.5 19l167 650l146 703q4 21 26 21h1033q12 0 17 -7t3 -19l-61 -263q-4 -21 -26 -21h-606l-60 -204h545q12 0 17 -7t3 -19l-61 -263q-4 -21 -26 -21h-550l-48 -264h617q12 0 17 -7t3 -19l-61 -265q-4 -21 -26 -21h-1049zM478 1722q-9 8 -9 17
q0 7 5 15l92 147q8 12 18 12q7 0 14 -4l288 -161l328 161q8 3 13 3q13 0 18 -14l61 -148q3 -6 3 -12q0 -11 -12 -20l-355 -245q-15 -9 -30 -9h-132q-17 0 -28 11z" />
    <glyph glyph-name="ecaron" unicode="&#x11b;" horiz-adv-x="1220" 
d="M945 995.5q115 -60.5 176 -167t61 -243.5q0 -66 -15 -138q-4 -21 -25 -21h-683v-9q4 -89 40 -131t98 -42q51 0 84.5 24t49.5 62q9 18 28 18h351q12 0 18.5 -5t3.5 -13q-25 -103 -97 -183.5t-186.5 -126.5t-261.5 -46q-156 0 -278 55t-191 163t-69 260q0 163 77.5 301.5
t220 220.5t328.5 82q155 0 270 -60.5zM769 650q3 62 -27.5 101t-94.5 39q-117 0 -161 -140h283zM397 1352q-9 8 -9 17q0 7 5 15l92 147q8 12 18 12q7 0 14 -4l288 -161l328 161q8 3 13 3q13 0 18 -14l61 -148q3 -6 3 -12q0 -11 -12 -20l-355 -245q-15 -9 -30 -9h-132
q-17 0 -28 11z" />
    <glyph glyph-name="Gcircumflex" unicode="&#x11c;" horiz-adv-x="1582" 
d="M418 42q-154 78 -238 223t-84 341q0 217 101.5 407.5t291.5 306.5t443 116q176 0 312 -57.5t217.5 -164.5t96.5 -251q1 -12 -5 -18.5t-18 -6.5h-375q-19 0 -25 21q-22 82 -82 122.5t-147 40.5q-134 0 -217.5 -86t-119 -207t-35.5 -233q0 -160 74 -237t198 -77
q205 0 284 208h-292q-12 0 -17.5 7.5t-3.5 18.5l58 255q5 21 25 21h696q12 0 18 -8t4 -23q-35 -259 -142 -437.5t-275 -269t-385 -90.5q-204 0 -358 78zM608 1624q-2 4 -2 12q0 13 11 20l356 245q12 9 29 9h132q17 0 29 -11l273 -246q9 -9 9 -18q0 -7 -5 -15l-92 -147
q-8 -12 -18 -12q-7 0 -14 4l-288 161l-328 -161q-6 -3 -12 -3q-13 0 -19 15z" />
    <glyph glyph-name="gcircumflex" unicode="&#x11d;" horiz-adv-x="1256" 
d="M1286 1030q12 0 17.5 -7t3.5 -19l-152 -634l-85 -388q-43 -197 -190.5 -293.5t-381.5 -96.5q-166 0 -287.5 49t-187 132.5t-72.5 186.5q-2 24 22 24h374q20 0 25 -23q8 -48 45 -74.5t99 -26.5q64 0 101.5 30.5t52.5 97.5l31 138q-112 -86 -263 -86q-117 0 -205.5 50.5
t-136.5 143.5t-48 218q0 142 61.5 280.5t182.5 228t290 89.5q99 0 171.5 -32.5t117.5 -93.5l17 85q3 21 26 21h372zM713.5 361.5q46.5 57.5 66.5 134.5t20 138q0 74 -33.5 113t-94.5 39q-74 0 -120 -53.5t-65 -126.5t-19 -136q0 -76 31.5 -121t94.5 -45q73 0 119.5 57.5z
M382 1254q-2 4 -2 12q0 13 11 20l356 245q12 9 29 9h132q17 0 29 -11l273 -246q9 -9 9 -18q0 -7 -5 -15l-92 -147q-8 -12 -18 -12q-7 0 -14 4l-288 161l-328 -161q-6 -3 -12 -3q-13 0 -19 15z" />
    <glyph glyph-name="Gbreve" unicode="&#x11e;" horiz-adv-x="1582" 
d="M418 42q-154 78 -238 223t-84 341q0 217 101.5 407.5t291.5 306.5t443 116q176 0 312 -57.5t217.5 -164.5t96.5 -251q1 -12 -5 -18.5t-18 -6.5h-375q-19 0 -25 21q-22 82 -82 122.5t-147 40.5q-134 0 -217.5 -86t-119 -207t-35.5 -233q0 -160 74 -237t198 -77
q205 0 284 208h-292q-12 0 -17.5 7.5t-3.5 18.5l58 255q5 21 25 21h696q12 0 18 -8t4 -23q-35 -259 -142 -437.5t-275 -269t-385 -90.5q-204 0 -358 78zM832.5 1510.5q-83.5 40.5 -128.5 112.5t-45 162q0 11 2 35q1 22 24 22h220q22 0 24 -24q0 -48 30.5 -76t88.5 -28
q55 0 93 29t55 79q7 20 26 20h220q13 0 19 -6t4 -16q-20 -101 -79 -180.5t-151.5 -124.5t-208.5 -45q-110 0 -193.5 40.5z" />
    <glyph glyph-name="gbreve" unicode="&#x11f;" horiz-adv-x="1256" 
d="M1286 1030q12 0 17.5 -7t3.5 -19l-152 -634l-85 -388q-43 -197 -190.5 -293.5t-381.5 -96.5q-166 0 -287.5 49t-187 132.5t-72.5 186.5q-2 24 22 24h374q20 0 25 -23q8 -48 45 -74.5t99 -26.5q64 0 101.5 30.5t52.5 97.5l31 138q-112 -86 -263 -86q-117 0 -205.5 50.5
t-136.5 143.5t-48 218q0 142 61.5 280.5t182.5 228t290 89.5q99 0 171.5 -32.5t117.5 -93.5l17 85q3 21 26 21h372zM713.5 361.5q46.5 57.5 66.5 134.5t20 138q0 74 -33.5 113t-94.5 39q-74 0 -120 -53.5t-65 -126.5t-19 -136q0 -76 31.5 -121t94.5 -45q73 0 119.5 57.5z
M607.5 1140.5q-83.5 40.5 -128.5 112.5t-45 162q0 11 2 35q1 22 24 22h220q22 0 24 -24q0 -48 30.5 -76t88.5 -28q55 0 93 29t55 79q7 20 26 20h220q13 0 19 -6t4 -16q-20 -101 -79 -180.5t-151.5 -124.5t-208.5 -45q-110 0 -193.5 40.5z" />
    <glyph glyph-name="Gdotaccent" unicode="&#x120;" horiz-adv-x="1582" 
d="M418 42q-154 78 -238 223t-84 341q0 217 101.5 407.5t291.5 306.5t443 116q176 0 312 -57.5t217.5 -164.5t96.5 -251q1 -12 -5 -18.5t-18 -6.5h-375q-19 0 -25 21q-22 82 -82 122.5t-147 40.5q-134 0 -217.5 -86t-119 -207t-35.5 -233q0 -160 74 -237t198 -77
q205 0 284 208h-292q-12 0 -17.5 7.5t-3.5 18.5l58 255q5 21 25 21h696q12 0 18 -8t4 -23q-35 -259 -142 -437.5t-275 -269t-385 -90.5q-204 0 -358 78zM801 1463q-13 0 -18.5 7t-2.5 19l61 260q4 21 25 21h380q12 0 17.5 -7t2.5 -19l-61 -260q-4 -21 -25 -21h-379z" />
    <glyph glyph-name="gdotaccent" unicode="&#x121;" horiz-adv-x="1256" 
d="M1286 1030q12 0 17.5 -7t3.5 -19l-152 -634l-85 -388q-43 -197 -190.5 -293.5t-381.5 -96.5q-166 0 -287.5 49t-187 132.5t-72.5 186.5q-2 24 22 24h374q20 0 25 -23q8 -48 45 -74.5t99 -26.5q64 0 101.5 30.5t52.5 97.5l31 138q-112 -86 -263 -86q-117 0 -205.5 50.5
t-136.5 143.5t-48 218q0 142 61.5 280.5t182.5 228t290 89.5q99 0 171.5 -32.5t117.5 -93.5l17 85q3 21 26 21h372zM713.5 361.5q46.5 57.5 66.5 134.5t20 138q0 74 -33.5 113t-94.5 39q-74 0 -120 -53.5t-65 -126.5t-19 -136q0 -76 31.5 -121t94.5 -45q73 0 119.5 57.5z
M576 1093q-13 0 -18.5 7t-2.5 19l61 260q4 21 25 21h380q12 0 17.5 -7t2.5 -19l-61 -260q-4 -21 -25 -21h-379z" />
    <glyph glyph-name="uni0122" unicode="&#x122;" horiz-adv-x="1582" 
d="M418 42q-154 78 -238 223t-84 341q0 217 101.5 407.5t291.5 306.5t443 116q176 0 312 -57.5t217.5 -164.5t96.5 -251q1 -12 -5 -18.5t-18 -6.5h-375q-19 0 -25 21q-22 82 -82 122.5t-147 40.5q-134 0 -217.5 -86t-119 -207t-35.5 -233q0 -160 74 -237t198 -77
q205 0 284 208h-292q-12 0 -17.5 7.5t-3.5 18.5l58 255q5 21 25 21h696q12 0 18 -8t4 -23q-35 -259 -142 -437.5t-275 -269t-385 -90.5q-204 0 -358 78zM376 -578q-10 0 -15.5 4.5t-5.5 11.5q0 5 3 11l86 195l60 257q3 21 25 21h367q12 0 17 -7t3 -19l-54 -234
q-4 -16 -17 -26l-262 -204q-13 -10 -29 -10h-178z" />
    <glyph glyph-name="uni0123" unicode="&#x123;" horiz-adv-x="1256" 
d="M1286 1030q12 0 17.5 -7t3.5 -19l-152 -634l-85 -388q-43 -197 -190.5 -293.5t-381.5 -96.5q-166 0 -287.5 49t-187 132.5t-72.5 186.5q-2 24 22 24h374q20 0 25 -23q8 -48 45 -74.5t99 -26.5q64 0 101.5 30.5t52.5 97.5l31 138q-112 -86 -263 -86q-117 0 -205.5 50.5
t-136.5 143.5t-48 218q0 142 61.5 280.5t182.5 228t290 89.5q99 0 171.5 -32.5t117.5 -93.5l17 85q3 21 26 21h372zM713.5 361.5q46.5 57.5 66.5 134.5t20 138q0 74 -33.5 113t-94.5 39q-74 0 -120 -53.5t-65 -126.5t-19 -136q0 -76 31.5 -121t94.5 -45q73 0 119.5 57.5z
M580 1094q-12 0 -17 7t-3 19l54 234q4 16 17 26l262 204q13 10 29 10h178q10 0 15.5 -4.5t5.5 -11.5q0 -5 -3 -11l-86 -195l-59 -257q-5 -21 -26 -21h-367z" />
    <glyph glyph-name="Hcircumflex" unicode="&#x124;" horiz-adv-x="1483" 
d="M1592 1400q10 0 15.5 -5t5.5 -13q0 -5 -1 -8l-170 -666l-142 -687q-4 -21 -26 -21h-409q-12 0 -17.5 7t-3.5 19l141 562h-454l-121 -567q-4 -21 -26 -21h-409q-10 0 -15.5 5t-5.5 13q0 5 1 8l174 682l139 671q3 21 26 21h408q12 0 18 -7t3 -19l-120 -476h452l103 481
q3 21 26 21h408zM581 1624q-2 4 -2 12q0 13 11 20l356 245q12 9 29 9h132q17 0 29 -11l273 -246q9 -9 9 -18q0 -7 -5 -15l-92 -147q-8 -12 -18 -12q-7 0 -14 4l-288 161l-328 -161q-6 -3 -12 -3q-13 0 -19 15z" />
    <glyph glyph-name="hcircumflex" unicode="&#x125;" horiz-adv-x="1222" 
d="M-29 0q-12 0 -18 7t-3 19l124 494l194 859q3 21 25 21h360q12 0 17.5 -7t3.5 -19l-107 -444q67 58 147.5 91t170.5 33q91 0 163 -34.5t113.5 -102t41.5 -162.5q0 -57 -16 -121l-49 -198l-87 -415q-4 -21 -26 -21h-380q-12 0 -17.5 7t-2.5 19l92 360l48 226q6 27 6 51
q0 41 -20.5 65t-63.5 24q-155 0 -221 -316l-12 -56l-75 -359q-4 -21 -26 -21h-382zM111 1624q-2 4 -2 12q0 13 11 20l356 245q12 9 29 9h132q17 0 29 -11l273 -246q9 -9 9 -18q0 -7 -5 -15l-92 -147q-8 -12 -18 -12q-7 0 -14 4l-288 161l-328 -161q-6 -3 -12 -3
q-13 0 -19 15z" />
    <glyph glyph-name="Hbar" unicode="&#x126;" horiz-adv-x="1492" 
d="M1598 1216q12 0 17.5 -7.5t3.5 -18.5l-60 -263q-4 -21 -26 -21h-41l-50 -198l-142 -687q-4 -21 -26 -21h-398q-12 0 -17.5 7t-3.5 19l98 392h-459l-84 -397q-4 -21 -26 -21h-398q-10 0 -15.5 5t-5.5 13q0 5 1 8l174 682l41 198h-35q-12 0 -17.5 7.5t-2.5 18.5l60 263
q3 21 25 21h34l34 163q3 21 26 21h397q12 0 18 -7t3 -19l-40 -158h451l35 163q3 21 26 21h397q10 0 15.5 -5t5.5 -13q0 -5 -1 -8l-40 -158h26zM605 906l-44 -178h469l38 178h-463z" />
    <glyph glyph-name="hbar" unicode="&#x127;" horiz-adv-x="1243" 
d="M1065 999.5q72 -34.5 113.5 -101.5t41.5 -161q0 -59 -16 -123l-46 -183l-86 -410q-4 -21 -26 -21h-380q-12 0 -17.5 7t-2.5 19l92 360l44 206q6 27 6 51q0 41 -20.5 65t-63.5 24q-67 0 -111.5 -52t-68 -118.5t-41.5 -145.5l-8 -36l-75 -359q-4 -21 -26 -21h-382
q-12 0 -18 7t-3 19l124 494l123 546h-42q-12 0 -17 7t-3 19l52 219q3 21 25 21h45l11 47q3 21 25 21h360q12 0 17.5 -7t3.5 -19l-10 -42h245q12 0 17 -7t3 -19l-51 -219q-4 -21 -26 -21h-251l-38 -156q67 58 147.5 91t170.5 33q91 0 163 -34.5z" />
    <glyph glyph-name="Itilde" unicode="&#x128;" horiz-adv-x="606" 
d="M-16 0q-10 0 -15.5 5t-5.5 13q0 5 1 8l167 660l146 693q4 21 26 21h401q10 0 15.5 -5t5.5 -13q0 -5 -1 -8l-174 -688l-139 -665q-4 -21 -26 -21h-401zM582 1491.5q-36 13.5 -78 38.5q-26 14 -38.5 20t-25.5 6q-49 0 -64 -62q-3 -12 -9 -17t-17 -5h-155q-11 0 -17 6.5
t-5 18.5q13 90 52 160t100.5 109.5t140.5 39.5q44 0 78 -13.5t76 -37.5q23 -14 37.5 -20.5t26.5 -6.5q26 0 41 15.5t22 44.5q4 22 25 22h155q11 0 17 -8.5t4 -23.5q-23 -143 -95.5 -221.5t-184.5 -78.5q-50 0 -86 13.5z" />
    <glyph glyph-name="itilde" unicode="&#x129;" horiz-adv-x="556" 
d="M479.5 1121q-29.5 13 -64.5 37q-20 15 -33 21.5t-26 6.5q-19 0 -34 -16.5t-22 -45.5q-3 -12 -9 -17t-17 -5h-145q-12 0 -17.5 6.5t-3.5 18.5q14 102 51 171.5t89 103.5t110 34q40 0 70 -13.5t62 -36.5q22 -15 34.5 -21.5t25.5 -6.5q19 0 34.5 15t22.5 45q2 11 8 16.5
t17 5.5h145q9 0 14 -8.5t5 -24.5q0 -12 -1 -18q-25 -146 -90.5 -213.5t-152.5 -67.5q-43 0 -72.5 13zM-28 0q-12 0 -18 7t-3 19l120 470l108 513q3 21 26 21h381q12 0 18 -7t3 -19l-130 -508l-97 -475q-4 -21 -26 -21h-382z" />
    <glyph glyph-name="Imacron" unicode="&#x12a;" horiz-adv-x="606" 
d="M-16 0q-10 0 -15.5 5t-5.5 13q0 5 1 8l167 660l146 693q4 21 26 21h401q10 0 15.5 -5t5.5 -13q0 -5 -1 -8l-174 -688l-139 -665q-4 -21 -26 -21h-401zM195 1490q-12 0 -17 7t-3 19l48 203q3 21 25 21h667q12 0 17 -7t3 -19l-47 -203q-4 -21 -26 -21h-667z" />
    <glyph glyph-name="imacron" unicode="&#x12b;" horiz-adv-x="556" 
d="M136 1120q-12 0 -17 7t-3 19l48 203q3 21 25 21h567q12 0 17 -7t3 -19l-47 -203q-4 -21 -26 -21h-567zM-28 0q-12 0 -18 7t-3 19l120 470l108 513q3 21 26 21h381q12 0 18 -7t3 -19l-130 -508l-97 -475q-4 -21 -26 -21h-382z" />
    <glyph glyph-name="Ibreve" unicode="&#x12c;" horiz-adv-x="606" 
d="M-16 0q-10 0 -15.5 5t-5.5 13q0 5 1 8l167 660l146 693q4 21 26 21h401q10 0 15.5 -5t5.5 -13q0 -5 -1 -8l-174 -688l-139 -665q-4 -21 -26 -21h-401zM364.5 1510.5q-83.5 40.5 -128.5 112.5t-45 162q0 11 2 35q1 22 24 22h220q22 0 24 -24q0 -48 30.5 -76t88.5 -28
q55 0 93 29t55 79q7 20 26 20h220q13 0 19 -6t4 -16q-20 -101 -79 -180.5t-151.5 -124.5t-208.5 -45q-110 0 -193.5 40.5z" />
    <glyph glyph-name="ibreve" unicode="&#x12d;" horiz-adv-x="556" 
d="M282 1138q-70 38 -108 106.5t-38 158.5q0 23 3 47q1 22 24 22h200q23 0 23 -24q-2 -53 19.5 -81.5t66.5 -28.5q91 0 122 113q8 21 26 21h199q13 0 18.5 -7t3.5 -19q-22 -102 -75.5 -180t-135 -122t-184.5 -44q-94 0 -164 38zM-28 0q-12 0 -18 7t-3 19l120 470l108 513
q3 21 26 21h381q12 0 18 -7t3 -19l-130 -508l-97 -475q-4 -21 -26 -21h-382z" />
    <glyph glyph-name="Iogonek" unicode="&#x12e;" horiz-adv-x="606" 
d="M704 1400q10 0 15.5 -5t5.5 -13q0 -5 -1 -8l-174 -688l-139 -665q-4 -21 -26 -21h-188q-22 -25 -40 -65.5t-18 -72.5q0 -27 20.5 -41.5t67.5 -14.5h86q12 0 17 -7t3 -19l-51 -219q-4 -21 -26 -21h-133q-103 0 -174 29.5t-106.5 81.5t-35.5 119q0 75 42.5 135.5
t117.5 100.5q-7 9 -3 20l167 660l146 693q4 21 26 21h401z" />
    <glyph glyph-name="iogonek" unicode="&#x12f;" horiz-adv-x="556" 
d="M669 1400q12 0 17.5 -7t2.5 -19l-61 -260q-4 -21 -25 -21h-378q-13 0 -18.5 7t-2.5 19l61 260q5 21 25 21h379zM586 1030q12 0 18 -7t3 -19l-130 -508l-97 -475q-4 -21 -26 -21h-169q-22 -25 -40 -65.5t-18 -72.5q0 -27 20.5 -41.5t67.5 -14.5h86q12 0 17 -7t3 -19
l-51 -219q-4 -21 -26 -21h-133q-103 0 -174 29.5t-106.5 81.5t-35.5 119q0 75 42.5 135.5t117.5 100.5q-7 7 -4 20l120 470l108 513q3 21 26 21h381z" />
    <glyph glyph-name="Idotaccent" unicode="&#x130;" horiz-adv-x="606" 
d="M-16 0q-10 0 -15.5 5t-5.5 13q0 5 1 8l167 660l146 693q4 21 26 21h401q10 0 15.5 -5t5.5 -13q0 -5 -1 -8l-174 -688l-139 -665q-4 -21 -26 -21h-401zM334 1463q-13 0 -18.5 7t-2.5 19l61 260q4 21 25 21h380q12 0 17.5 -7t2.5 -19l-61 -260q-4 -21 -25 -21h-379z" />
    <glyph glyph-name="dotlessi" unicode="&#x131;" horiz-adv-x="556" 
d="M-28 0q-12 0 -18 7t-3 19l120 470l108 513q3 21 26 21h381q12 0 18 -7t3 -19l-130 -508l-97 -475q-4 -21 -26 -21h-382z" />
    <glyph glyph-name="IJ" unicode="&#x132;" horiz-adv-x="1821" 
d="M-16 0q-10 0 -15.5 5t-5.5 13q0 5 1 8l167 660l146 693q4 21 26 21h401q10 0 15.5 -5t5.5 -13q0 -5 -1 -8l-174 -688l-139 -665q-4 -21 -26 -21h-401zM862.5 20.5q-111.5 52.5 -169.5 149.5t-58 229q0 42 6 87q3 22 25 22h385q24 0 22 -26q-3 -30 -3 -56
q0 -65 21.5 -96.5t66.5 -31.5q49 0 83 45.5t61 164.5l103 444l88 427q3 21 26 21h413q10 0 15.5 -5t5.5 -13q0 -5 -1 -8l-107 -422l-102 -448q-63 -274 -215.5 -405t-397.5 -131q-156 0 -267.5 52.5z" />
    <glyph glyph-name="ij" unicode="&#x133;" horiz-adv-x="1112" 
d="M-28 0q-12 0 -18 7t-3 19l120 470l108 513q3 21 26 21h381q12 0 18 -7t3 -19l-130 -508l-97 -475q-4 -21 -26 -21h-382zM225 1093q-13 0 -18.5 7t-2.5 19l61 260q4 21 25 21h380q12 0 17.5 -7t2.5 -19l-61 -260q-4 -21 -25 -21h-379zM450 -340q-12 0 -18 7t-3 19l172 692
l134 631q3 21 26 21h381q12 0 18 -7t3 -19l-156 -626l-149 -697q-4 -21 -26 -21h-382zM782 1093q-13 0 -18.5 7t-2.5 19l61 260q4 21 25 21h380q12 0 17.5 -7t2.5 -19l-61 -260q-4 -21 -25 -21h-379z" />
    <glyph glyph-name="Jcircumflex" unicode="&#x134;" horiz-adv-x="1215" 
d="M256.5 20.5q-111.5 52.5 -169.5 149.5t-58 229q0 42 6 87q3 22 25 22h385q24 0 22 -26q-3 -30 -3 -56q0 -65 21.5 -96.5t66.5 -31.5q49 0 83 45.5t61 164.5l103 444l88 427q3 21 26 21h413q10 0 15.5 -5t5.5 -13q0 -5 -1 -8l-107 -422l-102 -448q-63 -274 -215.5 -405
t-397.5 -131q-156 0 -267.5 52.5zM756 1624q-2 4 -2 12q0 13 11 20l356 245q12 9 29 9h132q17 0 29 -11l273 -246q9 -9 9 -18q0 -7 -5 -15l-92 -147q-8 -12 -18 -12q-7 0 -14 4l-288 161l-328 -161q-6 -3 -12 -3q-13 0 -19 15z" />
    <glyph glyph-name="jcircumflex" unicode="&#x135;" horiz-adv-x="556" 
d="M94 1239q-3 8 -3 13q0 11 10 20l296 257q12 11 29 11h131q17 0 29 -13l215 -253q7 -8 7 -17q0 -8 -6 -16l-94 -137q-8 -12 -18 -12q-7 0 -15 6l-225 160l-268 -161q-7 -4 -14 -4q-12 0 -18 15zM-106 -340q-12 0 -18 7t-3 19l172 692l134 631q3 21 26 21h381q12 0 18 -7
t3 -19l-156 -626l-149 -697q-4 -21 -26 -21h-382z" />
    <glyph glyph-name="uni0136" unicode="&#x136;" horiz-adv-x="1399" 
d="M269 1379q4 21 26 21h383q12 0 17.5 -7t2.5 -19l-108 -441l406 454q12 13 29 13h460q9 0 14.5 -3.5t5.5 -9.5q0 -7 -9 -16l-594 -577l371 -766q3 -6 3 -12q0 -7 -5.5 -11.5t-15.5 -4.5h-431q-20 0 -28 18l-209 468l-129 -126l-73 -339q-4 -21 -26 -21h-385q-10 0 -15.5 5
t-5.5 13q0 5 1 8l165 654zM232 -578q-10 0 -15.5 4.5t-5.5 11.5q0 5 3 11l86 195l60 257q3 21 25 21h367q12 0 17 -7t3 -19l-54 -234q-4 -16 -17 -26l-262 -204q-13 -10 -29 -10h-178z" />
    <glyph glyph-name="uni0137" unicode="&#x137;" horiz-adv-x="1173" 
d="M1197 1030q20 0 20 -13q0 -7 -9 -16l-357 -341l183 -634q1 -3 1 -8q0 -8 -5.5 -13t-15.5 -5h-418q-22 0 -25 21l-58 249l-16 73l-78 -81l-52 -241q-4 -21 -26 -21h-370q-12 0 -18 7t-3 19l170 680l144 673q3 21 26 21h369q12 0 18 -7t3 -19l-159 -645l-1 -5l257 293
q10 13 29 13h391zM109 -578q-10 0 -15.5 4.5t-5.5 11.5q0 5 3 11l86 195l60 257q3 21 25 21h367q12 0 17 -7t3 -19l-54 -234q-4 -16 -17 -26l-262 -204q-13 -10 -29 -10h-178z" />
    <glyph glyph-name="Lacute" unicode="&#x139;" horiz-adv-x="1078" 
d="M-26 0q-12 0 -17.5 7t-2.5 19l163 638l150 715q4 21 26 21h405q12 0 17.5 -7t2.5 -19l-170 -682l-77 -380h489q12 0 17 -7t3 -19l-61 -265q-4 -21 -26 -21h-919zM324 1456q-3 -1 -7 -1q-17 0 -20 19l-33 168q-1 2 -1 7q0 16 17 22l543 190q6 2 10 2q8 0 13.5 -5t6.5 -14
l51 -261q3 -23 -19 -28z" />
    <glyph glyph-name="lacute" unicode="&#x13a;" horiz-adv-x="545" 
d="M-28 0q-12 0 -18 7t-3 19l168 666l146 687q3 21 26 21h369q12 0 18 -7t3 -19l-172 -684l-141 -669q-4 -21 -26 -21h-370zM304 1456q-3 -1 -7 -1q-17 0 -20 19l-33 168q-1 2 -1 7q0 16 17 22l543 190q6 2 10 2q8 0 13.5 -5t6.5 -14l51 -261q3 -23 -19 -28z" />
    <glyph glyph-name="uni013B" unicode="&#x13b;" horiz-adv-x="1078" 
d="M-26 0q-12 0 -17.5 7t-2.5 19l163 638l150 715q4 21 26 21h405q12 0 17.5 -7t2.5 -19l-170 -682l-77 -380h489q12 0 17 -7t3 -19l-61 -265q-4 -21 -26 -21h-919zM78 -578q-10 0 -15.5 4.5t-5.5 11.5q0 5 3 11l86 195l60 257q3 21 25 21h367q12 0 17 -7t3 -19l-54 -234
q-4 -16 -17 -26l-262 -204q-13 -10 -29 -10h-178z" />
    <glyph glyph-name="uni013C" unicode="&#x13c;" horiz-adv-x="545" 
d="M-28 0q-12 0 -18 7t-3 19l168 666l146 687q3 21 26 21h369q12 0 18 -7t3 -19l-172 -684l-141 -669q-4 -21 -26 -21h-370zM-204 -578q-10 0 -15.5 4.5t-5.5 11.5q0 5 3 11l86 195l60 257q3 21 25 21h367q12 0 17 -7t3 -19l-54 -234q-4 -16 -17 -26l-262 -204
q-13 -10 -29 -10h-178z" />
    <glyph glyph-name="Lcaron" unicode="&#x13d;" horiz-adv-x="1078" 
d="M-26 0q-12 0 -17.5 7t-2.5 19l163 638l150 715q4 21 26 21h405q12 0 17.5 -7t2.5 -19l-170 -682l-77 -380h489q12 0 17 -7t3 -19l-61 -265q-4 -21 -26 -21h-919zM954 888q-7 -18 -28 -18h-212q-12 0 -17.5 7t-2.5 19l148 484q6 20 27 20h281q10 0 15.5 -4.5t5.5 -11.5
q0 -5 -3 -11z" />
    <glyph glyph-name="lcaron" unicode="&#x13e;" horiz-adv-x="545" 
d="M-28 0q-12 0 -18 7t-3 19l168 666l146 687q3 21 26 21h369q12 0 18 -7t3 -19l-172 -684l-141 -669q-4 -21 -26 -21h-370zM926 1097q-7 -18 -28 -18h-212q-12 0 -17.5 7t-2.5 19l148 484q6 20 27 20h281q10 0 15.5 -4.5t5.5 -11.5q0 -5 -3 -11z" />
    <glyph glyph-name="Ldot" unicode="&#x13f;" horiz-adv-x="1078" 
d="M-26 0q-12 0 -17.5 7t-2.5 19l163 638l150 715q4 21 26 21h405q12 0 17.5 -7t2.5 -19l-170 -682l-77 -380h489q12 0 17 -7t3 -19l-61 -265q-4 -21 -26 -21h-919zM660 593q-13 0 -18.5 7t-2.5 19l61 260q4 21 25 21h380q12 0 17.5 -7t2.5 -19l-61 -260q-4 -21 -25 -21
h-379z" />
    <glyph glyph-name="ldot" unicode="&#x140;" horiz-adv-x="826" 
d="M-28 0q-12 0 -18 7t-3 19l168 666l146 687q3 21 26 21h369q12 0 18 -7t3 -19l-172 -684l-141 -669q-4 -21 -26 -21h-370zM533 488q-12 0 -17.5 7t-2.5 19l65 283q5 21 25 21h301q21 0 21 -18q0 -5 -1 -8l-65 -283q-4 -21 -25 -21h-301z" />
    <glyph glyph-name="Lslash" unicode="&#x141;" horiz-adv-x="1094" 
d="M976 312q12 0 17 -7t3 -19l-61 -265q-4 -21 -26 -21h-919q-12 0 -17.5 7t-2.5 19l115 451l-38 -12q-3 -1 -8 -1q-9 0 -13 6.5t-3 17.5l59 258q3 18 22 24l54 16l125 593q4 21 26 21h405q12 0 17.5 -7t2.5 -19l-111 -446l186 56q8 2 10 2q9 0 12.5 -6.5t1.5 -17.5
l-60 -258q-5 -18 -23 -23l-201 -62l-62 -307h489z" />
    <glyph glyph-name="lslash" unicode="&#x142;" horiz-adv-x="554" 
d="M664 1400q12 0 18 -7t3 -19l-151 -602l17 8q6 3 12 3q8 0 11.5 -6t1.5 -17l-60 -259q-4 -17 -20 -24l-31 -15l-93 -441q-4 -21 -26 -21h-370q-12 0 -18 7t-3 19l55 218l-8 -4q-7 -3 -13 -3q-8 0 -11.5 6t-1.5 17l60 259q4 16 20 24l33 16l34 133l146 687q3 21 26 21h369z
" />
    <glyph glyph-name="Nacute" unicode="&#x143;" horiz-adv-x="1439" 
d="M-26 0q-12 0 -17.5 7t-2.5 19l165 662l148 691q4 21 26 21h442q22 0 27 -20l240 -770l22 132l150 637q3 21 25 21h347q12 0 17.5 -7t2.5 -19l-172 -686l-139 -667q-4 -21 -26 -21h-456q-21 0 -26 20l-229 766l-26 -154l-143 -611q-4 -21 -26 -21h-349zM750 1456
q-3 -1 -7 -1q-17 0 -20 19l-33 168q-1 2 -1 7q0 16 17 22l543 190q6 2 10 2q8 0 13.5 -5t6.5 -14l51 -261q3 -23 -19 -28z" />
    <glyph glyph-name="nacute" unicode="&#x144;" horiz-adv-x="1222" 
d="M-29 0q-12 0 -18 7t-3 19l124 494l110 489q3 21 25 21h355q12 0 18 -7t3 -19l-18 -74q67 58 147.5 91t170.5 33q91 0 163 -34.5t113.5 -102t41.5 -162.5q0 -57 -16 -121l-49 -198l-87 -415q-4 -21 -26 -21h-380q-12 0 -17.5 7t-2.5 19l92 360l48 226q6 27 6 51
q0 41 -20.5 65t-63.5 24q-155 0 -221 -316l-12 -56l-75 -359q-4 -21 -26 -21h-382zM565 1086q-3 -1 -7 -1q-17 0 -20 19l-33 168q-1 2 -1 7q0 16 17 22l543 190q6 2 10 2q8 0 13.5 -5t6.5 -14l51 -261q3 -23 -19 -28z" />
    <glyph glyph-name="uni0145" unicode="&#x145;" horiz-adv-x="1439" 
d="M-26 0q-12 0 -17.5 7t-2.5 19l165 662l148 691q4 21 26 21h442q22 0 27 -20l240 -770l22 132l150 637q3 21 25 21h347q12 0 17.5 -7t2.5 -19l-172 -686l-139 -667q-4 -21 -26 -21h-456q-21 0 -26 20l-229 766l-26 -154l-143 -611q-4 -21 -26 -21h-349zM242 -578
q-10 0 -15.5 4.5t-5.5 11.5q0 5 3 11l86 195l60 257q3 21 25 21h367q12 0 17 -7t3 -19l-54 -234q-4 -16 -17 -26l-262 -204q-13 -10 -29 -10h-178z" />
    <glyph glyph-name="uni0146" unicode="&#x146;" horiz-adv-x="1222" 
d="M-29 0q-12 0 -18 7t-3 19l124 494l110 489q3 21 25 21h355q12 0 18 -7t3 -19l-18 -74q67 58 147.5 91t170.5 33q91 0 163 -34.5t113.5 -102t41.5 -162.5q0 -57 -16 -121l-49 -198l-87 -415q-4 -21 -26 -21h-380q-12 0 -17.5 7t-2.5 19l92 360l48 226q6 27 6 51
q0 41 -20.5 65t-63.5 24q-155 0 -221 -316l-12 -56l-75 -359q-4 -21 -26 -21h-382zM149 -578q-10 0 -15.5 4.5t-5.5 11.5q0 5 3 11l86 195l60 257q3 21 25 21h367q12 0 17 -7t3 -19l-54 -234q-4 -16 -17 -26l-262 -204q-13 -10 -29 -10h-178z" />
    <glyph glyph-name="Ncaron" unicode="&#x147;" horiz-adv-x="1439" 
d="M-26 0q-12 0 -17.5 7t-2.5 19l165 662l148 691q4 21 26 21h442q22 0 27 -20l240 -770l22 132l150 637q3 21 25 21h347q12 0 17.5 -7t2.5 -19l-172 -686l-139 -667q-4 -21 -26 -21h-456q-21 0 -26 20l-229 766l-26 -154l-143 -611q-4 -21 -26 -21h-349zM588 1722
q-9 8 -9 17q0 7 5 15l92 147q8 12 18 12q7 0 14 -4l288 -161l328 161q8 3 13 3q13 0 18 -14l61 -148q3 -6 3 -12q0 -11 -12 -20l-355 -245q-15 -9 -30 -9h-132q-17 0 -28 11z" />
    <glyph glyph-name="ncaron" unicode="&#x148;" horiz-adv-x="1222" 
d="M-29 0q-12 0 -18 7t-3 19l124 494l110 489q3 21 25 21h355q12 0 18 -7t3 -19l-18 -74q67 58 147.5 91t170.5 33q91 0 163 -34.5t113.5 -102t41.5 -162.5q0 -57 -16 -121l-49 -198l-87 -415q-4 -21 -26 -21h-380q-12 0 -17.5 7t-2.5 19l92 360l48 226q6 27 6 51
q0 41 -20.5 65t-63.5 24q-155 0 -221 -316l-12 -56l-75 -359q-4 -21 -26 -21h-382zM403 1352q-9 8 -9 17q0 7 5 15l92 147q8 12 18 12q7 0 14 -4l288 -161l328 161q8 3 13 3q13 0 18 -14l61 -148q3 -6 3 -12q0 -11 -12 -20l-355 -245q-15 -9 -30 -9h-132q-17 0 -28 11z" />
    <glyph glyph-name="Eng" unicode="&#x14a;" horiz-adv-x="1437" 
d="M-26 0q-10 0 -15.5 5t-5.5 13q0 5 1 8l165 662l148 691q4 21 26 21h443q21 0 27 -18l259 -644l28 121l124 520q4 21 25 21h347q10 0 15.5 -5t5.5 -13q0 -5 -1 -8l-172 -686l-148 -690q-39 -186 -177 -273t-327 -87q-113 0 -208 17q-19 3 -19 20q0 5 1 8l55 243
q5 23 28 18q41 -10 101 -10q59 0 91.5 13.5t43.5 50.5l5 18l-318 796l-30 -180l-143 -611q-4 -21 -26 -21h-349z" />
    <glyph glyph-name="eng" unicode="&#x14b;" horiz-adv-x="1219" 
d="M491 -352q-57 6 -112 18q-23 6 -18 29l63 240q3 18 19 18q6 0 9 -1q52 -10 81 -10q41 0 61.5 17.5t32.5 66.5l138 586q6 27 6 52q0 41 -20 64.5t-62 23.5q-157 0 -223 -316l-12 -56l-75 -359q-4 -21 -26 -21h-382q-12 0 -18 7t-3 19l124 494l110 489q3 21 25 21h355
q12 0 18 -7t3 -19l-18 -74q64 59 145 91.5t172 32.5q92 0 164.5 -34.5t114 -101.5t41.5 -160q0 -53 -15 -116l-146 -644q-43 -190 -163.5 -273t-284.5 -83q-47 0 -104 6z" />
    <glyph glyph-name="Omacron" unicode="&#x14c;" horiz-adv-x="1605" 
d="M421.5 39.5q-153.5 75.5 -241 220t-87.5 344.5q0 217 103 408t292 307.5t435 116.5q194 0 347.5 -75.5t241 -219.5t87.5 -343q0 -217 -103 -409t-292.5 -308.5t-434.5 -116.5q-194 0 -347.5 75.5zM1003 371q84 85 121 206t37 233q0 154 -69.5 229t-186.5 75
q-132 0 -216 -85t-121 -206t-37 -233q0 -154 69.5 -229t186.5 -75q132 0 216 85zM696 1490q-12 0 -17 7t-3 19l48 203q3 21 25 21h667q12 0 17 -7t3 -19l-47 -203q-4 -21 -26 -21h-667z" />
    <glyph glyph-name="omacron" unicode="&#x14d;" horiz-adv-x="1239" 
d="M300.5 29.5q-117.5 55.5 -184.5 163t-67 259.5q0 163 77.5 301.5t220 220.5t328.5 82q149 0 266 -55t183.5 -162.5t66.5 -258.5q0 -164 -77.5 -302.5t-219.5 -221t-327 -82.5q-149 0 -266.5 55.5zM693 301q44 57 64 139t20 158q0 95 -31.5 141.5t-88.5 46.5
q-64 0 -107.5 -54.5t-65 -136.5t-21.5 -163q0 -188 118 -188q68 0 112 57zM428 1120q-12 0 -17 7t-3 19l48 203q3 21 25 21h667q12 0 17 -7t3 -19l-47 -203q-4 -21 -26 -21h-667z" />
    <glyph glyph-name="Obreve" unicode="&#x14e;" horiz-adv-x="1605" 
d="M421.5 39.5q-153.5 75.5 -241 220t-87.5 344.5q0 217 103 408t292 307.5t435 116.5q194 0 347.5 -75.5t241 -219.5t87.5 -343q0 -217 -103 -409t-292.5 -308.5t-434.5 -116.5q-194 0 -347.5 75.5zM1003 371q84 85 121 206t37 233q0 154 -69.5 229t-186.5 75
q-132 0 -216 -85t-121 -206t-37 -233q0 -154 69.5 -229t186.5 -75q132 0 216 85zM865.5 1510.5q-83.5 40.5 -128.5 112.5t-45 162q0 11 2 35q1 22 24 22h220q22 0 24 -24q0 -48 30.5 -76t88.5 -28q55 0 93 29t55 79q7 20 26 20h220q13 0 19 -6t4 -16q-20 -101 -79 -180.5
t-151.5 -124.5t-208.5 -45q-110 0 -193.5 40.5z" />
    <glyph glyph-name="obreve" unicode="&#x14f;" horiz-adv-x="1239" 
d="M300.5 29.5q-117.5 55.5 -184.5 163t-67 259.5q0 163 77.5 301.5t220 220.5t328.5 82q149 0 266 -55t183.5 -162.5t66.5 -258.5q0 -164 -77.5 -302.5t-219.5 -221t-327 -82.5q-149 0 -266.5 55.5zM693 301q44 57 64 139t20 158q0 95 -31.5 141.5t-88.5 46.5
q-64 0 -107.5 -54.5t-65 -136.5t-21.5 -163q0 -188 118 -188q68 0 112 57zM597.5 1140.5q-83.5 40.5 -128.5 112.5t-45 162q0 11 2 35q1 22 24 22h220q22 0 24 -24q0 -48 30.5 -76t88.5 -28q55 0 93 29t55 79q7 20 26 20h220q13 0 19 -6t4 -16q-20 -101 -79 -180.5
t-151.5 -124.5t-208.5 -45q-110 0 -193.5 40.5z" />
    <glyph glyph-name="Ohungarumlaut" unicode="&#x150;" horiz-adv-x="1605" 
d="M421.5 39.5q-153.5 75.5 -241 220t-87.5 344.5q0 217 103 408t292 307.5t435 116.5q194 0 347.5 -75.5t241 -219.5t87.5 -343q0 -217 -103 -409t-292.5 -308.5t-434.5 -116.5q-194 0 -347.5 75.5zM1003 371q84 85 121 206t37 233q0 154 -69.5 229t-186.5 75
q-132 0 -216 -85t-121 -206t-37 -233q0 -154 69.5 -229t186.5 -75q132 0 216 85zM856 1490q-8 -6 -15 -6q-9 0 -17 8l-81 82q-8 8 -8 17q0 7 7 16l328 372q7 9 16 9q10 0 17 -10l133 -164q6 -7 6 -15q0 -10 -10 -17zM1234 1474q-9 -7 -16 -7q-9 0 -16 9l-83 80q-8 8 -8 17
t7 16l330 372q7 9 16 9q10 0 17 -10l131 -160q6 -7 6 -14q0 -9 -10 -18z" />
    <glyph glyph-name="ohungarumlaut" unicode="&#x151;" horiz-adv-x="1239" 
d="M300.5 29.5q-117.5 55.5 -184.5 163t-67 259.5q0 163 77.5 301.5t220 220.5t328.5 82q149 0 266 -55t183.5 -162.5t66.5 -258.5q0 -164 -77.5 -302.5t-219.5 -221t-327 -82.5q-149 0 -266.5 55.5zM693 301q44 57 64 139t20 158q0 95 -31.5 141.5t-88.5 46.5
q-64 0 -107.5 -54.5t-65 -136.5t-21.5 -163q0 -188 118 -188q68 0 112 57zM588 1120q-8 -6 -15 -6q-9 0 -17 8l-81 82q-8 8 -8 17q0 7 7 16l328 372q7 9 16 9q10 0 17 -10l133 -164q6 -7 6 -15q0 -10 -10 -17zM966 1104q-9 -7 -16 -7q-9 0 -16 9l-83 80q-8 8 -8 17t7 16
l330 372q7 9 16 9q10 0 17 -10l131 -160q6 -7 6 -14q0 -9 -10 -18z" />
    <glyph glyph-name="OE" unicode="&#x152;" horiz-adv-x="2092" 
d="M760 0q-195 0 -346.5 71.5t-236.5 208t-85 326.5q0 207 100 389.5t285 293.5t429 111h1301q21 0 21 -18q0 -5 -1 -8l-61 -263q-4 -21 -25 -21h-608l-58 -204h544q21 0 21 -18q0 -5 -1 -8l-61 -263q-4 -21 -25 -21h-550l-50 -264h618q21 0 21 -18q0 -5 -1 -8l-61 -265
q-4 -21 -25 -21h-1145zM588 380q68 -70 192 -70h126l98 382l83 398h-195q-133 0 -216.5 -80.5t-119.5 -195t-36 -220.5q0 -144 68 -214z" />
    <glyph glyph-name="oe" unicode="&#x153;" horiz-adv-x="1918" 
d="M1658 996.5q108 -59.5 166 -165t58 -240.5q0 -71 -16 -144q-5 -21 -25 -21h-662v-7q5 -94 35.5 -134.5t87.5 -40.5q49 0 81.5 24t47.5 61q5 10 11 14.5t16 4.5h351q13 0 18.5 -7t2.5 -18q-24 -101 -92.5 -180t-176 -124t-245.5 -45q-120 0 -218.5 36t-165.5 106
q-77 -68 -177 -105t-217 -37q-140 0 -250.5 55.5t-174 163t-63.5 259.5q0 163 73.5 301.5t209 220.5t313.5 82q112 0 206 -36t158 -104q77 67 177 103.5t217 36.5q146 0 254 -59.5zM1468 650q3 62 -25 101t-87 39q-55 0 -93.5 -36.5t-59.5 -103.5h265zM694 301q44 57 64 139
t20 158q0 95 -31.5 141.5t-88.5 46.5q-64 0 -107.5 -54.5t-65 -136.5t-21.5 -163q0 -188 118 -188q68 0 112 57z" />
    <glyph glyph-name="Racute" unicode="&#x154;" horiz-adv-x="1408" 
d="M1339.5 690q-96.5 -127 -275.5 -184l204 -479q3 -6 3 -11q0 -7 -5.5 -11.5t-15.5 -4.5h-420q-19 0 -27 18l-153 376l-29 70h-122l-94 -443q-4 -21 -26 -21h-405q-10 0 -15.5 5t-5.5 13q0 5 1 8l163 652l150 701q4 21 26 21h621q267 0 394.5 -110.5t127.5 -299.5
q0 -173 -96.5 -300zM976.5 1059q-35.5 37 -116.5 37h-210l-82 -328h232q106 0 159 52.5t53 137.5q0 64 -35.5 101zM694 1456q-3 -1 -7 -1q-17 0 -20 19l-33 168q-1 2 -1 7q0 16 17 22l543 190q6 2 10 2q8 0 13.5 -5t6.5 -14l51 -261q3 -23 -19 -28z" />
    <glyph glyph-name="racute" unicode="&#x155;" horiz-adv-x="885" 
d="M-32 0q-10 0 -15.5 5t-5.5 13q0 5 1 8l123 480l104 503q3 21 26 21h368q12 0 17.5 -7t2.5 -19l-37 -132q79 82 171.5 123t192.5 41q8 0 24 -2q12 -1 16.5 -8.5t2.5 -18.5l-60 -261q-5 -21 -20 -21q-7 1 -17 1q-164 0 -275.5 -95.5t-147.5 -272.5l-73 -337q-4 -21 -26 -21
h-372zM394 1086q-3 -1 -7 -1q-17 0 -20 19l-33 168q-1 2 -1 7q0 16 17 22l543 190q6 2 10 2q8 0 13.5 -5t6.5 -14l51 -261q3 -23 -19 -28z" />
    <glyph glyph-name="uni0156" unicode="&#x156;" horiz-adv-x="1408" 
d="M1339.5 690q-96.5 -127 -275.5 -184l204 -479q3 -6 3 -11q0 -7 -5.5 -11.5t-15.5 -4.5h-420q-19 0 -27 18l-153 376l-29 70h-122l-94 -443q-4 -21 -26 -21h-405q-10 0 -15.5 5t-5.5 13q0 5 1 8l163 652l150 701q4 21 26 21h621q267 0 394.5 -110.5t127.5 -299.5
q0 -173 -96.5 -300zM976.5 1059q-35.5 37 -116.5 37h-210l-82 -328h232q106 0 159 52.5t53 137.5q0 64 -35.5 101zM246 -578q-10 0 -15.5 4.5t-5.5 11.5q0 5 3 11l86 195l60 257q3 21 25 21h367q12 0 17 -7t3 -19l-54 -234q-4 -16 -17 -26l-262 -204q-13 -10 -29 -10h-178z
" />
    <glyph glyph-name="uni0157" unicode="&#x157;" horiz-adv-x="885" 
d="M-32 0q-10 0 -15.5 5t-5.5 13q0 5 1 8l123 480l104 503q3 21 26 21h368q12 0 17.5 -7t2.5 -19l-37 -132q79 82 171.5 123t192.5 41q8 0 24 -2q12 -1 16.5 -8.5t2.5 -18.5l-60 -261q-5 -21 -20 -21q-7 1 -17 1q-164 0 -275.5 -95.5t-147.5 -272.5l-73 -337q-4 -21 -26 -21
h-372zM-198 -578q-10 0 -15.5 4.5t-5.5 11.5q0 5 3 11l86 195l60 257q3 21 25 21h367q12 0 17 -7t3 -19l-54 -234q-4 -16 -17 -26l-262 -204q-13 -10 -29 -10h-178z" />
    <glyph glyph-name="Rcaron" unicode="&#x158;" horiz-adv-x="1408" 
d="M1339.5 690q-96.5 -127 -275.5 -184l204 -479q3 -6 3 -11q0 -7 -5.5 -11.5t-15.5 -4.5h-420q-19 0 -27 18l-153 376l-29 70h-122l-94 -443q-4 -21 -26 -21h-405q-10 0 -15.5 5t-5.5 13q0 5 1 8l163 652l150 701q4 21 26 21h621q267 0 394.5 -110.5t127.5 -299.5
q0 -173 -96.5 -300zM976.5 1059q-35.5 37 -116.5 37h-210l-82 -328h232q106 0 159 52.5t53 137.5q0 64 -35.5 101zM532 1722q-9 8 -9 17q0 7 5 15l92 147q8 12 18 12q7 0 14 -4l288 -161l328 161q8 3 13 3q13 0 18 -14l61 -148q3 -6 3 -12q0 -11 -12 -20l-355 -245
q-15 -9 -30 -9h-132q-17 0 -28 11z" />
    <glyph glyph-name="rcaron" unicode="&#x159;" horiz-adv-x="885" 
d="M-32 0q-10 0 -15.5 5t-5.5 13q0 5 1 8l123 480l104 503q3 21 26 21h368q12 0 17.5 -7t2.5 -19l-37 -132q79 82 171.5 123t192.5 41q8 0 24 -2q12 -1 16.5 -8.5t2.5 -18.5l-60 -261q-5 -21 -20 -21q-7 1 -17 1q-164 0 -275.5 -95.5t-147.5 -272.5l-73 -337q-4 -21 -26 -21
h-372zM232 1352q-9 8 -9 17q0 7 5 15l92 147q8 12 18 12q7 0 14 -4l288 -161l328 161q8 3 13 3q13 0 18 -14l61 -148q3 -6 3 -12q0 -11 -12 -20l-355 -245q-15 -9 -30 -9h-132q-17 0 -28 11z" />
    <glyph glyph-name="Sacute" unicode="&#x15a;" horiz-adv-x="1438" 
d="M349 21q-153 57 -241 163.5t-88 248.5q0 10 6.5 15.5t17.5 5.5h397q21 0 24 -23q7 -70 73.5 -113.5t183.5 -43.5q85 0 138.5 28.5t53.5 87.5q0 42 -33.5 69.5t-85 44t-144.5 38.5q-150 36 -246 74.5t-166.5 121t-70.5 222.5q0 150 92.5 257.5t244 163t327.5 55.5
q174 0 314 -52t220 -148.5t80 -225.5q0 -11 -6.5 -16.5t-16.5 -5.5h-400q-11 0 -17 5.5t-8 17.5q-8 50 -60.5 79.5t-137.5 29.5q-79 0 -131.5 -22t-52.5 -72q0 -35 31.5 -59t80.5 -40t137 -38q154 -39 255 -79.5t175.5 -125.5t74.5 -226q0 -156 -91 -267.5t-245 -169
t-342 -57.5q-190 0 -343 57zM734 1460q-3 -1 -7 -1q-17 0 -20 19l-33 168q-1 2 -1 7q0 16 17 22l543 190q6 2 10 2q8 0 13.5 -5t6.5 -14l51 -261q3 -23 -19 -28z" />
    <glyph glyph-name="sacute" unicode="&#x15b;" horiz-adv-x="1152" 
d="M257 19q-123 45 -188 122t-72 174q-1 11 5.5 17t17.5 6h355q20 0 25 -23q13 -87 150 -87q55 0 80.5 16t25.5 44q0 24 -21.5 39.5t-55 26t-95.5 25.5q-113 27 -188 56.5t-130.5 94t-55.5 172.5q0 103 61.5 183.5t177 125.5t273.5 45q152 0 262 -42.5t169 -116.5t66 -169
q2 -24 -23 -24h-335q-11 0 -17 5.5t-8 17.5q-7 38 -36.5 60.5t-79.5 22.5q-47 0 -68.5 -16t-21.5 -42q0 -25 23 -42.5t58 -29t100 -27.5q109 -27 181 -56t125 -88t53 -157q0 -106 -64.5 -192t-181.5 -136t-270 -50q-174 0 -297 45zM528 1086q-3 -1 -7 -1q-17 0 -20 19
l-33 168q-1 2 -1 7q0 16 17 22l543 190q6 2 10 2q8 0 13.5 -5t6.5 -14l51 -261q3 -23 -19 -28z" />
    <glyph glyph-name="Scircumflex" unicode="&#x15c;" horiz-adv-x="1438" 
d="M349 21q-153 57 -241 163.5t-88 248.5q0 10 6.5 15.5t17.5 5.5h397q21 0 24 -23q7 -70 73.5 -113.5t183.5 -43.5q85 0 138.5 28.5t53.5 87.5q0 42 -33.5 69.5t-85 44t-144.5 38.5q-150 36 -246 74.5t-166.5 121t-70.5 222.5q0 150 92.5 257.5t244 163t327.5 55.5
q174 0 314 -52t220 -148.5t80 -225.5q0 -11 -6.5 -16.5t-16.5 -5.5h-400q-11 0 -17 5.5t-8 17.5q-8 50 -60.5 79.5t-137.5 29.5q-79 0 -131.5 -22t-52.5 -72q0 -35 31.5 -59t80.5 -40t137 -38q154 -39 255 -79.5t175.5 -125.5t74.5 -226q0 -156 -91 -267.5t-245 -169
t-342 -57.5q-190 0 -343 57zM542 1628q-2 4 -2 12q0 13 11 20l356 245q12 9 29 9h132q17 0 29 -11l273 -246q9 -9 9 -18q0 -7 -5 -15l-92 -147q-8 -12 -18 -12q-7 0 -14 4l-288 161l-328 -161q-6 -3 -12 -3q-13 0 -19 15z" />
    <glyph glyph-name="scircumflex" unicode="&#x15d;" horiz-adv-x="1152" 
d="M257 19q-123 45 -188 122t-72 174q-1 11 5.5 17t17.5 6h355q20 0 25 -23q13 -87 150 -87q55 0 80.5 16t25.5 44q0 24 -21.5 39.5t-55 26t-95.5 25.5q-113 27 -188 56.5t-130.5 94t-55.5 172.5q0 103 61.5 183.5t177 125.5t273.5 45q152 0 262 -42.5t169 -116.5t66 -169
q2 -24 -23 -24h-335q-11 0 -17 5.5t-8 17.5q-7 38 -36.5 60.5t-79.5 22.5q-47 0 -68.5 -16t-21.5 -42q0 -25 23 -42.5t58 -29t100 -27.5q109 -27 181 -56t125 -88t53 -157q0 -106 -64.5 -192t-181.5 -136t-270 -50q-174 0 -297 45zM336 1254q-2 4 -2 12q0 13 11 20l356 245
q12 9 29 9h132q17 0 29 -11l273 -246q9 -9 9 -18q0 -7 -5 -15l-92 -147q-8 -12 -18 -12q-7 0 -14 4l-288 161l-328 -161q-6 -3 -12 -3q-13 0 -19 15z" />
    <glyph glyph-name="Scedilla" unicode="&#x15e;" horiz-adv-x="1438" 
d="M1439.5 993.5q-6.5 -5.5 -16.5 -5.5h-400q-11 0 -17 5.5t-8 17.5q-8 50 -60.5 79.5t-137.5 29.5q-79 0 -131.5 -22t-52.5 -72q0 -35 31.5 -59t80.5 -40t137 -38q154 -39 255 -79.5t175.5 -125.5t74.5 -226q0 -143 -77 -249.5t-210.5 -167.5t-300.5 -74l-153 -327
q-8 -18 -29 -15l-329 45q-18 3 -18 16q0 6 4 13l170 297q-187 49 -297 163t-110 274q0 10 6.5 15.5t17.5 5.5h397q21 0 24 -23q7 -70 73.5 -113.5t183.5 -43.5q85 0 138.5 28.5t53.5 87.5q0 42 -33.5 69.5t-85 44t-144.5 38.5q-150 36 -246 74.5t-166.5 121t-70.5 222.5
q0 150 92.5 257.5t244 163t327.5 55.5q174 0 314 -52t220 -148.5t80 -225.5q0 -11 -6.5 -16.5z" />
    <glyph glyph-name="scedilla" unicode="&#x15f;" horiz-adv-x="1152" 
d="M1096 704h-335q-11 0 -17 5.5t-8 17.5q-7 38 -36.5 60.5t-79.5 22.5q-47 0 -68.5 -16t-21.5 -42q0 -25 23 -42.5t58 -29t100 -27.5q109 -27 181 -56t125 -88t53 -157q0 -95 -52 -174.5t-147.5 -131.5t-222.5 -67l-157 -337q-8 -18 -29 -15l-329 45q-18 3 -18 16q0 6 4 13
l175 306q-138 40 -213.5 121.5t-83.5 186.5q-1 11 5.5 17t17.5 6h355q20 0 25 -23q13 -87 150 -87q55 0 80.5 16t25.5 44q0 24 -21.5 39.5t-55 26t-95.5 25.5q-113 27 -188 56.5t-130.5 94t-55.5 172.5q0 103 61.5 183.5t177 125.5t273.5 45q152 0 262 -42.5t169 -116.5
t66 -169q2 -24 -23 -24z" />
    <glyph glyph-name="Scaron" unicode="&#x160;" horiz-adv-x="1438" 
d="M349 21q-153 57 -241 163.5t-88 248.5q0 10 6.5 15.5t17.5 5.5h397q21 0 24 -23q7 -70 73.5 -113.5t183.5 -43.5q85 0 138.5 28.5t53.5 87.5q0 42 -33.5 69.5t-85 44t-144.5 38.5q-150 36 -246 74.5t-166.5 121t-70.5 222.5q0 150 92.5 257.5t244 163t327.5 55.5
q174 0 314 -52t220 -148.5t80 -225.5q0 -11 -6.5 -16.5t-16.5 -5.5h-400q-11 0 -17 5.5t-8 17.5q-8 50 -60.5 79.5t-137.5 29.5q-79 0 -131.5 -22t-52.5 -72q0 -35 31.5 -59t80.5 -40t137 -38q154 -39 255 -79.5t175.5 -125.5t74.5 -226q0 -156 -91 -267.5t-245 -169
t-342 -57.5q-190 0 -343 57zM572 1726q-9 8 -9 17q0 7 5 15l92 147q8 12 18 12q7 0 14 -4l288 -161l328 161q8 3 13 3q13 0 18 -14l61 -148q3 -6 3 -12q0 -11 -12 -20l-355 -245q-15 -9 -30 -9h-132q-17 0 -28 11z" />
    <glyph glyph-name="scaron" unicode="&#x161;" horiz-adv-x="1152" 
d="M257 19q-123 45 -188 122t-72 174q-1 11 5.5 17t17.5 6h355q20 0 25 -23q13 -87 150 -87q55 0 80.5 16t25.5 44q0 24 -21.5 39.5t-55 26t-95.5 25.5q-113 27 -188 56.5t-130.5 94t-55.5 172.5q0 103 61.5 183.5t177 125.5t273.5 45q152 0 262 -42.5t169 -116.5t66 -169
q2 -24 -23 -24h-335q-11 0 -17 5.5t-8 17.5q-7 38 -36.5 60.5t-79.5 22.5q-47 0 -68.5 -16t-21.5 -42q0 -25 23 -42.5t58 -29t100 -27.5q109 -27 181 -56t125 -88t53 -157q0 -106 -64.5 -192t-181.5 -136t-270 -50q-174 0 -297 45zM366 1352q-9 8 -9 17q0 7 5 15l92 147
q8 12 18 12q7 0 14 -4l288 -161l328 161q8 3 13 3q13 0 18 -14l61 -148q3 -6 3 -12q0 -11 -12 -20l-355 -245q-15 -9 -30 -9h-132q-17 0 -28 11z" />
    <glyph glyph-name="uni0162" unicode="&#x162;" horiz-adv-x="1306" 
d="M1440 1400q12 0 17 -7t3 -19l-61 -263q-4 -21 -26 -21h-365l-98 -382l-143 -687q-4 -21 -26 -21h-25q0 -2 -2 -8l-163 -350q-8 -18 -29 -15l-329 45q-18 3 -18 16q0 6 4 13l171 299h-19q-12 0 -17.5 7t-3.5 19l173 682l79 382h-360q-12 0 -17 7t-3 19l62 263q3 21 25 21
h1171z" />
    <glyph glyph-name="uni0163" unicode="&#x163;" horiz-adv-x="890" 
d="M933 1030q12 0 17.5 -7t3.5 -19l-57 -243q-4 -21 -26 -21h-218l-81 -362q-5 -21 -5 -43q0 -37 18.5 -51t50.5 -14q57 0 119 18q3 1 9 1q19 0 15 -24l-50 -217q-5 -18 -23 -24q-64 -23 -119 -34l-162 -348q-8 -18 -29 -15l-329 45q-18 3 -18 16q0 6 4 13l185 323l3 5
q-53 32 -82 85.5t-29 127.5q0 47 14 108l93 390h-108q-12 0 -17.5 7t-3.5 19l58 243q3 21 25 21h114l55 237q3 21 25 21h368q12 0 17.5 -7t3.5 -19l-55 -232h214z" />
    <glyph glyph-name="Tcaron" unicode="&#x164;" horiz-adv-x="1306" 
d="M331 0q-12 0 -17.5 7t-3.5 19l173 682l79 382h-360q-12 0 -17 7t-3 19l62 263q3 21 25 21h1171q12 0 17 -7t3 -19l-61 -263q-4 -21 -26 -21h-365l-98 -382l-143 -687q-4 -21 -26 -21h-410zM500 1722q-9 8 -9 17q0 7 5 15l92 147q8 12 18 12q7 0 14 -4l288 -161l328 161
q8 3 13 3q13 0 18 -14l61 -148q3 -6 3 -12q0 -11 -12 -20l-355 -245q-15 -9 -30 -9h-132q-17 0 -28 11z" />
    <glyph glyph-name="tcaron" unicode="&#x165;" horiz-adv-x="890" 
d="M933 1030q12 0 17.5 -7t3.5 -19l-57 -243q-4 -21 -26 -21h-218l-81 -362q-5 -21 -5 -43q0 -37 18.5 -51t50.5 -14q57 0 119 18q3 1 9 1q19 0 15 -24l-50 -217q-5 -18 -23 -24q-134 -48 -244 -48q-149 0 -240.5 66.5t-91.5 199.5q0 47 14 108l93 390h-108q-12 0 -17.5 7
t-3.5 19l58 243q3 21 25 21h114l55 237q3 21 25 21h368q12 0 17.5 -7t3.5 -19l-55 -232h214zM1052 1097q-7 -18 -28 -18h-212q-12 0 -17.5 7t-2.5 19l148 484q6 20 27 20h281q10 0 15.5 -4.5t5.5 -11.5q0 -5 -3 -11z" />
    <glyph glyph-name="Tbar" unicode="&#x166;" horiz-adv-x="1306" 
d="M1440 1400q12 0 17 -7t3 -19l-61 -263q-4 -21 -26 -21h-365l-71 -274h199q12 0 17 -7t3 -19l-59 -261q-4 -21 -26 -21h-203l-101 -487q-4 -21 -26 -21h-410q-12 0 -17.5 7t-3.5 19l122 482h-194q-12 0 -17 7t-3 19l60 261q3 21 25 21h202l57 274h-360q-12 0 -17 7t-3 19
l62 263q3 21 25 21h1171z" />
    <glyph glyph-name="tbar" unicode="&#x167;" horiz-adv-x="890" 
d="M933 1030q12 0 17.5 -7t3.5 -19l-57 -243q-4 -21 -26 -21h-218l-18 -80h211q12 0 17 -7t3 -19l-51 -223q-4 -21 -26 -21h-214l-3 -12q-5 -21 -5 -43q0 -37 18.5 -51t50.5 -14q57 0 119 18q3 1 9 1q19 0 15 -24l-50 -217q-5 -18 -23 -24q-134 -48 -244 -48
q-149 0 -240.5 66.5t-91.5 199.5q0 47 14 108l10 40h-104q-12 0 -17 7t-3 19l52 223q3 21 25 21h111l19 80h-108q-12 0 -17.5 7t-3.5 19l58 243q3 21 25 21h114l55 237q3 21 25 21h368q12 0 17.5 -7t3.5 -19l-55 -232h214z" />
    <glyph glyph-name="Utilde" unicode="&#x168;" horiz-adv-x="1392" 
d="M336.5 17q-128.5 53 -197 154t-68.5 242q0 77 21 165l61 250l114 551q4 21 26 21h397q12 0 17.5 -7t2.5 -19l-138 -534l-59 -266q-15 -63 -15 -112q0 -81 42 -121.5t128 -40.5q92 0 145 49t81 165l77 316l114 549q4 21 26 21h391q10 0 15.5 -5t5.5 -13q0 -5 -1 -8
l-138 -546l-71 -318q-41 -184 -124 -304t-217.5 -181t-329.5 -61q-177 0 -305.5 53zM980 1491.5q-36 13.5 -78 38.5q-26 14 -38.5 20t-25.5 6q-49 0 -64 -62q-3 -12 -9 -17t-17 -5h-155q-11 0 -17 6.5t-5 18.5q13 90 52 160t100.5 109.5t140.5 39.5q44 0 78 -13.5t76 -37.5
q23 -14 37.5 -20.5t26.5 -6.5q26 0 41 15.5t22 44.5q4 22 25 22h155q11 0 17 -8.5t4 -23.5q-23 -143 -95.5 -221.5t-184.5 -78.5q-50 0 -86 13.5z" />
    <glyph glyph-name="utilde" unicode="&#x169;" horiz-adv-x="1226" 
d="M1255 1030q12 0 18 -7t3 -19l-124 -494l-109 -489q-4 -21 -26 -21h-355q-12 0 -17.5 7t-3.5 19l18 74q-67 -58 -147.5 -91t-170.5 -33q-91 0 -163 34.5t-113.5 102t-41.5 162.5q0 57 16 121l49 198l88 415q3 21 26 21h379q10 0 15.5 -5t5.5 -13q0 -5 -1 -8l-91 -360
l-49 -226q-6 -27 -6 -50q0 -42 20.5 -66t63.5 -24q156 0 222 316l12 56l74 359q4 21 26 21h382zM805 1121.5q-36 13.5 -78 38.5q-26 14 -38.5 20t-25.5 6q-49 0 -64 -62q-3 -12 -9 -17t-17 -5h-155q-11 0 -17 6.5t-5 18.5q13 90 52 160t100.5 109.5t140.5 39.5
q44 0 78 -13.5t76 -37.5q23 -14 37.5 -20.5t26.5 -6.5q26 0 41 15.5t22 44.5q4 22 25 22h155q11 0 17 -8.5t4 -23.5q-23 -143 -95.5 -221.5t-184.5 -78.5q-50 0 -86 13.5z" />
    <glyph glyph-name="Umacron" unicode="&#x16a;" horiz-adv-x="1392" 
d="M336.5 17q-128.5 53 -197 154t-68.5 242q0 77 21 165l61 250l114 551q4 21 26 21h397q12 0 17.5 -7t2.5 -19l-138 -534l-59 -266q-15 -63 -15 -112q0 -81 42 -121.5t128 -40.5q92 0 145 49t81 165l77 316l114 549q4 21 26 21h391q10 0 15.5 -5t5.5 -13q0 -5 -1 -8
l-138 -546l-71 -318q-41 -184 -124 -304t-217.5 -181t-329.5 -61q-177 0 -305.5 53zM594 1490q-12 0 -17 7t-3 19l48 203q3 21 25 21h667q12 0 17 -7t3 -19l-47 -203q-4 -21 -26 -21h-667z" />
    <glyph glyph-name="umacron" unicode="&#x16b;" horiz-adv-x="1226" 
d="M1255 1030q12 0 18 -7t3 -19l-124 -494l-109 -489q-4 -21 -26 -21h-355q-12 0 -17.5 7t-3.5 19l18 74q-67 -58 -147.5 -91t-170.5 -33q-91 0 -163 34.5t-113.5 102t-41.5 162.5q0 57 16 121l49 198l88 415q3 21 26 21h379q10 0 15.5 -5t5.5 -13q0 -5 -1 -8l-91 -360
l-49 -226q-6 -27 -6 -50q0 -42 20.5 -66t63.5 -24q156 0 222 316l12 56l74 359q4 21 26 21h382zM419 1120q-12 0 -17 7t-3 19l48 203q3 21 25 21h667q12 0 17 -7t3 -19l-47 -203q-4 -21 -26 -21h-667z" />
    <glyph glyph-name="Ubreve" unicode="&#x16c;" horiz-adv-x="1392" 
d="M336.5 17q-128.5 53 -197 154t-68.5 242q0 77 21 165l61 250l114 551q4 21 26 21h397q12 0 17.5 -7t2.5 -19l-138 -534l-59 -266q-15 -63 -15 -112q0 -81 42 -121.5t128 -40.5q92 0 145 49t81 165l77 316l114 549q4 21 26 21h391q10 0 15.5 -5t5.5 -13q0 -5 -1 -8
l-138 -546l-71 -318q-41 -184 -124 -304t-217.5 -181t-329.5 -61q-177 0 -305.5 53zM763.5 1510.5q-83.5 40.5 -128.5 112.5t-45 162q0 11 2 35q1 22 24 22h220q22 0 24 -24q0 -48 30.5 -76t88.5 -28q55 0 93 29t55 79q7 20 26 20h220q13 0 19 -6t4 -16q-20 -101 -79 -180.5
t-151.5 -124.5t-208.5 -45q-110 0 -193.5 40.5z" />
    <glyph glyph-name="ubreve" unicode="&#x16d;" horiz-adv-x="1226" 
d="M1255 1030q12 0 18 -7t3 -19l-124 -494l-109 -489q-4 -21 -26 -21h-355q-12 0 -17.5 7t-3.5 19l18 74q-67 -58 -147.5 -91t-170.5 -33q-91 0 -163 34.5t-113.5 102t-41.5 162.5q0 57 16 121l49 198l88 415q3 21 26 21h379q10 0 15.5 -5t5.5 -13q0 -5 -1 -8l-91 -360
l-49 -226q-6 -27 -6 -50q0 -42 20.5 -66t63.5 -24q156 0 222 316l12 56l74 359q4 21 26 21h382zM588.5 1140.5q-83.5 40.5 -128.5 112.5t-45 162q0 11 2 35q1 22 24 22h220q22 0 24 -24q0 -48 30.5 -76t88.5 -28q55 0 93 29t55 79q7 20 26 20h220q13 0 19 -6t4 -16
q-20 -101 -79 -180.5t-151.5 -124.5t-208.5 -45q-110 0 -193.5 40.5z" />
    <glyph glyph-name="Uring" unicode="&#x16e;" horiz-adv-x="1392" 
d="M336.5 17q-128.5 53 -197 154t-68.5 242q0 77 21 165l61 250l114 551q4 21 26 21h397q12 0 17.5 -7t2.5 -19l-138 -534l-59 -266q-15 -63 -15 -112q0 -81 42 -121.5t128 -40.5q92 0 145 49t81 165l77 316l114 549q4 21 26 21h391q10 0 15.5 -5t5.5 -13q0 -5 -1 -8
l-138 -546l-71 -318q-41 -184 -124 -304t-217.5 -181t-329.5 -61q-177 0 -305.5 53zM813.5 1493.5q-67.5 31.5 -107.5 89.5t-40 135q0 76 41.5 141.5t116 105t166.5 39.5q81 0 148.5 -31.5t107.5 -89.5t40 -135q0 -76 -41.5 -141.5t-116 -105t-166.5 -39.5
q-81 0 -148.5 31.5zM1047.5 1660.5q28.5 38.5 28.5 87.5q0 45 -26 70.5t-66 25.5q-35 0 -59.5 -19t-36.5 -48t-12 -59q0 -45 26.5 -70.5t65.5 -25.5q51 0 79.5 38.5z" />
    <glyph glyph-name="uring" unicode="&#x16f;" horiz-adv-x="1226" 
d="M1255 1030q12 0 18 -7t3 -19l-124 -494l-109 -489q-4 -21 -26 -21h-355q-12 0 -17.5 7t-3.5 19l18 74q-67 -58 -147.5 -91t-170.5 -33q-91 0 -163 34.5t-113.5 102t-41.5 162.5q0 57 16 121l49 198l88 415q3 21 26 21h379q10 0 15.5 -5t5.5 -13q0 -5 -1 -8l-91 -360
l-49 -226q-6 -27 -6 -50q0 -42 20.5 -66t63.5 -24q156 0 222 316l12 56l74 359q4 21 26 21h382zM638.5 1123.5q-67.5 31.5 -107.5 89.5t-40 135q0 76 41.5 141.5t116 105t166.5 39.5q81 0 148.5 -31.5t107.5 -89.5t40 -135q0 -76 -41.5 -141.5t-116 -105t-166.5 -39.5
q-81 0 -148.5 31.5zM872.5 1290.5q28.5 38.5 28.5 87.5q0 45 -26 70.5t-66 25.5q-35 0 -59.5 -19t-36.5 -48t-12 -59q0 -45 26.5 -70.5t65.5 -25.5q51 0 79.5 38.5z" />
    <glyph glyph-name="Uhungarumlaut" unicode="&#x170;" horiz-adv-x="1392" 
d="M336.5 17q-128.5 53 -197 154t-68.5 242q0 77 21 165l61 250l114 551q4 21 26 21h397q12 0 17.5 -7t2.5 -19l-138 -534l-59 -266q-15 -63 -15 -112q0 -81 42 -121.5t128 -40.5q92 0 145 49t81 165l77 316l114 549q4 21 26 21h391q10 0 15.5 -5t5.5 -13q0 -5 -1 -8
l-138 -546l-71 -318q-41 -184 -124 -304t-217.5 -181t-329.5 -61q-177 0 -305.5 53zM753 1490q-8 -6 -15 -6q-9 0 -17 8l-81 82q-8 8 -8 17q0 7 7 16l328 372q7 9 16 9q10 0 17 -10l133 -164q6 -7 6 -15q0 -10 -10 -17zM1131 1474q-9 -7 -16 -7q-9 0 -16 9l-83 80
q-8 8 -8 17t7 16l330 372q7 9 16 9q10 0 17 -10l131 -160q6 -7 6 -14q0 -9 -10 -18z" />
    <glyph glyph-name="uhungarumlaut" unicode="&#x171;" horiz-adv-x="1226" 
d="M1255 1030q12 0 18 -7t3 -19l-124 -494l-109 -489q-4 -21 -26 -21h-355q-12 0 -17.5 7t-3.5 19l18 74q-67 -58 -147.5 -91t-170.5 -33q-91 0 -163 34.5t-113.5 102t-41.5 162.5q0 57 16 121l49 198l88 415q3 21 26 21h379q10 0 15.5 -5t5.5 -13q0 -5 -1 -8l-91 -360
l-49 -226q-6 -27 -6 -50q0 -42 20.5 -66t63.5 -24q156 0 222 316l12 56l74 359q4 21 26 21h382zM578 1120q-8 -6 -15 -6q-9 0 -17 8l-81 82q-8 8 -8 17q0 7 7 16l328 372q7 9 16 9q10 0 17 -10l133 -164q6 -7 6 -15q0 -10 -10 -17zM956 1104q-9 -7 -16 -7q-9 0 -16 9l-83 80
q-8 8 -8 17t7 16l330 372q7 9 16 9q10 0 17 -10l131 -160q6 -7 6 -14q0 -9 -10 -18z" />
    <glyph glyph-name="Uogonek" unicode="&#x172;" horiz-adv-x="1392" 
d="M1502 1400q10 0 15.5 -5t5.5 -13q0 -5 -1 -8l-138 -546l-71 -318q-59 -263 -206 -398t-409 -147q-15 -24 -24.5 -52t-9.5 -51q0 -27 20.5 -41.5t67.5 -14.5h86q12 0 17 -7t3 -19l-51 -219q-4 -21 -26 -21h-133q-103 0 -174 29.5t-106.5 81.5t-35.5 119q0 64 32 118t89 94
q-182 38 -282 149t-100 282q0 77 21 165l61 250l114 551q4 21 26 21h397q12 0 17.5 -7t2.5 -19l-138 -534l-59 -266q-15 -63 -15 -112q0 -81 42 -121.5t128 -40.5q92 0 145 49t81 165l77 316l114 549q4 21 26 21h391z" />
    <glyph glyph-name="uogonek" unicode="&#x173;" horiz-adv-x="1226" 
d="M1255 1030q12 0 18 -7t3 -19l-124 -494l-109 -489q-4 -21 -26 -21h-142q-22 -25 -40 -65.5t-18 -72.5q0 -27 20.5 -41.5t67.5 -14.5h86q12 0 17 -7t3 -19l-51 -219q-5 -21 -26 -21h-133q-103 0 -174 29.5t-106.5 81.5t-35.5 119q0 75 42.5 135.5t117.5 100.5q-7 9 -4 20
l18 74q-67 -58 -147.5 -91t-170.5 -33q-91 0 -163 34.5t-113.5 102t-41.5 162.5q0 57 16 121l49 198l88 415q3 21 26 21h379q10 0 15.5 -5t5.5 -13q0 -5 -1 -8l-91 -360l-49 -226q-6 -27 -6 -50q0 -42 20.5 -66t63.5 -24q156 0 222 316l12 56l74 359q4 21 26 21h382z" />
    <glyph glyph-name="Wcircumflex" unicode="&#x174;" horiz-adv-x="1973" 
d="M236 0q-24 0 -24 24l22 1353q0 11 6.5 17t17.5 6h354q25 0 23 -24l-43 -786l352 792q9 18 28 18h385q23 0 23 -23l-2 -789l315 794q6 18 27 18h396q10 0 15.5 -4.5t5.5 -11.5q0 -5 -3 -11l-608 -1355q-7 -18 -27 -18h-439q-24 0 -24 24v718l-334 -725q-7 -17 -27 -17
h-439zM800 1624q-2 4 -2 12q0 13 11 20l356 245q12 9 29 9h132q17 0 29 -11l273 -246q9 -9 9 -18q0 -7 -5 -15l-92 -147q-8 -12 -18 -12q-7 0 -14 4l-288 161l-328 -161q-6 -3 -12 -3q-13 0 -19 15z" />
    <glyph glyph-name="wcircumflex" unicode="&#x175;" horiz-adv-x="1620" 
d="M157 0q-23 0 -23 24l16 983q0 11 6.5 17t16.5 6h333q12 0 18.5 -7t4.5 -18l-67 -553l240 560q8 18 27 18h390q26 0 24 -24l-27 -540l198 545q7 19 28 19h337q10 0 15.5 -4.5t5.5 -11.5q0 -6 -3 -12l-449 -984q-8 -18 -27 -18h-392q-23 0 -23 24l6 558l-237 -564
q-7 -18 -27 -18h-391zM562 1254q-2 4 -2 12q0 13 11 20l356 245q12 9 29 9h132q17 0 29 -11l273 -246q9 -9 9 -18q0 -7 -5 -15l-92 -147q-8 -12 -18 -12q-7 0 -14 4l-288 161l-328 -161q-6 -3 -12 -3q-13 0 -19 15z" />
    <glyph glyph-name="Ycircumflex" unicode="&#x176;" horiz-adv-x="1393" 
d="M201 1374q-1 3 -1 8q0 8 5.5 13t15.5 5h411q21 0 26 -21l92 -517l340 523q10 15 28 15h453q9 0 14.5 -4t5.5 -10q0 -7 -6 -15l-687 -935l-91 -415q-4 -21 -26 -21h-400q-12 0 -17.5 7t-3.5 19l98 402zM512 1624q-2 4 -2 12q0 13 11 20l356 245q12 9 29 9h132q17 0 29 -11
l273 -246q9 -9 9 -18q0 -7 -5 -15l-92 -147q-8 -12 -18 -12q-7 0 -14 4l-288 161l-328 -161q-6 -3 -12 -3q-13 0 -19 15z" />
    <glyph glyph-name="ycircumflex" unicode="&#x177;" horiz-adv-x="1208" 
d="M170 -340q-10 0 -15 4t-5 11q0 6 4 13l136 248l-166 1069l-1 6q0 8 6 13.5t16 5.5h385q23 0 24 -22l50 -568l286 573q7 17 27 17h379q10 0 15 -4t5 -11q0 -6 -4 -13l-755 -1326q-8 -16 -28 -16h-359zM360 1254q-2 4 -2 12q0 13 11 20l356 245q12 9 29 9h132q17 0 29 -11
l273 -246q9 -9 9 -18q0 -7 -5 -15l-92 -147q-8 -12 -18 -12q-7 0 -14 4l-288 161l-328 -161q-6 -3 -12 -3q-13 0 -19 15z" />
    <glyph glyph-name="Ydieresis" unicode="&#x178;" horiz-adv-x="1393" 
d="M201 1374q-1 3 -1 8q0 8 5.5 13t15.5 5h411q21 0 26 -21l92 -517l340 523q10 15 28 15h453q9 0 14.5 -4t5.5 -10q0 -7 -6 -15l-687 -935l-91 -415q-4 -21 -26 -21h-400q-12 0 -17.5 7t-3.5 19l98 402zM546 1460q-12 0 -17 7t-3 19l62 263q3 21 25 21h297q12 0 17 -7
t3 -19l-61 -263q-5 -21 -26 -21h-297zM946 1460q-12 0 -17 7t-3 19l62 263q3 21 25 21h297q12 0 17 -7t3 -19l-61 -263q-4 -21 -26 -21h-297z" />
    <glyph glyph-name="Zacute" unicode="&#x179;" horiz-adv-x="1332" 
d="M-30 0q-12 0 -17 7t-3 19l69 301q3 15 15 26l844 737h-602q-12 0 -17 7t-3 19l62 263q3 21 25 21h1111q12 0 17 -7t3 -19l-72 -312q-4 -16 -16 -27l-818 -723h626q12 0 17 -7t3 -19l-61 -265q-4 -21 -26 -21h-1157zM688 1456q-3 -1 -7 -1q-17 0 -20 19l-33 168q-1 2 -1 7
q0 16 17 22l543 190q6 2 10 2q8 0 13.5 -5t6.5 -14l51 -261q3 -23 -19 -28z" />
    <glyph glyph-name="zacute" unicode="&#x17a;" horiz-adv-x="1049" 
d="M-32 0q-12 0 -17 7t-3 19l57 249q2 13 15 26l472 439h-313q-12 0 -17.5 7t-3.5 19l58 243q3 21 25 21h806q12 0 17.5 -7t3.5 -19l-60 -256q-4 -15 -16 -27l-472 -429h392q12 0 17 -7t3 -19l-57 -245q-4 -21 -26 -21h-881zM460 1086q-3 -1 -7 -1q-17 0 -20 19l-33 168
q-1 2 -1 7q0 16 17 22l543 190q6 2 10 2q8 0 13.5 -5t6.5 -14l51 -261q3 -23 -19 -28z" />
    <glyph glyph-name="Zdotaccent" unicode="&#x17b;" horiz-adv-x="1332" 
d="M-30 0q-12 0 -17 7t-3 19l69 301q3 15 15 26l844 737h-602q-12 0 -17 7t-3 19l62 263q3 21 25 21h1111q12 0 17 -7t3 -19l-72 -312q-4 -16 -16 -27l-818 -723h626q12 0 17 -7t3 -19l-61 -265q-4 -21 -26 -21h-1157zM690 1463q-13 0 -18.5 7t-2.5 19l61 260q4 21 25 21
h380q12 0 17.5 -7t2.5 -19l-61 -260q-4 -21 -25 -21h-379z" />
    <glyph glyph-name="zdotaccent" unicode="&#x17c;" horiz-adv-x="1049" 
d="M-32 0q-12 0 -17 7t-3 19l57 249q2 13 15 26l472 439h-313q-12 0 -17.5 7t-3.5 19l58 243q3 21 25 21h806q12 0 17.5 -7t3.5 -19l-60 -256q-4 -15 -16 -27l-472 -429h392q12 0 17 -7t3 -19l-57 -245q-4 -21 -26 -21h-881zM462 1093q-13 0 -18.5 7t-2.5 19l61 260
q4 21 25 21h380q12 0 17.5 -7t2.5 -19l-61 -260q-4 -21 -25 -21h-379z" />
    <glyph glyph-name="Zcaron" unicode="&#x17d;" horiz-adv-x="1332" 
d="M-30 0q-12 0 -17 7t-3 19l69 301q3 15 15 26l844 737h-602q-12 0 -17 7t-3 19l62 263q3 21 25 21h1111q12 0 17 -7t3 -19l-72 -312q-4 -16 -16 -27l-818 -723h626q12 0 17 -7t3 -19l-61 -265q-4 -21 -26 -21h-1157zM526 1722q-9 8 -9 17q0 7 5 15l92 147q8 12 18 12
q7 0 14 -4l288 -161l328 161q8 3 13 3q13 0 18 -14l61 -148q3 -6 3 -12q0 -11 -12 -20l-355 -245q-15 -9 -30 -9h-132q-17 0 -28 11z" />
    <glyph glyph-name="zcaron" unicode="&#x17e;" horiz-adv-x="1049" 
d="M-32 0q-12 0 -17 7t-3 19l57 249q2 13 15 26l472 439h-313q-12 0 -17.5 7t-3.5 19l58 243q3 21 25 21h806q12 0 17.5 -7t3.5 -19l-60 -256q-4 -15 -16 -27l-472 -429h392q12 0 17 -7t3 -19l-57 -245q-4 -21 -26 -21h-881zM298 1352q-9 8 -9 17q0 7 5 15l92 147
q8 12 18 12q7 0 14 -4l288 -161l328 161q8 3 13 3q13 0 18 -14l61 -148q3 -6 3 -12q0 -11 -12 -20l-355 -245q-15 -9 -30 -9h-132q-17 0 -28 11z" />
    <glyph glyph-name="florin" unicode="&#x192;" horiz-adv-x="930" 
d="M1078.5 1387.5q4.5 -7.5 2.5 -18.5l-57 -243q-6 -23 -29 -18q-41 10 -99 10q-55 0 -83.5 -11t-39 -28.5t-17.5 -46.5v-2h220q12 0 17 -7t3 -19l-57 -245q-5 -21 -26 -21h-228l-62 -262l-104 -476q-38 -182 -159 -271t-350 -89q-108 0 -207 17q-11 2 -15.5 9.5t-2.5 18.5
l57 243q6 23 29 18q41 -10 99 -10q54 0 83 11t39.5 28.5t18.5 46.5l118 496l49 220h-126q-12 0 -17 7t-3 19l58 245q3 21 25 21h127l5 24q41 182 161 271t348 89q108 0 207 -17q11 -2 15.5 -9.5z" />
    <glyph glyph-name="Ohorn" unicode="&#x1a0;" horiz-adv-x="1605" 
d="M1703 1497q11 -8 11 -17q0 -6 -8 -16l-245 -252q67 -80 102.5 -184.5t35.5 -229.5q0 -217 -103 -409t-292.5 -308.5t-434.5 -116.5q-194 0 -347.5 75.5t-241 220t-87.5 344.5q0 217 103 408t292 307.5t435 116.5q191 0 343 -73l204 280q8 11 18 11q7 0 14 -6zM1003 371
q84 85 121 206t37 233q0 154 -69.5 229t-186.5 75q-132 0 -216 -85t-121 -206t-37 -233q0 -154 69.5 -229t186.5 -75q132 0 216 85z" />
    <glyph glyph-name="ohorn" unicode="&#x1a1;" horiz-adv-x="1239" 
d="M1331 1129q10 -7 10 -16q0 -7 -8 -17l-226 -231q84 -119 84 -285q0 -164 -77.5 -302.5t-219.5 -221t-327 -82.5q-149 0 -266.5 55.5t-184.5 163t-67 259.5q0 163 77.5 301.5t220 220.5t328.5 82q137 0 244 -46l179 264q8 12 17 12q8 0 15 -6zM693 301q44 57 64 139
t20 158q0 95 -31.5 141.5t-88.5 46.5q-64 0 -107.5 -54.5t-65 -136.5t-21.5 -163q0 -188 118 -188q68 0 112 57z" />
    <glyph glyph-name="Uhorn" unicode="&#x1af;" horiz-adv-x="1392" 
d="M1674 1517q10 -7 10 -16q0 -7 -8 -17l-169 -171l-123 -485l-71 -318q-41 -184 -124 -304t-217.5 -181t-329.5 -61q-177 0 -305.5 53t-197 154t-68.5 242q0 77 21 165l61 250l114 551q4 21 26 21h397q12 0 17.5 -7t2.5 -19l-138 -534l-59 -266q-15 -63 -15 -112
q0 -81 42 -121.5t128 -40.5q92 0 145 49t81 165l77 316l114 549q4 21 26 21h165l167 265q8 12 17 12q7 0 16 -6z" />
    <glyph glyph-name="uhorn" unicode="&#x1b0;" horiz-adv-x="1226" 
d="M1431 1147q10 -7 10 -16q0 -7 -8 -17l-173 -175l-108 -429l-109 -489q-4 -21 -26 -21h-355q-12 0 -17.5 7t-3.5 19l18 74q-67 -58 -147.5 -91t-170.5 -33q-91 0 -163 34.5t-113.5 102t-41.5 162.5q0 57 16 121l49 198l88 415q3 21 26 21h379q10 0 15.5 -5t5.5 -13
q0 -5 -1 -8l-91 -360l-49 -226q-6 -27 -6 -50q0 -42 20.5 -66t63.5 -24q156 0 222 316l12 56l74 359q4 21 26 21h160l167 265q8 12 17 12q7 0 16 -6z" />
    <glyph glyph-name="uni0218" unicode="&#x218;" horiz-adv-x="1438" 
d="M349 21q-153 57 -241 163.5t-88 248.5q0 10 6.5 15.5t17.5 5.5h397q21 0 24 -23q7 -70 73.5 -113.5t183.5 -43.5q85 0 138.5 28.5t53.5 87.5q0 42 -33.5 69.5t-85 44t-144.5 38.5q-150 36 -246 74.5t-166.5 121t-70.5 222.5q0 150 92.5 257.5t244 163t327.5 55.5
q174 0 314 -52t220 -148.5t80 -225.5q0 -11 -6.5 -16.5t-16.5 -5.5h-400q-11 0 -17 5.5t-8 17.5q-8 50 -60.5 79.5t-137.5 29.5q-79 0 -131.5 -22t-52.5 -72q0 -35 31.5 -59t80.5 -40t137 -38q154 -39 255 -79.5t175.5 -125.5t74.5 -226q0 -156 -91 -267.5t-245 -169
t-342 -57.5q-190 0 -343 57zM238 -580q-10 0 -15.5 4.5t-5.5 11.5q0 5 3 11l86 195l60 257q3 21 25 21h367q12 0 17 -7t3 -19l-54 -234q-4 -16 -17 -26l-262 -204q-13 -10 -29 -10h-178z" />
    <glyph glyph-name="uni0219" unicode="&#x219;" horiz-adv-x="1152" 
d="M257 19q-123 45 -188 122t-72 174q-1 11 5.5 17t17.5 6h355q20 0 25 -23q13 -87 150 -87q55 0 80.5 16t25.5 44q0 24 -21.5 39.5t-55 26t-95.5 25.5q-113 27 -188 56.5t-130.5 94t-55.5 172.5q0 103 61.5 183.5t177 125.5t273.5 45q152 0 262 -42.5t169 -116.5t66 -169
q2 -24 -23 -24h-335q-11 0 -17 5.5t-8 17.5q-7 38 -36.5 60.5t-79.5 22.5q-47 0 -68.5 -16t-21.5 -42q0 -25 23 -42.5t58 -29t100 -27.5q109 -27 181 -56t125 -88t53 -157q0 -106 -64.5 -192t-181.5 -136t-270 -50q-174 0 -297 45zM100 -578q-10 0 -15.5 4.5t-5.5 11.5
q0 5 3 11l86 195l60 257q3 21 25 21h367q12 0 17 -7t3 -19l-54 -234q-4 -16 -17 -26l-262 -204q-13 -10 -29 -10h-178z" />
    <glyph glyph-name="uni021A" unicode="&#x21a;" horiz-adv-x="1306" 
d="M331 0q-12 0 -17.5 7t-3.5 19l173 682l79 382h-360q-12 0 -17 7t-3 19l62 263q3 21 25 21h1171q12 0 17 -7t3 -19l-61 -263q-4 -21 -26 -21h-365l-98 -382l-143 -687q-4 -21 -26 -21h-410zM176 -578q-10 0 -15.5 4.5t-5.5 11.5q0 5 3 11l86 195l60 257q3 21 25 21h367
q12 0 17 -7t3 -19l-54 -234q-4 -16 -17 -26l-262 -204q-13 -10 -29 -10h-178z" />
    <glyph glyph-name="uni021B" unicode="&#x21b;" horiz-adv-x="890" 
d="M933 1030q12 0 17.5 -7t3.5 -19l-57 -243q-4 -21 -26 -21h-218l-81 -362q-5 -21 -5 -43q0 -37 18.5 -51t50.5 -14q57 0 119 18q3 1 9 1q19 0 15 -24l-50 -217q-5 -18 -23 -24q-134 -48 -244 -48q-149 0 -240.5 66.5t-91.5 199.5q0 47 14 108l93 390h-108q-12 0 -17.5 7
t-3.5 19l58 243q3 21 25 21h114l55 237q3 21 25 21h368q12 0 17.5 -7t3.5 -19l-55 -232h214zM34 -578q-10 0 -15.5 4.5t-5.5 11.5q0 5 3 11l86 195l60 257q3 21 25 21h367q12 0 17 -7t3 -19l-54 -234q-4 -16 -17 -26l-262 -204q-13 -10 -29 -10h-178z" />
    <glyph glyph-name="uni0237" unicode="&#x237;" horiz-adv-x="556" 
d="M-106 -340q-12 0 -18 7t-3 19l172 692l134 631q3 21 26 21h381q12 0 18 -7t3 -19l-156 -626l-149 -697q-4 -21 -26 -21h-382z" />
    <glyph glyph-name="uni0259" unicode="&#x259;" horiz-adv-x="1220" 
d="M276 34.5q-115 60.5 -176.5 167t-61.5 243.5q0 66 15 138q4 21 25 21h684v10q-4 88 -40 130t-98 42q-51 0 -84.5 -24t-50.5 -62q-9 -18 -27 -18h-351q-13 0 -19 5t-4 13q25 103 97 183.5t187 126.5t262 46q156 0 278 -55t191 -163t69 -260q0 -163 -77.5 -301.5
t-220 -220.5t-328.5 -82q-155 0 -270 60.5zM452 380q-3 -62 27.5 -101t94.5 -39q117 0 161 140h-283z" />
    <glyph glyph-name="quoteleft" unicode="&#x2bb;" horiz-adv-x="602" 
d="M739 1400q20 0 20 -16q0 -6 -3 -12l-134 -260l-77 -339q-4 -21 -26 -21h-353q-12 0 -17 7t-3 19l73 315q2 13 15 26l276 269q12 12 29 12h200z" />
    <glyph glyph-name="quoteleft" unicode="&#x2018;" horiz-adv-x="602" 
d="M739 1400q20 0 20 -16q0 -6 -3 -12l-134 -260l-77 -339q-4 -21 -26 -21h-353q-12 0 -17 7t-3 19l73 315q2 13 15 26l276 269q12 12 29 12h200z" />
    <glyph glyph-name="quoteright" unicode="&#x2bc;" horiz-adv-x="602" 
d="M126 754q-20 0 -20 16q0 6 3 12l131 260l80 339q3 21 25 21h353q12 0 17 -7t3 -19l-72 -314q-4 -16 -16 -27l-276 -269q-12 -12 -29 -12h-199z" />
    <glyph glyph-name="quoteright" unicode="&#x2019;" horiz-adv-x="602" 
d="M126 754q-20 0 -20 16q0 6 3 12l131 260l80 339q3 21 25 21h353q12 0 17 -7t3 -19l-72 -314q-4 -16 -16 -27l-276 -269q-12 -12 -29 -12h-199z" />
    <glyph glyph-name="circumflex" unicode="&#x2c6;" horiz-adv-x="1028" 
d="M264 1254q-2 4 -2 12q0 13 11 20l356 245q12 9 29 9h132q17 0 29 -11l273 -246q9 -9 9 -18q0 -7 -5 -15l-92 -147q-8 -12 -18 -12q-7 0 -14 4l-288 161l-328 -161q-6 -3 -12 -3q-13 0 -19 15z" />
    <glyph glyph-name="caron" unicode="&#x2c7;" horiz-adv-x="1028" 
d="M298 1352q-9 8 -9 17q0 7 5 15l92 147q8 12 18 12q7 0 14 -4l288 -161l328 161q8 3 13 3q13 0 18 -14l61 -148q3 -6 3 -12q0 -11 -12 -20l-355 -245q-15 -9 -30 -9h-132q-17 0 -28 11z" />
    <glyph glyph-name="breve" unicode="&#x2d8;" horiz-adv-x="1006" 
d="M490.5 1140.5q-83.5 40.5 -128.5 112.5t-45 162q0 11 2 35q1 22 24 22h220q22 0 24 -24q0 -48 30.5 -76t88.5 -28q55 0 93 29t55 79q7 20 26 20h220q13 0 19 -6t4 -16q-20 -101 -79 -180.5t-151.5 -124.5t-208.5 -45q-110 0 -193.5 40.5z" />
    <glyph glyph-name="dotaccent" unicode="&#x2d9;" horiz-adv-x="628" 
d="M261 1093q-13 0 -18.5 7t-2.5 19l61 260q4 21 25 21h380q12 0 17.5 -7t2.5 -19l-61 -260q-4 -21 -25 -21h-379z" />
    <glyph glyph-name="ring" unicode="&#x2da;" horiz-adv-x="818" 
d="M441.5 1123.5q-67.5 31.5 -107.5 89.5t-40 135q0 76 41.5 141.5t116 105t166.5 39.5q81 0 148.5 -31.5t107.5 -89.5t40 -135q0 -76 -41.5 -141.5t-116 -105t-166.5 -39.5q-81 0 -148.5 31.5zM675.5 1290.5q28.5 38.5 28.5 87.5q0 45 -26 70.5t-66 25.5q-35 0 -59.5 -19
t-36.5 -48t-12 -59q0 -45 26.5 -70.5t65.5 -25.5q51 0 79.5 38.5z" />
    <glyph glyph-name="ogonek" unicode="&#x2db;" horiz-adv-x="726" 
d="M246 -460q-103 0 -174 29.5t-106.5 81.5t-35.5 119q0 79 47.5 142t128 103t179.5 54h6q17 0 23 -16l12 -20q2 -8 2 -12q0 -12 -8 -21q-22 -25 -40 -65.5t-18 -72.5q0 -27 20.5 -41.5t67.5 -14.5h86q12 0 17 -7t3 -19l-51 -219q-5 -21 -26 -21h-133z" />
    <glyph glyph-name="tilde" unicode="&#x2dc;" horiz-adv-x="914" 
d="M652 1121.5q-36 13.5 -78 38.5q-26 14 -38.5 20t-25.5 6q-49 0 -64 -62q-3 -12 -9 -17t-17 -5h-155q-11 0 -17 6.5t-5 18.5q13 90 52 160t100.5 109.5t140.5 39.5q44 0 78 -13.5t76 -37.5q23 -14 37.5 -20.5t26.5 -6.5q26 0 41 15.5t22 44.5q4 22 25 22h155q11 0 17 -8.5
t4 -23.5q-23 -143 -95.5 -221.5t-184.5 -78.5q-50 0 -86 13.5z" />
    <glyph glyph-name="hungarumlaut" unicode="&#x2dd;" horiz-adv-x="1056" 
d="M393 1120q-8 -6 -15 -6q-9 0 -17 8l-81 82q-8 8 -8 17q0 7 7 16l328 372q7 9 16 9q10 0 17 -10l133 -164q6 -7 6 -15q0 -10 -10 -17zM771 1104q-9 -7 -16 -7q-9 0 -16 9l-83 80q-8 8 -8 17t7 16l330 372q7 9 16 9q10 0 17 -10l131 -160q6 -7 6 -14q0 -9 -10 -18z" />
    <glyph glyph-name="gravecomb" unicode="&#x300;" 
d="M-14 1085q-6 -21 -29 -16l-529 118q-18 3 -18 20q0 6 1 9l90 261q5 16 19 16q7 0 11 -2l501 -206q15 -5 15 -21q0 -7 -1 -10z" />
    <glyph glyph-name="acutecomb" unicode="&#x301;" 
d="M-521 1086q-3 -1 -7 -1q-17 0 -20 19l-33 168q-1 2 -1 7q0 16 17 22l543 190q6 2 10 2q8 0 13.5 -5t6.5 -14l51 -261q3 -23 -19 -28z" />
    <glyph glyph-name="uni0302" unicode="&#x302;" 
d="M-764 1254q-2 4 -2 12q0 13 11 20l356 245q12 9 29 9h132q17 0 29 -11l273 -246q9 -9 9 -18q0 -7 -5 -15l-92 -147q-8 -12 -18 -12q-7 0 -14 4l-288 161l-328 -161q-6 -3 -12 -3q-13 0 -19 15z" />
    <glyph glyph-name="tildecomb" unicode="&#x303;" 
d="M-262 1121.5q-36 13.5 -78 38.5q-26 14 -38.5 20t-25.5 6q-49 0 -64 -62q-3 -12 -9 -17t-17 -5h-155q-11 0 -17 6.5t-5 18.5q13 90 52 160t100.5 109.5t140.5 39.5q44 0 78 -13.5t76 -37.5q23 -14 37.5 -20.5t26.5 -6.5q26 0 41 15.5t22 44.5q4 22 25 22h155
q11 0 17 -8.5t4 -23.5q-23 -143 -95.5 -221.5t-184.5 -78.5q-50 0 -86 13.5z" />
    <glyph glyph-name="uni0304" unicode="&#x304;" 
d="M-648 1120q-12 0 -17 7t-3 19l48 203q3 21 25 21h667q12 0 17 -7t3 -19l-47 -203q-4 -21 -26 -21h-667z" />
    <glyph glyph-name="uni0306" unicode="&#x306;" 
d="M-515.5 1140.5q-83.5 40.5 -128.5 112.5t-45 162q0 11 2 35q1 22 24 22h220q22 0 24 -24q0 -48 30.5 -76t88.5 -28q55 0 93 29t55 79q7 20 26 20h220q13 0 19 -6t4 -16q-20 -101 -79 -180.5t-151.5 -124.5t-208.5 -45q-110 0 -193.5 40.5z" />
    <glyph glyph-name="uni0307" unicode="&#x307;" 
d="M-367 1093q-13 0 -18.5 7t-2.5 19l61 260q4 21 25 21h380q12 0 17.5 -7t2.5 -19l-61 -260q-4 -21 -25 -21h-379z" />
    <glyph glyph-name="uni0308" unicode="&#x308;" 
d="M-686 1090q-12 0 -17 7t-3 19l62 263q3 21 25 21h297q12 0 17 -7t3 -19l-61 -263q-5 -21 -26 -21h-297zM-286 1090q-12 0 -17 7t-3 19l62 263q3 21 25 21h297q12 0 17 -7t3 -19l-61 -263q-4 -21 -26 -21h-297z" />
    <glyph glyph-name="hookabovecomb" unicode="&#x309;" 
d="M-419 1094q-12 0 -18 7.5t-3 19.5q15 49 43 78.5t58.5 44t74.5 27.5q42 13 60 24t18 33q0 16 -15.5 27t-42.5 11q-31 0 -50 -11.5t-27 -36.5q-8 -20 -26 -20h-213q-12 0 -17.5 7t-2.5 19q27 107 118 162.5t228 55.5q92 0 164.5 -25.5t113 -72t40.5 -106.5
q0 -49 -21.5 -80.5t-51.5 -49t-79 -37.5q-42 -17 -64 -29t-34 -31q-11 -17 -28 -17h-225z" />
    <glyph glyph-name="uni030A" unicode="&#x30a;" 
d="M-376.5 1123.5q-67.5 31.5 -107.5 89.5t-40 135q0 76 41.5 141.5t116 105t166.5 39.5q81 0 148.5 -31.5t107.5 -89.5t40 -135q0 -76 -41.5 -141.5t-116 -105t-166.5 -39.5q-81 0 -148.5 31.5zM-142.5 1290.5q28.5 38.5 28.5 87.5q0 45 -26 70.5t-66 25.5q-35 0 -59.5 -19
t-36.5 -48t-12 -59q0 -45 26.5 -70.5t65.5 -25.5q51 0 79.5 38.5z" />
    <glyph glyph-name="uni030B" unicode="&#x30b;" 
d="M-663 1120q-8 -6 -15 -6q-9 0 -17 8l-81 82q-8 8 -8 17q0 7 7 16l328 372q7 9 16 9q10 0 17 -10l133 -164q6 -7 6 -15q0 -10 -10 -17zM-285 1104q-9 -7 -16 -7q-9 0 -16 9l-83 80q-8 8 -8 17t7 16l330 372q7 9 16 9q10 0 17 -10l131 -160q6 -7 6 -14q0 -9 -10 -18z" />
    <glyph glyph-name="uni030C" unicode="&#x30c;" 
d="M-730 1352q-9 8 -9 17q0 7 5 15l92 147q8 12 18 12q7 0 14 -4l288 -161l328 161q8 3 13 3q13 0 18 -14l61 -148q3 -6 3 -12q0 -11 -12 -20l-355 -245q-15 -9 -30 -9h-132q-17 0 -28 11z" />
    <glyph glyph-name="uni0312" unicode="&#x312;" 
d="M-400 1094q-12 0 -17 7t-3 19l54 234q4 16 17 26l262 204q13 10 29 10h178q10 0 15.5 -4.5t5.5 -11.5q0 -5 -3 -11l-86 -195l-59 -257q-5 -21 -26 -21h-367z" />
    <glyph glyph-name="uni031B" unicode="&#x31b;" 
d="M-236 834q-8 -8 -17 -8q-8 0 -16 7l-142 113q-9 9 -9 18q0 7 5 15l200 295q7 12 17 12q7 0 15 -6l201 -151q10 -7 10 -16q0 -7 -8 -17z" />
    <glyph glyph-name="dotbelowcomb" unicode="&#x323;" 
d="M-709 -386q-12 0 -17.5 7t-3.5 19l61 261q4 21 26 21h378q12 0 17.5 -7t3.5 -19l-61 -261q-5 -21 -26 -21h-378z" />
    <glyph glyph-name="uni0326" unicode="&#x326;" 
d="M-782 -578q-10 0 -15.5 4.5t-5.5 11.5q0 5 3 11l86 195l60 257q3 21 25 21h367q12 0 17 -7t3 -19l-54 -234q-4 -16 -17 -26l-262 -204q-13 -10 -29 -10h-178z" />
    <glyph glyph-name="uni0327" unicode="&#x327;" 
d="M-359 -358q-8 -18 -29 -15l-329 45q-19 3 -19 17q0 7 4 12l186 323q9 17 29 15l304 -19q10 -1 15 -5.5t5 -11.5q0 -5 -3 -11z" />
    <glyph glyph-name="uni0328" unicode="&#x328;" 
d="M-480 -460q-103 0 -174 29.5t-106.5 81.5t-35.5 119q0 79 47.5 142t128 103t179.5 54h6q17 0 23 -16l12 -20q2 -8 2 -12q0 -12 -8 -21q-22 -25 -40 -65.5t-18 -72.5q0 -27 20.5 -41.5t67.5 -14.5h86q12 0 17 -7t3 -19l-51 -219q-5 -21 -26 -21h-133z" />
    <glyph glyph-name="uni0394" unicode="&#x394;" horiz-adv-x="1582" 
d="M-52 0q-12 0 -17 7t-3 19l68 296q5 16 12 27l698 1036q11 15 28 15h536q23 0 27 -21l202 -1028q2 -10 2 -14q0 -3 -2 -15l-70 -301q-4 -21 -26 -21h-1455zM942 1144l-492 -808h636z" />
    <glyph glyph-name="uni0394" unicode="&#x2206;" horiz-adv-x="1582" 
d="M-52 0q-12 0 -17 7t-3 19l68 296q5 16 12 27l698 1036q11 15 28 15h536q23 0 27 -21l202 -1028q2 -10 2 -14q0 -3 -2 -15l-70 -301q-4 -21 -26 -21h-1455zM942 1144l-492 -808h636z" />
    <glyph glyph-name="uni03A9" unicode="&#x3a9;" horiz-adv-x="1624" 
d="M1462 310q12 0 17 -7t3 -19l-61 -263q-4 -21 -26 -21h-609q-12 0 -17 7t-3 19l62 263q3 18 27 26q104 26 181.5 105.5t118.5 184.5t41 207q0 93 -36.5 162t-102 105.5t-151.5 36.5q-129 0 -212 -78t-120.5 -190t-37.5 -218q0 -113 42.5 -192.5t120.5 -118.5
q21 -14 17 -35l-61 -263q-4 -21 -26 -21h-583q-12 0 -17 7t-3 19l62 263q3 21 25 21h121q-64 80 -96 178.5t-32 207.5q0 193 97.5 363t283 273.5t435.5 103.5q208 0 371.5 -75t255 -209t91.5 -306q0 -151 -71 -292.5t-200 -243.5h93z" />
    <glyph glyph-name="uni03A9" unicode="&#x2126;" horiz-adv-x="1624" 
d="M1462 310q12 0 17 -7t3 -19l-61 -263q-4 -21 -26 -21h-609q-12 0 -17 7t-3 19l62 263q3 18 27 26q104 26 181.5 105.5t118.5 184.5t41 207q0 93 -36.5 162t-102 105.5t-151.5 36.5q-129 0 -212 -78t-120.5 -190t-37.5 -218q0 -113 42.5 -192.5t120.5 -118.5
q21 -14 17 -35l-61 -263q-4 -21 -26 -21h-583q-12 0 -17 7t-3 19l62 263q3 21 25 21h121q-64 80 -96 178.5t-32 207.5q0 193 97.5 363t283 273.5t435.5 103.5q208 0 371.5 -75t255 -209t91.5 -306q0 -151 -71 -292.5t-200 -243.5h93z" />
    <glyph glyph-name="pi" unicode="&#x3c0;" horiz-adv-x="1234" 
d="M-30 0q-12 0 -18 7t-3 19l126 494l106 489q3 21 26 21h1057q12 0 18 -7t3 -19l-122 -484l-103 -499q-4 -21 -26 -21h-378q-12 0 -17.5 7t-3.5 19l102 410l61 304h-258l-79 -304l-87 -415q-4 -21 -26 -21h-378z" />
    <glyph glyph-name="Wgrave" unicode="&#x1e80;" horiz-adv-x="1973" 
d="M236 0q-24 0 -24 24l22 1353q0 11 6.5 17t17.5 6h354q25 0 23 -24l-43 -786l352 792q9 18 28 18h385q23 0 23 -23l-2 -789l315 794q6 18 27 18h396q10 0 15.5 -4.5t5.5 -11.5q0 -5 -3 -11l-608 -1355q-7 -18 -27 -18h-439q-24 0 -24 24v718l-334 -725q-7 -17 -27 -17
h-439zM1431 1455q-6 -21 -29 -16l-529 118q-18 3 -18 20q0 6 1 9l90 261q5 16 19 16q7 0 11 -2l501 -206q15 -5 15 -21q0 -7 -1 -10z" />
    <glyph glyph-name="wgrave" unicode="&#x1e81;" horiz-adv-x="1620" 
d="M157 0q-23 0 -23 24l16 983q0 11 6.5 17t16.5 6h333q12 0 18.5 -7t4.5 -18l-67 -553l240 560q8 18 27 18h390q26 0 24 -24l-27 -540l198 545q7 19 28 19h337q10 0 15.5 -4.5t5.5 -11.5q0 -6 -3 -12l-449 -984q-8 -18 -27 -18h-392q-23 0 -23 24l6 558l-237 -564
q-7 -18 -27 -18h-391zM1193 1085q-6 -21 -29 -16l-529 118q-18 3 -18 20q0 6 1 9l90 261q5 16 19 16q7 0 11 -2l501 -206q15 -5 15 -21q0 -7 -1 -10z" />
    <glyph glyph-name="Wacute" unicode="&#x1e82;" horiz-adv-x="1973" 
d="M236 0q-24 0 -24 24l22 1353q0 11 6.5 17t17.5 6h354q25 0 23 -24l-43 -786l352 792q9 18 28 18h385q23 0 23 -23l-2 -789l315 794q6 18 27 18h396q10 0 15.5 -4.5t5.5 -11.5q0 -5 -3 -11l-608 -1355q-7 -18 -27 -18h-439q-24 0 -24 24v718l-334 -725q-7 -17 -27 -17
h-439zM992 1456q-3 -1 -7 -1q-17 0 -20 19l-33 168q-1 2 -1 7q0 16 17 22l543 190q6 2 10 2q8 0 13.5 -5t6.5 -14l51 -261q3 -23 -19 -28z" />
    <glyph glyph-name="wacute" unicode="&#x1e83;" horiz-adv-x="1620" 
d="M157 0q-23 0 -23 24l16 983q0 11 6.5 17t16.5 6h333q12 0 18.5 -7t4.5 -18l-67 -553l240 560q8 18 27 18h390q26 0 24 -24l-27 -540l198 545q7 19 28 19h337q10 0 15.5 -4.5t5.5 -11.5q0 -6 -3 -12l-449 -984q-8 -18 -27 -18h-392q-23 0 -23 24l6 558l-237 -564
q-7 -18 -27 -18h-391zM754 1086q-3 -1 -7 -1q-17 0 -20 19l-33 168q-1 2 -1 7q0 16 17 22l543 190q6 2 10 2q8 0 13.5 -5t6.5 -14l51 -261q3 -23 -19 -28z" />
    <glyph glyph-name="Wdieresis" unicode="&#x1e84;" horiz-adv-x="1973" 
d="M236 0q-24 0 -24 24l22 1353q0 11 6.5 17t17.5 6h354q25 0 23 -24l-43 -786l352 792q9 18 28 18h385q23 0 23 -23l-2 -789l315 794q6 18 27 18h396q10 0 15.5 -4.5t5.5 -11.5q0 -5 -3 -11l-608 -1355q-7 -18 -27 -18h-439q-24 0 -24 24v718l-334 -725q-7 -17 -27 -17
h-439zM834 1460q-12 0 -17 7t-3 19l62 263q3 21 25 21h297q12 0 17 -7t3 -19l-61 -263q-5 -21 -26 -21h-297zM1234 1460q-12 0 -17 7t-3 19l62 263q3 21 25 21h297q12 0 17 -7t3 -19l-61 -263q-4 -21 -26 -21h-297z" />
    <glyph glyph-name="wdieresis" unicode="&#x1e85;" horiz-adv-x="1620" 
d="M157 0q-23 0 -23 24l16 983q0 11 6.5 17t16.5 6h333q12 0 18.5 -7t4.5 -18l-67 -553l240 560q8 18 27 18h390q26 0 24 -24l-27 -540l198 545q7 19 28 19h337q10 0 15.5 -4.5t5.5 -11.5q0 -6 -3 -12l-449 -984q-8 -18 -27 -18h-392q-23 0 -23 24l6 558l-237 -564
q-7 -18 -27 -18h-391zM596 1090q-12 0 -17 7t-3 19l62 263q3 21 25 21h297q12 0 17 -7t3 -19l-61 -263q-5 -21 -26 -21h-297zM996 1090q-12 0 -17 7t-3 19l62 263q3 21 25 21h297q12 0 17 -7t3 -19l-61 -263q-4 -21 -26 -21h-297z" />
    <glyph glyph-name="uni1EA0" unicode="&#x1ea0;" horiz-adv-x="1532" 
d="M1403 25v-5q0 -20 -21 -20h-377q-24 0 -25 23l-17 265h-451l-137 -271q-8 -17 -28 -17h-431q-10 0 -15 4t-5 11q0 6 4 13l771 1356q8 16 28 16h555q11 0 17 -6t7 -16zM941 624l-29 458l-231 -458h260zM401 -386q-12 0 -17.5 7t-3.5 19l61 261q4 21 26 21h378
q12 0 17.5 -7t3.5 -19l-61 -261q-5 -21 -26 -21h-378z" />
    <glyph glyph-name="uni1EA1" unicode="&#x1ea1;" horiz-adv-x="1251" 
d="M1281 1030q12 0 17.5 -7t2.5 -19l-125 -512l-102 -471q-4 -21 -26 -21h-358q-21 0 -21 17q0 6 1 9l13 49q-116 -95 -260 -95q-112 0 -198.5 54.5t-134 154t-47.5 229.5q0 151 62 297t183 240.5t289 94.5q95 0 165.5 -32t115.5 -92l18 83q4 21 26 21h379zM707 307
q46 63 67 149.5t21 155.5q0 84 -33 129t-95 45q-73 0 -118.5 -59t-65.5 -140.5t-20 -152.5q0 -86 31 -138t95 -52q72 0 118 63zM260 -386q-12 0 -17.5 7t-3.5 19l61 261q4 21 26 21h378q12 0 17.5 -7t3.5 -19l-61 -261q-5 -21 -26 -21h-378z" />
    <glyph glyph-name="uni1EA2" unicode="&#x1ea2;" horiz-adv-x="1532" 
d="M1403 25v-5q0 -20 -21 -20h-377q-24 0 -25 23l-17 265h-451l-137 -271q-8 -17 -28 -17h-431q-10 0 -15 4t-5 11q0 6 4 13l771 1356q8 16 28 16h555q11 0 17 -6t7 -16zM941 624l-29 458l-231 -458h260zM853 1464q-12 0 -18 7.5t-3 19.5q15 49 43 78.5t58.5 44t74.5 27.5
q42 13 60 24t18 33q0 16 -15.5 27t-42.5 11q-31 0 -50 -11.5t-27 -36.5q-8 -20 -26 -20h-213q-12 0 -17.5 7t-2.5 19q27 107 118 162.5t228 55.5q92 0 164.5 -25.5t113 -72t40.5 -106.5q0 -49 -21.5 -80.5t-51.5 -49t-79 -37.5q-42 -17 -64 -29t-34 -31q-11 -17 -28 -17
h-225z" />
    <glyph glyph-name="uni1EA3" unicode="&#x1ea3;" horiz-adv-x="1251" 
d="M1281 1030q12 0 17.5 -7t2.5 -19l-125 -512l-102 -471q-4 -21 -26 -21h-358q-21 0 -21 17q0 6 1 9l13 49q-116 -95 -260 -95q-112 0 -198.5 54.5t-134 154t-47.5 229.5q0 151 62 297t183 240.5t289 94.5q95 0 165.5 -32t115.5 -92l18 83q4 21 26 21h379zM707 307
q46 63 67 149.5t21 155.5q0 84 -33 129t-95 45q-73 0 -118.5 -59t-65.5 -140.5t-20 -152.5q0 -86 31 -138t95 -52q72 0 118 63zM640 1094q-12 0 -18 7.5t-3 19.5q15 49 43 78.5t58.5 44t74.5 27.5q42 13 60 24t18 33q0 16 -15.5 27t-42.5 11q-31 0 -50 -11.5t-27 -36.5
q-8 -20 -26 -20h-213q-12 0 -17.5 7t-2.5 19q27 107 118 162.5t228 55.5q92 0 164.5 -25.5t113 -72t40.5 -106.5q0 -49 -21.5 -80.5t-51.5 -49t-79 -37.5q-42 -17 -64 -29t-34 -31q-11 -17 -28 -17h-225z" />
    <glyph glyph-name="uni1EA4" unicode="&#x1ea4;" horiz-adv-x="1532" 
d="M1403 25v-5q0 -20 -21 -20h-377q-24 0 -25 23l-17 265h-451l-137 -271q-8 -17 -28 -17h-431q-10 0 -15 4t-5 11q0 6 4 13l771 1356q8 16 28 16h555q11 0 17 -6t7 -16zM941 624l-29 458l-231 -458h260zM1386 1732q-10 -7 -16 -7q-9 0 -17 9l-119 126q-8 10 -8 16q0 8 8 16
l300 318q9 9 17 9q9 0 16 -9l164 -180q7 -7 7 -16q0 -10 -10 -17zM578 1594q-2 4 -2 12q0 13 11 20l356 245q12 9 29 9h132q17 0 29 -11l273 -246q9 -9 9 -18q0 -7 -5 -15l-92 -147q-7 -12 -18 -12q-7 0 -14 4l-288 161l-328 -161q-6 -3 -12 -3q-13 0 -19 15z" />
    <glyph glyph-name="uni1EA5" unicode="&#x1ea5;" horiz-adv-x="1251" 
d="M1281 1030q12 0 17.5 -7t2.5 -19l-125 -512l-102 -471q-4 -21 -26 -21h-358q-21 0 -21 17q0 6 1 9l13 49q-116 -95 -260 -95q-112 0 -198.5 54.5t-134 154t-47.5 229.5q0 151 62 297t183 240.5t289 94.5q95 0 165.5 -32t115.5 -92l18 83q4 21 26 21h379zM707 307
q46 63 67 149.5t21 155.5q0 84 -33 129t-95 45q-73 0 -118.5 -59t-65.5 -140.5t-20 -152.5q0 -86 31 -138t95 -52q72 0 118 63zM1173 1362q-10 -7 -16 -7q-9 0 -17 9l-119 126q-8 10 -8 16q0 8 8 16l300 318q9 9 17 9q9 0 16 -9l164 -180q7 -7 7 -16q0 -10 -10 -17z
M365 1224q-2 4 -2 12q0 13 11 20l356 245q12 9 29 9h132q17 0 29 -11l273 -246q9 -9 9 -18q0 -7 -5 -15l-92 -147q-7 -12 -18 -12q-7 0 -14 4l-288 161l-328 -161q-6 -3 -12 -3q-13 0 -19 15z" />
    <glyph glyph-name="uni1EA6" unicode="&#x1ea6;" horiz-adv-x="1532" 
d="M1403 25v-5q0 -20 -21 -20h-377q-24 0 -25 23l-17 265h-451l-137 -271q-8 -17 -28 -17h-431q-10 0 -15 4t-5 11q0 6 4 13l771 1356q8 16 28 16h555q11 0 17 -6t7 -16zM941 624l-29 458l-231 -458h260zM1379 1731q-7 -6 -15 -6q-10 0 -18 10l-244 296q-6 9 -6 16
q0 11 10 18l215 151q8 5 14 5q12 0 19 -13l176 -346q3 -7 3 -13q0 -12 -11 -20zM578 1594q-2 4 -2 12q0 13 11 20l356 245q12 9 29 9h132q17 0 29 -11l273 -246q9 -9 9 -18q0 -7 -5 -15l-92 -147q-8 -12 -18 -12q-7 0 -14 4l-288 161l-328 -161q-6 -3 -12 -3q-13 0 -19 15z
" />
    <glyph glyph-name="uni1EA7" unicode="&#x1ea7;" horiz-adv-x="1251" 
d="M1281 1030q12 0 17.5 -7t2.5 -19l-125 -512l-102 -471q-4 -21 -26 -21h-358q-21 0 -21 17q0 6 1 9l13 49q-116 -95 -260 -95q-112 0 -198.5 54.5t-134 154t-47.5 229.5q0 151 62 297t183 240.5t289 94.5q95 0 165.5 -32t115.5 -92l18 83q4 21 26 21h379zM707 307
q46 63 67 149.5t21 155.5q0 84 -33 129t-95 45q-73 0 -118.5 -59t-65.5 -140.5t-20 -152.5q0 -86 31 -138t95 -52q72 0 118 63zM1166 1361q-7 -6 -15 -6q-10 0 -18 10l-244 296q-6 9 -6 16q0 11 10 18l215 151q8 5 14 5q12 0 19 -13l176 -346q3 -7 3 -13q0 -12 -11 -20z
M365 1224q-2 4 -2 12q0 13 11 20l356 245q12 9 29 9h132q17 0 29 -11l273 -246q9 -9 9 -18q0 -7 -5 -15l-92 -147q-8 -12 -18 -12q-7 0 -14 4l-288 161l-328 -161q-6 -3 -12 -3q-13 0 -19 15z" />
    <glyph glyph-name="uni1EA8" unicode="&#x1ea8;" horiz-adv-x="1532" 
d="M1403 25v-5q0 -20 -21 -20h-377q-24 0 -25 23l-17 265h-451l-137 -271q-8 -17 -28 -17h-431q-10 0 -15 4t-5 11q0 6 4 13l771 1356q8 16 28 16h555q11 0 17 -6t7 -16zM941 624l-29 458l-231 -458h260zM578 1594q-2 4 -2 12q0 13 11 20l356 245q12 9 29 9h132q17 0 29 -11
l273 -246q9 -9 9 -18q0 -7 -5 -15l-92 -147q-8 -12 -18 -12q-7 0 -14 4l-288 161l-328 -161q-6 -3 -12 -3q-13 0 -19 15zM1301 1770q-12 0 -18 7.5t-3 19.5q15 49 43 78.5t58.5 44t74.5 27.5q42 13 60 24t18 33q0 16 -15.5 27t-42.5 11q-31 0 -50 -11.5t-27 -36.5
q-8 -20 -26 -20h-213q-12 0 -17.5 7t-2.5 19q27 107 118 162.5t228 55.5q92 0 164.5 -25.5t113 -72t40.5 -106.5q0 -49 -21.5 -80.5t-51.5 -49t-79 -37.5q-42 -17 -64 -29t-34 -31q-11 -17 -28 -17h-225z" />
    <glyph glyph-name="uni1EA9" unicode="&#x1ea9;" horiz-adv-x="1251" 
d="M1281 1030q12 0 17.5 -7t2.5 -19l-125 -512l-102 -471q-4 -21 -26 -21h-358q-21 0 -21 17q0 6 1 9l13 49q-116 -95 -260 -95q-112 0 -198.5 54.5t-134 154t-47.5 229.5q0 151 62 297t183 240.5t289 94.5q95 0 165.5 -32t115.5 -92l18 83q4 21 26 21h379zM707 307
q46 63 67 149.5t21 155.5q0 84 -33 129t-95 45q-73 0 -118.5 -59t-65.5 -140.5t-20 -152.5q0 -86 31 -138t95 -52q72 0 118 63zM365 1224q-2 4 -2 12q0 13 11 20l356 245q12 9 29 9h132q17 0 29 -11l273 -246q9 -9 9 -18q0 -7 -5 -15l-92 -147q-8 -12 -18 -12q-7 0 -14 4
l-288 161l-328 -161q-6 -3 -12 -3q-13 0 -19 15zM1088 1400q-12 0 -18 7.5t-3 19.5q15 49 43 78.5t58.5 44t74.5 27.5q42 13 60 24t18 33q0 16 -15.5 27t-42.5 11q-31 0 -50 -11.5t-27 -36.5q-8 -20 -26 -20h-213q-12 0 -17.5 7t-2.5 19q27 107 118 162.5t228 55.5
q92 0 164.5 -25.5t113 -72t40.5 -106.5q0 -49 -21.5 -80.5t-51.5 -49t-79 -37.5q-42 -17 -64 -29t-34 -31q-11 -17 -28 -17h-225z" />
    <glyph glyph-name="uni1EAA" unicode="&#x1eaa;" horiz-adv-x="1532" 
d="M1403 25v-5q0 -20 -21 -20h-377q-24 0 -25 23l-17 265h-451l-137 -271q-8 -17 -28 -17h-431q-10 0 -15 4t-5 11q0 6 4 13l771 1356q8 16 28 16h555q11 0 17 -6t7 -16zM941 624l-29 458l-231 -458h260zM578 1594q-2 4 -2 12q0 13 11 20l356 245q12 9 29 9h132q17 0 29 -11
l273 -246q9 -9 9 -18q0 -7 -5 -15l-92 -147q-8 -12 -18 -12q-7 0 -14 4l-288 161l-328 -161q-6 -3 -12 -3q-13 0 -19 15zM1134 1929.5q-36 13.5 -78 38.5q-26 14 -38.5 20t-25.5 6q-49 0 -64 -62q-3 -12 -9 -17t-17 -5h-155q-11 0 -17 6.5t-5 18.5q13 90 52 160t100.5 109.5
t140.5 39.5q44 0 78 -13.5t76 -37.5q23 -14 37.5 -20.5t26.5 -6.5q26 0 41 15.5t22 44.5q4 22 25 22h155q11 0 17 -8.5t4 -23.5q-23 -143 -95.5 -221.5t-184.5 -78.5q-50 0 -86 13.5z" />
    <glyph glyph-name="uni1EAB" unicode="&#x1eab;" horiz-adv-x="1251" 
d="M1281 1030q12 0 17.5 -7t2.5 -19l-125 -512l-102 -471q-4 -21 -26 -21h-358q-21 0 -21 17q0 6 1 9l13 49q-116 -95 -260 -95q-112 0 -198.5 54.5t-134 154t-47.5 229.5q0 151 62 297t183 240.5t289 94.5q95 0 165.5 -32t115.5 -92l18 83q4 21 26 21h379zM707 307
q46 63 67 149.5t21 155.5q0 84 -33 129t-95 45q-73 0 -118.5 -59t-65.5 -140.5t-20 -152.5q0 -86 31 -138t95 -52q72 0 118 63zM365 1224q-2 4 -2 12q0 13 11 20l356 245q12 9 29 9h132q17 0 29 -11l273 -246q9 -9 9 -18q0 -7 -5 -15l-92 -147q-8 -12 -18 -12q-7 0 -14 4
l-288 161l-328 -161q-6 -3 -12 -3q-13 0 -19 15zM921 1559.5q-36 13.5 -78 38.5q-26 14 -38.5 20t-25.5 6q-49 0 -64 -62q-3 -12 -9 -17t-17 -5h-155q-11 0 -17 6.5t-5 18.5q13 90 52 160t100.5 109.5t140.5 39.5q44 0 78 -13.5t76 -37.5q23 -14 37.5 -20.5t26.5 -6.5
q26 0 41 15.5t22 44.5q4 22 25 22h155q11 0 17 -8.5t4 -23.5q-23 -143 -95.5 -221.5t-184.5 -78.5q-50 0 -86 13.5z" />
    <glyph glyph-name="uni1EAC" unicode="&#x1eac;" horiz-adv-x="1532" 
d="M1403 25v-5q0 -20 -21 -20h-377q-24 0 -25 23l-17 265h-451l-137 -271q-8 -17 -28 -17h-431q-10 0 -15 4t-5 11q0 6 4 13l771 1356q8 16 28 16h555q11 0 17 -6t7 -16zM941 624l-29 458l-231 -458h260zM401 -386q-12 0 -17.5 7t-3.5 19l61 261q4 21 26 21h378
q12 0 17.5 -7t3.5 -19l-61 -261q-5 -21 -26 -21h-378zM592 1624q-2 4 -2 12q0 13 11 20l356 245q12 9 29 9h132q17 0 29 -11l273 -246q9 -9 9 -18q0 -7 -5 -15l-92 -147q-8 -12 -18 -12q-7 0 -14 4l-288 161l-328 -161q-6 -3 -12 -3q-13 0 -19 15z" />
    <glyph glyph-name="uni1EAD" unicode="&#x1ead;" horiz-adv-x="1251" 
d="M1281 1030q12 0 17.5 -7t2.5 -19l-125 -512l-102 -471q-4 -21 -26 -21h-358q-21 0 -21 17q0 6 1 9l13 49q-116 -95 -260 -95q-112 0 -198.5 54.5t-134 154t-47.5 229.5q0 151 62 297t183 240.5t289 94.5q95 0 165.5 -32t115.5 -92l18 83q4 21 26 21h379zM707 307
q46 63 67 149.5t21 155.5q0 84 -33 129t-95 45q-73 0 -118.5 -59t-65.5 -140.5t-20 -152.5q0 -86 31 -138t95 -52q72 0 118 63zM260 -386q-12 0 -17.5 7t-3.5 19l61 261q4 21 26 21h378q12 0 17.5 -7t3.5 -19l-61 -261q-5 -21 -26 -21h-378zM379 1254q-2 4 -2 12q0 13 11 20
l356 245q12 9 29 9h132q17 0 29 -11l273 -246q9 -9 9 -18q0 -7 -5 -15l-92 -147q-8 -12 -18 -12q-7 0 -14 4l-288 161l-328 -161q-6 -3 -12 -3q-13 0 -19 15z" />
    <glyph glyph-name="uni1EAE" unicode="&#x1eae;" horiz-adv-x="1532" 
d="M1403 25v-5q0 -20 -21 -20h-377q-24 0 -25 23l-17 265h-451l-137 -271q-8 -17 -28 -17h-431q-10 0 -15 4t-5 11q0 6 4 13l771 1356q8 16 28 16h555q11 0 17 -6t7 -16zM941 624l-29 458l-231 -458h260zM1044 1762q-11 -7 -16 -7q-10 0 -17 9l-119 126q-8 10 -8 16
q0 8 8 16l299 318q9 9 17 9t16 -9l164 -180q7 -7 7 -16q0 -10 -10 -17zM806.5 1490.5q-83.5 40.5 -128.5 112.5t-45 162q0 11 2 35q1 22 24 22h220q22 0 24 -24q0 -48 30.5 -76t88.5 -28q55 0 93 29t55 79q7 20 26 20h219q13 0 19 -6t4 -16q-20 -101 -78.5 -180.5
t-151 -124.5t-208.5 -45q-110 0 -193.5 40.5z" />
    <glyph glyph-name="uni1EAF" unicode="&#x1eaf;" horiz-adv-x="1251" 
d="M1281 1030q12 0 17.5 -7t2.5 -19l-125 -512l-102 -471q-4 -21 -26 -21h-358q-21 0 -21 17q0 6 1 9l13 49q-116 -95 -260 -95q-112 0 -198.5 54.5t-134 154t-47.5 229.5q0 151 62 297t183 240.5t289 94.5q95 0 165.5 -32t115.5 -92l18 83q4 21 26 21h379zM707 307
q46 63 67 149.5t21 155.5q0 84 -33 129t-95 45q-73 0 -118.5 -59t-65.5 -140.5t-20 -152.5q0 -86 31 -138t95 -52q72 0 118 63zM831 1392q-11 -7 -16 -7q-10 0 -17 9l-119 126q-8 10 -8 16q0 8 8 16l299 318q9 9 17 9t16 -9l164 -180q7 -7 7 -16q0 -10 -10 -17z
M593.5 1120.5q-83.5 40.5 -128.5 112.5t-45 162q0 11 2 35q1 22 24 22h220q22 0 24 -24q0 -48 30.5 -76t88.5 -28q55 0 93 29t55 79q7 20 26 20h219q13 0 19 -6t4 -16q-20 -101 -78.5 -180.5t-151 -124.5t-208.5 -45q-110 0 -193.5 40.5z" />
    <glyph glyph-name="uni1EB0" unicode="&#x1eb0;" horiz-adv-x="1532" 
d="M1403 25v-5q0 -20 -21 -20h-377q-24 0 -25 23l-17 265h-451l-137 -271q-8 -17 -28 -17h-431q-10 0 -15 4t-5 11q0 6 4 13l771 1356q8 16 28 16h555q11 0 17 -6t7 -16zM941 624l-29 458l-231 -458h260zM1033 1761q-8 -5 -15 -5q-11 0 -18 9l-244 296q-6 9 -6 16
q0 11 10 18l215 151q8 5 14 5q12 0 18 -14l171 -351q3 -7 3 -14q0 -11 -11 -18zM806.5 1490.5q-83.5 40.5 -128.5 112.5t-45 162q0 11 2 35q1 22 24 22h220q22 0 24 -24q0 -48 30.5 -76t88.5 -28q55 0 93 29t55 79q7 20 26 20h220q13 0 19 -6t4 -16q-20 -101 -79 -180.5
t-151.5 -124.5t-208.5 -45q-110 0 -193.5 40.5z" />
    <glyph glyph-name="uni1EB1" unicode="&#x1eb1;" horiz-adv-x="1251" 
d="M1281 1030q12 0 17.5 -7t2.5 -19l-125 -512l-102 -471q-4 -21 -26 -21h-358q-21 0 -21 17q0 6 1 9l13 49q-116 -95 -260 -95q-112 0 -198.5 54.5t-134 154t-47.5 229.5q0 151 62 297t183 240.5t289 94.5q95 0 165.5 -32t115.5 -92l18 83q4 21 26 21h379zM707 307
q46 63 67 149.5t21 155.5q0 84 -33 129t-95 45q-73 0 -118.5 -59t-65.5 -140.5t-20 -152.5q0 -86 31 -138t95 -52q72 0 118 63zM820 1391q-8 -5 -15 -5q-11 0 -18 9l-244 296q-6 9 -6 16q0 11 10 18l215 151q8 5 14 5q12 0 18 -14l171 -351q3 -7 3 -14q0 -11 -11 -18z
M593.5 1120.5q-83.5 40.5 -128.5 112.5t-45 162q0 11 2 35q1 22 24 22h220q22 0 24 -24q0 -48 30.5 -76t88.5 -28q55 0 93 29t55 79q7 20 26 20h220q13 0 19 -6t4 -16q-20 -101 -79 -180.5t-151.5 -124.5t-208.5 -45q-110 0 -193.5 40.5z" />
    <glyph glyph-name="uni1EB2" unicode="&#x1eb2;" horiz-adv-x="1532" 
d="M1403 25v-5q0 -20 -21 -20h-377q-24 0 -25 23l-17 265h-451l-137 -271q-8 -17 -28 -17h-431q-10 0 -15 4t-5 11q0 6 4 13l771 1356q8 16 28 16h555q11 0 17 -6t7 -16zM941 624l-29 458l-231 -458h260zM805.5 1490.5q-83.5 40.5 -128.5 112.5t-45 162q0 11 2 35
q1 22 24 22h220q22 0 24 -24q0 -48 30.5 -76t88.5 -28q55 0 93 29t55 79q7 20 26 20h220q13 0 19 -6t4 -16q-20 -101 -79 -180.5t-151.5 -124.5t-208.5 -45q-110 0 -193.5 40.5zM935 1842q-12 0 -18 7.5t-3 19.5q15 49 43 78.5t58.5 44t74.5 27.5q42 13 60 24t18 33
q0 16 -15.5 27t-42.5 11q-31 0 -50 -11.5t-27 -36.5q-8 -20 -26 -20h-213q-12 0 -17.5 7t-2.5 19q27 107 118 162.5t228 55.5q92 0 164.5 -25.5t113 -72t40.5 -106.5q0 -49 -21.5 -80.5t-51.5 -49t-79 -37.5q-42 -17 -64 -29t-34 -31q-11 -17 -28 -17h-225z" />
    <glyph glyph-name="uni1EB3" unicode="&#x1eb3;" horiz-adv-x="1251" 
d="M1281 1030q12 0 17.5 -7t2.5 -19l-125 -512l-102 -471q-4 -21 -26 -21h-358q-21 0 -21 17q0 6 1 9l13 49q-116 -95 -260 -95q-112 0 -198.5 54.5t-134 154t-47.5 229.5q0 151 62 297t183 240.5t289 94.5q95 0 165.5 -32t115.5 -92l18 83q4 21 26 21h379zM707 307
q46 63 67 149.5t21 155.5q0 84 -33 129t-95 45q-73 0 -118.5 -59t-65.5 -140.5t-20 -152.5q0 -86 31 -138t95 -52q72 0 118 63zM592.5 1120.5q-83.5 40.5 -128.5 112.5t-45 162q0 11 2 35q1 22 24 22h220q22 0 24 -24q0 -48 30.5 -76t88.5 -28q55 0 93 29t55 79q7 20 26 20
h220q13 0 19 -6t4 -16q-20 -101 -79 -180.5t-151.5 -124.5t-208.5 -45q-110 0 -193.5 40.5zM722 1472q-12 0 -18 7.5t-3 19.5q15 49 43 78.5t58.5 44t74.5 27.5q42 13 60 24t18 33q0 16 -15.5 27t-42.5 11q-31 0 -50 -11.5t-27 -36.5q-8 -20 -26 -20h-213q-12 0 -17.5 7
t-2.5 19q27 107 118 162.5t228 55.5q92 0 164.5 -25.5t113 -72t40.5 -106.5q0 -49 -21.5 -80.5t-51.5 -49t-79 -37.5q-42 -17 -64 -29t-34 -31q-11 -17 -28 -17h-225z" />
    <glyph glyph-name="uni1EB4" unicode="&#x1eb4;" horiz-adv-x="1532" 
d="M1403 25v-5q0 -20 -21 -20h-377q-24 0 -25 23l-17 265h-451l-137 -271q-8 -17 -28 -17h-431q-10 0 -15 4t-5 11q0 6 4 13l771 1356q8 16 28 16h555q11 0 17 -6t7 -16zM941 624l-29 458l-231 -458h260zM1110 1885.5q-36 13.5 -78 38.5q-26 14 -38.5 20t-25.5 6
q-49 0 -64 -62q-3 -12 -9 -17t-17 -5h-155q-11 0 -17 6.5t-5 18.5q13 90 52 160t100.5 109.5t140.5 39.5q44 0 78 -13.5t76 -37.5q23 -14 37.5 -20.5t26.5 -6.5q26 0 41 15.5t22 44.5q4 22 25 22h155q11 0 17 -8.5t4 -23.5q-23 -143 -95.5 -221.5t-184.5 -78.5
q-50 0 -86 13.5zM806.5 1490.5q-83.5 40.5 -128.5 112.5t-45 162q0 11 2 35q1 22 24 22h220q22 0 24 -24q0 -48 30.5 -76t88.5 -28q55 0 93 29t55 79q7 20 26 20h219q13 0 19 -6t4 -16q-20 -101 -78.5 -180.5t-151 -124.5t-208.5 -45q-110 0 -193.5 40.5z" />
    <glyph glyph-name="uni1EB5" unicode="&#x1eb5;" horiz-adv-x="1251" 
d="M1281 1030q12 0 17.5 -7t2.5 -19l-125 -512l-102 -471q-4 -21 -26 -21h-358q-21 0 -21 17q0 6 1 9l13 49q-116 -95 -260 -95q-112 0 -198.5 54.5t-134 154t-47.5 229.5q0 151 62 297t183 240.5t289 94.5q95 0 165.5 -32t115.5 -92l18 83q4 21 26 21h379zM707 307
q46 63 67 149.5t21 155.5q0 84 -33 129t-95 45q-73 0 -118.5 -59t-65.5 -140.5t-20 -152.5q0 -86 31 -138t95 -52q72 0 118 63zM897 1515.5q-36 13.5 -78 38.5q-26 14 -38.5 20t-25.5 6q-49 0 -64 -62q-3 -12 -9 -17t-17 -5h-155q-11 0 -17 6.5t-5 18.5q13 90 52 160
t100.5 109.5t140.5 39.5q44 0 78 -13.5t76 -37.5q23 -14 37.5 -20.5t26.5 -6.5q26 0 41 15.5t22 44.5q4 22 25 22h155q11 0 17 -8.5t4 -23.5q-23 -143 -95.5 -221.5t-184.5 -78.5q-50 0 -86 13.5zM593.5 1120.5q-83.5 40.5 -128.5 112.5t-45 162q0 11 2 35q1 22 24 22h220
q22 0 24 -24q0 -48 30.5 -76t88.5 -28q55 0 93 29t55 79q7 20 26 20h219q13 0 19 -6t4 -16q-20 -101 -78.5 -180.5t-151 -124.5t-208.5 -45q-110 0 -193.5 40.5z" />
    <glyph glyph-name="uni1EB6" unicode="&#x1eb6;" horiz-adv-x="1532" 
d="M1403 25v-5q0 -20 -21 -20h-377q-24 0 -25 23l-17 265h-451l-137 -271q-8 -17 -28 -17h-431q-10 0 -15 4t-5 11q0 6 4 13l771 1356q8 16 28 16h555q11 0 17 -6t7 -16zM941 624l-29 458l-231 -458h260zM401 -386q-12 0 -17.5 7t-3.5 19l61 261q4 21 26 21h378
q12 0 17.5 -7t3.5 -19l-61 -261q-5 -21 -26 -21h-378zM817.5 1510.5q-83.5 40.5 -128.5 112.5t-45 162q0 11 2 35q1 22 24 22h220q22 0 24 -24q0 -48 30.5 -76t88.5 -28q55 0 93 29t55 79q7 20 26 20h220q13 0 19 -6t4 -16q-20 -101 -79 -180.5t-151.5 -124.5t-208.5 -45
q-110 0 -193.5 40.5z" />
    <glyph glyph-name="uni1EB7" unicode="&#x1eb7;" horiz-adv-x="1251" 
d="M1281 1030q12 0 17.5 -7t2.5 -19l-125 -512l-102 -471q-4 -21 -26 -21h-358q-21 0 -21 17q0 6 1 9l13 49q-116 -95 -260 -95q-112 0 -198.5 54.5t-134 154t-47.5 229.5q0 151 62 297t183 240.5t289 94.5q95 0 165.5 -32t115.5 -92l18 83q4 21 26 21h379zM707 307
q46 63 67 149.5t21 155.5q0 84 -33 129t-95 45q-73 0 -118.5 -59t-65.5 -140.5t-20 -152.5q0 -86 31 -138t95 -52q72 0 118 63zM260 -386q-12 0 -17.5 7t-3.5 19l61 261q4 21 26 21h378q12 0 17.5 -7t3.5 -19l-61 -261q-5 -21 -26 -21h-378zM603.5 1140.5
q-83.5 40.5 -128.5 112.5t-45 162q0 11 2 35q1 22 24 22h220q22 0 24 -24q0 -48 30.5 -76t88.5 -28q55 0 93 29t55 79q7 20 26 20h220q13 0 19 -6t4 -16q-20 -101 -79 -180.5t-151.5 -124.5t-208.5 -45q-110 0 -193.5 40.5z" />
    <glyph glyph-name="uni1EB8" unicode="&#x1eb8;" horiz-adv-x="1210" 
d="M-26 0q-12 0 -17.5 7t-2.5 19l167 650l146 703q4 21 26 21h1033q12 0 17 -7t3 -19l-61 -263q-4 -21 -26 -21h-606l-60 -204h545q12 0 17 -7t3 -19l-61 -263q-4 -21 -26 -21h-550l-48 -264h617q12 0 17 -7t3 -19l-61 -265q-4 -21 -26 -21h-1049zM223 -386q-12 0 -17.5 7
t-3.5 19l61 261q4 21 26 21h378q12 0 17.5 -7t3.5 -19l-61 -261q-5 -21 -26 -21h-378z" />
    <glyph glyph-name="uni1EB9" unicode="&#x1eb9;" horiz-adv-x="1220" 
d="M945 995.5q115 -60.5 176 -167t61 -243.5q0 -66 -15 -138q-4 -21 -25 -21h-683v-9q4 -89 40 -131t98 -42q51 0 84.5 24t49.5 62q9 18 28 18h351q12 0 18.5 -5t3.5 -13q-25 -103 -97 -183.5t-186.5 -126.5t-261.5 -46q-156 0 -278 55t-191 163t-69 260q0 163 77.5 301.5
t220 220.5t328.5 82q155 0 270 -60.5zM769 650q3 62 -27.5 101t-94.5 39q-117 0 -161 -140h283zM258 -386q-12 0 -17.5 7t-3.5 19l61 261q4 21 26 21h378q12 0 17.5 -7t3.5 -19l-61 -261q-5 -21 -26 -21h-378z" />
    <glyph glyph-name="uni1EBA" unicode="&#x1eba;" horiz-adv-x="1210" 
d="M-26 0q-12 0 -17.5 7t-2.5 19l167 650l146 703q4 21 26 21h1033q12 0 17 -7t3 -19l-61 -263q-4 -21 -26 -21h-606l-60 -204h545q12 0 17 -7t3 -19l-61 -263q-4 -21 -26 -21h-550l-48 -264h617q12 0 17 -7t3 -19l-61 -265q-4 -21 -26 -21h-1049zM709 1464q-12 0 -18 7.5
t-3 19.5q15 49 43 78.5t58.5 44t74.5 27.5q42 13 60 24t18 33q0 16 -15.5 27t-42.5 11q-31 0 -50 -11.5t-27 -36.5q-8 -20 -26 -20h-213q-12 0 -17.5 7t-2.5 19q27 107 118 162.5t228 55.5q92 0 164.5 -25.5t113 -72t40.5 -106.5q0 -49 -21.5 -80.5t-51.5 -49t-79 -37.5
q-42 -17 -64 -29t-34 -31q-11 -17 -28 -17h-225z" />
    <glyph glyph-name="uni1EBB" unicode="&#x1ebb;" horiz-adv-x="1220" 
d="M945 995.5q115 -60.5 176 -167t61 -243.5q0 -66 -15 -138q-4 -21 -25 -21h-683v-9q4 -89 40 -131t98 -42q51 0 84.5 24t49.5 62q9 18 28 18h351q12 0 18.5 -5t3.5 -13q-25 -103 -97 -183.5t-186.5 -126.5t-261.5 -46q-156 0 -278 55t-191 163t-69 260q0 163 77.5 301.5
t220 220.5t328.5 82q155 0 270 -60.5zM769 650q3 62 -27.5 101t-94.5 39q-117 0 -161 -140h283zM628 1094q-12 0 -18 7.5t-3 19.5q15 49 43 78.5t58.5 44t74.5 27.5q42 13 60 24t18 33q0 16 -15.5 27t-42.5 11q-31 0 -50 -11.5t-27 -36.5q-8 -20 -26 -20h-213q-12 0 -17.5 7
t-2.5 19q27 107 118 162.5t228 55.5q92 0 164.5 -25.5t113 -72t40.5 -106.5q0 -49 -21.5 -80.5t-51.5 -49t-79 -37.5q-42 -17 -64 -29t-34 -31q-11 -17 -28 -17h-225z" />
    <glyph glyph-name="uni1EBC" unicode="&#x1ebc;" horiz-adv-x="1210" 
d="M-26 0q-12 0 -17.5 7t-2.5 19l167 650l146 703q4 21 26 21h1033q12 0 17 -7t3 -19l-61 -263q-4 -21 -26 -21h-606l-60 -204h545q12 0 17 -7t3 -19l-61 -263q-4 -21 -26 -21h-550l-48 -264h617q12 0 17 -7t3 -19l-61 -265q-4 -21 -26 -21h-1049zM890 1491.5
q-36 13.5 -78 38.5q-26 14 -38.5 20t-25.5 6q-49 0 -64 -62q-3 -12 -9 -17t-17 -5h-155q-11 0 -17 6.5t-5 18.5q13 90 52 160t100.5 109.5t140.5 39.5q44 0 78 -13.5t76 -37.5q23 -14 37.5 -20.5t26.5 -6.5q26 0 41 15.5t22 44.5q4 22 25 22h155q11 0 17 -8.5t4 -23.5
q-23 -143 -95.5 -221.5t-184.5 -78.5q-50 0 -86 13.5z" />
    <glyph glyph-name="uni1EBD" unicode="&#x1ebd;" horiz-adv-x="1220" 
d="M945 995.5q115 -60.5 176 -167t61 -243.5q0 -66 -15 -138q-4 -21 -25 -21h-683v-9q4 -89 40 -131t98 -42q51 0 84.5 24t49.5 62q9 18 28 18h351q12 0 18.5 -5t3.5 -13q-25 -103 -97 -183.5t-186.5 -126.5t-261.5 -46q-156 0 -278 55t-191 163t-69 260q0 163 77.5 301.5
t220 220.5t328.5 82q155 0 270 -60.5zM769 650q3 62 -27.5 101t-94.5 39q-117 0 -161 -140h283zM809 1121.5q-36 13.5 -78 38.5q-26 14 -38.5 20t-25.5 6q-49 0 -64 -62q-3 -12 -9 -17t-17 -5h-155q-11 0 -17 6.5t-5 18.5q13 90 52 160t100.5 109.5t140.5 39.5
q44 0 78 -13.5t76 -37.5q23 -14 37.5 -20.5t26.5 -6.5q26 0 41 15.5t22 44.5q4 22 25 22h155q11 0 17 -8.5t4 -23.5q-23 -143 -95.5 -221.5t-184.5 -78.5q-50 0 -86 13.5z" />
    <glyph glyph-name="uni1EBE" unicode="&#x1ebe;" horiz-adv-x="1210" 
d="M-26 0q-12 0 -17.5 7t-2.5 19l167 650l146 703q4 21 26 21h1033q12 0 17 -7t3 -19l-61 -263q-4 -21 -26 -21h-606l-60 -204h545q12 0 17 -7t3 -19l-61 -263q-4 -21 -26 -21h-550l-48 -264h617q12 0 17 -7t3 -19l-61 -265q-4 -21 -26 -21h-1049zM1242 1732q-10 -7 -16 -7
q-9 0 -17 9l-119 126q-8 10 -8 16q0 8 8 16l300 318q9 9 17 9q9 0 16 -9l164 -180q7 -7 7 -16q0 -10 -10 -17zM434 1594q-2 4 -2 12q0 13 11 20l356 245q12 9 29 9h132q17 0 29 -11l273 -246q9 -9 9 -18q0 -7 -5 -15l-92 -147q-7 -12 -18 -12q-7 0 -14 4l-288 161l-328 -161
q-6 -3 -12 -3q-13 0 -19 15z" />
    <glyph glyph-name="uni1EBF" unicode="&#x1ebf;" horiz-adv-x="1220" 
d="M945 995.5q115 -60.5 176 -167t61 -243.5q0 -66 -15 -138q-4 -21 -25 -21h-683v-9q4 -89 40 -131t98 -42q51 0 84.5 24t49.5 62q9 18 28 18h351q12 0 18.5 -5t3.5 -13q-25 -103 -97 -183.5t-186.5 -126.5t-261.5 -46q-156 0 -278 55t-191 163t-69 260q0 163 77.5 301.5
t220 220.5t328.5 82q155 0 270 -60.5zM769 650q3 62 -27.5 101t-94.5 39q-117 0 -161 -140h283zM1161 1362q-10 -7 -16 -7q-9 0 -17 9l-119 126q-8 10 -8 16q0 8 8 16l300 318q9 9 17 9q9 0 16 -9l164 -180q7 -7 7 -16q0 -10 -10 -17zM353 1224q-2 4 -2 12q0 13 11 20
l356 245q12 9 29 9h132q17 0 29 -11l273 -246q9 -9 9 -18q0 -7 -5 -15l-92 -147q-7 -12 -18 -12q-7 0 -14 4l-288 161l-328 -161q-6 -3 -12 -3q-13 0 -19 15z" />
    <glyph glyph-name="uni1EC0" unicode="&#x1ec0;" horiz-adv-x="1210" 
d="M-26 0q-12 0 -17.5 7t-2.5 19l167 650l146 703q4 21 26 21h1033q12 0 17 -7t3 -19l-61 -263q-4 -21 -26 -21h-606l-60 -204h545q12 0 17 -7t3 -19l-61 -263q-4 -21 -26 -21h-550l-48 -264h617q12 0 17 -7t3 -19l-61 -265q-4 -21 -26 -21h-1049zM1235 1731q-7 -6 -15 -6
q-10 0 -18 10l-244 296q-6 9 -6 16q0 11 10 18l215 151q8 5 14 5q12 0 19 -13l176 -346q3 -7 3 -13q0 -12 -11 -20zM434 1594q-2 4 -2 12q0 13 11 20l356 245q12 9 29 9h132q17 0 29 -11l273 -246q9 -9 9 -18q0 -7 -5 -15l-92 -147q-8 -12 -18 -12q-7 0 -14 4l-288 161
l-328 -161q-6 -3 -12 -3q-13 0 -19 15z" />
    <glyph glyph-name="uni1EC1" unicode="&#x1ec1;" horiz-adv-x="1220" 
d="M945 995.5q115 -60.5 176 -167t61 -243.5q0 -66 -15 -138q-4 -21 -25 -21h-683v-9q4 -89 40 -131t98 -42q51 0 84.5 24t49.5 62q9 18 28 18h351q12 0 18.5 -5t3.5 -13q-25 -103 -97 -183.5t-186.5 -126.5t-261.5 -46q-156 0 -278 55t-191 163t-69 260q0 163 77.5 301.5
t220 220.5t328.5 82q155 0 270 -60.5zM769 650q3 62 -27.5 101t-94.5 39q-117 0 -161 -140h283zM1154 1361q-7 -6 -15 -6q-10 0 -18 10l-244 296q-6 9 -6 16q0 11 10 18l215 151q8 5 14 5q12 0 19 -13l176 -346q3 -7 3 -13q0 -12 -11 -20zM353 1224q-2 4 -2 12q0 13 11 20
l356 245q12 9 29 9h132q17 0 29 -11l273 -246q9 -9 9 -18q0 -7 -5 -15l-92 -147q-8 -12 -18 -12q-7 0 -14 4l-288 161l-328 -161q-6 -3 -12 -3q-13 0 -19 15z" />
    <glyph glyph-name="uni1EC2" unicode="&#x1ec2;" horiz-adv-x="1210" 
d="M-26 0q-12 0 -17.5 7t-2.5 19l167 650l146 703q4 21 26 21h1033q12 0 17 -7t3 -19l-61 -263q-4 -21 -26 -21h-606l-60 -204h545q12 0 17 -7t3 -19l-61 -263q-4 -21 -26 -21h-550l-48 -264h617q12 0 17 -7t3 -19l-61 -265q-4 -21 -26 -21h-1049zM434 1594q-2 4 -2 12
q0 13 11 20l356 245q12 9 29 9h132q17 0 29 -11l273 -246q9 -9 9 -18q0 -7 -5 -15l-92 -147q-8 -12 -18 -12q-7 0 -14 4l-288 161l-328 -161q-6 -3 -12 -3q-13 0 -19 15zM1157 1770q-12 0 -18 7.5t-3 19.5q15 49 43 78.5t58.5 44t74.5 27.5q42 13 60 24t18 33q0 16 -15.5 27
t-42.5 11q-31 0 -50 -11.5t-27 -36.5q-8 -20 -26 -20h-213q-12 0 -17.5 7t-2.5 19q27 107 118 162.5t228 55.5q92 0 164.5 -25.5t113 -72t40.5 -106.5q0 -49 -21.5 -80.5t-51.5 -49t-79 -37.5q-42 -17 -64 -29t-34 -31q-11 -17 -28 -17h-225z" />
    <glyph glyph-name="uni1EC3" unicode="&#x1ec3;" horiz-adv-x="1220" 
d="M945 995.5q115 -60.5 176 -167t61 -243.5q0 -66 -15 -138q-4 -21 -25 -21h-683v-9q4 -89 40 -131t98 -42q51 0 84.5 24t49.5 62q9 18 28 18h351q12 0 18.5 -5t3.5 -13q-25 -103 -97 -183.5t-186.5 -126.5t-261.5 -46q-156 0 -278 55t-191 163t-69 260q0 163 77.5 301.5
t220 220.5t328.5 82q155 0 270 -60.5zM769 650q3 62 -27.5 101t-94.5 39q-117 0 -161 -140h283zM353 1224q-2 4 -2 12q0 13 11 20l356 245q12 9 29 9h132q17 0 29 -11l273 -246q9 -9 9 -18q0 -7 -5 -15l-92 -147q-8 -12 -18 -12q-7 0 -14 4l-288 161l-328 -161q-6 -3 -12 -3
q-13 0 -19 15zM1076 1400q-12 0 -18 7.5t-3 19.5q15 49 43 78.5t58.5 44t74.5 27.5q42 13 60 24t18 33q0 16 -15.5 27t-42.5 11q-31 0 -50 -11.5t-27 -36.5q-8 -20 -26 -20h-213q-12 0 -17.5 7t-2.5 19q27 107 118 162.5t228 55.5q92 0 164.5 -25.5t113 -72t40.5 -106.5
q0 -49 -21.5 -80.5t-51.5 -49t-79 -37.5q-42 -17 -64 -29t-34 -31q-11 -17 -28 -17h-225z" />
    <glyph glyph-name="uni1EC4" unicode="&#x1ec4;" horiz-adv-x="1210" 
d="M-26 0q-12 0 -17.5 7t-2.5 19l167 650l146 703q4 21 26 21h1033q12 0 17 -7t3 -19l-61 -263q-4 -21 -26 -21h-606l-60 -204h545q12 0 17 -7t3 -19l-61 -263q-4 -21 -26 -21h-550l-48 -264h617q12 0 17 -7t3 -19l-61 -265q-4 -21 -26 -21h-1049zM434 1594q-2 4 -2 12
q0 13 11 20l356 245q12 9 29 9h132q17 0 29 -11l273 -246q9 -9 9 -18q0 -7 -5 -15l-92 -147q-8 -12 -18 -12q-7 0 -14 4l-288 161l-328 -161q-6 -3 -12 -3q-13 0 -19 15zM990 1929.5q-36 13.5 -78 38.5q-26 14 -38.5 20t-25.5 6q-49 0 -64 -62q-3 -12 -9 -17t-17 -5h-155
q-11 0 -17 6.5t-5 18.5q13 90 52 160t100.5 109.5t140.5 39.5q44 0 78 -13.5t76 -37.5q23 -14 37.5 -20.5t26.5 -6.5q26 0 41 15.5t22 44.5q4 22 25 22h155q11 0 17 -8.5t4 -23.5q-23 -143 -95.5 -221.5t-184.5 -78.5q-50 0 -86 13.5z" />
    <glyph glyph-name="uni1EC5" unicode="&#x1ec5;" horiz-adv-x="1220" 
d="M945 995.5q115 -60.5 176 -167t61 -243.5q0 -66 -15 -138q-4 -21 -25 -21h-683v-9q4 -89 40 -131t98 -42q51 0 84.5 24t49.5 62q9 18 28 18h351q12 0 18.5 -5t3.5 -13q-25 -103 -97 -183.5t-186.5 -126.5t-261.5 -46q-156 0 -278 55t-191 163t-69 260q0 163 77.5 301.5
t220 220.5t328.5 82q155 0 270 -60.5zM769 650q3 62 -27.5 101t-94.5 39q-117 0 -161 -140h283zM353 1224q-2 4 -2 12q0 13 11 20l356 245q12 9 29 9h132q17 0 29 -11l273 -246q9 -9 9 -18q0 -7 -5 -15l-92 -147q-8 -12 -18 -12q-7 0 -14 4l-288 161l-328 -161q-6 -3 -12 -3
q-13 0 -19 15zM909 1559.5q-36 13.5 -78 38.5q-26 14 -38.5 20t-25.5 6q-49 0 -64 -62q-3 -12 -9 -17t-17 -5h-155q-11 0 -17 6.5t-5 18.5q13 90 52 160t100.5 109.5t140.5 39.5q44 0 78 -13.5t76 -37.5q23 -14 37.5 -20.5t26.5 -6.5q26 0 41 15.5t22 44.5q4 22 25 22h155
q11 0 17 -8.5t4 -23.5q-23 -143 -95.5 -221.5t-184.5 -78.5q-50 0 -86 13.5z" />
    <glyph glyph-name="uni1EC6" unicode="&#x1ec6;" horiz-adv-x="1210" 
d="M-26 0q-12 0 -17.5 7t-2.5 19l167 650l146 703q4 21 26 21h1033q12 0 17 -7t3 -19l-61 -263q-4 -21 -26 -21h-606l-60 -204h545q12 0 17 -7t3 -19l-61 -263q-4 -21 -26 -21h-550l-48 -264h617q12 0 17 -7t3 -19l-61 -265q-4 -21 -26 -21h-1049zM223 -386q-12 0 -17.5 7
t-3.5 19l61 261q4 21 26 21h378q12 0 17.5 -7t3.5 -19l-61 -261q-5 -21 -26 -21h-378zM448 1624q-2 4 -2 12q0 13 11 20l356 245q12 9 29 9h132q17 0 29 -11l273 -246q9 -9 9 -18q0 -7 -5 -15l-92 -147q-8 -12 -18 -12q-7 0 -14 4l-288 161l-328 -161q-6 -3 -12 -3
q-13 0 -19 15z" />
    <glyph glyph-name="uni1EC7" unicode="&#x1ec7;" horiz-adv-x="1220" 
d="M945 995.5q115 -60.5 176 -167t61 -243.5q0 -66 -15 -138q-4 -21 -25 -21h-683v-9q4 -89 40 -131t98 -42q51 0 84.5 24t49.5 62q9 18 28 18h351q12 0 18.5 -5t3.5 -13q-25 -103 -97 -183.5t-186.5 -126.5t-261.5 -46q-156 0 -278 55t-191 163t-69 260q0 163 77.5 301.5
t220 220.5t328.5 82q155 0 270 -60.5zM769 650q3 62 -27.5 101t-94.5 39q-117 0 -161 -140h283zM258 -386q-12 0 -17.5 7t-3.5 19l61 261q4 21 26 21h378q12 0 17.5 -7t3.5 -19l-61 -261q-5 -21 -26 -21h-378zM367 1254q-2 4 -2 12q0 13 11 20l356 245q12 9 29 9h132
q17 0 29 -11l273 -246q9 -9 9 -18q0 -7 -5 -15l-92 -147q-8 -12 -18 -12q-7 0 -14 4l-288 161l-328 -161q-6 -3 -12 -3q-13 0 -19 15z" />
    <glyph glyph-name="uni1EC8" unicode="&#x1ec8;" horiz-adv-x="606" 
d="M-16 0q-10 0 -15.5 5t-5.5 13q0 5 1 8l167 660l146 693q4 21 26 21h401q10 0 15.5 -5t5.5 -13q0 -5 -1 -8l-174 -688l-139 -665q-4 -21 -26 -21h-401zM401 1464q-12 0 -18 7.5t-3 19.5q15 49 43 78.5t58.5 44t74.5 27.5q42 13 60 24t18 33q0 16 -15.5 27t-42.5 11
q-31 0 -50 -11.5t-27 -36.5q-8 -20 -26 -20h-213q-12 0 -17.5 7t-2.5 19q27 107 118 162.5t228 55.5q92 0 164.5 -25.5t113 -72t40.5 -106.5q0 -49 -21.5 -80.5t-51.5 -49t-79 -37.5q-42 -17 -64 -29t-34 -31q-11 -17 -28 -17h-225z" />
    <glyph glyph-name="uni1EC9" unicode="&#x1ec9;" horiz-adv-x="556" 
d="M293 1094q-12 0 -18 7.5t-3 19.5q14 49 42 78.5t58.5 44t73.5 27.5q41 13 58.5 24t17.5 33q0 16 -14 27t-40 11q-30 0 -47.5 -11.5t-25.5 -35.5q-4 -11 -10 -16t-16 -5h-177q-12 0 -18 7t-3 18q24 108 104.5 163.5t202.5 55.5q80 0 143.5 -25.5t99 -72t35.5 -106.5
q0 -49 -18.5 -81t-44 -49.5t-66.5 -37.5q-34 -15 -53 -27.5t-29 -30.5q-6 -10 -11.5 -14t-15.5 -4h-225zM-28 0q-12 0 -18 7t-3 19l120 470l108 513q3 21 26 21h381q12 0 18 -7t3 -19l-130 -508l-97 -475q-4 -21 -26 -21h-382z" />
    <glyph glyph-name="uni1ECA" unicode="&#x1eca;" horiz-adv-x="606" 
d="M-16 0q-10 0 -15.5 5t-5.5 13q0 5 1 8l167 660l146 693q4 21 26 21h401q10 0 15.5 -5t5.5 -13q0 -5 -1 -8l-174 -688l-139 -665q-4 -21 -26 -21h-401zM-91 -386q-12 0 -17.5 7t-3.5 19l61 261q4 21 26 21h378q12 0 17.5 -7t3.5 -19l-61 -261q-5 -21 -26 -21h-378z" />
    <glyph glyph-name="uni1ECB" unicode="&#x1ecb;" horiz-adv-x="556" 
d="M-28 0q-12 0 -18 7t-3 19l120 470l108 513q3 21 26 21h381q12 0 18 -7t3 -19l-130 -508l-97 -475q-4 -21 -26 -21h-382zM225 1093q-13 0 -18.5 7t-2.5 19l61 260q4 21 25 21h380q12 0 17.5 -7t2.5 -19l-61 -260q-4 -21 -25 -21h-379zM-115 -386q-12 0 -17.5 7t-3.5 19
l61 261q4 21 26 21h378q12 0 17.5 -7t3.5 -19l-61 -261q-5 -21 -26 -21h-378z" />
    <glyph glyph-name="uni1ECC" unicode="&#x1ecc;" horiz-adv-x="1605" 
d="M421.5 39.5q-153.5 75.5 -241 220t-87.5 344.5q0 217 103 408t292 307.5t435 116.5q194 0 347.5 -75.5t241 -219.5t87.5 -343q0 -217 -103 -409t-292.5 -308.5t-434.5 -116.5q-194 0 -347.5 75.5zM1003 371q84 85 121 206t37 233q0 154 -69.5 229t-186.5 75
q-132 0 -216 -85t-121 -206t-37 -233q0 -154 69.5 -229t186.5 -75q132 0 216 85zM460 -386q-12 0 -17.5 7t-3.5 19l61 261q4 21 26 21h378q12 0 17.5 -7t3.5 -19l-61 -261q-5 -21 -26 -21h-378z" />
    <glyph glyph-name="uni1ECD" unicode="&#x1ecd;" horiz-adv-x="1239" 
d="M300.5 29.5q-117.5 55.5 -184.5 163t-67 259.5q0 163 77.5 301.5t220 220.5t328.5 82q149 0 266 -55t183.5 -162.5t66.5 -258.5q0 -164 -77.5 -302.5t-219.5 -221t-327 -82.5q-149 0 -266.5 55.5zM693 301q44 57 64 139t20 158q0 95 -31.5 141.5t-88.5 46.5
q-64 0 -107.5 -54.5t-65 -136.5t-21.5 -163q0 -188 118 -188q68 0 112 57zM264 -386q-12 0 -17.5 7t-3.5 19l61 261q4 21 26 21h378q12 0 17.5 -7t3.5 -19l-61 -261q-5 -21 -26 -21h-378z" />
    <glyph glyph-name="uni1ECE" unicode="&#x1ece;" horiz-adv-x="1605" 
d="M421.5 39.5q-153.5 75.5 -241 220t-87.5 344.5q0 217 103 408t292 307.5t435 116.5q194 0 347.5 -75.5t241 -219.5t87.5 -343q0 -217 -103 -409t-292.5 -308.5t-434.5 -116.5q-194 0 -347.5 75.5zM1003 371q84 85 121 206t37 233q0 154 -69.5 229t-186.5 75
q-132 0 -216 -85t-121 -206t-37 -233q0 -154 69.5 -229t186.5 -75q132 0 216 85zM902 1464q-12 0 -18 7.5t-3 19.5q15 49 43 78.5t58.5 44t74.5 27.5q42 13 60 24t18 33q0 16 -15.5 27t-42.5 11q-31 0 -50 -11.5t-27 -36.5q-8 -20 -26 -20h-213q-12 0 -17.5 7t-2.5 19
q27 107 118 162.5t228 55.5q92 0 164.5 -25.5t113 -72t40.5 -106.5q0 -49 -21.5 -80.5t-51.5 -49t-79 -37.5q-42 -17 -64 -29t-34 -31q-11 -17 -28 -17h-225z" />
    <glyph glyph-name="uni1ECF" unicode="&#x1ecf;" horiz-adv-x="1239" 
d="M300.5 29.5q-117.5 55.5 -184.5 163t-67 259.5q0 163 77.5 301.5t220 220.5t328.5 82q149 0 266 -55t183.5 -162.5t66.5 -258.5q0 -164 -77.5 -302.5t-219.5 -221t-327 -82.5q-149 0 -266.5 55.5zM693 301q44 57 64 139t20 158q0 95 -31.5 141.5t-88.5 46.5
q-64 0 -107.5 -54.5t-65 -136.5t-21.5 -163q0 -188 118 -188q68 0 112 57zM634 1094q-12 0 -18 7.5t-3 19.5q15 49 43 78.5t58.5 44t74.5 27.5q42 13 60 24t18 33q0 16 -15.5 27t-42.5 11q-31 0 -50 -11.5t-27 -36.5q-8 -20 -26 -20h-213q-12 0 -17.5 7t-2.5 19
q27 107 118 162.5t228 55.5q92 0 164.5 -25.5t113 -72t40.5 -106.5q0 -49 -21.5 -80.5t-51.5 -49t-79 -37.5q-42 -17 -64 -29t-34 -31q-11 -17 -28 -17h-225z" />
    <glyph glyph-name="uni1ED0" unicode="&#x1ed0;" horiz-adv-x="1605" 
d="M421.5 39.5q-153.5 75.5 -241 220t-87.5 344.5q0 217 103 408t292 307.5t435 116.5q194 0 347.5 -75.5t241 -219.5t87.5 -343q0 -217 -103 -409t-292.5 -308.5t-434.5 -116.5q-194 0 -347.5 75.5zM1003 371q84 85 121 206t37 233q0 154 -69.5 229t-186.5 75
q-132 0 -216 -85t-121 -206t-37 -233q0 -154 69.5 -229t186.5 -75q132 0 216 85zM1435 1732q-10 -7 -16 -7q-9 0 -17 9l-119 126q-8 10 -8 16q0 8 8 16l300 318q9 9 17 9q9 0 16 -9l164 -180q7 -7 7 -16q0 -10 -10 -17zM627 1594q-2 4 -2 12q0 13 11 20l356 245q12 9 29 9
h132q17 0 29 -11l273 -246q9 -9 9 -18q0 -7 -5 -15l-92 -147q-7 -12 -18 -12q-7 0 -14 4l-288 161l-328 -161q-6 -3 -12 -3q-13 0 -19 15z" />
    <glyph glyph-name="uni1ED1" unicode="&#x1ed1;" horiz-adv-x="1239" 
d="M300.5 29.5q-117.5 55.5 -184.5 163t-67 259.5q0 163 77.5 301.5t220 220.5t328.5 82q149 0 266 -55t183.5 -162.5t66.5 -258.5q0 -164 -77.5 -302.5t-219.5 -221t-327 -82.5q-149 0 -266.5 55.5zM693 301q44 57 64 139t20 158q0 95 -31.5 141.5t-88.5 46.5
q-64 0 -107.5 -54.5t-65 -136.5t-21.5 -163q0 -188 118 -188q68 0 112 57zM1167 1362q-10 -7 -16 -7q-9 0 -17 9l-119 126q-8 10 -8 16q0 8 8 16l300 318q9 9 17 9q9 0 16 -9l164 -180q7 -7 7 -16q0 -10 -10 -17zM359 1224q-2 4 -2 12q0 13 11 20l356 245q12 9 29 9h132
q17 0 29 -11l273 -246q9 -9 9 -18q0 -7 -5 -15l-92 -147q-7 -12 -18 -12q-7 0 -14 4l-288 161l-328 -161q-6 -3 -12 -3q-13 0 -19 15z" />
    </font>
</defs>
</svg>
