<?xml version="1.0" standalone="no"?>
<!DOCTYPE svg PUBLIC "-//W3C//DTD SVG 1.1//EN" "http://www.w3.org/Graphics/SVG/1.1/DTD/svg11.dtd" >
<svg xmlns="http://www.w3.org/2000/svg" xmlns:xlink="http://www.w3.org/1999/xlink" version="1.1">
<metadata>
Created by FontForge 20170731 at Wed May 12 04:41:42 2021
 By Aleksey,,,
(c) Copyright David Jonathan Ross, 2016, 2021. All rights reserved.
</metadata>
<defs>
<font id="FormaDJRText-Bold" horiz-adv-x="0" >
  <font-face 
    font-family="Forma DJR Text"
    font-weight="700"
    font-stretch="normal"
    units-per-em="2000"
    panose-1="0 0 0 0 0 0 0 9 0 0"
    ascent="1500"
    descent="-500"
    x-height="1030"
    cap-height="1400"
    bbox="-1070 -500 2535 2230"
    underline-thickness="50"
    underline-position="-150"
    unicode-range="U+0020-FB01"
  />
<missing-glyph horiz-adv-x="1200" 
d="M50 1388q0 5 3.5 8.5t8.5 3.5h1076q5 0 8.5 -3.5t3.5 -8.5v-1716q0 -5 -3.5 -8.5t-8.5 -3.5h-1076q-5 0 -8.5 3.5t-3.5 8.5v1716zM850 1145h-500v-1230h500v1230z" />
    <glyph glyph-name=".notdef" horiz-adv-x="1200" 
d="M50 1388q0 5 3.5 8.5t8.5 3.5h1076q5 0 8.5 -3.5t3.5 -8.5v-1716q0 -5 -3.5 -8.5t-8.5 -3.5h-1076q-5 0 -8.5 3.5t-3.5 8.5v1716zM850 1145h-500v-1230h500v1230z" />
    <glyph glyph-name=".null" 
 />
    <glyph glyph-name="nonmarkingreturn" horiz-adv-x="666" 
 />
    <glyph glyph-name="space" unicode=" " horiz-adv-x="394" 
 />
    <glyph glyph-name="space" unicode="&#xa0;" horiz-adv-x="394" 
 />
    <glyph glyph-name="exclam" unicode="!" horiz-adv-x="458" 
d="M104 406q-24 0 -24 24v947q0 11 6.5 17t17.5 6h251q11 0 17 -6t6 -17v-947q0 -11 -6 -17.5t-17 -6.5h-251zM104 0q-24 0 -24 24v241q0 23 24 23h251q11 0 17 -6t6 -17v-241q0 -24 -23 -24h-251z" />
    <glyph glyph-name="quotedbl" unicode="&#x22;" horiz-adv-x="804" 
d="M138 880q-23 0 -24 23l-35 473q-1 24 23 24h235q25 0 23 -24l-35 -473q-1 -23 -24 -23h-163zM503 880q-23 0 -24 23l-35 473q-1 24 23 24h235q25 0 23 -24l-35 -473q-1 -23 -24 -23h-163z" />
    <glyph glyph-name="numbersign" unicode="#" horiz-adv-x="1352" 
d="M1319 1124q12 0 18 -7t4 -18l-24 -169q-1 -10 -7 -16t-17 -6h-206l-59 -408h202q13 0 18.5 -7t3.5 -18l-30 -169q-3 -22 -25 -22h-200l-38 -262q-1 -10 -7 -16t-17 -6h-233q-12 0 -18 7t-4 18l37 259h-200l-38 -262q-1 -10 -7 -16t-17 -6h-233q-12 0 -18 7t-4 18l37 259
h-206q-12 0 -18 7t-4 18l30 170q5 21 25 21h204l59 408h-201q-12 0 -18 7t-4 18l24 169q3 22 24 22h206l36 254q3 22 24 22h233q12 0 18 -7t4 -18l-36 -251h201l36 254q3 22 24 22h233q12 0 18 -7t4 -18l-36 -251h202zM607 908l-59 -408h200l59 408h-200z" />
    <glyph glyph-name="dollar" unicode="$" horiz-adv-x="1238" 
d="M1066 119q-107 -115 -301 -142v-154q0 -11 -6 -17t-17 -6h-257q-24 0 -24 23v162q-179 37 -283 153.5t-112 309.5q-1 24 23 24h272q22 0 25 -22q10 -83 36 -138t80 -85.5t143 -30.5q111 0 166.5 44.5t55.5 141.5q0 63 -39 100t-98.5 55.5t-163.5 39.5
q-149 30 -243.5 65.5t-162 121.5t-67.5 240q0 165 93.5 273.5t266.5 140.5v119q0 23 24 23h257q11 0 17 -6t6 -17v-122q156 -32 251.5 -131.5t121.5 -272.5q1 -12 -5 -18.5t-17 -6.5h-272q-22 0 -25 23q-11 93 -69.5 142t-158.5 49q-87 0 -137.5 -41t-50.5 -125
q0 -59 38 -93t95.5 -51.5t161.5 -37.5q152 -30 248 -65t165.5 -121.5t69.5 -241.5q0 -190 -107 -305z" />
    <glyph glyph-name="percent" unicode="%" horiz-adv-x="1760" 
d="M151 790q-101 90 -101 264q0 116 46 198.5t131.5 125t200.5 42.5q114 0 199 -42.5t131 -125t46 -198.5q0 -173 -100.5 -263.5t-275.5 -90.5q-176 0 -277 90zM269 0q-10 0 -15 4t-5 11t6 14l1011 1357q11 14 29 14h196q10 0 15 -4t5 -11q0 -6 -6 -14l-1011 -1356
q-10 -15 -29 -15h-196zM520 916.5q30 42.5 30 137.5q0 192 -124 192q-60 0 -91 -46t-31 -146q0 -92 31 -136t93 -44t92 42.5zM1133 22.5q-85 42.5 -131 125t-46 198.5q0 173 100.5 263.5t275.5 90.5q176 0 277 -90t101 -264q0 -116 -46 -198.5t-131.5 -125t-200.5 -42.5
q-114 0 -199 42.5zM1425 200q31 46 31 146q0 92 -31 136t-93 44t-92 -42.5t-30 -137.5q0 -192 124 -192q60 0 91 46z" />
    <glyph glyph-name="ampersand" unicode="&#x26;" horiz-adv-x="1405" 
d="M1371 29q6 -9 6 -15t-5.5 -10t-14.5 -4h-301q-19 0 -29 14l-66 82q-85 -59 -186.5 -90.5t-216.5 -31.5q-139 0 -255.5 46.5t-186.5 138.5t-70 221q0 104 44.5 184.5t116 138.5t170.5 111q-67 86 -105 163.5t-38 154.5q0 86 50.5 156t144.5 110t221 40q109 0 197.5 -36
t140.5 -105t54 -165q0 -79 -39 -141t-101 -108t-154 -96l27 -32q19 -22 61 -72t78 -95l67 -82q33 90 43 190q2 22 25 22h230q11 0 17 -6.5t5 -17.5q-14 -110 -51.5 -212t-95.5 -188zM539.5 1048q23.5 -41 81.5 -111q84 46 128.5 91.5t44.5 101.5q0 64 -38 99t-106 35
q-62 0 -98 -35.5t-36 -102.5q0 -37 23.5 -78zM824 268l-256 320q-17 22 -55 66q-82 -54 -126.5 -115.5t-44.5 -142.5q0 -111 64.5 -164.5t175.5 -53.5q135 0 242 90z" />
    <glyph glyph-name="quotesingle" unicode="'" horiz-adv-x="439" 
d="M138 880q-23 0 -24 23l-35 473q-1 24 23 24h235q25 0 23 -24l-35 -473q-1 -23 -24 -23h-163z" />
    <glyph glyph-name="parenleft" unicode="(" horiz-adv-x="540" 
d="M279 -280q-20 0 -27 17q-102 207 -155 416t-53 447q0 449 205 844q9 16 28 16h187q9 0 14.5 -4t5.5 -11q0 -6 -3 -12q-179 -408 -179 -833q0 -437 182 -853q3 -6 3 -11q0 -7 -5.5 -11.5t-15.5 -4.5h-187z" />
    <glyph glyph-name="parenright" unicode=")" horiz-adv-x="540" 
d="M74 -280q-9 0 -14.5 4t-5.5 11q0 6 3 12q181 413 181 853q0 429 -179 833q-3 6 -3 11q0 16 20 16h187q19 0 28 -16q205 -395 205 -844q0 -239 -53 -448t-155 -415q-7 -17 -27 -17h-187z" />
    <glyph glyph-name="asterisk" unicode="*" horiz-adv-x="708" 
d="M283 826q-24 0 -23 24l7 174l-148 -95q-7 -4 -14 -4q-12 0 -19 12l-65 108q-4 7 -4 13q0 12 13 20l145 76l-148 75q-13 7 -13 19q0 6 3 13l61 119q6 13 18 13q6 0 13 -4l156 -93l-9 180q-1 24 23 24h130q23 0 23 -23l-5 -179l153 101q8 5 14 5q12 0 18 -13l63 -112
q4 -10 4 -13q0 -12 -13 -20l-149 -82l143 -71q14 -8 14 -20q0 -4 -3 -12l-58 -120q-6 -14 -18 -14q-8 0 -13 4l-151 91l9 -172q2 -24 -24 -24h-133z" />
    <glyph glyph-name="plus" unicode="+" horiz-adv-x="1110" 
d="M1002 800q11 0 17 -6t6 -17v-175q0 -11 -6 -17.5t-17 -6.5h-331v-374q0 -11 -6 -17.5t-17 -6.5h-183q-24 0 -24 24v374h-332q-24 0 -24 24v175q0 11 6.5 17t17.5 6h332v377q0 11 6.5 17t17.5 6h183q11 0 17 -6t6 -17v-377h331z" />
    <glyph glyph-name="comma" unicode="," horiz-adv-x="414" 
d="M28 -234q-10 0 -15.5 5t-5.5 13q0 5 1 8l59 216v255q0 11 6.5 17t16.5 6h239q11 0 17.5 -6t6.5 -17v-237q0 -12 -10 -29l-162 -217q-10 -14 -28 -14h-125z" />
    <glyph glyph-name="hyphen" unicode="-" horiz-adv-x="559" 
d="M50 482q-24 0 -24 24v161q0 23 24 23h458q11 0 17 -6t6 -17v-161q0 -24 -23 -24h-458z" />
    <glyph glyph-name="hyphen" unicode="&#x2011;" horiz-adv-x="559" 
d="M50 482q-24 0 -24 24v161q0 23 24 23h458q11 0 17 -6t6 -17v-161q0 -24 -23 -24h-458z" />
    <glyph glyph-name="hyphen" unicode="&#x2010;" horiz-adv-x="559" 
d="M50 482q-24 0 -24 24v161q0 23 24 23h458q11 0 17 -6t6 -17v-161q0 -24 -23 -24h-458z" />
    <glyph glyph-name="hyphen" unicode="&#xad;" horiz-adv-x="559" 
d="M50 482q-24 0 -24 24v161q0 23 24 23h458q11 0 17 -6t6 -17v-161q0 -24 -23 -24h-458z" />
    <glyph glyph-name="period" unicode="." horiz-adv-x="435" 
d="M86 0q-24 0 -24 24v239q0 23 24 23h265q11 0 17 -6t6 -17v-239q0 -24 -23 -24h-265z" />
    <glyph glyph-name="slash" unicode="/" horiz-adv-x="736" 
d="M72 -280q-12 0 -17.5 7t-3.5 19l414 1693q4 21 25 21h172q12 0 18 -7t3 -19l-413 -1693q-6 -21 -26 -21h-172z" />
    <glyph glyph-name="zero" unicode="0" horiz-adv-x="1212" 
d="M310 54.5q-125 84.5 -193.5 248t-68.5 393.5q0 239 68 403.5t192.5 247.5t295.5 83q170 0 295.5 -82t194 -246.5t68.5 -405.5q0 -230 -68.5 -393.5t-194 -248t-295.5 -84.5q-169 0 -294 84.5zM787 322.5q61 118.5 61 373.5q0 257 -61.5 378.5t-182.5 121.5
q-122 0 -182 -119.5t-60 -380.5q0 -254 62 -373t182 -119t181 118.5z" />
    <glyph glyph-name="one" unicode="1" horiz-adv-x="788" 
d="M372 0q-23 0 -23 24l11 679l-6 361q-103 -97 -275 -152q-3 -1 -9 -1q-8 0 -13 5.5t-5 15.5v184q0 20 19 27q198 71 290 240q9 17 28 17h255q22 0 22 -23l-14 -741l14 -612q2 -24 -22 -24h-272z" />
    <glyph glyph-name="two" unicode="2" horiz-adv-x="1090" 
d="M79 0q-11 0 -17.5 6.5t-6.5 17.5v172q0 150 61.5 252t147 161.5t219.5 128.5q92 47 144 79.5t86 76.5t34 102q5 99 -45.5 155.5t-145.5 56.5q-96 0 -153 -66.5t-61 -191.5q-1 -24 -24 -24h-231q-24 0 -24 24q2 228 125.5 351.5t362.5 124.5q230 0 351 -110t127 -310
q0 -140 -61.5 -236t-147.5 -154t-220 -124q-92 -46 -143 -76.5t-84.5 -71.5t-33.5 -94v-24h667q11 0 17 -6t6 -17v-179q0 -11 -6 -17.5t-17 -6.5h-927z" />
    <glyph glyph-name="three" unicode="3" horiz-adv-x="1108" 
d="M187 90.5q-124 110.5 -143 325.5q-1 11 5 17.5t18 6.5h246q22 0 24 -23q6 -113 58.5 -173.5t150.5 -59.5q62 0 109.5 29.5t74 85t26.5 131.5q0 114 -68.5 165t-221.5 51h-36q-24 0 -24 24v147q0 23 24 23h36q133 0 199.5 51t66.5 139q0 53 -23 95.5t-63.5 66.5t-89.5 24
q-182 0 -198 -202q-3 -24 -25 -24h-243q-11 0 -17 6.5t-5 18.5q16 196 146 300.5t358 104.5q135 0 238.5 -44.5t161 -126t58.5 -189.5q0 -119 -61.5 -192.5t-168.5 -109.5q128 -33 197 -117t69 -211q0 -139 -71.5 -241t-192 -155.5t-264.5 -53.5q-227 0 -351 110.5z" />
    <glyph glyph-name="four" unicode="4" horiz-adv-x="1166" 
d="M1108 544q11 0 17 -6t6 -17v-179q0 -11 -6 -17.5t-17 -6.5h-131v-295q0 -11 -6.5 -17.5t-16.5 -6.5h-257q-12 0 -18 6.5t-6 17.5v295h-602q-11 0 -17.5 6.5t-6.5 17.5v218q0 18 8 30l510 795q9 15 28 15h361q11 0 17 -6t6 -17v-833h131zM673 544v352l10 282l-396 -634
h386z" />
    <glyph glyph-name="five" unicode="5" horiz-adv-x="1148" 
d="M304.5 15.5q-106.5 47.5 -167.5 133.5t-75 201v4q0 20 22 20h254q22 0 24 -23q7 -85 58.5 -130t134.5 -45q109 0 168.5 78.5t59.5 229.5q0 148 -54 223t-170 75q-79 0 -131.5 -37t-71.5 -106q-6 -21 -26 -21h-218q-25 0 -23 25l52 735q1 22 25 22h830q11 0 17 -6t6 -17
v-179q0 -11 -6 -17.5t-17 -6.5h-585l-28 -266q54 44 123.5 65t148.5 21q125 0 227.5 -62t162.5 -173t60 -253q0 -164 -68.5 -285.5t-193 -187t-286.5 -65.5q-146 0 -252.5 47.5z" />
    <glyph glyph-name="six" unicode="6" horiz-adv-x="1174" 
d="M311 53.5q-122 83.5 -187 246t-65 396.5q0 233 69.5 398t198 250.5t302.5 85.5q188 0 302 -91t137 -258q1 -12 -5 -18.5t-18 -6.5h-249q-21 0 -25 22q-14 64 -55.5 103t-110.5 39q-111 0 -170.5 -103.5t-61.5 -292.5q50 56 120 86t174 30q135 0 238 -55.5t159.5 -159
t56.5 -241.5q0 -139 -68 -257t-186.5 -187.5t-263.5 -69.5q-170 0 -292 83.5zM701.5 219q49.5 31 76.5 90t27 141q0 131 -51 204.5t-151 73.5q-103 0 -161.5 -70t-58.5 -196q0 -128 53.5 -201t150.5 -73q65 0 114.5 31z" />
    <glyph glyph-name="seven" unicode="7" horiz-adv-x="977" 
d="M270 -1q-12 0 -18 7t-4 19q52 326 146 624t227 525h-571q-11 0 -17 6.5t-6 17.5v179q0 11 6.5 17t16.5 6h877q11 0 17.5 -6t6.5 -17v-194q0 -15 -8 -28q-141 -280 -239 -558.5t-141 -575.5q-1 -10 -7 -16t-17 -6h-269z" />
    <glyph glyph-name="eight" unicode="8" horiz-adv-x="1175" 
d="M313.5 26.5q-121.5 49.5 -192 145t-70.5 228.5q0 120 66.5 208t195.5 132q-110 51 -167.5 127t-56.5 174q5 188 132.5 287t365.5 99q240 0 367.5 -99t132.5 -287q3 -191 -226 -301q129 -45 196.5 -132.5t67.5 -207.5q0 -133 -70.5 -228.5t-192.5 -145t-275 -49.5
q-152 0 -273.5 49.5zM735.5 875q55.5 55 55.5 145q0 95 -55 151.5t-149 56.5t-149 -56.5t-55 -151.5q0 -90 55.5 -145t148.5 -55t148.5 55zM710.5 206q54.5 30 85.5 83.5t31 120.5q0 103 -65 163.5t-175 60.5t-175 -60.5t-65 -163.5q0 -67 31 -120.5t85.5 -83.5t123.5 -30
t123.5 30z" />
    <glyph glyph-name="nine" unicode="9" horiz-adv-x="1174" 
d="M247.5 61q-114.5 91 -137.5 258q-1 12 5 18.5t18 6.5h249q22 0 25 -22q15 -65 56 -103.5t111 -38.5q111 0 170.5 103.5t61.5 292.5q-50 -56 -120 -86t-174 -30q-135 0 -238 55.5t-159.5 159t-56.5 241.5q0 142 66 259.5t184.5 186t267.5 68.5q170 0 292 -82.5t187 -245
t65 -398.5q0 -233 -69.5 -398t-198 -250.5t-302.5 -85.5q-188 0 -302.5 91zM737.5 742q58.5 70 58.5 196q0 128 -53.5 201t-150.5 73q-65 0 -114.5 -31t-76.5 -90t-27 -141q0 -131 51 -204.5t151 -73.5q103 0 161.5 70z" />
    <glyph glyph-name="colon" unicode=":" horiz-adv-x="436" 
d="M86 0q-24 0 -24 24v239q0 23 24 23h265q11 0 17 -6t6 -17v-239q0 -24 -23 -24h-265zM86 746q-24 0 -24 24v239q0 23 24 23h265q11 0 17 -6t6 -17v-239q0 -24 -23 -24h-265z" />
    <glyph glyph-name="semicolon" unicode=";" horiz-adv-x="427" 
d="M28 -234q-10 0 -15.5 5t-5.5 13q0 5 1 8l59 216v255q0 11 6.5 17t16.5 6h239q11 0 17.5 -6t6.5 -17v-237q0 -12 -10 -29l-162 -217q-10 -14 -28 -14h-125zM77 744q-24 0 -24 24v239q0 23 24 23h265q11 0 17 -6t6 -17v-239q0 -24 -23 -24h-265z" />
    <glyph glyph-name="less" unicode="&#x3c;" horiz-adv-x="1110" 
d="M103 570q-18 9 -18 28v182q0 21 18 28l895 400q6 3 11 3q7 0 11.5 -5.5t4.5 -15.5v-182q0 -19 -18 -27l-692 -291l692 -293q18 -7 18 -27v-182q0 -9 -4 -14.5t-11 -5.5q-6 0 -12 3z" />
    <glyph glyph-name="equal" unicode="=" horiz-adv-x="1110" 
d="M109 838q-24 0 -24 24v175q0 11 6.5 17t17.5 6h893q11 0 17 -6t6 -17v-175q0 -11 -6 -17.5t-17 -6.5h-893zM109 318q-24 0 -24 24v175q0 11 6.5 17t17.5 6h893q11 0 17 -6t6 -17v-175q0 -11 -6 -17.5t-17 -6.5h-893z" />
    <glyph glyph-name="greater" unicode="&#x3e;" horiz-adv-x="1110" 
d="M112 171q-6 -3 -12 -3q-7 0 -11 5.5t-4 14.5v182q0 20 18 27l692 293l-692 291q-18 8 -18 27v182q0 10 4.5 15.5t11.5 5.5q5 0 11 -3l895 -400q18 -7 18 -28v-182q0 -19 -18 -28z" />
    <glyph glyph-name="question" unicode="?" horiz-adv-x="1037" 
d="M386 406q-25 0 -23 25q4 103 36 179t74 124.5t107 107.5q44 40 67.5 64.5t39 55t15.5 66.5q0 89 -55 138.5t-144 49.5q-98 0 -146.5 -52.5t-53.5 -157.5q-1 -24 -24 -24h-239q-11 0 -17.5 6.5t-5.5 17.5q15 202 144.5 307t362.5 105q137 0 245.5 -46.5t170.5 -136
t62 -213.5q0 -73 -23 -127.5t-56 -91.5t-89 -87q-53 -46 -85.5 -82t-56 -86.5t-27.5 -117.5q-1 -24 -24 -24h-255zM384 0q-24 0 -24 24v241q0 23 24 23h257q11 0 17 -6t6 -17v-241q0 -24 -23 -24h-257z" />
    <glyph glyph-name="at" unicode="@" horiz-adv-x="1656" 
d="M987 890l-4 76q-1 24 23 24h225q11 0 17 -6t6 -17v-675q0 -58 16.5 -83t49.5 -25q37 0 66.5 35t46.5 106.5t17 174.5q0 229 -77.5 395t-220 253.5t-336.5 87.5q-187 0 -325.5 -88t-213.5 -254t-75 -394q0 -222 75 -383.5t214 -247t325 -85.5q144 0 250.5 45t183.5 154
q11 15 28 15h121q19 0 19 -16q0 -8 -5 -15q-210 -327 -597 -327q-230 0 -404.5 104.5t-270 299.5t-95.5 458q0 270 96 468.5t270.5 304t405.5 105.5q237 0 415.5 -105.5t276.5 -304.5t98 -470q0 -144 -39 -248t-104.5 -158t-144.5 -54q-54 0 -115.5 18.5t-110.5 58.5t-67 99
q-49 -89 -130 -137.5t-187 -48.5q-130 0 -222 63.5t-139 173.5t-47 249q0 138 50 250.5t143.5 178t218.5 65.5q175 0 273 -120zM994 522q0 148 -54.5 227t-155.5 79q-100 0 -151 -76t-51 -220q0 -158 51.5 -239t148.5 -81q212 0 212 310z" />
    <glyph glyph-name="A" unicode="A" horiz-adv-x="1351" 
d="M1353 27l2 -9q0 -8 -5.5 -13t-15.5 -5h-266q-20 0 -27 19l-107 337h-525l-103 -336q-6 -20 -27 -20h-261q-21 0 -21 18q0 6 1 9l471 1354q7 19 27 19h370q19 0 26 -19zM857 598l-191 598l-183 -598h374z" />
    <glyph glyph-name="B" unicode="B" horiz-adv-x="1277" 
d="M109 0q-23 0 -23 24l15 676l-15 677q0 23 23 23h599q226 0 362 -86t136 -260q0 -123 -61.5 -199t-180.5 -111q137 -31 208.5 -116t71.5 -204q0 -145 -73 -240t-192 -139.5t-261 -44.5h-609zM401 1188l-13 -352h324q90 0 140 45t50 129q0 88 -53.5 133t-136.5 45h-311z
M388 624l13 -412h311q104 0 164 48.5t60 163.5q0 104 -62 152t-162 48h-324z" />
    <glyph glyph-name="C" unicode="C" horiz-adv-x="1411" 
d="M373 61.5q-158 91.5 -242.5 256t-84.5 376.5q0 221 85.5 387.5t242.5 257.5t366 91q242 0 404 -114.5t221 -375.5l1 -6q0 -20 -22 -20h-251q-20 0 -25 21q-31 127 -114.5 194t-217.5 67q-121 0 -205 -59.5t-127.5 -172t-43.5 -268.5q0 -155 44 -265.5t128 -168.5t202 -58
q143 0 226 74t112 218q4 22 26 22h256q10 0 15.5 -6t5.5 -16q0 -6 -1 -9q-58 -271 -218 -394t-414 -123q-211 0 -369 91.5z" />
    <glyph glyph-name="D" unicode="D" horiz-adv-x="1388" 
d="M109 0q-23 0 -23 24l15 676l-15 677q0 23 23 23h491q209 0 376.5 -76.5t266.5 -236t99 -397.5t-99 -392.5t-265.5 -226t-373.5 -71.5h-495zM388 706l13 -480h219q118 0 209.5 49t145 153t53.5 264q0 161 -53.5 269t-147.5 160.5t-215 52.5h-211z" />
    <glyph glyph-name="E" unicode="E" horiz-adv-x="1136" 
d="M109 0q-23 0 -23 24l15 676l-15 677q0 23 23 23h936q11 0 17 -6t6 -17v-179q0 -11 -6 -17.5t-17 -6.5h-644l-13 -322h599q11 0 17 -6t6 -17v-179q0 -11 -6 -17.5t-17 -6.5h-599l13 -400h660q11 0 17 -6t6 -17v-179q0 -11 -6 -17.5t-17 -6.5h-952z" />
    <glyph glyph-name="F" unicode="F" horiz-adv-x="1072" 
d="M109 0q-23 0 -23 24l15 676l-15 677q0 23 23 23h906q11 0 17 -6t6 -17v-179q0 -11 -6 -17.5t-17 -6.5h-614l-13 -384h599q11 0 17 -6t6 -17v-179q0 -11 -6 -17.5t-17 -6.5h-599l12 -540q0 -24 -23 -24h-268z" />
    <glyph glyph-name="G" unicode="G" horiz-adv-x="1455" 
d="M378 62q-157 92 -244.5 258t-87.5 380q0 219 85 384t240.5 255.5t360.5 90.5q255 0 419.5 -119t222.5 -339q1 -3 1 -7q0 -9 -6 -14t-16 -5h-266q-22 0 -26 20q-35 115 -117 174.5t-210 59.5q-120 0 -204 -61t-127 -174t-43 -269q0 -152 45 -263.5t132.5 -171.5t209.5 -60
q151 0 239 87.5t94 248.5h-342q-24 0 -24 24v174q0 11 6.5 17.5t17.5 6.5h645q23 0 23 -32q0 -376 -173 -566.5t-496 -190.5q-202 0 -359 92z" />
    <glyph glyph-name="H" unicode="H" horiz-adv-x="1396" 
d="M1296 700l14 -676q0 -24 -23 -24h-270q-23 0 -23 24l11 610h-614l11 -610q0 -24 -23 -24h-270q-23 0 -23 24l15 676l-15 677q0 23 23 23h270q23 0 23 -23l-10 -517h612l-10 517q0 23 23 23h270q23 0 23 -23z" />
    <glyph glyph-name="I" unicode="I" horiz-adv-x="504" 
d="M119 0q-23 0 -23 24l15 676l-15 677q0 23 23 23h266q23 0 23 -23l-14 -677l14 -676q0 -24 -23 -24h-266z" />
    <glyph glyph-name="J" unicode="J" horiz-adv-x="1070" 
d="M152.5 105.5q-121.5 135.5 -127.5 377.5q0 23 24 23h249q23 0 23 -24q4 -138 47 -206t137 -68q66 0 105 31t56 95t19 168l5 321l-13 554q0 23 23 23h276q23 0 23 -23l-12 -554l4 -323q4 -264 -120.5 -397t-367.5 -133q-229 0 -350.5 135.5z" />
    <glyph glyph-name="K" unicode="K" horiz-adv-x="1265" 
d="M1259 29q5 -6 5 -14q0 -7 -5 -11t-15 -4h-323q-17 0 -28 15l-384 577l-117 -145l6 -423q0 -24 -22 -24h-267q-23 0 -23 24l13 676l-12 677q0 23 23 23h266q22 0 22 -23l-8 -562l410 571q10 14 29 14h305q9 0 14.5 -4t5.5 -10q0 -7 -7 -15l-443 -540z" />
    <glyph glyph-name="L" unicode="L" horiz-adv-x="992" 
d="M109 0q-23 0 -23 24l15 676l-15 677q0 23 23 23h268q23 0 23 -23l-12 -659l13 -492h560q11 0 17 -6t6 -17v-179q0 -11 -6 -17.5t-17 -6.5h-852z" />
    <glyph glyph-name="M" unicode="M" horiz-adv-x="1702" 
d="M109 0q-23 0 -23 24l13 676l-13 677q0 23 23 23h365q21 0 27 -19l373 -1005l352 1005q6 19 26 19h341q23 0 23 -23l-12 -677l12 -676q0 -24 -23 -24h-261q-11 0 -17.5 6.5t-6.5 17.5v468l12 494l-341 -967q-7 -19 -27 -19h-200q-21 0 -27 19l-374 1010l13 -537v-468
q0 -24 -23 -24h-232z" />
    <glyph glyph-name="N" unicode="N" horiz-adv-x="1390" 
d="M109 0q-23 0 -23 24l13 676l-13 677q0 23 23 23h330q19 0 28 -16l561 -991l-12 421v563q0 23 24 23h241q23 0 23 -23l-12 -677l12 -676q0 -24 -23 -24h-342q-19 0 -28 16l-550 983l13 -481v-494q0 -24 -23 -24h-242z" />
    <glyph glyph-name="O" unicode="O" horiz-adv-x="1506" 
d="M381 62q-160 92 -247.5 256.5t-87.5 377.5q0 221 87 387t246.5 256.5t372.5 90.5q212 0 372 -89.5t248 -255.5t88 -389q0 -213 -88 -377.5t-248.5 -256.5t-371.5 -92t-371 92zM967 263q88 59 133.5 169.5t45.5 263.5q0 154 -45.5 266t-134 173t-214.5 61
q-127 0 -214.5 -59.5t-132.5 -172t-45 -268.5q0 -152 46 -262.5t134.5 -170t213.5 -59.5t213 59z" />
    <glyph glyph-name="P" unicode="P" horiz-adv-x="1205" 
d="M634 1400q256 0 394 -114.5t138 -335.5q0 -146 -63.5 -250t-184 -159t-286.5 -55h-241l9 -462q0 -24 -22 -24h-269q-23 0 -23 24l13 676l-13 677q0 23 23 23h525zM811 766.5q61 58.5 61 177.5q0 118 -58 176t-168 58h-249l-8 -470h265q96 0 157 58.5z" />
    <glyph glyph-name="Q" unicode="Q" horiz-adv-x="1511" 
d="M1459 234q11 0 17.5 -6t6.5 -17v-187q0 -11 -6.5 -17.5t-17.5 -6.5h-491q-103 -30 -223 -30q-211 0 -371 92t-247.5 256.5t-87.5 377.5q0 221 87 387t246.5 256.5t372.5 90.5q212 0 372 -89.5t248 -255.5t88 -389q0 -136 -37 -254.5t-107 -211.5l66 4h84zM399 433.5
q46 -110.5 134.5 -170t213.5 -59.5t213 59t133.5 169.5t45.5 263.5q0 154 -45.5 266t-134 173t-214.5 61q-127 0 -214.5 -59.5t-132.5 -172t-45 -268.5q0 -152 46 -262.5z" />
    <glyph glyph-name="R" unicode="R" horiz-adv-x="1284" 
d="M1254 28q5 -8 5 -14t-5.5 -10t-14.5 -4h-302q-19 0 -29 16l-178 296l-137 208h-202l9 -496q0 -24 -23 -24h-268q-23 0 -23 24l13 676l-13 677q0 23 23 23h565q266 0 409 -111.5t143 -328.5q0 -154 -80.5 -258.5t-231.5 -149.5zM397 1178l-9 -436h306q104 0 171 52t67 160
q0 112 -63.5 168t-182.5 56h-289z" />
    <glyph glyph-name="S" unicode="S" horiz-adv-x="1290" 
d="M339.5 20.5q-139.5 52.5 -220 160t-87.5 267.5q-1 24 23 24h272q22 0 25 -22q10 -82 42.5 -137.5t99.5 -86t177 -30.5q140 0 211 44.5t71 141.5q0 64 -46 102t-115 57.5t-193 43.5q-171 32 -278.5 68t-184.5 120t-77 231q0 131 66 227t192.5 147.5t303.5 51.5
q253 0 407.5 -102.5t187.5 -316.5q1 -12 -5 -18.5t-17 -6.5h-272q-22 0 -25 23q-14 92 -88 141.5t-200 49.5q-114 0 -181 -41t-67 -125q0 -59 45 -94.5t113.5 -54.5t187.5 -40q175 -33 284.5 -68.5t188.5 -120t79 -232.5q0 -146 -71.5 -248.5t-205 -155t-317.5 -52.5
q-186 0 -325.5 52.5z" />
    <glyph glyph-name="T" unicode="T" horiz-adv-x="1155" 
d="M439 0q-24 0 -23 24l18 676l-15 474h-378q-11 0 -17 6.5t-6 17.5v179q0 11 6.5 17t16.5 6h1073q11 0 17.5 -6t6.5 -17v-179q0 -11 -6.5 -17.5t-17.5 -6.5h-378l-15 -474l18 -676q2 -24 -22 -24h-278z" />
    <glyph glyph-name="U" unicode="U" horiz-adv-x="1284" 
d="M222.5 111.5q-145.5 141.5 -143.5 408.5l3 380l-11 477q0 23 23 23h276q23 0 23 -23l-11 -469l3 -386q2 -153 65 -231.5t197 -78.5q144 0 213 78.5t69 231.5v380l-8 475q0 23 23 23h246q23 0 23 -23l-8 -477v-380q0 -269 -140.5 -409.5t-417.5 -140.5
q-279 0 -424.5 141.5z" />
    <glyph glyph-name="V" unicode="V" horiz-adv-x="1287" 
d="M-2 1373q-1 3 -1 9q0 18 21 18h289q20 0 26 -20l334 -1149l325 1149q6 20 26 20h252q10 0 15.5 -4.5t5.5 -12.5q0 -2 -2 -10l-435 -1354q-7 -19 -26 -19h-358q-20 0 -27 19z" />
    <glyph glyph-name="W" unicode="W" horiz-adv-x="1844" 
d="M8 1374l-1 6q0 20 22 20h262q22 0 26 -21l219 -1105l210 1105q5 21 26 21h311q21 0 25 -21l221 -1121l219 1121q5 21 26 21h241q12 0 18 -7t3 -19l-325 -1353q-6 -21 -26 -21h-326q-22 0 -25 21l-221 959l-200 -959q-4 -21 -26 -21h-336q-22 0 -25 21z" />
    <glyph glyph-name="X" unicode="X" horiz-adv-x="1266" 
d="M23 0q-10 0 -15.5 4t-5.5 11q0 5 5 13l450 709l-415 635q-5 8 -5 14t5.5 10t14.5 4h316q19 0 28 -16l237 -416l242 416q9 16 28 16h294q9 0 14.5 -4t5.5 -10t-5 -14l-411 -647l453 -697q5 -8 5 -13q0 -7 -5.5 -11t-15.5 -4h-318q-19 0 -28 16l-268 489l-285 -489
q-9 -16 -28 -16h-293z" />
    <glyph glyph-name="Y" unicode="Y" horiz-adv-x="1230" 
d="M2 1372q-4 5 -4 12t5.5 11.5t15.5 4.5h294q21 0 28 -18l286 -643l288 643q8 18 28 18h269q20 0 20 -16q0 -6 -3 -12l-468 -898l10 -450q0 -24 -22 -24h-269q-23 0 -23 24l13 450z" />
    <glyph glyph-name="Z" unicode="Z" horiz-adv-x="1181" 
d="M60 0q-23 0 -23 24v208q0 18 10 29l730 913h-663q-23 0 -23 24v179q0 11 6.5 17t16.5 6h1005q11 0 17.5 -6t6.5 -17v-217q0 -15 -10 -29l-720 -905h708q11 0 17.5 -6t6.5 -17v-179q0 -11 -6.5 -17.5t-17.5 -6.5h-1061z" />
    <glyph glyph-name="bracketleft" unicode="[" horiz-adv-x="580" 
d="M84 -280q-24 0 -24 23v1694q0 23 24 23h413q11 0 17 -6t6 -17v-179q0 -11 -6 -17.5t-17 -6.5h-177v-1288h177q11 0 17 -6.5t6 -17.5v-179q0 -11 -6 -17t-17 -6h-413z" />
    <glyph glyph-name="backslash" unicode="\" horiz-adv-x="736" 
d="M490 -280q-21 0 -25 21l-414 1693l-1 6q0 20 22 20h172q20 0 26 -21l413 -1693q1 -3 1 -7q0 -9 -6 -14t-16 -5h-172z" />
    <glyph glyph-name="bracketright" unicode="]" horiz-adv-x="580" 
d="M84 -280q-24 0 -24 23v179q0 11 6.5 17.5t17.5 6.5h176v1288h-176q-11 0 -17.5 6.5t-6.5 17.5v179q0 11 6.5 17t17.5 6h413q11 0 17 -6t6 -17v-1694q0 -11 -6 -17t-17 -6h-413z" />
    <glyph glyph-name="asciicircum" unicode="^" horiz-adv-x="1110" 
d="M53 460q-9 0 -14.5 4t-5.5 11q0 6 3 12l399 895q8 18 28 18h182q21 0 28 -18l400 -895q3 -6 3 -11q0 -7 -5.5 -11.5t-15.5 -4.5h-182q-20 0 -27 18l-293 692l-291 -692q-7 -18 -27 -18h-182z" />
    <glyph glyph-name="underscore" unicode="_" horiz-adv-x="836" 
d="M51 -340q-24 0 -24 23v161q0 24 24 24h733q11 0 17 -6.5t6 -17.5v-161q0 -11 -6 -17t-17 -6h-733z" />
    <glyph glyph-name="grave" unicode="`" horiz-adv-x="784" 
d="M643 1144q-7 -21 -29 -16l-490 125q-18 5 -18 21q0 6 1 9l57 178q4 16 19 16q7 0 11 -2l469 -200q16 -8 16 -22q0 -3 -2 -9z" />
    <glyph glyph-name="a" unicode="a" horiz-adv-x="1165" 
d="M1085 514l9 -490q0 -24 -23 -24h-255q-24 0 -23 24l3 97q-54 -68 -131 -104.5t-173 -36.5q-142 0 -242.5 69.5t-152 190t-51.5 272.5q0 150 55 272.5t158 194t239 71.5q190 0 297 -130l-4 86q-1 24 23 24h257q23 0 23 -23zM744 264q58 84 58 252q0 164 -58.5 249
t-169.5 85q-110 0 -166 -82.5t-56 -239.5q0 -171 56.5 -259.5t163.5 -88.5q114 0 172 84z" />
    <glyph glyph-name="b" unicode="b" horiz-adv-x="1165" 
d="M915.5 980.5q100.5 -69.5 152 -190t51.5 -272.5q0 -150 -55 -272.5t-158 -194t-239 -71.5q-190 0 -297 130l4 -86q2 -24 -23 -24h-257q-24 0 -24 24l10 676l-10 677q0 23 24 23h259q23 0 23 -23l-5 -464q55 66 131.5 101.5t170.5 35.5q142 0 242.5 -69.5zM754.5 264.5
q58.5 83.5 58.5 241.5q0 167 -57 253.5t-163 86.5q-114 0 -172 -82t-58 -246q0 -161 56.5 -246.5t163.5 -87.5q113 -3 171.5 80.5z" />
    <glyph glyph-name="c" unicode="c" horiz-adv-x="1090" 
d="M290.5 40q-118.5 66 -181.5 187.5t-63 284.5q0 164 63 287t183 190t286 67q129 0 228 -45.5t158.5 -128.5t72.5 -193l1 -5q0 -9 -6.5 -14.5t-16.5 -5.5h-232q-21 0 -25 22q-17 82 -65.5 125t-114.5 43q-114 -1 -169 -85t-55 -255q0 -177 56 -258.5t172 -81.5q75 0 125 52
t61 147q3 23 24 23h237q12 0 18 -6t5 -16q-12 -116 -75.5 -207t-168.5 -142t-236 -51q-163 0 -281.5 66z" />
    <glyph glyph-name="d" unicode="d" horiz-adv-x="1165" 
d="M1087 700l8 -676q0 -24 -24 -24h-257q-24 0 -23 24l5 96q-55 -68 -132 -104t-172 -36q-142 0 -242.5 69.5t-152 190t-51.5 272.5q0 150 55 272.5t158 194t239 71.5q94 0 168.5 -32.5t127.5 -95.5l-5 455q0 23 23 23h259q24 0 24 -23zM744 262q58 84 58 252
q0 163 -56.5 249.5t-163.5 88.5q-113 3 -171.5 -80.5t-58.5 -245.5q0 -171 56.5 -259.5t163.5 -88.5q114 0 172 84z" />
    <glyph glyph-name="e" unicode="e" horiz-adv-x="1140" 
d="M348 454q9 -145 66 -212.5t166 -67.5q159 0 199 153q6 21 25 21h242q12 0 18.5 -4.5t5.5 -12.5q-13 -96 -76 -177.5t-171 -130.5t-247 -49q-168 0 -287.5 68.5t-181 190t-61.5 279.5q0 164 63 286.5t181 190t280 67.5q166 0 284 -70t180.5 -199.5t67.5 -308.5
q0 -24 -24 -24h-730zM428.5 804.5q-53.5 -53.5 -72.5 -160.5h422q-10 91 -61.5 152.5t-144.5 61.5q-90 0 -143.5 -53.5z" />
    <glyph glyph-name="f" unicode="f" horiz-adv-x="791" 
d="M213 0q-23 0 -23 24l10 430v364h-132q-11 0 -17.5 6.5t-6.5 17.5v165q0 23 24 23h132v68q0 111 46.5 183.5t122.5 105.5t167 33q66 0 183 -16q21 -4 21 -26v-161q0 -12 -7 -17.5t-18 -2.5q-45 9 -109 9q-53 0 -82.5 -31t-29.5 -105v-40h223q11 0 17 -6t6 -17v-165
q0 -24 -23 -24h-223v-364l10 -430q0 -24 -22 -24h-269z" />
    <glyph glyph-name="g" unicode="g" horiz-adv-x="1163" 
d="M258 73.5q-105 67.5 -158.5 184.5t-53.5 264q0 145 55 264t158 188.5t239 69.5q189 0 297 -126l-4 88q-1 24 23 24h252q24 0 24 -23l-7 -507l6 -472q2 -131 -56 -227t-173 -148.5t-282 -52.5q-137 -2 -244.5 34t-172.5 110t-74 182q-1 11 5.5 17.5t17.5 6.5h250
q21 0 24 -22q11 -62 63 -96t141 -34q102 0 161 58.5t59 175.5v118q-52 -70 -127 -107t-169 -37q-149 0 -254 67.5zM802 522q0 159 -58.5 242.5t-169.5 83.5q-109 0 -165.5 -80.5t-56.5 -233.5q0 -164 56.5 -248t163.5 -84q230 0 230 320z" />
    <glyph glyph-name="h" unicode="h" horiz-adv-x="1120" 
d="M955 944.5q96 -109.5 93 -330.5l-3 -220l9 -370q2 -24 -22 -24h-263q-24 0 -23 24l9 366l-3 260q-1 89 -44 136.5t-108 47.5q-50 0 -98.5 -26.5t-85 -79t-51.5 -124.5l9 -580q0 -24 -22 -24h-255q-23 0 -23 24l11 678l-11 675q0 23 23 23h255q22 0 22 -23l-7 -463
q108 140 313 140q179 0 275 -109.5z" />
    <glyph glyph-name="i" unicode="i" horiz-adv-x="468" 
d="M103 0q-23 0 -23 24l9 490l-9 493q0 23 23 23h263q22 0 22 -23l-9 -493l9 -490q0 -24 -22 -24h-263zM106 1130q-24 0 -24 24v223q0 11 6.5 17t17.5 6h257q10 0 16.5 -6t6.5 -17v-223q0 -11 -6 -17.5t-17 -6.5h-257z" />
    <glyph glyph-name="j" unicode="j" horiz-adv-x="468" 
d="M103 -340q-24 0 -24 23l10 671l-10 653q0 23 24 23h263q23 0 23 -23l-10 -653l10 -671q0 -23 -23 -23h-263zM106 1130q-24 0 -24 24v223q0 11 6.5 17t17.5 6h257q10 0 16.5 -6t6.5 -17v-223q0 -11 -6 -17.5t-17 -6.5h-257z" />
    <glyph glyph-name="k" unicode="k" horiz-adv-x="1034" 
d="M1037 28q4 -7 4 -13q0 -7 -5 -11t-15 -4h-297q-19 0 -28 17l-233 425l-95 -120l4 -298q0 -24 -23 -24h-255q-23 0 -23 24l11 676l-11 677q0 23 23 23h255q23 0 23 -23l-10 -671l1 -62l299 373q10 13 29 13h273q9 0 14.5 -4t5.5 -10q0 -8 -7 -15l-304 -341z" />
    <glyph glyph-name="l" unicode="l" horiz-adv-x="462" 
d="M104 0q-23 0 -23 24l11 676l-11 677q0 23 23 23h255q22 0 22 -23l-11 -677l11 -676q0 -24 -22 -24h-255z" />
    <glyph glyph-name="m" unicode="m" horiz-adv-x="1662" 
d="M1593 370l6 -346q0 -24 -22 -24h-263q-24 0 -23 24l9 346v280q0 91 -36 137.5t-99 46.5q-41 0 -82 -34.5t-69 -101.5t-32 -159v-7v-162l9 -346q2 -24 -22 -24h-263q-24 0 -23 24l9 346v280q0 91 -35.5 137.5t-99.5 46.5q-44 0 -86.5 -37.5t-69.5 -110t-27 -172.5v-144
l9 -346q2 -24 -22 -24h-267q-24 0 -23 24l9 346l-6 637q0 23 24 23h245q25 0 23 -24l-5 -106q55 77 127 115.5t169 38.5q109 0 183.5 -48t110.5 -145q62 109 138.5 151t175.5 42q159 0 243.5 -99t84.5 -301v-284z" />
    <glyph glyph-name="n" unicode="n" horiz-adv-x="1122" 
d="M1050 438l7 -414q0 -24 -23 -24h-257q-24 0 -24 24l7 414v212q0 55 -21 96.5t-57 64.5t-81 23q-57 0 -108 -35.5t-83.5 -108t-32.5 -176.5v-76l4 -414q0 -24 -23 -24h-261q-23 0 -23 24l9 470l-6 513q0 23 24 23h242q25 0 23 -24l-5 -106q55 70 141.5 112t190.5 42
q109 0 189.5 -47.5t124 -137.5t43.5 -215v-216z" />
    <glyph glyph-name="o" unicode="o" horiz-adv-x="1147" 
d="M290.5 40q-119.5 66 -182 187t-62.5 285t63 287t182 190t285 67t284.5 -65.5t180 -187t61.5 -285.5t-62 -287t-180.5 -190t-283.5 -67q-166 0 -285.5 66zM741 255q53 81 53 257q0 174 -54.5 259t-165.5 85q-114 -1 -168 -86t-54 -260q0 -173 55.5 -254.5t168.5 -81.5
q112 0 165 81z" />
    <glyph glyph-name="p" unicode="p" horiz-adv-x="1165" 
d="M915.5 980.5q100.5 -69.5 152 -190t51.5 -272.5q0 -150 -55 -272.5t-158 -194t-239 -71.5q-93 0 -166.5 31.5t-125.5 92.5l5 -421q0 -23 -23 -23h-263q-24 0 -24 23l10 735l-9 589q0 23 23 23h257q25 0 23 -24l-5 -96q55 68 132 104t172 36q142 0 242.5 -69.5zM755 263
q58 81 58 239q0 170 -57 257t-167 87q-111 0 -168.5 -84t-57.5 -248q0 -160 57 -246t163 -86q114 0 172 81z" />
    <glyph glyph-name="q" unicode="q" horiz-adv-x="1165" 
d="M795 920l-4 86q-1 24 23 24h257q24 0 24 -23l-10 -657l10 -667q0 -23 -24 -23h-259q-23 0 -23 23l2 431q-54 -65 -129.5 -99.5t-169.5 -34.5q-142 0 -242.5 69.5t-152 190t-51.5 272.5q0 150 55 272.5t158 194t239 71.5q190 0 297 -130zM744.5 263.5
q57.5 83.5 57.5 248.5q0 162 -57 250t-163 88q-111 0 -170.5 -81t-59.5 -245q0 -171 57 -257.5t167 -86.5q111 0 168.5 83.5z" />
    <glyph glyph-name="r" unicode="r" horiz-adv-x="813" 
d="M94 0q-23 0 -23 24l8 492l-8 491q0 23 23 23h253q25 0 23 -24l-7 -150q59 89 155.5 135.5t212.5 46.5q26 0 43 -4q21 -3 21 -26v-175q0 -22 -21 -22l-35 1q-108 0 -191 -40t-130 -119.5t-47 -194.5l3 -434q0 -24 -23 -24h-257z" />
    <glyph glyph-name="s" unicode="s" horiz-adv-x="1073" 
d="M297 16q-113 40 -179.5 118t-73.5 189q0 23 23 23h246q11 0 17 -6t6 -17q7 -82 63 -121.5t161 -39.5q88 0 135 33t47 93q0 37 -30.5 58.5t-77 32.5t-132.5 24q-134 20 -221 46t-150 92t-63 185q0 106 54 179.5t155 111t241 37.5q205 0 329.5 -81t140.5 -236
q1 -12 -5 -18.5t-18 -6.5h-234q-21 0 -25 22q-13 67 -59 102.5t-133 35.5q-160 0 -160 -124q0 -37 30.5 -58.5t77.5 -31.5t130 -21q134 -19 221.5 -44t151 -91.5t63.5 -187.5q0 -105 -61.5 -181.5t-168.5 -116.5t-243 -40q-145 0 -258 40z" />
    <glyph glyph-name="t" unicode="t" horiz-adv-x="738" 
d="M329 13q-77 33 -124 105.5t-47 183.5l1 391l1 125h-110q-11 0 -17.5 6.5t-6.5 17.5v165q0 23 24 23h108l-3 235q0 23 24 23h259q23 0 23 -23l-3 -235h223q11 0 17 -6t6 -17v-165q0 -24 -23 -24h-225v-120l2 -388q0 -63 28.5 -89.5t81.5 -26.5q54 0 108 15q3 1 8 1
q8 0 13 -5.5t5 -15.5v-149q0 -20 -18 -26q-97 -34 -186 -34q-92 0 -169 33z" />
    <glyph glyph-name="u" unicode="u" horiz-adv-x="1122" 
d="M239.5 23.5q-80.5 47.5 -124 137.5t-43.5 215v216l-7 415q0 23 23 23h257q24 0 24 -23l-7 -415v-212q0 -55 21 -96.5t57 -64.5t81 -23q57 0 108 35.5t83.5 108t32.5 176.5v76l-4 415q0 23 23 23h261q23 0 23 -23l-9 -471l6 -512q0 -24 -24 -24h-242q-24 0 -23 24l5 106
q-55 -70 -141.5 -112t-190.5 -42q-109 0 -189.5 47.5z" />
    <glyph glyph-name="v" unicode="v" horiz-adv-x="1044" 
d="M-9 1003q-2 8 -2 10q0 17 21 17h275q21 0 27 -20l218 -772l244 772q6 20 27 20h233q21 0 21 -17q0 -2 -2 -10l-345 -988q-6 -20 -26 -20h-325q-20 0 -27 20z" />
    <glyph glyph-name="w" unicode="w" horiz-adv-x="1459" 
d="M0 1004q-1 2 -1 7q0 8 6 13.5t16 5.5h254q22 0 25 -22l115 -768l142 769q5 21 25 21h319q22 0 25 -21l138 -751l119 750q3 22 25 22h230q13 0 18.5 -7.5t2.5 -18.5l-216 -983q-4 -21 -25 -21h-312q-22 0 -26 21l-161 762l-141 -762q-3 -21 -25 -21h-310q-21 0 -25 21z
" />
    <glyph glyph-name="x" unicode="x" horiz-adv-x="985" 
d="M14 0q-10 0 -15 4t-5 11q0 6 4 13l299 511l-284 463q-5 8 -5 13q0 7 5.5 11t15.5 4h284q18 0 28 -17l172 -327l162 327q9 17 28 17h250q10 0 15 -4t5 -11q0 -6 -4 -13l-274 -470l292 -504q4 -7 4 -13q0 -7 -5 -11t-15 -4h-286q-19 0 -28 17l-174 344l-182 -344
q-11 -17 -28 -17h-259z" />
    <glyph glyph-name="y" unicode="y" horiz-adv-x="1026" 
d="M735 1010q5 20 26 20h255q21 0 21 -17q0 -2 -2 -10l-455 -1324q-6 -19 -26 -19h-238q-21 0 -21 17q0 2 2 10l105 303l-409 1013q-3 6 -3 11q0 16 22 16h288q20 0 27 -19l223 -641z" />
    <glyph glyph-name="z" unicode="z" horiz-adv-x="1003" 
d="M91 0q-11 0 -17.5 6.5t-6.5 17.5v172q0 15 10 29l465 593h-409q-24 0 -24 24v165q0 23 24 23h751q11 0 17 -6t6 -17v-177q0 -15 -10 -29l-469 -589h486q11 0 17 -6t6 -17v-165q0 -24 -23 -24h-823z" />
    <glyph glyph-name="braceleft" unicode="{" horiz-adv-x="580" 
d="M427 1234q-47 0 -73 -25.5t-26 -77.5q0 -48 27 -125l58 -160q15 -43 15 -79q0 -58 -33 -105t-102 -73q68 -27 100.5 -76t32.5 -107q0 -36 -13 -72l-50 -136q-33 -89 -33 -148q0 -53 26 -78.5t71 -25.5h75q11 0 17 -6.5t6 -17.5v-179q0 -11 -6 -17t-17 -6h-77
q-118 0 -197.5 39t-118 107.5t-38.5 156.5q0 87 34 177l50 134q17 44 17 78q0 31 -16 49.5t-51 18.5h-36q-24 0 -24 24v173q0 11 6.5 17t17.5 6h36q35 0 51 18t16 49q0 33 -17 79l-58 160q-28 77 -28 148q0 90 44 159t124.5 108t187.5 39h77q11 0 17 -6t6 -17v-179
q0 -11 -6 -17.5t-17 -6.5h-75z" />
    <glyph glyph-name="bar" unicode="|" horiz-adv-x="391" 
d="M109 -280q-10 0 -16.5 6t-6.5 17v1694q0 11 6 17t17 6h173q11 0 17.5 -6t6.5 -17v-1694q0 -23 -24 -23h-173z" />
    <glyph glyph-name="braceright" unicode="}" horiz-adv-x="580" 
d="M535 504q0 -11 -6 -17.5t-17 -6.5h-37q-35 0 -51 -18.5t-16 -49.5q0 -34 17 -78l50 -134q34 -90 34 -177q0 -88 -38.5 -156.5t-118 -107.5t-197.5 -39h-76q-11 0 -17.5 6t-6.5 17v179q0 11 6.5 17.5t17.5 6.5h74q45 0 71 25.5t26 78.5q0 59 -33 148l-50 136
q-13 36 -13 72q0 58 32.5 107t100.5 76q-69 26 -102 73t-33 105q0 36 15 79l58 160q27 77 27 125q0 52 -26 77.5t-73 25.5h-74q-11 0 -17.5 6.5t-6.5 17.5v179q0 11 6.5 17t17.5 6h76q107 0 187.5 -39t124.5 -108t44 -159q0 -71 -28 -148l-58 -160q-17 -46 -17 -79
q0 -31 16 -49t51 -18h37q11 0 17 -6t6 -17v-173z" />
    <glyph glyph-name="asciitilde" unicode="~" horiz-adv-x="1110" 
d="M79 552q-24 0 -24 24q5 205 80.5 328.5t223.5 123.5q66 0 117 -26t86 -61t77 -88q37 -47 58.5 -67t45.5 -20q53 0 75.5 58t24.5 164q0 24 24 24h165q23 0 23 -24q-4 -204 -78.5 -318t-219.5 -114q-62 0 -110.5 24t-82 57t-75.5 84q-42 50 -68.5 73.5t-57.5 23.5
q-50 0 -72 -63t-24 -179q0 -24 -23 -24h-165z" />
    <glyph glyph-name="exclamdown" unicode="&#xa1;" horiz-adv-x="458" 
d="M355 1030q11 0 17 -6t6 -17v-241q0 -24 -23 -24h-251q-24 0 -24 24v241q0 23 24 23h251zM355 624q11 0 17 -6t6 -17v-948q0 -11 -6 -17t-17 -6h-251q-24 0 -24 23v948q0 11 6.5 17t17.5 6h251z" />
    <glyph glyph-name="cent" unicode="&#xa2;" horiz-adv-x="1118" 
d="M1059 596q12 0 18 -6t5 -16q-14 -138 -100 -239t-223 -140v-171q0 -24 -24 -24h-257q-23 0 -23 24v166q-119 27 -204.5 97.5t-130 179t-44.5 245.5t44.5 246t129.5 181t205 100v138q0 11 6 17t17 6h257q11 0 17.5 -6t6.5 -17v-139q131 -34 211.5 -126t96.5 -223l1 -5
q0 -9 -6.5 -14.5t-16.5 -5.5h-232q-21 0 -25 22q-17 82 -65.5 125t-114.5 43q-114 -1 -169 -85t-55 -255q0 -177 56 -258.5t172 -81.5q75 0 125 52t61 147q3 23 24 23h237z" />
    <glyph glyph-name="sterling" unicode="&#xa3;" horiz-adv-x="1238" 
d="M1182 488q23 0 23 -29q-7 -251 -129 -367t-343 -110l-666 17q-11 0 -17.5 7t-6.5 18v171q0 21 20 27l38 10q72 19 102.5 70.5t33.5 125.5q1 80 -31 206h-175q-11 0 -17.5 6.5t-6.5 17.5v159q0 23 24 23h123q-23 106 -23 172q0 122 60 217t173.5 148t268.5 53
q217 0 353.5 -105t165.5 -326q1 -12 -5 -18.5t-17 -6.5h-250q-22 0 -26 23q-14 95 -71.5 147t-153.5 52q-62 0 -103.5 -26t-61 -67.5t-19.5 -90.5q0 -72 21 -172h266q11 0 17 -6t6 -17v-159q0 -24 -23 -24h-219q18 -97 18 -164q0 -73 -41.5 -142.5t-126.5 -101.5l344 -10
q78 -2 119.5 27t57 82.5t17.5 139.5q0 23 24 23h257z" />
    <glyph glyph-name="currency" unicode="&#xa4;" horiz-adv-x="1173" 
d="M1099 306q8 -7 8 -16q0 -8 -8 -16l-105 -104q-8 -8 -16 -8q-7 0 -17 8l-168 169q-97 -51 -205 -51q-110 0 -206 52l-170 -170q-10 -8 -17 -8q-8 0 -16 8l-104 104q-9 9 -9 17q0 7 8 15l164 164q-33 47 -50.5 102.5t-17.5 113.5t17.5 113.5t50.5 102.5l-164 164
q-8 8 -8 15q0 8 9 17l104 104q8 8 17 8t16 -8l170 -170q96 52 206 52q108 0 205 -51l168 169q8 8 17 8t16 -8l105 -104q8 -7 8 -16q0 -8 -8 -16l-162 -163q33 -47 51 -102.5t18 -114.5t-18 -114.5t-51 -102.5zM692 483.5q49 29.5 78.5 82.5t29.5 120q0 69 -29.5 121.5
t-78 81.5t-104.5 29q-58 0 -106.5 -28.5t-77 -81.5t-28.5 -122q0 -67 28.5 -120t77 -82.5t106.5 -29.5q55 0 104 29.5z" />
    <glyph glyph-name="yen" unicode="&#xa5;" horiz-adv-x="1238" 
d="M1215 1400q9 0 14 -4t5 -11q0 -6 -4 -13l-376 -632h212q11 0 17 -6t6 -17v-155q0 -11 -6 -17.5t-17 -6.5h-302l3 -128h299q11 0 17 -6t6 -17v-155q0 -11 -6 -17.5t-17 -6.5h-294l4 -184q0 -24 -22 -24h-271q-23 0 -23 24l5 184h-292q-24 0 -24 24v155q0 11 6.5 17t17.5 6
h297l4 128h-301q-24 0 -24 24v155q0 11 6.5 17t17.5 6h211l-376 632q-4 7 -4 13q0 7 5 11t15 4h294q20 0 27 -17l286 -579l288 579q7 17 27 17h269z" />
    <glyph glyph-name="brokenbar" unicode="&#xa6;" horiz-adv-x="391" 
d="M109 720q-11 0 -17 6.5t-6 17.5v693q0 11 6 17t17 6h173q11 0 17.5 -6t6.5 -17v-693q0 -24 -24 -24h-173zM109 -280q-10 0 -16.5 6t-6.5 17v694q0 11 6 17t17 6h173q11 0 17.5 -6t6.5 -17v-694q0 -23 -24 -23h-173z" />
    <glyph glyph-name="section" unicode="&#xa7;" horiz-adv-x="1268" 
d="M1148 146q58 -71 58 -184q0 -118 -71.5 -203.5t-195.5 -130t-281 -44.5q-166 0 -298 40t-210.5 118t-86.5 188q-1 24 23 24h245q21 0 24 -23q10 -83 85.5 -122t217.5 -39q127 0 194.5 33t67.5 93q0 52 -43 84t-107 50t-181 42q-156 31 -258 66t-173.5 109.5t-71.5 198.5
q0 105 57 180.5t164 118.5q-104 42 -162.5 108t-58.5 169q0 124 63.5 211.5t183 132t283.5 44.5q241 0 386.5 -86.5t163.5 -250.5q1 -12 -5 -18.5t-17 -6.5h-234q-11 0 -17 5.5t-8 16.5q-33 158 -273 158q-114 0 -177 -35t-63 -109q0 -47 38.5 -76.5t98.5 -47t161 -36.5
l21 -4q162 -30 264.5 -62.5t176.5 -104.5t74 -195q0 -100 -57.5 -176t-161.5 -122q103 -43 161 -114zM415.5 424q43.5 -32 107.5 -49t183 -40q106 23 160 61.5t54 95.5q0 50 -43 81.5t-107 50.5t-179 43q-116 -25 -167.5 -61.5t-51.5 -97.5q0 -52 43.5 -84z" />
    <glyph glyph-name="dieresis" unicode="&#xa8;" horiz-adv-x="864" 
d="M124 1130q-11 0 -17.5 6.5t-6.5 17.5v223q0 11 6.5 17t17.5 6h197q11 0 17 -6t6 -17v-223q0 -11 -6 -17.5t-17 -6.5h-197zM544 1130q-11 0 -17.5 6.5t-6.5 17.5v223q0 11 6.5 17t17.5 6h197q11 0 17 -6t6 -17v-223q0 -11 -6 -17.5t-17 -6.5h-197z" />
    <glyph glyph-name="copyright" unicode="&#xa9;" horiz-adv-x="1506" 
d="M381 62q-160 92 -247.5 256.5t-87.5 377.5q0 221 87 387t246.5 256.5t372.5 90.5q212 0 372 -89.5t248 -255.5t88 -389q0 -213 -88 -377.5t-248.5 -256.5t-371.5 -92t-371 92zM1064.5 157.5q128.5 73.5 195 211t66.5 327.5t-66.5 329.5t-195.5 215t-312 75.5
q-185 0 -313 -74t-193.5 -213t-65.5 -333q0 -189 67 -326.5t196 -211.5t311 -74t310.5 73.5zM534.5 299.5q-99.5 57.5 -153 161t-53.5 237.5q0 140 54 245.5t153 163t231 57.5q319 0 393 -300l1 -6q0 -20 -22 -20h-141q-21 0 -25 21q-20 76 -73 116.5t-135 40.5
q-115 0 -176.5 -83t-61.5 -233q0 -149 62 -230.5t174 -81.5q174 0 214 179q5 21 26 21h144q10 0 15.5 -6t5.5 -16q0 -6 -1 -9q-39 -165 -139.5 -240t-258.5 -75q-134 0 -233.5 57.5z" />
    <glyph glyph-name="ordfeminine" unicode="&#xaa;" horiz-adv-x="912" 
d="M848 1034l4 -360q0 -24 -23 -24h-213q-24 0 -23 24l2 39q-88 -83 -223 -83q-103 0 -176.5 52.5t-111.5 143.5t-38 206q0 108 40.5 196.5t116 140t175.5 51.5q133 0 215 -70l-1 26q-1 24 23 24h214q23 0 23 -23zM602 1036q0 109 -37 166.5t-107 57.5q-72 0 -109 -59.5
t-37 -172.5q0 -116 36.5 -177t104.5 -61q149 0 149 246z" />
    <glyph glyph-name="guillemotleft" unicode="&#xab;" horiz-adv-x="1093" 
d="M372 134q-16 0 -28 14l-295 354q-7 11 -7 16q0 7 7 16l295 367q10 13 29 13h193q9 0 14.5 -4t5.5 -10t-6 -15l-297 -367l296 -355q7 -7 7 -15q0 -6 -5.5 -10t-14.5 -4h-194zM827 134q-16 0 -28 14l-295 354q-7 11 -7 16q0 7 7 16l295 367q10 13 29 13h193q9 0 14.5 -4
t5.5 -10t-6 -15l-297 -367l296 -355q7 -7 7 -15q0 -6 -5.5 -10t-14.5 -4h-194z" />
    <glyph glyph-name="logicalnot" unicode="&#xac;" horiz-adv-x="1140" 
d="M124 578q-24 0 -24 24v175q0 11 6.5 17t17.5 6h893q11 0 17 -6t6 -17v-573q0 -11 -6 -17.5t-17 -6.5h-183q-24 0 -24 24v374h-686z" />
    <glyph glyph-name="registered" unicode="&#xae;" horiz-adv-x="786" 
d="M211.5 753q-78.5 45 -122 126t-43.5 185q0 109 42.5 190.5t121.5 125.5t184 44q103 0 181.5 -44t121.5 -125t43 -191q0 -104 -43 -185t-121 -126t-182 -45t-182.5 45zM590.5 855.5q69.5 75.5 69.5 208.5q0 134 -69.5 211t-196.5 77q-130 0 -199 -75.5t-69 -212.5
q0 -133 70 -208.5t198 -75.5q127 0 196.5 75.5zM248 872q-24 0 -24 24v345q0 23 24 23h140q82 0 126 -31t44 -91q0 -41 -22.5 -69.5t-65.5 -42.5l84 -130q5 -8 5 -14t-5.5 -10t-14.5 -4h-67q-19 0 -28 16l-82 130h-36v-122q0 -24 -23 -24h-55zM326 1192v-104h66
q29 0 47.5 13t18.5 39q0 52 -68 52h-64z" />
    <glyph glyph-name="macron" unicode="&#xaf;" horiz-adv-x="854" 
d="M124 1160q-24 0 -24 24v153q0 11 6.5 17t17.5 6h607q11 0 17 -6t6 -17v-153q0 -11 -6 -17.5t-17 -6.5h-607z" />
    <glyph glyph-name="macron" unicode="&#x2c9;" horiz-adv-x="854" 
d="M124 1160q-24 0 -24 24v153q0 11 6.5 17t17.5 6h607q11 0 17 -6t6 -17v-153q0 -11 -6 -17.5t-17 -6.5h-607z" />
    <glyph glyph-name="degree" unicode="&#xb0;" horiz-adv-x="746" 
d="M200 825.5q-77 41.5 -121 114t-44 162.5t44 162.5t121 114t173 41.5t173 -41.5t121 -114t44 -162.5t-44 -162.5t-121 -114t-173 -41.5t-173 41.5zM468 990.5q37 40.5 37 111.5q0 72 -37 112t-95 40q-60 0 -96 -39.5t-36 -112.5q0 -72 36 -112t96 -40q58 0 95 40.5z" />
    <glyph glyph-name="plusminus" unicode="&#xb1;" horiz-adv-x="1110" 
d="M1002 880q11 0 17 -6t6 -17v-175q0 -11 -6 -17.5t-17 -6.5h-331v-374q0 -11 -6 -17.5t-17 -6.5h-183q-24 0 -24 24v374h-332q-24 0 -24 24v175q0 11 6.5 17t17.5 6h332v377q0 11 6.5 17t17.5 6h183q11 0 17 -6t6 -17v-377h331zM109 0q-24 0 -24 24v175q0 11 6.5 17
t17.5 6h893q11 0 17 -6t6 -17v-175q0 -11 -6 -17.5t-17 -6.5h-893z" />
    <glyph glyph-name="two.sups" unicode="&#xb2;" horiz-adv-x="666" 
d="M74 630q-24 0 -24 24v88q0 86 35 144t82.5 91t122.5 71q47 24 73.5 40t43.5 37.5t17 48.5q3 48 -21 74t-67 26q-40 -2 -65.5 -30t-29.5 -80q-1 -24 -24 -24h-135q-11 0 -17.5 5.5t-6.5 16.5q0 120 71.5 186.5t206.5 67.5q132 0 199.5 -61t72.5 -175q0 -82 -36.5 -138
t-86 -88t-124.5 -68q-66 -31 -95.5 -53t-29.5 -53v-2h351q11 0 17 -6t6 -17v-101q0 -11 -6 -17.5t-17 -6.5h-513z" />
    <glyph glyph-name="three.sups" unicode="&#xb3;" horiz-adv-x="662" 
d="M129 677.5q-69 57.5 -82 170.5l-1 5q0 9 6 14t17 5h144q21 0 24 -23q5 -47 28.5 -72.5t64.5 -24.5q37 0 63 29t27 81q3 63 -21.5 88.5t-84.5 25.5h-44q-24 0 -24 24v77q0 11 6.5 17t17.5 6h44q47 0 71.5 25.5t24.5 66.5q0 36 -22.5 62t-53.5 26q-73 0 -84 -79
q-3 -23 -25 -23h-144q-12 0 -18 6.5t-4 18.5q13 101 85.5 155t199.5 54q78 0 136.5 -25t90.5 -70t33 -103q0 -123 -124 -166q70 -20 107 -65t37 -113q0 -79 -42 -135.5t-110.5 -85.5t-147.5 -29q-126 0 -195 57.5z" />
    <glyph glyph-name="acute" unicode="&#xb4;" horiz-adv-x="784" 
d="M171 1128q-3 -1 -8 -1q-16 0 -21 17l-35 100q-2 6 -2 9q0 14 16 22l470 200q4 2 11 2q14 0 18 -16l56 -178q2 -6 2 -10q0 -15 -18 -20z" />
    <glyph glyph-name="uni03BC" unicode="&#xb5;" horiz-adv-x="1127" 
d="M367 380q0 -55 21 -96.5t57 -64.5t81 -23q57 0 108 35.5t83.5 108t32.5 176.5v76l-4 415q0 23 24 23h261q22 0 22 -23l-9 -471l6 -512q0 -24 -23 -24h-243q-24 0 -23 24l5 106q-55 -70 -141.5 -112t-190.5 -42q-34 0 -59 4l2 -297q0 -23 -23 -23h-257q-24 0 -24 23l4 909
l-7 415q0 23 24 23h257q23 0 23 -23l-7 -415v-212z" />
    <glyph glyph-name="uni03BC" unicode="&#x3bc;" horiz-adv-x="1127" 
d="M367 380q0 -55 21 -96.5t57 -64.5t81 -23q57 0 108 35.5t83.5 108t32.5 176.5v76l-4 415q0 23 24 23h261q22 0 22 -23l-9 -471l6 -512q0 -24 -23 -24h-243q-24 0 -23 24l5 106q-55 -70 -141.5 -112t-190.5 -42q-34 0 -59 4l2 -297q0 -23 -23 -23h-257q-24 0 -24 23l4 909
l-7 415q0 23 24 23h257q23 0 23 -23l-7 -415v-212z" />
    <glyph glyph-name="paragraph" unicode="&#xb6;" horiz-adv-x="1422" 
d="M1321 560l16 -877q0 -23 -23 -23h-271q-24 0 -24 23l8 579l4 224h-148l4 -226l10 -577q0 -23 -23 -23h-271q-24 0 -24 23l8 573l4 230h-2q-166 0 -286.5 55t-184 159t-63.5 250q0 221 138 335.5t394 114.5h727q22 0 22 -23z" />
    <glyph glyph-name="periodcentered" unicode="&#xb7;" horiz-adv-x="435" 
d="M86 460q-24 0 -24 24v239q0 23 24 23h265q11 0 17 -6t6 -17v-239q0 -24 -23 -24h-265z" />
    <glyph glyph-name="periodcentered" unicode="&#x2219;" horiz-adv-x="435" 
d="M86 460q-24 0 -24 24v239q0 23 24 23h265q11 0 17 -6t6 -17v-239q0 -24 -23 -24h-265z" />
    <glyph glyph-name="cedilla" unicode="&#xb8;" horiz-adv-x="554" 
d="M385 -337q-4 -22 -28 -19l-231 43q-18 3 -18 19q0 6 2 10l130 305q9 20 29 17l161 -17q23 -3 20 -27z" />
    <glyph glyph-name="one.sups" unicode="&#xb9;" horiz-adv-x="520" 
d="M244 630q-23 0 -23 24l9 378l-6 148q-47 -47 -139 -79q-8 -2 -10 -2q-8 0 -12.5 5.5t-4.5 15.5v104q0 20 19 27q103 38 149 131q8 18 27 18h158q24 0 22 -23l-13 -415l13 -308q2 -24 -23 -24h-166z" />
    <glyph glyph-name="ordmasculine" unicode="&#xba;" horiz-adv-x="908" 
d="M234.5 672.5q-92.5 48.5 -140.5 138t-48 211.5t48 213t140.5 141t221.5 50q128 0 219.5 -48.5t139 -138.5t47.5 -211q0 -122 -47.5 -213t-139 -141t-219.5 -50q-129 0 -221.5 48.5zM560.5 841q33.5 57 33.5 181t-34.5 184t-105.5 60q-73 -1 -107.5 -61t-34.5 -185
q0 -121 35.5 -178.5t108.5 -57.5q71 0 104.5 57z" />
    <glyph glyph-name="guillemotright" unicode="&#xbb;" horiz-adv-x="1093" 
d="M72 134q-9 0 -14 4t-5 10q0 8 6 15l296 355l-296 367q-7 8 -7 16q0 13 20 13h193q19 0 29 -13l296 -367q7 -7 7 -16q0 -8 -7 -16l-296 -354q-12 -14 -28 -14h-194zM527 134q-9 0 -14 4t-5 10q0 8 6 15l296 355l-296 367q-7 8 -7 16q0 13 20 13h193q19 0 29 -13l296 -367
q7 -7 7 -16q0 -8 -7 -16l-296 -354q-12 -14 -28 -14h-194z" />
    <glyph glyph-name="onequarter" unicode="&#xbc;" horiz-adv-x="1476" 
d="M244 630q-23 0 -23 24l9 378l-6 148q-47 -47 -139 -79q-8 -2 -10 -2q-8 0 -12.5 5.5t-4.5 15.5v104q0 20 19 27q103 38 149 131q8 18 27 18h158q24 0 22 -23l-13 -415l13 -308q2 -24 -23 -24h-166zM140 0q-19 0 -19 14q0 9 5 15l972 1357q11 14 29 14h157q19 0 19 -14
q0 -9 -5 -15l-972 -1356q-10 -15 -29 -15h-157zM1413 304q11 0 17 -6t6 -17v-99q0 -24 -23 -24h-61v-136q0 -11 -6 -17.5t-17 -6.5h-153q-11 0 -17.5 6.5t-6.5 17.5v136h-314q-24 0 -24 24v131q0 15 8 29l258 413q9 15 28 15h221q11 0 17 -6t6 -17v-443h61zM1152 304v152
l6 168l-194 -320h188z" />
    <glyph glyph-name="onehalf" unicode="&#xbd;" horiz-adv-x="1530" 
d="M244 630q-23 0 -23 24l9 378l-6 148q-47 -47 -139 -79q-8 -2 -10 -2q-8 0 -12.5 5.5t-4.5 15.5v104q0 20 19 27q103 38 149 131q8 18 27 18h158q24 0 22 -23l-13 -415l13 -308q2 -24 -23 -24h-166zM140 0q-19 0 -19 14q0 9 5 15l972 1357q11 14 29 14h157q19 0 19 -14
q0 -9 -5 -15l-972 -1356q-10 -15 -29 -15h-157zM938 0q-24 0 -24 24v88q0 86 35 144t82.5 91t122.5 71q47 24 73.5 40t43.5 37.5t17 48.5q3 48 -21 74t-67 26q-40 -2 -65.5 -30t-29.5 -80q-1 -24 -24 -24h-135q-11 0 -17.5 5.5t-6.5 16.5q0 120 71.5 186.5t206.5 67.5
q132 0 199.5 -61t72.5 -175q0 -82 -36.5 -138t-86 -88t-124.5 -68q-66 -31 -95.5 -53t-29.5 -53v-2h351q11 0 17 -6t6 -17v-101q0 -11 -6 -17.5t-17 -6.5h-513z" />
    <glyph glyph-name="threequarters" unicode="&#xbe;" horiz-adv-x="1578" 
d="M129 677.5q-69 57.5 -82 170.5l-1 5q0 9 6 14t17 5h144q21 0 24 -23q5 -47 28.5 -72.5t64.5 -24.5q37 0 63 29t27 81q3 63 -21.5 88.5t-84.5 25.5h-44q-24 0 -24 24v77q0 11 6.5 17t17.5 6h44q47 0 71.5 25.5t24.5 66.5q0 36 -22.5 62t-53.5 26q-73 0 -84 -79
q-3 -23 -25 -23h-144q-12 0 -18 6.5t-4 18.5q13 101 85.5 155t199.5 54q78 0 136.5 -25t90.5 -70t33 -103q0 -123 -124 -166q70 -20 107 -65t37 -113q0 -79 -42 -135.5t-110.5 -85.5t-147.5 -29q-126 0 -195 57.5zM242 0q-19 0 -19 14q0 9 5 15l972 1357q11 14 29 14h157
q19 0 19 -14q0 -9 -5 -15l-972 -1356q-10 -15 -29 -15h-157zM1515 304q11 0 17 -6t6 -17v-99q0 -24 -23 -24h-61v-136q0 -11 -6 -17.5t-17 -6.5h-153q-11 0 -17.5 6.5t-6.5 17.5v136h-314q-24 0 -24 24v131q0 15 8 29l258 413q9 15 28 15h221q11 0 17 -6t6 -17v-443h61z
M1254 304v152l6 168l-194 -320h188z" />
    <glyph glyph-name="questiondown" unicode="&#xbf;" horiz-adv-x="1037" 
d="M654 1030q11 0 17 -6t6 -17v-241q0 -24 -23 -24h-257q-11 0 -17.5 6.5t-6.5 17.5v241q0 23 24 23h257zM652 624q11 0 17 -6.5t5 -17.5q-3 -103 -35 -179.5t-74.5 -125.5t-107.5 -107q-44 -40 -67.5 -64.5t-39 -55t-15.5 -66.5q0 -89 55 -138.5t144 -49.5q98 0 146.5 52.5
t53.5 158.5q2 23 25 23h238q11 0 17.5 -6.5t5.5 -17.5q-15 -202 -144.5 -307t-362.5 -105q-137 0 -245.5 46.5t-170.5 136t-62 213.5q0 73 23 127t56 91.5t89 87.5q55 49 86.5 84t55 85.5t27.5 117.5q2 23 25 23h255z" />
    <glyph glyph-name="Agrave" unicode="&#xc0;" horiz-adv-x="1351" 
d="M1353 27l2 -9q0 -8 -5.5 -13t-15.5 -5h-266q-20 0 -27 19l-107 337h-525l-103 -336q-6 -20 -27 -20h-261q-21 0 -21 18q0 6 1 9l471 1354q7 19 27 19h370q19 0 26 -19zM857 598l-191 598l-183 -598h374zM876 1514q-7 -21 -29 -16l-490 125q-18 5 -18 21q0 6 1 9l57 178
q4 16 19 16q7 0 11 -2l469 -200q16 -8 16 -22q0 -3 -2 -9z" />
    <glyph glyph-name="Aacute" unicode="&#xc1;" horiz-adv-x="1351" 
d="M1353 27l2 -9q0 -8 -5.5 -13t-15.5 -5h-266q-20 0 -27 19l-107 337h-525l-103 -336q-6 -20 -27 -20h-261q-21 0 -21 18q0 6 1 9l471 1354q7 19 27 19h370q19 0 26 -19zM857 598l-191 598l-183 -598h374zM500 1498q-3 -1 -8 -1q-16 0 -21 17l-35 100q-2 6 -2 9q0 14 16 22
l470 200q4 2 11 2q14 0 18 -16l56 -178q2 -6 2 -10q0 -15 -18 -20z" />
    <glyph glyph-name="Acircumflex" unicode="&#xc2;" horiz-adv-x="1351" 
d="M1353 27l2 -9q0 -8 -5.5 -13t-15.5 -5h-266q-20 0 -27 19l-107 337h-525l-103 -336q-6 -20 -27 -20h-261q-21 0 -21 18q0 6 1 9l471 1354q7 19 27 19h370q19 0 26 -19zM857 598l-191 598l-183 -598h374zM316 1616q-2 4 -2 12q0 13 11 20l282 201q12 9 29 9h92q16 0 29 -9
l282 -201q11 -7 11 -20q0 -8 -2 -12l-43 -102q-5 -15 -19 -15q-6 0 -12 3l-294 144l-290 -144q-6 -3 -12 -3q-13 0 -19 15z" />
    <glyph glyph-name="Atilde" unicode="&#xc3;" horiz-adv-x="1351" 
d="M1353 27l2 -9q0 -8 -5.5 -13t-15.5 -5h-266q-20 0 -27 19l-107 337h-525l-103 -336q-6 -20 -27 -20h-261q-21 0 -21 18q0 6 1 9l471 1354q7 19 27 19h370q19 0 26 -19zM857 598l-191 598l-183 -598h374zM722 1547q-34 17 -73 48q-26 21 -43 31t-36 10q-50 0 -55 -80
q-2 -24 -24 -24h-105q-25 0 -23 24q4 114 55 182t148 68q45 0 79.5 -18t73.5 -50q29 -21 42.5 -29.5t28.5 -8.5q30 0 43.5 21t15.5 60q2 23 25 23h105q11 0 17 -8t5 -22q-5 -116 -54.5 -180t-142.5 -64q-48 0 -82 17z" />
    <glyph glyph-name="Adieresis" unicode="&#xc4;" horiz-adv-x="1351" 
d="M1353 27l2 -9q0 -8 -5.5 -13t-15.5 -5h-266q-20 0 -27 19l-107 337h-525l-103 -336q-6 -20 -27 -20h-261q-21 0 -21 18q0 6 1 9l471 1354q7 19 27 19h370q19 0 26 -19zM857 598l-191 598l-183 -598h374zM374 1500q-11 0 -17.5 6.5t-6.5 17.5v223q0 11 6.5 17t17.5 6h197
q11 0 17 -6t6 -17v-223q0 -11 -6 -17.5t-17 -6.5h-197zM794 1500q-11 0 -17.5 6.5t-6.5 17.5v223q0 11 6.5 17t17.5 6h197q11 0 17 -6t6 -17v-223q0 -11 -6 -17.5t-17 -6.5h-197z" />
    <glyph glyph-name="Aring" unicode="&#xc5;" horiz-adv-x="1351" 
d="M1353 27l2 -9q0 -8 -5.5 -13t-15.5 -5h-266q-20 0 -27 19l-107 337h-525l-103 -336q-6 -20 -27 -20h-261q-21 0 -21 18q0 6 1 9l471 1354q7 19 27 19h370q19 0 26 -19zM857 598l-191 598l-183 -598h374zM550 1545q-59 31 -92.5 85.5t-33.5 121.5t33.5 121.5t92.5 85.5
t132 31t132 -31t92.5 -85.5t33.5 -121.5t-33.5 -121.5t-92.5 -85.5t-132 -31t-132 31zM755.5 1654.5q28.5 34.5 28.5 97.5q0 64 -28.5 98t-73.5 34q-47 0 -74.5 -34t-27.5 -98q0 -63 28 -97.5t74 -34.5q45 0 73.5 34.5z" />
    <glyph glyph-name="AE" unicode="&#xc6;" horiz-adv-x="1846" 
d="M1770 226q11 0 17.5 -6t6.5 -17v-179q0 -11 -6.5 -17.5t-17.5 -6.5h-851q-23 0 -23 24l7 332h-438l-157 -339q-8 -17 -27 -17h-261q-20 0 -20 16q0 6 3 12l664 1355q9 17 28 17h1059q11 0 17.5 -6t6.5 -17v-179q0 -11 -6.5 -17.5t-17.5 -6.5h-543l-13 -322h498
q11 0 17.5 -6t6.5 -17v-179q0 -11 -6.5 -17.5t-17.5 -6.5h-498l13 -400h559zM901 1194h-47l-276 -596h330l3 102z" />
    <glyph glyph-name="Ccedilla" unicode="&#xc7;" horiz-adv-x="1411" 
d="M1354 518q10 0 15.5 -6t5.5 -16q0 -6 -1 -9q-53 -249 -193.5 -373t-360.5 -141l-61 -310q-4 -22 -28 -19l-231 43q-18 3 -18 19q0 6 2 10l113 266q-170 30 -294.5 127t-190.5 247.5t-66 337.5q0 221 85.5 387.5t242.5 257.5t366 91q242 0 404 -114.5t221 -375.5l1 -6
q0 -20 -22 -20h-251q-20 0 -25 21q-31 127 -114.5 194t-217.5 67q-121 0 -205 -59.5t-127.5 -172t-43.5 -268.5q0 -155 44 -265.5t128 -168.5t202 -58q143 0 226 74t112 218q4 22 26 22h256z" />
    <glyph glyph-name="Egrave" unicode="&#xc8;" horiz-adv-x="1136" 
d="M109 0q-23 0 -23 24l15 676l-15 677q0 23 23 23h936q11 0 17 -6t6 -17v-179q0 -11 -6 -17.5t-17 -6.5h-644l-13 -322h599q11 0 17 -6t6 -17v-179q0 -11 -6 -17.5t-17 -6.5h-599l13 -400h660q11 0 17 -6t6 -17v-179q0 -11 -6 -17.5t-17 -6.5h-952zM790 1514
q-7 -21 -29 -16l-490 125q-18 5 -18 21q0 6 1 9l57 178q4 16 19 16q7 0 11 -2l469 -200q16 -8 16 -22q0 -3 -2 -9z" />
    <glyph glyph-name="Eacute" unicode="&#xc9;" horiz-adv-x="1136" 
d="M109 0q-23 0 -23 24l15 676l-15 677q0 23 23 23h936q11 0 17 -6t6 -17v-179q0 -11 -6 -17.5t-17 -6.5h-644l-13 -322h599q11 0 17 -6t6 -17v-179q0 -11 -6 -17.5t-17 -6.5h-599l13 -400h660q11 0 17 -6t6 -17v-179q0 -11 -6 -17.5t-17 -6.5h-952zM415 1498q-3 -1 -8 -1
q-16 0 -21 17l-35 100q-2 6 -2 9q0 14 16 22l470 200q4 2 11 2q14 0 18 -16l56 -178q2 -6 2 -10q0 -15 -18 -20z" />
    <glyph glyph-name="Ecircumflex" unicode="&#xca;" horiz-adv-x="1136" 
d="M109 0q-23 0 -23 24l15 676l-15 677q0 23 23 23h936q11 0 17 -6t6 -17v-179q0 -11 -6 -17.5t-17 -6.5h-644l-13 -322h599q11 0 17 -6t6 -17v-179q0 -11 -6 -17.5t-17 -6.5h-599l13 -400h660q11 0 17 -6t6 -17v-179q0 -11 -6 -17.5t-17 -6.5h-952zM230 1616q-2 4 -2 12
q0 13 11 20l282 201q12 9 29 9h92q16 0 29 -9l282 -201q11 -7 11 -20q0 -8 -2 -12l-43 -102q-5 -15 -19 -15q-6 0 -12 3l-294 144l-290 -144q-6 -3 -12 -3q-13 0 -19 15z" />
    <glyph glyph-name="Edieresis" unicode="&#xcb;" horiz-adv-x="1136" 
d="M109 0q-23 0 -23 24l15 676l-15 677q0 23 23 23h936q11 0 17 -6t6 -17v-179q0 -11 -6 -17.5t-17 -6.5h-644l-13 -322h599q11 0 17 -6t6 -17v-179q0 -11 -6 -17.5t-17 -6.5h-599l13 -400h660q11 0 17 -6t6 -17v-179q0 -11 -6 -17.5t-17 -6.5h-952zM288 1500
q-11 0 -17.5 6.5t-6.5 17.5v223q0 11 6.5 17t17.5 6h197q11 0 17 -6t6 -17v-223q0 -11 -6 -17.5t-17 -6.5h-197zM708 1500q-11 0 -17.5 6.5t-6.5 17.5v223q0 11 6.5 17t17.5 6h197q11 0 17 -6t6 -17v-223q0 -11 -6 -17.5t-17 -6.5h-197z" />
    <glyph glyph-name="Igrave" unicode="&#xcc;" horiz-adv-x="504" 
d="M119 0q-23 0 -23 24l15 676l-15 677q0 23 23 23h266q23 0 23 -23l-14 -677l14 -676q0 -24 -23 -24h-266zM446 1514q-7 -21 -29 -16l-490 125q-18 5 -18 21q0 6 1 9l57 178q4 16 19 16q7 0 11 -2l469 -200q16 -8 16 -22q0 -3 -2 -9z" />
    <glyph glyph-name="Iacute" unicode="&#xcd;" horiz-adv-x="504" 
d="M119 0q-23 0 -23 24l15 676l-15 677q0 23 23 23h266q23 0 23 -23l-14 -677l14 -676q0 -24 -23 -24h-266zM70 1498q-3 -1 -8 -1q-16 0 -21 17l-35 100q-2 6 -2 9q0 14 16 22l470 200q4 2 11 2q14 0 18 -16l56 -178q2 -6 2 -10q0 -15 -18 -20z" />
    <glyph glyph-name="Icircumflex" unicode="&#xce;" horiz-adv-x="504" 
d="M119 0q-23 0 -23 24l15 676l-15 677q0 23 23 23h266q23 0 23 -23l-14 -677l14 -676q0 -24 -23 -24h-266zM-114 1616q-2 4 -2 12q0 13 11 20l282 201q12 9 29 9h92q16 0 29 -9l282 -201q11 -7 11 -20q0 -8 -2 -12l-43 -102q-5 -15 -19 -15q-6 0 -12 3l-294 144l-290 -144
q-6 -3 -12 -3q-13 0 -19 15z" />
    <glyph glyph-name="Idieresis" unicode="&#xcf;" horiz-adv-x="504" 
d="M119 0q-23 0 -23 24l15 676l-15 677q0 23 23 23h266q23 0 23 -23l-14 -677l14 -676q0 -24 -23 -24h-266zM-56 1500q-11 0 -17.5 6.5t-6.5 17.5v223q0 11 6.5 17t17.5 6h197q11 0 17 -6t6 -17v-223q0 -11 -6 -17.5t-17 -6.5h-197zM364 1500q-11 0 -17.5 6.5t-6.5 17.5v223
q0 11 6.5 17t17.5 6h197q11 0 17 -6t6 -17v-223q0 -11 -6 -17.5t-17 -6.5h-197z" />
    <glyph glyph-name="Eth" unicode="&#xd0;" horiz-adv-x="1413" 
d="M625 1400q209 0 376.5 -76.5t266.5 -236t99 -397.5t-99 -392.5t-265.5 -226t-373.5 -71.5h-495q-23 0 -23 24l13 610h-116q-24 0 -24 24v179q0 11 6.5 17t17.5 6h114l-11 517q0 23 23 23h491zM645 226q118 0 209.5 49t145 153t53.5 264q0 161 -53.5 269t-147.5 160.5
t-215 52.5h-211l-9 -314h328q11 0 17 -6t6 -17v-179q0 -11 -6 -17.5t-17 -6.5h-331l12 -408h219z" />
    <glyph glyph-name="Ntilde" unicode="&#xd1;" horiz-adv-x="1390" 
d="M109 0q-23 0 -23 24l13 676l-13 677q0 23 23 23h330q19 0 28 -16l561 -991l-12 421v563q0 23 24 23h241q23 0 23 -23l-12 -677l12 -676q0 -24 -23 -24h-342q-19 0 -28 16l-550 983l13 -481v-494q0 -24 -23 -24h-242zM744 1547q-34 17 -73 48q-26 21 -43 31t-36 10
q-50 0 -55 -80q-2 -24 -24 -24h-105q-25 0 -23 24q4 114 55 182t148 68q45 0 79.5 -18t73.5 -50q29 -21 42.5 -29.5t28.5 -8.5q30 0 43.5 21t15.5 60q2 23 25 23h105q11 0 17 -8t5 -22q-5 -116 -54.5 -180t-142.5 -64q-48 0 -82 17z" />
    <glyph glyph-name="Ograve" unicode="&#xd2;" horiz-adv-x="1506" 
d="M381 62q-160 92 -247.5 256.5t-87.5 377.5q0 221 87 387t246.5 256.5t372.5 90.5q212 0 372 -89.5t248 -255.5t88 -389q0 -213 -88 -377.5t-248.5 -256.5t-371.5 -92t-371 92zM967 263q88 59 133.5 169.5t45.5 263.5q0 154 -45.5 266t-134 173t-214.5 61
q-127 0 -214.5 -59.5t-132.5 -172t-45 -268.5q0 -152 46 -262.5t134.5 -170t213.5 -59.5t213 59zM948 1514q-7 -21 -29 -16l-490 125q-18 5 -18 21q0 6 1 9l57 178q4 16 19 16q7 0 11 -2l469 -200q16 -8 16 -22q0 -3 -2 -9z" />
    <glyph glyph-name="Oacute" unicode="&#xd3;" horiz-adv-x="1506" 
d="M381 62q-160 92 -247.5 256.5t-87.5 377.5q0 221 87 387t246.5 256.5t372.5 90.5q212 0 372 -89.5t248 -255.5t88 -389q0 -213 -88 -377.5t-248.5 -256.5t-371.5 -92t-371 92zM967 263q88 59 133.5 169.5t45.5 263.5q0 154 -45.5 266t-134 173t-214.5 61
q-127 0 -214.5 -59.5t-132.5 -172t-45 -268.5q0 -152 46 -262.5t134.5 -170t213.5 -59.5t213 59zM573 1498q-3 -1 -8 -1q-16 0 -21 17l-35 100q-2 6 -2 9q0 14 16 22l470 200q4 2 11 2q14 0 18 -16l56 -178q2 -6 2 -10q0 -15 -18 -20z" />
    <glyph glyph-name="Ocircumflex" unicode="&#xd4;" horiz-adv-x="1506" 
d="M381 62q-160 92 -247.5 256.5t-87.5 377.5q0 221 87 387t246.5 256.5t372.5 90.5q212 0 372 -89.5t248 -255.5t88 -389q0 -213 -88 -377.5t-248.5 -256.5t-371.5 -92t-371 92zM967 263q88 59 133.5 169.5t45.5 263.5q0 154 -45.5 266t-134 173t-214.5 61
q-127 0 -214.5 -59.5t-132.5 -172t-45 -268.5q0 -152 46 -262.5t134.5 -170t213.5 -59.5t213 59zM388 1616q-2 4 -2 12q0 13 11 20l282 201q12 9 29 9h92q16 0 29 -9l282 -201q11 -7 11 -20q0 -8 -2 -12l-43 -102q-5 -15 -19 -15q-6 0 -12 3l-294 144l-290 -144
q-6 -3 -12 -3q-13 0 -19 15z" />
    <glyph glyph-name="Otilde" unicode="&#xd5;" horiz-adv-x="1506" 
d="M381 62q-160 92 -247.5 256.5t-87.5 377.5q0 221 87 387t246.5 256.5t372.5 90.5q212 0 372 -89.5t248 -255.5t88 -389q0 -213 -88 -377.5t-248.5 -256.5t-371.5 -92t-371 92zM967 263q88 59 133.5 169.5t45.5 263.5q0 154 -45.5 266t-134 173t-214.5 61
q-127 0 -214.5 -59.5t-132.5 -172t-45 -268.5q0 -152 46 -262.5t134.5 -170t213.5 -59.5t213 59zM794 1547q-34 17 -73 48q-26 21 -43 31t-36 10q-50 0 -55 -80q-2 -24 -24 -24h-105q-25 0 -23 24q4 114 55 182t148 68q45 0 79.5 -18t73.5 -50q29 -21 42.5 -29.5t28.5 -8.5
q30 0 43.5 21t15.5 60q2 23 25 23h105q11 0 17 -8t5 -22q-5 -116 -54.5 -180t-142.5 -64q-48 0 -82 17z" />
    <glyph glyph-name="Odieresis" unicode="&#xd6;" horiz-adv-x="1506" 
d="M381 62q-160 92 -247.5 256.5t-87.5 377.5q0 221 87 387t246.5 256.5t372.5 90.5q212 0 372 -89.5t248 -255.5t88 -389q0 -213 -88 -377.5t-248.5 -256.5t-371.5 -92t-371 92zM967 263q88 59 133.5 169.5t45.5 263.5q0 154 -45.5 266t-134 173t-214.5 61
q-127 0 -214.5 -59.5t-132.5 -172t-45 -268.5q0 -152 46 -262.5t134.5 -170t213.5 -59.5t213 59zM446 1500q-11 0 -17.5 6.5t-6.5 17.5v223q0 11 6.5 17t17.5 6h197q11 0 17 -6t6 -17v-223q0 -11 -6 -17.5t-17 -6.5h-197zM866 1500q-11 0 -17.5 6.5t-6.5 17.5v223
q0 11 6.5 17t17.5 6h197q11 0 17 -6t6 -17v-223q0 -11 -6 -17.5t-17 -6.5h-197z" />
    <glyph glyph-name="multiply" unicode="&#xd7;" horiz-adv-x="1110" 
d="M712 689l265 -265q8 -7 8 -16q0 -8 -8 -16l-124 -125q-7 -9 -16 -9q-8 0 -16 8l-266 266l-266 -266q-7 -7 -15 -7q-9 0 -17 8l-124 125q-7 8 -7 16q0 9 7 16l265 265l-267 267q-7 7 -7 16q0 8 8 16l125 124q8 8 16 8q9 0 16 -8l266 -266l266 266q8 8 16 8q9 0 16 -8
l125 -124q9 -9 9 -17q0 -7 -8 -15z" />
    <glyph glyph-name="Oslash" unicode="&#xd8;" horiz-adv-x="1506" 
d="M1317 1173q70 -93 106.5 -213.5t36.5 -263.5q0 -213 -88 -377.5t-248.5 -256.5t-371.5 -92q-208 0 -368 90l-128 -152q-7 -9 -17 -9t-17 7l-157 145q-9 8 -9 16q0 7 7 16l125 150q-69 92 -105.5 210t-36.5 253q0 221 87 387t246.5 256.5t372.5 90.5q209 0 368 -87
l131 155q8 9 17 9t16 -7l157 -144q9 -9 9 -18q0 -7 -6 -15zM537.5 1136.5q-87.5 -59.5 -132.5 -172t-45 -268.5q0 -146 42 -251l574 684q-93 67 -224 67q-127 0 -214.5 -59.5zM967 263q88 59 133.5 169.5t45.5 263.5q0 151 -44 263l-576 -686q94 -69 228 -69q125 0 213 59z
" />
    <glyph glyph-name="Ugrave" unicode="&#xd9;" horiz-adv-x="1284" 
d="M222.5 111.5q-145.5 141.5 -143.5 408.5l3 380l-11 477q0 23 23 23h276q23 0 23 -23l-11 -469l3 -386q2 -153 65 -231.5t197 -78.5q144 0 213 78.5t69 231.5v380l-8 475q0 23 23 23h246q23 0 23 -23l-8 -477v-380q0 -269 -140.5 -409.5t-417.5 -140.5
q-279 0 -424.5 141.5zM851 1514q-7 -21 -29 -16l-490 125q-18 5 -18 21q0 6 1 9l57 178q4 16 19 16q7 0 11 -2l469 -200q16 -8 16 -22q0 -3 -2 -9z" />
    <glyph glyph-name="Uacute" unicode="&#xda;" horiz-adv-x="1284" 
d="M222.5 111.5q-145.5 141.5 -143.5 408.5l3 380l-11 477q0 23 23 23h276q23 0 23 -23l-11 -469l3 -386q2 -153 65 -231.5t197 -78.5q144 0 213 78.5t69 231.5v380l-8 475q0 23 23 23h246q23 0 23 -23l-8 -477v-380q0 -269 -140.5 -409.5t-417.5 -140.5
q-279 0 -424.5 141.5zM476 1498q-3 -1 -8 -1q-16 0 -21 17l-35 100q-2 6 -2 9q0 14 16 22l470 200q4 2 11 2q14 0 18 -16l56 -178q2 -6 2 -10q0 -15 -18 -20z" />
    <glyph glyph-name="Ucircumflex" unicode="&#xdb;" horiz-adv-x="1284" 
d="M222.5 111.5q-145.5 141.5 -143.5 408.5l3 380l-11 477q0 23 23 23h276q23 0 23 -23l-11 -469l3 -386q2 -153 65 -231.5t197 -78.5q144 0 213 78.5t69 231.5v380l-8 475q0 23 23 23h246q23 0 23 -23l-8 -477v-380q0 -269 -140.5 -409.5t-417.5 -140.5
q-279 0 -424.5 141.5zM291 1616q-2 4 -2 12q0 13 11 20l282 201q12 9 29 9h92q16 0 29 -9l282 -201q11 -7 11 -20q0 -8 -2 -12l-43 -102q-5 -15 -19 -15q-6 0 -12 3l-294 144l-290 -144q-6 -3 -12 -3q-13 0 -19 15z" />
    <glyph glyph-name="Udieresis" unicode="&#xdc;" horiz-adv-x="1284" 
d="M222.5 111.5q-145.5 141.5 -143.5 408.5l3 380l-11 477q0 23 23 23h276q23 0 23 -23l-11 -469l3 -386q2 -153 65 -231.5t197 -78.5q144 0 213 78.5t69 231.5v380l-8 475q0 23 23 23h246q23 0 23 -23l-8 -477v-380q0 -269 -140.5 -409.5t-417.5 -140.5
q-279 0 -424.5 141.5zM349 1500q-11 0 -17.5 6.5t-6.5 17.5v223q0 11 6.5 17t17.5 6h197q11 0 17 -6t6 -17v-223q0 -11 -6 -17.5t-17 -6.5h-197zM769 1500q-11 0 -17.5 6.5t-6.5 17.5v223q0 11 6.5 17t17.5 6h197q11 0 17 -6t6 -17v-223q0 -11 -6 -17.5t-17 -6.5h-197z" />
    <glyph glyph-name="Yacute" unicode="&#xdd;" horiz-adv-x="1230" 
d="M2 1372q-4 5 -4 12t5.5 11.5t15.5 4.5h294q21 0 28 -18l286 -643l288 643q8 18 28 18h269q20 0 20 -16q0 -6 -3 -12l-468 -898l10 -450q0 -24 -22 -24h-269q-23 0 -23 24l13 450zM437 1498q-3 -1 -8 -1q-16 0 -21 17l-35 100q-2 6 -2 9q0 14 16 22l470 200q4 2 11 2
q14 0 18 -16l56 -178q2 -6 2 -10q0 -15 -18 -20z" />
    <glyph glyph-name="Thorn" unicode="&#xde;" horiz-adv-x="1205" 
d="M634 1160q256 0 394 -114.5t138 -335.5q0 -146 -63.5 -250t-184 -159t-286.5 -55h-236l4 -222q0 -24 -23 -24h-268q-23 0 -23 24l13 676l-13 677q0 23 23 23h268q23 0 23 -23l-4 -217h238zM654 468q96 0 157 58.5t61 177.5q0 118 -58 176t-168 58h-254l-4 -264l4 -206
h262z" />
    <glyph glyph-name="germandbls" unicode="&#xdf;" horiz-adv-x="1191" 
d="M107 0q-23 0 -23 24l9 430v524q0 231 137 336.5t369 105.5q148 0 252.5 -44t158.5 -125t55 -191q0 -113 -69 -186.5t-181 -95.5q164 -25 245 -116.5t81 -231.5q0 -139 -70.5 -236t-189 -145.5t-260.5 -48.5h-52q-24 0 -24 24v167q0 11 6.5 17t17.5 6h52q100 0 155 50
t55 166q0 108 -62 162t-172 54h-28q-11 0 -17.5 6.5t-6.5 17.5v147q0 23 24 23h28q92 0 131 49.5t39 140.5q0 86 -47 131t-137 45q-96 0 -146.5 -54t-50.5 -182v-516l9 -430q0 -24 -23 -24h-265z" />
    <glyph glyph-name="agrave" unicode="&#xe0;" horiz-adv-x="1165" 
d="M1085 514l9 -490q0 -24 -23 -24h-255q-24 0 -23 24l3 97q-54 -68 -131 -104.5t-173 -36.5q-142 0 -242.5 69.5t-152 190t-51.5 272.5q0 150 55 272.5t158 194t239 71.5q190 0 297 -130l-4 86q-1 24 23 24h257q23 0 23 -23zM744 264q58 84 58 252q0 164 -58.5 249
t-169.5 85q-110 0 -166 -82.5t-56 -239.5q0 -171 56.5 -259.5t163.5 -88.5q114 0 172 84zM766 1144q-7 -21 -29 -16l-490 125q-18 5 -18 21q0 6 1 9l57 178q4 16 19 16q7 0 11 -2l469 -200q16 -8 16 -22q0 -3 -2 -9z" />
    <glyph glyph-name="aacute" unicode="&#xe1;" horiz-adv-x="1165" 
d="M1085 514l9 -490q0 -24 -23 -24h-255q-24 0 -23 24l3 97q-54 -68 -131 -104.5t-173 -36.5q-142 0 -242.5 69.5t-152 190t-51.5 272.5q0 150 55 272.5t158 194t239 71.5q190 0 297 -130l-4 86q-1 24 23 24h257q23 0 23 -23zM744 264q58 84 58 252q0 164 -58.5 249
t-169.5 85q-110 0 -166 -82.5t-56 -239.5q0 -171 56.5 -259.5t163.5 -88.5q114 0 172 84zM390 1128q-3 -1 -8 -1q-16 0 -21 17l-35 100q-2 6 -2 9q0 14 16 22l470 200q4 2 11 2q14 0 18 -16l56 -178q2 -6 2 -10q0 -15 -18 -20z" />
    <glyph glyph-name="acircumflex" unicode="&#xe2;" horiz-adv-x="1165" 
d="M1085 514l9 -490q0 -24 -23 -24h-255q-24 0 -23 24l3 97q-54 -68 -131 -104.5t-173 -36.5q-142 0 -242.5 69.5t-152 190t-51.5 272.5q0 150 55 272.5t158 194t239 71.5q190 0 297 -130l-4 86q-1 24 23 24h257q23 0 23 -23zM744 264q58 84 58 252q0 164 -58.5 249
t-169.5 85q-110 0 -166 -82.5t-56 -239.5q0 -171 56.5 -259.5t163.5 -88.5q114 0 172 84zM206 1246q-2 4 -2 12q0 13 11 20l282 201q12 9 29 9h92q16 0 29 -9l282 -201q11 -7 11 -20q0 -8 -2 -12l-43 -102q-5 -15 -19 -15q-6 0 -12 3l-294 144l-290 -144q-6 -3 -12 -3
q-13 0 -19 15z" />
    <glyph glyph-name="atilde" unicode="&#xe3;" horiz-adv-x="1165" 
d="M1085 514l9 -490q0 -24 -23 -24h-255q-24 0 -23 24l3 97q-54 -68 -131 -104.5t-173 -36.5q-142 0 -242.5 69.5t-152 190t-51.5 272.5q0 150 55 272.5t158 194t239 71.5q190 0 297 -130l-4 86q-1 24 23 24h257q23 0 23 -23zM744 264q58 84 58 252q0 164 -58.5 249
t-169.5 85q-110 0 -166 -82.5t-56 -239.5q0 -171 56.5 -259.5t163.5 -88.5q114 0 172 84zM612 1177q-34 17 -73 48q-26 21 -43 31t-36 10q-50 0 -55 -80q-2 -24 -24 -24h-105q-25 0 -23 24q4 114 55 182t148 68q45 0 79.5 -18t73.5 -50q29 -21 42.5 -29.5t28.5 -8.5
q30 0 43.5 21t15.5 60q2 23 25 23h105q11 0 17 -8t5 -22q-5 -116 -54.5 -180t-142.5 -64q-48 0 -82 17z" />
    <glyph glyph-name="adieresis" unicode="&#xe4;" horiz-adv-x="1165" 
d="M1085 514l9 -490q0 -24 -23 -24h-255q-24 0 -23 24l3 97q-54 -68 -131 -104.5t-173 -36.5q-142 0 -242.5 69.5t-152 190t-51.5 272.5q0 150 55 272.5t158 194t239 71.5q190 0 297 -130l-4 86q-1 24 23 24h257q23 0 23 -23zM744 264q58 84 58 252q0 164 -58.5 249
t-169.5 85q-110 0 -166 -82.5t-56 -239.5q0 -171 56.5 -259.5t163.5 -88.5q114 0 172 84zM264 1130q-11 0 -17.5 6.5t-6.5 17.5v223q0 11 6.5 17t17.5 6h197q11 0 17 -6t6 -17v-223q0 -11 -6 -17.5t-17 -6.5h-197zM684 1130q-11 0 -17.5 6.5t-6.5 17.5v223q0 11 6.5 17
t17.5 6h197q11 0 17 -6t6 -17v-223q0 -11 -6 -17.5t-17 -6.5h-197z" />
    <glyph glyph-name="aring" unicode="&#xe5;" horiz-adv-x="1165" 
d="M1085 514l9 -490q0 -24 -23 -24h-255q-24 0 -23 24l3 97q-54 -68 -131 -104.5t-173 -36.5q-142 0 -242.5 69.5t-152 190t-51.5 272.5q0 150 55 272.5t158 194t239 71.5q190 0 297 -130l-4 86q-1 24 23 24h257q23 0 23 -23zM744 264q58 84 58 252q0 164 -58.5 249
t-169.5 85q-110 0 -166 -82.5t-56 -239.5q0 -171 56.5 -259.5t163.5 -88.5q114 0 172 84zM440 1175q-59 31 -92.5 85.5t-33.5 121.5t33.5 121.5t92.5 85.5t132 31t132 -31t92.5 -85.5t33.5 -121.5t-33.5 -121.5t-92.5 -85.5t-132 -31t-132 31zM645.5 1284.5
q28.5 34.5 28.5 97.5q0 64 -28.5 98t-73.5 34q-47 0 -74.5 -34t-27.5 -98q0 -63 28 -97.5t74 -34.5q45 0 73.5 34.5z" />
    <glyph glyph-name="ae" unicode="&#xe6;" horiz-adv-x="1926" 
d="M249.5 49.5q-100.5 69.5 -152 190t-51.5 272.5q0 150 55 272.5t158 194t239 71.5q190 0 297 -130l-4 86q-1 24 23 24h254q24 0 24 -23l-1 -45q116 94 285 94q160 0 273.5 -70t174 -199.5t64.5 -308.5q0 -24 -24 -24h-730q9 -145 66 -212.5t166 -67.5q159 0 199 153
q6 21 25 21h242q12 0 18.5 -4.5t5.5 -13.5q-13 -96 -73.5 -177.5t-163.5 -130t-237 -48.5q-173 0 -291 94l1 -44q0 -24 -24 -24h-252q-24 0 -23 24l3 97q-54 -68 -131 -104.5t-173 -36.5q-142 0 -242.5 69.5zM1214.5 804.5q-53.5 -53.5 -72.5 -160.5h422q-10 91 -61.5 152.5
t-144.5 61.5q-90 0 -143.5 -53.5zM744 264q58 84 58 252q0 164 -58.5 249t-169.5 85q-110 0 -166 -82.5t-56 -239.5q0 -171 56.5 -259.5t163.5 -88.5q114 0 172 84z" />
    <glyph glyph-name="ccedilla" unicode="&#xe7;" horiz-adv-x="1090" 
d="M1029 396q12 0 18 -6t5 -16q-10 -103 -62 -186.5t-137.5 -137.5t-195.5 -70l-62 -317q-4 -22 -28 -19l-231 43q-18 3 -18 19q0 6 2 10l116 271q-123 25 -210.5 96t-133.5 180.5t-46 248.5q0 164 63 287t183 190t286 67q129 0 228 -45.5t158.5 -128.5t72.5 -193l1 -5
q0 -9 -6.5 -14.5t-16.5 -5.5h-232q-21 0 -25 22q-17 82 -65.5 125t-114.5 43q-114 -1 -169 -85t-55 -255q0 -177 56 -258.5t172 -81.5q75 0 125 52t61 147q3 23 24 23h237z" />
    <glyph glyph-name="egrave" unicode="&#xe8;" horiz-adv-x="1140" 
d="M348 454q9 -145 66 -212.5t166 -67.5q159 0 199 153q6 21 25 21h242q12 0 18.5 -4.5t5.5 -12.5q-13 -96 -76 -177.5t-171 -130.5t-247 -49q-168 0 -287.5 68.5t-181 190t-61.5 279.5q0 164 63 286.5t181 190t280 67.5q166 0 284 -70t180.5 -199.5t67.5 -308.5
q0 -24 -24 -24h-730zM428.5 804.5q-53.5 -53.5 -72.5 -160.5h422q-10 91 -61.5 152.5t-144.5 61.5q-90 0 -143.5 -53.5zM764 1144q-7 -21 -29 -16l-490 125q-18 5 -18 21q0 6 1 9l57 178q4 16 19 16q7 0 11 -2l469 -200q16 -8 16 -22q0 -3 -2 -9z" />
    <glyph glyph-name="eacute" unicode="&#xe9;" horiz-adv-x="1140" 
d="M348 454q9 -145 66 -212.5t166 -67.5q159 0 199 153q6 21 25 21h242q12 0 18.5 -4.5t5.5 -12.5q-13 -96 -76 -177.5t-171 -130.5t-247 -49q-168 0 -287.5 68.5t-181 190t-61.5 279.5q0 164 63 286.5t181 190t280 67.5q166 0 284 -70t180.5 -199.5t67.5 -308.5
q0 -24 -24 -24h-730zM428.5 804.5q-53.5 -53.5 -72.5 -160.5h422q-10 91 -61.5 152.5t-144.5 61.5q-90 0 -143.5 -53.5zM388 1128q-3 -1 -8 -1q-16 0 -21 17l-35 100q-2 6 -2 9q0 14 16 22l470 200q4 2 11 2q14 0 18 -16l56 -178q2 -6 2 -10q0 -15 -18 -20z" />
    <glyph glyph-name="ecircumflex" unicode="&#xea;" horiz-adv-x="1140" 
d="M348 454q9 -145 66 -212.5t166 -67.5q159 0 199 153q6 21 25 21h242q12 0 18.5 -4.5t5.5 -12.5q-13 -96 -76 -177.5t-171 -130.5t-247 -49q-168 0 -287.5 68.5t-181 190t-61.5 279.5q0 164 63 286.5t181 190t280 67.5q166 0 284 -70t180.5 -199.5t67.5 -308.5
q0 -24 -24 -24h-730zM428.5 804.5q-53.5 -53.5 -72.5 -160.5h422q-10 91 -61.5 152.5t-144.5 61.5q-90 0 -143.5 -53.5zM204 1246q-2 4 -2 12q0 13 11 20l282 201q12 9 29 9h92q16 0 29 -9l282 -201q11 -7 11 -20q0 -8 -2 -12l-43 -102q-5 -15 -19 -15q-6 0 -12 3l-294 144
l-290 -144q-6 -3 -12 -3q-13 0 -19 15z" />
    <glyph glyph-name="edieresis" unicode="&#xeb;" horiz-adv-x="1140" 
d="M348 454q9 -145 66 -212.5t166 -67.5q159 0 199 153q6 21 25 21h242q12 0 18.5 -4.5t5.5 -12.5q-13 -96 -76 -177.5t-171 -130.5t-247 -49q-168 0 -287.5 68.5t-181 190t-61.5 279.5q0 164 63 286.5t181 190t280 67.5q166 0 284 -70t180.5 -199.5t67.5 -308.5
q0 -24 -24 -24h-730zM428.5 804.5q-53.5 -53.5 -72.5 -160.5h422q-10 91 -61.5 152.5t-144.5 61.5q-90 0 -143.5 -53.5zM262 1130q-11 0 -17.5 6.5t-6.5 17.5v223q0 11 6.5 17t17.5 6h197q11 0 17 -6t6 -17v-223q0 -11 -6 -17.5t-17 -6.5h-197zM682 1130q-11 0 -17.5 6.5
t-6.5 17.5v223q0 11 6.5 17t17.5 6h197q11 0 17 -6t6 -17v-223q0 -11 -6 -17.5t-17 -6.5h-197z" />
    <glyph glyph-name="igrave" unicode="&#xec;" horiz-adv-x="468" 
d="M430 1145q-6 -17 -21 -17q-5 0 -8 1l-429 108q-17 5 -17 21q0 6 1 9l56 175q5 15 18 15q8 0 12 -2l406 -173q16 -7 16 -22q0 -6 -1 -9zM103 0q-23 0 -23 24l9 490l-9 493q0 23 23 23h263q22 0 22 -23l-9 -493l9 -490q0 -24 -22 -24h-263z" />
    <glyph glyph-name="iacute" unicode="&#xed;" horiz-adv-x="468" 
d="M71 1129q-3 -1 -8 -1q-15 0 -21 17l-33 106q-2 8 -2 10q0 15 16 21l407 173q4 2 11 2q13 0 19 -15l55 -175q2 -8 2 -10q0 -15 -18 -20zM103 0q-23 0 -23 24l9 490l-9 493q0 23 23 23h263q22 0 22 -23l-9 -493l9 -490q0 -24 -22 -24h-263z" />
    <glyph glyph-name="icircumflex" unicode="&#xee;" horiz-adv-x="468" 
d="M-79 1250q-4 10 -4 14q0 10 10 19l231 195q12 11 29 11h90q17 0 29 -11l231 -195q10 -7 10 -19q0 -4 -4 -14l-49 -95q-6 -14 -18 -14q-6 0 -14 5l-229 137l-229 -137q-8 -5 -14 -5q-13 0 -19 14zM103 0q-23 0 -23 24l9 490l-9 493q0 23 23 23h263q22 0 22 -23l-9 -493
l9 -490q0 -24 -22 -24h-263z" />
    <glyph glyph-name="idieresis" unicode="&#xef;" horiz-adv-x="468" 
d="M-19 1130q-23 0 -23 24v223q0 11 6 17t17 6h180q11 0 17 -6t6 -17v-223q0 -11 -6 -17.5t-17 -6.5h-180zM311 1130q-11 0 -17 6.5t-6 17.5v223q0 11 6.5 17t16.5 6h177q11 0 17.5 -6t6.5 -17v-223q0 -11 -6.5 -17.5t-17.5 -6.5h-177zM103 0q-23 0 -23 24l9 490l-9 493
q0 23 23 23h263q22 0 22 -23l-9 -493l9 -490q0 -24 -22 -24h-263z" />
    <glyph glyph-name="eth" unicode="&#xf0;" horiz-adv-x="1169" 
d="M918 1171q100 -110 149.5 -257.5t49.5 -343.5q0 -176 -64.5 -311.5t-187 -212t-290.5 -76.5q-148 0 -266.5 62.5t-185.5 171t-68 242.5q1 132 58.5 235t160.5 161t237 58q104 0 174 -30t120 -86q-12 150 -124 275l-232 -111q-6 -3 -12 -3q-12 0 -18 14l-62 124
q-3 6 -3 12q0 13 14 19l153 73q-78 47 -177 81q-16 5 -16 18q0 8 4 13l84 139q8 14 21 14q2 0 10 -2q187 -63 316 -148l255 122q8 3 12 3q11 0 19 -14l61 -124q3 -7 3 -12q0 -11 -14 -19zM741.5 255.5q53.5 67.5 53.5 186.5q0 117 -58.5 181.5t-161.5 64.5
q-100 0 -151 -68.5t-51 -189.5q0 -114 59.5 -178t158.5 -64q97 0 150.5 67.5z" />
    <glyph glyph-name="ntilde" unicode="&#xf1;" horiz-adv-x="1122" 
d="M1050 438l7 -414q0 -24 -23 -24h-257q-24 0 -24 24l7 414v212q0 55 -21 96.5t-57 64.5t-81 23q-57 0 -108 -35.5t-83.5 -108t-32.5 -176.5v-76l4 -414q0 -24 -23 -24h-261q-23 0 -23 24l9 470l-6 513q0 23 24 23h242q25 0 23 -24l-5 -106q55 70 141.5 112t190.5 42
q109 0 189.5 -47.5t124 -137.5t43.5 -215v-216zM605 1177q-34 17 -73 48q-26 21 -43 31t-36 10q-50 0 -55 -80q-2 -24 -24 -24h-105q-25 0 -23 24q4 114 55 182t148 68q45 0 79.5 -18t73.5 -50q29 -21 42.5 -29.5t28.5 -8.5q30 0 43.5 21t15.5 60q2 23 25 23h105q11 0 17 -8
t5 -22q-5 -116 -54.5 -180t-142.5 -64q-48 0 -82 17z" />
    <glyph glyph-name="ograve" unicode="&#xf2;" horiz-adv-x="1147" 
d="M290.5 40q-119.5 66 -182 187t-62.5 285t63 287t182 190t285 67t284.5 -65.5t180 -187t61.5 -285.5t-62 -287t-180.5 -190t-283.5 -67q-166 0 -285.5 66zM741 255q53 81 53 257q0 174 -54.5 259t-165.5 85q-114 -1 -168 -86t-54 -260q0 -173 55.5 -254.5t168.5 -81.5
q112 0 165 81zM768 1144q-7 -21 -29 -16l-490 125q-18 5 -18 21q0 6 1 9l57 178q4 16 19 16q7 0 11 -2l469 -200q16 -8 16 -22q0 -3 -2 -9z" />
    <glyph glyph-name="oacute" unicode="&#xf3;" horiz-adv-x="1147" 
d="M290.5 40q-119.5 66 -182 187t-62.5 285t63 287t182 190t285 67t284.5 -65.5t180 -187t61.5 -285.5t-62 -287t-180.5 -190t-283.5 -67q-166 0 -285.5 66zM741 255q53 81 53 257q0 174 -54.5 259t-165.5 85q-114 -1 -168 -86t-54 -260q0 -173 55.5 -254.5t168.5 -81.5
q112 0 165 81zM393 1128q-3 -1 -8 -1q-16 0 -21 17l-35 100q-2 6 -2 9q0 14 16 22l470 200q4 2 11 2q14 0 18 -16l56 -178q2 -6 2 -10q0 -15 -18 -20z" />
    <glyph glyph-name="ocircumflex" unicode="&#xf4;" horiz-adv-x="1147" 
d="M290.5 40q-119.5 66 -182 187t-62.5 285t63 287t182 190t285 67t284.5 -65.5t180 -187t61.5 -285.5t-62 -287t-180.5 -190t-283.5 -67q-166 0 -285.5 66zM741 255q53 81 53 257q0 174 -54.5 259t-165.5 85q-114 -1 -168 -86t-54 -260q0 -173 55.5 -254.5t168.5 -81.5
q112 0 165 81zM208 1246q-2 4 -2 12q0 13 11 20l282 201q12 9 29 9h92q16 0 29 -9l282 -201q11 -7 11 -20q0 -8 -2 -12l-43 -102q-5 -15 -19 -15q-6 0 -12 3l-294 144l-290 -144q-6 -3 -12 -3q-13 0 -19 15z" />
    <glyph glyph-name="otilde" unicode="&#xf5;" horiz-adv-x="1147" 
d="M290.5 40q-119.5 66 -182 187t-62.5 285t63 287t182 190t285 67t284.5 -65.5t180 -187t61.5 -285.5t-62 -287t-180.5 -190t-283.5 -67q-166 0 -285.5 66zM741 255q53 81 53 257q0 174 -54.5 259t-165.5 85q-114 -1 -168 -86t-54 -260q0 -173 55.5 -254.5t168.5 -81.5
q112 0 165 81zM614 1177q-34 17 -73 48q-26 21 -43 31t-36 10q-50 0 -55 -80q-2 -24 -24 -24h-105q-25 0 -23 24q4 114 55 182t148 68q45 0 79.5 -18t73.5 -50q29 -21 42.5 -29.5t28.5 -8.5q30 0 43.5 21t15.5 60q2 23 25 23h105q11 0 17 -8t5 -22q-5 -116 -54.5 -180
t-142.5 -64q-48 0 -82 17z" />
    <glyph glyph-name="odieresis" unicode="&#xf6;" horiz-adv-x="1147" 
d="M290.5 40q-119.5 66 -182 187t-62.5 285t63 287t182 190t285 67t284.5 -65.5t180 -187t61.5 -285.5t-62 -287t-180.5 -190t-283.5 -67q-166 0 -285.5 66zM741 255q53 81 53 257q0 174 -54.5 259t-165.5 85q-114 -1 -168 -86t-54 -260q0 -173 55.5 -254.5t168.5 -81.5
q112 0 165 81zM266 1130q-11 0 -17.5 6.5t-6.5 17.5v223q0 11 6.5 17t17.5 6h197q11 0 17 -6t6 -17v-223q0 -11 -6 -17.5t-17 -6.5h-197zM686 1130q-11 0 -17.5 6.5t-6.5 17.5v223q0 11 6.5 17t17.5 6h197q11 0 17 -6t6 -17v-223q0 -11 -6 -17.5t-17 -6.5h-197z" />
    <glyph glyph-name="divide" unicode="&#xf7;" horiz-adv-x="1110" 
d="M422 970q-24 0 -24 24v239q0 23 24 23h265q11 0 17 -6t6 -17v-239q0 -24 -23 -24h-265zM109 578q-24 0 -24 24v175q0 11 6.5 17t17.5 6h893q11 0 17 -6t6 -17v-175q0 -11 -6 -17.5t-17 -6.5h-893zM422 126q-24 0 -24 24v239q0 23 24 23h265q11 0 17 -6t6 -17v-239
q0 -24 -23 -24h-265z" />
    <glyph glyph-name="oslash" unicode="&#xf8;" horiz-adv-x="1147" 
d="M994 876q108 -138 108 -358q0 -164 -62 -287t-180.5 -190t-283.5 -67q-157 0 -274 60l-96 -116q-8 -11 -18 -11q-8 0 -16 8l-108 103q-8 8 -8 16q0 7 7 16l88 109q-52 68 -78.5 157.5t-26.5 195.5q0 164 63 287t182 190t285 67q153 0 265 -56l100 119q8 9 17 9t16 -7
l110 -102q9 -9 9 -17q0 -7 -7 -16zM406 770q-54 -85 -54 -260q0 -72 9 -128l349 424q-50 50 -136 50q-114 -1 -168 -86zM741 255q53 81 53 257q0 76 -11 140l-351 -427q54 -51 144 -51q112 0 165 81z" />
    <glyph glyph-name="ugrave" unicode="&#xf9;" horiz-adv-x="1122" 
d="M239.5 23.5q-80.5 47.5 -124 137.5t-43.5 215v216l-7 415q0 23 23 23h257q24 0 24 -23l-7 -415v-212q0 -55 21 -96.5t57 -64.5t81 -23q57 0 108 35.5t83.5 108t32.5 176.5v76l-4 415q0 23 23 23h261q23 0 23 -23l-9 -471l6 -512q0 -24 -24 -24h-242q-24 0 -23 24l5 106
q-55 -70 -141.5 -112t-190.5 -42q-109 0 -189.5 47.5zM749 1144q-7 -21 -29 -16l-490 125q-18 5 -18 21q0 6 1 9l57 178q4 16 19 16q7 0 11 -2l469 -200q16 -8 16 -22q0 -3 -2 -9z" />
    <glyph glyph-name="uacute" unicode="&#xfa;" horiz-adv-x="1122" 
d="M239.5 23.5q-80.5 47.5 -124 137.5t-43.5 215v216l-7 415q0 23 23 23h257q24 0 24 -23l-7 -415v-212q0 -55 21 -96.5t57 -64.5t81 -23q57 0 108 35.5t83.5 108t32.5 176.5v76l-4 415q0 23 23 23h261q23 0 23 -23l-9 -471l6 -512q0 -24 -24 -24h-242q-24 0 -23 24l5 106
q-55 -70 -141.5 -112t-190.5 -42q-109 0 -189.5 47.5zM373 1128q-3 -1 -8 -1q-16 0 -21 17l-35 100q-2 6 -2 9q0 14 16 22l470 200q4 2 11 2q14 0 18 -16l56 -178q2 -6 2 -10q0 -15 -18 -20z" />
    <glyph glyph-name="ucircumflex" unicode="&#xfb;" horiz-adv-x="1122" 
d="M239.5 23.5q-80.5 47.5 -124 137.5t-43.5 215v216l-7 415q0 23 23 23h257q24 0 24 -23l-7 -415v-212q0 -55 21 -96.5t57 -64.5t81 -23q57 0 108 35.5t83.5 108t32.5 176.5v76l-4 415q0 23 23 23h261q23 0 23 -23l-9 -471l6 -512q0 -24 -24 -24h-242q-24 0 -23 24l5 106
q-55 -70 -141.5 -112t-190.5 -42q-109 0 -189.5 47.5zM189 1246q-2 4 -2 12q0 13 11 20l282 201q12 9 29 9h92q16 0 29 -9l282 -201q11 -7 11 -20q0 -8 -2 -12l-43 -102q-5 -15 -19 -15q-6 0 -12 3l-294 144l-290 -144q-6 -3 -12 -3q-13 0 -19 15z" />
    <glyph glyph-name="udieresis" unicode="&#xfc;" horiz-adv-x="1122" 
d="M239.5 23.5q-80.5 47.5 -124 137.5t-43.5 215v216l-7 415q0 23 23 23h257q24 0 24 -23l-7 -415v-212q0 -55 21 -96.5t57 -64.5t81 -23q57 0 108 35.5t83.5 108t32.5 176.5v76l-4 415q0 23 23 23h261q23 0 23 -23l-9 -471l6 -512q0 -24 -24 -24h-242q-24 0 -23 24l5 106
q-55 -70 -141.5 -112t-190.5 -42q-109 0 -189.5 47.5zM247 1130q-11 0 -17.5 6.5t-6.5 17.5v223q0 11 6.5 17t17.5 6h197q11 0 17 -6t6 -17v-223q0 -11 -6 -17.5t-17 -6.5h-197zM667 1130q-11 0 -17.5 6.5t-6.5 17.5v223q0 11 6.5 17t17.5 6h197q11 0 17 -6t6 -17v-223
q0 -11 -6 -17.5t-17 -6.5h-197z" />
    <glyph glyph-name="yacute" unicode="&#xfd;" horiz-adv-x="1026" 
d="M735 1010q5 20 26 20h255q21 0 21 -17q0 -2 -2 -10l-455 -1324q-6 -19 -26 -19h-238q-21 0 -21 17q0 2 2 10l105 303l-409 1013q-3 6 -3 11q0 16 22 16h288q20 0 27 -19l223 -641zM349 1128q-3 -1 -8 -1q-16 0 -21 17l-35 100q-2 6 -2 9q0 14 16 22l470 200q4 2 11 2
q14 0 18 -16l56 -178q2 -6 2 -10q0 -15 -18 -20z" />
    <glyph glyph-name="thorn" unicode="&#xfe;" horiz-adv-x="1165" 
d="M915.5 980.5q100.5 -69.5 152 -190t51.5 -272.5q0 -150 -55 -272.5t-158 -194t-239 -71.5q-93 0 -166.5 31.5t-125.5 92.5l5 -421q0 -23 -23 -23h-263q-24 0 -24 23l10 855l-10 839q0 23 24 23h257q23 0 23 -23l-8 -470q55 69 133 106t174 37q142 0 242.5 -69.5zM755 263
q58 81 58 239q0 170 -57 257t-167 87q-111 0 -168.5 -84t-57.5 -248q0 -160 57 -246t163 -86q114 0 172 81z" />
    <glyph glyph-name="ydieresis" unicode="&#xff;" horiz-adv-x="1026" 
d="M735 1010q5 20 26 20h255q21 0 21 -17q0 -2 -2 -10l-455 -1324q-6 -19 -26 -19h-238q-21 0 -21 17q0 2 2 10l105 303l-409 1013q-3 6 -3 11q0 16 22 16h288q20 0 27 -19l223 -641zM222 1130q-11 0 -17.5 6.5t-6.5 17.5v223q0 11 6.5 17t17.5 6h197q11 0 17 -6t6 -17v-223
q0 -11 -6 -17.5t-17 -6.5h-197zM642 1130q-11 0 -17.5 6.5t-6.5 17.5v223q0 11 6.5 17t17.5 6h197q11 0 17 -6t6 -17v-223q0 -11 -6 -17.5t-17 -6.5h-197z" />
    <glyph glyph-name="Amacron" unicode="&#x100;" horiz-adv-x="1351" 
d="M1353 27l2 -9q0 -8 -5.5 -13t-15.5 -5h-266q-20 0 -27 19l-107 337h-525l-103 -336q-6 -20 -27 -20h-261q-21 0 -21 18q0 6 1 9l471 1354q7 19 27 19h370q19 0 26 -19zM857 598l-191 598l-183 -598h374zM378 1530q-24 0 -24 24v153q0 11 6.5 17t17.5 6h607q11 0 17 -6
t6 -17v-153q0 -11 -6 -17.5t-17 -6.5h-607z" />
    <glyph glyph-name="amacron" unicode="&#x101;" horiz-adv-x="1165" 
d="M1085 514l9 -490q0 -24 -23 -24h-255q-24 0 -23 24l3 97q-54 -68 -131 -104.5t-173 -36.5q-142 0 -242.5 69.5t-152 190t-51.5 272.5q0 150 55 272.5t158 194t239 71.5q190 0 297 -130l-4 86q-1 24 23 24h257q23 0 23 -23zM744 264q58 84 58 252q0 164 -58.5 249
t-169.5 85q-110 0 -166 -82.5t-56 -239.5q0 -171 56.5 -259.5t163.5 -88.5q114 0 172 84zM268 1160q-24 0 -24 24v153q0 11 6.5 17t17.5 6h607q11 0 17 -6t6 -17v-153q0 -11 -6 -17.5t-17 -6.5h-607z" />
    <glyph glyph-name="Abreve" unicode="&#x102;" horiz-adv-x="1351" 
d="M1353 27l2 -9q0 -8 -5.5 -13t-15.5 -5h-266q-20 0 -27 19l-107 337h-525l-103 -336q-6 -20 -27 -20h-261q-21 0 -21 18q0 6 1 9l471 1354q7 19 27 19h370q19 0 26 -19zM857 598l-191 598l-183 -598h374zM504 1560q-78 40 -122 110t-50 159q-2 23 23 23h149q20 0 25 -23
q7 -53 47 -84t107 -31q64 0 105 31.5t49 83.5q5 23 25 23h150q23 0 22 -21q-5 -89 -49.5 -160t-122 -111t-179.5 -40q-101 0 -179 40z" />
    <glyph glyph-name="abreve" unicode="&#x103;" horiz-adv-x="1165" 
d="M1085 514l9 -490q0 -24 -23 -24h-255q-24 0 -23 24l3 97q-54 -68 -131 -104.5t-173 -36.5q-142 0 -242.5 69.5t-152 190t-51.5 272.5q0 150 55 272.5t158 194t239 71.5q190 0 297 -130l-4 86q-1 24 23 24h257q23 0 23 -23zM744 264q58 84 58 252q0 164 -58.5 249
t-169.5 85q-110 0 -166 -82.5t-56 -239.5q0 -171 56.5 -259.5t163.5 -88.5q114 0 172 84zM394 1190q-78 40 -122 110t-50 159q-2 23 23 23h149q20 0 25 -23q7 -53 47 -84t107 -31q64 0 105 31.5t49 83.5q5 23 25 23h150q23 0 22 -21q-5 -89 -49.5 -160t-122 -111t-179.5 -40
q-101 0 -179 40z" />
    <glyph glyph-name="Aogonek" unicode="&#x104;" horiz-adv-x="1351" 
d="M1351 -224q11 0 17 -6.5t6 -17.5v-149q0 -11 -6 -17t-17 -6h-117q-90 0 -159 27t-107 77.5t-38 117.5q0 126 118 206q-4 4 -7 11l-107 337h-525l-103 -336q-6 -20 -27 -20h-261q-21 0 -21 18q0 6 1 9l471 1354q7 19 27 19h370q19 0 26 -19l461 -1354l2 -9q0 -8 -5.5 -13
t-15.5 -5h-115q-24 -25 -42.5 -65t-18.5 -79q0 -41 28 -60.5t76 -19.5h89zM666 1196l-183 -598h374z" />
    <glyph glyph-name="aogonek" unicode="&#x105;" horiz-adv-x="1165" 
d="M1105 -224q11 0 17 -6.5t6 -17.5v-149q0 -11 -6 -17t-17 -6h-117q-90 0 -159 27t-107 77.5t-38 117.5q0 124 115 204q-7 7 -6 18l3 97q-54 -68 -131 -104.5t-173 -36.5q-142 0 -242.5 69.5t-152 190t-51.5 272.5q0 150 55 272.5t158 194t239 71.5q190 0 297 -130l-4 86
q-1 24 23 24h257q23 0 23 -23l-9 -493l9 -490q0 -24 -23 -24h-98q-24 -25 -42.5 -65t-18.5 -79q0 -41 28 -60.5t76 -19.5h89zM744 264q58 84 58 252q0 164 -58.5 249t-169.5 85q-110 0 -166 -82.5t-56 -239.5q0 -171 56.5 -259.5t163.5 -88.5q114 0 172 84z" />
    <glyph glyph-name="Cacute" unicode="&#x106;" horiz-adv-x="1411" 
d="M373 61.5q-158 91.5 -242.5 256t-84.5 376.5q0 221 85.5 387.5t242.5 257.5t366 91q242 0 404 -114.5t221 -375.5l1 -6q0 -20 -22 -20h-251q-20 0 -25 21q-31 127 -114.5 194t-217.5 67q-121 0 -205 -59.5t-127.5 -172t-43.5 -268.5q0 -155 44 -265.5t128 -168.5t202 -58
q143 0 226 74t112 218q4 22 26 22h256q10 0 15.5 -6t5.5 -16q0 -6 -1 -9q-58 -271 -218 -394t-414 -123q-211 0 -369 91.5zM555 1498q-3 -1 -8 -1q-16 0 -21 17l-35 100q-2 6 -2 9q0 14 16 22l470 200q4 2 11 2q14 0 18 -16l56 -178q2 -6 2 -10q0 -15 -18 -20z" />
    <glyph glyph-name="cacute" unicode="&#x107;" horiz-adv-x="1090" 
d="M290.5 40q-118.5 66 -181.5 187.5t-63 284.5q0 164 63 287t183 190t286 67q129 0 228 -45.5t158.5 -128.5t72.5 -193l1 -5q0 -9 -6.5 -14.5t-16.5 -5.5h-232q-21 0 -25 22q-17 82 -65.5 125t-114.5 43q-114 -1 -169 -85t-55 -255q0 -177 56 -258.5t172 -81.5q75 0 125 52
t61 147q3 23 24 23h237q12 0 18 -6t5 -16q-12 -116 -75.5 -207t-168.5 -142t-236 -51q-163 0 -281.5 66zM374 1128q-3 -1 -8 -1q-16 0 -21 17l-35 100q-2 6 -2 9q0 14 16 22l470 200q4 2 11 2q14 0 18 -16l56 -178q2 -6 2 -10q0 -15 -18 -20z" />
    <glyph glyph-name="Ccircumflex" unicode="&#x108;" horiz-adv-x="1411" 
d="M373 61.5q-158 91.5 -242.5 256t-84.5 376.5q0 221 85.5 387.5t242.5 257.5t366 91q242 0 404 -114.5t221 -375.5l1 -6q0 -20 -22 -20h-251q-20 0 -25 21q-31 127 -114.5 194t-217.5 67q-121 0 -205 -59.5t-127.5 -172t-43.5 -268.5q0 -155 44 -265.5t128 -168.5t202 -58
q143 0 226 74t112 218q4 22 26 22h256q10 0 15.5 -6t5.5 -16q0 -6 -1 -9q-58 -271 -218 -394t-414 -123q-211 0 -369 91.5zM370 1616q-2 4 -2 12q0 13 11 20l282 201q12 9 29 9h92q16 0 29 -9l282 -201q11 -7 11 -20q0 -8 -2 -12l-43 -102q-5 -15 -19 -15q-6 0 -12 3
l-294 144l-290 -144q-6 -3 -12 -3q-13 0 -19 15z" />
    <glyph glyph-name="ccircumflex" unicode="&#x109;" horiz-adv-x="1090" 
d="M290.5 40q-118.5 66 -181.5 187.5t-63 284.5q0 164 63 287t183 190t286 67q129 0 228 -45.5t158.5 -128.5t72.5 -193l1 -5q0 -9 -6.5 -14.5t-16.5 -5.5h-232q-21 0 -25 22q-17 82 -65.5 125t-114.5 43q-114 -1 -169 -85t-55 -255q0 -177 56 -258.5t172 -81.5q75 0 125 52
t61 147q3 23 24 23h237q12 0 18 -6t5 -16q-12 -116 -75.5 -207t-168.5 -142t-236 -51q-163 0 -281.5 66zM190 1246q-2 4 -2 12q0 13 11 20l282 201q12 9 29 9h92q16 0 29 -9l282 -201q11 -7 11 -20q0 -8 -2 -12l-43 -102q-5 -15 -19 -15q-6 0 -12 3l-294 144l-290 -144
q-6 -3 -12 -3q-13 0 -19 15z" />
    <glyph glyph-name="Cdotaccent" unicode="&#x10a;" horiz-adv-x="1411" 
d="M373 61.5q-158 91.5 -242.5 256t-84.5 376.5q0 221 85.5 387.5t242.5 257.5t366 91q242 0 404 -114.5t221 -375.5l1 -6q0 -20 -22 -20h-251q-20 0 -25 21q-31 127 -114.5 194t-217.5 67q-121 0 -205 -59.5t-127.5 -172t-43.5 -268.5q0 -155 44 -265.5t128 -168.5t202 -58
q143 0 226 74t112 218q4 22 26 22h256q10 0 15.5 -6t5.5 -16q0 -6 -1 -9q-58 -271 -218 -394t-414 -123q-211 0 -369 91.5zM608 1500q-24 0 -24 24v223q0 11 6.5 17t17.5 6h257q10 0 16.5 -6t6.5 -17v-223q0 -11 -6 -17.5t-17 -6.5h-257z" />
    <glyph glyph-name="cdotaccent" unicode="&#x10b;" horiz-adv-x="1090" 
d="M290.5 40q-118.5 66 -181.5 187.5t-63 284.5q0 164 63 287t183 190t286 67q129 0 228 -45.5t158.5 -128.5t72.5 -193l1 -5q0 -9 -6.5 -14.5t-16.5 -5.5h-232q-21 0 -25 22q-17 82 -65.5 125t-114.5 43q-114 -1 -169 -85t-55 -255q0 -177 56 -258.5t172 -81.5q75 0 125 52
t61 147q3 23 24 23h237q12 0 18 -6t5 -16q-12 -116 -75.5 -207t-168.5 -142t-236 -51q-163 0 -281.5 66zM428 1130q-24 0 -24 24v223q0 11 6.5 17t17.5 6h257q10 0 16.5 -6t6.5 -17v-223q0 -11 -6 -17.5t-17 -6.5h-257z" />
    <glyph glyph-name="Ccaron" unicode="&#x10c;" horiz-adv-x="1411" 
d="M373 61.5q-158 91.5 -242.5 256t-84.5 376.5q0 221 85.5 387.5t242.5 257.5t366 91q242 0 404 -114.5t221 -375.5l1 -6q0 -20 -22 -20h-251q-20 0 -25 21q-31 127 -114.5 194t-217.5 67q-121 0 -205 -59.5t-127.5 -172t-43.5 -268.5q0 -155 44 -265.5t128 -168.5t202 -58
q143 0 226 74t112 218q4 22 26 22h256q10 0 15.5 -6t5.5 -16q0 -6 -1 -9q-58 -271 -218 -394t-414 -123q-211 0 -369 91.5zM381 1720q-11 8 -11 20q0 8 2 12l43 102q7 15 18 15q6 0 13 -4l290 -143l290 143q7 4 13 4q11 0 18 -15l43 -102q3 -6 3 -12q0 -12 -12 -20
l-281 -197q-13 -9 -30 -9h-88q-17 0 -29 9z" />
    <glyph glyph-name="ccaron" unicode="&#x10d;" horiz-adv-x="1090" 
d="M290.5 40q-118.5 66 -181.5 187.5t-63 284.5q0 164 63 287t183 190t286 67q129 0 228 -45.5t158.5 -128.5t72.5 -193l1 -5q0 -9 -6.5 -14.5t-16.5 -5.5h-232q-21 0 -25 22q-17 82 -65.5 125t-114.5 43q-114 -1 -169 -85t-55 -255q0 -177 56 -258.5t172 -81.5q75 0 125 52
t61 147q3 23 24 23h237q12 0 18 -6t5 -16q-12 -116 -75.5 -207t-168.5 -142t-236 -51q-163 0 -281.5 66zM201 1350q-11 8 -11 20q0 8 2 12l43 102q7 15 18 15q6 0 13 -4l290 -143l290 143q7 4 13 4q11 0 18 -15l43 -102q3 -6 3 -12q0 -12 -12 -20l-281 -197q-13 -9 -30 -9
h-88q-17 0 -29 9z" />
    <glyph glyph-name="Dcaron" unicode="&#x10e;" horiz-adv-x="1388" 
d="M109 0q-23 0 -23 24l15 676l-15 677q0 23 23 23h491q209 0 376.5 -76.5t266.5 -236t99 -397.5t-99 -392.5t-265.5 -226t-373.5 -71.5h-495zM388 706l13 -480h219q118 0 209.5 49t145 153t53.5 264q0 161 -53.5 269t-147.5 160.5t-215 52.5h-211zM329 1720q-11 8 -11 20
q0 8 2 12l43 102q7 15 18 15q6 0 13 -4l290 -143l290 143q7 4 13 4q11 0 18 -15l43 -102q3 -6 3 -12q0 -12 -12 -20l-281 -197q-13 -9 -30 -9h-88q-17 0 -29 9z" />
    <glyph glyph-name="dcaron" unicode="&#x10f;" horiz-adv-x="1165" 
d="M1087 700l8 -676q0 -24 -24 -24h-257q-24 0 -23 24l5 96q-55 -68 -132 -104t-172 -36q-142 0 -242.5 69.5t-152 190t-51.5 272.5q0 150 55 272.5t158 194t239 71.5q94 0 168.5 -32.5t127.5 -95.5l-5 455q0 23 23 23h259q24 0 24 -23zM744 262q58 84 58 252
q0 163 -56.5 249.5t-163.5 88.5q-113 3 -171.5 -80.5t-58.5 -245.5q0 -171 56.5 -259.5t163.5 -88.5q114 0 172 84zM1370 1121q-6 -21 -26 -21h-144q-11 0 -17 7t-5 18l52 423q3 22 25 22h195q12 0 18 -7t3 -19z" />
    <glyph glyph-name="Dcroat" unicode="&#x110;" horiz-adv-x="1413" 
d="M625 1400q209 0 376.5 -76.5t266.5 -236t99 -397.5t-99 -392.5t-265.5 -226t-373.5 -71.5h-495q-23 0 -23 24l13 610h-116q-24 0 -24 24v179q0 11 6.5 17t17.5 6h114l-11 517q0 23 23 23h491zM645 226q118 0 209.5 49t145 153t53.5 264q0 161 -53.5 269t-147.5 160.5
t-215 52.5h-211l-9 -314h328q11 0 17 -6t6 -17v-179q0 -11 -6 -17.5t-17 -6.5h-331l12 -408h219z" />
    <glyph glyph-name="dcroat" unicode="&#x111;" horiz-adv-x="1164" 
d="M1154 1310q11 0 17.5 -6t6.5 -17v-161q0 -24 -24 -24h-63l-4 -402l8 -676q0 -24 -24 -24h-257q-24 0 -23 24l5 96q-55 -68 -132 -104t-172 -36q-142 0 -242.5 69.5t-152 190t-51.5 272.5q0 150 55 272.5t158 194t239 71.5q94 0 168.5 -32.5t127.5 -95.5l-2 180h-271
q-11 0 -17 6.5t-6 17.5v161q0 11 6 17t17 6h268v67q0 23 23 23h259q24 0 24 -23l-1 -67h60zM744 262q58 84 58 252q0 163 -56.5 249.5t-163.5 88.5q-113 3 -171.5 -80.5t-58.5 -245.5q0 -171 56.5 -259.5t163.5 -88.5q114 0 172 84z" />
    <glyph glyph-name="Emacron" unicode="&#x112;" horiz-adv-x="1136" 
d="M109 0q-23 0 -23 24l15 676l-15 677q0 23 23 23h936q11 0 17 -6t6 -17v-179q0 -11 -6 -17.5t-17 -6.5h-644l-13 -322h599q11 0 17 -6t6 -17v-179q0 -11 -6 -17.5t-17 -6.5h-599l13 -400h660q11 0 17 -6t6 -17v-179q0 -11 -6 -17.5t-17 -6.5h-952zM292 1530q-24 0 -24 24
v153q0 11 6.5 17t17.5 6h607q11 0 17 -6t6 -17v-153q0 -11 -6 -17.5t-17 -6.5h-607z" />
    <glyph glyph-name="emacron" unicode="&#x113;" horiz-adv-x="1140" 
d="M348 454q9 -145 66 -212.5t166 -67.5q159 0 199 153q6 21 25 21h242q12 0 18.5 -4.5t5.5 -12.5q-13 -96 -76 -177.5t-171 -130.5t-247 -49q-168 0 -287.5 68.5t-181 190t-61.5 279.5q0 164 63 286.5t181 190t280 67.5q166 0 284 -70t180.5 -199.5t67.5 -308.5
q0 -24 -24 -24h-730zM428.5 804.5q-53.5 -53.5 -72.5 -160.5h422q-10 91 -61.5 152.5t-144.5 61.5q-90 0 -143.5 -53.5zM266 1160q-24 0 -24 24v153q0 11 6.5 17t17.5 6h607q11 0 17 -6t6 -17v-153q0 -11 -6 -17.5t-17 -6.5h-607z" />
    <glyph glyph-name="Ebreve" unicode="&#x114;" horiz-adv-x="1136" 
d="M109 0q-23 0 -23 24l15 676l-15 677q0 23 23 23h936q11 0 17 -6t6 -17v-179q0 -11 -6 -17.5t-17 -6.5h-644l-13 -322h599q11 0 17 -6t6 -17v-179q0 -11 -6 -17.5t-17 -6.5h-599l13 -400h660q11 0 17 -6t6 -17v-179q0 -11 -6 -17.5t-17 -6.5h-952zM419 1560
q-78 40 -122 110t-50 159q-2 23 23 23h149q20 0 25 -23q7 -53 47 -84t107 -31q64 0 105 31.5t49 83.5q5 23 25 23h150q23 0 22 -21q-5 -89 -49.5 -160t-122 -111t-179.5 -40q-101 0 -179 40z" />
    <glyph glyph-name="ebreve" unicode="&#x115;" horiz-adv-x="1140" 
d="M348 454q9 -145 66 -212.5t166 -67.5q159 0 199 153q6 21 25 21h242q12 0 18.5 -4.5t5.5 -12.5q-13 -96 -76 -177.5t-171 -130.5t-247 -49q-168 0 -287.5 68.5t-181 190t-61.5 279.5q0 164 63 286.5t181 190t280 67.5q166 0 284 -70t180.5 -199.5t67.5 -308.5
q0 -24 -24 -24h-730zM428.5 804.5q-53.5 -53.5 -72.5 -160.5h422q-10 91 -61.5 152.5t-144.5 61.5q-90 0 -143.5 -53.5zM392 1190q-78 40 -122 110t-50 159q-2 23 23 23h149q20 0 25 -23q7 -53 47 -84t107 -31q64 0 105 31.5t49 83.5q5 23 25 23h150q23 0 22 -21
q-5 -89 -49.5 -160t-122 -111t-179.5 -40q-101 0 -179 40z" />
    <glyph glyph-name="Edotaccent" unicode="&#x116;" horiz-adv-x="1136" 
d="M109 0q-23 0 -23 24l15 676l-15 677q0 23 23 23h936q11 0 17 -6t6 -17v-179q0 -11 -6 -17.5t-17 -6.5h-644l-13 -322h599q11 0 17 -6t6 -17v-179q0 -11 -6 -17.5t-17 -6.5h-599l13 -400h660q11 0 17 -6t6 -17v-179q0 -11 -6 -17.5t-17 -6.5h-952zM468 1500q-24 0 -24 24
v223q0 11 6.5 17t17.5 6h257q10 0 16.5 -6t6.5 -17v-223q0 -11 -6 -17.5t-17 -6.5h-257z" />
    <glyph glyph-name="edotaccent" unicode="&#x117;" horiz-adv-x="1140" 
d="M348 454q9 -145 66 -212.5t166 -67.5q159 0 199 153q6 21 25 21h242q12 0 18.5 -4.5t5.5 -12.5q-13 -96 -76 -177.5t-171 -130.5t-247 -49q-168 0 -287.5 68.5t-181 190t-61.5 279.5q0 164 63 286.5t181 190t280 67.5q166 0 284 -70t180.5 -199.5t67.5 -308.5
q0 -24 -24 -24h-730zM428.5 804.5q-53.5 -53.5 -72.5 -160.5h422q-10 91 -61.5 152.5t-144.5 61.5q-90 0 -143.5 -53.5zM442 1130q-24 0 -24 24v223q0 11 6.5 17t17.5 6h257q10 0 16.5 -6t6.5 -17v-223q0 -11 -6 -17.5t-17 -6.5h-257z" />
    <glyph glyph-name="Eogonek" unicode="&#x118;" horiz-adv-x="1136" 
d="M1090 -224q11 0 17 -6.5t6 -17.5v-149q0 -11 -6 -17t-17 -6h-117q-90 0 -159 27t-107 77.5t-38 117.5q0 121 107 198h-667q-23 0 -23 24l15 676l-15 677q0 23 23 23h936q11 0 17 -6t6 -17v-179q0 -11 -6 -17.5t-17 -6.5h-644l-13 -322h599q11 0 17 -6t6 -17v-179
q0 -11 -6 -17.5t-17 -6.5h-599l13 -400h660q11 0 17 -6t6 -17v-179q0 -11 -6 -17.5t-17 -6.5h-103q-24 -25 -42.5 -65t-18.5 -79q0 -41 28 -60.5t76 -19.5h89z" />
    <glyph glyph-name="eogonek" unicode="&#x119;" horiz-adv-x="1140" 
d="M854 986q118 -70 180.5 -199.5t67.5 -308.5q0 -24 -24 -24h-730q9 -145 66 -212.5t166 -67.5q159 0 199 153q6 21 25 21h242q12 0 18.5 -4.5t5.5 -12.5q-10 -76 -52.5 -144.5t-114.5 -119t-167 -74.5q-23 -26 -39 -63.5t-16 -73.5q0 -41 28 -60.5t76 -19.5h89
q11 0 17 -6.5t6 -17.5v-149q0 -11 -6 -17t-17 -6h-117q-90 0 -159 27t-107 77.5t-38 117.5q0 101 77 173q-154 10 -263 80.5t-165 188.5t-56 268q0 164 63 286.5t181 190t280 67.5q166 0 284 -70zM778 644q-10 91 -61.5 152.5t-144.5 61.5q-90 0 -143.5 -53.5t-72.5 -160.5
h422z" />
    <glyph glyph-name="Ecaron" unicode="&#x11a;" horiz-adv-x="1136" 
d="M109 0q-23 0 -23 24l15 676l-15 677q0 23 23 23h936q11 0 17 -6t6 -17v-179q0 -11 -6 -17.5t-17 -6.5h-644l-13 -322h599q11 0 17 -6t6 -17v-179q0 -11 -6 -17.5t-17 -6.5h-599l13 -400h660q11 0 17 -6t6 -17v-179q0 -11 -6 -17.5t-17 -6.5h-952zM241 1720q-11 8 -11 20
q0 8 2 12l43 102q7 15 18 15q6 0 13 -4l290 -143l290 143q7 4 13 4q11 0 18 -15l43 -102q3 -6 3 -12q0 -12 -12 -20l-281 -197q-13 -9 -30 -9h-88q-17 0 -29 9z" />
    <glyph glyph-name="ecaron" unicode="&#x11b;" horiz-adv-x="1140" 
d="M348 454q9 -145 66 -212.5t166 -67.5q159 0 199 153q6 21 25 21h242q12 0 18.5 -4.5t5.5 -12.5q-13 -96 -76 -177.5t-171 -130.5t-247 -49q-168 0 -287.5 68.5t-181 190t-61.5 279.5q0 164 63 286.5t181 190t280 67.5q166 0 284 -70t180.5 -199.5t67.5 -308.5
q0 -24 -24 -24h-730zM428.5 804.5q-53.5 -53.5 -72.5 -160.5h422q-10 91 -61.5 152.5t-144.5 61.5q-90 0 -143.5 -53.5zM215 1350q-11 8 -11 20q0 8 2 12l43 102q7 15 18 15q6 0 13 -4l290 -143l290 143q7 4 13 4q11 0 18 -15l43 -102q3 -6 3 -12q0 -12 -12 -20l-281 -197
q-13 -9 -30 -9h-88q-17 0 -29 9z" />
    <glyph glyph-name="Gcircumflex" unicode="&#x11c;" horiz-adv-x="1455" 
d="M378 62q-157 92 -244.5 258t-87.5 380q0 219 85 384t240.5 255.5t360.5 90.5q255 0 419.5 -119t222.5 -339q1 -3 1 -7q0 -9 -6 -14t-16 -5h-266q-22 0 -26 20q-35 115 -117 174.5t-210 59.5q-120 0 -204 -61t-127 -174t-43 -269q0 -152 45 -263.5t132.5 -171.5t209.5 -60
q151 0 239 87.5t94 248.5h-342q-24 0 -24 24v174q0 11 6.5 17.5t17.5 6.5h645q23 0 23 -32q0 -376 -173 -566.5t-496 -190.5q-202 0 -359 92zM360 1616q-2 4 -2 12q0 13 11 20l282 201q12 9 29 9h92q16 0 29 -9l282 -201q11 -7 11 -20q0 -8 -2 -12l-43 -102q-5 -15 -19 -15
q-6 0 -12 3l-294 144l-290 -144q-6 -3 -12 -3q-13 0 -19 15z" />
    <glyph glyph-name="gcircumflex" unicode="&#x11d;" horiz-adv-x="1163" 
d="M258 73.5q-105 67.5 -158.5 184.5t-53.5 264q0 145 55 264t158 188.5t239 69.5q189 0 297 -126l-4 88q-1 24 23 24h252q24 0 24 -23l-7 -507l6 -472q2 -131 -56 -227t-173 -148.5t-282 -52.5q-137 -2 -244.5 34t-172.5 110t-74 182q-1 11 5.5 17.5t17.5 6.5h250
q21 0 24 -22q11 -62 63 -96t141 -34q102 0 161 58.5t59 175.5v118q-52 -70 -127 -107t-169 -37q-149 0 -254 67.5zM802 522q0 159 -58.5 242.5t-169.5 83.5q-109 0 -165.5 -80.5t-56.5 -233.5q0 -164 56.5 -248t163.5 -84q230 0 230 320zM206 1246q-2 4 -2 12q0 13 11 20
l282 201q12 9 29 9h92q16 0 29 -9l282 -201q11 -7 11 -20q0 -8 -2 -12l-43 -102q-5 -15 -19 -15q-6 0 -12 3l-294 144l-290 -144q-6 -3 -12 -3q-13 0 -19 15z" />
    <glyph glyph-name="Gbreve" unicode="&#x11e;" horiz-adv-x="1455" 
d="M378 62q-157 92 -244.5 258t-87.5 380q0 219 85 384t240.5 255.5t360.5 90.5q255 0 419.5 -119t222.5 -339q1 -3 1 -7q0 -9 -6 -14t-16 -5h-266q-22 0 -26 20q-35 115 -117 174.5t-210 59.5q-120 0 -204 -61t-127 -174t-43 -269q0 -152 45 -263.5t132.5 -171.5t209.5 -60
q151 0 239 87.5t94 248.5h-342q-24 0 -24 24v174q0 11 6.5 17.5t17.5 6.5h645q23 0 23 -32q0 -376 -173 -566.5t-496 -190.5q-202 0 -359 92zM549 1560q-78 40 -122 110t-50 159q-2 23 23 23h149q20 0 25 -23q7 -53 47 -84t107 -31q64 0 105 31.5t49 83.5q5 23 25 23h150
q23 0 22 -21q-5 -89 -49.5 -160t-122 -111t-179.5 -40q-101 0 -179 40z" />
    <glyph glyph-name="gbreve" unicode="&#x11f;" horiz-adv-x="1163" 
d="M258 73.5q-105 67.5 -158.5 184.5t-53.5 264q0 145 55 264t158 188.5t239 69.5q189 0 297 -126l-4 88q-1 24 23 24h252q24 0 24 -23l-7 -507l6 -472q2 -131 -56 -227t-173 -148.5t-282 -52.5q-137 -2 -244.5 34t-172.5 110t-74 182q-1 11 5.5 17.5t17.5 6.5h250
q21 0 24 -22q11 -62 63 -96t141 -34q102 0 161 58.5t59 175.5v118q-52 -70 -127 -107t-169 -37q-149 0 -254 67.5zM802 522q0 159 -58.5 242.5t-169.5 83.5q-109 0 -165.5 -80.5t-56.5 -233.5q0 -164 56.5 -248t163.5 -84q230 0 230 320zM394 1190q-78 40 -122 110t-50 159
q-2 23 23 23h149q20 0 25 -23q7 -53 47 -84t107 -31q64 0 105 31.5t49 83.5q5 23 25 23h150q23 0 22 -21q-5 -89 -49.5 -160t-122 -111t-179.5 -40q-101 0 -179 40z" />
    <glyph glyph-name="Gdotaccent" unicode="&#x120;" horiz-adv-x="1455" 
d="M378 62q-157 92 -244.5 258t-87.5 380q0 219 85 384t240.5 255.5t360.5 90.5q255 0 419.5 -119t222.5 -339q1 -3 1 -7q0 -9 -6 -14t-16 -5h-266q-22 0 -26 20q-35 115 -117 174.5t-210 59.5q-120 0 -204 -61t-127 -174t-43 -269q0 -152 45 -263.5t132.5 -171.5t209.5 -60
q151 0 239 87.5t94 248.5h-342q-24 0 -24 24v174q0 11 6.5 17.5t17.5 6.5h645q23 0 23 -32q0 -376 -173 -566.5t-496 -190.5q-202 0 -359 92zM598 1500q-24 0 -24 24v223q0 11 6.5 17t17.5 6h257q10 0 16.5 -6t6.5 -17v-223q0 -11 -6 -17.5t-17 -6.5h-257z" />
    <glyph glyph-name="gdotaccent" unicode="&#x121;" horiz-adv-x="1163" 
d="M258 73.5q-105 67.5 -158.5 184.5t-53.5 264q0 145 55 264t158 188.5t239 69.5q189 0 297 -126l-4 88q-1 24 23 24h252q24 0 24 -23l-7 -507l6 -472q2 -131 -56 -227t-173 -148.5t-282 -52.5q-137 -2 -244.5 34t-172.5 110t-74 182q-1 11 5.5 17.5t17.5 6.5h250
q21 0 24 -22q11 -62 63 -96t141 -34q102 0 161 58.5t59 175.5v118q-52 -70 -127 -107t-169 -37q-149 0 -254 67.5zM802 522q0 159 -58.5 242.5t-169.5 83.5q-109 0 -165.5 -80.5t-56.5 -233.5q0 -164 56.5 -248t163.5 -84q230 0 230 320zM444 1130q-24 0 -24 24v223
q0 11 6.5 17t17.5 6h257q10 0 16.5 -6t6.5 -17v-223q0 -11 -6 -17.5t-17 -6.5h-257z" />
    <glyph glyph-name="uni0122" unicode="&#x122;" horiz-adv-x="1455" 
d="M378 62q-157 92 -244.5 258t-87.5 380q0 219 85 384t240.5 255.5t360.5 90.5q255 0 419.5 -119t222.5 -339q1 -3 1 -7q0 -9 -6 -14t-16 -5h-266q-22 0 -26 20q-35 115 -117 174.5t-210 59.5q-120 0 -204 -61t-127 -174t-43 -269q0 -152 45 -263.5t132.5 -171.5t209.5 -60
q151 0 239 87.5t94 248.5h-342q-24 0 -24 24v174q0 11 6.5 17.5t17.5 6.5h645q23 0 23 -32q0 -376 -173 -566.5t-496 -190.5q-202 0 -359 92zM590 -500q-12 0 -17.5 7t-3.5 19l42 172v200q0 11 6.5 17.5t17.5 6.5h181q23 0 23 -24v-182q0 -18 -8 -30l-110 -171
q-9 -15 -28 -15h-103z" />
    <glyph glyph-name="uni0123" unicode="&#x123;" horiz-adv-x="1163" 
d="M258 73.5q-105 67.5 -158.5 184.5t-53.5 264q0 145 55 264t158 188.5t239 69.5q189 0 297 -126l-4 88q-1 24 23 24h252q24 0 24 -23l-7 -507l6 -472q2 -131 -56 -227t-173 -148.5t-282 -52.5q-137 -2 -244.5 34t-172.5 110t-74 182q-1 11 5.5 17.5t17.5 6.5h250
q21 0 24 -22q11 -62 63 -96t141 -34q102 0 161 58.5t59 175.5v118q-52 -70 -127 -107t-169 -37q-149 0 -254 67.5zM802 522q0 159 -58.5 242.5t-169.5 83.5q-109 0 -165.5 -80.5t-56.5 -233.5q0 -164 56.5 -248t163.5 -84q230 0 230 320zM408 1130q-11 0 -17.5 6.5
t-6.5 17.5v181q0 17 12 30l160 174q12 13 29 13h120q12 0 18 -7t3 -19l-42 -172v-200q0 -11 -6 -17.5t-17 -6.5h-253z" />
    <glyph glyph-name="Hcircumflex" unicode="&#x124;" horiz-adv-x="1396" 
d="M1296 700l14 -676q0 -24 -23 -24h-270q-23 0 -23 24l11 610h-614l11 -610q0 -24 -23 -24h-270q-23 0 -23 24l15 676l-15 677q0 23 23 23h270q23 0 23 -23l-10 -517h612l-10 517q0 23 23 23h270q23 0 23 -23zM332 1616q-2 4 -2 12q0 13 11 20l282 201q12 9 29 9h92
q16 0 29 -9l282 -201q11 -7 11 -20q0 -8 -2 -12l-43 -102q-5 -15 -19 -15q-6 0 -12 3l-294 144l-290 -144q-6 -3 -12 -3q-13 0 -19 15z" />
    <glyph glyph-name="hcircumflex" unicode="&#x125;" horiz-adv-x="1120" 
d="M955 944.5q96 -109.5 93 -330.5l-3 -220l9 -370q2 -24 -22 -24h-263q-24 0 -23 24l9 366l-3 260q-1 89 -44 136.5t-108 47.5q-50 0 -98.5 -26.5t-85 -79t-51.5 -124.5l9 -580q0 -24 -22 -24h-255q-23 0 -23 24l11 678l-11 675q0 23 23 23h255q22 0 22 -23l-7 -463
q108 140 313 140q179 0 275 -109.5zM-142 1616q-2 4 -2 12q0 13 11 20l282 201q12 9 29 9h92q16 0 29 -9l282 -201q11 -7 11 -20q0 -8 -2 -12l-43 -102q-5 -15 -19 -15q-6 0 -12 3l-294 144l-290 -144q-6 -3 -12 -3q-13 0 -19 15z" />
    <glyph glyph-name="Hbar" unicode="&#x126;" horiz-adv-x="1400" 
d="M1367 1172q11 0 17 -6t6 -17v-179q0 -11 -6 -17.5t-17 -6.5h-63l-2 -246l6 -676q0 -24 -23 -24h-261q-24 0 -24 24l3 470h-606l3 -470q0 -24 -23 -24h-261q-24 0 -24 24l6 676l-2 246h-62q-11 0 -17.5 6.5t-6.5 17.5v179q0 11 6.5 17t17.5 6h60l-2 205q0 23 24 23h261
q23 0 23 -23l-1 -205h602l-1 205q0 23 24 23h261q23 0 23 -23l-2 -205h61zM397 946l-1 -226h608l-1 226h-606z" />
    <glyph glyph-name="hbar" unicode="&#x127;" horiz-adv-x="1074" 
d="M909 944.5q96 -109.5 93 -330.5l-3 -220l9 -370q2 -24 -22 -24h-263q-24 0 -23 24l9 366l-3 260q-1 89 -44 136.5t-108 47.5q-50 0 -98.5 -26.5t-85 -79t-51.5 -124.5l9 -580q0 -24 -22 -24h-255q-23 0 -23 24l11 678l-7 400h-63q-11 0 -17 6.5t-6 17.5v161q0 11 6 17
t17 6h60l-1 67q0 23 23 23h255q22 0 22 -23l-1 -67h276q11 0 17 -6t6 -17v-161q0 -24 -23 -24h-279l-3 -188q108 140 313 140q179 0 275 -109.5z" />
    <glyph glyph-name="Itilde" unicode="&#x128;" horiz-adv-x="504" 
d="M119 0q-23 0 -23 24l15 676l-15 677q0 23 23 23h266q23 0 23 -23l-14 -677l14 -676q0 -24 -23 -24h-266zM292 1547q-34 17 -73 48q-26 21 -43 31t-36 10q-50 0 -55 -80q-2 -24 -24 -24h-105q-25 0 -23 24q4 114 55 182t148 68q45 0 79.5 -18t73.5 -50q29 -21 42.5 -29.5
t28.5 -8.5q30 0 43.5 21t15.5 60q2 23 25 23h105q11 0 17 -8t5 -22q-5 -116 -54.5 -180t-142.5 -64q-48 0 -82 17z" />
    <glyph glyph-name="itilde" unicode="&#x129;" horiz-adv-x="468" 
d="M270 1178q-30 18 -64 50q-21 20 -34 29t-26 9q-36 0 -41 -80q-1 -24 -24 -24h-92q-23 0 -23 25q4 120 46 184.5t116 64.5q42 0 72 -18t64 -50q19 -19 32.5 -28.5t27.5 -9.5q38 0 41 81q2 23 25 23h91q11 0 17 -11t5 -31q-13 -232 -159 -232q-44 0 -74 18zM103 0
q-23 0 -23 24l9 490l-9 493q0 23 23 23h263q22 0 22 -23l-9 -493l9 -490q0 -24 -22 -24h-263z" />
    <glyph glyph-name="Imacron" unicode="&#x12a;" horiz-adv-x="504" 
d="M119 0q-23 0 -23 24l15 676l-15 677q0 23 23 23h266q23 0 23 -23l-14 -677l14 -676q0 -24 -23 -24h-266zM-52 1530q-24 0 -24 24v153q0 11 6.5 17t17.5 6h607q11 0 17 -6t6 -17v-153q0 -11 -6 -17.5t-17 -6.5h-607z" />
    <glyph glyph-name="imacron" unicode="&#x12b;" horiz-adv-x="468" 
d="M-17 1160q-23 0 -23 24v153q0 11 6 17t17 6h502q11 0 17 -6t6 -17v-153q0 -11 -6 -17.5t-17 -6.5h-502zM103 0q-23 0 -23 24l9 490l-9 493q0 23 23 23h263q22 0 22 -23l-9 -493l9 -490q0 -24 -22 -24h-263z" />
    <glyph glyph-name="Ibreve" unicode="&#x12c;" horiz-adv-x="504" 
d="M119 0q-23 0 -23 24l15 676l-15 677q0 23 23 23h266q23 0 23 -23l-14 -677l14 -676q0 -24 -23 -24h-266zM74 1560q-78 40 -122 110t-50 159q-2 23 23 23h149q20 0 25 -23q7 -53 47 -84t107 -31q64 0 105 31.5t49 83.5q5 23 25 23h150q23 0 22 -21q-5 -89 -49.5 -160
t-122 -111t-179.5 -40q-101 0 -179 40z" />
    <glyph glyph-name="ibreve" unicode="&#x12d;" horiz-adv-x="468" 
d="M22 1229.5q-79 79.5 -85 228.5q-2 24 22 24h138q22 0 24 -23q9 -125 115 -125q50 0 79.5 31.5t33.5 93.5q2 23 24 23h138q24 0 22 -28q-7 -147 -86 -225.5t-211 -78.5q-135 0 -214 79.5zM103 0q-23 0 -23 24l9 490l-9 493q0 23 23 23h263q22 0 22 -23l-9 -493l9 -490
q0 -24 -22 -24h-263z" />
    <glyph glyph-name="Iogonek" unicode="&#x12e;" horiz-adv-x="504" 
d="M406 -224q11 0 17 -6.5t6 -17.5v-149q0 -11 -6 -17t-17 -6h-117q-90 0 -159 27t-107 77.5t-38 117.5q0 125 116 205q-5 7 -5 17l15 676l-15 677q0 23 23 23h266q23 0 23 -23l-14 -677l14 -676q0 -24 -23 -24h-111q-24 -25 -42.5 -65t-18.5 -79q0 -41 28 -60.5t76 -19.5
h89z" />
    <glyph glyph-name="iogonek" unicode="&#x12f;" horiz-adv-x="468" 
d="M106 1130q-24 0 -24 24v223q0 11 6.5 17t17.5 6h257q11 0 17 -6t6 -17v-223q0 -11 -6 -17.5t-17 -6.5h-257zM387 -224q11 0 17 -6.5t6 -17.5v-149q0 -11 -6 -17t-17 -6h-117q-90 0 -159 27t-107 77.5t-38 117.5q0 126 118 206q-4 5 -4 16l9 490l-9 493q0 23 23 23h263
q22 0 22 -23l-9 -493l9 -490q0 -24 -22 -24h-111q-24 -25 -42.5 -65t-18.5 -79q0 -41 28 -60.5t76 -19.5h89z" />
    <glyph glyph-name="Idotaccent" unicode="&#x130;" horiz-adv-x="504" 
d="M119 0q-23 0 -23 24l15 676l-15 677q0 23 23 23h266q23 0 23 -23l-14 -677l14 -676q0 -24 -23 -24h-266zM124 1500q-24 0 -24 24v223q0 11 6.5 17t17.5 6h257q10 0 16.5 -6t6.5 -17v-223q0 -11 -6 -17.5t-17 -6.5h-257z" />
    <glyph glyph-name="dotlessi" unicode="&#x131;" horiz-adv-x="468" 
d="M103 0q-23 0 -23 24l9 490l-9 493q0 23 23 23h263q22 0 22 -23l-9 -493l9 -490q0 -24 -22 -24h-263z" />
    <glyph glyph-name="IJ" unicode="&#x132;" horiz-adv-x="1574" 
d="M119 0q-23 0 -23 24l15 676l-15 677q0 23 23 23h266q23 0 23 -23l-14 -677l14 -676q0 -24 -23 -24h-266zM656.5 105.5q-121.5 135.5 -127.5 377.5q0 23 24 23h249q23 0 23 -24q4 -138 47 -206t137 -68q66 0 105 31t56 95t19 168l5 321l-13 554q0 23 23 23h276
q23 0 23 -23l-12 -554l4 -323q4 -264 -120.5 -397t-367.5 -133q-229 0 -350.5 135.5z" />
    <glyph glyph-name="ij" unicode="&#x133;" horiz-adv-x="936" 
d="M103 0q-23 0 -23 24l9 490l-9 493q0 23 23 23h263q22 0 22 -23l-9 -493l9 -490q0 -24 -22 -24h-263zM106 1130q-24 0 -24 24v223q0 11 6.5 17t17.5 6h257q10 0 16.5 -6t6.5 -17v-223q0 -11 -6 -17.5t-17 -6.5h-257zM571 -340q-24 0 -24 23l10 671l-10 653q0 23 24 23h263
q23 0 23 -23l-10 -653l10 -671q0 -23 -23 -23h-263zM574 1130q-24 0 -24 24v223q0 11 6.5 17t17.5 6h257q10 0 16.5 -6t6.5 -17v-223q0 -11 -6 -17.5t-17 -6.5h-257z" />
    <glyph glyph-name="Jcircumflex" unicode="&#x134;" horiz-adv-x="1070" 
d="M152.5 105.5q-121.5 135.5 -127.5 377.5q0 23 24 23h249q23 0 23 -24q4 -138 47 -206t137 -68q66 0 105 31t56 95t19 168l5 321l-13 554q0 23 23 23h276q23 0 23 -23l-12 -554l4 -323q4 -264 -120.5 -397t-367.5 -133q-229 0 -350.5 135.5zM473 1616q-2 4 -2 12
q0 13 11 20l282 201q12 9 29 9h92q16 0 29 -9l282 -201q11 -7 11 -20q0 -8 -2 -12l-43 -102q-5 -15 -19 -15q-6 0 -12 3l-294 144l-290 -144q-6 -3 -12 -3q-13 0 -19 15z" />
    <glyph glyph-name="jcircumflex" unicode="&#x135;" horiz-adv-x="468" 
d="M-79 1250q-4 10 -4 14q0 10 10 19l231 195q12 11 29 11h90q17 0 29 -11l231 -195q10 -7 10 -19q0 -4 -4 -14l-49 -95q-6 -14 -18 -14q-6 0 -14 5l-229 137l-229 -137q-8 -5 -14 -5q-13 0 -19 14zM103 -340q-24 0 -24 23l10 671l-10 653q0 23 24 23h263q23 0 23 -23
l-10 -653l10 -671q0 -23 -23 -23h-263z" />
    <glyph glyph-name="uni0136" unicode="&#x136;" horiz-adv-x="1265" 
d="M1259 29q5 -6 5 -14q0 -7 -5 -11t-15 -4h-323q-17 0 -28 15l-384 577l-117 -145l6 -423q0 -24 -22 -24h-267q-23 0 -23 24l13 676l-12 677q0 23 23 23h266q22 0 22 -23l-8 -562l410 571q10 14 29 14h305q9 0 14.5 -4t5.5 -10q0 -7 -7 -15l-443 -540zM512 -500
q-12 0 -17.5 7t-3.5 19l42 172v200q0 11 6.5 17.5t17.5 6.5h181q23 0 23 -24v-182q0 -18 -8 -30l-110 -171q-9 -15 -28 -15h-103z" />
    <glyph glyph-name="uni0137" unicode="&#x137;" horiz-adv-x="1034" 
d="M1037 28q4 -7 4 -13q0 -7 -5 -11t-15 -4h-297q-19 0 -28 17l-233 425l-95 -120l4 -298q0 -24 -23 -24h-255q-23 0 -23 24l11 676l-11 677q0 23 23 23h255q23 0 23 -23l-10 -671l1 -62l299 373q10 13 29 13h273q9 0 14.5 -4t5.5 -10q0 -8 -7 -15l-304 -341zM401 -500
q-12 0 -17.5 7t-3.5 19l42 172v200q0 11 6.5 17.5t17.5 6.5h181q23 0 23 -24v-182q0 -18 -8 -30l-110 -171q-9 -15 -28 -15h-103z" />
    <glyph glyph-name="Lacute" unicode="&#x139;" horiz-adv-x="992" 
d="M109 0q-23 0 -23 24l15 676l-15 677q0 23 23 23h268q23 0 23 -23l-12 -659l13 -492h560q11 0 17 -6t6 -17v-179q0 -11 -6 -17.5t-17 -6.5h-852zM62 1498q-3 -1 -8 -1q-16 0 -21 17l-35 100q-2 6 -2 9q0 14 16 22l470 200q4 2 11 2q14 0 18 -16l56 -178q2 -6 2 -10
q0 -15 -18 -20z" />
    <glyph glyph-name="lacute" unicode="&#x13a;" horiz-adv-x="462" 
d="M104 0q-23 0 -23 24l11 676l-11 677q0 23 23 23h255q22 0 22 -23l-11 -677l11 -676q0 -24 -22 -24h-255zM49 1498q-3 -1 -8 -1q-16 0 -21 17l-35 100q-2 6 -2 9q0 14 16 22l470 200q4 2 11 2q14 0 18 -16l56 -178q2 -6 2 -10q0 -15 -18 -20z" />
    <glyph glyph-name="uni013B" unicode="&#x13b;" horiz-adv-x="992" 
d="M109 0q-23 0 -23 24l15 676l-15 677q0 23 23 23h268q23 0 23 -23l-12 -659l13 -492h560q11 0 17 -6t6 -17v-179q0 -11 -6 -17.5t-17 -6.5h-852zM421 -500q-12 0 -17.5 7t-3.5 19l42 172v200q0 11 6.5 17.5t17.5 6.5h181q23 0 23 -24v-182q0 -18 -8 -30l-110 -171
q-9 -15 -28 -15h-103z" />
    <glyph glyph-name="uni013C" unicode="&#x13c;" horiz-adv-x="462" 
d="M104 0q-23 0 -23 24l11 676l-11 677q0 23 23 23h255q22 0 22 -23l-11 -677l11 -676q0 -24 -22 -24h-255zM96 -500q-12 0 -17.5 7t-3.5 19l42 172v200q0 11 6.5 17.5t17.5 6.5h181q23 0 23 -24v-182q0 -18 -8 -30l-110 -171q-9 -15 -28 -15h-103z" />
    <glyph glyph-name="Lcaron" unicode="&#x13d;" horiz-adv-x="992" 
d="M109 0q-23 0 -23 24l15 676l-15 677q0 23 23 23h268q23 0 23 -23l-12 -659l13 -492h560q11 0 17 -6t6 -17v-179q0 -11 -6 -17.5t-17 -6.5h-852zM675 951q-6 -21 -26 -21h-144q-11 0 -17 7t-5 18l52 423q3 22 25 22h195q12 0 18 -7t3 -19z" />
    <glyph glyph-name="lcaron" unicode="&#x13e;" horiz-adv-x="462" 
d="M104 0q-23 0 -23 24l11 676l-11 677q0 23 23 23h255q22 0 22 -23l-11 -677l11 -676q0 -24 -22 -24h-255zM657 1121q-6 -21 -26 -21h-144q-11 0 -17 7t-5 18l52 423q3 22 25 22h195q12 0 18 -7t3 -19z" />
    <glyph glyph-name="Ldot" unicode="&#x13f;" horiz-adv-x="992" 
d="M109 0q-23 0 -23 24l15 676l-15 677q0 23 23 23h268q23 0 23 -23l-12 -659l13 -492h560q11 0 17 -6t6 -17v-179q0 -11 -6 -17.5t-17 -6.5h-852zM637 645q-24 0 -24 24v223q0 11 6.5 17t17.5 6h257q10 0 16.5 -6t6.5 -17v-223q0 -11 -6 -17.5t-17 -6.5h-257z" />
    <glyph glyph-name="ldot" unicode="&#x140;" horiz-adv-x="766" 
d="M104 0q-23 0 -23 24l11 676l-11 677q0 23 23 23h255q22 0 22 -23l-11 -677l11 -676q0 -24 -22 -24h-255zM486 485q-24 0 -24 24v223q0 11 6.5 17t17.5 6h257q11 0 17 -6t6 -17v-223q0 -11 -6 -17.5t-17 -6.5h-257z" />
    <glyph glyph-name="Lslash" unicode="&#x141;" horiz-adv-x="1004" 
d="M664 923q8 2 10 2q8 0 12.5 -5.5t4.5 -15.5v-178q0 -20 -19 -26l-244 -79l10 -395h560q11 0 17.5 -6t6.5 -17v-179q0 -11 -6.5 -17.5t-17.5 -6.5h-851q-23 0 -23 24l11 502l-95 -31q-8 -2 -10 -2q-17 0 -17 21v178q0 20 19 26l105 34l-13 625q0 23 23 23h268q22 0 22 -23
l-9 -530z" />
    <glyph glyph-name="lslash" unicode="&#x142;" horiz-adv-x="532" 
d="M450 758q5 4 12 4t11.5 -5.5t4.5 -15.5v-176q0 -19 -17 -28l-53 -27l8 -486q0 -24 -22 -24h-255q-23 0 -23 24l5 337l-39 -20q-5 -4 -12 -4t-11.5 5.5t-4.5 15.5v175q0 20 17 28l54 28l2 111l-11 677q0 23 23 23h255q22 0 22 -23l-10 -642z" />
    <glyph glyph-name="Nacute" unicode="&#x143;" horiz-adv-x="1390" 
d="M109 0q-23 0 -23 24l13 676l-13 677q0 23 23 23h330q19 0 28 -16l561 -991l-12 421v563q0 23 24 23h241q23 0 23 -23l-12 -677l12 -676q0 -24 -23 -24h-342q-19 0 -28 16l-550 983l13 -481v-494q0 -24 -23 -24h-242zM523 1498q-3 -1 -8 -1q-16 0 -21 17l-35 100
q-2 6 -2 9q0 14 16 22l470 200q4 2 11 2q14 0 18 -16l56 -178q2 -6 2 -10q0 -15 -18 -20z" />
    <glyph glyph-name="nacute" unicode="&#x144;" horiz-adv-x="1122" 
d="M1050 438l7 -414q0 -24 -23 -24h-257q-24 0 -24 24l7 414v212q0 55 -21 96.5t-57 64.5t-81 23q-57 0 -108 -35.5t-83.5 -108t-32.5 -176.5v-76l4 -414q0 -24 -23 -24h-261q-23 0 -23 24l9 470l-6 513q0 23 24 23h242q25 0 23 -24l-5 -106q55 70 141.5 112t190.5 42
q109 0 189.5 -47.5t124 -137.5t43.5 -215v-216zM384 1128q-3 -1 -8 -1q-16 0 -21 17l-35 100q-2 6 -2 9q0 14 16 22l470 200q4 2 11 2q14 0 18 -16l56 -178q2 -6 2 -10q0 -15 -18 -20z" />
    <glyph glyph-name="uni0145" unicode="&#x145;" horiz-adv-x="1390" 
d="M109 0q-23 0 -23 24l13 676l-13 677q0 23 23 23h330q19 0 28 -16l561 -991l-12 421v563q0 23 24 23h241q23 0 23 -23l-12 -677l12 -676q0 -24 -23 -24h-342q-19 0 -28 16l-550 983l13 -481v-494q0 -24 -23 -24h-242zM561 -500q-12 0 -17.5 7t-3.5 19l42 172v200
q0 11 6.5 17.5t17.5 6.5h181q23 0 23 -24v-182q0 -18 -8 -30l-110 -171q-9 -15 -28 -15h-103z" />
    <glyph glyph-name="uni0146" unicode="&#x146;" horiz-adv-x="1122" 
d="M1050 438l7 -414q0 -24 -23 -24h-257q-24 0 -24 24l7 414v212q0 55 -21 96.5t-57 64.5t-81 23q-57 0 -108 -35.5t-83.5 -108t-32.5 -176.5v-76l4 -414q0 -24 -23 -24h-261q-23 0 -23 24l9 470l-6 513q0 23 24 23h242q25 0 23 -24l-5 -106q55 70 141.5 112t190.5 42
q109 0 189.5 -47.5t124 -137.5t43.5 -215v-216zM432 -500q-12 0 -17.5 7t-3.5 19l42 172v200q0 11 6.5 17.5t17.5 6.5h181q23 0 23 -24v-182q0 -18 -8 -30l-110 -171q-9 -15 -28 -15h-103z" />
    <glyph glyph-name="Ncaron" unicode="&#x147;" horiz-adv-x="1390" 
d="M109 0q-23 0 -23 24l13 676l-13 677q0 23 23 23h330q19 0 28 -16l561 -991l-12 421v563q0 23 24 23h241q23 0 23 -23l-12 -677l12 -676q0 -24 -23 -24h-342q-19 0 -28 16l-550 983l13 -481v-494q0 -24 -23 -24h-242zM349 1720q-11 8 -11 20q0 8 2 12l43 102q7 15 18 15
q6 0 13 -4l290 -143l290 143q7 4 13 4q11 0 18 -15l43 -102q3 -6 3 -12q0 -12 -12 -20l-281 -197q-13 -9 -30 -9h-88q-17 0 -29 9z" />
    <glyph glyph-name="ncaron" unicode="&#x148;" horiz-adv-x="1122" 
d="M1050 438l7 -414q0 -24 -23 -24h-257q-24 0 -24 24l7 414v212q0 55 -21 96.5t-57 64.5t-81 23q-57 0 -108 -35.5t-83.5 -108t-32.5 -176.5v-76l4 -414q0 -24 -23 -24h-261q-23 0 -23 24l9 470l-6 513q0 23 24 23h242q25 0 23 -24l-5 -106q55 70 141.5 112t190.5 42
q109 0 189.5 -47.5t124 -137.5t43.5 -215v-216zM210 1350q-11 8 -11 20q0 8 2 12l43 102q7 15 18 15q6 0 13 -4l290 -143l290 143q7 4 13 4q11 0 18 -15l43 -102q3 -6 3 -12q0 -12 -12 -20l-281 -197q-13 -9 -30 -9h-88q-17 0 -29 9z" />
    <glyph glyph-name="Eng" unicode="&#x14a;" horiz-adv-x="1383" 
d="M110 0q-24 0 -24 24l4 676l-4 677q0 23 24 23h326q19 0 28 -15l554 -865l-6 144v713q0 11 6.5 17t17.5 6h237q23 0 23 -23l-4 -555l4 -862q1 -111 -44 -183.5t-119.5 -105.5t-162.5 -33q-68 0 -182 16q-22 5 -22 26v161q0 12 7 17.5t19 2.5q44 -9 108 -9q53 0 82.5 31
t29.5 105v16l-652 1018l10 -354v-644q0 -24 -23 -24h-237z" />
    <glyph glyph-name="eng" unicode="&#x14b;" horiz-adv-x="1118" 
d="M533 -344q-21 4 -21 26v161q0 12 7 17.5t18 2.5q45 -9 109 -9q53 0 82.5 31t29.5 105v660q0 55 -20 97t-55.5 64.5t-80.5 22.5q-57 0 -108 -35.5t-83.5 -108t-32.5 -176.5v-76l4 -414q0 -24 -24 -24h-261q-23 0 -23 24l4 470v513q0 11 6 17t17 6h243q25 0 23 -24l-5 -106
q55 70 141.5 112t190.5 42q109 0 190 -47.5t125.5 -138t44.5 -214.5v-692q0 -111 -47 -183.5t-123.5 -105.5t-167.5 -33q-66 0 -183 16z" />
    <glyph glyph-name="Omacron" unicode="&#x14c;" horiz-adv-x="1506" 
d="M381 62q-160 92 -247.5 256.5t-87.5 377.5q0 221 87 387t246.5 256.5t372.5 90.5q212 0 372 -89.5t248 -255.5t88 -389q0 -213 -88 -377.5t-248.5 -256.5t-371.5 -92t-371 92zM967 263q88 59 133.5 169.5t45.5 263.5q0 154 -45.5 266t-134 173t-214.5 61
q-127 0 -214.5 -59.5t-132.5 -172t-45 -268.5q0 -152 46 -262.5t134.5 -170t213.5 -59.5t213 59zM450 1530q-24 0 -24 24v153q0 11 6.5 17t17.5 6h607q11 0 17 -6t6 -17v-153q0 -11 -6 -17.5t-17 -6.5h-607z" />
    <glyph glyph-name="omacron" unicode="&#x14d;" horiz-adv-x="1147" 
d="M290.5 40q-119.5 66 -182 187t-62.5 285t63 287t182 190t285 67t284.5 -65.5t180 -187t61.5 -285.5t-62 -287t-180.5 -190t-283.5 -67q-166 0 -285.5 66zM741 255q53 81 53 257q0 174 -54.5 259t-165.5 85q-114 -1 -168 -86t-54 -260q0 -173 55.5 -254.5t168.5 -81.5
q112 0 165 81zM270 1160q-24 0 -24 24v153q0 11 6.5 17t17.5 6h607q11 0 17 -6t6 -17v-153q0 -11 -6 -17.5t-17 -6.5h-607z" />
    <glyph glyph-name="Obreve" unicode="&#x14e;" horiz-adv-x="1506" 
d="M381 62q-160 92 -247.5 256.5t-87.5 377.5q0 221 87 387t246.5 256.5t372.5 90.5q212 0 372 -89.5t248 -255.5t88 -389q0 -213 -88 -377.5t-248.5 -256.5t-371.5 -92t-371 92zM967 263q88 59 133.5 169.5t45.5 263.5q0 154 -45.5 266t-134 173t-214.5 61
q-127 0 -214.5 -59.5t-132.5 -172t-45 -268.5q0 -152 46 -262.5t134.5 -170t213.5 -59.5t213 59zM577 1560q-78 40 -122 110t-50 159q-2 23 23 23h149q20 0 25 -23q7 -53 47 -84t107 -31q64 0 105 31.5t49 83.5q5 23 25 23h150q23 0 22 -21q-5 -89 -49.5 -160t-122 -111
t-179.5 -40q-101 0 -179 40z" />
    <glyph glyph-name="obreve" unicode="&#x14f;" horiz-adv-x="1147" 
d="M290.5 40q-119.5 66 -182 187t-62.5 285t63 287t182 190t285 67t284.5 -65.5t180 -187t61.5 -285.5t-62 -287t-180.5 -190t-283.5 -67q-166 0 -285.5 66zM741 255q53 81 53 257q0 174 -54.5 259t-165.5 85q-114 -1 -168 -86t-54 -260q0 -173 55.5 -254.5t168.5 -81.5
q112 0 165 81zM397 1190q-78 40 -122 110t-50 159q-2 23 23 23h149q20 0 25 -23q7 -53 47 -84t107 -31q64 0 105 31.5t49 83.5q5 23 25 23h150q23 0 22 -21q-5 -89 -49.5 -160t-122 -111t-179.5 -40q-101 0 -179 40z" />
    <glyph glyph-name="Ohungarumlaut" unicode="&#x150;" horiz-adv-x="1506" 
d="M381 62q-160 92 -247.5 256.5t-87.5 377.5q0 221 87 387t246.5 256.5t372.5 90.5q212 0 372 -89.5t248 -255.5t88 -389q0 -213 -88 -377.5t-248.5 -256.5t-371.5 -92t-371 92zM967 263q88 59 133.5 169.5t45.5 263.5q0 154 -45.5 266t-134 173t-214.5 61
q-127 0 -214.5 -59.5t-132.5 -172t-45 -268.5q0 -152 46 -262.5t134.5 -170t213.5 -59.5t213 59zM578 1530q-8 -8 -16 -8t-17 7l-68 57q-9 9 -9 17q0 7 5 15l231 340q7 11 17 11q8 0 15 -7l117 -114q8 -7 8 -17q0 -9 -7 -16zM938 1520q-7 -8 -16 -8t-17 7l-68 55q-9 9 -9 18
q0 7 5 15l231 339q8 12 17 12q8 0 16 -8l116 -112q9 -7 9 -17q0 -8 -8 -16z" />
    <glyph glyph-name="ohungarumlaut" unicode="&#x151;" horiz-adv-x="1147" 
d="M290.5 40q-119.5 66 -182 187t-62.5 285t63 287t182 190t285 67t284.5 -65.5t180 -187t61.5 -285.5t-62 -287t-180.5 -190t-283.5 -67q-166 0 -285.5 66zM741 255q53 81 53 257q0 174 -54.5 259t-165.5 85q-114 -1 -168 -86t-54 -260q0 -173 55.5 -254.5t168.5 -81.5
q112 0 165 81zM398 1160q-8 -8 -16 -8t-17 7l-68 57q-9 9 -9 17q0 7 5 15l231 340q7 11 17 11q8 0 15 -7l117 -114q8 -7 8 -17q0 -9 -7 -16zM758 1150q-7 -8 -16 -8t-17 7l-68 55q-9 9 -9 18q0 7 5 15l231 339q8 12 17 12q8 0 16 -8l116 -112q9 -7 9 -17q0 -8 -8 -16z" />
    <glyph glyph-name="OE" unicode="&#x152;" horiz-adv-x="2028" 
d="M1965 226q11 0 17 -6t6 -17v-179q0 -11 -6 -17.5t-17 -6.5h-1181q-207 0 -373.5 71.5t-265.5 226t-99 392.5t99 397.5t266.5 236t376.5 76.5h1161q11 0 17 -6t6 -17v-179q0 -11 -6 -17.5t-17 -6.5h-649l-4 -322h595q11 0 17 -6t6 -17v-179q0 -11 -6 -17.5t-17 -6.5h-595
l4 -400h665zM989 226l11 474l-11 474h-213q-121 0 -215 -52.5t-147.5 -160.5t-53.5 -269q0 -160 53.5 -264t145 -153t209.5 -49h221z" />
    <glyph glyph-name="oe" unicode="&#x153;" horiz-adv-x="1894" 
d="M279 40q-115 66 -175 187t-60 285t60.5 287t175 190t274.5 67q134 0 235 -51t163 -146q62 95 162 146t230 51q160 0 273.5 -70t174 -199.5t64.5 -308.5q0 -24 -23 -24h-731q9 -145 66 -212.5t166 -67.5q159 0 200 153q5 21 25 21h242q12 0 18 -4.5t5 -13.5
q-13 -96 -73.5 -177.5t-163.5 -130t-237 -48.5q-135 0 -236.5 51.5t-163.5 146.5q-62 -95 -162.5 -146.5t-233.5 -51.5q-160 0 -275 66zM1182.5 804.5q-53.5 -53.5 -72.5 -160.5h422q-10 91 -61.5 152.5t-144.5 61.5q-90 0 -143.5 -53.5zM739 255q53 81 53 257
q0 174 -54.5 259t-165.5 85q-114 -1 -168 -86t-54 -260q0 -173 55.5 -254.5t168.5 -81.5q112 0 165 81z" />
    <glyph glyph-name="Racute" unicode="&#x154;" horiz-adv-x="1284" 
d="M1254 28q5 -8 5 -14t-5.5 -10t-14.5 -4h-302q-19 0 -29 16l-178 296l-137 208h-202l9 -496q0 -24 -23 -24h-268q-23 0 -23 24l13 676l-13 677q0 23 23 23h565q266 0 409 -111.5t143 -328.5q0 -154 -80.5 -258.5t-231.5 -149.5zM397 1178l-9 -436h306q104 0 171 52t67 160
q0 112 -63.5 168t-182.5 56h-289zM453 1498q-3 -1 -8 -1q-16 0 -21 17l-35 100q-2 6 -2 9q0 14 16 22l470 200q4 2 11 2q14 0 18 -16l56 -178q2 -6 2 -10q0 -15 -18 -20z" />
    <glyph glyph-name="racute" unicode="&#x155;" horiz-adv-x="813" 
d="M94 0q-23 0 -23 24l8 492l-8 491q0 23 23 23h253q25 0 23 -24l-7 -150q59 89 155.5 135.5t212.5 46.5q26 0 43 -4q21 -3 21 -26v-175q0 -22 -21 -22l-35 1q-108 0 -191 -40t-130 -119.5t-47 -194.5l3 -434q0 -24 -23 -24h-257zM252 1128q-3 -1 -8 -1q-16 0 -21 17
l-35 100q-2 6 -2 9q0 14 16 22l470 200q4 2 11 2q14 0 18 -16l56 -178q2 -6 2 -10q0 -15 -18 -20z" />
    <glyph glyph-name="uni0156" unicode="&#x156;" horiz-adv-x="1284" 
d="M1254 28q5 -8 5 -14t-5.5 -10t-14.5 -4h-302q-19 0 -29 16l-178 296l-137 208h-202l9 -496q0 -24 -23 -24h-268q-23 0 -23 24l13 676l-13 677q0 23 23 23h565q266 0 409 -111.5t143 -328.5q0 -154 -80.5 -258.5t-231.5 -149.5zM397 1178l-9 -436h306q104 0 171 52t67 160
q0 112 -63.5 168t-182.5 56h-289zM528 -500q-12 0 -17.5 7t-3.5 19l42 172v200q0 11 6.5 17.5t17.5 6.5h181q23 0 23 -24v-182q0 -18 -8 -30l-110 -171q-9 -15 -28 -15h-103z" />
    <glyph glyph-name="uni0157" unicode="&#x157;" horiz-adv-x="813" 
d="M94 0q-23 0 -23 24l8 492l-8 491q0 23 23 23h253q25 0 23 -24l-7 -150q59 89 155.5 135.5t212.5 46.5q26 0 43 -4q21 -3 21 -26v-175q0 -22 -21 -22l-35 1q-108 0 -191 -40t-130 -119.5t-47 -194.5l3 -434q0 -24 -23 -24h-257zM88 -500q-12 0 -17.5 7t-3.5 19l42 172v200
q0 11 6.5 17.5t17.5 6.5h181q23 0 23 -24v-182q0 -18 -8 -30l-110 -171q-9 -15 -28 -15h-103z" />
    <glyph glyph-name="Rcaron" unicode="&#x158;" horiz-adv-x="1284" 
d="M1254 28q5 -8 5 -14t-5.5 -10t-14.5 -4h-302q-19 0 -29 16l-178 296l-137 208h-202l9 -496q0 -24 -23 -24h-268q-23 0 -23 24l13 676l-13 677q0 23 23 23h565q266 0 409 -111.5t143 -328.5q0 -154 -80.5 -258.5t-231.5 -149.5zM397 1178l-9 -436h306q104 0 171 52t67 160
q0 112 -63.5 168t-182.5 56h-289zM280 1720q-11 8 -11 20q0 8 2 12l43 102q7 15 18 15q6 0 13 -4l290 -143l290 143q7 4 13 4q11 0 18 -15l43 -102q3 -6 3 -12q0 -12 -12 -20l-281 -197q-13 -9 -30 -9h-88q-17 0 -29 9z" />
    <glyph glyph-name="rcaron" unicode="&#x159;" horiz-adv-x="813" 
d="M94 0q-23 0 -23 24l8 492l-8 491q0 23 23 23h253q25 0 23 -24l-7 -150q59 89 155.5 135.5t212.5 46.5q26 0 43 -4q21 -3 21 -26v-175q0 -22 -21 -22l-35 1q-108 0 -191 -40t-130 -119.5t-47 -194.5l3 -434q0 -24 -23 -24h-257zM78 1350q-11 8 -11 20q0 8 2 12l43 102
q7 15 18 15q6 0 13 -4l290 -143l290 143q7 4 13 4q11 0 18 -15l43 -102q3 -6 3 -12q0 -12 -12 -20l-281 -197q-13 -9 -30 -9h-88q-17 0 -29 9z" />
    <glyph glyph-name="Sacute" unicode="&#x15a;" horiz-adv-x="1290" 
d="M339.5 20.5q-139.5 52.5 -220 160t-87.5 267.5q-1 24 23 24h272q22 0 25 -22q10 -82 42.5 -137.5t99.5 -86t177 -30.5q140 0 211 44.5t71 141.5q0 64 -46 102t-115 57.5t-193 43.5q-171 32 -278.5 68t-184.5 120t-77 231q0 131 66 227t192.5 147.5t303.5 51.5
q253 0 407.5 -102.5t187.5 -316.5q1 -12 -5 -18.5t-17 -6.5h-272q-22 0 -25 23q-14 92 -88 141.5t-200 49.5q-114 0 -181 -41t-67 -125q0 -59 45 -94.5t113.5 -54.5t187.5 -40q175 -33 284.5 -68.5t188.5 -120t79 -232.5q0 -146 -71.5 -248.5t-205 -155t-317.5 -52.5
q-186 0 -325.5 52.5zM456 1498q-3 -1 -8 -1q-16 0 -21 17l-35 100q-2 6 -2 9q0 14 16 22l470 200q4 2 11 2q14 0 18 -16l56 -178q2 -6 2 -10q0 -15 -18 -20z" />
    <glyph glyph-name="sacute" unicode="&#x15b;" horiz-adv-x="1073" 
d="M297 16q-113 40 -179.5 118t-73.5 189q0 23 23 23h246q11 0 17 -6t6 -17q7 -82 63 -121.5t161 -39.5q88 0 135 33t47 93q0 37 -30.5 58.5t-77 32.5t-132.5 24q-134 20 -221 46t-150 92t-63 185q0 106 54 179.5t155 111t241 37.5q205 0 329.5 -81t140.5 -236
q1 -12 -5 -18.5t-18 -6.5h-234q-21 0 -25 22q-13 67 -59 102.5t-133 35.5q-160 0 -160 -124q0 -37 30.5 -58.5t77.5 -31.5t130 -21q134 -19 221.5 -44t151 -91.5t63.5 -187.5q0 -105 -61.5 -181.5t-168.5 -116.5t-243 -40q-145 0 -258 40zM354 1128q-3 -1 -8 -1
q-16 0 -21 17l-35 100q-2 6 -2 9q0 14 16 22l470 200q4 2 11 2q14 0 18 -16l56 -178q2 -6 2 -10q0 -15 -18 -20z" />
    <glyph glyph-name="Scircumflex" unicode="&#x15c;" horiz-adv-x="1290" 
d="M339.5 20.5q-139.5 52.5 -220 160t-87.5 267.5q-1 24 23 24h272q22 0 25 -22q10 -82 42.5 -137.5t99.5 -86t177 -30.5q140 0 211 44.5t71 141.5q0 64 -46 102t-115 57.5t-193 43.5q-171 32 -278.5 68t-184.5 120t-77 231q0 131 66 227t192.5 147.5t303.5 51.5
q253 0 407.5 -102.5t187.5 -316.5q1 -12 -5 -18.5t-17 -6.5h-272q-22 0 -25 23q-14 92 -88 141.5t-200 49.5q-114 0 -181 -41t-67 -125q0 -59 45 -94.5t113.5 -54.5t187.5 -40q175 -33 284.5 -68.5t188.5 -120t79 -232.5q0 -146 -71.5 -248.5t-205 -155t-317.5 -52.5
q-186 0 -325.5 52.5zM271 1616q-2 4 -2 12q0 13 11 20l282 201q12 9 29 9h92q16 0 29 -9l282 -201q11 -7 11 -20q0 -8 -2 -12l-43 -102q-5 -15 -19 -15q-6 0 -12 3l-294 144l-290 -144q-6 -3 -12 -3q-13 0 -19 15z" />
    <glyph glyph-name="scircumflex" unicode="&#x15d;" horiz-adv-x="1073" 
d="M297 16q-113 40 -179.5 118t-73.5 189q0 23 23 23h246q11 0 17 -6t6 -17q7 -82 63 -121.5t161 -39.5q88 0 135 33t47 93q0 37 -30.5 58.5t-77 32.5t-132.5 24q-134 20 -221 46t-150 92t-63 185q0 106 54 179.5t155 111t241 37.5q205 0 329.5 -81t140.5 -236
q1 -12 -5 -18.5t-18 -6.5h-234q-21 0 -25 22q-13 67 -59 102.5t-133 35.5q-160 0 -160 -124q0 -37 30.5 -58.5t77.5 -31.5t130 -21q134 -19 221.5 -44t151 -91.5t63.5 -187.5q0 -105 -61.5 -181.5t-168.5 -116.5t-243 -40q-145 0 -258 40zM170 1246q-2 4 -2 12q0 13 11 20
l282 201q12 9 29 9h92q16 0 29 -9l282 -201q11 -7 11 -20q0 -8 -2 -12l-43 -102q-5 -15 -19 -15q-6 0 -12 3l-294 144l-290 -144q-6 -3 -12 -3q-13 0 -19 15z" />
    <glyph glyph-name="Scedilla" unicode="&#x15e;" horiz-adv-x="1290" 
d="M1197 190q-62 -98 -178 -153t-277 -66l-60 -308q-4 -22 -28 -19l-231 43q-18 3 -18 19q0 6 2 10l111 261q-220 29 -348.5 147.5t-137.5 323.5q-1 24 23 24h272q22 0 25 -22q10 -82 42.5 -137.5t99.5 -86t177 -30.5q140 0 211 44.5t71 141.5q0 64 -46 102t-115 57.5
t-193 43.5q-171 32 -278.5 68t-184.5 120t-77 231q0 131 66 227t192.5 147.5t303.5 51.5q253 0 407.5 -102.5t187.5 -316.5q1 -12 -5 -18.5t-17 -6.5h-272q-22 0 -25 23q-14 92 -88 141.5t-200 49.5q-114 0 -181 -41t-67 -125q0 -59 45 -94.5t113.5 -54.5t187.5 -40
q175 -33 284.5 -68.5t188.5 -120t79 -232.5q0 -136 -62 -234z" />
    <glyph glyph-name="scedilla" unicode="&#x15f;" horiz-adv-x="1073" 
d="M980.5 150.5q-47.5 -70.5 -133 -113.5t-196.5 -56l-63 -318q-4 -22 -28 -19l-231 43q-18 3 -18 19q0 6 2 10l114 269q-169 24 -271.5 111t-111.5 227q0 23 23 23h246q11 0 17 -6t6 -17q7 -82 63 -121.5t161 -39.5q88 0 135 33t47 93q0 37 -30.5 58.5t-77 32.5t-132.5 24
q-134 20 -221 46t-150 92t-63 185q0 106 54 179.5t155 111t241 37.5q205 0 329.5 -81t140.5 -236q1 -12 -5 -18.5t-18 -6.5h-234q-21 0 -25 22q-13 67 -59 102.5t-133 35.5q-160 0 -160 -124q0 -37 30.5 -58.5t77.5 -31.5t130 -21q134 -19 221.5 -44t151 -91.5t63.5 -187.5
q0 -93 -47.5 -163.5z" />
    <glyph glyph-name="Scaron" unicode="&#x160;" horiz-adv-x="1290" 
d="M339.5 20.5q-139.5 52.5 -220 160t-87.5 267.5q-1 24 23 24h272q22 0 25 -22q10 -82 42.5 -137.5t99.5 -86t177 -30.5q140 0 211 44.5t71 141.5q0 64 -46 102t-115 57.5t-193 43.5q-171 32 -278.5 68t-184.5 120t-77 231q0 131 66 227t192.5 147.5t303.5 51.5
q253 0 407.5 -102.5t187.5 -316.5q1 -12 -5 -18.5t-17 -6.5h-272q-22 0 -25 23q-14 92 -88 141.5t-200 49.5q-114 0 -181 -41t-67 -125q0 -59 45 -94.5t113.5 -54.5t187.5 -40q175 -33 284.5 -68.5t188.5 -120t79 -232.5q0 -146 -71.5 -248.5t-205 -155t-317.5 -52.5
q-186 0 -325.5 52.5zM282 1720q-11 8 -11 20q0 8 2 12l43 102q7 15 18 15q6 0 13 -4l290 -143l290 143q7 4 13 4q11 0 18 -15l43 -102q3 -6 3 -12q0 -12 -12 -20l-281 -197q-13 -9 -30 -9h-88q-17 0 -29 9z" />
    <glyph glyph-name="scaron" unicode="&#x161;" horiz-adv-x="1073" 
d="M297 16q-113 40 -179.5 118t-73.5 189q0 23 23 23h246q11 0 17 -6t6 -17q7 -82 63 -121.5t161 -39.5q88 0 135 33t47 93q0 37 -30.5 58.5t-77 32.5t-132.5 24q-134 20 -221 46t-150 92t-63 185q0 106 54 179.5t155 111t241 37.5q205 0 329.5 -81t140.5 -236
q1 -12 -5 -18.5t-18 -6.5h-234q-21 0 -25 22q-13 67 -59 102.5t-133 35.5q-160 0 -160 -124q0 -37 30.5 -58.5t77.5 -31.5t130 -21q134 -19 221.5 -44t151 -91.5t63.5 -187.5q0 -105 -61.5 -181.5t-168.5 -116.5t-243 -40q-145 0 -258 40zM181 1350q-11 8 -11 20q0 8 2 12
l43 102q7 15 18 15q6 0 13 -4l290 -143l290 143q7 4 13 4q11 0 18 -15l43 -102q3 -6 3 -12q0 -12 -12 -20l-281 -197q-13 -9 -30 -9h-88q-17 0 -29 9z" />
    <glyph glyph-name="uni0162" unicode="&#x162;" horiz-adv-x="1155" 
d="M1114 1400q11 0 17.5 -6t6.5 -17v-179q0 -11 -6.5 -17.5t-17.5 -6.5h-378l-15 -474l18 -676q2 -24 -22 -24h-31l-64 -337q-4 -22 -27 -19l-231 43q-19 3 -19 19q0 4 3 10l116 284h-25q-24 0 -23 24l18 676l-15 474h-378q-11 0 -17 6.5t-6 17.5v179q0 11 6.5 17t16.5 6
h1073z" />
    <glyph glyph-name="uni0163" unicode="&#x163;" horiz-adv-x="738" 
d="M456 818v-120l2 -388q0 -63 28.5 -89.5t81.5 -26.5q54 0 108 15q3 1 8 1q8 0 13 -5.5t5 -15.5v-149q0 -20 -18 -26q-82 -29 -157 -33l-62 -318q-4 -22 -28 -19l-231 43q-18 3 -18 19q0 6 2 10l129 302q-75 36 -118 106.5t-43 177.5l1 391l1 125h-110q-11 0 -17.5 6.5
t-6.5 17.5v165q0 23 24 23h108l-3 235q0 23 24 23h259q23 0 23 -23l-3 -235h223q11 0 17 -6t6 -17v-165q0 -24 -23 -24h-225z" />
    <glyph glyph-name="Tcaron" unicode="&#x164;" horiz-adv-x="1155" 
d="M439 0q-24 0 -23 24l18 676l-15 474h-378q-11 0 -17 6.5t-6 17.5v179q0 11 6.5 17t16.5 6h1073q11 0 17.5 -6t6.5 -17v-179q0 -11 -6.5 -17.5t-17.5 -6.5h-378l-15 -474l18 -676q2 -24 -22 -24h-278zM223 1720q-11 8 -11 20q0 8 2 12l43 102q7 15 18 15q6 0 13 -4
l290 -143l290 143q7 4 13 4q11 0 18 -15l43 -102q3 -6 3 -12q0 -12 -12 -20l-281 -197q-13 -9 -30 -9h-88q-17 0 -29 9z" />
    <glyph glyph-name="tcaron" unicode="&#x165;" horiz-adv-x="738" 
d="M329 13q-77 33 -124 105.5t-47 183.5l1 391l1 125h-110q-11 0 -17.5 6.5t-6.5 17.5v165q0 23 24 23h108l-3 235q0 23 24 23h259q23 0 23 -23l-3 -235h223q11 0 17 -6t6 -17v-165q0 -24 -23 -24h-225v-120l2 -388q0 -63 28.5 -89.5t81.5 -26.5q54 0 108 15q3 1 8 1
q8 0 13 -5.5t5 -15.5v-149q0 -20 -18 -26q-97 -34 -186 -34q-92 0 -169 33zM715 1121q-6 -21 -26 -21h-144q-11 0 -17 7t-5 18l52 423q3 22 25 22h195q12 0 18 -7t3 -19z" />
    <glyph glyph-name="Tbar" unicode="&#x166;" horiz-adv-x="1155" 
d="M1114 1400q11 0 17.5 -6t6.5 -17v-179q0 -11 -6.5 -17.5t-17.5 -6.5h-378l-12 -402h219q11 0 17 -6t6 -17v-179q0 -11 -6 -17.5t-17 -6.5h-218l14 -522q2 -24 -22 -24h-278q-24 0 -23 24l14 522h-220q-24 0 -24 24v179q0 11 6.5 17t17.5 6h222l-13 402h-378
q-11 0 -17 6.5t-6 17.5v179q0 11 6.5 17t16.5 6h1073z" />
    <glyph glyph-name="tbar" unicode="&#x167;" horiz-adv-x="741" 
d="M459 818v-168h222q11 0 17 -6t6 -17v-165q0 -24 -23 -24h-221l1 -128q0 -63 28.5 -89.5t81.5 -26.5q54 0 108 15q3 1 8 1q8 0 13 -5.5t5 -15.5v-149q0 -20 -18 -26q-97 -34 -186 -34q-92 0 -169 33t-124 105.5t-47 183.5v136h-111q-11 0 -17.5 6.5t-6.5 17.5v165
q0 23 24 23h112l1 168h-110q-11 0 -17.5 6.5t-6.5 17.5v165q0 23 24 23h108l-3 235q0 23 24 23h259q23 0 23 -23l-3 -235h223q11 0 17 -6t6 -17v-165q0 -24 -23 -24h-225z" />
    <glyph glyph-name="Utilde" unicode="&#x168;" horiz-adv-x="1284" 
d="M222.5 111.5q-145.5 141.5 -143.5 408.5l3 380l-11 477q0 23 23 23h276q23 0 23 -23l-11 -469l3 -386q2 -153 65 -231.5t197 -78.5q144 0 213 78.5t69 231.5v380l-8 475q0 23 23 23h246q23 0 23 -23l-8 -477v-380q0 -269 -140.5 -409.5t-417.5 -140.5
q-279 0 -424.5 141.5zM697 1547q-34 17 -73 48q-26 21 -43 31t-36 10q-50 0 -55 -80q-2 -24 -24 -24h-105q-25 0 -23 24q4 114 55 182t148 68q45 0 79.5 -18t73.5 -50q29 -21 42.5 -29.5t28.5 -8.5q30 0 43.5 21t15.5 60q2 23 25 23h105q11 0 17 -8t5 -22
q-5 -116 -54.5 -180t-142.5 -64q-48 0 -82 17z" />
    <glyph glyph-name="utilde" unicode="&#x169;" horiz-adv-x="1122" 
d="M239.5 23.5q-80.5 47.5 -124 137.5t-43.5 215v216l-7 415q0 23 23 23h257q24 0 24 -23l-7 -415v-212q0 -55 21 -96.5t57 -64.5t81 -23q57 0 108 35.5t83.5 108t32.5 176.5v76l-4 415q0 23 23 23h261q23 0 23 -23l-9 -471l6 -512q0 -24 -24 -24h-242q-24 0 -23 24l5 106
q-55 -70 -141.5 -112t-190.5 -42q-109 0 -189.5 47.5zM595 1177q-34 17 -73 48q-26 21 -43 31t-36 10q-50 0 -55 -80q-2 -24 -24 -24h-105q-25 0 -23 24q4 114 55 182t148 68q45 0 79.5 -18t73.5 -50q29 -21 42.5 -29.5t28.5 -8.5q30 0 43.5 21t15.5 60q2 23 25 23h105
q11 0 17 -8t5 -22q-5 -116 -54.5 -180t-142.5 -64q-48 0 -82 17z" />
    <glyph glyph-name="Umacron" unicode="&#x16a;" horiz-adv-x="1284" 
d="M222.5 111.5q-145.5 141.5 -143.5 408.5l3 380l-11 477q0 23 23 23h276q23 0 23 -23l-11 -469l3 -386q2 -153 65 -231.5t197 -78.5q144 0 213 78.5t69 231.5v380l-8 475q0 23 23 23h246q23 0 23 -23l-8 -477v-380q0 -269 -140.5 -409.5t-417.5 -140.5
q-279 0 -424.5 141.5zM353 1530q-24 0 -24 24v153q0 11 6.5 17t17.5 6h607q11 0 17 -6t6 -17v-153q0 -11 -6 -17.5t-17 -6.5h-607z" />
    <glyph glyph-name="umacron" unicode="&#x16b;" horiz-adv-x="1122" 
d="M239.5 23.5q-80.5 47.5 -124 137.5t-43.5 215v216l-7 415q0 23 23 23h257q24 0 24 -23l-7 -415v-212q0 -55 21 -96.5t57 -64.5t81 -23q57 0 108 35.5t83.5 108t32.5 176.5v76l-4 415q0 23 23 23h261q23 0 23 -23l-9 -471l6 -512q0 -24 -24 -24h-242q-24 0 -23 24l5 106
q-55 -70 -141.5 -112t-190.5 -42q-109 0 -189.5 47.5zM251 1160q-24 0 -24 24v153q0 11 6.5 17t17.5 6h607q11 0 17 -6t6 -17v-153q0 -11 -6 -17.5t-17 -6.5h-607z" />
    <glyph glyph-name="Ubreve" unicode="&#x16c;" horiz-adv-x="1284" 
d="M222.5 111.5q-145.5 141.5 -143.5 408.5l3 380l-11 477q0 23 23 23h276q23 0 23 -23l-11 -469l3 -386q2 -153 65 -231.5t197 -78.5q144 0 213 78.5t69 231.5v380l-8 475q0 23 23 23h246q23 0 23 -23l-8 -477v-380q0 -269 -140.5 -409.5t-417.5 -140.5
q-279 0 -424.5 141.5zM480 1560q-78 40 -122 110t-50 159q-2 23 23 23h149q20 0 25 -23q7 -53 47 -84t107 -31q64 0 105 31.5t49 83.5q5 23 25 23h150q23 0 22 -21q-5 -89 -49.5 -160t-122 -111t-179.5 -40q-101 0 -179 40z" />
    <glyph glyph-name="ubreve" unicode="&#x16d;" horiz-adv-x="1122" 
d="M239.5 23.5q-80.5 47.5 -124 137.5t-43.5 215v216l-7 415q0 23 23 23h257q24 0 24 -23l-7 -415v-212q0 -55 21 -96.5t57 -64.5t81 -23q57 0 108 35.5t83.5 108t32.5 176.5v76l-4 415q0 23 23 23h261q23 0 23 -23l-9 -471l6 -512q0 -24 -24 -24h-242q-24 0 -23 24l5 106
q-55 -70 -141.5 -112t-190.5 -42q-109 0 -189.5 47.5zM377 1190q-78 40 -122 110t-50 159q-2 23 23 23h149q20 0 25 -23q7 -53 47 -84t107 -31q64 0 105 31.5t49 83.5q5 23 25 23h150q23 0 22 -21q-5 -89 -49.5 -160t-122 -111t-179.5 -40q-101 0 -179 40z" />
    <glyph glyph-name="Uring" unicode="&#x16e;" horiz-adv-x="1284" 
d="M222.5 111.5q-145.5 141.5 -143.5 408.5l3 380l-11 477q0 23 23 23h276q23 0 23 -23l-11 -469l3 -386q2 -153 65 -231.5t197 -78.5q144 0 213 78.5t69 231.5v380l-8 475q0 23 23 23h246q23 0 23 -23l-8 -477v-380q0 -269 -140.5 -409.5t-417.5 -140.5
q-279 0 -424.5 141.5zM525 1545q-59 31 -92.5 85.5t-33.5 121.5t33.5 121.5t92.5 85.5t132 31t132 -31t92.5 -85.5t33.5 -121.5t-33.5 -121.5t-92.5 -85.5t-132 -31t-132 31zM730.5 1654.5q28.5 34.5 28.5 97.5q0 64 -28.5 98t-73.5 34q-47 0 -74.5 -34t-27.5 -98
q0 -63 28 -97.5t74 -34.5q45 0 73.5 34.5z" />
    <glyph glyph-name="uring" unicode="&#x16f;" horiz-adv-x="1122" 
d="M239.5 23.5q-80.5 47.5 -124 137.5t-43.5 215v216l-7 415q0 23 23 23h257q24 0 24 -23l-7 -415v-212q0 -55 21 -96.5t57 -64.5t81 -23q57 0 108 35.5t83.5 108t32.5 176.5v76l-4 415q0 23 23 23h261q23 0 23 -23l-9 -471l6 -512q0 -24 -24 -24h-242q-24 0 -23 24l5 106
q-55 -70 -141.5 -112t-190.5 -42q-109 0 -189.5 47.5zM423 1175q-59 31 -92.5 85.5t-33.5 121.5t33.5 121.5t92.5 85.5t132 31t132 -31t92.5 -85.5t33.5 -121.5t-33.5 -121.5t-92.5 -85.5t-132 -31t-132 31zM628.5 1284.5q28.5 34.5 28.5 97.5q0 64 -28.5 98t-73.5 34
q-47 0 -74.5 -34t-27.5 -98q0 -63 28 -97.5t74 -34.5q45 0 73.5 34.5z" />
    <glyph glyph-name="Uhungarumlaut" unicode="&#x170;" horiz-adv-x="1284" 
d="M222.5 111.5q-145.5 141.5 -143.5 408.5l3 380l-11 477q0 23 23 23h276q23 0 23 -23l-11 -469l3 -386q2 -153 65 -231.5t197 -78.5q144 0 213 78.5t69 231.5v380l-8 475q0 23 23 23h246q23 0 23 -23l-8 -477v-380q0 -269 -140.5 -409.5t-417.5 -140.5
q-279 0 -424.5 141.5zM481 1530q-8 -8 -16 -8t-17 7l-68 57q-9 9 -9 17q0 7 5 15l231 340q7 11 17 11q8 0 15 -7l117 -114q8 -7 8 -17q0 -9 -7 -16zM841 1520q-7 -8 -16 -8t-17 7l-68 55q-9 9 -9 18q0 7 5 15l231 339q8 12 17 12q8 0 16 -8l116 -112q9 -7 9 -17q0 -8 -8 -16
z" />
    <glyph glyph-name="uhungarumlaut" unicode="&#x171;" horiz-adv-x="1122" 
d="M239.5 23.5q-80.5 47.5 -124 137.5t-43.5 215v216l-7 415q0 23 23 23h257q24 0 24 -23l-7 -415v-212q0 -55 21 -96.5t57 -64.5t81 -23q57 0 108 35.5t83.5 108t32.5 176.5v76l-4 415q0 23 23 23h261q23 0 23 -23l-9 -471l6 -512q0 -24 -24 -24h-242q-24 0 -23 24l5 106
q-55 -70 -141.5 -112t-190.5 -42q-109 0 -189.5 47.5zM379 1160q-8 -8 -16 -8t-17 7l-68 57q-9 9 -9 17q0 7 5 15l231 340q7 11 17 11q8 0 15 -7l117 -114q8 -7 8 -17q0 -9 -7 -16zM739 1150q-7 -8 -16 -8t-17 7l-68 55q-9 9 -9 18q0 7 5 15l231 339q8 12 17 12q8 0 16 -8
l116 -112q9 -7 9 -17q0 -8 -8 -16z" />
    <glyph glyph-name="Uogonek" unicode="&#x172;" horiz-adv-x="1284" 
d="M1190 1400q23 0 23 -23l-8 -477v-380q0 -255 -126.5 -395t-376.5 -154q-17 -25 -28 -55.5t-11 -59.5q0 -41 28 -60.5t76 -19.5h89q11 0 17 -6.5t6 -17.5v-149q0 -11 -6 -17t-17 -6h-117q-90 0 -159 27t-107 77.5t-38 117.5q0 104 81 177q-216 32 -327.5 169.5
t-109.5 371.5l3 380l-11 477q0 23 23 23h276q23 0 23 -23l-11 -469l3 -386q2 -153 65 -231.5t197 -78.5q144 0 213 78.5t69 231.5v380l-8 475q0 23 23 23h246z" />
    <glyph glyph-name="uogonek" unicode="&#x173;" horiz-adv-x="1122" 
d="M1030 -224q11 0 17 -6.5t6 -17.5v-149q0 -11 -6 -17t-17 -6h-117q-90 0 -159 27t-107 77.5t-38 117.5q0 142 147 223l5 105q-55 -70 -141.5 -112t-190.5 -42q-109 0 -189.5 47.5t-124 137.5t-43.5 215v216l-7 415q0 23 23 23h257q24 0 24 -23l-7 -415v-212
q0 -55 21 -96.5t57 -64.5t81 -23q57 0 108 35.5t83.5 108t32.5 176.5v76l-4 415q0 23 23 23h261q23 0 23 -23l-9 -471l6 -512q0 -24 -24 -24h-123q-24 -25 -42.5 -65t-18.5 -79q0 -41 28 -60.5t76 -19.5h89z" />
    <glyph glyph-name="Wcircumflex" unicode="&#x174;" horiz-adv-x="1844" 
d="M8 1374l-1 6q0 20 22 20h262q22 0 26 -21l219 -1105l210 1105q5 21 26 21h311q21 0 25 -21l221 -1121l219 1121q5 21 26 21h241q12 0 18 -7t3 -19l-325 -1353q-6 -21 -26 -21h-326q-22 0 -25 21l-221 959l-200 -959q-4 -21 -26 -21h-336q-22 0 -25 21zM556 1616
q-2 4 -2 12q0 13 11 20l282 201q12 9 29 9h92q16 0 29 -9l282 -201q11 -7 11 -20q0 -8 -2 -12l-43 -102q-5 -15 -19 -15q-6 0 -12 3l-294 144l-290 -144q-6 -3 -12 -3q-13 0 -19 15z" />
    <glyph glyph-name="wcircumflex" unicode="&#x175;" horiz-adv-x="1459" 
d="M0 1004q-1 2 -1 7q0 8 6 13.5t16 5.5h254q22 0 25 -22l115 -768l142 769q5 21 25 21h319q22 0 25 -21l138 -751l119 750q3 22 25 22h230q13 0 18.5 -7.5t2.5 -18.5l-216 -983q-4 -21 -25 -21h-312q-22 0 -26 21l-161 762l-141 -762q-3 -21 -25 -21h-310q-21 0 -25 21z
M365 1246q-2 4 -2 12q0 13 11 20l282 201q12 9 29 9h92q16 0 29 -9l282 -201q11 -7 11 -20q0 -8 -2 -12l-43 -102q-5 -15 -19 -15q-6 0 -12 3l-294 144l-290 -144q-6 -3 -12 -3q-13 0 -19 15z" />
    <glyph glyph-name="Ycircumflex" unicode="&#x176;" horiz-adv-x="1230" 
d="M2 1372q-4 5 -4 12t5.5 11.5t15.5 4.5h294q21 0 28 -18l286 -643l288 643q8 18 28 18h269q20 0 20 -16q0 -6 -3 -12l-468 -898l10 -450q0 -24 -22 -24h-269q-23 0 -23 24l13 450zM253 1616q-2 4 -2 12q0 13 11 20l282 201q12 9 29 9h92q16 0 29 -9l282 -201q11 -7 11 -20
q0 -8 -2 -12l-43 -102q-5 -15 -19 -15q-6 0 -12 3l-294 144l-290 -144q-6 -3 -12 -3q-13 0 -19 15z" />
    <glyph glyph-name="ycircumflex" unicode="&#x177;" horiz-adv-x="1026" 
d="M735 1010q5 20 26 20h255q21 0 21 -17q0 -2 -2 -10l-455 -1324q-6 -19 -26 -19h-238q-21 0 -21 17q0 2 2 10l105 303l-409 1013q-3 6 -3 11q0 16 22 16h288q20 0 27 -19l223 -641zM164 1246q-2 4 -2 12q0 13 11 20l282 201q12 9 29 9h92q16 0 29 -9l282 -201
q11 -7 11 -20q0 -8 -2 -12l-43 -102q-5 -15 -19 -15q-6 0 -12 3l-294 144l-290 -144q-6 -3 -12 -3q-13 0 -19 15z" />
    <glyph glyph-name="Ydieresis" unicode="&#x178;" horiz-adv-x="1230" 
d="M2 1372q-4 5 -4 12t5.5 11.5t15.5 4.5h294q21 0 28 -18l286 -643l288 643q8 18 28 18h269q20 0 20 -16q0 -6 -3 -12l-468 -898l10 -450q0 -24 -22 -24h-269q-23 0 -23 24l13 450zM311 1500q-11 0 -17.5 6.5t-6.5 17.5v223q0 11 6.5 17t17.5 6h197q11 0 17 -6t6 -17v-223
q0 -11 -6 -17.5t-17 -6.5h-197zM731 1500q-11 0 -17.5 6.5t-6.5 17.5v223q0 11 6.5 17t17.5 6h197q11 0 17 -6t6 -17v-223q0 -11 -6 -17.5t-17 -6.5h-197z" />
    <glyph glyph-name="Zacute" unicode="&#x179;" horiz-adv-x="1181" 
d="M60 0q-23 0 -23 24v208q0 18 10 29l730 913h-663q-23 0 -23 24v179q0 11 6.5 17t16.5 6h1005q11 0 17.5 -6t6.5 -17v-217q0 -15 -10 -29l-720 -905h708q11 0 17.5 -6t6.5 -17v-179q0 -11 -6.5 -17.5t-17.5 -6.5h-1061zM435 1498q-3 -1 -8 -1q-16 0 -21 17l-35 100
q-2 6 -2 9q0 14 16 22l470 200q4 2 11 2q14 0 18 -16l56 -178q2 -6 2 -10q0 -15 -18 -20z" />
    <glyph glyph-name="zacute" unicode="&#x17a;" horiz-adv-x="1003" 
d="M91 0q-11 0 -17.5 6.5t-6.5 17.5v172q0 15 10 29l465 593h-409q-24 0 -24 24v165q0 23 24 23h751q11 0 17 -6t6 -17v-177q0 -15 -10 -29l-469 -589h486q11 0 17 -6t6 -17v-165q0 -24 -23 -24h-823zM328 1128q-3 -1 -8 -1q-16 0 -21 17l-35 100q-2 6 -2 9q0 14 16 22
l470 200q4 2 11 2q14 0 18 -16l56 -178q2 -6 2 -10q0 -15 -18 -20z" />
    <glyph glyph-name="Zdotaccent" unicode="&#x17b;" horiz-adv-x="1181" 
d="M60 0q-23 0 -23 24v208q0 18 10 29l730 913h-663q-23 0 -23 24v179q0 11 6.5 17t16.5 6h1005q11 0 17.5 -6t6.5 -17v-217q0 -15 -10 -29l-720 -905h708q11 0 17.5 -6t6.5 -17v-179q0 -11 -6.5 -17.5t-17.5 -6.5h-1061zM489 1500q-24 0 -24 24v223q0 11 6.5 17t17.5 6h257
q10 0 16.5 -6t6.5 -17v-223q0 -11 -6 -17.5t-17 -6.5h-257z" />
    <glyph glyph-name="zdotaccent" unicode="&#x17c;" horiz-adv-x="1003" 
d="M91 0q-11 0 -17.5 6.5t-6.5 17.5v172q0 15 10 29l465 593h-409q-24 0 -24 24v165q0 23 24 23h751q11 0 17 -6t6 -17v-177q0 -15 -10 -29l-469 -589h486q11 0 17 -6t6 -17v-165q0 -24 -23 -24h-823zM381 1130q-24 0 -24 24v223q0 11 6.5 17t17.5 6h257q10 0 16.5 -6
t6.5 -17v-223q0 -11 -6 -17.5t-17 -6.5h-257z" />
    <glyph glyph-name="Zcaron" unicode="&#x17d;" horiz-adv-x="1181" 
d="M60 0q-23 0 -23 24v208q0 18 10 29l730 913h-663q-23 0 -23 24v179q0 11 6.5 17t16.5 6h1005q11 0 17.5 -6t6.5 -17v-217q0 -15 -10 -29l-720 -905h708q11 0 17.5 -6t6.5 -17v-179q0 -11 -6.5 -17.5t-17.5 -6.5h-1061zM262 1720q-11 8 -11 20q0 8 2 12l43 102q7 15 18 15
q6 0 13 -4l290 -143l290 143q7 4 13 4q11 0 18 -15l43 -102q3 -6 3 -12q0 -12 -12 -20l-281 -197q-13 -9 -30 -9h-88q-17 0 -29 9z" />
    <glyph glyph-name="zcaron" unicode="&#x17e;" horiz-adv-x="1003" 
d="M91 0q-11 0 -17.5 6.5t-6.5 17.5v172q0 15 10 29l465 593h-409q-24 0 -24 24v165q0 23 24 23h751q11 0 17 -6t6 -17v-177q0 -15 -10 -29l-469 -589h486q11 0 17 -6t6 -17v-165q0 -24 -23 -24h-823zM154 1350q-11 8 -11 20q0 8 2 12l43 102q7 15 18 15q6 0 13 -4l290 -143
l290 143q7 4 13 4q11 0 18 -15l43 -102q3 -6 3 -12q0 -12 -12 -20l-281 -197q-13 -9 -30 -9h-88q-17 0 -29 9z" />
    <glyph glyph-name="florin" unicode="&#x192;" horiz-adv-x="848" 
d="M557.5 1175q-29.5 -31 -29.5 -105v-40h223q11 0 17 -6t6 -17v-165q0 -24 -23 -24h-223v-856q0 -111 -46.5 -183.5t-122.5 -105.5t-167 -33q-68 0 -182 16q-22 4 -22 26v161q0 12 7 17.5t19 2.5q44 -9 108 -9q53 0 82.5 31t29.5 105v828h-132q-11 0 -17.5 6.5t-6.5 17.5
v165q0 23 24 23h132v68q0 111 46.5 183.5t122.5 105.5t167 33q66 0 183 -16q21 -4 21 -26v-161q0 -12 -7 -17.5t-18 -2.5q-45 9 -109 9q-53 0 -82.5 -31z" />
    <glyph glyph-name="Ohorn" unicode="&#x1a0;" horiz-adv-x="1506" 
d="M1217 1278q117 -96 180 -245t63 -337q0 -213 -88 -377.5t-248.5 -256.5t-371.5 -92t-371 92t-247.5 256.5t-87.5 377.5q0 221 87 387t246.5 256.5t372.5 90.5q169 0 308 -58q0 1 2 5l152 298q8 14 18 14q5 0 13 -4l166 -91q12 -7 12 -17q0 -9 -5 -15zM967 263
q88 59 133.5 169.5t45.5 263.5q0 154 -45.5 266t-134 173t-214.5 61q-127 0 -214.5 -59.5t-132.5 -172t-45 -268.5q0 -152 46 -262.5t134.5 -170t213.5 -59.5t213 59z" />
    <glyph glyph-name="ohorn" unicode="&#x1a1;" horiz-adv-x="1147" 
d="M953 932q-1 -2 -5 -6q76 -70 115 -173.5t39 -234.5q0 -164 -62 -287t-180.5 -190t-283.5 -67q-166 0 -285.5 66t-182 187t-62.5 285t63 287t182 190t285 67q117 0 214 -34l135 283q6 14 18 14q5 0 13 -4l166 -91q13 -7 13 -18q0 -6 -5 -14zM741 255q53 81 53 257
q0 174 -54.5 259t-165.5 85q-114 -1 -168 -86t-54 -260q0 -173 55.5 -254.5t168.5 -81.5q112 0 165 81z" />
    <glyph glyph-name="Uhorn" unicode="&#x1af;" horiz-adv-x="1284" 
d="M1387 1594q13 -7 13 -18q0 -6 -5 -14l-183 -270l-7 -392v-380q0 -269 -140.5 -409.5t-417.5 -140.5q-279 0 -424.5 141.5t-143.5 408.5l3 380l-11 477q0 23 23 23h276q23 0 23 -23l-11 -469l3 -386q2 -153 65 -231.5t197 -78.5q144 0 213 78.5t69 231.5v380l-8 475
q0 23 23 23h116l130 275q6 14 18 14q4 0 14 -4z" />
    <glyph glyph-name="uhorn" unicode="&#x1b0;" horiz-adv-x="1122" 
d="M1046 916l-7 -380l6 -512q0 -24 -24 -24h-242q-24 0 -23 24l5 106q-55 -70 -141.5 -112t-190.5 -42q-109 0 -189.5 47.5t-124 137.5t-43.5 215v216l-7 415q0 23 23 23h257q24 0 24 -23l-7 -415v-212q0 -55 21 -96.5t57 -64.5t81 -23q57 0 108 35.5t83.5 108t32.5 176.5
v76l-4 415q0 23 23 23h135l130 275q6 14 18 14q4 0 14 -4l165 -91q13 -7 13 -18q0 -6 -5 -14z" />
    <glyph glyph-name="uni0218" unicode="&#x218;" horiz-adv-x="1290" 
d="M339.5 20.5q-139.5 52.5 -220 160t-87.5 267.5q-1 24 23 24h272q22 0 25 -22q10 -82 42.5 -137.5t99.5 -86t177 -30.5q140 0 211 44.5t71 141.5q0 64 -46 102t-115 57.5t-193 43.5q-171 32 -278.5 68t-184.5 120t-77 231q0 131 66 227t192.5 147.5t303.5 51.5
q253 0 407.5 -102.5t187.5 -316.5q1 -12 -5 -18.5t-17 -6.5h-272q-22 0 -25 23q-14 92 -88 141.5t-200 49.5q-114 0 -181 -41t-67 -125q0 -59 45 -94.5t113.5 -54.5t187.5 -40q175 -33 284.5 -68.5t188.5 -120t79 -232.5q0 -146 -71.5 -248.5t-205 -155t-317.5 -52.5
q-186 0 -325.5 52.5zM502 -500q-12 0 -17.5 7t-3.5 19l42 172v200q0 11 6.5 17.5t17.5 6.5h181q23 0 23 -24v-182q0 -18 -8 -30l-110 -171q-9 -15 -28 -15h-103z" />
    <glyph glyph-name="uni0219" unicode="&#x219;" horiz-adv-x="1073" 
d="M297 16q-113 40 -179.5 118t-73.5 189q0 23 23 23h246q11 0 17 -6t6 -17q7 -82 63 -121.5t161 -39.5q88 0 135 33t47 93q0 37 -30.5 58.5t-77 32.5t-132.5 24q-134 20 -221 46t-150 92t-63 185q0 106 54 179.5t155 111t241 37.5q205 0 329.5 -81t140.5 -236
q1 -12 -5 -18.5t-18 -6.5h-234q-21 0 -25 22q-13 67 -59 102.5t-133 35.5q-160 0 -160 -124q0 -37 30.5 -58.5t77.5 -31.5t130 -21q134 -19 221.5 -44t151 -91.5t63.5 -187.5q0 -105 -61.5 -181.5t-168.5 -116.5t-243 -40q-145 0 -258 40zM408 -500q-12 0 -17.5 7t-3.5 19
l42 172v200q0 11 6.5 17.5t17.5 6.5h181q23 0 23 -24v-182q0 -18 -8 -30l-110 -171q-9 -15 -28 -15h-103z" />
    <glyph glyph-name="uni021A" unicode="&#x21a;" horiz-adv-x="1155" 
d="M439 0q-24 0 -23 24l18 676l-15 474h-378q-11 0 -17 6.5t-6 17.5v179q0 11 6.5 17t16.5 6h1073q11 0 17.5 -6t6.5 -17v-179q0 -11 -6.5 -17.5t-17.5 -6.5h-378l-15 -474l18 -676q2 -24 -22 -24h-278zM443 -500q-12 0 -17.5 7t-3.5 19l42 172v200q0 11 6.5 17.5t17.5 6.5
h181q23 0 23 -24v-182q0 -18 -8 -30l-110 -171q-9 -15 -28 -15h-103z" />
    <glyph glyph-name="uni021B" unicode="&#x21b;" horiz-adv-x="738" 
d="M329 13q-77 33 -124 105.5t-47 183.5l1 391l1 125h-110q-11 0 -17.5 6.5t-6.5 17.5v165q0 23 24 23h108l-3 235q0 23 24 23h259q23 0 23 -23l-3 -235h223q11 0 17 -6t6 -17v-165q0 -24 -23 -24h-225v-120l2 -388q0 -63 28.5 -89.5t81.5 -26.5q54 0 108 15q3 1 8 1
q8 0 13 -5.5t5 -15.5v-149q0 -20 -18 -26q-97 -34 -186 -34q-92 0 -169 33zM285 -500q-12 0 -17.5 7t-3.5 19l42 172v200q0 11 6.5 17.5t17.5 6.5h181q23 0 23 -24v-182q0 -18 -8 -30l-110 -171q-9 -15 -28 -15h-103z" />
    <glyph glyph-name="uni0237" unicode="&#x237;" horiz-adv-x="468" 
d="M103 -340q-24 0 -24 23l10 671l-10 653q0 23 24 23h263q23 0 23 -23l-10 -653l10 -671q0 -23 -23 -23h-263z" />
    <glyph glyph-name="uni0237" unicode="&#xf6be;" horiz-adv-x="468" 
d="M103 -340q-24 0 -24 23l10 671l-10 653q0 23 24 23h263q23 0 23 -23l-10 -653l10 -671q0 -23 -23 -23h-263z" />
    <glyph glyph-name="uni0259" unicode="&#x259;" horiz-adv-x="1140" 
d="M793 576q-9 145 -66 212.5t-166 67.5q-159 0 -200 -153q-4 -21 -25 -21h-242q-12 0 -18.5 4.5t-5.5 12.5q13 96 76.5 177.5t171.5 130.5t247 49q168 0 287.5 -68.5t181 -190t61.5 -279.5q0 -164 -63 -286.5t-181 -190t-280 -67.5q-166 0 -284 70t-181 199.5t-67 308.5
q0 24 23 24h731zM712.5 225.5q53.5 53.5 72.5 160.5h-422q10 -91 61.5 -152.5t144.5 -61.5q90 0 143.5 53.5z" />
    <glyph glyph-name="quoteleft" unicode="&#x2bb;" horiz-adv-x="439" 
d="M376 1400q12 0 17.5 -7t2.5 -19l-59 -216v-254q0 -11 -6 -17.5t-17 -6.5h-239q-24 0 -24 24v236q0 14 10 29l161 217q11 14 29 14h125z" />
    <glyph glyph-name="quoteleft" unicode="&#x2018;" horiz-adv-x="439" 
d="M376 1400q12 0 17.5 -7t2.5 -19l-59 -216v-254q0 -11 -6 -17.5t-17 -6.5h-239q-24 0 -24 24v236q0 14 10 29l161 217q11 14 29 14h125z" />
    <glyph glyph-name="circumflex" unicode="&#x2c6;" horiz-adv-x="948" 
d="M108 1246q-2 4 -2 12q0 13 11 20l282 201q12 9 29 9h92q16 0 29 -9l282 -201q11 -7 11 -20q0 -8 -2 -12l-43 -102q-5 -15 -19 -15q-6 0 -12 3l-294 144l-290 -144q-6 -3 -12 -3q-13 0 -19 15z" />
    <glyph glyph-name="caron" unicode="&#x2c7;" horiz-adv-x="944" 
d="M117 1350q-11 8 -11 20q0 8 2 12l43 102q7 15 18 15q6 0 13 -4l290 -143l290 143q7 4 13 4q11 0 18 -15l43 -102q3 -6 3 -12q0 -12 -12 -20l-281 -197q-13 -9 -30 -9h-88q-17 0 -29 9z" />
    <glyph glyph-name="breve" unicode="&#x2d8;" horiz-adv-x="904" 
d="M273 1190q-78 40 -122 110t-50 159q-2 23 23 23h149q20 0 25 -23q7 -53 47 -84t107 -31q64 0 105 31.5t49 83.5q5 23 25 23h150q23 0 22 -21q-5 -89 -49.5 -160t-122 -111t-179.5 -40q-101 0 -179 40z" />
    <glyph glyph-name="dotaccent" unicode="&#x2d9;" horiz-adv-x="504" 
d="M124 1130q-24 0 -24 24v223q0 11 6.5 17t17.5 6h257q10 0 16.5 -6t6.5 -17v-223q0 -11 -6 -17.5t-17 -6.5h-257z" />
    <glyph glyph-name="ring" unicode="&#x2da;" horiz-adv-x="716" 
d="M226 1175q-59 31 -92.5 85.5t-33.5 121.5t33.5 121.5t92.5 85.5t132 31t132 -31t92.5 -85.5t33.5 -121.5t-33.5 -121.5t-92.5 -85.5t-132 -31t-132 31zM431.5 1284.5q28.5 34.5 28.5 97.5q0 64 -28.5 98t-73.5 34q-47 0 -74.5 -34t-27.5 -98q0 -63 28 -97.5t74 -34.5
q45 0 73.5 34.5z" />
    <glyph glyph-name="ogonek" unicode="&#x2db;" horiz-adv-x="644" 
d="M404 -420q-90 0 -159 27t-107 77.5t-38 117.5q0 97 66 162.5t176 101.5q6 2 10 2q13 0 21 -14l19 -26q4 -5 4 -12q0 -9 -7 -16q-24 -25 -42.5 -65t-18.5 -79q0 -41 28 -60.5t76 -19.5h89q11 0 17 -6.5t6 -17.5v-149q0 -11 -6 -17t-17 -6h-117z" />
    <glyph glyph-name="tilde" unicode="&#x2dc;" horiz-adv-x="840" 
d="M460 1177q-34 17 -73 48q-26 21 -43 31t-36 10q-50 0 -55 -80q-2 -24 -24 -24h-105q-25 0 -23 24q4 114 55 182t148 68q45 0 79.5 -18t73.5 -50q29 -21 42.5 -29.5t28.5 -8.5q30 0 43.5 21t15.5 60q2 23 25 23h105q11 0 17 -8t5 -22q-5 -116 -54.5 -180t-142.5 -64
q-48 0 -82 17z" />
    <glyph glyph-name="hungarumlaut" unicode="&#x2dd;" horiz-adv-x="970" 
d="M218 1160q-8 -8 -16 -8t-17 7l-68 57q-9 9 -9 17q0 7 5 15l231 340q7 11 17 11q8 0 15 -7l117 -114q8 -7 8 -17q0 -9 -7 -16zM578 1150q-7 -8 -16 -8t-17 7l-68 55q-9 9 -9 18q0 7 5 15l231 339q8 12 17 12q8 0 16 -8l116 -112q9 -7 9 -17q0 -8 -8 -16z" />
    <glyph glyph-name="gravecomb" unicode="&#x300;" 
d="M-141 1144q-7 -21 -29 -16l-490 125q-18 5 -18 21q0 6 1 9l57 178q4 16 19 16q7 0 11 -2l469 -200q16 -8 16 -22q0 -3 -2 -9z" />
    <glyph glyph-name="acutecomb" unicode="&#x301;" 
d="M-613 1128q-3 -1 -8 -1q-16 0 -21 17l-35 100q-2 6 -2 9q0 14 16 22l470 200q4 2 11 2q14 0 18 -16l56 -178q2 -6 2 -10q0 -15 -18 -20z" />
    <glyph glyph-name="uni0302" unicode="&#x302;" 
d="M-840 1246q-2 4 -2 12q0 13 11 20l282 201q12 9 29 9h92q16 0 29 -9l282 -201q11 -7 11 -20q0 -8 -2 -12l-43 -102q-5 -15 -19 -15q-6 0 -12 3l-294 144l-290 -144q-6 -3 -12 -3q-13 0 -19 15z" />
    <glyph glyph-name="tildecomb" unicode="&#x303;" 
d="M-380 1177q-34 17 -73 48q-26 21 -43 31t-36 10q-50 0 -55 -80q-2 -24 -24 -24h-105q-25 0 -23 24q4 114 55 182t148 68q45 0 79.5 -18t73.5 -50q29 -21 42.5 -29.5t28.5 -8.5q30 0 43.5 21t15.5 60q2 23 25 23h105q11 0 17 -8t5 -22q-5 -116 -54.5 -180t-142.5 -64
q-48 0 -82 17z" />
    <glyph glyph-name="uni0304" unicode="&#x304;" 
d="M-730 1160q-24 0 -24 24v153q0 11 6.5 17t17.5 6h607q11 0 17 -6t6 -17v-153q0 -11 -6 -17.5t-17 -6.5h-607z" />
    <glyph glyph-name="uni0306" unicode="&#x306;" 
d="M-631 1190q-78 40 -122 110t-50 159q-2 23 23 23h149q20 0 25 -23q7 -53 47 -84t107 -31q64 0 105 31.5t49 83.5q5 23 25 23h150q23 0 22 -21q-5 -89 -49.5 -160t-122 -111t-179.5 -40q-101 0 -179 40z" />
    <glyph glyph-name="uni0307" unicode="&#x307;" 
d="M-380 1130q-24 0 -24 24v223q0 11 6.5 17t17.5 6h257q10 0 16.5 -6t6.5 -17v-223q0 -11 -6 -17.5t-17 -6.5h-257z" />
    <glyph glyph-name="uni0308" unicode="&#x308;" 
d="M-740 1130q-11 0 -17.5 6.5t-6.5 17.5v223q0 11 6.5 17t17.5 6h197q11 0 17 -6t6 -17v-223q0 -11 -6 -17.5t-17 -6.5h-197zM-320 1130q-11 0 -17.5 6.5t-6.5 17.5v223q0 11 6.5 17t17.5 6h197q11 0 17 -6t6 -17v-223q0 -11 -6 -17.5t-17 -6.5h-197z" />
    <glyph glyph-name="hookabovecomb" unicode="&#x309;" 
d="M-470 1125q-12 0 -18 6.5t-4 18.5q5 36 22.5 60.5t39.5 38.5t56 30q35 16 50.5 28.5t15.5 31.5q0 22 -18 36t-54 14q-32 0 -52.5 -13t-27.5 -37q-4 -12 -9.5 -17t-16.5 -5h-151q-12 0 -18 6.5t-4 18.5q12 91 84.5 140t196.5 49q84 0 146.5 -22.5t97 -64.5t34.5 -99
q0 -35 -15 -60t-36 -41t-54 -35q-31 -17 -48.5 -31t-24.5 -32q-5 -11 -10 -16t-15 -5h-167z" />
    <glyph glyph-name="uni030A" unicode="&#x30a;" 
d="M-490 1175q-59 31 -92.5 85.5t-33.5 121.5t33.5 121.5t92.5 85.5t132 31t132 -31t92.5 -85.5t33.5 -121.5t-33.5 -121.5t-92.5 -85.5t-132 -31t-132 31zM-284.5 1284.5q28.5 34.5 28.5 97.5q0 64 -28.5 98t-73.5 34q-47 0 -74.5 -34t-27.5 -98q0 -63 28 -97.5t74 -34.5
q45 0 73.5 34.5z" />
    <glyph glyph-name="uni030B" unicode="&#x30b;" 
d="M-752 1160q-8 -8 -16 -8t-17 7l-68 57q-9 9 -9 17q0 7 5 15l231 340q7 11 17 11q8 0 15 -7l117 -114q8 -7 8 -17q0 -9 -7 -16zM-392 1150q-7 -8 -16 -8t-17 7l-68 55q-9 9 -9 18q0 7 5 15l231 339q8 12 17 12q8 0 16 -8l116 -112q9 -7 9 -17q0 -8 -8 -16z" />
    <glyph glyph-name="uni030C" unicode="&#x30c;" 
d="M-827 1350q-11 8 -11 20q0 8 2 12l43 102q7 15 18 15q6 0 13 -4l290 -143l290 143q7 4 13 4q11 0 18 -15l43 -102q3 -6 3 -12q0 -12 -12 -20l-281 -197q-13 -9 -30 -9h-88q-17 0 -29 9z" />
    <glyph glyph-name="uni0312" unicode="&#x312;" 
d="M-424 1130q-11 0 -17.5 6.5t-6.5 17.5v181q0 17 12 30l160 174q12 13 29 13h120q12 0 18 -7t3 -19l-42 -172v-200q0 -11 -6 -17.5t-17 -6.5h-253z" />
    <glyph glyph-name="uni031B" unicode="&#x31b;" 
d="M-284 932q-8 -12 -19 -12q-5 0 -13 3l-126 55q-14 6 -14 19q0 6 3 13l141 295q6 14 18 14q5 0 13 -4l166 -91q13 -7 13 -18q0 -6 -5 -14z" />
    <glyph glyph-name="dotbelowcomb" unicode="&#x323;" 
d="M-380 -348q-24 0 -24 24v223q0 11 6.5 17t17.5 6h257q10 0 16.5 -6t6.5 -17v-223q0 -11 -6 -17.5t-17 -6.5h-257z" />
    <glyph glyph-name="uni0326" unicode="&#x326;" 
d="M-349 -500q-12 0 -17.5 7t-3.5 19l42 172v200q0 11 6.5 17.5t17.5 6.5h181q23 0 23 -24v-182q0 -18 -8 -30l-110 -171q-9 -15 -28 -15h-103z" />
    <glyph glyph-name="uni0327" unicode="&#x327;" 
d="M-169 -337q-4 -22 -28 -19l-231 43q-18 3 -18 19q0 6 2 10l130 305q9 20 29 17l161 -17q23 -3 20 -27z" />
    <glyph glyph-name="uni0328" unicode="&#x328;" 
d="M-240 -420q-90 0 -159 27t-107 77.5t-38 117.5q0 97 66 162.5t176 101.5q6 2 10 2q13 0 21 -14l19 -26q4 -5 4 -12q0 -9 -7 -16q-24 -25 -42.5 -65t-18.5 -79q0 -41 28 -60.5t76 -19.5h89q11 0 17 -6.5t6 -17.5v-149q0 -11 -6 -17t-17 -6h-117z" />
    <glyph glyph-name="uni0394" unicode="&#x394;" horiz-adv-x="1432" 
d="M54 0q-24 0 -24 24v203q0 16 6 29l473 1126q8 18 27 18h370q20 0 27 -18l464 -1126q5 -17 5 -29v-203q0 -11 -6 -17.5t-17 -6.5h-1325zM1088 242l-382 968l-366 -968h748z" />
    <glyph glyph-name="uni0394" unicode="&#x2206;" horiz-adv-x="1432" 
d="M54 0q-24 0 -24 24v203q0 16 6 29l473 1126q8 18 27 18h370q20 0 27 -18l464 -1126q5 -17 5 -29v-203q0 -11 -6 -17.5t-17 -6.5h-1325zM1088 242l-382 968l-366 -968h748z" />
    <glyph glyph-name="uni03A9" unicode="&#x3a9;" horiz-adv-x="1536" 
d="M1409 226q11 0 17 -6t6 -17v-179q0 -24 -23 -24h-545q-11 0 -17.5 6.5t-6.5 17.5v179q0 23 21 33q139 67 220 193t81 307q0 137 -42.5 238.5t-126 158.5t-201.5 62h-47q-119 -5 -202 -62t-126 -158.5t-43 -238.5q0 -181 81 -307t220 -193q21 -10 21 -33v-179
q0 -11 -6 -17.5t-17 -6.5h-545q-11 0 -17.5 6.5t-6.5 17.5v179q0 11 6.5 17t17.5 6h177q-116 100 -180.5 234.5t-64.5 295.5q0 202 84.5 352.5t239.5 233.5t361 88h47q206 -5 360.5 -88t239 -234t84.5 -352q0 -161 -64.5 -295.5t-180.5 -234.5h178z" />
    <glyph glyph-name="uni03A9" unicode="&#x2126;" horiz-adv-x="1536" 
d="M1409 226q11 0 17 -6t6 -17v-179q0 -24 -23 -24h-545q-11 0 -17.5 6.5t-6.5 17.5v179q0 23 21 33q139 67 220 193t81 307q0 137 -42.5 238.5t-126 158.5t-201.5 62h-47q-119 -5 -202 -62t-126 -158.5t-43 -238.5q0 -181 81 -307t220 -193q21 -10 21 -33v-179
q0 -11 -6 -17.5t-17 -6.5h-545q-11 0 -17.5 6.5t-6.5 17.5v179q0 11 6.5 17t17.5 6h177q-116 100 -180.5 234.5t-64.5 295.5q0 202 84.5 352.5t239.5 233.5t361 88h47q206 -5 360.5 -88t239 -234t84.5 -352q0 -161 -64.5 -295.5t-180.5 -234.5h178z" />
    <glyph glyph-name="pi" unicode="&#x3c0;" horiz-adv-x="1114" 
d="M88 0q-24 0 -24 24l4 470v513q0 23 24 23h935q23 0 23 -23l-4 -569l4 -414q0 -24 -23 -24h-259q-24 0 -24 24l4 470v324h-378l-2 -380l4 -414q0 -24 -23 -24h-261z" />
    <glyph glyph-name="Wgrave" unicode="&#x1e80;" horiz-adv-x="1844" 
d="M8 1374l-1 6q0 20 22 20h262q22 0 26 -21l219 -1105l210 1105q5 21 26 21h311q21 0 25 -21l221 -1121l219 1121q5 21 26 21h241q12 0 18 -7t3 -19l-325 -1353q-6 -21 -26 -21h-326q-22 0 -25 21l-221 959l-200 -959q-4 -21 -26 -21h-336q-22 0 -25 21zM1116 1514
q-7 -21 -29 -16l-490 125q-18 5 -18 21q0 6 1 9l57 178q4 16 19 16q7 0 11 -2l469 -200q16 -8 16 -22q0 -3 -2 -9z" />
    <glyph glyph-name="wgrave" unicode="&#x1e81;" horiz-adv-x="1459" 
d="M0 1004q-1 2 -1 7q0 8 6 13.5t16 5.5h254q22 0 25 -22l115 -768l142 769q5 21 25 21h319q22 0 25 -21l138 -751l119 750q3 22 25 22h230q13 0 18.5 -7.5t2.5 -18.5l-216 -983q-4 -21 -25 -21h-312q-22 0 -26 21l-161 762l-141 -762q-3 -21 -25 -21h-310q-21 0 -25 21z
M925 1144q-7 -21 -29 -16l-490 125q-18 5 -18 21q0 6 1 9l57 178q4 16 19 16q7 0 11 -2l469 -200q16 -8 16 -22q0 -3 -2 -9z" />
    <glyph glyph-name="Wacute" unicode="&#x1e82;" horiz-adv-x="1844" 
d="M8 1374l-1 6q0 20 22 20h262q22 0 26 -21l219 -1105l210 1105q5 21 26 21h311q21 0 25 -21l221 -1121l219 1121q5 21 26 21h241q12 0 18 -7t3 -19l-325 -1353q-6 -21 -26 -21h-326q-22 0 -25 21l-221 959l-200 -959q-4 -21 -26 -21h-336q-22 0 -25 21zM741 1498
q-3 -1 -8 -1q-16 0 -21 17l-35 100q-2 6 -2 9q0 14 16 22l470 200q4 2 11 2q14 0 18 -16l56 -178q2 -6 2 -10q0 -15 -18 -20z" />
    <glyph glyph-name="wacute" unicode="&#x1e83;" horiz-adv-x="1459" 
d="M0 1004q-1 2 -1 7q0 8 6 13.5t16 5.5h254q22 0 25 -22l115 -768l142 769q5 21 25 21h319q22 0 25 -21l138 -751l119 750q3 22 25 22h230q13 0 18.5 -7.5t2.5 -18.5l-216 -983q-4 -21 -25 -21h-312q-22 0 -26 21l-161 762l-141 -762q-3 -21 -25 -21h-310q-21 0 -25 21z
M549 1128q-3 -1 -8 -1q-16 0 -21 17l-35 100q-2 6 -2 9q0 14 16 22l470 200q4 2 11 2q14 0 18 -16l56 -178q2 -6 2 -10q0 -15 -18 -20z" />
    <glyph glyph-name="Wdieresis" unicode="&#x1e84;" horiz-adv-x="1844" 
d="M8 1374l-1 6q0 20 22 20h262q22 0 26 -21l219 -1105l210 1105q5 21 26 21h311q21 0 25 -21l221 -1121l219 1121q5 21 26 21h241q12 0 18 -7t3 -19l-325 -1353q-6 -21 -26 -21h-326q-22 0 -25 21l-221 959l-200 -959q-4 -21 -26 -21h-336q-22 0 -25 21zM614 1500
q-11 0 -17.5 6.5t-6.5 17.5v223q0 11 6.5 17t17.5 6h197q11 0 17 -6t6 -17v-223q0 -11 -6 -17.5t-17 -6.5h-197zM1034 1500q-11 0 -17.5 6.5t-6.5 17.5v223q0 11 6.5 17t17.5 6h197q11 0 17 -6t6 -17v-223q0 -11 -6 -17.5t-17 -6.5h-197z" />
    <glyph glyph-name="wdieresis" unicode="&#x1e85;" horiz-adv-x="1459" 
d="M0 1004q-1 2 -1 7q0 8 6 13.5t16 5.5h254q22 0 25 -22l115 -768l142 769q5 21 25 21h319q22 0 25 -21l138 -751l119 750q3 22 25 22h230q13 0 18.5 -7.5t2.5 -18.5l-216 -983q-4 -21 -25 -21h-312q-22 0 -26 21l-161 762l-141 -762q-3 -21 -25 -21h-310q-21 0 -25 21z
M423 1130q-11 0 -17.5 6.5t-6.5 17.5v223q0 11 6.5 17t17.5 6h197q11 0 17 -6t6 -17v-223q0 -11 -6 -17.5t-17 -6.5h-197zM843 1130q-11 0 -17.5 6.5t-6.5 17.5v223q0 11 6.5 17t17.5 6h197q11 0 17 -6t6 -17v-223q0 -11 -6 -17.5t-17 -6.5h-197z" />
    <glyph glyph-name="uni1EA0" unicode="&#x1ea0;" horiz-adv-x="1351" 
d="M1353 27l2 -9q0 -8 -5.5 -13t-15.5 -5h-266q-20 0 -27 19l-107 337h-525l-103 -336q-6 -20 -27 -20h-261q-21 0 -21 18q0 6 1 9l471 1354q7 19 27 19h370q19 0 26 -19zM857 598l-191 598l-183 -598h374zM546 -348q-24 0 -24 24v223q0 11 6.5 17t17.5 6h257q10 0 16.5 -6
t6.5 -17v-223q0 -11 -6 -17.5t-17 -6.5h-257z" />
    <glyph glyph-name="uni1EA1" unicode="&#x1ea1;" horiz-adv-x="1165" 
d="M1085 514l9 -490q0 -24 -23 -24h-255q-24 0 -23 24l3 97q-54 -68 -131 -104.5t-173 -36.5q-142 0 -242.5 69.5t-152 190t-51.5 272.5q0 150 55 272.5t158 194t239 71.5q190 0 297 -130l-4 86q-1 24 23 24h257q23 0 23 -23zM744 264q58 84 58 252q0 164 -58.5 249
t-169.5 85q-110 0 -166 -82.5t-56 -239.5q0 -171 56.5 -259.5t163.5 -88.5q114 0 172 84zM455 -348q-24 0 -24 24v223q0 11 6.5 17t17.5 6h257q10 0 16.5 -6t6.5 -17v-223q0 -11 -6 -17.5t-17 -6.5h-257z" />
    <glyph glyph-name="uni1EA2" unicode="&#x1ea2;" horiz-adv-x="1351" 
d="M1353 27l2 -9q0 -8 -5.5 -13t-15.5 -5h-266q-20 0 -27 19l-107 337h-525l-103 -336q-6 -20 -27 -20h-261q-21 0 -21 18q0 6 1 9l471 1354q7 19 27 19h370q19 0 26 -19zM857 598l-191 598l-183 -598h374zM600 1495q-12 0 -18 6.5t-4 18.5q5 36 22.5 60.5t39.5 38.5t56 30
q35 16 50.5 28.5t15.5 31.5q0 22 -18 36t-54 14q-32 0 -52.5 -13t-27.5 -37q-4 -12 -9.5 -17t-16.5 -5h-151q-12 0 -18 6.5t-4 18.5q12 91 84.5 140t196.5 49q84 0 146.5 -22.5t97 -64.5t34.5 -99q0 -35 -15 -60t-36 -41t-54 -35q-31 -17 -48.5 -31t-24.5 -32
q-5 -11 -10 -16t-15 -5h-167z" />
    <glyph glyph-name="uni1EA3" unicode="&#x1ea3;" horiz-adv-x="1165" 
d="M1085 514l9 -490q0 -24 -23 -24h-255q-24 0 -23 24l3 97q-54 -68 -131 -104.5t-173 -36.5q-142 0 -242.5 69.5t-152 190t-51.5 272.5q0 150 55 272.5t158 194t239 71.5q190 0 297 -130l-4 86q-1 24 23 24h257q23 0 23 -23zM744 264q58 84 58 252q0 164 -58.5 249
t-169.5 85q-110 0 -166 -82.5t-56 -239.5q0 -171 56.5 -259.5t163.5 -88.5q114 0 172 84zM490 1125q-12 0 -18 6.5t-4 18.5q5 36 22.5 60.5t39.5 38.5t56 30q35 16 50.5 28.5t15.5 31.5q0 22 -18 36t-54 14q-32 0 -52.5 -13t-27.5 -37q-4 -12 -9.5 -17t-16.5 -5h-151
q-12 0 -18 6.5t-4 18.5q12 91 84.5 140t196.5 49q84 0 146.5 -22.5t97 -64.5t34.5 -99q0 -35 -15 -60t-36 -41t-54 -35q-31 -17 -48.5 -31t-24.5 -32q-5 -11 -10 -16t-15 -5h-167z" />
    <glyph glyph-name="uni1EA4" unicode="&#x1ea4;" horiz-adv-x="1351" 
d="M1353 27l2 -9q0 -8 -5.5 -13t-15.5 -5h-266q-20 0 -27 19l-107 337h-525l-103 -336q-6 -20 -27 -20h-261q-21 0 -21 18q0 6 1 9l471 1354q7 19 27 19h370q19 0 26 -19zM857 598l-191 598l-183 -598h374zM997 1743q-10 -8 -18 -8q-9 0 -16 7l-80 71q-9 9 -9 18t6 16
l230 302q8 11 17 11q8 0 16 -8l123 -113q8 -8 8 -16q0 -7 -8 -17zM316 1578q-2 4 -2 12q0 14 11 21l282 200q12 9 29 9h92q16 0 29 -9l282 -200q11 -7 11 -21q0 -8 -2 -12l-43 -101q-5 -15 -18 -15q-7 0 -13 3l-294 143l-290 -143q-6 -3 -12 -3q-13 0 -19 15z" />
    <glyph glyph-name="uni1EA5" unicode="&#x1ea5;" horiz-adv-x="1165" 
d="M1085 514l9 -490q0 -24 -23 -24h-255q-24 0 -23 24l3 97q-54 -68 -131 -104.5t-173 -36.5q-142 0 -242.5 69.5t-152 190t-51.5 272.5q0 150 55 272.5t158 194t239 71.5q190 0 297 -130l-4 86q-1 24 23 24h257q23 0 23 -23zM744 264q58 84 58 252q0 164 -58.5 249
t-169.5 85q-110 0 -166 -82.5t-56 -239.5q0 -171 56.5 -259.5t163.5 -88.5q114 0 172 84zM887 1373q-10 -8 -18 -8q-9 0 -16 7l-80 71q-9 9 -9 18t6 16l230 302q8 11 17 11q8 0 16 -8l123 -113q8 -8 8 -16q0 -7 -8 -17zM206 1208q-2 4 -2 12q0 14 11 21l282 200q12 9 29 9
h92q16 0 29 -9l282 -200q11 -7 11 -21q0 -8 -2 -12l-43 -101q-5 -15 -18 -15q-7 0 -13 3l-294 143l-290 -143q-6 -3 -12 -3q-13 0 -19 15z" />
    <glyph glyph-name="uni1EA6" unicode="&#x1ea6;" horiz-adv-x="1351" 
d="M1353 27l2 -9q0 -8 -5.5 -13t-15.5 -5h-266q-20 0 -27 19l-107 337h-525l-103 -336q-6 -20 -27 -20h-261q-21 0 -21 18q0 6 1 9l471 1354q7 19 27 19h370q19 0 26 -19zM857 598l-191 598l-183 -598h374zM1004 1740q-7 -7 -16 -7q-8 0 -18 8l-269 262q-8 8 -8 17
q0 10 8 17l123 113q8 8 16 8q9 0 17 -11l230 -302q6 -7 6 -16t-9 -18zM316 1578q-2 4 -2 12q0 14 11 21l282 200q12 9 29 9h92q16 0 29 -9l282 -200q11 -7 11 -21q0 -8 -2 -12l-43 -101q-5 -15 -18 -15q-7 0 -13 3l-294 143l-290 -143q-6 -3 -12 -3q-13 0 -19 15z" />
    <glyph glyph-name="uni1EA7" unicode="&#x1ea7;" horiz-adv-x="1165" 
d="M1085 514l9 -490q0 -24 -23 -24h-255q-24 0 -23 24l3 97q-54 -68 -131 -104.5t-173 -36.5q-142 0 -242.5 69.5t-152 190t-51.5 272.5q0 150 55 272.5t158 194t239 71.5q190 0 297 -130l-4 86q-1 24 23 24h257q23 0 23 -23zM744 264q58 84 58 252q0 164 -58.5 249
t-169.5 85q-110 0 -166 -82.5t-56 -239.5q0 -171 56.5 -259.5t163.5 -88.5q114 0 172 84zM894 1370q-7 -7 -16 -7q-8 0 -18 8l-269 262q-8 8 -8 17q0 10 8 17l123 113q8 8 16 8q9 0 17 -11l230 -302q6 -7 6 -16t-9 -18zM206 1208q-2 4 -2 12q0 14 11 21l282 200q12 9 29 9
h92q16 0 29 -9l282 -200q11 -7 11 -21q0 -8 -2 -12l-43 -101q-5 -15 -18 -15q-7 0 -13 3l-294 143l-290 -143q-6 -3 -12 -3q-13 0 -19 15z" />
    <glyph glyph-name="uni1EA8" unicode="&#x1ea8;" horiz-adv-x="1351" 
d="M1353 27l2 -9q0 -8 -5.5 -13t-15.5 -5h-266q-20 0 -27 19l-107 337h-525l-103 -336q-6 -20 -27 -20h-261q-21 0 -21 18q0 6 1 9l471 1354q7 19 27 19h370q19 0 26 -19zM857 598l-191 598l-183 -598h374zM316 1578q-2 4 -2 12q0 13 11 20l282 201q12 9 29 9h92q16 0 29 -9
l282 -201q11 -7 11 -20q0 -8 -2 -12l-43 -102q-5 -15 -19 -15q-6 0 -12 3l-294 144l-290 -144q-6 -3 -12 -3q-13 0 -19 15zM909 1769q-12 0 -18 6.5t-4 18.5q5 36 22.5 60.5t39.5 38.5t56 30q35 16 50.5 28.5t15.5 31.5q0 22 -18 36t-54 14q-32 0 -52.5 -13t-27.5 -37
q-4 -12 -9.5 -17t-16.5 -5h-151q-12 0 -18 6.5t-4 18.5q12 91 84.5 140t196.5 49q84 0 146.5 -22.5t97 -64.5t34.5 -99q0 -35 -15 -60t-36 -41t-54 -35q-31 -17 -48.5 -31t-24.5 -32q-5 -11 -10 -16t-15 -5h-167z" />
    <glyph glyph-name="uni1EA9" unicode="&#x1ea9;" horiz-adv-x="1165" 
d="M1085 514l9 -490q0 -24 -23 -24h-255q-24 0 -23 24l3 97q-54 -68 -131 -104.5t-173 -36.5q-142 0 -242.5 69.5t-152 190t-51.5 272.5q0 150 55 272.5t158 194t239 71.5q190 0 297 -130l-4 86q-1 24 23 24h257q23 0 23 -23zM744 264q58 84 58 252q0 164 -58.5 249
t-169.5 85q-110 0 -166 -82.5t-56 -239.5q0 -171 56.5 -259.5t163.5 -88.5q114 0 172 84zM206 1208q-2 4 -2 12q0 13 11 20l282 201q12 9 29 9h92q16 0 29 -9l282 -201q11 -7 11 -20q0 -8 -2 -12l-43 -102q-5 -15 -19 -15q-6 0 -12 3l-294 144l-290 -144q-6 -3 -12 -3
q-13 0 -19 15zM799 1399q-12 0 -18 6.5t-4 18.5q5 36 22.5 60.5t39.5 38.5t56 30q35 16 50.5 28.5t15.5 31.5q0 22 -18 36t-54 14q-32 0 -52.5 -13t-27.5 -37q-4 -12 -9.5 -17t-16.5 -5h-151q-12 0 -18 6.5t-4 18.5q12 91 84.5 140t196.5 49q84 0 146.5 -22.5t97 -64.5
t34.5 -99q0 -35 -15 -60t-36 -41t-54 -35q-31 -17 -48.5 -31t-24.5 -32q-5 -11 -10 -16t-15 -5h-167z" />
    <glyph glyph-name="uni1EAA" unicode="&#x1eaa;" horiz-adv-x="1351" 
d="M1353 27l2 -9q0 -8 -5.5 -13t-15.5 -5h-266q-20 0 -27 19l-107 337h-525l-103 -336q-6 -20 -27 -20h-261q-21 0 -21 18q0 6 1 9l471 1354q7 19 27 19h370q19 0 26 -19zM857 598l-191 598l-183 -598h374zM316 1578q-2 4 -2 12q0 13 11 20l282 201q12 9 29 9h92q16 0 29 -9
l282 -201q11 -7 11 -20q0 -8 -2 -12l-43 -102q-5 -15 -19 -15q-6 0 -12 3l-294 144l-290 -144q-6 -3 -12 -3q-13 0 -19 15zM721 1883q-34 17 -73 48q-26 21 -43 31t-36 10q-50 0 -55 -80q-2 -24 -24 -24h-105q-25 0 -23 24q4 114 55 182t148 68q45 0 79.5 -18t73.5 -50
q29 -21 42.5 -29.5t28.5 -8.5q30 0 43.5 21t15.5 60q2 23 25 23h105q11 0 17 -8t5 -22q-5 -116 -54.5 -180t-142.5 -64q-48 0 -82 17z" />
    <glyph glyph-name="uni1EAB" unicode="&#x1eab;" horiz-adv-x="1165" 
d="M1085 514l9 -490q0 -24 -23 -24h-255q-24 0 -23 24l3 97q-54 -68 -131 -104.5t-173 -36.5q-142 0 -242.5 69.5t-152 190t-51.5 272.5q0 150 55 272.5t158 194t239 71.5q190 0 297 -130l-4 86q-1 24 23 24h257q23 0 23 -23zM744 264q58 84 58 252q0 164 -58.5 249
t-169.5 85q-110 0 -166 -82.5t-56 -239.5q0 -171 56.5 -259.5t163.5 -88.5q114 0 172 84zM206 1208q-2 4 -2 12q0 13 11 20l282 201q12 9 29 9h92q16 0 29 -9l282 -201q11 -7 11 -20q0 -8 -2 -12l-43 -102q-5 -15 -19 -15q-6 0 -12 3l-294 144l-290 -144q-6 -3 -12 -3
q-13 0 -19 15zM611 1513q-34 17 -73 48q-26 21 -43 31t-36 10q-50 0 -55 -80q-2 -24 -24 -24h-105q-25 0 -23 24q4 114 55 182t148 68q45 0 79.5 -18t73.5 -50q29 -21 42.5 -29.5t28.5 -8.5q30 0 43.5 21t15.5 60q2 23 25 23h105q11 0 17 -8t5 -22q-5 -116 -54.5 -180
t-142.5 -64q-48 0 -82 17z" />
    <glyph glyph-name="uni1EAC" unicode="&#x1eac;" horiz-adv-x="1351" 
d="M1353 27l2 -9q0 -8 -5.5 -13t-15.5 -5h-266q-20 0 -27 19l-107 337h-525l-103 -336q-6 -20 -27 -20h-261q-21 0 -21 18q0 6 1 9l471 1354q7 19 27 19h370q19 0 26 -19zM857 598l-191 598l-183 -598h374zM546 -348q-24 0 -24 24v223q0 11 6.5 17t17.5 6h257q10 0 16.5 -6
t6.5 -17v-223q0 -11 -6 -17.5t-17 -6.5h-257zM316 1616q-2 4 -2 12q0 13 11 20l282 201q12 9 29 9h92q16 0 29 -9l282 -201q11 -7 11 -20q0 -8 -2 -12l-43 -102q-5 -15 -19 -15q-6 0 -12 3l-294 144l-290 -144q-6 -3 -12 -3q-13 0 -19 15z" />
    <glyph glyph-name="uni1EAD" unicode="&#x1ead;" horiz-adv-x="1165" 
d="M1085 514l9 -490q0 -24 -23 -24h-255q-24 0 -23 24l3 97q-54 -68 -131 -104.5t-173 -36.5q-142 0 -242.5 69.5t-152 190t-51.5 272.5q0 150 55 272.5t158 194t239 71.5q190 0 297 -130l-4 86q-1 24 23 24h257q23 0 23 -23zM744 264q58 84 58 252q0 164 -58.5 249
t-169.5 85q-110 0 -166 -82.5t-56 -239.5q0 -171 56.5 -259.5t163.5 -88.5q114 0 172 84zM455 -348q-24 0 -24 24v223q0 11 6.5 17t17.5 6h257q10 0 16.5 -6t6.5 -17v-223q0 -11 -6 -17.5t-17 -6.5h-257zM206 1246q-2 4 -2 12q0 13 11 20l282 201q12 9 29 9h92q16 0 29 -9
l282 -201q11 -7 11 -20q0 -8 -2 -12l-43 -102q-5 -15 -19 -15q-6 0 -12 3l-294 144l-290 -144q-6 -3 -12 -3q-13 0 -19 15z" />
    <glyph glyph-name="uni1EAE" unicode="&#x1eae;" horiz-adv-x="1351" 
d="M1353 27l2 -9q0 -8 -5.5 -13t-15.5 -5h-266q-20 0 -27 19l-107 337h-525l-103 -336q-6 -20 -27 -20h-261q-21 0 -21 18q0 6 1 9l471 1354q7 19 27 19h370q19 0 26 -19zM857 598l-191 598l-183 -598h374zM708 1786q-8 -8 -17 -8q-8 0 -16 7l-86 71q-9 8 -9 16q0 7 6 16
l230 308q8 11 17 11q6 0 15 -7l128 -114q9 -7 9 -16t-8 -17zM505 1533q-78 40 -122 110t-50 158q-1 11 5 17.5t18 6.5h149q20 0 25 -23q7 -53 47 -84t107 -31q64 0 105 31.5t49 83.5q5 23 25 23h150q11 0 17 -5.5t5 -15.5q-5 -89 -49.5 -160t-122 -111t-179.5 -40
q-101 0 -179 40z" />
    <glyph glyph-name="uni1EAF" unicode="&#x1eaf;" horiz-adv-x="1165" 
d="M1085 514l9 -490q0 -24 -23 -24h-255q-24 0 -23 24l3 97q-54 -68 -131 -104.5t-173 -36.5q-142 0 -242.5 69.5t-152 190t-51.5 272.5q0 150 55 272.5t158 194t239 71.5q190 0 297 -130l-4 86q-1 24 23 24h257q23 0 23 -23zM744 264q58 84 58 252q0 164 -58.5 249
t-169.5 85q-110 0 -166 -82.5t-56 -239.5q0 -171 56.5 -259.5t163.5 -88.5q114 0 172 84zM598 1416q-8 -8 -17 -8q-8 0 -16 7l-86 71q-9 8 -9 16q0 7 6 16l230 308q8 11 17 11q6 0 15 -7l128 -114q9 -7 9 -16t-8 -17zM395 1163q-78 40 -122 110t-50 158q-1 11 5 17.5t18 6.5
h149q20 0 25 -23q7 -53 47 -84t107 -31q64 0 105 31.5t49 83.5q5 23 25 23h150q11 0 17 -5.5t5 -15.5q-5 -89 -49.5 -160t-122 -111t-179.5 -40q-101 0 -179 40z" />
    <glyph glyph-name="uni1EB0" unicode="&#x1eb0;" horiz-adv-x="1351" 
d="M1353 27l2 -9q0 -8 -5.5 -13t-15.5 -5h-266q-20 0 -27 19l-107 337h-525l-103 -336q-6 -20 -27 -20h-261q-21 0 -21 18q0 6 1 9l471 1354q7 19 27 19h370q19 0 26 -19zM857 598l-191 598l-183 -598h374zM695 1785q-7 -7 -16 -7t-17 8l-269 267q-8 8 -8 17t9 16l128 114
q9 7 16 7q9 0 17 -11l230 -308q6 -9 6 -15q0 -9 -10 -17zM505 1533q-78 40 -122 110t-50 158q-1 11 5 17.5t18 6.5h149q20 0 25 -23q7 -53 47 -84t107 -31q64 0 105 31.5t49 83.5q5 23 25 23h150q11 0 17 -5.5t5 -15.5q-5 -89 -49.5 -160t-122 -111t-179.5 -40
q-101 0 -179 40z" />
    <glyph glyph-name="uni1EB1" unicode="&#x1eb1;" horiz-adv-x="1165" 
d="M1085 514l9 -490q0 -24 -23 -24h-255q-24 0 -23 24l3 97q-54 -68 -131 -104.5t-173 -36.5q-142 0 -242.5 69.5t-152 190t-51.5 272.5q0 150 55 272.5t158 194t239 71.5q190 0 297 -130l-4 86q-1 24 23 24h257q23 0 23 -23zM744 264q58 84 58 252q0 164 -58.5 249
t-169.5 85q-110 0 -166 -82.5t-56 -239.5q0 -171 56.5 -259.5t163.5 -88.5q114 0 172 84zM585 1415q-7 -7 -16 -7t-17 8l-269 267q-8 8 -8 17t9 16l128 114q9 7 16 7q9 0 17 -11l230 -308q6 -9 6 -15q0 -9 -10 -17zM395 1163q-78 40 -122 110t-50 158q-1 11 5 17.5t18 6.5
h149q20 0 25 -23q7 -53 47 -84t107 -31q64 0 105 31.5t49 83.5q5 23 25 23h150q11 0 17 -5.5t5 -15.5q-5 -89 -49.5 -160t-122 -111t-179.5 -40q-101 0 -179 40z" />
    <glyph glyph-name="uni1EB2" unicode="&#x1eb2;" horiz-adv-x="1351" 
d="M1353 27l2 -9q0 -8 -5.5 -13t-15.5 -5h-266q-20 0 -27 19l-107 337h-525l-103 -336q-6 -20 -27 -20h-261q-21 0 -21 18q0 6 1 9l471 1354q7 19 27 19h370q19 0 26 -19zM857 598l-191 598l-183 -598h374zM505 1532q-78 40 -122 110t-50 159q-2 23 23 23h149q20 0 25 -23
q7 -53 47 -84t107 -31q64 0 105 31.5t49 83.5q5 23 25 23h150q23 0 22 -21q-5 -89 -49.5 -160t-122 -111t-179.5 -40q-101 0 -179 40zM598 1824q-12 0 -18 6.5t-4 18.5q5 36 22.5 60.5t39.5 38.5t56 30q35 16 50.5 28.5t15.5 31.5q0 22 -18 36t-54 14q-32 0 -52.5 -13
t-27.5 -37q-4 -12 -9.5 -17t-16.5 -5h-151q-12 0 -18 6.5t-4 18.5q12 91 84.5 140t196.5 49q84 0 146.5 -22.5t97 -64.5t34.5 -99q0 -35 -15 -60t-36 -41t-54 -35q-31 -17 -48.5 -31t-24.5 -32q-5 -11 -10 -16t-15 -5h-167z" />
    <glyph glyph-name="uni1EB3" unicode="&#x1eb3;" horiz-adv-x="1165" 
d="M1085 514l9 -490q0 -24 -23 -24h-255q-24 0 -23 24l3 97q-54 -68 -131 -104.5t-173 -36.5q-142 0 -242.5 69.5t-152 190t-51.5 272.5q0 150 55 272.5t158 194t239 71.5q190 0 297 -130l-4 86q-1 24 23 24h257q23 0 23 -23zM744 264q58 84 58 252q0 164 -58.5 249
t-169.5 85q-110 0 -166 -82.5t-56 -239.5q0 -171 56.5 -259.5t163.5 -88.5q114 0 172 84zM395 1162q-78 40 -122 110t-50 159q-2 23 23 23h149q20 0 25 -23q7 -53 47 -84t107 -31q64 0 105 31.5t49 83.5q5 23 25 23h150q23 0 22 -21q-5 -89 -49.5 -160t-122 -111t-179.5 -40
q-101 0 -179 40zM488 1454q-12 0 -18 6.5t-4 18.5q5 36 22.5 60.5t39.5 38.5t56 30q35 16 50.5 28.5t15.5 31.5q0 22 -18 36t-54 14q-32 0 -52.5 -13t-27.5 -37q-4 -12 -9.5 -17t-16.5 -5h-151q-12 0 -18 6.5t-4 18.5q12 91 84.5 140t196.5 49q84 0 146.5 -22.5t97 -64.5
t34.5 -99q0 -35 -15 -60t-36 -41t-54 -35q-31 -17 -48.5 -31t-24.5 -32q-5 -11 -10 -16t-15 -5h-167z" />
    <glyph glyph-name="uni1EB4" unicode="&#x1eb4;" horiz-adv-x="1351" 
d="M1353 27l2 -9q0 -8 -5.5 -13t-15.5 -5h-266q-20 0 -27 19l-107 337h-525l-103 -336q-6 -20 -27 -20h-261q-21 0 -21 18q0 6 1 9l471 1354q7 19 27 19h370q19 0 26 -19zM857 598l-191 598l-183 -598h374zM722 1887q-34 17 -73 48q-26 21 -43 31t-36 10q-27 0 -40 -21
t-15 -60q-2 -23 -24 -23h-105q-25 0 -23 24q4 113 55 181.5t148 68.5q45 0 79.5 -18t73.5 -50q29 -21 42.5 -29.5t28.5 -8.5q30 0 43.5 21t15.5 59q1 11 7.5 17.5t17.5 6.5h105q11 0 17 -8t5 -22q-5 -117 -54 -180.5t-143 -63.5q-48 0 -82 17zM505 1533q-78 40 -122 110
t-50 158q-1 11 5 17.5t18 6.5h149q20 0 25 -23q7 -53 47 -84t107 -31q64 0 105 31.5t49 83.5q5 23 25 23h150q11 0 17 -5.5t5 -15.5q-5 -89 -49.5 -160t-122 -111t-179.5 -40q-101 0 -179 40z" />
    <glyph glyph-name="uni1EB5" unicode="&#x1eb5;" horiz-adv-x="1165" 
d="M1085 514l9 -490q0 -24 -23 -24h-255q-24 0 -23 24l3 97q-54 -68 -131 -104.5t-173 -36.5q-142 0 -242.5 69.5t-152 190t-51.5 272.5q0 150 55 272.5t158 194t239 71.5q190 0 297 -130l-4 86q-1 24 23 24h257q23 0 23 -23zM744 264q58 84 58 252q0 164 -58.5 249
t-169.5 85q-110 0 -166 -82.5t-56 -239.5q0 -171 56.5 -259.5t163.5 -88.5q114 0 172 84zM612 1517q-34 17 -73 48q-26 21 -43 31t-36 10q-27 0 -40 -21t-15 -60q-2 -23 -24 -23h-105q-25 0 -23 24q4 113 55 181.5t148 68.5q45 0 79.5 -18t73.5 -50q29 -21 42.5 -29.5
t28.5 -8.5q30 0 43.5 21t15.5 59q1 11 7.5 17.5t17.5 6.5h105q11 0 17 -8t5 -22q-5 -117 -54 -180.5t-143 -63.5q-48 0 -82 17zM395 1163q-78 40 -122 110t-50 158q-1 11 5 17.5t18 6.5h149q20 0 25 -23q7 -53 47 -84t107 -31q64 0 105 31.5t49 83.5q5 23 25 23h150
q11 0 17 -5.5t5 -15.5q-5 -89 -49.5 -160t-122 -111t-179.5 -40q-101 0 -179 40z" />
    <glyph glyph-name="uni1EB6" unicode="&#x1eb6;" horiz-adv-x="1351" 
d="M1353 27l2 -9q0 -8 -5.5 -13t-15.5 -5h-266q-20 0 -27 19l-107 337h-525l-103 -336q-6 -20 -27 -20h-261q-21 0 -21 18q0 6 1 9l471 1354q7 19 27 19h370q19 0 26 -19zM857 598l-191 598l-183 -598h374zM546 -348q-24 0 -24 24v223q0 11 6.5 17t17.5 6h257q10 0 16.5 -6
t6.5 -17v-223q0 -11 -6 -17.5t-17 -6.5h-257zM504 1560q-78 40 -122 110t-50 159q-2 23 23 23h149q20 0 25 -23q7 -53 47 -84t107 -31q64 0 105 31.5t49 83.5q5 23 25 23h150q23 0 22 -21q-5 -89 -49.5 -160t-122 -111t-179.5 -40q-101 0 -179 40z" />
    <glyph glyph-name="uni1EB7" unicode="&#x1eb7;" horiz-adv-x="1165" 
d="M1085 514l9 -490q0 -24 -23 -24h-255q-24 0 -23 24l3 97q-54 -68 -131 -104.5t-173 -36.5q-142 0 -242.5 69.5t-152 190t-51.5 272.5q0 150 55 272.5t158 194t239 71.5q190 0 297 -130l-4 86q-1 24 23 24h257q23 0 23 -23zM744 264q58 84 58 252q0 164 -58.5 249
t-169.5 85q-110 0 -166 -82.5t-56 -239.5q0 -171 56.5 -259.5t163.5 -88.5q114 0 172 84zM455 -348q-24 0 -24 24v223q0 11 6.5 17t17.5 6h257q10 0 16.5 -6t6.5 -17v-223q0 -11 -6 -17.5t-17 -6.5h-257zM394 1190q-78 40 -122 110t-50 159q-2 23 23 23h149q20 0 25 -23
q7 -53 47 -84t107 -31q64 0 105 31.5t49 83.5q5 23 25 23h150q23 0 22 -21q-5 -89 -49.5 -160t-122 -111t-179.5 -40q-101 0 -179 40z" />
    <glyph glyph-name="uni1EB8" unicode="&#x1eb8;" horiz-adv-x="1136" 
d="M109 0q-23 0 -23 24l15 676l-15 677q0 23 23 23h936q11 0 17 -6t6 -17v-179q0 -11 -6 -17.5t-17 -6.5h-644l-13 -322h599q11 0 17 -6t6 -17v-179q0 -11 -6 -17.5t-17 -6.5h-599l13 -400h660q11 0 17 -6t6 -17v-179q0 -11 -6 -17.5t-17 -6.5h-952zM468 -348q-24 0 -24 24
v223q0 11 6.5 17t17.5 6h257q10 0 16.5 -6t6.5 -17v-223q0 -11 -6 -17.5t-17 -6.5h-257z" />
    <glyph glyph-name="uni1EB9" unicode="&#x1eb9;" horiz-adv-x="1140" 
d="M348 454q9 -145 66 -212.5t166 -67.5q159 0 199 153q6 21 25 21h242q12 0 18.5 -4.5t5.5 -12.5q-13 -96 -76 -177.5t-171 -130.5t-247 -49q-168 0 -287.5 68.5t-181 190t-61.5 279.5q0 164 63 286.5t181 190t280 67.5q166 0 284 -70t180.5 -199.5t67.5 -308.5
q0 -24 -24 -24h-730zM428.5 804.5q-53.5 -53.5 -72.5 -160.5h422q-10 91 -61.5 152.5t-144.5 61.5q-90 0 -143.5 -53.5zM443 -348q-24 0 -24 24v223q0 11 6.5 17t17.5 6h257q10 0 16.5 -6t6.5 -17v-223q0 -11 -6 -17.5t-17 -6.5h-257z" />
    <glyph glyph-name="uni1EBA" unicode="&#x1eba;" horiz-adv-x="1136" 
d="M109 0q-23 0 -23 24l15 676l-15 677q0 23 23 23h936q11 0 17 -6t6 -17v-179q0 -11 -6 -17.5t-17 -6.5h-644l-13 -322h599q11 0 17 -6t6 -17v-179q0 -11 -6 -17.5t-17 -6.5h-599l13 -400h660q11 0 17 -6t6 -17v-179q0 -11 -6 -17.5t-17 -6.5h-952zM514 1495q-12 0 -18 6.5
t-4 18.5q5 36 22.5 60.5t39.5 38.5t56 30q35 16 50.5 28.5t15.5 31.5q0 22 -18 36t-54 14q-32 0 -52.5 -13t-27.5 -37q-4 -12 -9.5 -17t-16.5 -5h-151q-12 0 -18 6.5t-4 18.5q12 91 84.5 140t196.5 49q84 0 146.5 -22.5t97 -64.5t34.5 -99q0 -35 -15 -60t-36 -41t-54 -35
q-31 -17 -48.5 -31t-24.5 -32q-5 -11 -10 -16t-15 -5h-167z" />
    <glyph glyph-name="uni1EBB" unicode="&#x1ebb;" horiz-adv-x="1140" 
d="M348 454q9 -145 66 -212.5t166 -67.5q159 0 199 153q6 21 25 21h242q12 0 18.5 -4.5t5.5 -12.5q-13 -96 -76 -177.5t-171 -130.5t-247 -49q-168 0 -287.5 68.5t-181 190t-61.5 279.5q0 164 63 286.5t181 190t280 67.5q166 0 284 -70t180.5 -199.5t67.5 -308.5
q0 -24 -24 -24h-730zM428.5 804.5q-53.5 -53.5 -72.5 -160.5h422q-10 91 -61.5 152.5t-144.5 61.5q-90 0 -143.5 -53.5zM488 1125q-12 0 -18 6.5t-4 18.5q5 36 22.5 60.5t39.5 38.5t56 30q35 16 50.5 28.5t15.5 31.5q0 22 -18 36t-54 14q-32 0 -52.5 -13t-27.5 -37
q-4 -12 -9.5 -17t-16.5 -5h-151q-12 0 -18 6.5t-4 18.5q12 91 84.5 140t196.5 49q84 0 146.5 -22.5t97 -64.5t34.5 -99q0 -35 -15 -60t-36 -41t-54 -35q-31 -17 -48.5 -31t-24.5 -32q-5 -11 -10 -16t-15 -5h-167z" />
    <glyph glyph-name="uni1EBC" unicode="&#x1ebc;" horiz-adv-x="1136" 
d="M109 0q-23 0 -23 24l15 676l-15 677q0 23 23 23h936q11 0 17 -6t6 -17v-179q0 -11 -6 -17.5t-17 -6.5h-644l-13 -322h599q11 0 17 -6t6 -17v-179q0 -11 -6 -17.5t-17 -6.5h-599l13 -400h660q11 0 17 -6t6 -17v-179q0 -11 -6 -17.5t-17 -6.5h-952zM636 1547q-34 17 -73 48
q-26 21 -43 31t-36 10q-50 0 -55 -80q-2 -24 -24 -24h-105q-25 0 -23 24q4 114 55 182t148 68q45 0 79.5 -18t73.5 -50q29 -21 42.5 -29.5t28.5 -8.5q30 0 43.5 21t15.5 60q2 23 25 23h105q11 0 17 -8t5 -22q-5 -116 -54.5 -180t-142.5 -64q-48 0 -82 17z" />
    <glyph glyph-name="uni1EBD" unicode="&#x1ebd;" horiz-adv-x="1140" 
d="M348 454q9 -145 66 -212.5t166 -67.5q159 0 199 153q6 21 25 21h242q12 0 18.5 -4.5t5.5 -12.5q-13 -96 -76 -177.5t-171 -130.5t-247 -49q-168 0 -287.5 68.5t-181 190t-61.5 279.5q0 164 63 286.5t181 190t280 67.5q166 0 284 -70t180.5 -199.5t67.5 -308.5
q0 -24 -24 -24h-730zM428.5 804.5q-53.5 -53.5 -72.5 -160.5h422q-10 91 -61.5 152.5t-144.5 61.5q-90 0 -143.5 -53.5zM610 1177q-34 17 -73 48q-26 21 -43 31t-36 10q-50 0 -55 -80q-2 -24 -24 -24h-105q-25 0 -23 24q4 114 55 182t148 68q45 0 79.5 -18t73.5 -50
q29 -21 42.5 -29.5t28.5 -8.5q30 0 43.5 21t15.5 60q2 23 25 23h105q11 0 17 -8t5 -22q-5 -116 -54.5 -180t-142.5 -64q-48 0 -82 17z" />
    <glyph glyph-name="uni1EBE" unicode="&#x1ebe;" horiz-adv-x="1136" 
d="M109 0q-23 0 -23 24l15 676l-15 677q0 23 23 23h936q11 0 17 -6t6 -17v-179q0 -11 -6 -17.5t-17 -6.5h-644l-13 -322h599q11 0 17 -6t6 -17v-179q0 -11 -6 -17.5t-17 -6.5h-599l13 -400h660q11 0 17 -6t6 -17v-179q0 -11 -6 -17.5t-17 -6.5h-952zM911 1743q-10 -8 -18 -8
q-9 0 -16 7l-80 71q-9 9 -9 18t6 16l230 302q8 11 17 11q8 0 16 -8l123 -113q8 -8 8 -16q0 -7 -8 -17zM230 1578q-2 4 -2 12q0 14 11 21l282 200q12 9 29 9h92q16 0 29 -9l282 -200q11 -7 11 -21q0 -8 -2 -12l-43 -101q-5 -15 -18 -15q-7 0 -13 3l-294 143l-290 -143
q-6 -3 -12 -3q-13 0 -19 15z" />
    <glyph glyph-name="uni1EBF" unicode="&#x1ebf;" horiz-adv-x="1140" 
d="M348 454q9 -145 66 -212.5t166 -67.5q159 0 199 153q6 21 25 21h242q12 0 18.5 -4.5t5.5 -12.5q-13 -96 -76 -177.5t-171 -130.5t-247 -49q-168 0 -287.5 68.5t-181 190t-61.5 279.5q0 164 63 286.5t181 190t280 67.5q166 0 284 -70t180.5 -199.5t67.5 -308.5
q0 -24 -24 -24h-730zM428.5 804.5q-53.5 -53.5 -72.5 -160.5h422q-10 91 -61.5 152.5t-144.5 61.5q-90 0 -143.5 -53.5zM885 1373q-10 -8 -18 -8q-9 0 -16 7l-80 71q-9 9 -9 18t6 16l230 302q8 11 17 11q8 0 16 -8l123 -113q8 -8 8 -16q0 -7 -8 -17zM204 1208q-2 4 -2 12
q0 14 11 21l282 200q12 9 29 9h92q16 0 29 -9l282 -200q11 -7 11 -21q0 -8 -2 -12l-43 -101q-5 -15 -18 -15q-7 0 -13 3l-294 143l-290 -143q-6 -3 -12 -3q-13 0 -19 15z" />
    <glyph glyph-name="uni1EC0" unicode="&#x1ec0;" horiz-adv-x="1136" 
d="M109 0q-23 0 -23 24l15 676l-15 677q0 23 23 23h936q11 0 17 -6t6 -17v-179q0 -11 -6 -17.5t-17 -6.5h-644l-13 -322h599q11 0 17 -6t6 -17v-179q0 -11 -6 -17.5t-17 -6.5h-599l13 -400h660q11 0 17 -6t6 -17v-179q0 -11 -6 -17.5t-17 -6.5h-952zM918 1740q-7 -7 -16 -7
q-8 0 -18 8l-269 262q-8 8 -8 17q0 10 8 17l123 113q8 8 16 8q9 0 17 -11l230 -302q6 -7 6 -16t-9 -18zM230 1578q-2 4 -2 12q0 14 11 21l282 200q12 9 29 9h92q16 0 29 -9l282 -200q11 -7 11 -21q0 -8 -2 -12l-43 -101q-5 -15 -18 -15q-7 0 -13 3l-294 143l-290 -143
q-6 -3 -12 -3q-13 0 -19 15z" />
    <glyph glyph-name="uni1EC1" unicode="&#x1ec1;" horiz-adv-x="1140" 
d="M348 454q9 -145 66 -212.5t166 -67.5q159 0 199 153q6 21 25 21h242q12 0 18.5 -4.5t5.5 -12.5q-13 -96 -76 -177.5t-171 -130.5t-247 -49q-168 0 -287.5 68.5t-181 190t-61.5 279.5q0 164 63 286.5t181 190t280 67.5q166 0 284 -70t180.5 -199.5t67.5 -308.5
q0 -24 -24 -24h-730zM428.5 804.5q-53.5 -53.5 -72.5 -160.5h422q-10 91 -61.5 152.5t-144.5 61.5q-90 0 -143.5 -53.5zM892 1370q-7 -7 -16 -7q-8 0 -18 8l-269 262q-8 8 -8 17q0 10 8 17l123 113q8 8 16 8q9 0 17 -11l230 -302q6 -7 6 -16t-9 -18zM204 1208q-2 4 -2 12
q0 14 11 21l282 200q12 9 29 9h92q16 0 29 -9l282 -200q11 -7 11 -21q0 -8 -2 -12l-43 -101q-5 -15 -18 -15q-7 0 -13 3l-294 143l-290 -143q-6 -3 -12 -3q-13 0 -19 15z" />
    <glyph glyph-name="uni1EC2" unicode="&#x1ec2;" horiz-adv-x="1136" 
d="M109 0q-23 0 -23 24l15 676l-15 677q0 23 23 23h936q11 0 17 -6t6 -17v-179q0 -11 -6 -17.5t-17 -6.5h-644l-13 -322h599q11 0 17 -6t6 -17v-179q0 -11 -6 -17.5t-17 -6.5h-599l13 -400h660q11 0 17 -6t6 -17v-179q0 -11 -6 -17.5t-17 -6.5h-952zM230 1578q-2 4 -2 12
q0 13 11 20l282 201q12 9 29 9h92q16 0 29 -9l282 -201q11 -7 11 -20q0 -8 -2 -12l-43 -102q-5 -15 -19 -15q-6 0 -12 3l-294 144l-290 -144q-6 -3 -12 -3q-13 0 -19 15zM823 1769q-12 0 -18 6.5t-4 18.5q5 36 22.5 60.5t39.5 38.5t56 30q35 16 50.5 28.5t15.5 31.5
q0 22 -18 36t-54 14q-32 0 -52.5 -13t-27.5 -37q-4 -12 -9.5 -17t-16.5 -5h-151q-12 0 -18 6.5t-4 18.5q12 91 84.5 140t196.5 49q84 0 146.5 -22.5t97 -64.5t34.5 -99q0 -35 -15 -60t-36 -41t-54 -35q-31 -17 -48.5 -31t-24.5 -32q-5 -11 -10 -16t-15 -5h-167z" />
    <glyph glyph-name="uni1EC3" unicode="&#x1ec3;" horiz-adv-x="1140" 
d="M348 454q9 -145 66 -212.5t166 -67.5q159 0 199 153q6 21 25 21h242q12 0 18.5 -4.5t5.5 -12.5q-13 -96 -76 -177.5t-171 -130.5t-247 -49q-168 0 -287.5 68.5t-181 190t-61.5 279.5q0 164 63 286.5t181 190t280 67.5q166 0 284 -70t180.5 -199.5t67.5 -308.5
q0 -24 -24 -24h-730zM428.5 804.5q-53.5 -53.5 -72.5 -160.5h422q-10 91 -61.5 152.5t-144.5 61.5q-90 0 -143.5 -53.5zM204 1208q-2 4 -2 12q0 13 11 20l282 201q12 9 29 9h92q16 0 29 -9l282 -201q11 -7 11 -20q0 -8 -2 -12l-43 -102q-5 -15 -19 -15q-6 0 -12 3l-294 144
l-290 -144q-6 -3 -12 -3q-13 0 -19 15zM797 1399q-12 0 -18 6.5t-4 18.5q5 36 22.5 60.5t39.5 38.5t56 30q35 16 50.5 28.5t15.5 31.5q0 22 -18 36t-54 14q-32 0 -52.5 -13t-27.5 -37q-4 -12 -9.5 -17t-16.5 -5h-151q-12 0 -18 6.5t-4 18.5q12 91 84.5 140t196.5 49
q84 0 146.5 -22.5t97 -64.5t34.5 -99q0 -35 -15 -60t-36 -41t-54 -35q-31 -17 -48.5 -31t-24.5 -32q-5 -11 -10 -16t-15 -5h-167z" />
    <glyph glyph-name="uni1EC4" unicode="&#x1ec4;" horiz-adv-x="1136" 
d="M109 0q-23 0 -23 24l15 676l-15 677q0 23 23 23h936q11 0 17 -6t6 -17v-179q0 -11 -6 -17.5t-17 -6.5h-644l-13 -322h599q11 0 17 -6t6 -17v-179q0 -11 -6 -17.5t-17 -6.5h-599l13 -400h660q11 0 17 -6t6 -17v-179q0 -11 -6 -17.5t-17 -6.5h-952zM230 1578q-2 4 -2 12
q0 13 11 20l282 201q12 9 29 9h92q16 0 29 -9l282 -201q11 -7 11 -20q0 -8 -2 -12l-43 -102q-5 -15 -19 -15q-6 0 -12 3l-294 144l-290 -144q-6 -3 -12 -3q-13 0 -19 15zM635 1883q-34 17 -73 48q-26 21 -43 31t-36 10q-50 0 -55 -80q-2 -24 -24 -24h-105q-25 0 -23 24
q4 114 55 182t148 68q45 0 79.5 -18t73.5 -50q29 -21 42.5 -29.5t28.5 -8.5q30 0 43.5 21t15.5 60q2 23 25 23h105q11 0 17 -8t5 -22q-5 -116 -54.5 -180t-142.5 -64q-48 0 -82 17z" />
    <glyph glyph-name="uni1EC5" unicode="&#x1ec5;" horiz-adv-x="1140" 
d="M348 454q9 -145 66 -212.5t166 -67.5q159 0 199 153q6 21 25 21h242q12 0 18.5 -4.5t5.5 -12.5q-13 -96 -76 -177.5t-171 -130.5t-247 -49q-168 0 -287.5 68.5t-181 190t-61.5 279.5q0 164 63 286.5t181 190t280 67.5q166 0 284 -70t180.5 -199.5t67.5 -308.5
q0 -24 -24 -24h-730zM428.5 804.5q-53.5 -53.5 -72.5 -160.5h422q-10 91 -61.5 152.5t-144.5 61.5q-90 0 -143.5 -53.5zM204 1208q-2 4 -2 12q0 13 11 20l282 201q12 9 29 9h92q16 0 29 -9l282 -201q11 -7 11 -20q0 -8 -2 -12l-43 -102q-5 -15 -19 -15q-6 0 -12 3l-294 144
l-290 -144q-6 -3 -12 -3q-13 0 -19 15zM609 1513q-34 17 -73 48q-26 21 -43 31t-36 10q-50 0 -55 -80q-2 -24 -24 -24h-105q-25 0 -23 24q4 114 55 182t148 68q45 0 79.5 -18t73.5 -50q29 -21 42.5 -29.5t28.5 -8.5q30 0 43.5 21t15.5 60q2 23 25 23h105q11 0 17 -8t5 -22
q-5 -116 -54.5 -180t-142.5 -64q-48 0 -82 17z" />
    <glyph glyph-name="uni1EC6" unicode="&#x1ec6;" horiz-adv-x="1136" 
d="M109 0q-23 0 -23 24l15 676l-15 677q0 23 23 23h936q11 0 17 -6t6 -17v-179q0 -11 -6 -17.5t-17 -6.5h-644l-13 -322h599q11 0 17 -6t6 -17v-179q0 -11 -6 -17.5t-17 -6.5h-599l13 -400h660q11 0 17 -6t6 -17v-179q0 -11 -6 -17.5t-17 -6.5h-952zM468 -348q-24 0 -24 24
v223q0 11 6.5 17t17.5 6h257q10 0 16.5 -6t6.5 -17v-223q0 -11 -6 -17.5t-17 -6.5h-257zM230 1616q-2 4 -2 12q0 13 11 20l282 201q12 9 29 9h92q16 0 29 -9l282 -201q11 -7 11 -20q0 -8 -2 -12l-43 -102q-5 -15 -19 -15q-6 0 -12 3l-294 144l-290 -144q-6 -3 -12 -3
q-13 0 -19 15z" />
    <glyph glyph-name="uni1EC7" unicode="&#x1ec7;" horiz-adv-x="1140" 
d="M348 454q9 -145 66 -212.5t166 -67.5q159 0 199 153q6 21 25 21h242q12 0 18.5 -4.5t5.5 -12.5q-13 -96 -76 -177.5t-171 -130.5t-247 -49q-168 0 -287.5 68.5t-181 190t-61.5 279.5q0 164 63 286.5t181 190t280 67.5q166 0 284 -70t180.5 -199.5t67.5 -308.5
q0 -24 -24 -24h-730zM428.5 804.5q-53.5 -53.5 -72.5 -160.5h422q-10 91 -61.5 152.5t-144.5 61.5q-90 0 -143.5 -53.5zM443 -348q-24 0 -24 24v223q0 11 6.5 17t17.5 6h257q10 0 16.5 -6t6.5 -17v-223q0 -11 -6 -17.5t-17 -6.5h-257zM204 1246q-2 4 -2 12q0 13 11 20
l282 201q12 9 29 9h92q16 0 29 -9l282 -201q11 -7 11 -20q0 -8 -2 -12l-43 -102q-5 -15 -19 -15q-6 0 -12 3l-294 144l-290 -144q-6 -3 -12 -3q-13 0 -19 15z" />
    <glyph glyph-name="uni1EC8" unicode="&#x1ec8;" horiz-adv-x="504" 
d="M119 0q-23 0 -23 24l15 676l-15 677q0 23 23 23h266q23 0 23 -23l-14 -677l14 -676q0 -24 -23 -24h-266zM170 1495q-12 0 -18 6.5t-4 18.5q5 36 22.5 60.5t39.5 38.5t56 30q35 16 50.5 28.5t15.5 31.5q0 22 -18 36t-54 14q-32 0 -52.5 -13t-27.5 -37q-4 -12 -9.5 -17
t-16.5 -5h-151q-12 0 -18 6.5t-4 18.5q12 91 84.5 140t196.5 49q84 0 146.5 -22.5t97 -64.5t34.5 -99q0 -35 -15 -60t-36 -41t-54 -35q-31 -17 -48.5 -31t-24.5 -32q-5 -11 -10 -16t-15 -5h-167z" />
    <glyph glyph-name="uni1EC9" unicode="&#x1ec9;" horiz-adv-x="468" 
d="M152 1125q-12 0 -18 6.5t-4 18.5q5 36 22.5 60.5t39.5 38.5t56 30q35 16 50.5 28.5t15.5 31.5q0 22 -18 36t-54 14q-32 0 -52.5 -13t-27.5 -37q-4 -12 -9.5 -17t-16.5 -5h-131q-12 0 -18 6.5t-5 18.5q12 91 79 140t183 49q118 0 188 -50t70 -136q0 -35 -13 -60.5t-32 -41
t-48 -34.5q-27 -17 -43 -31t-22 -32q-4 -11 -10 -16t-16 -5h-166zM103 0q-23 0 -23 24l9 490l-9 493q0 23 23 23h263q22 0 22 -23l-9 -493l9 -490q0 -24 -22 -24h-263z" />
    <glyph glyph-name="uni1ECA" unicode="&#x1eca;" horiz-adv-x="504" 
d="M119 0q-23 0 -23 24l15 676l-15 677q0 23 23 23h266q23 0 23 -23l-14 -677l14 -676q0 -24 -23 -24h-266zM124 -348q-24 0 -24 24v223q0 11 6.5 17t17.5 6h257q10 0 16.5 -6t6.5 -17v-223q0 -11 -6 -17.5t-17 -6.5h-257z" />
    <glyph glyph-name="uni1ECB" unicode="&#x1ecb;" horiz-adv-x="468" 
d="M103 0q-23 0 -23 24l9 490l-9 493q0 23 23 23h263q22 0 22 -23l-9 -493l9 -490q0 -24 -22 -24h-263zM106 1130q-24 0 -24 24v223q0 11 6.5 17t17.5 6h257q10 0 16.5 -6t6.5 -17v-223q0 -11 -6 -17.5t-17 -6.5h-257zM107 -348q-24 0 -24 24v223q0 11 6.5 17t17.5 6h257
q10 0 16.5 -6t6.5 -17v-223q0 -11 -6 -17.5t-17 -6.5h-257z" />
    <glyph glyph-name="uni1ECC" unicode="&#x1ecc;" horiz-adv-x="1506" 
d="M381 62q-160 92 -247.5 256.5t-87.5 377.5q0 221 87 387t246.5 256.5t372.5 90.5q212 0 372 -89.5t248 -255.5t88 -389q0 -213 -88 -377.5t-248.5 -256.5t-371.5 -92t-371 92zM967 263q88 59 133.5 169.5t45.5 263.5q0 154 -45.5 266t-134 173t-214.5 61
q-127 0 -214.5 -59.5t-132.5 -172t-45 -268.5q0 -152 46 -262.5t134.5 -170t213.5 -59.5t213 59zM626 -348q-24 0 -24 24v223q0 11 6.5 17t17.5 6h257q10 0 16.5 -6t6.5 -17v-223q0 -11 -6 -17.5t-17 -6.5h-257z" />
    <glyph glyph-name="uni1ECD" unicode="&#x1ecd;" horiz-adv-x="1147" 
d="M290.5 40q-119.5 66 -182 187t-62.5 285t63 287t182 190t285 67t284.5 -65.5t180 -187t61.5 -285.5t-62 -287t-180.5 -190t-283.5 -67q-166 0 -285.5 66zM741 255q53 81 53 257q0 174 -54.5 259t-165.5 85q-114 -1 -168 -86t-54 -260q0 -173 55.5 -254.5t168.5 -81.5
q112 0 165 81zM446 -348q-24 0 -24 24v223q0 11 6.5 17t17.5 6h257q10 0 16.5 -6t6.5 -17v-223q0 -11 -6 -17.5t-17 -6.5h-257z" />
    <glyph glyph-name="uni1ECE" unicode="&#x1ece;" horiz-adv-x="1506" 
d="M381 62q-160 92 -247.5 256.5t-87.5 377.5q0 221 87 387t246.5 256.5t372.5 90.5q212 0 372 -89.5t248 -255.5t88 -389q0 -213 -88 -377.5t-248.5 -256.5t-371.5 -92t-371 92zM967 263q88 59 133.5 169.5t45.5 263.5q0 154 -45.5 266t-134 173t-214.5 61
q-127 0 -214.5 -59.5t-132.5 -172t-45 -268.5q0 -152 46 -262.5t134.5 -170t213.5 -59.5t213 59zM672 1495q-12 0 -18 6.5t-4 18.5q5 36 22.5 60.5t39.5 38.5t56 30q35 16 50.5 28.5t15.5 31.5q0 22 -18 36t-54 14q-32 0 -52.5 -13t-27.5 -37q-4 -12 -9.5 -17t-16.5 -5h-151
q-12 0 -18 6.5t-4 18.5q12 91 84.5 140t196.5 49q84 0 146.5 -22.5t97 -64.5t34.5 -99q0 -35 -15 -60t-36 -41t-54 -35q-31 -17 -48.5 -31t-24.5 -32q-5 -11 -10 -16t-15 -5h-167z" />
    <glyph glyph-name="uni1ECF" unicode="&#x1ecf;" horiz-adv-x="1147" 
d="M290.5 40q-119.5 66 -182 187t-62.5 285t63 287t182 190t285 67t284.5 -65.5t180 -187t61.5 -285.5t-62 -287t-180.5 -190t-283.5 -67q-166 0 -285.5 66zM741 255q53 81 53 257q0 174 -54.5 259t-165.5 85q-114 -1 -168 -86t-54 -260q0 -173 55.5 -254.5t168.5 -81.5
q112 0 165 81zM492 1125q-12 0 -18 6.5t-4 18.5q5 36 22.5 60.5t39.5 38.5t56 30q35 16 50.5 28.5t15.5 31.5q0 22 -18 36t-54 14q-32 0 -52.5 -13t-27.5 -37q-4 -12 -9.5 -17t-16.5 -5h-151q-12 0 -18 6.5t-4 18.5q12 91 84.5 140t196.5 49q84 0 146.5 -22.5t97 -64.5
t34.5 -99q0 -35 -15 -60t-36 -41t-54 -35q-31 -17 -48.5 -31t-24.5 -32q-5 -11 -10 -16t-15 -5h-167z" />
    <glyph glyph-name="uni1ED0" unicode="&#x1ed0;" horiz-adv-x="1506" 
d="M381 62q-160 92 -247.5 256.5t-87.5 377.5q0 221 87 387t246.5 256.5t372.5 90.5q212 0 372 -89.5t248 -255.5t88 -389q0 -213 -88 -377.5t-248.5 -256.5t-371.5 -92t-371 92zM967 263q88 59 133.5 169.5t45.5 263.5q0 154 -45.5 266t-134 173t-214.5 61
q-127 0 -214.5 -59.5t-132.5 -172t-45 -268.5q0 -152 46 -262.5t134.5 -170t213.5 -59.5t213 59zM1069 1743q-10 -8 -18 -8q-9 0 -16 7l-80 71q-9 9 -9 18t6 16l230 302q8 11 17 11q8 0 16 -8l123 -113q8 -8 8 -16q0 -7 -8 -17zM388 1578q-2 4 -2 12q0 14 11 21l282 200
q12 9 29 9h92q16 0 29 -9l282 -200q11 -7 11 -21q0 -8 -2 -12l-43 -101q-5 -15 -18 -15q-7 0 -13 3l-294 143l-290 -143q-6 -3 -12 -3q-13 0 -19 15z" />
    <glyph glyph-name="uni1ED1" unicode="&#x1ed1;" horiz-adv-x="1147" 
d="M290.5 40q-119.5 66 -182 187t-62.5 285t63 287t182 190t285 67t284.5 -65.5t180 -187t61.5 -285.5t-62 -287t-180.5 -190t-283.5 -67q-166 0 -285.5 66zM741 255q53 81 53 257q0 174 -54.5 259t-165.5 85q-114 -1 -168 -86t-54 -260q0 -173 55.5 -254.5t168.5 -81.5
q112 0 165 81zM889 1373q-10 -8 -18 -8q-9 0 -16 7l-80 71q-9 9 -9 18t6 16l230 302q8 11 17 11q8 0 16 -8l123 -113q8 -8 8 -16q0 -7 -8 -17zM208 1208q-2 4 -2 12q0 14 11 21l282 200q12 9 29 9h92q16 0 29 -9l282 -200q11 -7 11 -21q0 -8 -2 -12l-43 -101q-5 -15 -18 -15
q-7 0 -13 3l-294 143l-290 -143q-6 -3 -12 -3q-13 0 -19 15z" />
    <glyph glyph-name="uni1ED2" unicode="&#x1ed2;" horiz-adv-x="1506" 
d="M381 62q-160 92 -247.5 256.5t-87.5 377.5q0 221 87 387t246.5 256.5t372.5 90.5q212 0 372 -89.5t248 -255.5t88 -389q0 -213 -88 -377.5t-248.5 -256.5t-371.5 -92t-371 92zM967 263q88 59 133.5 169.5t45.5 263.5q0 154 -45.5 266t-134 173t-214.5 61
q-127 0 -214.5 -59.5t-132.5 -172t-45 -268.5q0 -152 46 -262.5t134.5 -170t213.5 -59.5t213 59zM1076 1740q-7 -7 -16 -7q-8 0 -18 8l-269 262q-8 8 -8 17q0 10 8 17l123 113q8 8 16 8q9 0 17 -11l230 -302q6 -7 6 -16t-9 -18zM388 1578q-2 4 -2 12q0 14 11 21l282 200
q12 9 29 9h92q16 0 29 -9l282 -200q11 -7 11 -21q0 -8 -2 -12l-43 -101q-5 -15 -18 -15q-7 0 -13 3l-294 143l-290 -143q-6 -3 -12 -3q-13 0 -19 15z" />
    <glyph glyph-name="uni1ED3" unicode="&#x1ed3;" horiz-adv-x="1147" 
d="M290.5 40q-119.5 66 -182 187t-62.5 285t63 287t182 190t285 67t284.5 -65.5t180 -187t61.5 -285.5t-62 -287t-180.5 -190t-283.5 -67q-166 0 -285.5 66zM741 255q53 81 53 257q0 174 -54.5 259t-165.5 85q-114 -1 -168 -86t-54 -260q0 -173 55.5 -254.5t168.5 -81.5
q112 0 165 81zM896 1370q-7 -7 -16 -7q-8 0 -18 8l-269 262q-8 8 -8 17q0 10 8 17l123 113q8 8 16 8q9 0 17 -11l230 -302q6 -7 6 -16t-9 -18zM208 1208q-2 4 -2 12q0 14 11 21l282 200q12 9 29 9h92q16 0 29 -9l282 -200q11 -7 11 -21q0 -8 -2 -12l-43 -101q-5 -15 -18 -15
q-7 0 -13 3l-294 143l-290 -143q-6 -3 -12 -3q-13 0 -19 15z" />
    <glyph glyph-name="uni1ED4" unicode="&#x1ed4;" horiz-adv-x="1506" 
d="M381 62q-160 92 -247.5 256.5t-87.5 377.5q0 221 87 387t246.5 256.5t372.5 90.5q212 0 372 -89.5t248 -255.5t88 -389q0 -213 -88 -377.5t-248.5 -256.5t-371.5 -92t-371 92zM967 263q88 59 133.5 169.5t45.5 263.5q0 154 -45.5 266t-134 173t-214.5 61
q-127 0 -214.5 -59.5t-132.5 -172t-45 -268.5q0 -152 46 -262.5t134.5 -170t213.5 -59.5t213 59zM388 1578q-2 4 -2 12q0 13 11 20l282 201q12 9 29 9h92q16 0 29 -9l282 -201q11 -7 11 -20q0 -8 -2 -12l-43 -102q-5 -15 -19 -15q-6 0 -12 3l-294 144l-290 -144
q-6 -3 -12 -3q-13 0 -19 15zM981 1769q-12 0 -18 6.5t-4 18.5q5 36 22.5 60.5t39.5 38.5t56 30q35 16 50.5 28.5t15.5 31.5q0 22 -18 36t-54 14q-32 0 -52.5 -13t-27.5 -37q-4 -12 -9.5 -17t-16.5 -5h-151q-12 0 -18 6.5t-4 18.5q12 91 84.5 140t196.5 49q84 0 146.5 -22.5
t97 -64.5t34.5 -99q0 -35 -15 -60t-36 -41t-54 -35q-31 -17 -48.5 -31t-24.5 -32q-5 -11 -10 -16t-15 -5h-167z" />
    <glyph glyph-name="uni1ED5" unicode="&#x1ed5;" horiz-adv-x="1147" 
d="M290.5 40q-119.5 66 -182 187t-62.5 285t63 287t182 190t285 67t284.5 -65.5t180 -187t61.5 -285.5t-62 -287t-180.5 -190t-283.5 -67q-166 0 -285.5 66zM741 255q53 81 53 257q0 174 -54.5 259t-165.5 85q-114 -1 -168 -86t-54 -260q0 -173 55.5 -254.5t168.5 -81.5
q112 0 165 81zM208 1208q-2 4 -2 12q0 13 11 20l282 201q12 9 29 9h92q16 0 29 -9l282 -201q11 -7 11 -20q0 -8 -2 -12l-43 -102q-5 -15 -19 -15q-6 0 -12 3l-294 144l-290 -144q-6 -3 -12 -3q-13 0 -19 15zM801 1399q-12 0 -18 6.5t-4 18.5q5 36 22.5 60.5t39.5 38.5t56 30
q35 16 50.5 28.5t15.5 31.5q0 22 -18 36t-54 14q-32 0 -52.5 -13t-27.5 -37q-4 -12 -9.5 -17t-16.5 -5h-151q-12 0 -18 6.5t-4 18.5q12 91 84.5 140t196.5 49q84 0 146.5 -22.5t97 -64.5t34.5 -99q0 -35 -15 -60t-36 -41t-54 -35q-31 -17 -48.5 -31t-24.5 -32
q-5 -11 -10 -16t-15 -5h-167z" />
    <glyph glyph-name="uni1ED6" unicode="&#x1ed6;" horiz-adv-x="1506" 
d="M381 62q-160 92 -247.5 256.5t-87.5 377.5q0 221 87 387t246.5 256.5t372.5 90.5q212 0 372 -89.5t248 -255.5t88 -389q0 -213 -88 -377.5t-248.5 -256.5t-371.5 -92t-371 92zM967 263q88 59 133.5 169.5t45.5 263.5q0 154 -45.5 266t-134 173t-214.5 61
q-127 0 -214.5 -59.5t-132.5 -172t-45 -268.5q0 -152 46 -262.5t134.5 -170t213.5 -59.5t213 59zM388 1578q-2 4 -2 12q0 13 11 20l282 201q12 9 29 9h92q16 0 29 -9l282 -201q11 -7 11 -20q0 -8 -2 -12l-43 -102q-5 -15 -19 -15q-6 0 -12 3l-294 144l-290 -144
q-6 -3 -12 -3q-13 0 -19 15zM793 1883q-34 17 -73 48q-26 21 -43 31t-36 10q-50 0 -55 -80q-2 -24 -24 -24h-105q-25 0 -23 24q4 114 55 182t148 68q45 0 79.5 -18t73.5 -50q29 -21 42.5 -29.5t28.5 -8.5q30 0 43.5 21t15.5 60q2 23 25 23h105q11 0 17 -8t5 -22
q-5 -116 -54.5 -180t-142.5 -64q-48 0 -82 17z" />
    <glyph glyph-name="uni1ED7" unicode="&#x1ed7;" horiz-adv-x="1147" 
d="M290.5 40q-119.5 66 -182 187t-62.5 285t63 287t182 190t285 67t284.5 -65.5t180 -187t61.5 -285.5t-62 -287t-180.5 -190t-283.5 -67q-166 0 -285.5 66zM741 255q53 81 53 257q0 174 -54.5 259t-165.5 85q-114 -1 -168 -86t-54 -260q0 -173 55.5 -254.5t168.5 -81.5
q112 0 165 81zM208 1208q-2 4 -2 12q0 13 11 20l282 201q12 9 29 9h92q16 0 29 -9l282 -201q11 -7 11 -20q0 -8 -2 -12l-43 -102q-5 -15 -19 -15q-6 0 -12 3l-294 144l-290 -144q-6 -3 -12 -3q-13 0 -19 15zM613 1513q-34 17 -73 48q-26 21 -43 31t-36 10q-50 0 -55 -80
q-2 -24 -24 -24h-105q-25 0 -23 24q4 114 55 182t148 68q45 0 79.5 -18t73.5 -50q29 -21 42.5 -29.5t28.5 -8.5q30 0 43.5 21t15.5 60q2 23 25 23h105q11 0 17 -8t5 -22q-5 -116 -54.5 -180t-142.5 -64q-48 0 -82 17z" />
    <glyph glyph-name="uni1ED8" unicode="&#x1ed8;" horiz-adv-x="1506" 
d="M381 62q-160 92 -247.5 256.5t-87.5 377.5q0 221 87 387t246.5 256.5t372.5 90.5q212 0 372 -89.5t248 -255.5t88 -389q0 -213 -88 -377.5t-248.5 -256.5t-371.5 -92t-371 92zM967 263q88 59 133.5 169.5t45.5 263.5q0 154 -45.5 266t-134 173t-214.5 61
q-127 0 -214.5 -59.5t-132.5 -172t-45 -268.5q0 -152 46 -262.5t134.5 -170t213.5 -59.5t213 59zM626 -348q-24 0 -24 24v223q0 11 6.5 17t17.5 6h257q10 0 16.5 -6t6.5 -17v-223q0 -11 -6 -17.5t-17 -6.5h-257zM388 1616q-2 4 -2 12q0 13 11 20l282 201q12 9 29 9h92
q16 0 29 -9l282 -201q11 -7 11 -20q0 -8 -2 -12l-43 -102q-5 -15 -19 -15q-6 0 -12 3l-294 144l-290 -144q-6 -3 -12 -3q-13 0 -19 15z" />
    <glyph glyph-name="uni1ED9" unicode="&#x1ed9;" horiz-adv-x="1147" 
d="M290.5 40q-119.5 66 -182 187t-62.5 285t63 287t182 190t285 67t284.5 -65.5t180 -187t61.5 -285.5t-62 -287t-180.5 -190t-283.5 -67q-166 0 -285.5 66zM741 255q53 81 53 257q0 174 -54.5 259t-165.5 85q-114 -1 -168 -86t-54 -260q0 -173 55.5 -254.5t168.5 -81.5
q112 0 165 81zM446 -348q-24 0 -24 24v223q0 11 6.5 17t17.5 6h257q10 0 16.5 -6t6.5 -17v-223q0 -11 -6 -17.5t-17 -6.5h-257zM208 1246q-2 4 -2 12q0 13 11 20l282 201q12 9 29 9h92q16 0 29 -9l282 -201q11 -7 11 -20q0 -8 -2 -12l-43 -102q-5 -15 -19 -15q-6 0 -12 3
l-294 144l-290 -144q-6 -3 -12 -3q-13 0 -19 15z" />
    <glyph glyph-name="uni1EDA" unicode="&#x1eda;" horiz-adv-x="1506" 
d="M1217 1278q117 -96 180 -245t63 -337q0 -213 -88 -377.5t-248.5 -256.5t-371.5 -92t-371 92t-247.5 256.5t-87.5 377.5q0 221 87 387t246.5 256.5t372.5 90.5q169 0 308 -58q0 1 2 5l152 298q8 14 18 14q5 0 13 -4l166 -91q12 -7 12 -17q0 -9 -5 -15zM967 263
q88 59 133.5 169.5t45.5 263.5q0 154 -45.5 266t-134 173t-214.5 61q-127 0 -214.5 -59.5t-132.5 -172t-45 -268.5q0 -152 46 -262.5t134.5 -170t213.5 -59.5t213 59zM542 1498q-3 -1 -8 -1q-16 0 -21 17l-35 100q-2 6 -2 9q0 14 16 22l470 200q4 2 11 2q14 0 18 -16
l56 -178q2 -6 2 -10q0 -15 -18 -20z" />
    <glyph glyph-name="uni1EDB" unicode="&#x1edb;" horiz-adv-x="1147" 
d="M953 932q-1 -2 -5 -6q76 -70 115 -173.5t39 -234.5q0 -164 -62 -287t-180.5 -190t-283.5 -67q-166 0 -285.5 66t-182 187t-62.5 285t63 287t182 190t285 67q117 0 214 -34l135 283q6 14 18 14q5 0 13 -4l166 -91q13 -7 13 -18q0 -6 -5 -14zM741 255q53 81 53 257
q0 174 -54.5 259t-165.5 85q-114 -1 -168 -86t-54 -260q0 -173 55.5 -254.5t168.5 -81.5q112 0 165 81zM312 1128q-3 -1 -8 -1q-16 0 -21 17l-35 100q-2 6 -2 9q0 14 16 22l470 200q4 2 11 2q14 0 18 -16l56 -178q2 -6 2 -10q0 -15 -18 -20z" />
    <glyph glyph-name="uni1EDC" unicode="&#x1edc;" horiz-adv-x="1506" 
d="M1217 1278q117 -96 180 -245t63 -337q0 -213 -88 -377.5t-248.5 -256.5t-371.5 -92t-371 92t-247.5 256.5t-87.5 377.5q0 221 87 387t246.5 256.5t372.5 90.5q169 0 308 -58q0 1 2 5l152 298q8 14 18 14q5 0 13 -4l166 -91q12 -7 12 -17q0 -9 -5 -15zM967 263
q88 59 133.5 169.5t45.5 263.5q0 154 -45.5 266t-134 173t-214.5 61q-127 0 -214.5 -59.5t-132.5 -172t-45 -268.5q0 -152 46 -262.5t134.5 -170t213.5 -59.5t213 59zM948 1514q-7 -21 -29 -16l-490 125q-18 5 -18 21q0 6 1 9l57 178q4 16 19 16q7 0 11 -2l469 -200
q16 -8 16 -22q0 -3 -2 -9z" />
    <glyph glyph-name="uni1EDD" unicode="&#x1edd;" horiz-adv-x="1147" 
d="M953 932q-1 -2 -5 -6q76 -70 115 -173.5t39 -234.5q0 -164 -62 -287t-180.5 -190t-283.5 -67q-166 0 -285.5 66t-182 187t-62.5 285t63 287t182 190t285 67q117 0 214 -34l135 283q6 14 18 14q5 0 13 -4l166 -91q13 -7 13 -18q0 -6 -5 -14zM741 255q53 81 53 257
q0 174 -54.5 259t-165.5 85q-114 -1 -168 -86t-54 -260q0 -173 55.5 -254.5t168.5 -81.5q112 0 165 81zM728 1146q-7 -21 -29 -16l-490 125q-18 5 -18 21q0 6 1 9l57 178q4 16 19 16q7 0 11 -2l469 -200q16 -8 16 -22q0 -3 -2 -9z" />
    <glyph glyph-name="uni1EDE" unicode="&#x1ede;" horiz-adv-x="1506" 
d="M1217 1278q117 -96 180 -245t63 -337q0 -213 -88 -377.5t-248.5 -256.5t-371.5 -92t-371 92t-247.5 256.5t-87.5 377.5q0 221 87 387t246.5 256.5t372.5 90.5q169 0 308 -58q0 1 2 5l152 298q8 14 18 14q5 0 13 -4l166 -91q12 -7 12 -17q0 -9 -5 -15zM967 263
q88 59 133.5 169.5t45.5 263.5q0 154 -45.5 266t-134 173t-214.5 61q-127 0 -214.5 -59.5t-132.5 -172t-45 -268.5q0 -152 46 -262.5t134.5 -170t213.5 -59.5t213 59zM672 1495q-12 0 -18 6.5t-4 18.5q5 36 22.5 60.5t39.5 38.5t56 30q35 16 50.5 28.5t15.5 31.5
q0 22 -18 36t-54 14q-32 0 -52.5 -13t-27.5 -37q-4 -12 -9.5 -17t-16.5 -5h-151q-12 0 -18 6.5t-4 18.5q12 91 84.5 140t196.5 49q84 0 146.5 -22.5t97 -64.5t34.5 -99q0 -35 -15 -60t-36 -41t-54 -35q-31 -17 -48.5 -31t-24.5 -32q-5 -11 -10 -16t-15 -5h-167z" />
    </font>
</defs>
</svg>
