<?xml version="1.0" standalone="no"?>
<!DOCTYPE svg PUBLIC "-//W3C//DTD SVG 1.1//EN" "http://www.w3.org/Graphics/SVG/1.1/DTD/svg11.dtd" >
<svg xmlns="http://www.w3.org/2000/svg" xmlns:xlink="http://www.w3.org/1999/xlink" version="1.1">
<metadata>
Created by FontForge 20170731 at Wed May 12 04:41:42 2021
 By Aleksey,,,
(c) Copyright David Jonathan Ross, 2016, 2021. All rights reserved.
</metadata>
<defs>
<font id="FormaDJRText-BoldItalic" horiz-adv-x="0" >
  <font-face 
    font-family="Forma DJR Text"
    font-weight="700"
    font-style="italic"
    font-stretch="normal"
    units-per-em="2000"
    panose-1="0 0 0 0 0 0 0 9 0 0"
    ascent="1500"
    descent="-500"
    x-height="1030"
    cap-height="1400"
    bbox="-868 -498 2485 2229"
    underline-thickness="50"
    underline-position="-150"
    slope="-13"
    unicode-range="U+0020-FB02"
  />
<missing-glyph horiz-adv-x="1200" 
d="M248 1388q2 5 6 8.5t9 3.5h1076q5 0 7.5 -3.5t1.5 -8.5l-396 -1716q-2 -5 -6 -8.5t-9 -3.5h-1076q-5 0 -7.5 3.5t-1.5 8.5zM492 1145l-284 -1230h500l284 1230h-500z" />
    <glyph glyph-name=".notdef" horiz-adv-x="1200" 
d="M248 1388q2 5 6 8.5t9 3.5h1076q5 0 7.5 -3.5t1.5 -8.5l-396 -1716q-2 -5 -6 -8.5t-9 -3.5h-1076q-5 0 -7.5 3.5t-1.5 8.5zM492 1145l-284 -1230h500l284 1230h-500z" />
    <glyph glyph-name=".null" 
 />
    <glyph glyph-name="nonmarkingreturn" horiz-adv-x="666" 
 />
    <glyph glyph-name="space" unicode=" " horiz-adv-x="375" 
 />
    <glyph glyph-name="space" unicode="&#xa0;" horiz-adv-x="375" 
 />
    <glyph glyph-name="exclam" unicode="!" horiz-adv-x="459" 
d="M82 406q-12 0 -17 7t-3 19l220 947q3 21 25 21h251q12 0 17 -7t3 -19l-219 -947q-4 -21 -26 -21h-251zM-12 0q-12 0 -17 7t-3 19l56 241q3 21 25 21h251q12 0 17 -7t3 -19l-55 -241q-4 -21 -26 -21h-251z" />
    <glyph glyph-name="quotedbl" unicode="&#x22;" horiz-adv-x="804" 
d="M226 880q-11 0 -17 7t-4 18l75 473q1 10 7.5 16t17.5 6h234q10 0 15.5 -5t5.5 -13q0 -5 -1 -8l-144 -474q-4 -20 -27 -20h-162zM591 880q-11 0 -17 7t-4 18l75 473q1 10 7.5 16t17.5 6h234q10 0 15.5 -5t5.5 -13q0 -5 -1 -8l-144 -474q-4 -20 -27 -20h-162z" />
    <glyph glyph-name="numbersign" unicode="#" horiz-adv-x="1352" 
d="M1457 1124q21 0 21 -17q0 -2 -2 -10l-63 -170q-6 -19 -27 -19h-208l-153 -408h199q21 0 21 -17q0 -2 -2 -10l-70 -171q-6 -18 -27 -18h-202l-99 -265q-6 -19 -27 -19h-231q-10 0 -15.5 4.5t-5.5 12.5q0 2 2 10l96 257h-200l-99 -265q-6 -19 -27 -19h-231q-10 0 -15.5 4.5
t-5.5 12.5q0 2 2 10l96 257h-202q-21 0 -21 17q0 2 2 10l70 171q6 18 27 18h205l153 408h-197q-10 0 -15.5 4.5t-5.5 12.5q0 2 2 10l63 170q6 19 27 19h207l96 257q6 19 27 19h231q21 0 21 -17q0 -2 -2 -10l-93 -249h200l96 257q6 19 27 19h231q21 0 21 -17q0 -2 -2 -10
l-93 -249h198zM698 908l-153 -408h200l153 408h-200z" />
    <glyph glyph-name="dollar" unicode="$" horiz-adv-x="1188" 
d="M918 1400q138 -44 220 -144t85 -246q0 -24 -23 -24h-273q-22 0 -24 24q-4 94 -62.5 143t-153.5 49q-59 0 -109 -19t-80.5 -57t-30.5 -94q0 -53 33.5 -88t84 -56.5t141.5 -50.5q128 -40 209.5 -79t139.5 -118t58 -208q0 -134 -67 -235.5t-184.5 -159t-266.5 -66.5
l-35 -150q-4 -21 -26 -21h-257q-12 0 -17 7t-3 19l43 182q-151 52 -236.5 164.5t-79.5 270.5q0 23 24 23h269q11 0 17 -6.5t5 -17.5q-2 -73 27.5 -128.5t89 -86.5t145.5 -31q66 0 119.5 22.5t85 65t31.5 100.5t-34.5 95.5t-86.5 59.5t-145 51q-125 38 -203.5 75.5
t-134.5 114.5t-56 204q0 125 62 219.5t167 150.5t234 71l27 114q3 21 25 21h257q12 0 17 -7t3 -19z" />
    <glyph glyph-name="percent" unicode="%" horiz-adv-x="1786" 
d="M341 732q-76 34 -120 102t-44 168q0 105 45 200.5t136 156.5t223 61q97 0 172 -34.5t117.5 -104t42.5 -169.5q0 -104 -44 -198.5t-134 -155t-222 -60.5q-96 0 -172 34zM212 0q-9 0 -14.5 4t-5.5 10q0 8 7 15l1216 1358q12 13 29 13h216q9 0 14.5 -4t5.5 -10q0 -8 -7 -15
l-1218 -1358q-12 -13 -29 -13h-214zM613 916.5q36 42.5 50 98t14 99.5q0 65 -28.5 98.5t-75.5 33.5q-60 0 -96.5 -43t-51 -99.5t-14.5 -99.5q0 -65 29 -97.5t77 -32.5q60 0 96 42.5zM1122 13.5q-76 33.5 -120.5 101.5t-44.5 169q0 104 45 200t136.5 157t222.5 61
q97 0 172 -34.5t117.5 -104t42.5 -169.5q0 -105 -43.5 -199.5t-133 -154.5t-221.5 -60q-97 0 -173 33.5zM1393.5 197q36.5 43 51 99.5t14.5 99.5q0 65 -28.5 97.5t-75.5 32.5q-61 0 -97.5 -43t-50.5 -98.5t-14 -98.5q0 -65 28.5 -98.5t75.5 -33.5q60 0 96.5 43z" />
    <glyph glyph-name="ampersand" unicode="&#x26;" horiz-adv-x="1390" 
d="M266 12q-105 38 -172 121.5t-67 212.5q0 122 58 211.5t150 149.5t219 112q-65 135 -65 247q0 110 58 195t157.5 131t220.5 46q106 0 193 -35t138 -102t51 -159q0 -93 -52 -161.5t-133 -116t-203 -98.5l30 -49l146 -240q60 99 93 209q4 20 26 20h225q10 0 15.5 -5t5.5 -14
q0 -6 -1 -9q-36 -115 -96.5 -219t-139.5 -191l147 -240q5 -8 5 -13q0 -7 -5.5 -11t-15.5 -4h-283q-19 0 -28 16l-44 71q-195 -113 -408 -113q-120 0 -225 38zM725 925q113 48 172.5 99t59.5 122q0 57 -37.5 87.5t-94.5 30.5q-53 0 -88 -24.5t-51.5 -62t-16.5 -75.5
q0 -67 56 -177zM793 259l-210 341l-31 50q-107 -56 -165 -122t-58 -158q0 -97 62 -142.5t158 -45.5q126 0 244 77z" />
    <glyph glyph-name="quotesingle" unicode="'" horiz-adv-x="439" 
d="M226 880q-11 0 -17 7t-4 18l75 473q1 10 7.5 16t17.5 6h234q10 0 15.5 -5t5.5 -13q0 -5 -1 -8l-144 -474q-4 -20 -27 -20h-162z" />
    <glyph glyph-name="parenleft" unicode="(" horiz-adv-x="542" 
d="M99 -280q-22 0 -26 20q-59 222 -59 438q0 331 119 657t334 611q11 14 29 14h184q9 0 14.5 -4t5.5 -10q0 -7 -5 -15q-204 -303 -315.5 -632.5t-111.5 -664.5q0 -200 41 -388l1 -6q0 -20 -22 -20h-189z" />
    <glyph glyph-name="parenright" unicode=")" horiz-adv-x="542" 
d="M477 1460q21 0 27 -20q58 -224 58 -438q0 -330 -119 -657t-334 -611q-10 -14 -29 -14h-184q-9 0 -14.5 4t-5.5 10q0 7 5 15q204 303 315.5 632.5t111.5 664.5q0 197 -40 388q-1 3 -1 8q0 8 5.5 13t15.5 5h189z" />
    <glyph glyph-name="asterisk" unicode="*" horiz-adv-x="708" 
d="M384 826q-12 0 -17.5 7t-3.5 18l31 175l-171 -97q-7 -4 -13 -4q-12 0 -19 15l-39 105q-2 8 -2 11q0 14 15 20l165 78l-126 73q-12 8 -12 18q0 9 5 15l92 123q7 11 18 11q6 0 14 -5l131 -93l16 182q1 22 25 22h130q12 0 17.5 -6.5t3.5 -18.5l-30 -179l179 103q7 4 13 4
q14 0 18 -16l35 -108q1 -4 1 -10q0 -14 -14 -21l-172 -84l124 -70q13 -7 13 -18q0 -6 -5 -14l-88 -125q-8 -11 -18 -11q-7 0 -15 6l-127 90l-16 -173q-2 -23 -24 -23h-134z" />
    <glyph glyph-name="plus" unicode="+" horiz-adv-x="1099" 
d="M1059 800q13 0 18.5 -7.5t2.5 -18.5l-40 -175q-4 -21 -25 -21h-333l-88 -377q-4 -21 -25 -21h-183q-12 0 -17.5 7t-2.5 19l86 372h-330q-12 0 -17.5 7.5t-3.5 18.5l40 175q5 21 25 21h338l87 379q5 21 25 21h183q21 0 21 -18q0 -5 -1 -8l-86 -374h326z" />
    <glyph glyph-name="comma" unicode="," horiz-adv-x="425" 
d="M-130 -234q-19 0 -19 15q0 5 3 13l107 214l60 257q5 21 25 21h237q21 0 21 -18q0 -5 -1 -8l-54 -235q-4 -16 -14 -26l-216 -221q-11 -12 -29 -12h-120z" />
    <glyph glyph-name="hyphen" unicode="-" horiz-adv-x="525" 
d="M42 492q-12 0 -17.5 7t-2.5 19l37 161q5 21 25 21h433q21 0 21 -18q0 -5 -1 -8l-37 -161q-4 -21 -25 -21h-433z" />
    <glyph glyph-name="hyphen" unicode="&#x2011;" horiz-adv-x="525" 
d="M42 492q-12 0 -17.5 7t-2.5 19l37 161q5 21 25 21h433q21 0 21 -18q0 -5 -1 -8l-37 -161q-4 -21 -25 -21h-433z" />
    <glyph glyph-name="hyphen" unicode="&#x2010;" horiz-adv-x="525" 
d="M42 492q-12 0 -17.5 7t-2.5 19l37 161q5 21 25 21h433q21 0 21 -18q0 -5 -1 -8l-37 -161q-4 -21 -25 -21h-433z" />
    <glyph glyph-name="hyphen" unicode="&#xad;" horiz-adv-x="525" 
d="M42 492q-12 0 -17.5 7t-2.5 19l37 161q5 21 25 21h433q21 0 21 -18q0 -5 -1 -8l-37 -161q-4 -21 -25 -21h-433z" />
    <glyph glyph-name="period" unicode="." horiz-adv-x="441" 
d="M-26 0q-21 0 -21 18q0 5 1 8l55 239q5 21 25 21h265q21 0 21 -18q0 -5 -1 -8l-55 -239q-4 -21 -25 -21h-265z" />
    <glyph glyph-name="slash" unicode="/" horiz-adv-x="734" 
d="M-127 -340q-10 0 -15.5 4.5t-5.5 12.5q0 5 3 11l805 1695q7 17 27 17h180q10 0 15.5 -4.5t5.5 -12.5q0 -5 -3 -11l-805 -1695q-7 -17 -27 -17h-180z" />
    <glyph glyph-name="zero" unicode="0" horiz-adv-x="1211" 
d="M287.5 39q-107.5 69 -163 194t-55.5 289q0 196 74 407t227 356t377 145q152 0 260 -69.5t164 -194t56 -288.5q0 -196 -73.5 -407t-227 -356t-379.5 -145q-152 0 -259.5 69zM766.5 329q81.5 125 119 292t37.5 291q0 135 -46.5 210.5t-139.5 75.5q-124 0 -206 -124.5
t-120 -291.5t-38 -292q0 -137 48 -211.5t140 -74.5q124 0 205.5 125z" />
    <glyph glyph-name="one" unicode="1" horiz-adv-x="799" 
d="M263 0q-12 0 -18 7t-3 19l171 674l76 365q-124 -96 -313 -152q-3 -1 -9 -1q-15 0 -15 15q0 6 1 9l42 182q4 18 23 24q218 73 351 244q11 14 29 14h248q12 0 18 -7t3 -19l-171 -674l-142 -679q-4 -21 -26 -21h-265z" />
    <glyph glyph-name="two" unicode="2" horiz-adv-x="1087" 
d="M-40 0q-12 0 -17 7t-3 19l48 206q38 165 127.5 270.5t191.5 161t254 113.5q110 43 168.5 72.5t97.5 75.5t39 115q0 85 -52 126.5t-132 41.5q-203 0 -243 -263q-3 -23 -25 -23h-227q-11 0 -17 6.5t-5 18.5q29 239 168 360t365 123q130 0 231 -40t160 -124t59 -210
q0 -134 -66 -226.5t-160.5 -148t-247.5 -123.5q-114 -50 -181.5 -86t-118.5 -86t-66 -116l-10 -44h636q12 0 17 -7t3 -19l-41 -179q-4 -21 -26 -21h-927z" />
    <glyph glyph-name="three" unicode="3" horiz-adv-x="1111" 
d="M255.5 19q-110.5 49 -170.5 142.5t-60 223.5q0 15 2 47q1 22 24 22h243q11 0 17 -6.5t5 -17.5q-1 -8 -1 -24q0 -96 53.5 -153t156.5 -57q82 0 137 34.5t81 90t26 119.5q0 88 -55 141t-155 53h-113q-13 0 -18.5 7t-2.5 19l38 157q6 21 26 21h118q58 0 117.5 16t103 60.5
t43.5 121.5q0 84 -51 126t-133 42q-181 0 -228 -206q-4 -22 -26 -22h-236q-12 0 -18 7t-4 19q44 214 183 321t343 107q132 0 236.5 -43.5t164 -124t59.5 -188.5q0 -82 -33.5 -152.5t-98.5 -121.5t-158 -72q96 -45 147 -124t51 -184q0 -126 -68 -229t-193.5 -162t-292.5 -59
q-149 0 -259.5 49z" />
    <glyph glyph-name="four" unicode="4" horiz-adv-x="1163" 
d="M1155 1400q21 0 21 -18q0 -5 -1 -8l-191 -830h127q12 0 17.5 -7t2.5 -19l-41 -179q-4 -21 -25 -21h-133l-70 -299q-4 -21 -25 -21h-257q-12 0 -17.5 7.5t-2.5 18.5l67 294h-599q-12 0 -17.5 7.5t-3.5 18.5l49 217q4 16 14 27l698 799q10 13 29 13h358zM760 896l66 246
l-512 -598h365z" />
    <glyph glyph-name="five" unicode="5" horiz-adv-x="1145" 
d="M253 18q-110 48 -170.5 140.5t-53.5 219.5q2 22 25 22h243q22 0 22 -29q0 -82 50 -132.5t136 -50.5q93 0 157 58t94.5 143.5t30.5 166.5q0 104 -50 159t-140 55q-146 0 -223 -149q-9 -17 -28 -17h-217q-12 0 -17.5 7t-2.5 19l228 750q6 20 27 20h829q12 0 17 -7t3 -19
l-41 -179q-4 -21 -26 -21h-597l-84 -274q107 88 244 88q112 0 201.5 -47t142 -140.5t52.5 -226.5q0 -154 -69 -292.5t-205 -225t-328 -86.5q-140 0 -250 48z" />
    <glyph glyph-name="six" unicode="6" horiz-adv-x="1179" 
d="M300 34q-111 64 -169 187t-58 299q0 144 36 294q64 278 220.5 447t419.5 169q133 0 233.5 -46t158 -131.5t62.5 -202.5q0 -24 -23 -24h-243q-22 0 -25 24q-6 72 -51.5 117t-125.5 45q-121 0 -197.5 -104t-110.5 -280q58 49 132 74.5t156 25.5q117 0 214 -48.5t153.5 -141
t56.5 -218.5q0 -136 -65 -262.5t-194 -207t-311 -80.5q-158 0 -269 64zM708 241q58 45 87.5 115t29.5 144q0 106 -56 162t-146 56q-94 0 -158 -57t-86 -151q-10 -50 -10 -88q0 -106 54 -166t146 -60q81 0 139 45z" />
    <glyph glyph-name="seven" unicode="7" horiz-adv-x="971" 
d="M153 -2q-21 0 -21 17q0 2 2 10q126 324 289 622.5t347 526.5h-566q-12 0 -17.5 7.5t-2.5 18.5l41 179q4 21 25 21h877q21 0 21 -18q0 -5 -1 -8l-44 -191q-4 -15 -12 -27q-206 -278 -369 -559t-275 -580q-9 -19 -27 -19h-267z" />
    <glyph glyph-name="eight" unicode="8" horiz-adv-x="1165" 
d="M262.5 19.5q-119.5 49.5 -185.5 139.5t-66 209q0 97 44.5 181.5t123.5 142t178 78.5q-72 35 -111 103t-39 147q0 97 56.5 191.5t172.5 156.5t283 62q135 0 243.5 -44t170.5 -126.5t62 -193.5q0 -74 -32 -142.5t-97.5 -121t-160.5 -78.5q100 -46 149 -125t49 -179
q0 -131 -72 -233.5t-200.5 -159.5t-293.5 -57q-155 0 -274.5 49.5zM801 862.5q47 30.5 70.5 79.5t23.5 102q0 80 -50 127t-130 47q-63 0 -112 -30.5t-75.5 -79.5t-26.5 -104q0 -79 50.5 -125.5t135.5 -46.5q67 0 114 30.5zM680 222.5q56 34.5 84.5 89.5t28.5 116t-29 105
t-78.5 66.5t-110.5 22.5q-80 0 -137 -35t-86 -90.5t-29 -116.5q0 -62 30 -105t80.5 -65t111.5 -22q79 0 135 34.5z" />
    <glyph glyph-name="nine" unicode="9" horiz-adv-x="1177" 
d="M281 16q-101 46 -158 132t-62 203q0 23 24 23h243q21 0 24 -23q6 -72 51.5 -117.5t125.5 -45.5q121 0 197.5 104t110.5 280q-58 -49 -132 -74.5t-156 -25.5q-117 0 -214 48.5t-153.5 141t-56.5 218.5q0 136 65 262.5t194 207t311 80.5q158 0 269 -64t169 -187t58 -299
q0 -144 -36 -294q-64 -278 -220.5 -447t-419.5 -169q-133 0 -234 46zM799 739q64 57 86 151q10 50 10 88q0 106 -54 166t-146 60q-81 0 -139 -45t-87.5 -115t-29.5 -144q0 -105 56.5 -161.5t145.5 -56.5q94 0 158 57z" />
    <glyph glyph-name="colon" unicode=":" horiz-adv-x="445" 
d="M150 744q-21 0 -21 18q0 5 1 8l55 239q5 21 25 21h265q21 0 21 -18q0 -5 -1 -8l-55 -239q-4 -21 -25 -21h-265zM-26 0q-21 0 -21 18q0 5 1 8l55 239q5 21 25 21h265q21 0 21 -18q0 -5 -1 -8l-55 -239q-4 -21 -25 -21h-265z" />
    <glyph glyph-name="semicolon" unicode=";" horiz-adv-x="445" 
d="M146 744q-21 0 -21 18q0 5 1 8l55 239q5 21 25 21h265q21 0 21 -18q0 -5 -1 -8l-55 -239q-4 -21 -25 -21h-265zM-130 -234q-19 0 -19 15q0 5 3 13l107 214l60 257q5 21 25 21h237q21 0 21 -18q0 -5 -1 -8l-54 -235q-4 -16 -14 -26l-216 -221q-11 -12 -29 -12h-120z" />
    <glyph glyph-name="less" unicode="&#x3c;" horiz-adv-x="1099" 
d="M114 569q-18 9 -14 30l41 183q5 20 21 25l989 400q6 3 11 3q14 0 14 -15q0 -6 -1 -9l-45 -196q-5 -18 -22 -24l-761 -292l621 -291q18 -8 15 -30l-40 -169q-1 -8 -6 -12.5t-11 -4.5t-12 3z" />
    <glyph glyph-name="equal" unicode="=" horiz-adv-x="1099" 
d="M182 838q-12 0 -17.5 7.5t-3.5 18.5l40 175q5 21 25 21h893q13 0 18.5 -7.5t2.5 -18.5l-40 -175q-4 -21 -25 -21h-893zM62 318q-12 0 -17.5 7.5t-3.5 18.5l40 175q5 21 25 21h893q13 0 18.5 -7.5t2.5 -18.5l-40 -175q-4 -21 -25 -21h-893z" />
    <glyph glyph-name="greater" unicode="&#x3e;" horiz-adv-x="1099" 
d="M29 171q-4 -2 -11 -2q-14 0 -14 14q0 6 1 9l43 192q5 19 21 24l763 294l-623 291q-18 8 -14 30l42 171q5 17 19 17q5 0 11 -3l800 -399q18 -9 14 -30l-42 -183q-3 -19 -20 -25z" />
    <glyph glyph-name="question" unicode="?" horiz-adv-x="1037" 
d="M366 406q-10 0 -15.5 5t-5.5 14q0 5 1 8q24 99 71.5 173.5t101 123t132.5 108.5q60 44 93 73.5t54.5 66t21.5 80.5q0 70 -50 108t-130 38q-185 0 -224 -200q-4 -22 -26 -22h-238q-12 0 -17.5 7t-3.5 18q40 212 175 317.5t348 105.5q131 0 236.5 -40t166.5 -120.5
t61 -197.5q0 -84 -32 -148t-79 -108t-126 -104q-67 -51 -108.5 -87.5t-76.5 -86t-51 -111.5q-6 -21 -26 -21h-253zM270 0q-12 0 -17 7t-3 19l56 241q3 21 25 21h263q12 0 17 -7t3 -19l-55 -241q-4 -21 -26 -21h-263z" />
    <glyph glyph-name="at" unicode="@" horiz-adv-x="1677" 
d="M1312 1296q161 -84 252.5 -241.5t91.5 -370.5q0 -155 -47.5 -303.5t-139 -243.5t-215.5 -95q-98 0 -173 42t-94 117q-59 -74 -135.5 -115.5t-171.5 -41.5q-100 0 -175 47.5t-116 134.5t-41 202q0 133 54.5 268t163.5 224.5t262 89.5q96 0 164.5 -36.5t106.5 -104.5
l22 102q4 21 25 21h225q13 0 18.5 -7.5t2.5 -18.5l-140 -620q-1 -3 -6.5 -24.5t-5.5 -47.5q0 -41 19 -62.5t55 -21.5q51 -3 94 78.5t68.5 202t25.5 223.5q0 168 -72.5 291t-201 188t-294.5 65q-231 0 -399.5 -122t-255.5 -316.5t-87 -407.5q0 -187 69 -325t197.5 -211.5
t303.5 -73.5q233 0 412 139q13 10 31 9l132 -14q10 -1 15.5 -5t5.5 -10t-7 -13q-117 -118 -269 -183t-332 -65q-212 0 -374.5 89.5t-253 257t-90.5 393.5q0 253 112.5 483.5t321 373.5t480.5 143q205 0 366 -84zM928 284q61 68 90.5 164.5t29.5 181.5q0 99 -44.5 152.5
t-123.5 53.5q-92 0 -151.5 -67t-86 -160.5t-26.5 -174.5q0 -98 42 -158t122 -60q87 0 148 68z" />
    <glyph glyph-name="A" unicode="A" horiz-adv-x="1351" 
d="M1241 25q1 -12 -5 -18.5t-18 -6.5h-248q-23 0 -24 23l-29 333h-526l-182 -340q-11 -16 -28 -16h-277q-10 0 -15 4t-5 11q0 6 4 13l785 1356q8 16 28 16h368q24 0 25 -22zM895 598l-53 598l-321 -598h374z" />
    <glyph glyph-name="B" unicode="B" horiz-adv-x="1278" 
d="M-6 0q-10 0 -15.5 5t-5.5 13q0 5 1 8l171 674l142 679q4 21 26 21h586q233 0 333.5 -89.5t100.5 -232.5q0 -134 -79 -224t-227 -126q103 -37 151.5 -105.5t48.5 -170.5q0 -128 -69.5 -230.5t-206 -162t-330.5 -59.5h-627zM799 836q111 0 167.5 56t56.5 146
q0 150 -162 150h-304l-93 -352h335zM659 212q130 0 197 66t67 174q0 172 -192 172h-317l-83 -412h328z" />
    <glyph glyph-name="C" unicode="C" horiz-adv-x="1407" 
d="M375.5 43q-141.5 73 -221 213t-79.5 336q0 210 93.5 403t271.5 314t419 121q168 0 295 -61.5t200.5 -175t83.5 -267.5q1 -11 -5.5 -17.5t-18.5 -6.5h-247q-21 0 -24 23q-13 132 -92.5 201.5t-207.5 69.5q-156 0 -258.5 -98t-149 -239.5t-46.5 -274.5q0 -189 88.5 -284.5
t241.5 -95.5q129 0 218.5 71.5t136.5 208.5q7 20 27 20h254q21 0 21 -17q0 -5 -1 -8q-45 -157 -138 -271.5t-229 -176t-307 -61.5q-184 0 -325.5 73z" />
    <glyph glyph-name="D" unicode="D" horiz-adv-x="1390" 
d="M-6 0q-10 0 -15.5 5t-5.5 13q0 5 1 8l171 674l142 679q4 21 26 21h451q186 0 331.5 -69.5t228 -202.5t82.5 -316q0 -204 -97 -391t-280 -304t-427 -117h-608zM614 226q163 0 270.5 94.5t157.5 231.5t50 268q0 116 -42.5 195.5t-119 119t-178.5 39.5h-197l-123 -468
l-97 -480h279z" />
    <glyph glyph-name="E" unicode="E" horiz-adv-x="1136" 
d="M-6 0q-10 0 -15.5 5t-5.5 13q0 5 1 8l171 674l142 679q4 21 26 21h935q12 0 17 -7t3 -19l-41 -179q-4 -21 -26 -21h-647l-88 -322h596q12 0 17 -7t3 -19l-41 -179q-4 -21 -26 -21h-601l-80 -400h658q12 0 17 -7t3 -19l-41 -179q-4 -21 -26 -21h-951z" />
    <glyph glyph-name="F" unicode="F" horiz-adv-x="1073" 
d="M-6 0q-10 0 -15.5 5t-5.5 13q0 5 1 8l171 674l142 679q4 21 26 21h905q12 0 17 -7t3 -19l-41 -179q-4 -21 -26 -21h-616l-103 -384h596q12 0 17 -7t3 -19l-41 -179q-4 -21 -26 -21h-601l-113 -543q-4 -21 -26 -21h-267z" />
    <glyph glyph-name="G" unicode="G" horiz-adv-x="1454" 
d="M366 46.5q-141 76.5 -216 217t-75 328.5q0 217 95.5 409.5t275.5 310.5t421 118q163 0 290.5 -56.5t203.5 -160t88 -242.5q1 -12 -5 -18.5t-18 -6.5h-252q-21 0 -25 22q-21 111 -100 170.5t-198 59.5q-156 0 -260 -95t-153 -236t-49 -281q0 -190 88 -287t240 -97
q147 0 246.5 89t141.5 243h-360q-12 0 -17.5 7.5t-2.5 18.5l41 179q5 21 25 21h642q12 0 17.5 -8.5t3.5 -23.5q-36 -244 -138 -414t-259 -257t-358 -87q-192 0 -333 76.5z" />
    <glyph glyph-name="H" unicode="H" horiz-adv-x="1398" 
d="M1490 1400q10 0 15.5 -5t5.5 -13q0 -5 -1 -8l-172 -674l-141 -679q-4 -21 -26 -21h-268q-13 0 -18.5 7t-2.5 19l153 608h-615l-131 -613q-4 -21 -26 -21h-269q-10 0 -15.5 5t-5.5 13q0 5 1 8l171 674l142 679q4 21 26 21h269q12 0 17.5 -7t2.5 -19l-128 -514h612l109 519
q4 21 26 21h269z" />
    <glyph glyph-name="I" unicode="I" horiz-adv-x="505" 
d="M5 0q-10 0 -16 5t-6 13q0 5 1 8l171 674l142 679q4 21 26 21h265q10 0 15.5 -5t5.5 -13q0 -5 -1 -8l-170 -674l-143 -679q-4 -21 -26 -21h-264z" />
    <glyph glyph-name="J" unicode="J" horiz-adv-x="1070" 
d="M203.5 17.5q-95.5 47.5 -145 137t-49.5 212.5q0 48 10 113q3 22 25 22h250q13 0 18.5 -7t3.5 -19q-9 -52 -9 -95q0 -173 146 -173q54 0 94.5 26.5t73 89.5t59.5 172l81 327l116 556q4 21 26 21h275q12 0 18 -7t3 -19l-140 -551l-74 -329q-61 -273 -197.5 -398.5
t-352.5 -125.5q-136 0 -231.5 47.5z" />
    <glyph glyph-name="K" unicode="K" horiz-adv-x="1265" 
d="M287 1379q4 21 26 21h265q10 0 15.5 -5t5.5 -13q0 -5 -1 -8l-132 -534l520 548q11 12 29 12h331q20 0 20 -13q0 -7 -9 -16l-576 -548l366 -795q3 -6 3 -12q0 -7 -5.5 -11.5t-15.5 -4.5h-295q-19 0 -28 18l-254 586l-177 -171l-90 -412q-4 -21 -26 -21h-265q-10 0 -15.5 5
t-5.5 13q0 5 1 8l169 674z" />
    <glyph glyph-name="L" unicode="L" horiz-adv-x="992" 
d="M-6 0q-10 0 -15.5 5t-5.5 13q0 5 1 8l171 674l142 679q4 21 26 21h267q12 0 17.5 -7t2.5 -19l-164 -656l-101 -492h557q12 0 17 -7t3 -19l-41 -179q-4 -21 -26 -21h-851z" />
    <glyph glyph-name="M" unicode="M" horiz-adv-x="1703" 
d="M-6 0q-12 0 -17.5 7t-2.5 19l169 674l144 679q4 21 26 21h335q22 0 25 -22l139 -1002l587 1008q8 16 28 16h369q12 0 17.5 -7t2.5 -19l-168 -674l-145 -679q-4 -21 -26 -21h-261q-12 0 -17 7t-3 19l96 416l120 480l16 60l-565 -966q-9 -16 -28 -16h-199q-22 0 -25 22
l-141 1010l-22 -114l-100 -476l-97 -421q-4 -21 -26 -21h-231z" />
    <glyph glyph-name="N" unicode="N" horiz-adv-x="1391" 
d="M-6 0q-12 0 -17.5 7t-2.5 19l169 674l144 679q4 21 26 21h311q20 0 27 -19l347 -993l100 476l120 515q3 21 25 21h241q12 0 17.5 -7t2.5 -19l-168 -674l-145 -679q-4 -21 -26 -21h-323q-20 0 -26 19l-342 987l-110 -538l-103 -447q-4 -21 -26 -21h-241z" />
    <glyph glyph-name="O" unicode="O" horiz-adv-x="1507" 
d="M384 43q-146 73 -228.5 212.5t-82.5 332.5q0 211 97 405.5t280.5 315.5t428.5 121q186 0 331.5 -73t228 -212.5t82.5 -332.5q0 -211 -97 -405.5t-280 -315.5t-427 -121q-187 0 -333 73zM999.5 302q107.5 98 157.5 240.5t50 277.5q0 123 -42.5 207.5t-119 126.5t-178.5 42
q-164 0 -272 -98t-158 -240.5t-50 -277.5q0 -123 43 -207.5t119.5 -126.5t179.5 -42q163 0 270.5 98z" />
    <glyph glyph-name="P" unicode="P" horiz-adv-x="1209" 
d="M784 1400q253 0 373.5 -108t120.5 -294q0 -151 -74 -266.5t-215 -180.5t-337 -65h-266l-99 -465q-4 -21 -26 -21h-267q-10 0 -15.5 5t-5.5 13q0 5 1 8l169 674l144 679q4 21 26 21h471zM902.5 783q75.5 75 75.5 197q0 93 -50 145.5t-166 52.5h-210l-118 -470h242
q151 0 226.5 75z" />
    <glyph glyph-name="Q" unicode="Q" horiz-adv-x="1516" 
d="M1407 234q12 0 17 -7t3 -19l-43 -187q-4 -21 -26 -21h-417q-109 -30 -224 -30q-187 0 -333 73t-228.5 212.5t-82.5 332.5q0 211 97 405.5t280.5 315.5t428.5 121q186 0 331.5 -73t228 -212.5t82.5 -332.5q0 -158 -55.5 -309.5t-159.5 -270.5l41 2h60zM430 372.5
q43 -84.5 119.5 -126.5t179.5 -42q163 0 270.5 98t157.5 240.5t50 277.5q0 123 -42.5 207.5t-119 126.5t-178.5 42q-164 0 -272 -98t-158 -240.5t-50 -277.5q0 -123 43 -207.5z" />
    <glyph glyph-name="R" unicode="R" horiz-adv-x="1284" 
d="M1216.5 716q-101.5 -123 -290.5 -170l216 -519q3 -6 3 -11q0 -7 -5.5 -11.5t-15.5 -4.5h-304q-21 0 -27 19l-109 293l-89 208h-202l-106 -499q-4 -21 -26 -21h-267q-10 0 -15.5 5t-5.5 13q0 5 1 8l169 674l144 679q4 21 26 21h535q240 0 355 -104t115 -282
q0 -175 -101.5 -298zM820 1178h-268l-110 -436h296q140 0 210 69.5t70 182.5q0 184 -198 184z" />
    <glyph glyph-name="S" unicode="S" horiz-adv-x="1293" 
d="M310.5 23q-143.5 55 -224.5 163.5t-75 262.5q2 23 25 23h272q22 0 24 -23q9 -120 84.5 -185.5t224.5 -65.5q100 0 162 29t89 71t27 84q0 56 -40 92.5t-100.5 58.5t-168.5 51q-145 38 -236 75.5t-156 112t-65 196.5q0 125 67.5 230t205 168.5t335.5 63.5q158 0 284 -43.5
t201 -137.5t75 -239q1 -12 -5.5 -18t-17.5 -6h-274q-22 0 -25 23q-9 93 -73.5 142t-184.5 49q-80 0 -141.5 -21t-95 -60t-33.5 -89q0 -52 39.5 -86t99 -55.5t164.5 -49.5q149 -41 242 -79t160 -113t67 -197q0 -127 -70 -237t-208.5 -177.5t-333.5 -67.5q-177 0 -320.5 55z
" />
    <glyph glyph-name="T" unicode="T" horiz-adv-x="1155" 
d="M324 0q-21 0 -21 17q0 6 1 9l174 674l95 474h-376q-12 0 -17 7t-3 19l42 179q3 21 25 21h1073q12 0 17 -7t3 -19l-41 -179q-4 -21 -26 -21h-380l-125 -474l-139 -679q-4 -21 -26 -21h-276z" />
    <glyph glyph-name="U" unicode="U" horiz-adv-x="1281" 
d="M302.5 23q-114.5 53 -174 150.5t-59.5 230.5q0 76 19 158l80 338l102 479q4 21 26 21h271q12 0 17.5 -7t2.5 -19l-118 -466l-81 -350q-15 -64 -15 -121q0 -107 58 -166t174 -59q124 0 202.5 73t114.5 227l90 390l99 477q4 21 26 21h251q12 0 17.5 -7t2.5 -19l-119 -474
l-90 -390q-63 -272 -213.5 -406t-408.5 -134q-160 0 -274.5 53z" />
    <glyph glyph-name="V" unicode="V" horiz-adv-x="1287" 
d="M198 1376v5q0 19 22 19h270q22 0 24 -23l65 -1161l595 1167q9 17 28 17h269q10 0 15.5 -4.5t5.5 -11.5t-4 -12l-750 -1356q-10 -16 -28 -16h-356q-22 0 -25 23z" />
    <glyph glyph-name="W" unicode="W" horiz-adv-x="1844" 
d="M235 0q-11 0 -17 6.5t-6 17.5l-4 1353q0 23 23 23h247q23 0 23 -23l-41 -1117l468 1122q9 18 27 18h310q24 0 24 -24l-45 -1140l486 1146q9 18 27 18h260q10 0 15.5 -4.5t5.5 -12.5q0 -5 -3 -11l-639 -1355q-8 -17 -27 -17h-326q-11 0 -17 6.5t-6 17.5l-2 954l-420 -960
q-9 -18 -28 -18h-335z" />
    <glyph glyph-name="X" unicode="X" horiz-adv-x="1265" 
d="M-91 0q-9 0 -14.5 4t-5.5 10q0 8 7 15l617 713l-272 631q-3 6 -3 11q0 7 5.5 11.5t15.5 4.5h296q21 0 27 -18l161 -414l321 418q12 14 29 14h310q9 0 14.5 -4t5.5 -10q0 -8 -7 -15l-565 -653l292 -691q3 -6 3 -11q0 -7 -5.5 -11.5t-15.5 -4.5h-294q-21 0 -27 19l-179 481
l-377 -485q-10 -15 -29 -15h-310z" />
    <glyph glyph-name="Y" unicode="Y" horiz-adv-x="1230" 
d="M201 1374q-1 3 -1 9q0 17 21 17h277q21 0 25 -21l148 -625l428 631q11 15 28 15h286q9 0 14.5 -4t5.5 -10q0 -7 -6 -15l-674 -891l-94 -459q-4 -21 -26 -21h-269q-21 0 -21 17q0 6 1 9l119 454z" />
    <glyph glyph-name="Z" unicode="Z" horiz-adv-x="1181" 
d="M-55 0q-12 0 -17.5 7t-2.5 19l48 207q4 15 15 26l941 915h-658q-12 0 -17.5 7.5t-2.5 18.5l41 179q5 21 25 21h1005q12 0 17.5 -7t2.5 -19l-50 -215q-4 -15 -15 -26l-930 -907h705q12 0 17.5 -7t2.5 -19l-41 -179q-4 -21 -25 -21h-1061z" />
    <glyph glyph-name="bracketleft" unicode="[" horiz-adv-x="580" 
d="M-98 -280q-12 0 -17 7t-3 19l392 1693q3 21 25 21h412q12 0 18 -7t3 -19l-43 -179q-6 -21 -26 -21h-179l-296 -1288h174q12 0 17 -7t3 -19l-41 -179q-4 -21 -26 -21h-413z" />
    <glyph glyph-name="backslash" unicode="\" horiz-adv-x="585" 
d="M223 -340q-10 0 -16.5 6t-6.5 17l-22 1694q0 23 23 23h161q11 0 17.5 -6t6.5 -17l22 -1694q0 -23 -24 -23h-161z" />
    <glyph glyph-name="bracketright" unicode="]" horiz-adv-x="582" 
d="M-96 -280q-12 0 -17 7t-3 19l41 179q4 21 26 21h179l296 1288h-173q-12 0 -17.5 7t-3.5 19l44 179q4 21 25 21h413q12 0 17 -7t3 -19l-391 -1693q-4 -21 -26 -21h-413z" />
    <glyph glyph-name="asciicircum" unicode="^" horiz-adv-x="1120" 
d="M52 460q-10 0 -15 4t-5 11q0 8 5 14l609 896q11 15 28 15h183q22 0 26 -21l192 -893l1 -6q0 -9 -6 -14.5t-16 -5.5h-166q-23 0 -26 21l-134 687l-452 -693q-9 -15 -28 -15h-196z" />
    <glyph glyph-name="underscore" unicode="_" horiz-adv-x="847" 
d="M-138 -340q-12 0 -17 7t-3 19l37 161q4 21 26 21h733q12 0 17 -7t3 -19l-37 -161q-4 -21 -26 -21h-733z" />
    <glyph glyph-name="grave" unicode="`" horiz-adv-x="807" 
d="M786 1138q-6 -17 -22 -17q-5 0 -8 1l-471 139q-17 5 -17 20q0 2 2 10l61 174q6 16 19 16q6 0 12 -3l449 -203q15 -6 15 -20q0 -4 -2 -10z" />
    <glyph glyph-name="a" unicode="a" horiz-adv-x="1150" 
d="M1172 1030q12 0 18 -7t3 -19l-122 -496l-105 -487q-4 -21 -26 -21h-246q-21 0 -21 17q0 6 1 9l14 55q-120 -99 -278 -99q-116 0 -201 52.5t-130 148.5t-45 223q0 148 60 296.5t180 247t290 98.5q104 0 180 -38t121 -110l23 109q4 21 26 21h258zM675.5 254
q64.5 74 96.5 179t32 195q0 109 -47 165.5t-135 56.5q-100 0 -163.5 -72.5t-92 -173.5t-28.5 -188q0 -107 46 -171.5t134 -64.5q93 0 157.5 74z" />
    <glyph glyph-name="b" unicode="b" horiz-adv-x="1157" 
d="M948 995.5q85 -52.5 130 -148.5t45 -223q0 -148 -60 -296.5t-180 -247t-290 -98.5q-107 0 -185 41t-122 118l-23 -120q-4 -21 -25 -21h-259q-12 0 -18 7t-3 19l170 685l144 668q3 21 26 21h258q12 0 18 -7t3 -19l-102 -420q117 94 272 94q116 0 201 -52.5zM698.5 252.5
q63.5 72.5 92 173.5t28.5 188q0 107 -46 171.5t-134 64.5q-93 0 -157.5 -74t-96.5 -179t-32 -195q0 -109 47 -165.5t135 -56.5q100 0 163.5 72.5z" />
    <glyph glyph-name="c" unicode="c" horiz-adv-x="1092" 
d="M268 27.5q-108 53.5 -168 158t-60 252.5q0 158 70 299.5t204.5 229t317.5 87.5q129 0 228 -46t154.5 -131t59.5 -199q0 -24 -23 -24h-238q-22 0 -24 24q-6 84 -54 129t-123 45q-88 0 -148.5 -66t-90 -164t-29.5 -196q0 -125 48 -187.5t134 -62.5q81 0 139 50t86 142
q4 20 26 20h238q12 0 18 -6.5t3 -17.5q-31 -120 -102 -207.5t-177 -135t-239 -47.5q-142 0 -250 53.5z" />
    <glyph glyph-name="d" unicode="d" horiz-adv-x="1161" 
d="M1254 1400q12 0 18 -7t3 -19l-177 -734l-136 -619q-4 -21 -25 -21h-242q-21 0 -21 17q0 6 1 9l15 57q-121 -101 -280 -101q-116 0 -201 52.5t-130 148.5t-45 223q0 148 60 296.5t180 247t290 98.5q104 0 179.5 -38t120.5 -109l106 478q3 21 25 21h259zM675.5 254
q64.5 74 96.5 179t32 195q0 109 -47 165.5t-133 56.5q-101 0 -165 -72.5t-92.5 -173.5t-28.5 -188q0 -107 46 -171.5t134 -64.5q93 0 157.5 74z" />
    <glyph glyph-name="e" unicode="e" horiz-adv-x="1128" 
d="M876 999q105 -55 162 -155t57 -229q0 -69 -16 -140q-4 -21 -26 -21h-719v-30q0 -124 54.5 -187t151.5 -63q81 0 136.5 41.5t83.5 120.5q6 20 27 20h236q12 0 18 -6.5t3 -16.5q-45 -168 -178.5 -262.5t-331.5 -94.5q-145 0 -257 53.5t-174.5 157.5t-62.5 251
q0 159 71 300.5t205 228.5t314 87q141 0 246 -55zM798 644q1 9 1 27q0 83 -49.5 135t-137.5 52q-93 0 -155.5 -56.5t-93.5 -157.5h435z" />
    <glyph glyph-name="f" unicode="f" horiz-adv-x="791" 
d="M938.5 1395.5q4.5 -7.5 2.5 -18.5l-39 -163q-4 -18 -21 -18q-5 0 -8 1q-40 9 -107 9q-53 0 -89 -31t-53 -105l-9 -40h218q12 0 18 -7t3 -19l-39 -165q-4 -21 -26 -21h-223l-85 -364l-88 -433q-4 -21 -26 -21h-270q-12 0 -17.5 7t-3.5 19l109 428l86 364h-130
q-12 0 -17.5 7t-3.5 19l40 165q3 21 25 21h135l16 68q26 111 89 183.5t146.5 105.5t174.5 33q79 0 177 -16q11 -1 15.5 -8.5z" />
    <glyph glyph-name="g" unicode="g" horiz-adv-x="1160" 
d="M1180 1030q12 0 17.5 -7t2.5 -19l-122 -504l-103 -472q-48 -216 -187.5 -322t-363.5 -106q-142 0 -249.5 44.5t-167 122.5t-63.5 177q-2 24 23 24h254q21 0 24 -24q5 -70 57.5 -109t135.5 -39q101 0 159 56.5t87 179.5l17 73q-120 -99 -279 -99q-117 0 -203 51.5
t-131.5 144.5t-45.5 216q0 145 59 291t178.5 242.5t288.5 96.5q107 0 185 -38.5t123 -111.5l22 111q5 21 26 21h256zM685.5 276q63.5 72 95 174.5t31.5 189.5q0 103 -48.5 156.5t-137.5 53.5q-98 0 -161 -70.5t-91 -168.5t-28 -183q0 -101 47 -162.5t137 -61.5
q92 0 155.5 72z" />
    <glyph glyph-name="h" unicode="h" horiz-adv-x="1122" 
d="M-21 0q-12 0 -18 7t-3 19l118 468l196 885q4 21 25 21h253q12 0 17.5 -7t3.5 -19l-118 -476q62 70 149 113t187 43q88 0 157 -34.5t108 -101.5t39 -162q0 -56 -15 -122l-46 -196l-89 -417q-4 -21 -26 -21h-258q-10 0 -16 5t-6 13q0 5 1 8l96 378l45 212q8 36 8 74
q0 70 -33.5 107t-98.5 37q-72 0 -129 -47t-95 -119.5t-57 -153.5l-28 -114l-77 -379q-4 -21 -26 -21h-264z" />
    <glyph glyph-name="i" unicode="i" horiz-adv-x="469" 
d="M-12 0q-12 0 -18 7t-3 19l122 488l106 495q3 21 26 21h261q12 0 18 -7t3 -19l-124 -490l-103 -493q-4 -21 -26 -21h-262zM252 1130q-12 0 -17.5 7t-3.5 19l54 223q4 21 25 21h256q12 0 18 -7t3 -19l-53 -223q-6 -21 -26 -21h-256z" />
    <glyph glyph-name="j" unicode="j" horiz-adv-x="468" 
d="M-91 -340q-12 0 -17.5 7t-2.5 19l164 668l141 655q4 21 26 21h262q12 0 17.5 -7t2.5 -19l-159 -650l-146 -673q-4 -21 -26 -21h-262zM252 1130q-12 0 -17.5 7t-3.5 19l54 223q4 21 25 21h256q12 0 18 -7t3 -19l-53 -223q-6 -21 -26 -21h-256z" />
    <glyph glyph-name="k" unicode="k" horiz-adv-x="1033" 
d="M1080 1030q10 0 15 -3.5t5 -8.5q0 -8 -9 -17l-384 -342l220 -632l2 -9q0 -8 -5.5 -13t-15.5 -5h-260q-20 0 -26 20l-56 196l-86 257l-158 -153l-64 -299q-4 -21 -26 -21h-254q-12 0 -18 7t-3 19l168 674l145 679q3 21 26 21h254q12 0 17.5 -7t2.5 -19l-167 -672l-3 -13
l342 329q12 12 29 12h309z" />
    <glyph glyph-name="l" unicode="l" horiz-adv-x="463" 
d="M-11 0q-12 0 -18 7t-3 19l168 674l146 679q3 21 26 21h253q12 0 18 -7t3 -19l-168 -674l-145 -679q-4 -21 -26 -21h-254z" />
    <glyph glyph-name="m" unicode="m" horiz-adv-x="1679" 
d="M1506 1021.5q67 -32.5 106 -98t39 -161.5q0 -60 -16 -128l-46 -196l-89 -417q-4 -21 -26 -21h-260q-12 0 -17.5 7t-2.5 19l97 378l45 212q10 47 10 87q0 67 -29 99t-79 32q-86 0 -146.5 -82.5t-95.5 -210.5l-9 -36l-15 -67l-89 -417q-4 -21 -26 -21h-260q-12 0 -17.5 7
t-2.5 19l97 378l45 212q10 47 10 87q0 67 -29 99t-79 32q-91 0 -153.5 -91.5t-95.5 -228.5l-27 -114l-78 -379q-4 -21 -26 -21h-264q-10 0 -15.5 5t-5.5 13q0 5 1 8l118 468l113 515q4 21 25 21h244q12 0 17.5 -7t2.5 -19l-25 -106q58 71 137 113.5t172 42.5q89 0 156 -40
t97 -119q65 72 152 115.5t188 43.5q85 0 152 -32.5z" />
    <glyph glyph-name="n" unicode="n" horiz-adv-x="1121" 
d="M-23 0q-12 0 -17.5 7t-2.5 19l118 468l113 515q4 21 25 21h244q12 0 17.5 -7t2.5 -19l-25 -106q62 70 149 113t187 43q88 0 156.5 -34.5t107.5 -101.5t39 -161q0 -57 -15 -123l-45 -196l-90 -417q-4 -21 -26 -21h-259q-21 0 -21 17q0 6 1 9l97 378l44 212q9 42 9 76
q0 69 -34 105.5t-98 36.5q-72 0 -129 -47t-95 -119.5t-58 -153.5l-27 -114l-78 -379q-4 -21 -26 -21h-264z" />
    <glyph glyph-name="o" unicode="o" horiz-adv-x="1154" 
d="M270.5 30q-108.5 54 -169.5 158t-61 250q0 158 72 300t207.5 229t316.5 87q139 0 247.5 -54t169.5 -158t61 -250q0 -158 -72 -300t-207.5 -229t-316.5 -87q-139 0 -247.5 54zM686.5 242.5q63.5 68.5 93.5 168.5t30 195q0 122 -50 186t-136 64q-93 0 -156.5 -68.5
t-93.5 -168.5t-30 -195q0 -122 50 -186t136 -64q93 0 156.5 68.5z" />
    <glyph glyph-name="p" unicode="p" horiz-adv-x="1148" 
d="M939 995.5q85 -52.5 130 -148.5t45 -223q0 -148 -60 -296.5t-180 -247t-290 -98.5q-103 0 -178.5 37.5t-121.5 108.5l-99 -447q-4 -21 -25 -21h-263q-12 0 -17.5 7t-2.5 19l180 732l125 591q4 21 26 21h245q12 0 17.5 -7t2.5 -19l-15 -56q121 100 280 100
q116 0 201 -52.5zM689.5 252.5q63.5 72.5 92 173.5t28.5 188q0 107 -46 171.5t-134 64.5q-93 0 -157.5 -74t-96.5 -179t-32 -195q0 -109 47 -165.5t135 -56.5q100 0 163.5 72.5z" />
    <glyph glyph-name="q" unicode="q" horiz-adv-x="1154" 
d="M1176 1030q12 0 17.5 -7t3.5 -19l-158 -654l-147 -671q-4 -21 -26 -21l-258 2q-12 0 -17.5 7t-3.5 19l96 392q-117 -96 -273 -96q-116 0 -201 52.5t-130 148.5t-45 223q0 148 60 296.5t180 247t290 98.5q104 0 180.5 -38.5t121.5 -110.5l22 110q5 21 26 21h262z
M675.5 254q64.5 74 96.5 179t32 195q0 109 -47 165.5t-135 56.5q-100 0 -163.5 -72.5t-92 -173.5t-28.5 -188q0 -107 46 -171.5t134 -64.5q93 0 157.5 74z" />
    <glyph glyph-name="r" unicode="r" horiz-adv-x="794" 
d="M-21 0q-12 0 -18 7t-3 19l122 490l106 493q3 21 26 21h251q10 0 15.5 -5t5.5 -13q0 -5 -1 -8l-40 -148q78 89 180 135.5t210 46.5q20 0 39 -3q11 -2 15.5 -9.5t2.5 -18.5l-42 -177q-4 -19 -24 -19l-35 1q-92 0 -182.5 -44t-157 -125t-90.5 -185l-98 -437q-4 -21 -26 -21
h-256z" />
    <glyph glyph-name="s" unicode="s" horiz-adv-x="1072" 
d="M237 20.5q-110 44.5 -169 123.5t-62 181q-1 11 5.5 17t17.5 6h245q22 0 24 -23q5 -79 58 -121t154 -42q94 0 137 32.5t43 79.5q0 35 -27.5 59t-69.5 39.5t-117 37.5q-111 31 -183 62t-123.5 91.5t-51.5 156.5q0 99 58 175t164.5 117.5t245.5 41.5t240 -39t157 -111.5
t64 -169.5q2 -24 -24 -24h-235q-21 0 -24 23q-8 67 -55.5 103t-124.5 36t-120.5 -32t-43.5 -80q0 -37 28.5 -61.5t71.5 -40t120 -35.5q109 -29 178.5 -57t119.5 -84.5t50 -147.5q0 -102 -58.5 -183.5t-169.5 -128t-264 -46.5q-149 0 -259 44.5z" />
    <glyph glyph-name="t" unicode="t" horiz-adv-x="738" 
d="M797 1030q12 0 18 -7t3 -19l-39 -165q-4 -21 -26 -21h-226l-115 -508q-6 -24 -6 -43q0 -39 22.5 -56t65.5 -17q50 0 110 14q3 1 8 1q9 0 13 -6.5t2 -17.5l-34 -147q-5 -19 -22 -23q-108 -35 -195 -35q-122 0 -199.5 56.5t-77.5 173.5q0 45 11 92l121 516h-108
q-12 0 -17.5 7t-3.5 19l40 165q3 21 25 21h112l51 237q3 21 26 21h259q12 0 18 -7t3 -19l-58 -232h219z" />
    <glyph glyph-name="u" unicode="u" horiz-adv-x="1121" 
d="M1140 1030q12 0 18 -7t3 -19l-118 -468l-113 -515q-4 -21 -26 -21h-243q-12 0 -17.5 7t-3.5 19l26 106q-62 -70 -149 -113t-187 -43q-88 0 -157.5 34.5t-109 101.5t-39.5 161q0 59 16 123l47 196l90 417q3 21 26 21h259q10 0 15.5 -5t5.5 -13q0 -5 -1 -8l-97 -378
l-43 -212q-8 -37 -8 -76q0 -69 33 -105.5t97 -36.5q104 0 175.5 95t104.5 225l29 114l78 379q3 21 26 21h263z" />
    <glyph glyph-name="v" unicode="v" horiz-adv-x="1041" 
d="M103 1006q-1 11 5.5 17.5t17.5 6.5h246q22 0 24 -23l45 -745l419 752q9 16 28 16h260q10 0 15 -4t5 -11q0 -6 -4 -13l-582 -986q-10 -16 -28 -16h-309q-22 0 -25 22z" />
    <glyph glyph-name="w" unicode="w" horiz-adv-x="1446" 
d="M122 0q-24 0 -24 24l10 983q0 11 6.5 17t17.5 6h224q24 0 22 -24l-62 -772l321 778q8 18 27 18h318q25 0 23 -24l-37 -754l295 760q6 18 27 18h258q10 0 15.5 -4.5t5.5 -11.5q0 -5 -3 -11l-444 -985q-7 -18 -27 -18h-311q-23 0 -23 24l15 764l-319 -770q-7 -18 -27 -18
h-308z" />
    <glyph glyph-name="x" unicode="x" horiz-adv-x="980" 
d="M-104 0q-9 0 -14.5 4t-5.5 10q0 7 7 15l445 543l-204 430q-3 6 -3 11q0 8 5.5 12.5t15.5 4.5h262q19 0 27 -18l123 -288l211 292q10 14 29 14h271q9 0 14.5 -4t5.5 -10q0 -7 -7 -15l-410 -503l202 -471q3 -6 3 -11q0 -7 -5.5 -11.5t-15.5 -4.5h-264q-20 0 -28 18
l-118 308l-238 -311q-10 -15 -28 -15h-280z" />
    <glyph glyph-name="y" unicode="y" horiz-adv-x="1023" 
d="M103 -340q-10 0 -15 4t-5 11q0 6 4 13l188 330l-170 987l-1 6q0 19 22 19h260q24 0 25 -22l76 -638l333 643q7 17 28 17h282q10 0 15 -4t5 -11q0 -6 -4 -13l-760 -1326q-9 -16 -28 -16h-255z" />
    <glyph glyph-name="z" unicode="z" horiz-adv-x="1003" 
d="M-25 0q-12 0 -17.5 7.5t-3.5 18.5l39 171q4 15 15 26l603 595h-405q-12 0 -17.5 7t-3.5 19l40 165q3 21 25 21h751q12 0 17 -7t3 -19l-40 -174q-4 -16 -16 -27l-608 -591h484q12 0 17.5 -7.5t3.5 -18.5l-38 -165q-4 -21 -26 -21h-823z" />
    <glyph glyph-name="braceleft" unicode="{" horiz-adv-x="582" 
d="M243 -280q-148 0 -221.5 60.5t-73.5 163.5q0 57 22 122t63 134l82 134q36 63 36 100q0 46 -54 46h-33q-12 0 -17.5 7t-3.5 19l42 173q3 21 25 21h39q46 0 66.5 30t20.5 78q0 19 -3 38l-22 160q-4 25 -4 57q0 112 57 203t157 142.5t224 51.5h73q12 0 18 -7t3 -19l-43 -179
q-6 -21 -26 -21h-77q-59 0 -93.5 -41.5t-34.5 -125.5q0 -32 4 -61l22 -160q2 -18 2 -28q0 -73 -45 -135.5t-137 -94.5q49 -22 72.5 -58.5t23.5 -81.5q0 -57 -34 -114l-82 -136q-71 -119 -71 -184q0 -68 77 -68h72q12 0 17 -7t3 -19l-41 -179q-4 -21 -26 -21h-79z" />
    <glyph glyph-name="bar" unicode="|" horiz-adv-x="399" 
d="M-66 -280q-21 0 -21 18q0 5 1 8l391 1693q5 21 25 21h173q21 0 21 -18q0 -5 -1 -8l-391 -1693q-5 -21 -25 -21h-173z" />
    <glyph glyph-name="braceright" unicode="}" horiz-adv-x="582" 
d="M-101 -280q-12 0 -17 7t-3 19l41 179q4 21 26 21h77q58 0 92.5 43t34.5 134q0 40 -5 75l-18 136q-2 16 -2 26q0 68 44.5 131.5t135.5 96.5q-51 21 -74.5 55.5t-23.5 78.5q0 61 38 124l94 160q59 101 59 159q0 69 -79 69h-71q-12 0 -17.5 7t-3.5 19l44 179q4 21 25 21h79
q92 0 158 -28.5t100.5 -81t34.5 -122.5q0 -102 -71 -222l-94 -160q-38 -62 -38 -101q0 -45 54 -45h33q12 0 18 -7t3 -19l-41 -173q-4 -21 -26 -21h-39q-45 0 -65 -30t-20 -77q0 -19 3 -39l18 -134q5 -40 5 -72q0 -113 -49 -205.5t-147 -147.5t-239 -55h-74z" />
    <glyph glyph-name="asciitilde" unicode="~" horiz-adv-x="1099" 
d="M85 552q-12 0 -17.5 7t-3.5 18q36 203 136.5 327t253.5 124q74 0 123.5 -25.5t77.5 -61t58 -87.5q26 -46 45 -67t46 -21q60 0 97.5 61t49.5 162q3 23 25 23h164q13 0 18 -7t3 -19q-36 -203 -132.5 -316.5t-246.5 -113.5q-69 0 -116.5 24t-75.5 56.5t-61 84.5
q-30 50 -53.5 73.5t-57.5 23.5q-57 0 -94 -66t-50 -177q-3 -23 -25 -23h-164z" />
    <glyph glyph-name="exclamdown" unicode="&#xa1;" horiz-adv-x="459" 
d="M470 1030q12 0 17.5 -7t2.5 -19l-55 -241q-4 -21 -25 -21h-251q-12 0 -17.5 7.5t-2.5 18.5l55 241q5 21 25 21h251zM376 624q21 0 21 -18q0 -5 -1 -8l-219 -947q-4 -21 -25 -21h-251q-21 0 -21 18q0 5 1 8l219 947q5 21 25 21h251z" />
    <glyph glyph-name="cent" unicode="&#xa2;" horiz-adv-x="1127" 
d="M898 1215q105 -44 165.5 -131t64.5 -206q0 -24 -23 -24h-238q-22 0 -24 24q-6 84 -54 129t-123 45q-88 0 -148.5 -66t-90 -164t-29.5 -196q0 -125 48 -187.5t134 -62.5q81 0 139 50t86 142q4 20 26 20h238q12 0 18 -6.5t3 -17.5q-42 -160 -154 -261t-277 -123l-37 -159
q-4 -21 -25 -21h-257q-12 0 -17.5 7t-2.5 19l43 184q-127 48 -198 157.5t-71 270.5q0 146 60 278.5t175.5 222.5t273.5 110l30 130q5 21 25 21h257q21 0 21 -18q0 -5 -1 -8z" />
    <glyph glyph-name="sterling" unicode="&#xa3;" horiz-adv-x="1226" 
d="M1130.5 1318q126.5 -112 127.5 -322q0 -24 -24 -24h-249q-23 0 -23 24q-5 96 -52 149t-138 53q-112 0 -174.5 -82t-63.5 -242v-34h265q13 0 18.5 -7.5t2.5 -18.5l-36 -159q-4 -21 -25 -21h-221q-3 -162 -58 -267t-190 -141l312 -10l29 -1q75 0 123 23.5t79.5 78
t53.5 149.5q4 22 25 22h253q21 0 21 -23q0 -8 -1 -12q-39 -189 -123.5 -293t-203.5 -141.5t-282 -34.5l-632 15q-12 0 -17.5 7t-2.5 19l39 172q4 19 23 24l44 9q202 40 202 402v2h-174q-12 0 -17.5 7t-2.5 19l37 159q5 21 25 21h126v40q0 167 61 290.5t184.5 191.5t304.5 68
q228 0 354.5 -112z" />
    <glyph glyph-name="currency" unicode="&#xa4;" horiz-adv-x="1173" 
d="M1213 1040q6 -7 6 -14q0 -9 -10 -18l-186 -146q29 -67 29 -148q0 -77 -26 -146.5t-74 -125.5l114 -159q5 -6 5 -14q0 -11 -10 -18l-122 -87q-7 -6 -15 -6q-10 0 -18 11l-113 158q-92 -39 -195 -39q-74 0 -138.5 19.5t-114.5 56.5l-185 -147q-8 -7 -16 -7q-10 0 -17 10
l-89 112q-6 8 -6 15q0 9 11 18l185 145q-28 70 -28 148q0 76 26 145.5t74 125.5l-115 160q-5 6 -5 14q0 11 11 19l122 87q5 5 13 5q11 0 19 -11l114 -158q90 39 195 39q147 0 252 -75l185 147q9 6 16 6q10 0 17 -10zM434.5 548q26.5 -47 72 -71.5t103.5 -24.5q72 0 125 36
t81 95t28 127q0 96 -55 153t-147 57q-74 0 -127 -37t-80 -97t-27 -126q0 -65 26.5 -112z" />
    <glyph glyph-name="yen" unicode="&#xa5;" horiz-adv-x="1223" 
d="M1406 1400q9 0 14.5 -4t5.5 -10q0 -7 -7 -15l-520 -631h209q12 0 17.5 -7t2.5 -19l-35 -155q-4 -21 -25 -21h-304l-26 -128h294q12 0 17.5 -7t2.5 -19l-35 -155q-5 -21 -25 -21h-296l-39 -187q-4 -21 -26 -21h-269q-13 0 -18.5 7t-2.5 19l47 182h-289q-12 0 -17.5 7.5
t-2.5 18.5l35 155q4 21 25 21h301l34 128h-299q-12 0 -17.5 7.5t-2.5 18.5l35 155q5 21 25 21h217l-231 633q-2 8 -2 10q0 17 21 17h264q20 0 26 -20l165 -572l419 578q10 14 29 14h283z" />
    <glyph glyph-name="brokenbar" unicode="&#xa6;" horiz-adv-x="400" 
d="M165 720q-21 0 -21 18q0 5 1 8l161 693q5 21 25 21h173q12 0 17.5 -7t2.5 -19l-161 -693q-4 -21 -25 -21h-173zM-66 -280q-12 0 -17 7t-3 19l160 693q5 21 25 21h173q12 0 17.5 -7.5t2.5 -18.5l-159 -693q-4 -21 -25 -21h-174z" />
    <glyph glyph-name="section" unicode="&#xa7;" horiz-adv-x="1270" 
d="M1026 1359.5q118 -44.5 184.5 -128t66.5 -195.5q0 -11 -6.5 -16.5t-16.5 -5.5h-233q-22 0 -24 24q-5 81 -73 125.5t-185 44.5q-112 0 -183 -40.5t-71 -113.5q0 -45 36 -74.5t90.5 -47.5t152.5 -42q139 -34 226.5 -67.5t150 -100.5t62.5 -176q0 -110 -70 -194t-193 -132
q125 -83 125 -228q0 -122 -74 -213.5t-203 -141t-289 -49.5q-163 0 -290.5 49.5t-200 142t-72.5 216.5q0 12 6.5 18t17.5 6h220q22 0 23 -24q5 -99 85.5 -158.5t226.5 -59.5q78 0 137.5 21.5t93 61t33.5 91.5q0 49 -37.5 80.5t-93 49.5t-156.5 42q-136 32 -221.5 64
t-146.5 97.5t-61 174.5q0 111 73 193.5t199 126.5q-65 39 -100.5 95.5t-35.5 138.5q0 120 75.5 208.5t203 135t279.5 46.5q151 0 269 -44.5zM879 584q-36 33 -92.5 52.5t-149.5 41.5q-135 0 -212.5 -45.5t-77.5 -124.5q0 -49 37.5 -81t94 -51t155.5 -44l31 -8q66 1 123 22.5
t92 61t35 92.5q0 51 -36 84z" />
    <glyph glyph-name="dieresis" unicode="&#xa8;" horiz-adv-x="862" 
d="M269 1130q-12 0 -17.5 7t-3.5 19l54 223q4 21 25 21h196q12 0 18 -7t3 -19l-53 -223q-6 -21 -26 -21h-196zM685 1130q-13 0 -18.5 7t-2.5 19l53 223q6 21 25 21h198q12 0 17.5 -7t2.5 -19l-53 -223q-4 -21 -25 -21h-197z" />
    <glyph glyph-name="copyright" unicode="&#xa9;" horiz-adv-x="1505" 
d="M425 62q-160 92 -247.5 256.5t-87.5 377.5q0 221 87 387t246.5 256.5t372.5 90.5q212 0 372 -89.5t248 -255.5t88 -389q0 -213 -88 -377.5t-248.5 -256.5t-371.5 -92t-371 92zM1108.5 157.5q128.5 73.5 195 211t66.5 327.5t-66.5 329.5t-195.5 215t-312 75.5
q-185 0 -313 -74t-193.5 -213t-65.5 -333q0 -189 67 -326.5t196 -211.5t311 -74t310.5 73.5zM578.5 299.5q-99.5 57.5 -153 161t-53.5 237.5q0 140 54 245.5t153 163t231 57.5q320 0 392 -300q1 -3 1 -8q0 -8 -6 -13t-16 -5h-141q-19 0 -25 21q-20 76 -72.5 116.5
t-134.5 40.5q-115 0 -176.5 -83t-61.5 -233q0 -149 62 -230.5t174 -81.5q174 0 213 179q6 21 26 21h144q21 0 21 -21q0 -6 -1 -10q-39 -165 -139 -240t-258 -75q-134 0 -233.5 57.5z" />
    <glyph glyph-name="ordfeminine" unicode="&#xaa;" horiz-adv-x="920" 
d="M1037 1400q12 0 18 -7t3 -19l-84 -354l-77 -349q-4 -21 -26 -21h-192q-12 0 -17.5 7t-2.5 19l12 42q-101 -88 -233 -88q-84 0 -147.5 39t-98 110.5t-34.5 166.5q0 109 47.5 219t143 182.5t231.5 72.5q141 0 211 -85l7 43q5 22 26 22h213zM654 843q45 53 67.5 128
t22.5 139q0 73 -31.5 111.5t-88.5 38.5q-71 0 -116.5 -51.5t-65.5 -122.5t-20 -132q0 -76 30 -120t92 -44q65 0 110 53z" />
    <glyph glyph-name="guillemotleft" unicode="&#xab;" horiz-adv-x="1082" 
d="M281 134q-19 0 -29 16l-210 350q-5 10 -5 15q0 9 9 18l366 369q11 12 29 12h210q20 0 20 -13q0 -8 -8 -16l-383 -381l212 -342q5 -8 5 -13q0 -7 -5.5 -11t-15.5 -4h-195zM736 134q-19 0 -29 16l-210 350q-5 10 -5 15q0 9 9 18l366 369q11 12 29 12h210q20 0 20 -13
q0 -8 -8 -16l-383 -381l212 -342q5 -8 5 -13q0 -7 -5.5 -11t-15.5 -4h-195z" />
    <glyph glyph-name="logicalnot" unicode="&#xac;" horiz-adv-x="1139" 
d="M1097.5 792.5q5.5 -7.5 2.5 -18.5l-40 -175l-3 -8l-89 -390q-4 -21 -25 -21h-183q-12 0 -17.5 7.5t-2.5 18.5l85 372h-683q-12 0 -17.5 7.5t-3.5 18.5l40 175q5 21 25 21h893q13 0 18.5 -7.5z" />
    <glyph glyph-name="registered" unicode="&#xae;" horiz-adv-x="785" 
d="M339.5 753q-78.5 45 -122 126t-43.5 185q0 109 42.5 190.5t121.5 125.5t184 44q103 0 181.5 -44t121.5 -125t43 -191q0 -104 -43 -185t-121 -126t-182 -45t-182.5 45zM718.5 855.5q69.5 75.5 69.5 208.5q0 134 -69.5 211t-196.5 77q-130 0 -199 -75.5t-69 -212.5
q0 -133 70 -208.5t198 -75.5q127 0 196.5 75.5zM375 872q-23 0 -23 24v345q0 11 6 17t17 6h141q82 0 126 -31t44 -91q0 -41 -22.5 -69.5t-65.5 -42.5l84 -130q5 -8 5 -13q0 -7 -5.5 -11t-15.5 -4h-66q-19 0 -28 16l-82 130h-36v-122q0 -24 -24 -24h-55zM520 1088
q29 0 47.5 13t18.5 39q0 52 -68 52h-64v-104h66z" />
    <glyph glyph-name="macron" unicode="&#xaf;" horiz-adv-x="856" 
d="M277 1160q-13 0 -18.5 7t-2.5 19l37 153q6 21 25 21h607q12 0 17.5 -7t2.5 -19l-37 -153q-4 -21 -25 -21h-606z" />
    <glyph glyph-name="macron" unicode="&#x2c9;" horiz-adv-x="856" 
d="M277 1160q-13 0 -18.5 7t-2.5 19l37 153q6 21 25 21h607q12 0 17.5 -7t2.5 -19l-37 -153q-4 -21 -25 -21h-606z" />
    <glyph glyph-name="degree" unicode="&#xb0;" horiz-adv-x="735" 
d="M315.5 821q-72.5 35 -115 99t-42.5 148q0 89 47.5 169.5t133 130.5t193.5 50q89 0 161.5 -35.5t114.5 -100t42 -146.5q0 -88 -48 -169t-133.5 -131t-192.5 -50q-88 0 -160.5 35zM568 977.5q36 27.5 55 71t19 87.5q0 56 -33 87t-85 31q-51 0 -87 -29.5t-53.5 -73
t-17.5 -83.5q0 -55 32.5 -86.5t85.5 -31.5q48 0 84 27.5z" />
    <glyph glyph-name="plusminus" unicode="&#xb1;" horiz-adv-x="1099" 
d="M1077 880q13 0 18.5 -7.5t2.5 -18.5l-40 -175q-4 -21 -25 -21h-333l-88 -377q-4 -21 -25 -21h-183q-12 0 -17.5 7t-2.5 19l86 372h-330q-12 0 -17.5 7.5t-3.5 18.5l40 175q5 21 25 21h338l87 379q5 21 25 21h183q21 0 21 -18q0 -5 -1 -8l-86 -374h326zM-12 0
q-12 0 -17.5 7.5t-3.5 18.5l40 175q5 21 25 21h893q13 0 18.5 -7.5t2.5 -18.5l-40 -175q-4 -21 -25 -21h-893z" />
    <glyph glyph-name="two.sups" unicode="&#xb2;" horiz-adv-x="591" 
d="M75 634q-13 0 -18.5 7t-2.5 19l26 108q21 92 70 150t104.5 87.5t138.5 61.5q57 21 87 36t50 38t20 57q0 39 -23.5 60.5t-62.5 21.5q-43 0 -73 -27.5t-42 -86.5q-4 -22 -25 -22h-123q-12 0 -18 6.5t-5 18.5q18 122 95.5 184.5t200.5 62.5q114 0 184 -53t70 -155
q0 -74 -37.5 -125.5t-90 -82.5t-136.5 -68q-60 -26 -92.5 -43.5t-56 -41t-27.5 -53.5l-4 -22h317q13 0 18.5 -7.5t2.5 -18.5l-20 -91q-4 -21 -25 -21h-502z" />
    <glyph glyph-name="three.sups" unicode="&#xb3;" horiz-adv-x="639" 
d="M242 645.5q-64 29.5 -97 85t-29 131.5q1 10 7 16t17 6h133q23 0 23 -24q0 -46 26 -75t76 -29q56 0 87 34.5t31 85.5q0 43 -27 69.5t-75 26.5h-53q-13 0 -18.5 7t-2.5 19l19 77q6 21 25 21h60q52 0 90 25t38 75q0 39 -25 59.5t-63 20.5q-40 0 -67.5 -21t-40.5 -62
q-4 -21 -25 -21h-129q-10 0 -15.5 5t-5.5 13q0 5 1 8q28 109 103.5 163.5t184.5 54.5q75 0 134 -24.5t92.5 -69.5t33.5 -104q0 -67 -40 -119t-114 -69q50 -26 77 -68.5t27 -97.5q0 -71 -38.5 -127.5t-108.5 -88.5t-161 -32q-86 0 -150 29.5z" />
    <glyph glyph-name="acute" unicode="&#xb4;" horiz-adv-x="811" 
d="M344 1132q-3 -1 -8 -1q-17 0 -21 18l-31 109q-1 3 -1 9q0 15 15 21l492 191q4 2 11 2q15 0 20 -17l46 -179q1 -3 1 -8q0 -17 -18 -20z" />
    <glyph glyph-name="uni03BC" unicode="&#xb5;" horiz-adv-x="1129" 
d="M187 1016q3 14 17 14h271q8 0 12 -5t2 -13l-140 -598q-10 -48 -10 -78q0 -68 34 -104t98 -36q72 0 129 47t95 120t56 153l26 114l85 386q3 14 17 14h274q8 0 12 -5t2 -13l-114 -476l-121 -522q-3 -14 -17 -14h-256q-8 0 -12 5t-2 13l28 114q-62 -70 -149 -113t-187 -43
q-45 0 -86 9l-70 -311q-3 -14 -17 -14h-272q-8 0 -12 5t-2 13l187 796z" />
    <glyph glyph-name="uni03BC" unicode="&#x3bc;" horiz-adv-x="1129" 
d="M187 1016q3 14 17 14h271q8 0 12 -5t2 -13l-140 -598q-10 -48 -10 -78q0 -68 34 -104t98 -36q72 0 129 47t95 120t56 153l26 114l85 386q3 14 17 14h274q8 0 12 -5t2 -13l-114 -476l-121 -522q-3 -14 -17 -14h-256q-8 0 -12 5t-2 13l28 114q-62 -70 -149 -113t-187 -43
q-45 0 -86 9l-70 -311q-3 -14 -17 -14h-272q-8 0 -12 5t-2 13l187 796z" />
    <glyph glyph-name="paragraph" unicode="&#xb6;" horiz-adv-x="1411" 
d="M1511 1400q12 0 17.5 -7t2.5 -19l-203 -814l-188 -879q-4 -21 -26 -21h-269q-13 0 -18.5 7t-2.5 19l140 576l56 224h-148l-48 -226l-124 -579q-4 -21 -26 -21h-269q-13 0 -18.5 7t-2.5 19l140 570l56 232h-2q-145 0 -243.5 52.5t-146.5 143t-48 204.5q0 151 74 266.5
t215 180.5t337 65h745z" />
    <glyph glyph-name="periodcentered" unicode="&#xb7;" horiz-adv-x="441" 
d="M80 460q-21 0 -21 18q0 5 1 8l55 239q5 21 25 21h265q21 0 21 -18q0 -5 -1 -8l-55 -239q-4 -21 -25 -21h-265z" />
    <glyph glyph-name="periodcentered" unicode="&#x2219;" horiz-adv-x="441" 
d="M80 460q-21 0 -21 18q0 5 1 8l55 239q5 21 25 21h265q21 0 21 -18q0 -5 -1 -8l-55 -239q-4 -21 -25 -21h-265z" />
    <glyph glyph-name="cedilla" unicode="&#xb8;" horiz-adv-x="578" 
d="M187 -344q-9 -18 -29 -15l-221 34q-9 1 -14 6t-5 12t4 12l188 319q8 16 29 14l196 -17q9 -1 14 -5.5t5 -11.5q0 -6 -3 -12z" />
    <glyph glyph-name="one.sups" unicode="&#xb9;" horiz-adv-x="469" 
d="M253 634q-13 0 -18.5 7t-2.5 19l92 354l36 178q-66 -51 -156 -79q-3 -1 -9 -1q-8 0 -12 6t-2 18l20 92q4 18 23 24q119 42 183 132q11 14 29 14h139q20 0 20 -17q0 -6 -1 -9l-102 -398l-62 -319q-4 -21 -26 -21h-151z" />
    <glyph glyph-name="ordmasculine" unicode="&#xba;" horiz-adv-x="934" 
d="M345.5 664q-85.5 40 -134.5 117.5t-49 184.5q0 118 56 223.5t162.5 171t249.5 65.5q109 0 194.5 -40t134.5 -117.5t49 -184.5q0 -117 -57 -223t-163.5 -171.5t-247.5 -65.5q-109 0 -194.5 40zM657 833q44 49 64.5 120t20.5 139q0 85 -32.5 129.5t-89.5 44.5
q-64 0 -107.5 -48t-65 -120.5t-21.5 -143.5q0 -84 32 -127t90 -43q65 0 109 49z" />
    <glyph glyph-name="guillemotright" unicode="&#xbb;" horiz-adv-x="1082" 
d="M-17 134q-20 0 -20 13q0 8 8 16l381 369l-211 354q-4 7 -4 13q0 7 5 11t14 4h197q19 0 28 -16l208 -362q5 -10 5 -15q0 -9 -9 -17l-364 -358q-12 -12 -29 -12h-209zM438 134q-20 0 -20 13q0 8 8 16l381 369l-211 354q-4 7 -4 13q0 7 5 11t14 4h197q19 0 28 -16l208 -362
q5 -10 5 -15q0 -9 -9 -17l-364 -358q-12 -12 -29 -12h-209z" />
    <glyph glyph-name="onequarter" unicode="&#xbc;" horiz-adv-x="1573" 
d="M253 634q-13 0 -18.5 7t-2.5 19l92 354l36 178q-66 -51 -156 -79q-3 -1 -9 -1q-8 0 -12 6t-2 18l20 92q4 18 23 24q119 42 183 132q11 14 29 14h139q20 0 20 -17q0 -6 -1 -9l-102 -398l-62 -319q-4 -21 -26 -21h-151zM246 0q-10 0 -15 4t-5 11q0 8 5 14l973 1357
q10 14 29 14h156q10 0 15 -4t5 -11q0 -8 -5 -14l-973 -1356q-10 -15 -28 -15h-157zM1493 764q12 0 17.5 -7t2.5 -19l-100 -438h60q12 0 17.5 -7t2.5 -19l-23 -93q-4 -21 -25 -21h-64l-33 -141q-4 -21 -25 -21h-141q-12 0 -17.5 7.5t-2.5 18.5l31 136h-311q-12 0 -17.5 7.5
t-3.5 18.5l27 119q4 16 14 27l360 419q12 13 29 13h202zM1262 460l40 144l-256 -304h179z" />
    <glyph glyph-name="onehalf" unicode="&#xbd;" horiz-adv-x="1621" 
d="M959 0q-13 0 -18.5 7t-2.5 19l26 108q21 92 70 150t104.5 87.5t138.5 61.5q57 21 87 36t50 38t20 57q0 39 -23.5 60.5t-62.5 21.5q-43 0 -73 -27.5t-42 -86.5q-4 -22 -25 -22h-123q-12 0 -18 6.5t-5 18.5q18 122 95.5 184.5t200.5 62.5q114 0 184 -53t70 -155
q0 -74 -37.5 -125.5t-90 -82.5t-136.5 -68q-60 -26 -92.5 -43.5t-56 -41t-27.5 -53.5l-4 -22h317q13 0 18.5 -7.5t2.5 -18.5l-20 -91q-4 -21 -25 -21h-502zM253 634q-13 0 -18.5 7t-2.5 19l92 354l36 178q-66 -51 -156 -79q-3 -1 -9 -1q-8 0 -12 6t-2 18l20 92q4 18 23 24
q119 42 183 132q11 14 29 14h139q20 0 20 -17q0 -6 -1 -9l-102 -398l-62 -319q-4 -21 -26 -21h-151zM238 0q-10 0 -15 4t-5 11q0 8 5 14l973 1357q10 14 29 14h156q10 0 15 -4t5 -11q0 -8 -5 -14l-973 -1356q-10 -15 -28 -15h-157z" />
    <glyph glyph-name="threequarters" unicode="&#xbe;" horiz-adv-x="1699" 
d="M242 645.5q-64 29.5 -97 85t-29 131.5q1 10 7 16t17 6h133q23 0 23 -24q0 -46 26 -75t76 -29q56 0 87 34.5t31 85.5q0 43 -27 69.5t-75 26.5h-53q-13 0 -18.5 7t-2.5 19l19 77q6 21 25 21h60q52 0 90 25t38 75q0 39 -25 59.5t-63 20.5q-40 0 -67.5 -21t-40.5 -62
q-4 -21 -25 -21h-129q-10 0 -15.5 5t-5.5 13q0 5 1 8q28 109 103.5 163.5t184.5 54.5q75 0 134 -24.5t92.5 -69.5t33.5 -104q0 -67 -40 -119t-114 -69q50 -26 77 -68.5t27 -97.5q0 -71 -38.5 -127.5t-108.5 -88.5t-161 -32q-86 0 -150 29.5zM372 0q-10 0 -15 4t-5 11
q0 8 5 14l973 1357q10 14 29 14h156q10 0 15 -4t5 -11q0 -8 -5 -14l-973 -1356q-10 -15 -28 -15h-157zM1619 764q12 0 17.5 -7t2.5 -19l-100 -438h60q12 0 17.5 -7t2.5 -19l-23 -93q-4 -21 -25 -21h-64l-33 -141q-4 -21 -25 -21h-141q-12 0 -17.5 7.5t-2.5 18.5l31 136h-311
q-12 0 -17.5 7.5t-3.5 18.5l27 119q4 16 14 27l360 419q12 13 29 13h202zM1388 460l40 144l-256 -304h179z" />
    <glyph glyph-name="questiondown" unicode="&#xbf;" horiz-adv-x="1037" 
d="M766 1030q12 0 17.5 -7t2.5 -19l-55 -241q-4 -21 -25 -21h-263q-12 0 -17.5 7.5t-2.5 18.5l55 241q5 21 25 21h263zM670 624q21 0 21 -18q0 -6 -1 -9q-24 -99 -71.5 -173t-100.5 -122.5t-132 -108.5q-60 -45 -93 -74.5t-54.5 -66t-21.5 -80.5q0 -70 50 -108t130 -38
q183 0 224 200q4 22 25 22h238q13 0 18.5 -7t3.5 -18q-40 -212 -175 -317.5t-348 -105.5q-131 0 -236.5 40t-167 120.5t-61.5 197.5q0 85 32 148.5t79.5 107.5t126.5 104q67 51 108.5 87.5t76.5 86t51 111.5q6 21 25 21h253z" />
    <glyph glyph-name="Agrave" unicode="&#xc0;" horiz-adv-x="1351" 
d="M1241 25q1 -12 -5 -18.5t-18 -6.5h-248q-23 0 -24 23l-29 333h-526l-182 -340q-11 -16 -28 -16h-277q-10 0 -15 4t-5 11q0 6 4 13l785 1356q8 16 28 16h368q24 0 25 -22zM895 598l-53 598l-321 -598h374zM1124 1508q-6 -17 -22 -17q-5 0 -8 1l-471 139q-17 5 -17 20
q0 2 2 10l61 174q6 16 19 16q6 0 12 -3l449 -203q15 -6 15 -20q0 -4 -2 -10z" />
    <glyph glyph-name="Aacute" unicode="&#xc1;" horiz-adv-x="1351" 
d="M1241 25q1 -12 -5 -18.5t-18 -6.5h-248q-23 0 -24 23l-29 333h-526l-182 -340q-11 -16 -28 -16h-277q-10 0 -15 4t-5 11q0 6 4 13l785 1356q8 16 28 16h368q24 0 25 -22zM895 598l-53 598l-321 -598h374zM751 1502q-3 -1 -8 -1q-17 0 -21 18l-31 109q-1 3 -1 9
q0 15 15 21l492 191q4 2 11 2q15 0 20 -17l46 -179q1 -3 1 -8q0 -17 -18 -20z" />
    <glyph glyph-name="Acircumflex" unicode="&#xc2;" horiz-adv-x="1351" 
d="M1241 25q1 -12 -5 -18.5t-18 -6.5h-248q-23 0 -24 23l-29 333h-526l-182 -340q-11 -16 -28 -16h-277q-10 0 -15 4t-5 11q0 6 4 13l785 1356q8 16 28 16h368q24 0 25 -22zM895 598l-53 598l-321 -598h374zM572 1618q-3 6 -3 12q0 12 13 20l323 200q14 8 29 8h90
q16 0 29 -10l252 -200q10 -7 10 -19q0 -7 -4 -14l-61 -98q-6 -12 -18 -12q-8 0 -13 4l-266 139l-305 -140q-6 -3 -11 -3q-14 0 -20 15z" />
    <glyph glyph-name="Atilde" unicode="&#xc3;" horiz-adv-x="1351" 
d="M1241 25q1 -12 -5 -18.5t-18 -6.5h-248q-23 0 -24 23l-29 333h-526l-182 -340q-11 -16 -28 -16h-277q-10 0 -15 4t-5 11q0 6 4 13l785 1356q8 16 28 16h368q24 0 25 -22zM895 598l-53 598l-321 -598h374zM977.5 1547.5q-33.5 17.5 -70.5 48.5q-23 20 -39 30t-34 10
q-30 0 -47 -21.5t-27 -63.5q-5 -21 -26 -21h-105q-12 0 -17.5 6.5t-4.5 18.5q22 119 85 191t160 72q44 0 76 -17.5t72 -49.5q24 -20 39.5 -29.5t30.5 -9.5q31 0 48 21t25 61q6 22 26 22h105q10 0 15.5 -6t5.5 -16q0 -7 -1 -10q-22 -120 -82.5 -187t-153.5 -67
q-47 0 -80.5 17.5z" />
    <glyph glyph-name="Adieresis" unicode="&#xc4;" horiz-adv-x="1351" 
d="M1241 25q1 -12 -5 -18.5t-18 -6.5h-248q-23 0 -24 23l-29 333h-526l-182 -340q-11 -16 -28 -16h-277q-10 0 -15 4t-5 11q0 6 4 13l785 1356q8 16 28 16h368q24 0 25 -22zM895 598l-53 598l-321 -598h374zM606 1500q-12 0 -17.5 7t-3.5 19l54 223q4 21 25 21h196
q12 0 18 -7t3 -19l-53 -223q-6 -21 -26 -21h-196zM1022 1500q-13 0 -18.5 7t-2.5 19l53 223q6 21 25 21h198q12 0 17.5 -7t2.5 -19l-53 -223q-4 -21 -25 -21h-197z" />
    <glyph glyph-name="Aring" unicode="&#xc5;" horiz-adv-x="1351" 
d="M1241 25q1 -12 -5 -18.5t-18 -6.5h-248q-23 0 -24 23l-29 333h-526l-182 -340q-11 -16 -28 -16h-277q-10 0 -15 4t-5 11q0 6 4 13l785 1356q8 16 28 16h368q24 0 25 -22zM895 598l-53 598l-321 -598h374zM823.5 1541.5q-57.5 27.5 -91.5 78t-34 116.5q0 68 36 126
t99.5 93t142.5 35q71 0 128.5 -28.5t90.5 -79t33 -114.5q0 -68 -36 -126t-99.5 -93t-142.5 -35q-69 0 -126.5 27.5zM1038.5 1661.5q33.5 41.5 33.5 104.5q0 56 -27.5 87t-70.5 31q-56 0 -88 -44t-32 -104q0 -55 28 -85.5t72 -30.5q51 0 84.5 41.5z" />
    <glyph glyph-name="AE" unicode="&#xc6;" horiz-adv-x="1842" 
d="M1953 1400q12 0 17.5 -7t2.5 -19l-41 -179q-5 -21 -25 -21h-547l-88 -322h495q12 0 17.5 -7t2.5 -19l-41 -179q-4 -21 -25 -21h-501l-80 -400h557q12 0 17.5 -7t2.5 -19l-41 -179q-4 -21 -25 -21h-850q-10 0 -16 5t-6 13q0 5 1 8l83 330h-423l-232 -341q-12 -15 -28 -15
h-277q-10 0 -15.5 4t-5.5 11q0 6 5 14l960 1357q10 14 29 14h1077zM604 598h321l25 102l104 494h-44z" />
    <glyph glyph-name="Ccedilla" unicode="&#xc7;" horiz-adv-x="1407" 
d="M1432.5 908.5q-6.5 -6.5 -18.5 -6.5h-247q-21 0 -24 23q-13 132 -92.5 201.5t-207.5 69.5q-156 0 -258.5 -98t-149 -239.5t-46.5 -274.5q0 -189 88.5 -284.5t241.5 -95.5q129 0 218.5 71.5t136.5 208.5q7 20 27 20h254q21 0 21 -17q0 -5 -1 -8q-62 -218 -215.5 -351
t-378.5 -154l-155 -318q-9 -18 -29 -15l-221 34q-18 3 -18 17q0 6 4 13l166 283q-138 31 -239.5 110.5t-157.5 204.5t-56 289q0 210 93.5 403t271.5 314t419 121q168 0 295 -61.5t200.5 -175t83.5 -267.5q1 -11 -5.5 -17.5z" />
    <glyph glyph-name="Egrave" unicode="&#xc8;" horiz-adv-x="1136" 
d="M-6 0q-10 0 -15.5 5t-5.5 13q0 5 1 8l171 674l142 679q4 21 26 21h935q12 0 17 -7t3 -19l-41 -179q-4 -21 -26 -21h-647l-88 -322h596q12 0 17 -7t3 -19l-41 -179q-4 -21 -26 -21h-601l-80 -400h658q12 0 17 -7t3 -19l-41 -179q-4 -21 -26 -21h-951zM1065 1508
q-6 -17 -22 -17q-5 0 -8 1l-471 139q-17 5 -17 20q0 2 2 10l61 174q6 16 19 16q6 0 12 -3l449 -203q15 -6 15 -20q0 -4 -2 -10z" />
    <glyph glyph-name="Eacute" unicode="&#xc9;" horiz-adv-x="1136" 
d="M-6 0q-10 0 -15.5 5t-5.5 13q0 5 1 8l171 674l142 679q4 21 26 21h935q12 0 17 -7t3 -19l-41 -179q-4 -21 -26 -21h-647l-88 -322h596q12 0 17 -7t3 -19l-41 -179q-4 -21 -26 -21h-601l-80 -400h658q12 0 17 -7t3 -19l-41 -179q-4 -21 -26 -21h-951zM692 1502
q-3 -1 -8 -1q-17 0 -21 18l-31 109q-1 3 -1 9q0 15 15 21l492 191q4 2 11 2q15 0 20 -17l46 -179q1 -3 1 -8q0 -17 -18 -20z" />
    <glyph glyph-name="Ecircumflex" unicode="&#xca;" horiz-adv-x="1136" 
d="M-6 0q-10 0 -15.5 5t-5.5 13q0 5 1 8l171 674l142 679q4 21 26 21h935q12 0 17 -7t3 -19l-41 -179q-4 -21 -26 -21h-647l-88 -322h596q12 0 17 -7t3 -19l-41 -179q-4 -21 -26 -21h-601l-80 -400h658q12 0 17 -7t3 -19l-41 -179q-4 -21 -26 -21h-951zM512 1618q-3 6 -3 12
q0 12 13 20l323 200q14 8 29 8h90q16 0 29 -10l252 -200q10 -7 10 -19q0 -7 -4 -14l-61 -98q-6 -12 -18 -12q-8 0 -13 4l-266 139l-305 -140q-6 -3 -11 -3q-14 0 -20 15z" />
    <glyph glyph-name="Edieresis" unicode="&#xcb;" horiz-adv-x="1136" 
d="M-6 0q-10 0 -15.5 5t-5.5 13q0 5 1 8l171 674l142 679q4 21 26 21h935q12 0 17 -7t3 -19l-41 -179q-4 -21 -26 -21h-647l-88 -322h596q12 0 17 -7t3 -19l-41 -179q-4 -21 -26 -21h-601l-80 -400h658q12 0 17 -7t3 -19l-41 -179q-4 -21 -26 -21h-951zM547 1500
q-12 0 -17.5 7t-3.5 19l54 223q4 21 25 21h196q12 0 18 -7t3 -19l-53 -223q-6 -21 -26 -21h-196zM963 1500q-13 0 -18.5 7t-2.5 19l53 223q6 21 25 21h198q12 0 17.5 -7t2.5 -19l-53 -223q-4 -21 -25 -21h-197z" />
    <glyph glyph-name="Igrave" unicode="&#xcc;" horiz-adv-x="505" 
d="M5 0q-10 0 -16 5t-6 13q0 5 1 8l171 674l142 679q4 21 26 21h265q10 0 15.5 -5t5.5 -13q0 -5 -1 -8l-170 -674l-143 -679q-4 -21 -26 -21h-264zM694 1508q-6 -17 -22 -17q-5 0 -8 1l-471 139q-17 5 -17 20q0 2 2 10l61 174q6 16 19 16q6 0 12 -3l449 -203q15 -6 15 -20
q0 -4 -2 -10z" />
    <glyph glyph-name="Iacute" unicode="&#xcd;" horiz-adv-x="505" 
d="M5 0q-10 0 -16 5t-6 13q0 5 1 8l171 674l142 679q4 21 26 21h265q10 0 15.5 -5t5.5 -13q0 -5 -1 -8l-170 -674l-143 -679q-4 -21 -26 -21h-264zM321 1502q-3 -1 -8 -1q-17 0 -21 18l-31 109q-1 3 -1 9q0 15 15 21l492 191q4 2 11 2q15 0 20 -17l46 -179q1 -3 1 -8
q0 -17 -18 -20z" />
    <glyph glyph-name="Icircumflex" unicode="&#xce;" horiz-adv-x="505" 
d="M5 0q-10 0 -16 5t-6 13q0 5 1 8l171 674l142 679q4 21 26 21h265q10 0 15.5 -5t5.5 -13q0 -5 -1 -8l-170 -674l-143 -679q-4 -21 -26 -21h-264zM142 1618q-3 6 -3 12q0 12 13 20l323 200q14 8 29 8h90q16 0 29 -10l252 -200q10 -7 10 -19q0 -7 -4 -14l-61 -98
q-6 -12 -18 -12q-8 0 -13 4l-266 139l-305 -140q-6 -3 -11 -3q-14 0 -20 15z" />
    <glyph glyph-name="Idieresis" unicode="&#xcf;" horiz-adv-x="505" 
d="M5 0q-10 0 -16 5t-6 13q0 5 1 8l171 674l142 679q4 21 26 21h265q10 0 15.5 -5t5.5 -13q0 -5 -1 -8l-170 -674l-143 -679q-4 -21 -26 -21h-264zM176 1500q-12 0 -17.5 7t-3.5 19l54 223q4 21 25 21h196q12 0 18 -7t3 -19l-53 -223q-6 -21 -26 -21h-196zM592 1500
q-13 0 -18.5 7t-2.5 19l53 223q6 21 25 21h198q12 0 17.5 -7t2.5 -19l-53 -223q-4 -21 -25 -21h-197z" />
    <glyph glyph-name="Eth" unicode="&#xd0;" horiz-adv-x="1409" 
d="M784 1400q186 0 331.5 -69.5t228 -202.5t82.5 -316q0 -204 -97 -391t-280 -304t-427 -117h-608q-12 0 -18 7t-3 19l154 608h-109q-12 0 -17 7t-3 19l42 179q3 21 25 21h113l109 519q3 21 26 21h451zM634 226q163 0 270.5 94.5t157.5 231.5t50 268q0 116 -42.5 195.5
t-119 119t-178.5 39.5h-198l-83 -314h331q12 0 17 -7t3 -19l-41 -179q-4 -21 -26 -21h-338l-83 -408h280z" />
    <glyph glyph-name="Ntilde" unicode="&#xd1;" horiz-adv-x="1391" 
d="M-6 0q-12 0 -17.5 7t-2.5 19l169 674l144 679q4 21 26 21h311q20 0 27 -19l347 -993l100 476l120 515q3 21 25 21h241q12 0 17.5 -7t2.5 -19l-168 -674l-145 -679q-4 -21 -26 -21h-323q-20 0 -26 19l-342 987l-110 -538l-103 -447q-4 -21 -26 -21h-241zM991.5 1547.5
q-33.5 17.5 -70.5 48.5q-23 20 -39 30t-34 10q-30 0 -47 -21.5t-27 -63.5q-5 -21 -26 -21h-105q-12 0 -17.5 6.5t-4.5 18.5q22 119 85 191t160 72q44 0 76 -17.5t72 -49.5q24 -20 39.5 -29.5t30.5 -9.5q31 0 48 21t25 61q6 22 26 22h105q10 0 15.5 -6t5.5 -16q0 -7 -1 -10
q-22 -120 -82.5 -187t-153.5 -67q-47 0 -80.5 17.5z" />
    <glyph glyph-name="Ograve" unicode="&#xd2;" horiz-adv-x="1507" 
d="M384 43q-146 73 -228.5 212.5t-82.5 332.5q0 211 97 405.5t280.5 315.5t428.5 121q186 0 331.5 -73t228 -212.5t82.5 -332.5q0 -211 -97 -405.5t-280 -315.5t-427 -121q-187 0 -333 73zM999.5 302q107.5 98 157.5 240.5t50 277.5q0 123 -42.5 207.5t-119 126.5t-178.5 42
q-164 0 -272 -98t-158 -240.5t-50 -277.5q0 -123 43 -207.5t119.5 -126.5t179.5 -42q163 0 270.5 98zM1149 1508q-6 -17 -22 -17q-5 0 -8 1l-471 139q-17 5 -17 20q0 2 2 10l61 174q6 16 19 16q6 0 12 -3l449 -203q15 -6 15 -20q0 -4 -2 -10z" />
    <glyph glyph-name="Oacute" unicode="&#xd3;" horiz-adv-x="1507" 
d="M384 43q-146 73 -228.5 212.5t-82.5 332.5q0 211 97 405.5t280.5 315.5t428.5 121q186 0 331.5 -73t228 -212.5t82.5 -332.5q0 -211 -97 -405.5t-280 -315.5t-427 -121q-187 0 -333 73zM999.5 302q107.5 98 157.5 240.5t50 277.5q0 123 -42.5 207.5t-119 126.5t-178.5 42
q-164 0 -272 -98t-158 -240.5t-50 -277.5q0 -123 43 -207.5t119.5 -126.5t179.5 -42q163 0 270.5 98zM776 1502q-3 -1 -8 -1q-17 0 -21 18l-31 109q-1 3 -1 9q0 15 15 21l492 191q4 2 11 2q15 0 20 -17l46 -179q1 -3 1 -8q0 -17 -18 -20z" />
    <glyph glyph-name="Ocircumflex" unicode="&#xd4;" horiz-adv-x="1507" 
d="M384 43q-146 73 -228.5 212.5t-82.5 332.5q0 211 97 405.5t280.5 315.5t428.5 121q186 0 331.5 -73t228 -212.5t82.5 -332.5q0 -211 -97 -405.5t-280 -315.5t-427 -121q-187 0 -333 73zM999.5 302q107.5 98 157.5 240.5t50 277.5q0 123 -42.5 207.5t-119 126.5t-178.5 42
q-164 0 -272 -98t-158 -240.5t-50 -277.5q0 -123 43 -207.5t119.5 -126.5t179.5 -42q163 0 270.5 98zM597 1618q-3 6 -3 12q0 12 13 20l323 200q14 8 29 8h90q16 0 29 -10l252 -200q10 -7 10 -19q0 -7 -4 -14l-61 -98q-6 -12 -18 -12q-8 0 -13 4l-266 139l-305 -140
q-6 -3 -11 -3q-14 0 -20 15z" />
    <glyph glyph-name="Otilde" unicode="&#xd5;" horiz-adv-x="1507" 
d="M384 43q-146 73 -228.5 212.5t-82.5 332.5q0 211 97 405.5t280.5 315.5t428.5 121q186 0 331.5 -73t228 -212.5t82.5 -332.5q0 -211 -97 -405.5t-280 -315.5t-427 -121q-187 0 -333 73zM999.5 302q107.5 98 157.5 240.5t50 277.5q0 123 -42.5 207.5t-119 126.5t-178.5 42
q-164 0 -272 -98t-158 -240.5t-50 -277.5q0 -123 43 -207.5t119.5 -126.5t179.5 -42q163 0 270.5 98zM1002.5 1547.5q-33.5 17.5 -70.5 48.5q-23 20 -39 30t-34 10q-30 0 -47 -21.5t-27 -63.5q-5 -21 -26 -21h-105q-12 0 -17.5 6.5t-4.5 18.5q22 119 85 191t160 72
q44 0 76 -17.5t72 -49.5q24 -20 39.5 -29.5t30.5 -9.5q31 0 48 21t25 61q6 22 26 22h105q10 0 15.5 -6t5.5 -16q0 -7 -1 -10q-22 -120 -82.5 -187t-153.5 -67q-47 0 -80.5 17.5z" />
    <glyph glyph-name="Odieresis" unicode="&#xd6;" horiz-adv-x="1507" 
d="M384 43q-146 73 -228.5 212.5t-82.5 332.5q0 211 97 405.5t280.5 315.5t428.5 121q186 0 331.5 -73t228 -212.5t82.5 -332.5q0 -211 -97 -405.5t-280 -315.5t-427 -121q-187 0 -333 73zM999.5 302q107.5 98 157.5 240.5t50 277.5q0 123 -42.5 207.5t-119 126.5t-178.5 42
q-164 0 -272 -98t-158 -240.5t-50 -277.5q0 -123 43 -207.5t119.5 -126.5t179.5 -42q163 0 270.5 98zM631 1500q-12 0 -17.5 7t-3.5 19l54 223q4 21 25 21h196q12 0 18 -7t3 -19l-53 -223q-6 -21 -26 -21h-196zM1047 1500q-13 0 -18.5 7t-2.5 19l53 223q6 21 25 21h198
q12 0 17.5 -7t2.5 -19l-53 -223q-4 -21 -25 -21h-197z" />
    <glyph glyph-name="multiply" unicode="&#xd7;" horiz-adv-x="1099" 
d="M1079 990q7 -7 7 -16t-9 -17l-329 -268l202 -263q6 -7 6 -16q0 -8 -9 -17l-137 -127q-7 -7 -15 -7q-11 0 -19 11l-209 272l-341 -277q-8 -7 -17 -7t-17 9l-108 123q-7 7 -7 16q0 10 10 17l351 286l-189 245q-6 8 -6 15q0 8 10 18l139 125q7 7 15 7q10 0 17 -10l195 -253
l317 258q8 6 15 6q9 0 18 -9z" />
    <glyph glyph-name="Oslash" unicode="&#xd8;" horiz-adv-x="1505" 
d="M1633 1351q7 -7 7 -14q0 -9 -9 -18l-191 -179q81 -140 81 -328q0 -211 -97 -405.5t-280 -315.5t-427 -121q-120 0 -223 30t-185 88l-196 -182q-7 -7 -16 -7t-17 9l-120 141q-7 7 -7 15q0 7 9 18l191 178q-80 138 -80 328q0 211 97 405.5t280.5 315.5t428.5 121
q118 0 221 -29.5t184 -87.5l196 181q7 7 16 7q10 0 17 -9zM595 1098q-108 -98 -158 -240.5t-50 -277.5q0 -62 11 -117l702 651q-88 82 -233 82q-164 0 -272 -98zM999.5 302q107.5 98 157.5 240.5t50 277.5q0 56 -12 118l-702 -651q89 -83 236 -83q163 0 270.5 98z" />
    <glyph glyph-name="Ugrave" unicode="&#xd9;" horiz-adv-x="1281" 
d="M302.5 23q-114.5 53 -174 150.5t-59.5 230.5q0 76 19 158l80 338l102 479q4 21 26 21h271q12 0 17.5 -7t2.5 -19l-118 -466l-81 -350q-15 -64 -15 -121q0 -107 58 -166t174 -59q124 0 202.5 73t114.5 227l90 390l99 477q4 21 26 21h251q12 0 17.5 -7t2.5 -19l-119 -474
l-90 -390q-63 -272 -213.5 -406t-408.5 -134q-160 0 -274.5 53zM1096 1508q-6 -17 -22 -17q-5 0 -8 1l-471 139q-17 5 -17 20q0 2 2 10l61 174q6 16 19 16q6 0 12 -3l449 -203q15 -6 15 -20q0 -4 -2 -10z" />
    <glyph glyph-name="Uacute" unicode="&#xda;" horiz-adv-x="1281" 
d="M302.5 23q-114.5 53 -174 150.5t-59.5 230.5q0 76 19 158l80 338l102 479q4 21 26 21h271q12 0 17.5 -7t2.5 -19l-118 -466l-81 -350q-15 -64 -15 -121q0 -107 58 -166t174 -59q124 0 202.5 73t114.5 227l90 390l99 477q4 21 26 21h251q12 0 17.5 -7t2.5 -19l-119 -474
l-90 -390q-63 -272 -213.5 -406t-408.5 -134q-160 0 -274.5 53zM723 1502q-3 -1 -8 -1q-17 0 -21 18l-31 109q-1 3 -1 9q0 15 15 21l492 191q4 2 11 2q15 0 20 -17l46 -179q1 -3 1 -8q0 -17 -18 -20z" />
    <glyph glyph-name="Ucircumflex" unicode="&#xdb;" horiz-adv-x="1281" 
d="M302.5 23q-114.5 53 -174 150.5t-59.5 230.5q0 76 19 158l80 338l102 479q4 21 26 21h271q12 0 17.5 -7t2.5 -19l-118 -466l-81 -350q-15 -64 -15 -121q0 -107 58 -166t174 -59q124 0 202.5 73t114.5 227l90 390l99 477q4 21 26 21h251q12 0 17.5 -7t2.5 -19l-119 -474
l-90 -390q-63 -272 -213.5 -406t-408.5 -134q-160 0 -274.5 53zM543 1618q-3 6 -3 12q0 12 13 20l323 200q14 8 29 8h90q16 0 29 -10l252 -200q10 -7 10 -19q0 -7 -4 -14l-61 -98q-6 -12 -18 -12q-8 0 -13 4l-266 139l-305 -140q-6 -3 -11 -3q-14 0 -20 15z" />
    <glyph glyph-name="Udieresis" unicode="&#xdc;" horiz-adv-x="1281" 
d="M302.5 23q-114.5 53 -174 150.5t-59.5 230.5q0 76 19 158l80 338l102 479q4 21 26 21h271q12 0 17.5 -7t2.5 -19l-118 -466l-81 -350q-15 -64 -15 -121q0 -107 58 -166t174 -59q124 0 202.5 73t114.5 227l90 390l99 477q4 21 26 21h251q12 0 17.5 -7t2.5 -19l-119 -474
l-90 -390q-63 -272 -213.5 -406t-408.5 -134q-160 0 -274.5 53zM578 1500q-12 0 -17.5 7t-3.5 19l54 223q4 21 25 21h196q12 0 18 -7t3 -19l-53 -223q-6 -21 -26 -21h-196zM994 1500q-13 0 -18.5 7t-2.5 19l53 223q6 21 25 21h198q12 0 17.5 -7t2.5 -19l-53 -223
q-4 -21 -25 -21h-197z" />
    <glyph glyph-name="Yacute" unicode="&#xdd;" horiz-adv-x="1230" 
d="M201 1374q-1 3 -1 9q0 17 21 17h277q21 0 25 -21l148 -625l428 631q11 15 28 15h286q9 0 14.5 -4t5.5 -10q0 -7 -6 -15l-674 -891l-94 -459q-4 -21 -26 -21h-269q-21 0 -21 17q0 6 1 9l119 454zM678 1502q-3 -1 -8 -1q-17 0 -21 18l-31 109q-1 3 -1 9q0 15 15 21l492 191
q4 2 11 2q15 0 20 -17l46 -179q1 -3 1 -8q0 -17 -18 -20z" />
    <glyph glyph-name="Thorn" unicode="&#xde;" horiz-adv-x="1211" 
d="M734 1160q253 0 373.5 -108t120.5 -294q0 -151 -74 -266.5t-215 -180.5t-337 -65h-262l-47 -225q-4 -21 -26 -21h-267q-12 0 -18 7t-3 19l169 674l145 679q3 21 26 21h266q12 0 18 -7t3 -19l-54 -214h182zM626 468q151 0 226.5 75t75.5 197q0 93 -50 145.5t-166 52.5
h-215l-66 -264l-44 -206h239z" />
    <glyph glyph-name="germandbls" unicode="&#xdf;" horiz-adv-x="1181" 
d="M-17 -1q-12 0 -17.5 7.5t-2.5 19.5l107 428l124 536q50 218 185 324t363 106q145 0 242 -43.5t143.5 -117.5t46.5 -167q0 -122 -77.5 -209t-222.5 -123q246 -66 246 -306q0 -129 -67.5 -232t-204 -162.5t-334.5 -59.5h-78q-13 0 -18.5 7t-2.5 19l40 165q6 21 26 21h45
q96 0 160.5 32.5t96 89t31.5 128.5q0 88 -51 137t-151 49h-25q-12 0 -17.5 7.5t-2.5 18.5l33 145q5 21 25 21h15q117 0 178.5 56t61.5 148q0 74 -41.5 117t-126.5 43q-89 0 -144 -51.5t-82 -164.5l-124 -534l-91 -434q-4 -21 -26 -21h-262z" />
    <glyph glyph-name="agrave" unicode="&#xe0;" horiz-adv-x="1150" 
d="M1172 1030q12 0 18 -7t3 -19l-122 -496l-105 -487q-4 -21 -26 -21h-246q-21 0 -21 17q0 6 1 9l14 55q-120 -99 -278 -99q-116 0 -201 52.5t-130 148.5t-45 223q0 148 60 296.5t180 247t290 98.5q104 0 180 -38t121 -110l23 109q4 21 26 21h258zM675.5 254
q64.5 74 96.5 179t32 195q0 109 -47 165.5t-135 56.5q-100 0 -163.5 -72.5t-92 -173.5t-28.5 -188q0 -107 46 -171.5t134 -64.5q93 0 157.5 74zM935 1138q-6 -17 -22 -17q-5 0 -8 1l-471 139q-17 5 -17 20q0 2 2 10l61 174q6 16 19 16q6 0 12 -3l449 -203q15 -6 15 -20
q0 -4 -2 -10z" />
    <glyph glyph-name="aacute" unicode="&#xe1;" horiz-adv-x="1150" 
d="M1172 1030q12 0 18 -7t3 -19l-122 -496l-105 -487q-4 -21 -26 -21h-246q-21 0 -21 17q0 6 1 9l14 55q-120 -99 -278 -99q-116 0 -201 52.5t-130 148.5t-45 223q0 148 60 296.5t180 247t290 98.5q104 0 180 -38t121 -110l23 109q4 21 26 21h258zM675.5 254
q64.5 74 96.5 179t32 195q0 109 -47 165.5t-135 56.5q-100 0 -163.5 -72.5t-92 -173.5t-28.5 -188q0 -107 46 -171.5t134 -64.5q93 0 157.5 74zM562 1132q-3 -1 -8 -1q-17 0 -21 18l-31 109q-1 3 -1 9q0 15 15 21l492 191q4 2 11 2q15 0 20 -17l46 -179q1 -3 1 -8
q0 -17 -18 -20z" />
    <glyph glyph-name="acircumflex" unicode="&#xe2;" horiz-adv-x="1150" 
d="M1172 1030q12 0 18 -7t3 -19l-122 -496l-105 -487q-4 -21 -26 -21h-246q-21 0 -21 17q0 6 1 9l14 55q-120 -99 -278 -99q-116 0 -201 52.5t-130 148.5t-45 223q0 148 60 296.5t180 247t290 98.5q104 0 180 -38t121 -110l23 109q4 21 26 21h258zM675.5 254
q64.5 74 96.5 179t32 195q0 109 -47 165.5t-135 56.5q-100 0 -163.5 -72.5t-92 -173.5t-28.5 -188q0 -107 46 -171.5t134 -64.5q93 0 157.5 74zM382 1248q-3 6 -3 12q0 12 13 20l323 200q14 8 29 8h90q16 0 29 -10l252 -200q10 -7 10 -19q0 -7 -4 -14l-61 -98
q-6 -12 -18 -12q-8 0 -13 4l-266 139l-305 -140q-6 -3 -11 -3q-14 0 -20 15z" />
    <glyph glyph-name="atilde" unicode="&#xe3;" horiz-adv-x="1150" 
d="M1172 1030q12 0 18 -7t3 -19l-122 -496l-105 -487q-4 -21 -26 -21h-246q-21 0 -21 17q0 6 1 9l14 55q-120 -99 -278 -99q-116 0 -201 52.5t-130 148.5t-45 223q0 148 60 296.5t180 247t290 98.5q104 0 180 -38t121 -110l23 109q4 21 26 21h258zM675.5 254
q64.5 74 96.5 179t32 195q0 109 -47 165.5t-135 56.5q-100 0 -163.5 -72.5t-92 -173.5t-28.5 -188q0 -107 46 -171.5t134 -64.5q93 0 157.5 74zM787.5 1177.5q-33.5 17.5 -70.5 48.5q-23 20 -39 30t-34 10q-30 0 -47 -21.5t-27 -63.5q-5 -21 -26 -21h-105q-12 0 -17.5 6.5
t-4.5 18.5q22 119 85 191t160 72q44 0 76 -17.5t72 -49.5q24 -20 39.5 -29.5t30.5 -9.5q31 0 48 21t25 61q6 22 26 22h105q10 0 15.5 -6t5.5 -16q0 -7 -1 -10q-22 -120 -82.5 -187t-153.5 -67q-47 0 -80.5 17.5z" />
    <glyph glyph-name="adieresis" unicode="&#xe4;" horiz-adv-x="1150" 
d="M1172 1030q12 0 18 -7t3 -19l-122 -496l-105 -487q-4 -21 -26 -21h-246q-21 0 -21 17q0 6 1 9l14 55q-120 -99 -278 -99q-116 0 -201 52.5t-130 148.5t-45 223q0 148 60 296.5t180 247t290 98.5q104 0 180 -38t121 -110l23 109q4 21 26 21h258zM675.5 254
q64.5 74 96.5 179t32 195q0 109 -47 165.5t-135 56.5q-100 0 -163.5 -72.5t-92 -173.5t-28.5 -188q0 -107 46 -171.5t134 -64.5q93 0 157.5 74zM417 1130q-12 0 -17.5 7t-3.5 19l54 223q4 21 25 21h196q12 0 18 -7t3 -19l-53 -223q-6 -21 -26 -21h-196zM833 1130
q-13 0 -18.5 7t-2.5 19l53 223q6 21 25 21h198q12 0 17.5 -7t2.5 -19l-53 -223q-4 -21 -25 -21h-197z" />
    <glyph glyph-name="aring" unicode="&#xe5;" horiz-adv-x="1150" 
d="M1172 1030q12 0 18 -7t3 -19l-122 -496l-105 -487q-4 -21 -26 -21h-246q-21 0 -21 17q0 6 1 9l14 55q-120 -99 -278 -99q-116 0 -201 52.5t-130 148.5t-45 223q0 148 60 296.5t180 247t290 98.5q104 0 180 -38t121 -110l23 109q4 21 26 21h258zM675.5 254
q64.5 74 96.5 179t32 195q0 109 -47 165.5t-135 56.5q-100 0 -163.5 -72.5t-92 -173.5t-28.5 -188q0 -107 46 -171.5t134 -64.5q93 0 157.5 74zM633.5 1171.5q-57.5 27.5 -91.5 78t-34 116.5q0 68 36 126t99.5 93t142.5 35q71 0 128.5 -28.5t90.5 -79t33 -114.5
q0 -68 -36 -126t-99.5 -93t-142.5 -35q-69 0 -126.5 27.5zM848.5 1291.5q33.5 41.5 33.5 104.5q0 56 -27.5 87t-70.5 31q-56 0 -88 -44t-32 -104q0 -55 28 -85.5t72 -30.5q51 0 84.5 41.5z" />
    <glyph glyph-name="ae" unicode="&#xe6;" horiz-adv-x="1881" 
d="M1646 1000q98 -54 150.5 -152t52.5 -225q0 -68 -17 -148q-4 -21 -25 -21h-719v-8q0 -144 53 -208t151 -64q81 0 137.5 41.5t83.5 120.5q7 20 27 20h237q12 0 18 -6.5t3 -16.5q-28 -108 -96.5 -188.5t-169.5 -124.5t-226 -44q-102 0 -185 29.5t-143 86.5l-16 -71
q-4 -21 -25 -21h-242q-13 0 -18.5 7t-2.5 19l14 56q-116 -100 -278 -100q-116 0 -201 52.5t-130 148.5t-45 223q0 148 60 296.5t180 247t290 98.5q174 0 272 -108l15 69q4 21 25 21h243q12 0 17.5 -7t2.5 -19l-9 -42q119 92 286 92q132 0 230 -54zM1552 644q1 9 1 27
q0 82 -49.5 133.5t-137.5 51.5q-92 0 -155 -57.5t-94 -154.5h435zM675.5 254q64.5 74 96.5 179t32 195q0 109 -47 165.5t-135 56.5q-100 0 -163.5 -72.5t-92 -173.5t-28.5 -188q0 -107 46 -171.5t134 -64.5q93 0 157.5 74z" />
    <glyph glyph-name="ccedilla" unicode="&#xe7;" horiz-adv-x="1092" 
d="M860 1008q99 -46 154.5 -131t59.5 -199q0 -24 -23 -24h-238q-22 0 -24 24q-6 84 -54 129t-123 45q-88 0 -148.5 -66t-90 -164t-29.5 -196q0 -125 48 -187.5t134 -62.5q81 0 139 50t86 142q4 20 26 20h238q12 0 18 -6.5t3 -17.5q-43 -168 -162.5 -270t-296.5 -117
l-156 -321q-9 -18 -29 -15l-221 34q-18 3 -18 17q0 6 4 13l174 297q-137 45 -214 156.5t-77 279.5q0 158 70 299.5t204.5 229t317.5 87.5q129 0 228 -46z" />
    <glyph glyph-name="egrave" unicode="&#xe8;" horiz-adv-x="1128" 
d="M876 999q105 -55 162 -155t57 -229q0 -69 -16 -140q-4 -21 -26 -21h-719v-30q0 -124 54.5 -187t151.5 -63q81 0 136.5 41.5t83.5 120.5q6 20 27 20h236q12 0 18 -6.5t3 -16.5q-45 -168 -178.5 -262.5t-331.5 -94.5q-145 0 -257 53.5t-174.5 157.5t-62.5 251
q0 159 71 300.5t205 228.5t314 87q141 0 246 -55zM798 644q1 9 1 27q0 83 -49.5 135t-137.5 52q-93 0 -155.5 -56.5t-93.5 -157.5h435zM921 1138q-6 -17 -22 -17q-5 0 -8 1l-471 139q-17 5 -17 20q0 2 2 10l61 174q6 16 19 16q6 0 12 -3l449 -203q15 -6 15 -20q0 -4 -2 -10z
" />
    <glyph glyph-name="eacute" unicode="&#xe9;" horiz-adv-x="1128" 
d="M876 999q105 -55 162 -155t57 -229q0 -69 -16 -140q-4 -21 -26 -21h-719v-30q0 -124 54.5 -187t151.5 -63q81 0 136.5 41.5t83.5 120.5q6 20 27 20h236q12 0 18 -6.5t3 -16.5q-45 -168 -178.5 -262.5t-331.5 -94.5q-145 0 -257 53.5t-174.5 157.5t-62.5 251
q0 159 71 300.5t205 228.5t314 87q141 0 246 -55zM798 644q1 9 1 27q0 83 -49.5 135t-137.5 52q-93 0 -155.5 -56.5t-93.5 -157.5h435zM548 1132q-3 -1 -8 -1q-17 0 -21 18l-31 109q-1 3 -1 9q0 15 15 21l492 191q4 2 11 2q15 0 20 -17l46 -179q1 -3 1 -8q0 -17 -18 -20z
" />
    <glyph glyph-name="ecircumflex" unicode="&#xea;" horiz-adv-x="1128" 
d="M876 999q105 -55 162 -155t57 -229q0 -69 -16 -140q-4 -21 -26 -21h-719v-30q0 -124 54.5 -187t151.5 -63q81 0 136.5 41.5t83.5 120.5q6 20 27 20h236q12 0 18 -6.5t3 -16.5q-45 -168 -178.5 -262.5t-331.5 -94.5q-145 0 -257 53.5t-174.5 157.5t-62.5 251
q0 159 71 300.5t205 228.5t314 87q141 0 246 -55zM798 644q1 9 1 27q0 83 -49.5 135t-137.5 52q-93 0 -155.5 -56.5t-93.5 -157.5h435zM368 1248q-3 6 -3 12q0 12 13 20l323 200q14 8 29 8h90q16 0 29 -10l252 -200q10 -7 10 -19q0 -7 -4 -14l-61 -98q-6 -12 -18 -12
q-8 0 -13 4l-266 139l-305 -140q-6 -3 -11 -3q-14 0 -20 15z" />
    <glyph glyph-name="edieresis" unicode="&#xeb;" horiz-adv-x="1128" 
d="M876 999q105 -55 162 -155t57 -229q0 -69 -16 -140q-4 -21 -26 -21h-719v-30q0 -124 54.5 -187t151.5 -63q81 0 136.5 41.5t83.5 120.5q6 20 27 20h236q12 0 18 -6.5t3 -16.5q-45 -168 -178.5 -262.5t-331.5 -94.5q-145 0 -257 53.5t-174.5 157.5t-62.5 251
q0 159 71 300.5t205 228.5t314 87q141 0 246 -55zM798 644q1 9 1 27q0 83 -49.5 135t-137.5 52q-93 0 -155.5 -56.5t-93.5 -157.5h435zM403 1130q-12 0 -17.5 7t-3.5 19l54 223q4 21 25 21h196q12 0 18 -7t3 -19l-53 -223q-6 -21 -26 -21h-196zM819 1130q-13 0 -18.5 7
t-2.5 19l53 223q6 21 25 21h198q12 0 17.5 -7t2.5 -19l-53 -223q-4 -21 -25 -21h-197z" />
    <glyph glyph-name="igrave" unicode="&#xec;" horiz-adv-x="472" 
d="M579 1139q-7 -15 -22 -15q-5 0 -8 1l-404 113q-17 6 -17 19q0 5 3 11l73 174q6 15 19 15q7 0 11 -2l378 -176q14 -8 14 -20q0 -3 -2 -11zM-12 0q-12 0 -18 7t-3 19l122 488l106 495q3 21 26 21h261q12 0 18 -7t3 -19l-124 -490l-103 -493q-4 -21 -26 -21h-262z" />
    <glyph glyph-name="iacute" unicode="&#xed;" horiz-adv-x="472" 
d="M211 1127q-3 -1 -8 -1q-16 0 -21 17l-31 110q-1 3 -1 9q0 15 15 21l446 175q4 2 11 2q14 0 19 -17l45 -179q1 -3 1 -9q0 -16 -18 -19zM-12 0q-12 0 -18 7t-3 19l122 488l106 495q3 21 26 21h261q12 0 18 -7t3 -19l-124 -490l-103 -493q-4 -21 -26 -21h-262z" />
    <glyph glyph-name="icircumflex" unicode="&#xee;" horiz-adv-x="471" 
d="M93 1251q-2 4 -2 11q0 13 11 21l268 195q11 10 29 10h89q17 0 29 -12l201 -195q8 -8 8 -18q0 -9 -5 -15l-68 -99q-8 -12 -18 -12q-7 0 -15 6l-205 137l-248 -136q-7 -4 -13 -4q-13 0 -19 15zM-12 0q-12 0 -18 7t-3 19l122 488l106 495q3 21 26 21h261q12 0 18 -7t3 -19
l-124 -490l-103 -493q-4 -21 -26 -21h-262z" />
    <glyph glyph-name="idieresis" unicode="&#xef;" horiz-adv-x="471" 
d="M129 1130q-12 0 -17 7t-3 19l52 223q3 21 25 21h179q12 0 17 -7t3 -19l-51 -223q-4 -21 -26 -21h-179zM459 1130q-12 0 -17 7t-3 19l52 223q3 21 25 21h177q12 0 17 -7t3 -19l-51 -223q-4 -21 -26 -21h-177zM-12 0q-12 0 -18 7t-3 19l122 488l106 495q3 21 26 21h261
q12 0 18 -7t3 -19l-124 -490l-103 -493q-4 -21 -26 -21h-262z" />
    <glyph glyph-name="eth" unicode="&#xf0;" horiz-adv-x="1180" 
d="M1216 1323q3 1 9 1q8 0 13.5 -4.5t6.5 -12.5l27 -116q1 -3 1 -8q0 -16 -17 -21l-195 -58q95 -167 95 -392q0 -193 -67 -361t-209.5 -272.5t-357.5 -104.5q-143 0 -254.5 48t-174.5 141.5t-63 226.5q0 139 68 256t187 185.5t263 68.5q121 0 206.5 -48.5t125.5 -133.5
q4 46 4 94q0 115 -65 219l-262 -78q-3 -1 -8 -1q-16 0 -21 18l-29 116q-1 3 -1 8q0 15 17 20l182 54q-74 63 -177 110q-14 8 -14 18q0 8 7 15l123 132q9 9 19 9q6 0 14 -3q176 -89 286 -204zM670.5 220q57.5 46 86.5 118t29 148q0 97 -50.5 152.5t-139.5 55.5
q-80 0 -137 -46t-85 -117.5t-28 -146.5q0 -98 49 -154t137 -56q81 0 138.5 46z" />
    <glyph glyph-name="ntilde" unicode="&#xf1;" horiz-adv-x="1121" 
d="M-23 0q-12 0 -17.5 7t-2.5 19l118 468l113 515q4 21 25 21h244q12 0 17.5 -7t2.5 -19l-25 -106q62 70 149 113t187 43q88 0 156.5 -34.5t107.5 -101.5t39 -161q0 -57 -15 -123l-45 -196l-90 -417q-4 -21 -26 -21h-259q-21 0 -21 17q0 6 1 9l97 378l44 212q9 42 9 76
q0 69 -34 105.5t-98 36.5q-72 0 -129 -47t-95 -119.5t-58 -153.5l-27 -114l-78 -379q-4 -21 -26 -21h-264zM781.5 1177.5q-33.5 17.5 -70.5 48.5q-23 20 -39 30t-34 10q-30 0 -47 -21.5t-27 -63.5q-5 -21 -26 -21h-105q-12 0 -17.5 6.5t-4.5 18.5q22 119 85 191t160 72
q44 0 76 -17.5t72 -49.5q24 -20 39.5 -29.5t30.5 -9.5q31 0 48 21t25 61q6 22 26 22h105q10 0 15.5 -6t5.5 -16q0 -7 -1 -10q-22 -120 -82.5 -187t-153.5 -67q-47 0 -80.5 17.5z" />
    <glyph glyph-name="ograve" unicode="&#xf2;" horiz-adv-x="1154" 
d="M270.5 30q-108.5 54 -169.5 158t-61 250q0 158 72 300t207.5 229t316.5 87q139 0 247.5 -54t169.5 -158t61 -250q0 -158 -72 -300t-207.5 -229t-316.5 -87q-139 0 -247.5 54zM686.5 242.5q63.5 68.5 93.5 168.5t30 195q0 122 -50 186t-136 64q-93 0 -156.5 -68.5
t-93.5 -168.5t-30 -195q0 -122 50 -186t136 -64q93 0 156.5 68.5zM935 1138q-6 -17 -22 -17q-5 0 -8 1l-471 139q-17 5 -17 20q0 2 2 10l61 174q6 16 19 16q6 0 12 -3l449 -203q15 -6 15 -20q0 -4 -2 -10z" />
    <glyph glyph-name="oacute" unicode="&#xf3;" horiz-adv-x="1154" 
d="M270.5 30q-108.5 54 -169.5 158t-61 250q0 158 72 300t207.5 229t316.5 87q139 0 247.5 -54t169.5 -158t61 -250q0 -158 -72 -300t-207.5 -229t-316.5 -87q-139 0 -247.5 54zM686.5 242.5q63.5 68.5 93.5 168.5t30 195q0 122 -50 186t-136 64q-93 0 -156.5 -68.5
t-93.5 -168.5t-30 -195q0 -122 50 -186t136 -64q93 0 156.5 68.5zM562 1132q-3 -1 -8 -1q-17 0 -21 18l-31 109q-1 3 -1 9q0 15 15 21l492 191q4 2 11 2q15 0 20 -17l46 -179q1 -3 1 -8q0 -17 -18 -20z" />
    <glyph glyph-name="ocircumflex" unicode="&#xf4;" horiz-adv-x="1154" 
d="M270.5 30q-108.5 54 -169.5 158t-61 250q0 158 72 300t207.5 229t316.5 87q139 0 247.5 -54t169.5 -158t61 -250q0 -158 -72 -300t-207.5 -229t-316.5 -87q-139 0 -247.5 54zM686.5 242.5q63.5 68.5 93.5 168.5t30 195q0 122 -50 186t-136 64q-93 0 -156.5 -68.5
t-93.5 -168.5t-30 -195q0 -122 50 -186t136 -64q93 0 156.5 68.5zM382 1248q-3 6 -3 12q0 12 13 20l323 200q14 8 29 8h90q16 0 29 -10l252 -200q10 -7 10 -19q0 -7 -4 -14l-61 -98q-6 -12 -18 -12q-8 0 -13 4l-266 139l-305 -140q-6 -3 -11 -3q-14 0 -20 15z" />
    <glyph glyph-name="otilde" unicode="&#xf5;" horiz-adv-x="1154" 
d="M270.5 30q-108.5 54 -169.5 158t-61 250q0 158 72 300t207.5 229t316.5 87q139 0 247.5 -54t169.5 -158t61 -250q0 -158 -72 -300t-207.5 -229t-316.5 -87q-139 0 -247.5 54zM686.5 242.5q63.5 68.5 93.5 168.5t30 195q0 122 -50 186t-136 64q-93 0 -156.5 -68.5
t-93.5 -168.5t-30 -195q0 -122 50 -186t136 -64q93 0 156.5 68.5zM787.5 1177.5q-33.5 17.5 -70.5 48.5q-23 20 -39 30t-34 10q-30 0 -47 -21.5t-27 -63.5q-5 -21 -26 -21h-105q-12 0 -17.5 6.5t-4.5 18.5q22 119 85 191t160 72q44 0 76 -17.5t72 -49.5q24 -20 39.5 -29.5
t30.5 -9.5q31 0 48 21t25 61q6 22 26 22h105q10 0 15.5 -6t5.5 -16q0 -7 -1 -10q-22 -120 -82.5 -187t-153.5 -67q-47 0 -80.5 17.5z" />
    <glyph glyph-name="odieresis" unicode="&#xf6;" horiz-adv-x="1154" 
d="M270.5 30q-108.5 54 -169.5 158t-61 250q0 158 72 300t207.5 229t316.5 87q139 0 247.5 -54t169.5 -158t61 -250q0 -158 -72 -300t-207.5 -229t-316.5 -87q-139 0 -247.5 54zM686.5 242.5q63.5 68.5 93.5 168.5t30 195q0 122 -50 186t-136 64q-93 0 -156.5 -68.5
t-93.5 -168.5t-30 -195q0 -122 50 -186t136 -64q93 0 156.5 68.5zM417 1130q-12 0 -17.5 7t-3.5 19l54 223q4 21 25 21h196q12 0 18 -7t3 -19l-53 -223q-6 -21 -26 -21h-196zM833 1130q-13 0 -18.5 7t-2.5 19l53 223q6 21 25 21h198q12 0 17.5 -7t2.5 -19l-53 -223
q-4 -21 -25 -21h-197z" />
    <glyph glyph-name="divide" unicode="&#xf7;" horiz-adv-x="1099" 
d="M526 970q-21 0 -21 18q0 5 1 8l55 239q5 21 25 21h265q21 0 21 -18q0 -5 -1 -8l-55 -239q-4 -21 -25 -21h-265zM122 578q-12 0 -17.5 7.5t-3.5 18.5l40 175q5 21 25 21h893q13 0 18.5 -7.5t2.5 -18.5l-40 -175q-4 -21 -25 -21h-893zM332 126q-21 0 -21 18q0 5 1 8l55 239
q5 21 25 21h265q21 0 21 -18q0 -5 -1 -8l-55 -239q-4 -21 -25 -21h-265z" />
    <glyph glyph-name="oslash" unicode="&#xf8;" horiz-adv-x="1153" 
d="M239 48l-139 -132q-8 -8 -15 -8q-10 0 -18 11l-83 100q-7 9 -7 16q0 8 9 17l126 119q-72 111 -72 267q0 158 72 300t207.5 229t316.5 87q160 0 277 -70l137 130q8 8 16 8q10 0 18 -11l82 -100q7 -9 7 -16q0 -8 -9 -16l-123 -117q73 -114 73 -270q0 -158 -72 -300
t-207.5 -229t-316.5 -87q-163 0 -279 72zM467.5 787.5q-63.5 -68.5 -93.5 -168.5t-30 -195q0 -16 2 -42l405 420q-46 54 -127 54q-93 0 -156.5 -68.5zM686.5 242.5q63.5 68.5 93.5 168.5t30 195q0 19 -2 47l-406 -424q46 -55 128 -55q93 0 156.5 68.5z" />
    <glyph glyph-name="ugrave" unicode="&#xf9;" horiz-adv-x="1121" 
d="M1140 1030q12 0 18 -7t3 -19l-118 -468l-113 -515q-4 -21 -26 -21h-243q-12 0 -17.5 7t-3.5 19l26 106q-62 -70 -149 -113t-187 -43q-88 0 -157.5 34.5t-109 101.5t-39.5 161q0 59 16 123l47 196l90 417q3 21 26 21h259q10 0 15.5 -5t5.5 -13q0 -5 -1 -8l-97 -378
l-43 -212q-8 -37 -8 -76q0 -69 33 -105.5t97 -36.5q104 0 175.5 95t104.5 225l29 114l78 379q3 21 26 21h263zM909 1138q-6 -17 -22 -17q-5 0 -8 1l-471 139q-17 5 -17 20q0 2 2 10l61 174q6 16 19 16q6 0 12 -3l449 -203q15 -6 15 -20q0 -4 -2 -10z" />
    <glyph glyph-name="uacute" unicode="&#xfa;" horiz-adv-x="1121" 
d="M1140 1030q12 0 18 -7t3 -19l-118 -468l-113 -515q-4 -21 -26 -21h-243q-12 0 -17.5 7t-3.5 19l26 106q-62 -70 -149 -113t-187 -43q-88 0 -157.5 34.5t-109 101.5t-39.5 161q0 59 16 123l47 196l90 417q3 21 26 21h259q10 0 15.5 -5t5.5 -13q0 -5 -1 -8l-97 -378
l-43 -212q-8 -37 -8 -76q0 -69 33 -105.5t97 -36.5q104 0 175.5 95t104.5 225l29 114l78 379q3 21 26 21h263zM536 1132q-3 -1 -8 -1q-17 0 -21 18l-31 109q-1 3 -1 9q0 15 15 21l492 191q4 2 11 2q15 0 20 -17l46 -179q1 -3 1 -8q0 -17 -18 -20z" />
    <glyph glyph-name="ucircumflex" unicode="&#xfb;" horiz-adv-x="1121" 
d="M1140 1030q12 0 18 -7t3 -19l-118 -468l-113 -515q-4 -21 -26 -21h-243q-12 0 -17.5 7t-3.5 19l26 106q-62 -70 -149 -113t-187 -43q-88 0 -157.5 34.5t-109 101.5t-39.5 161q0 59 16 123l47 196l90 417q3 21 26 21h259q10 0 15.5 -5t5.5 -13q0 -5 -1 -8l-97 -378
l-43 -212q-8 -37 -8 -76q0 -69 33 -105.5t97 -36.5q104 0 175.5 95t104.5 225l29 114l78 379q3 21 26 21h263zM356 1248q-3 6 -3 12q0 12 13 20l323 200q14 8 29 8h90q16 0 29 -10l252 -200q10 -7 10 -19q0 -7 -4 -14l-61 -98q-6 -12 -18 -12q-8 0 -13 4l-266 139l-305 -140
q-6 -3 -11 -3q-14 0 -20 15z" />
    <glyph glyph-name="udieresis" unicode="&#xfc;" horiz-adv-x="1121" 
d="M1140 1030q12 0 18 -7t3 -19l-118 -468l-113 -515q-4 -21 -26 -21h-243q-12 0 -17.5 7t-3.5 19l26 106q-62 -70 -149 -113t-187 -43q-88 0 -157.5 34.5t-109 101.5t-39.5 161q0 59 16 123l47 196l90 417q3 21 26 21h259q10 0 15.5 -5t5.5 -13q0 -5 -1 -8l-97 -378
l-43 -212q-8 -37 -8 -76q0 -69 33 -105.5t97 -36.5q104 0 175.5 95t104.5 225l29 114l78 379q3 21 26 21h263zM391 1130q-12 0 -17.5 7t-3.5 19l54 223q4 21 25 21h196q12 0 18 -7t3 -19l-53 -223q-6 -21 -26 -21h-196zM807 1130q-13 0 -18.5 7t-2.5 19l53 223q6 21 25 21
h198q12 0 17.5 -7t2.5 -19l-53 -223q-4 -21 -25 -21h-197z" />
    <glyph glyph-name="yacute" unicode="&#xfd;" horiz-adv-x="1023" 
d="M103 -340q-10 0 -15 4t-5 11q0 6 4 13l188 330l-170 987l-1 6q0 19 22 19h260q24 0 25 -22l76 -638l333 643q7 17 28 17h282q10 0 15 -4t5 -11q0 -6 -4 -13l-760 -1326q-9 -16 -28 -16h-255zM482 1132q-3 -1 -8 -1q-17 0 -21 18l-31 109q-1 3 -1 9q0 15 15 21l492 191
q4 2 11 2q15 0 20 -17l46 -179q1 -3 1 -8q0 -17 -18 -20z" />
    <glyph glyph-name="thorn" unicode="&#xfe;" horiz-adv-x="1152" 
d="M943 995.5q85 -52.5 130 -148.5t45 -223q0 -148 -60 -296.5t-180 -247t-290 -98.5q-103 0 -178.5 37.5t-120.5 108.5l-99 -447q-4 -21 -26 -21h-262q-12 0 -18 7t-3 19l216 904l174 789q3 21 25 21h254q12 0 18 -7t3 -19l-104 -423q120 97 275 97q116 0 201 -52.5z
M693 247.5q64 73.5 92.5 176t28.5 190.5q0 109 -45.5 175.5t-132.5 66.5q-94 0 -159 -75t-97 -181t-32 -198q0 -111 47 -169.5t133 -58.5q101 0 165 73.5z" />
    <glyph glyph-name="ydieresis" unicode="&#xff;" horiz-adv-x="1023" 
d="M103 -340q-10 0 -15 4t-5 11q0 6 4 13l188 330l-170 987l-1 6q0 19 22 19h260q24 0 25 -22l76 -638l333 643q7 17 28 17h282q10 0 15 -4t5 -11q0 -6 -4 -13l-760 -1326q-9 -16 -28 -16h-255zM337 1130q-12 0 -17.5 7t-3.5 19l54 223q4 21 25 21h196q12 0 18 -7t3 -19
l-53 -223q-6 -21 -26 -21h-196zM753 1130q-13 0 -18.5 7t-2.5 19l53 223q6 21 25 21h198q12 0 17.5 -7t2.5 -19l-53 -223q-4 -21 -25 -21h-197z" />
    <glyph glyph-name="Amacron" unicode="&#x100;" horiz-adv-x="1351" 
d="M1241 25q1 -12 -5 -18.5t-18 -6.5h-248q-23 0 -24 23l-29 333h-526l-182 -340q-11 -16 -28 -16h-277q-10 0 -15 4t-5 11q0 6 4 13l785 1356q8 16 28 16h368q24 0 25 -22zM895 598l-53 598l-321 -598h374zM618 1530q-13 0 -18.5 7t-2.5 19l37 153q6 21 25 21h607
q12 0 17.5 -7t2.5 -19l-37 -153q-4 -21 -25 -21h-606z" />
    <glyph glyph-name="amacron" unicode="&#x101;" horiz-adv-x="1150" 
d="M1172 1030q12 0 18 -7t3 -19l-122 -496l-105 -487q-4 -21 -26 -21h-246q-21 0 -21 17q0 6 1 9l14 55q-120 -99 -278 -99q-116 0 -201 52.5t-130 148.5t-45 223q0 148 60 296.5t180 247t290 98.5q104 0 180 -38t121 -110l23 109q4 21 26 21h258zM675.5 254
q64.5 74 96.5 179t32 195q0 109 -47 165.5t-135 56.5q-100 0 -163.5 -72.5t-92 -173.5t-28.5 -188q0 -107 46 -171.5t134 -64.5q93 0 157.5 74zM429 1160q-13 0 -18.5 7t-2.5 19l37 153q6 21 25 21h607q12 0 17.5 -7t2.5 -19l-37 -153q-4 -21 -25 -21h-606z" />
    <glyph glyph-name="Abreve" unicode="&#x102;" horiz-adv-x="1351" 
d="M1241 25q1 -12 -5 -18.5t-18 -6.5h-248q-23 0 -24 23l-29 333h-526l-182 -340q-11 -16 -28 -16h-277q-10 0 -15 4t-5 11q0 6 4 13l785 1356q8 16 28 16h368q24 0 25 -22zM895 598l-53 598l-321 -598h374zM771 1560.5q-72 40.5 -107.5 111t-29.5 158.5q3 22 26 22h147
q22 0 22 -26q0 -52 32.5 -83t93.5 -31q60 0 101.5 32.5t59.5 87.5q6 20 26 20h150q12 0 18.5 -6t4.5 -17q-18 -89 -68.5 -159t-129 -110t-176.5 -40t-170 40.5z" />
    <glyph glyph-name="abreve" unicode="&#x103;" horiz-adv-x="1150" 
d="M1172 1030q12 0 18 -7t3 -19l-122 -496l-105 -487q-4 -21 -26 -21h-246q-21 0 -21 17q0 6 1 9l14 55q-120 -99 -278 -99q-116 0 -201 52.5t-130 148.5t-45 223q0 148 60 296.5t180 247t290 98.5q104 0 180 -38t121 -110l23 109q4 21 26 21h258zM675.5 254
q64.5 74 96.5 179t32 195q0 109 -47 165.5t-135 56.5q-100 0 -163.5 -72.5t-92 -173.5t-28.5 -188q0 -107 46 -171.5t134 -64.5q93 0 157.5 74zM581 1190.5q-72 40.5 -107.5 111t-29.5 158.5q3 22 26 22h147q22 0 22 -26q0 -52 32.5 -83t93.5 -31q60 0 101.5 32.5t59.5 87.5
q6 20 26 20h150q12 0 18.5 -6t4.5 -17q-18 -89 -68.5 -159t-129 -110t-176.5 -40t-170 40.5z" />
    <glyph glyph-name="Aogonek" unicode="&#x104;" horiz-adv-x="1351" 
d="M1241 25q1 -12 -5 -18.5t-18 -6.5h-161q-37 -25 -65 -69t-28 -85q0 -70 102 -70h73q12 0 17.5 -7t3.5 -19l-35 -149q-4 -21 -26 -21h-105q-88 0 -149 26t-92 71.5t-31 104.5q0 85 61.5 149.5t161.5 101.5l-28 323h-526l-182 -340q-11 -16 -28 -16h-277q-10 0 -15 4t-5 11
q0 6 4 13l785 1356q8 16 28 16h368q24 0 25 -22zM842 1196l-321 -598h374z" />
    <glyph glyph-name="aogonek" unicode="&#x105;" horiz-adv-x="1150" 
d="M1172 1030q12 0 18 -7t3 -19l-122 -496l-105 -487q-4 -21 -26 -21h-90q-37 -25 -65 -69t-28 -85q0 -70 102 -70h73q12 0 17.5 -7t3.5 -19l-35 -149q-5 -21 -26 -21h-105q-88 0 -149 26t-92 71.5t-31 104.5q0 71 43.5 128t117.5 96q-4 6 -4 11l2 9l14 55
q-120 -99 -278 -99q-116 0 -201 52.5t-130 148.5t-45 223q0 148 60 296.5t180 247t290 98.5q104 0 180 -38t121 -110l23 109q4 21 26 21h258zM675.5 254q64.5 74 96.5 179t32 195q0 109 -47 165.5t-135 56.5q-100 0 -163.5 -72.5t-92 -173.5t-28.5 -188q0 -107 46 -171.5
t134 -64.5q93 0 157.5 74z" />
    <glyph glyph-name="Cacute" unicode="&#x106;" horiz-adv-x="1407" 
d="M375.5 43q-141.5 73 -221 213t-79.5 336q0 210 93.5 403t271.5 314t419 121q168 0 295 -61.5t200.5 -175t83.5 -267.5q1 -11 -5.5 -17.5t-18.5 -6.5h-247q-21 0 -24 23q-13 132 -92.5 201.5t-207.5 69.5q-156 0 -258.5 -98t-149 -239.5t-46.5 -274.5q0 -189 88.5 -284.5
t241.5 -95.5q129 0 218.5 71.5t136.5 208.5q7 20 27 20h254q21 0 21 -17q0 -5 -1 -8q-45 -157 -138 -271.5t-229 -176t-307 -61.5q-184 0 -325.5 73zM726 1502q-3 -1 -8 -1q-17 0 -21 18l-31 109q-1 3 -1 9q0 15 15 21l492 191q4 2 11 2q15 0 20 -17l46 -179q1 -3 1 -8
q0 -17 -18 -20z" />
    <glyph glyph-name="cacute" unicode="&#x107;" horiz-adv-x="1092" 
d="M268 27.5q-108 53.5 -168 158t-60 252.5q0 158 70 299.5t204.5 229t317.5 87.5q129 0 228 -46t154.5 -131t59.5 -199q0 -24 -23 -24h-238q-22 0 -24 24q-6 84 -54 129t-123 45q-88 0 -148.5 -66t-90 -164t-29.5 -196q0 -125 48 -187.5t134 -62.5q81 0 139 50t86 142
q4 20 26 20h238q12 0 18 -6.5t3 -17.5q-31 -120 -102 -207.5t-177 -135t-239 -47.5q-142 0 -250 53.5zM532 1132q-3 -1 -8 -1q-17 0 -21 18l-31 109q-1 3 -1 9q0 15 15 21l492 191q4 2 11 2q15 0 20 -17l46 -179q1 -3 1 -8q0 -17 -18 -20z" />
    <glyph glyph-name="Ccircumflex" unicode="&#x108;" horiz-adv-x="1407" 
d="M375.5 43q-141.5 73 -221 213t-79.5 336q0 210 93.5 403t271.5 314t419 121q168 0 295 -61.5t200.5 -175t83.5 -267.5q1 -11 -5.5 -17.5t-18.5 -6.5h-247q-21 0 -24 23q-13 132 -92.5 201.5t-207.5 69.5q-156 0 -258.5 -98t-149 -239.5t-46.5 -274.5q0 -189 88.5 -284.5
t241.5 -95.5q129 0 218.5 71.5t136.5 208.5q7 20 27 20h254q21 0 21 -17q0 -5 -1 -8q-45 -157 -138 -271.5t-229 -176t-307 -61.5q-184 0 -325.5 73zM547 1618q-3 6 -3 12q0 12 13 20l323 200q14 8 29 8h90q16 0 29 -10l252 -200q10 -7 10 -19q0 -7 -4 -14l-61 -98
q-6 -12 -18 -12q-8 0 -13 4l-266 139l-305 -140q-6 -3 -11 -3q-14 0 -20 15z" />
    <glyph glyph-name="ccircumflex" unicode="&#x109;" horiz-adv-x="1092" 
d="M268 27.5q-108 53.5 -168 158t-60 252.5q0 158 70 299.5t204.5 229t317.5 87.5q129 0 228 -46t154.5 -131t59.5 -199q0 -24 -23 -24h-238q-22 0 -24 24q-6 84 -54 129t-123 45q-88 0 -148.5 -66t-90 -164t-29.5 -196q0 -125 48 -187.5t134 -62.5q81 0 139 50t86 142
q4 20 26 20h238q12 0 18 -6.5t3 -17.5q-31 -120 -102 -207.5t-177 -135t-239 -47.5q-142 0 -250 53.5zM352 1248q-3 6 -3 12q0 12 13 20l323 200q14 8 29 8h90q16 0 29 -10l252 -200q10 -7 10 -19q0 -7 -4 -14l-61 -98q-6 -12 -18 -12q-8 0 -13 4l-266 139l-305 -140
q-6 -3 -11 -3q-14 0 -20 15z" />
    <glyph glyph-name="Cdotaccent" unicode="&#x10a;" horiz-adv-x="1407" 
d="M375.5 43q-141.5 73 -221 213t-79.5 336q0 210 93.5 403t271.5 314t419 121q168 0 295 -61.5t200.5 -175t83.5 -267.5q1 -11 -5.5 -17.5t-18.5 -6.5h-247q-21 0 -24 23q-13 132 -92.5 201.5t-207.5 69.5q-156 0 -258.5 -98t-149 -239.5t-46.5 -274.5q0 -189 88.5 -284.5
t241.5 -95.5q129 0 218.5 71.5t136.5 208.5q7 20 27 20h254q21 0 21 -17q0 -5 -1 -8q-45 -157 -138 -271.5t-229 -176t-307 -61.5q-184 0 -325.5 73zM761 1500q-12 0 -17.5 7t-3.5 19l54 223q4 21 25 21h256q12 0 18 -7t3 -19l-53 -223q-6 -21 -26 -21h-256z" />
    <glyph glyph-name="cdotaccent" unicode="&#x10b;" horiz-adv-x="1092" 
d="M268 27.5q-108 53.5 -168 158t-60 252.5q0 158 70 299.5t204.5 229t317.5 87.5q129 0 228 -46t154.5 -131t59.5 -199q0 -24 -23 -24h-238q-22 0 -24 24q-6 84 -54 129t-123 45q-88 0 -148.5 -66t-90 -164t-29.5 -196q0 -125 48 -187.5t134 -62.5q81 0 139 50t86 142
q4 20 26 20h238q12 0 18 -6.5t3 -17.5q-31 -120 -102 -207.5t-177 -135t-239 -47.5q-142 0 -250 53.5zM567 1130q-12 0 -17.5 7t-3.5 19l54 223q4 21 25 21h256q12 0 18 -7t3 -19l-53 -223q-6 -21 -26 -21h-256z" />
    <glyph glyph-name="Ccaron" unicode="&#x10c;" horiz-adv-x="1407" 
d="M375.5 43q-141.5 73 -221 213t-79.5 336q0 210 93.5 403t271.5 314t419 121q168 0 295 -61.5t200.5 -175t83.5 -267.5q1 -11 -5.5 -17.5t-18.5 -6.5h-247q-21 0 -24 23q-13 132 -92.5 201.5t-207.5 69.5q-156 0 -258.5 -98t-149 -239.5t-46.5 -274.5q0 -189 88.5 -284.5
t241.5 -95.5q129 0 218.5 71.5t136.5 208.5q7 20 27 20h254q21 0 21 -17q0 -5 -1 -8q-45 -157 -138 -271.5t-229 -176t-307 -61.5q-184 0 -325.5 73zM564 1725q-10 7 -10 19q0 6 4 13l61 98q6 12 18 12q7 0 14 -4l266 -139l304 140q7 3 13 3q13 0 20 -15l45 -98q3 -6 3 -11
q0 -11 -13 -21l-325 -200q-14 -8 -29 -8h-90q-16 0 -29 10z" />
    <glyph glyph-name="ccaron" unicode="&#x10d;" horiz-adv-x="1092" 
d="M268 27.5q-108 53.5 -168 158t-60 252.5q0 158 70 299.5t204.5 229t317.5 87.5q129 0 228 -46t154.5 -131t59.5 -199q0 -24 -23 -24h-238q-22 0 -24 24q-6 84 -54 129t-123 45q-88 0 -148.5 -66t-90 -164t-29.5 -196q0 -125 48 -187.5t134 -62.5q81 0 139 50t86 142
q4 20 26 20h238q12 0 18 -6.5t3 -17.5q-31 -120 -102 -207.5t-177 -135t-239 -47.5q-142 0 -250 53.5zM369 1355q-10 7 -10 19q0 6 4 13l61 98q6 12 18 12q7 0 14 -4l266 -139l304 140q7 3 13 3q13 0 20 -15l45 -98q3 -6 3 -11q0 -11 -13 -21l-325 -200q-14 -8 -29 -8h-90
q-16 0 -29 10z" />
    <glyph glyph-name="Dcaron" unicode="&#x10e;" horiz-adv-x="1390" 
d="M-6 0q-10 0 -15.5 5t-5.5 13q0 5 1 8l171 674l142 679q4 21 26 21h451q186 0 331.5 -69.5t228 -202.5t82.5 -316q0 -204 -97 -391t-280 -304t-427 -117h-608zM614 226q163 0 270.5 94.5t157.5 231.5t50 268q0 116 -42.5 195.5t-119 119t-178.5 39.5h-197l-123 -468
l-97 -480h279zM563 1725q-10 7 -10 19q0 6 4 13l61 98q6 12 18 12q7 0 14 -4l266 -139l304 140q7 3 13 3q13 0 20 -15l45 -98q3 -6 3 -11q0 -11 -13 -21l-325 -200q-14 -8 -29 -8h-90q-16 0 -29 10z" />
    <glyph glyph-name="dcaron" unicode="&#x10f;" horiz-adv-x="1161" 
d="M1254 1400q12 0 18 -7t3 -19l-177 -734l-136 -619q-4 -21 -25 -21h-242q-21 0 -21 17q0 6 1 9l15 57q-121 -101 -280 -101q-116 0 -201 52.5t-130 148.5t-45 223q0 148 60 296.5t180 247t290 98.5q104 0 179.5 -38t120.5 -109l106 478q3 21 25 21h259zM675.5 254
q64.5 74 96.5 179t32 195q0 109 -47 165.5t-133 56.5q-101 0 -165 -72.5t-92.5 -173.5t-28.5 -188q0 -107 46 -171.5t134 -64.5q93 0 157.5 74zM1466 1113q-9 -17 -27 -17h-143q-20 0 -20 17q0 2 2 10l151 424q7 19 27 19h195q20 0 20 -16q0 -6 -3 -12z" />
    <glyph glyph-name="Dcroat" unicode="&#x110;" horiz-adv-x="1409" 
d="M784 1400q186 0 331.5 -69.5t228 -202.5t82.5 -316q0 -204 -97 -391t-280 -304t-427 -117h-608q-12 0 -18 7t-3 19l154 608h-109q-12 0 -17 7t-3 19l42 179q3 21 25 21h113l109 519q3 21 26 21h451zM634 226q163 0 270.5 94.5t157.5 231.5t50 268q0 116 -42.5 195.5
t-119 119t-178.5 39.5h-198l-83 -314h331q12 0 17 -7t3 -19l-41 -179q-4 -21 -26 -21h-338l-83 -408h280z" />
    <glyph glyph-name="dcroat" unicode="&#x111;" horiz-adv-x="1162" 
d="M1317 1310q12 0 17 -7t3 -19l-37 -161q-4 -21 -26 -21h-64l-112 -462l-136 -619q-4 -21 -25 -21h-242q-21 0 -21 17q0 6 1 9l15 57q-121 -101 -280 -101q-116 0 -201 52.5t-130 148.5t-45 223q0 148 60 296.5t180 247t290 98.5q104 0 179.5 -38t120.5 -109l45 201h-268
q-12 0 -17 7t-3 19l38 161q3 21 25 21h270l16 69q3 21 25 21h259q12 0 18 -7t3 -19l-16 -64h58zM675 253q65 74 97 179.5t32 195.5q0 109 -47 166.5t-133 57.5q-101 0 -165 -73t-92.5 -174t-28.5 -189q0 -107 45.5 -172t133.5 -65q93 0 158 74z" />
    <glyph glyph-name="Emacron" unicode="&#x112;" horiz-adv-x="1136" 
d="M-6 0q-10 0 -15.5 5t-5.5 13q0 5 1 8l171 674l142 679q4 21 26 21h935q12 0 17 -7t3 -19l-41 -179q-4 -21 -26 -21h-647l-88 -322h596q12 0 17 -7t3 -19l-41 -179q-4 -21 -26 -21h-601l-80 -400h658q12 0 17 -7t3 -19l-41 -179q-4 -21 -26 -21h-951zM559 1530
q-13 0 -18.5 7t-2.5 19l37 153q6 21 25 21h607q12 0 17.5 -7t2.5 -19l-37 -153q-4 -21 -25 -21h-606z" />
    <glyph glyph-name="emacron" unicode="&#x113;" horiz-adv-x="1128" 
d="M876 999q105 -55 162 -155t57 -229q0 -69 -16 -140q-4 -21 -26 -21h-719v-30q0 -124 54.5 -187t151.5 -63q81 0 136.5 41.5t83.5 120.5q6 20 27 20h236q12 0 18 -6.5t3 -16.5q-45 -168 -178.5 -262.5t-331.5 -94.5q-145 0 -257 53.5t-174.5 157.5t-62.5 251
q0 159 71 300.5t205 228.5t314 87q141 0 246 -55zM798 644q1 9 1 27q0 83 -49.5 135t-137.5 52q-93 0 -155.5 -56.5t-93.5 -157.5h435zM415 1160q-13 0 -18.5 7t-2.5 19l37 153q6 21 25 21h607q12 0 17.5 -7t2.5 -19l-37 -153q-4 -21 -25 -21h-606z" />
    <glyph glyph-name="Ebreve" unicode="&#x114;" horiz-adv-x="1136" 
d="M-6 0q-10 0 -15.5 5t-5.5 13q0 5 1 8l171 674l142 679q4 21 26 21h935q12 0 17 -7t3 -19l-41 -179q-4 -21 -26 -21h-647l-88 -322h596q12 0 17 -7t3 -19l-41 -179q-4 -21 -26 -21h-601l-80 -400h658q12 0 17 -7t3 -19l-41 -179q-4 -21 -26 -21h-951zM711 1560.5
q-72 40.5 -107.5 111t-29.5 158.5q3 22 26 22h147q22 0 22 -26q0 -52 32.5 -83t93.5 -31q60 0 101.5 32.5t59.5 87.5q6 20 26 20h150q12 0 18.5 -6t4.5 -17q-18 -89 -68.5 -159t-129 -110t-176.5 -40t-170 40.5z" />
    <glyph glyph-name="ebreve" unicode="&#x115;" horiz-adv-x="1128" 
d="M876 999q105 -55 162 -155t57 -229q0 -69 -16 -140q-4 -21 -26 -21h-719v-30q0 -124 54.5 -187t151.5 -63q81 0 136.5 41.5t83.5 120.5q6 20 27 20h236q12 0 18 -6.5t3 -16.5q-45 -168 -178.5 -262.5t-331.5 -94.5q-145 0 -257 53.5t-174.5 157.5t-62.5 251
q0 159 71 300.5t205 228.5t314 87q141 0 246 -55zM798 644q1 9 1 27q0 83 -49.5 135t-137.5 52q-93 0 -155.5 -56.5t-93.5 -157.5h435zM567 1190.5q-72 40.5 -107.5 111t-29.5 158.5q3 22 26 22h147q22 0 22 -26q0 -52 32.5 -83t93.5 -31q60 0 101.5 32.5t59.5 87.5
q6 20 26 20h150q12 0 18.5 -6t4.5 -17q-18 -89 -68.5 -159t-129 -110t-176.5 -40t-170 40.5z" />
    <glyph glyph-name="Edotaccent" unicode="&#x116;" horiz-adv-x="1136" 
d="M-6 0q-10 0 -15.5 5t-5.5 13q0 5 1 8l171 674l142 679q4 21 26 21h935q12 0 17 -7t3 -19l-41 -179q-4 -21 -26 -21h-647l-88 -322h596q12 0 17 -7t3 -19l-41 -179q-4 -21 -26 -21h-601l-80 -400h658q12 0 17 -7t3 -19l-41 -179q-4 -21 -26 -21h-951zM727 1500
q-12 0 -17.5 7t-3.5 19l54 223q4 21 25 21h256q12 0 18 -7t3 -19l-53 -223q-6 -21 -26 -21h-256z" />
    <glyph glyph-name="edotaccent" unicode="&#x117;" horiz-adv-x="1128" 
d="M876 999q105 -55 162 -155t57 -229q0 -69 -16 -140q-4 -21 -26 -21h-719v-30q0 -124 54.5 -187t151.5 -63q81 0 136.5 41.5t83.5 120.5q6 20 27 20h236q12 0 18 -6.5t3 -16.5q-45 -168 -178.5 -262.5t-331.5 -94.5q-145 0 -257 53.5t-174.5 157.5t-62.5 251
q0 159 71 300.5t205 228.5t314 87q141 0 246 -55zM798 644q1 9 1 27q0 83 -49.5 135t-137.5 52q-93 0 -155.5 -56.5t-93.5 -157.5h435zM583 1130q-12 0 -17.5 7t-3.5 19l54 223q4 21 25 21h256q12 0 18 -7t3 -19l-53 -223q-6 -21 -26 -21h-256z" />
    <glyph glyph-name="Eogonek" unicode="&#x118;" horiz-adv-x="1136" 
d="M1248 1400q12 0 17 -7t3 -19l-41 -179q-4 -21 -26 -21h-647l-88 -322h596q12 0 17 -7t3 -19l-41 -179q-4 -21 -26 -21h-601l-80 -400h658q12 0 17 -7t3 -19l-41 -179q-4 -21 -26 -21h-140q-37 -25 -65 -69t-28 -85q0 -70 102 -70h73q12 0 17.5 -7t3.5 -19l-35 -149
q-4 -21 -26 -21h-105q-88 0 -149 26t-92 71.5t-31 104.5q0 68 40 123.5t110 94.5h-626q-10 0 -15.5 5t-5.5 13q0 5 1 8l171 674l142 679q4 21 26 21h935z" />
    <glyph glyph-name="eogonek" unicode="&#x119;" horiz-adv-x="1128" 
d="M876 999q105 -55 162 -155t57 -229q0 -69 -16 -140q-4 -21 -26 -21h-719v-30q0 -124 54.5 -187t151.5 -63q81 0 136.5 41.5t83.5 120.5q6 20 27 20h236q12 0 18 -6.5t3 -16.5q-42 -153 -157.5 -246t-287.5 -108q-29 -28 -48 -64t-19 -69q0 -70 102 -70h73q12 0 17.5 -7
t3.5 -19l-35 -149q-4 -21 -26 -21h-105q-88 0 -149 26t-92 71.5t-31 104.5q0 62 33.5 114t92.5 90q-113 20 -198 78t-131.5 153t-46.5 221q0 159 71 300.5t205 228.5t314 87q141 0 246 -55zM798 644q1 9 1 27q0 83 -49.5 135t-137.5 52q-93 0 -155.5 -56.5t-93.5 -157.5h435
z" />
    <glyph glyph-name="Ecaron" unicode="&#x11a;" horiz-adv-x="1136" 
d="M-6 0q-10 0 -15.5 5t-5.5 13q0 5 1 8l171 674l142 679q4 21 26 21h935q12 0 17 -7t3 -19l-41 -179q-4 -21 -26 -21h-647l-88 -322h596q12 0 17 -7t3 -19l-41 -179q-4 -21 -26 -21h-601l-80 -400h658q12 0 17 -7t3 -19l-41 -179q-4 -21 -26 -21h-951zM529 1725
q-10 7 -10 19q0 6 4 13l61 98q6 12 18 12q7 0 14 -4l266 -139l304 140q7 3 13 3q13 0 20 -15l45 -98q3 -6 3 -11q0 -11 -13 -21l-325 -200q-14 -8 -29 -8h-90q-16 0 -29 10z" />
    <glyph glyph-name="ecaron" unicode="&#x11b;" horiz-adv-x="1128" 
d="M876 999q105 -55 162 -155t57 -229q0 -69 -16 -140q-4 -21 -26 -21h-719v-30q0 -124 54.5 -187t151.5 -63q81 0 136.5 41.5t83.5 120.5q6 20 27 20h236q12 0 18 -6.5t3 -16.5q-45 -168 -178.5 -262.5t-331.5 -94.5q-145 0 -257 53.5t-174.5 157.5t-62.5 251
q0 159 71 300.5t205 228.5t314 87q141 0 246 -55zM798 644q1 9 1 27q0 83 -49.5 135t-137.5 52q-93 0 -155.5 -56.5t-93.5 -157.5h435zM385 1355q-10 7 -10 19q0 6 4 13l61 98q6 12 18 12q7 0 14 -4l266 -139l304 140q7 3 13 3q13 0 20 -15l45 -98q3 -6 3 -11q0 -11 -13 -21
l-325 -200q-14 -8 -29 -8h-90q-16 0 -29 10z" />
    <glyph glyph-name="Gcircumflex" unicode="&#x11c;" horiz-adv-x="1454" 
d="M366 46.5q-141 76.5 -216 217t-75 328.5q0 217 95.5 409.5t275.5 310.5t421 118q163 0 290.5 -56.5t203.5 -160t88 -242.5q1 -12 -5 -18.5t-18 -6.5h-252q-21 0 -25 22q-21 111 -100 170.5t-198 59.5q-156 0 -260 -95t-153 -236t-49 -281q0 -190 88 -287t240 -97
q147 0 246.5 89t141.5 243h-360q-12 0 -17.5 7.5t-2.5 18.5l41 179q5 21 25 21h642q12 0 17.5 -8.5t3.5 -23.5q-36 -244 -138 -414t-259 -257t-358 -87q-192 0 -333 76.5zM581 1618q-3 6 -3 12q0 12 13 20l323 200q14 8 29 8h90q16 0 29 -10l252 -200q10 -7 10 -19
q0 -7 -4 -14l-61 -98q-6 -12 -18 -12q-8 0 -13 4l-266 139l-305 -140q-6 -3 -11 -3q-14 0 -20 15z" />
    <glyph glyph-name="gcircumflex" unicode="&#x11d;" horiz-adv-x="1160" 
d="M1180 1030q12 0 17.5 -7t2.5 -19l-122 -504l-103 -472q-48 -216 -187.5 -322t-363.5 -106q-142 0 -249.5 44.5t-167 122.5t-63.5 177q-2 24 23 24h254q21 0 24 -24q5 -70 57.5 -109t135.5 -39q101 0 159 56.5t87 179.5l17 73q-120 -99 -279 -99q-117 0 -203 51.5
t-131.5 144.5t-45.5 216q0 145 59 291t178.5 242.5t288.5 96.5q107 0 185 -38.5t123 -111.5l22 111q5 21 26 21h256zM685.5 276q63.5 72 95 174.5t31.5 189.5q0 103 -48.5 156.5t-137.5 53.5q-98 0 -161 -70.5t-91 -168.5t-28 -183q0 -101 47 -162.5t137 -61.5
q92 0 155.5 72zM380 1248q-3 6 -3 12q0 12 13 20l323 200q14 8 29 8h90q16 0 29 -10l252 -200q10 -7 10 -19q0 -7 -4 -14l-61 -98q-6 -12 -18 -12q-8 0 -13 4l-266 139l-305 -140q-6 -3 -11 -3q-14 0 -20 15z" />
    <glyph glyph-name="Gbreve" unicode="&#x11e;" horiz-adv-x="1454" 
d="M366 46.5q-141 76.5 -216 217t-75 328.5q0 217 95.5 409.5t275.5 310.5t421 118q163 0 290.5 -56.5t203.5 -160t88 -242.5q1 -12 -5 -18.5t-18 -6.5h-252q-21 0 -25 22q-21 111 -100 170.5t-198 59.5q-156 0 -260 -95t-153 -236t-49 -281q0 -190 88 -287t240 -97
q147 0 246.5 89t141.5 243h-360q-12 0 -17.5 7.5t-2.5 18.5l41 179q5 21 25 21h642q12 0 17.5 -8.5t3.5 -23.5q-36 -244 -138 -414t-259 -257t-358 -87q-192 0 -333 76.5zM780 1560.5q-72 40.5 -107.5 111t-29.5 158.5q3 22 26 22h147q22 0 22 -26q0 -52 32.5 -83t93.5 -31
q60 0 101.5 32.5t59.5 87.5q6 20 26 20h150q12 0 18.5 -6t4.5 -17q-18 -89 -68.5 -159t-129 -110t-176.5 -40t-170 40.5z" />
    <glyph glyph-name="gbreve" unicode="&#x11f;" horiz-adv-x="1160" 
d="M1180 1030q12 0 17.5 -7t2.5 -19l-122 -504l-103 -472q-48 -216 -187.5 -322t-363.5 -106q-142 0 -249.5 44.5t-167 122.5t-63.5 177q-2 24 23 24h254q21 0 24 -24q5 -70 57.5 -109t135.5 -39q101 0 159 56.5t87 179.5l17 73q-120 -99 -279 -99q-117 0 -203 51.5
t-131.5 144.5t-45.5 216q0 145 59 291t178.5 242.5t288.5 96.5q107 0 185 -38.5t123 -111.5l22 111q5 21 26 21h256zM685.5 276q63.5 72 95 174.5t31.5 189.5q0 103 -48.5 156.5t-137.5 53.5q-98 0 -161 -70.5t-91 -168.5t-28 -183q0 -101 47 -162.5t137 -61.5
q92 0 155.5 72zM579 1190.5q-72 40.5 -107.5 111t-29.5 158.5q3 22 26 22h147q22 0 22 -26q0 -52 32.5 -83t93.5 -31q60 0 101.5 32.5t59.5 87.5q6 20 26 20h150q12 0 18.5 -6t4.5 -17q-18 -89 -68.5 -159t-129 -110t-176.5 -40t-170 40.5z" />
    <glyph glyph-name="Gdotaccent" unicode="&#x120;" horiz-adv-x="1454" 
d="M366 46.5q-141 76.5 -216 217t-75 328.5q0 217 95.5 409.5t275.5 310.5t421 118q163 0 290.5 -56.5t203.5 -160t88 -242.5q1 -12 -5 -18.5t-18 -6.5h-252q-21 0 -25 22q-21 111 -100 170.5t-198 59.5q-156 0 -260 -95t-153 -236t-49 -281q0 -190 88 -287t240 -97
q147 0 246.5 89t141.5 243h-360q-12 0 -17.5 7.5t-2.5 18.5l41 179q5 21 25 21h642q12 0 17.5 -8.5t3.5 -23.5q-36 -244 -138 -414t-259 -257t-358 -87q-192 0 -333 76.5zM795 1500q-12 0 -17.5 7t-3.5 19l54 223q4 21 25 21h256q12 0 18 -7t3 -19l-53 -223q-6 -21 -26 -21
h-256z" />
    <glyph glyph-name="gdotaccent" unicode="&#x121;" horiz-adv-x="1160" 
d="M1180 1030q12 0 17.5 -7t2.5 -19l-122 -504l-103 -472q-48 -216 -187.5 -322t-363.5 -106q-142 0 -249.5 44.5t-167 122.5t-63.5 177q-2 24 23 24h254q21 0 24 -24q5 -70 57.5 -109t135.5 -39q101 0 159 56.5t87 179.5l17 73q-120 -99 -279 -99q-117 0 -203 51.5
t-131.5 144.5t-45.5 216q0 145 59 291t178.5 242.5t288.5 96.5q107 0 185 -38.5t123 -111.5l22 111q5 21 26 21h256zM685.5 276q63.5 72 95 174.5t31.5 189.5q0 103 -48.5 156.5t-137.5 53.5q-98 0 -161 -70.5t-91 -168.5t-28 -183q0 -101 47 -162.5t137 -61.5
q92 0 155.5 72zM595 1130q-12 0 -17.5 7t-3.5 19l54 223q4 21 25 21h256q12 0 18 -7t3 -19l-53 -223q-6 -21 -26 -21h-256z" />
    <glyph glyph-name="uni0122" unicode="&#x122;" horiz-adv-x="1454" 
d="M366 46.5q-141 76.5 -216 217t-75 328.5q0 217 95.5 409.5t275.5 310.5t421 118q163 0 290.5 -56.5t203.5 -160t88 -242.5q1 -12 -5 -18.5t-18 -6.5h-252q-21 0 -25 22q-21 111 -100 170.5t-198 59.5q-156 0 -260 -95t-153 -236t-49 -281q0 -190 88 -287t240 -97
q147 0 246.5 89t141.5 243h-360q-12 0 -17.5 7.5t-2.5 18.5l41 179q5 21 25 21h642q12 0 17.5 -8.5t3.5 -23.5q-36 -244 -138 -414t-259 -257t-358 -87q-192 0 -333 76.5zM424 -498q-10 0 -15.5 4.5t-5.5 11.5q0 6 3 12l79 170l48 203q3 21 25 21h253q12 0 17.5 -7.5
t3.5 -18.5l-41 -181q-5 -16 -16 -26l-205 -178q-12 -11 -29 -11h-117z" />
    <glyph glyph-name="uni0123" unicode="&#x123;" horiz-adv-x="1160" 
d="M1180 1030q12 0 17.5 -7t2.5 -19l-122 -504l-103 -472q-48 -216 -187.5 -322t-363.5 -106q-142 0 -249.5 44.5t-167 122.5t-63.5 177q-2 24 23 24h254q21 0 24 -24q5 -70 57.5 -109t135.5 -39q101 0 159 56.5t87 179.5l17 73q-120 -99 -279 -99q-117 0 -203 51.5
t-131.5 144.5t-45.5 216q0 145 59 291t178.5 242.5t288.5 96.5q107 0 185 -38.5t123 -111.5l22 111q5 21 26 21h256zM685.5 276q63.5 72 95 174.5t31.5 189.5q0 103 -48.5 156.5t-137.5 53.5q-98 0 -161 -70.5t-91 -168.5t-28 -183q0 -101 47 -162.5t137 -61.5
q92 0 155.5 72zM603 1160q-13 0 -18.5 7t-2.5 19l42 181q5 17 15 26l206 178q12 11 29 11h118q20 0 20 -16q0 -6 -3 -12l-80 -170l-48 -203q-5 -21 -26 -21h-252z" />
    <glyph glyph-name="Hcircumflex" unicode="&#x124;" horiz-adv-x="1398" 
d="M1490 1400q10 0 15.5 -5t5.5 -13q0 -5 -1 -8l-172 -674l-141 -679q-4 -21 -26 -21h-268q-13 0 -18.5 7t-2.5 19l153 608h-615l-131 -613q-4 -21 -26 -21h-269q-10 0 -15.5 5t-5.5 13q0 5 1 8l171 674l142 679q4 21 26 21h269q12 0 17.5 -7t2.5 -19l-128 -514h612l109 519
q4 21 26 21h269zM588 1618q-3 6 -3 12q0 12 13 20l323 200q14 8 29 8h90q16 0 29 -10l252 -200q10 -7 10 -19q0 -7 -4 -14l-61 -98q-6 -12 -18 -12q-8 0 -13 4l-266 139l-305 -140q-6 -3 -11 -3q-14 0 -20 15z" />
    <glyph glyph-name="hcircumflex" unicode="&#x125;" horiz-adv-x="1122" 
d="M-21 0q-12 0 -18 7t-3 19l118 468l196 885q4 21 25 21h253q12 0 17.5 -7t3.5 -19l-118 -476q62 70 149 113t187 43q88 0 157 -34.5t108 -101.5t39 -162q0 -56 -15 -122l-46 -196l-89 -417q-4 -21 -26 -21h-258q-10 0 -16 5t-6 13q0 5 1 8l96 378l45 212q8 36 8 74
q0 70 -33.5 107t-98.5 37q-72 0 -129 -47t-95 -119.5t-57 -153.5l-28 -114l-77 -379q-4 -21 -26 -21h-264zM111 1618q-3 6 -3 12q0 12 13 20l323 200q14 8 29 8h90q16 0 29 -10l252 -200q10 -7 10 -19q0 -7 -4 -14l-61 -98q-6 -12 -18 -12q-8 0 -13 4l-266 139l-305 -140
q-6 -3 -11 -3q-14 0 -20 15z" />
    <glyph glyph-name="Hbar" unicode="&#x126;" horiz-adv-x="1399" 
d="M1515 1172q12 0 17.5 -7t2.5 -19l-41 -179q-4 -21 -25 -21h-63l-62 -246l-142 -679q-4 -21 -26 -21h-269q-12 0 -17.5 7t-3.5 19l117 468h-609l-100 -473q-4 -21 -26 -21h-269q-12 0 -18 7t-3 19l171 674l52 246h-65q-12 0 -17.5 7.5t-2.5 18.5l41 179q5 21 25 21h66
l44 207q3 21 26 21h268q12 0 18 -7t3 -19l-51 -202h599l45 207q3 21 26 21h268q12 0 18 -7t3 -19l-51 -202h51zM500 946l-57 -226h616l48 226h-607z" />
    <glyph glyph-name="hbar" unicode="&#x127;" horiz-adv-x="1158" 
d="M981.5 1019.5q68.5 -34.5 107.5 -101.5t39 -161q0 -57 -15 -123l-45 -196l-90 -417q-4 -21 -26 -21h-258q-12 0 -18 7t-3 19l97 378l44 212q9 42 9 76q0 69 -34 105.5t-98 36.5q-72 0 -129 -47t-95 -119.5t-58 -153.5l-27 -114l-78 -379q-4 -21 -26 -21h-263
q-13 0 -18.5 7t-2.5 19l118 468l134 608h-60q-12 0 -17 7t-3 19l38 161q3 21 25 21h63l16 69q3 21 25 21h253q12 0 17.5 -7t2.5 -19l-15 -64h271q12 0 17 -7t3 -19l-37 -161q-4 -21 -26 -21h-280l-50 -204q62 70 149 113t187 43q88 0 156.5 -34.5z" />
    <glyph glyph-name="Itilde" unicode="&#x128;" horiz-adv-x="505" 
d="M5 0q-10 0 -16 5t-6 13q0 5 1 8l171 674l142 679q4 21 26 21h265q10 0 15.5 -5t5.5 -13q0 -5 -1 -8l-170 -674l-143 -679q-4 -21 -26 -21h-264zM547.5 1547.5q-33.5 17.5 -70.5 48.5q-23 20 -39 30t-34 10q-30 0 -47 -21.5t-27 -63.5q-5 -21 -26 -21h-105
q-12 0 -17.5 6.5t-4.5 18.5q22 119 85 191t160 72q44 0 76 -17.5t72 -49.5q24 -20 39.5 -29.5t30.5 -9.5q31 0 48 21t25 61q6 22 26 22h105q10 0 15.5 -6t5.5 -16q0 -7 -1 -10q-22 -120 -82.5 -187t-153.5 -67q-47 0 -80.5 17.5z" />
    <glyph glyph-name="itilde" unicode="&#x129;" horiz-adv-x="471" 
d="M432 1178q-27 18 -56 51q-18 19 -29 28t-24 9q-43 0 -62 -82q-4 -22 -26 -22h-90q-12 0 -18 7t-3 19q26 127 80.5 187.5t128.5 60.5q46 0 73 -18t56 -51q18 -19 29 -28t24 -9q20 0 35.5 20.5t25.5 61.5q6 22 26 22h90q20 0 20 -28q0 -9 -3 -21q-28 -115 -81 -170
t-123 -55q-46 0 -73 18zM-12 0q-12 0 -18 7t-3 19l122 488l106 495q3 21 26 21h261q12 0 18 -7t3 -19l-124 -490l-103 -493q-4 -21 -26 -21h-262z" />
    <glyph glyph-name="Imacron" unicode="&#x12a;" horiz-adv-x="505" 
d="M5 0q-10 0 -16 5t-6 13q0 5 1 8l171 674l142 679q4 21 26 21h265q10 0 15.5 -5t5.5 -13q0 -5 -1 -8l-170 -674l-143 -679q-4 -21 -26 -21h-264zM188 1530q-13 0 -18.5 7t-2.5 19l37 153q6 21 25 21h607q12 0 17.5 -7t2.5 -19l-37 -153q-4 -21 -25 -21h-606z" />
    <glyph glyph-name="imacron" unicode="&#x12b;" horiz-adv-x="471" 
d="M137 1160q-12 0 -17 7t-3 19l36 153q3 21 25 21h501q12 0 17 -7t3 -19l-35 -153q-4 -21 -26 -21h-501zM-12 0q-12 0 -18 7t-3 19l122 488l106 495q3 21 26 21h261q12 0 18 -7t3 -19l-124 -490l-103 -493q-4 -21 -26 -21h-262z" />
    <glyph glyph-name="Ibreve" unicode="&#x12c;" horiz-adv-x="505" 
d="M5 0q-10 0 -16 5t-6 13q0 5 1 8l171 674l142 679q4 21 26 21h265q10 0 15.5 -5t5.5 -13q0 -5 -1 -8l-170 -674l-143 -679q-4 -21 -26 -21h-264zM341 1560.5q-72 40.5 -107.5 111t-29.5 158.5q3 22 26 22h147q22 0 22 -26q0 -52 32.5 -83t93.5 -31q60 0 101.5 32.5
t59.5 87.5q6 20 26 20h150q12 0 18.5 -6t4.5 -17q-18 -89 -68.5 -159t-129 -110t-176.5 -40t-170 40.5z" />
    <glyph glyph-name="ibreve" unicode="&#x12d;" horiz-adv-x="469" 
d="M270 1183.5q-60 33.5 -92.5 94.5t-32.5 141q0 13 2 41q3 22 25 22h138q23 0 21 -25q-3 -59 22.5 -91t74.5 -32q103 0 132 126q4 22 26 22h138q12 0 18 -7t4 -20q-29 -140 -116.5 -222.5t-219.5 -82.5q-80 0 -140 33.5zM-12 0q-12 0 -18 7t-3 19l122 488l106 495
q3 21 26 21h261q12 0 18 -7t3 -19l-124 -490l-103 -493q-4 -21 -26 -21h-262z" />
    <glyph glyph-name="Iogonek" unicode="&#x12e;" horiz-adv-x="505" 
d="M588 1400q10 0 15.5 -5t5.5 -13q0 -5 -1 -8l-170 -674l-143 -679q-4 -21 -26 -21h-127q-37 -25 -65 -69t-28 -85q0 -70 102 -70h73q12 0 17.5 -7t3.5 -19l-35 -149q-4 -21 -26 -21h-105q-88 0 -149 26t-92 71.5t-31 104.5q0 74 47.5 133.5t128.5 98.5v3q0 5 1 9l171 674
l142 679q4 21 26 21h265z" />
    <glyph glyph-name="iogonek" unicode="&#x12f;" horiz-adv-x="469" 
d="M566 1400q12 0 18 -7t3 -19l-53 -223q-6 -21 -26 -21h-256q-12 0 -17.5 7t-3.5 19l54 223q4 21 25 21h256zM482 1030q12 0 18 -7t3 -19l-124 -490l-103 -493q-4 -21 -26 -21h-106q-37 -25 -65 -69t-28 -85q0 -70 102 -70h73q12 0 17.5 -7t3.5 -19l-35 -149
q-4 -21 -26 -21h-105q-88 0 -149 26t-92 71.5t-31 104.5q0 71 43.5 128t118.5 96q-7 7 -4 20l122 488l106 495q3 21 26 21h261z" />
    <glyph glyph-name="Idotaccent" unicode="&#x130;" horiz-adv-x="505" 
d="M5 0q-10 0 -16 5t-6 13q0 5 1 8l171 674l142 679q4 21 26 21h265q10 0 15.5 -5t5.5 -13q0 -5 -1 -8l-170 -674l-143 -679q-4 -21 -26 -21h-264zM357 1500q-12 0 -17.5 7t-3.5 19l54 223q4 21 25 21h256q12 0 18 -7t3 -19l-53 -223q-6 -21 -26 -21h-256z" />
    <glyph glyph-name="dotlessi" unicode="&#x131;" horiz-adv-x="469" 
d="M-12 0q-12 0 -18 7t-3 19l122 488l106 495q3 21 26 21h261q12 0 18 -7t3 -19l-124 -490l-103 -493q-4 -21 -26 -21h-262z" />
    <glyph glyph-name="IJ" unicode="&#x132;" horiz-adv-x="1575" 
d="M5 0q-10 0 -16 5t-6 13q0 5 1 8l171 674l142 679q4 21 26 21h265q10 0 15.5 -5t5.5 -13q0 -5 -1 -8l-170 -674l-143 -679q-4 -21 -26 -21h-264zM708.5 17.5q-95.5 47.5 -145 137t-49.5 212.5q0 48 10 113q3 22 25 22h250q13 0 18.5 -7t3.5 -19q-9 -52 -9 -95
q0 -173 146 -173q54 0 94.5 26.5t73 89.5t59.5 172l81 327l116 556q4 21 26 21h275q12 0 18 -7t3 -19l-140 -551l-74 -329q-61 -273 -197.5 -398.5t-352.5 -125.5q-136 0 -231.5 47.5z" />
    <glyph glyph-name="ij" unicode="&#x133;" horiz-adv-x="937" 
d="M-12 0q-12 0 -18 7t-3 19l122 488l106 495q3 21 26 21h261q12 0 18 -7t3 -19l-124 -490l-103 -493q-4 -21 -26 -21h-262zM252 1130q-12 0 -17.5 7t-3.5 19l54 223q4 21 25 21h256q12 0 18 -7t3 -19l-53 -223q-6 -21 -26 -21h-256zM378 -340q-12 0 -17.5 7t-2.5 19
l164 668l141 655q4 21 26 21h262q12 0 17.5 -7t2.5 -19l-159 -650l-146 -673q-4 -21 -26 -21h-262zM721 1130q-12 0 -17.5 7t-3.5 19l54 223q4 21 25 21h256q12 0 18 -7t3 -19l-53 -223q-6 -21 -26 -21h-256z" />
    <glyph glyph-name="Jcircumflex" unicode="&#x134;" horiz-adv-x="1070" 
d="M203.5 17.5q-95.5 47.5 -145 137t-49.5 212.5q0 48 10 113q3 22 25 22h250q13 0 18.5 -7t3.5 -19q-9 -52 -9 -95q0 -173 146 -173q54 0 94.5 26.5t73 89.5t59.5 172l81 327l116 556q4 21 26 21h275q12 0 18 -7t3 -19l-140 -551l-74 -329q-61 -273 -197.5 -398.5
t-352.5 -125.5q-136 0 -231.5 47.5zM729 1618q-3 6 -3 12q0 12 13 20l323 200q14 8 29 8h90q16 0 29 -10l252 -200q10 -7 10 -19q0 -7 -4 -14l-61 -98q-6 -12 -18 -12q-8 0 -13 4l-266 139l-305 -140q-6 -3 -11 -3q-14 0 -20 15z" />
    <glyph glyph-name="jcircumflex" unicode="&#x135;" horiz-adv-x="468" 
d="M92 1251q-2 4 -2 11q0 13 11 21l268 195q11 10 29 10h89q17 0 29 -12l201 -195q8 -8 8 -18q0 -9 -5 -15l-68 -99q-7 -12 -18 -12q-7 0 -15 6l-205 137l-248 -136q-7 -4 -13 -4q-13 0 -19 15zM-91 -340q-12 0 -17.5 7t-2.5 19l164 668l141 655q4 21 26 21h262
q12 0 17.5 -7t2.5 -19l-159 -650l-146 -673q-4 -21 -26 -21h-262z" />
    <glyph glyph-name="uni0136" unicode="&#x136;" horiz-adv-x="1265" 
d="M287 1379q4 21 26 21h265q10 0 15.5 -5t5.5 -13q0 -5 -1 -8l-132 -534l520 548q11 12 29 12h331q20 0 20 -13q0 -7 -9 -16l-576 -548l366 -795q3 -6 3 -12q0 -7 -5.5 -11.5t-15.5 -4.5h-295q-19 0 -28 18l-254 586l-177 -171l-90 -412q-4 -21 -26 -21h-265q-10 0 -15.5 5
t-5.5 13q0 5 1 8l169 674zM279 -498q-10 0 -15.5 4.5t-5.5 11.5q0 6 3 12l79 170l48 203q3 21 25 21h253q12 0 17.5 -7.5t3.5 -18.5l-41 -181q-5 -16 -16 -26l-205 -178q-12 -11 -29 -11h-117z" />
    <glyph glyph-name="uni0137" unicode="&#x137;" horiz-adv-x="1033" 
d="M1080 1030q10 0 15 -3.5t5 -8.5q0 -8 -9 -17l-384 -342l220 -632l2 -9q0 -8 -5.5 -13t-15.5 -5h-260q-20 0 -26 20l-56 196l-86 257l-158 -153l-64 -299q-4 -21 -26 -21h-254q-12 0 -18 7t-3 19l168 674l145 679q3 21 26 21h254q12 0 17.5 -7t2.5 -19l-167 -672l-3 -13
l342 329q12 12 29 12h309zM169 -498q-10 0 -15.5 4.5t-5.5 11.5q0 6 3 12l79 170l48 203q3 21 25 21h253q12 0 17.5 -7.5t3.5 -18.5l-41 -181q-5 -16 -16 -26l-205 -178q-12 -11 -29 -11h-117z" />
    <glyph glyph-name="Lacute" unicode="&#x139;" horiz-adv-x="992" 
d="M-6 0q-10 0 -15.5 5t-5.5 13q0 5 1 8l171 674l142 679q4 21 26 21h267q12 0 17.5 -7t2.5 -19l-164 -656l-101 -492h557q12 0 17 -7t3 -19l-41 -179q-4 -21 -26 -21h-851zM313 1502q-3 -1 -8 -1q-17 0 -21 18l-31 109q-1 3 -1 9q0 15 15 21l492 191q4 2 11 2q15 0 20 -17
l46 -179q1 -3 1 -8q0 -17 -18 -20z" />
    <glyph glyph-name="lacute" unicode="&#x13a;" horiz-adv-x="463" 
d="M-11 0q-12 0 -18 7t-3 19l168 674l146 679q3 21 26 21h253q12 0 18 -7t3 -19l-168 -674l-145 -679q-4 -21 -26 -21h-254zM300 1502q-3 -1 -8 -1q-17 0 -21 18l-31 109q-1 3 -1 9q0 15 15 21l492 191q4 2 11 2q15 0 20 -17l46 -179q1 -3 1 -8q0 -17 -18 -20z" />
    <glyph glyph-name="uni013B" unicode="&#x13b;" horiz-adv-x="992" 
d="M-6 0q-10 0 -15.5 5t-5.5 13q0 5 1 8l171 674l142 679q4 21 26 21h267q12 0 17.5 -7t2.5 -19l-164 -656l-101 -492h557q12 0 17 -7t3 -19l-41 -179q-4 -21 -26 -21h-851zM149 -498q-10 0 -15.5 4.5t-5.5 11.5q0 6 3 12l79 170l48 203q3 21 25 21h253q12 0 17.5 -7.5
t3.5 -18.5l-41 -181q-5 -16 -16 -26l-205 -178q-12 -11 -29 -11h-117z" />
    <glyph glyph-name="uni013C" unicode="&#x13c;" horiz-adv-x="463" 
d="M-11 0q-12 0 -18 7t-3 19l168 674l146 679q3 21 26 21h253q12 0 18 -7t3 -19l-168 -674l-145 -679q-4 -21 -26 -21h-254zM-158 -498q-10 0 -15.5 4.5t-5.5 11.5q0 6 3 12l79 170l48 203q3 21 25 21h253q12 0 17.5 -7.5t3.5 -18.5l-41 -181q-5 -16 -16 -26l-205 -178
q-12 -11 -29 -11h-117z" />
    <glyph glyph-name="Lcaron" unicode="&#x13d;" horiz-adv-x="992" 
d="M-6 0q-10 0 -15.5 5t-5.5 13q0 5 1 8l171 674l142 679q4 21 26 21h267q12 0 17.5 -7t2.5 -19l-164 -656l-101 -492h557q12 0 17 -7t3 -19l-41 -179q-4 -21 -26 -21h-851zM777 947q-9 -17 -27 -17h-143q-20 0 -20 17q0 2 2 10l151 424q7 19 27 19h195q20 0 20 -16
q0 -6 -3 -12z" />
    <glyph glyph-name="lcaron" unicode="&#x13e;" horiz-adv-x="463" 
d="M-11 0q-12 0 -18 7t-3 19l168 674l146 679q3 21 26 21h253q12 0 18 -7t3 -19l-168 -674l-145 -679q-4 -21 -26 -21h-254zM785 1117q-9 -17 -27 -17h-143q-20 0 -20 17q0 2 2 10l151 424q7 19 27 19h195q20 0 20 -16q0 -6 -3 -12z" />
    <glyph glyph-name="Ldot" unicode="&#x13f;" horiz-adv-x="992" 
d="M-6 0q-10 0 -15.5 5t-5.5 13q0 5 1 8l171 674l142 679q4 21 26 21h267q12 0 17.5 -7t2.5 -19l-164 -656l-101 -492h557q12 0 17 -7t3 -19l-41 -179q-4 -21 -26 -21h-851zM627 614q-12 0 -17.5 7t-3.5 19l54 223q4 21 25 21h256q12 0 18 -7t3 -19l-53 -223q-6 -21 -26 -21
h-256z" />
    <glyph glyph-name="ldot" unicode="&#x140;" horiz-adv-x="696" 
d="M-11 0q-12 0 -18 7t-3 19l168 674l146 679q3 21 26 21h253q12 0 18 -7t3 -19l-168 -674l-145 -679q-4 -21 -26 -21h-254zM457 530q-13 0 -18.5 7t-2.5 19l53 223q6 21 25 21h257q12 0 17.5 -7t2.5 -19l-53 -223q-4 -21 -25 -21h-256z" />
    <glyph glyph-name="Lslash" unicode="&#x141;" horiz-adv-x="1024" 
d="M924 226q12 0 17.5 -7t2.5 -19l-41 -179q-5 -21 -25 -21h-851q-12 0 -18 7t-3 19l127 498l-96 -29q-3 -1 -9 -1q-20 0 -15 24l41 176q3 18 22 24l112 34l132 627q3 21 26 21h266q12 0 18 -7t3 -19l-133 -529l257 78q6 2 9 2q9 0 13 -7t2 -18l-42 -176q-5 -18 -23 -23
l-268 -82l-81 -393h557z" />
    <glyph glyph-name="lslash" unicode="&#x142;" horiz-adv-x="547" 
d="M604 1400q12 0 17.5 -7t2.5 -19l-156 -632l44 22q7 3 12 3q14 0 14 -15q0 -5 -1 -8l-40 -173q-3 -15 -20 -25l-59 -29l-107 -496q-4 -21 -26 -21h-253q-13 0 -18.5 7t-2.5 19l83 334l-41 -20q-8 -3 -12 -3q-14 0 -14 15q0 5 1 8l40 173q4 18 20 25l63 31l28 111l145 679
q4 21 26 21h254z" />
    <glyph glyph-name="Nacute" unicode="&#x143;" horiz-adv-x="1391" 
d="M-6 0q-12 0 -17.5 7t-2.5 19l169 674l144 679q4 21 26 21h311q20 0 27 -19l347 -993l100 476l120 515q3 21 25 21h241q12 0 17.5 -7t2.5 -19l-168 -674l-145 -679q-4 -21 -26 -21h-323q-20 0 -26 19l-342 987l-110 -538l-103 -447q-4 -21 -26 -21h-241zM766 1502
q-3 -1 -8 -1q-17 0 -21 18l-31 109q-1 3 -1 9q0 15 15 21l492 191q4 2 11 2q15 0 20 -17l46 -179q1 -3 1 -8q0 -17 -18 -20z" />
    <glyph glyph-name="nacute" unicode="&#x144;" horiz-adv-x="1121" 
d="M-23 0q-12 0 -17.5 7t-2.5 19l118 468l113 515q4 21 25 21h244q12 0 17.5 -7t2.5 -19l-25 -106q62 70 149 113t187 43q88 0 156.5 -34.5t107.5 -101.5t39 -161q0 -57 -15 -123l-45 -196l-90 -417q-4 -21 -26 -21h-259q-21 0 -21 17q0 6 1 9l97 378l44 212q9 42 9 76
q0 69 -34 105.5t-98 36.5q-72 0 -129 -47t-95 -119.5t-58 -153.5l-27 -114l-78 -379q-4 -21 -26 -21h-264zM555 1132q-3 -1 -8 -1q-17 0 -21 18l-31 109q-1 3 -1 9q0 15 15 21l492 191q4 2 11 2q15 0 20 -17l46 -179q1 -3 1 -8q0 -17 -18 -20z" />
    <glyph glyph-name="uni0145" unicode="&#x145;" horiz-adv-x="1391" 
d="M-6 0q-12 0 -17.5 7t-2.5 19l169 674l144 679q4 21 26 21h311q20 0 27 -19l347 -993l100 476l120 515q3 21 25 21h241q12 0 17.5 -7t2.5 -19l-168 -674l-145 -679q-4 -21 -26 -21h-323q-20 0 -26 19l-342 987l-110 -538l-103 -447q-4 -21 -26 -21h-241zM307 -498
q-10 0 -15.5 4.5t-5.5 11.5q0 6 3 12l79 170l48 203q3 21 25 21h253q12 0 17.5 -7.5t3.5 -18.5l-41 -181q-5 -16 -16 -26l-205 -178q-12 -11 -29 -11h-117z" />
    <glyph glyph-name="uni0146" unicode="&#x146;" horiz-adv-x="1121" 
d="M-23 0q-12 0 -17.5 7t-2.5 19l118 468l113 515q4 21 25 21h244q12 0 17.5 -7t2.5 -19l-25 -106q62 70 149 113t187 43q88 0 156.5 -34.5t107.5 -101.5t39 -161q0 -57 -15 -123l-45 -196l-90 -417q-4 -21 -26 -21h-259q-21 0 -21 17q0 6 1 9l97 378l44 212q9 42 9 76
q0 69 -34 105.5t-98 36.5q-72 0 -129 -47t-95 -119.5t-58 -153.5l-27 -114l-78 -379q-4 -21 -26 -21h-264zM175 -498q-10 0 -15.5 4.5t-5.5 11.5q0 6 3 12l79 170l48 203q3 21 25 21h253q12 0 17.5 -7.5t3.5 -18.5l-41 -181q-5 -16 -16 -26l-205 -178q-12 -11 -29 -11h-117z
" />
    <glyph glyph-name="Ncaron" unicode="&#x147;" horiz-adv-x="1391" 
d="M-6 0q-12 0 -17.5 7t-2.5 19l169 674l144 679q4 21 26 21h311q20 0 27 -19l347 -993l100 476l120 515q3 21 25 21h241q12 0 17.5 -7t2.5 -19l-168 -674l-145 -679q-4 -21 -26 -21h-323q-20 0 -26 19l-342 987l-110 -538l-103 -447q-4 -21 -26 -21h-241zM603 1725
q-10 7 -10 19q0 6 4 13l61 98q6 12 18 12q7 0 14 -4l266 -139l304 140q7 3 13 3q13 0 20 -15l45 -98q3 -6 3 -11q0 -11 -13 -21l-325 -200q-14 -8 -29 -8h-90q-16 0 -29 10z" />
    <glyph glyph-name="ncaron" unicode="&#x148;" horiz-adv-x="1121" 
d="M-23 0q-12 0 -17.5 7t-2.5 19l118 468l113 515q4 21 25 21h244q12 0 17.5 -7t2.5 -19l-25 -106q62 70 149 113t187 43q88 0 156.5 -34.5t107.5 -101.5t39 -161q0 -57 -15 -123l-45 -196l-90 -417q-4 -21 -26 -21h-259q-21 0 -21 17q0 6 1 9l97 378l44 212q9 42 9 76
q0 69 -34 105.5t-98 36.5q-72 0 -129 -47t-95 -119.5t-58 -153.5l-27 -114l-78 -379q-4 -21 -26 -21h-264zM393 1355q-10 7 -10 19q0 6 4 13l61 98q6 12 18 12q7 0 14 -4l266 -139l304 140q7 3 13 3q13 0 20 -15l45 -98q3 -6 3 -11q0 -11 -13 -21l-325 -200q-14 -8 -29 -8
h-90q-16 0 -29 10z" />
    <glyph glyph-name="Eng" unicode="&#x14a;" horiz-adv-x="1391" 
d="M-6 0q-10 0 -15.5 5t-5.5 13q0 5 1 8l169 674l146 679q3 21 26 21h326q21 0 27 -18l352 -900l75 369l123 528q3 21 25 21h241q10 0 15.5 -5t5.5 -13q0 -5 -1 -8l-161 -643l-174 -771q-25 -111 -86.5 -183.5t-143.5 -105.5t-170 -33q-78 0 -174 16q-19 3 -19 19q0 5 1 8
l37 163q5 23 28 18q40 -10 107 -10q117 0 143 136l3 16l-410 1044l-78 -380l-146 -647q-4 -21 -26 -21h-241z" />
    <glyph glyph-name="eng" unicode="&#x14b;" horiz-adv-x="1119" 
d="M383 -344q-11 1 -15.5 8.5t-2.5 18.5l39 163q6 22 28 17q29 -9 68 -9q52 0 85 30.5t51 105.5l144 635q9 39 9 72q0 65 -34 101t-96 36q-68 0 -125.5 -44t-98.5 -117t-62 -159l-25 -104l-80 -389q-4 -21 -26 -21h-265q-12 0 -17.5 7t-2.5 19l118 468l113 515q4 21 25 21
h244q12 0 17.5 -7t3.5 -19l-27 -105q64 70 150 112.5t184 42.5q91 0 160 -35.5t107.5 -103t38.5 -161.5q0 -56 -13 -115l-152 -677q-25 -111 -87.5 -183.5t-145.5 -105.5t-173 -33q-50 0 -137 16z" />
    <glyph glyph-name="Omacron" unicode="&#x14c;" horiz-adv-x="1507" 
d="M384 43q-146 73 -228.5 212.5t-82.5 332.5q0 211 97 405.5t280.5 315.5t428.5 121q186 0 331.5 -73t228 -212.5t82.5 -332.5q0 -211 -97 -405.5t-280 -315.5t-427 -121q-187 0 -333 73zM999.5 302q107.5 98 157.5 240.5t50 277.5q0 123 -42.5 207.5t-119 126.5t-178.5 42
q-164 0 -272 -98t-158 -240.5t-50 -277.5q0 -123 43 -207.5t119.5 -126.5t179.5 -42q163 0 270.5 98zM643 1530q-13 0 -18.5 7t-2.5 19l37 153q6 21 25 21h607q12 0 17.5 -7t2.5 -19l-37 -153q-4 -21 -25 -21h-606z" />
    <glyph glyph-name="omacron" unicode="&#x14d;" horiz-adv-x="1154" 
d="M270.5 30q-108.5 54 -169.5 158t-61 250q0 158 72 300t207.5 229t316.5 87q139 0 247.5 -54t169.5 -158t61 -250q0 -158 -72 -300t-207.5 -229t-316.5 -87q-139 0 -247.5 54zM686.5 242.5q63.5 68.5 93.5 168.5t30 195q0 122 -50 186t-136 64q-93 0 -156.5 -68.5
t-93.5 -168.5t-30 -195q0 -122 50 -186t136 -64q93 0 156.5 68.5zM429 1160q-13 0 -18.5 7t-2.5 19l37 153q6 21 25 21h607q12 0 17.5 -7t2.5 -19l-37 -153q-4 -21 -25 -21h-606z" />
    <glyph glyph-name="Obreve" unicode="&#x14e;" horiz-adv-x="1507" 
d="M384 43q-146 73 -228.5 212.5t-82.5 332.5q0 211 97 405.5t280.5 315.5t428.5 121q186 0 331.5 -73t228 -212.5t82.5 -332.5q0 -211 -97 -405.5t-280 -315.5t-427 -121q-187 0 -333 73zM999.5 302q107.5 98 157.5 240.5t50 277.5q0 123 -42.5 207.5t-119 126.5t-178.5 42
q-164 0 -272 -98t-158 -240.5t-50 -277.5q0 -123 43 -207.5t119.5 -126.5t179.5 -42q163 0 270.5 98zM796 1560.5q-72 40.5 -107.5 111t-29.5 158.5q3 22 26 22h147q22 0 22 -26q0 -52 32.5 -83t93.5 -31q60 0 101.5 32.5t59.5 87.5q6 20 26 20h150q12 0 18.5 -6t4.5 -17
q-18 -89 -68.5 -159t-129 -110t-176.5 -40t-170 40.5z" />
    <glyph glyph-name="obreve" unicode="&#x14f;" horiz-adv-x="1154" 
d="M270.5 30q-108.5 54 -169.5 158t-61 250q0 158 72 300t207.5 229t316.5 87q139 0 247.5 -54t169.5 -158t61 -250q0 -158 -72 -300t-207.5 -229t-316.5 -87q-139 0 -247.5 54zM686.5 242.5q63.5 68.5 93.5 168.5t30 195q0 122 -50 186t-136 64q-93 0 -156.5 -68.5
t-93.5 -168.5t-30 -195q0 -122 50 -186t136 -64q93 0 156.5 68.5zM581 1190.5q-72 40.5 -107.5 111t-29.5 158.5q3 22 26 22h147q22 0 22 -26q0 -52 32.5 -83t93.5 -31q60 0 101.5 32.5t59.5 87.5q6 20 26 20h150q12 0 18.5 -6t4.5 -17q-18 -89 -68.5 -159t-129 -110
t-176.5 -40t-170 40.5z" />
    <glyph glyph-name="Ohungarumlaut" unicode="&#x150;" horiz-adv-x="1507" 
d="M384 43q-146 73 -228.5 212.5t-82.5 332.5q0 211 97 405.5t280.5 315.5t428.5 121q186 0 331.5 -73t228 -212.5t82.5 -332.5q0 -211 -97 -405.5t-280 -315.5t-427 -121q-187 0 -333 73zM999.5 302q107.5 98 157.5 240.5t50 277.5q0 123 -42.5 207.5t-119 126.5t-178.5 42
q-164 0 -272 -98t-158 -240.5t-50 -277.5q0 -123 43 -207.5t119.5 -126.5t179.5 -42q163 0 270.5 98zM766 1529q-9 -7 -16 -7q-9 0 -17 8l-54 56q-8 10 -8 17q0 9 7 16l311 344q8 9 17 9q10 0 17 -10l91 -112q6 -7 6 -16q0 -8 -9 -17zM1128 1519q-8 -7 -17 -7t-17 8l-53 54
q-8 8 -8 17t7 16l313 344q8 9 18 9t17 -10l90 -110q7 -10 7 -16q0 -9 -9 -17z" />
    <glyph glyph-name="ohungarumlaut" unicode="&#x151;" horiz-adv-x="1154" 
d="M270.5 30q-108.5 54 -169.5 158t-61 250q0 158 72 300t207.5 229t316.5 87q139 0 247.5 -54t169.5 -158t61 -250q0 -158 -72 -300t-207.5 -229t-316.5 -87q-139 0 -247.5 54zM686.5 242.5q63.5 68.5 93.5 168.5t30 195q0 122 -50 186t-136 64q-93 0 -156.5 -68.5
t-93.5 -168.5t-30 -195q0 -122 50 -186t136 -64q93 0 156.5 68.5zM551 1159q-9 -7 -16 -7q-9 0 -17 8l-54 56q-8 10 -8 17q0 9 7 16l311 344q8 9 17 9q10 0 17 -10l91 -112q6 -7 6 -16q0 -8 -9 -17zM913 1149q-8 -7 -17 -7t-17 8l-53 54q-8 8 -8 17t7 16l313 344q8 9 18 9
t17 -10l90 -110q7 -10 7 -16q0 -9 -9 -17z" />
    <glyph glyph-name="OE" unicode="&#x152;" horiz-adv-x="2038" 
d="M714 0q-186 0 -331.5 69.5t-228 202.5t-82.5 316q0 204 97 391t280 304t427 117h1273q12 0 17.5 -7t2.5 -19l-41 -179q-4 -21 -25 -21h-648l-83 -322h591q12 0 17.5 -7t2.5 -19l-41 -179q-4 -21 -25 -21h-599l-83 -400h658q12 0 17.5 -7t2.5 -19l-41 -179q-5 -21 -25 -21
h-1133zM428.5 384.5q42.5 -79.5 119 -119t178.5 -39.5h199l120 474l100 474h-281q-163 0 -270.5 -94.5t-157.5 -231.5t-50 -268q0 -116 42.5 -195.5z" />
    <glyph glyph-name="oe" unicode="&#x153;" horiz-adv-x="1899" 
d="M1647.5 999q105.5 -55 162 -155t56.5 -229q0 -69 -16 -140q-4 -21 -25 -21h-719v-30q0 -124 54.5 -187t151.5 -63q80 0 136 41.5t83 120.5q7 20 27 20h237q10 0 15.5 -5t5.5 -13q0 -5 -1 -8q-47 -166 -179.5 -260t-329.5 -94q-122 0 -222.5 39t-165.5 113
q-77 -73 -178 -112.5t-222 -39.5q-139 0 -247.5 54t-169.5 158t-61 250q0 158 72 300t207.5 229t316.5 87q116 0 212 -38t160 -110q76 70 175.5 109t218.5 39q140 0 245.5 -55zM686.5 242.5q63.5 68.5 93.5 168.5t30 195q0 122 -50 186t-136 64q-93 0 -156.5 -68.5
t-93.5 -168.5t-30 -195q0 -122 50 -186t136 -64q93 0 156.5 68.5zM1570 644q1 9 1 27q0 82 -49.5 133.5t-137.5 51.5q-92 0 -154.5 -56.5t-93.5 -155.5h434z" />
    <glyph glyph-name="Racute" unicode="&#x154;" horiz-adv-x="1284" 
d="M1216.5 716q-101.5 -123 -290.5 -170l216 -519q3 -6 3 -11q0 -7 -5.5 -11.5t-15.5 -4.5h-304q-21 0 -27 19l-109 293l-89 208h-202l-106 -499q-4 -21 -26 -21h-267q-10 0 -15.5 5t-5.5 13q0 5 1 8l169 674l144 679q4 21 26 21h535q240 0 355 -104t115 -282
q0 -175 -101.5 -298zM820 1178h-268l-110 -436h296q140 0 210 69.5t70 182.5q0 184 -198 184zM660 1502q-3 -1 -8 -1q-17 0 -21 18l-31 109q-1 3 -1 9q0 15 15 21l492 191q4 2 11 2q15 0 20 -17l46 -179q1 -3 1 -8q0 -17 -18 -20z" />
    <glyph glyph-name="racute" unicode="&#x155;" horiz-adv-x="794" 
d="M-21 0q-12 0 -18 7t-3 19l122 490l106 493q3 21 26 21h251q10 0 15.5 -5t5.5 -13q0 -5 -1 -8l-40 -148q78 89 180 135.5t210 46.5q20 0 39 -3q11 -2 15.5 -9.5t2.5 -18.5l-42 -177q-4 -19 -24 -19l-35 1q-92 0 -182.5 -44t-157 -125t-90.5 -185l-98 -437q-4 -21 -26 -21
h-256zM393 1132q-3 -1 -8 -1q-17 0 -21 18l-31 109q-1 3 -1 9q0 15 15 21l492 191q4 2 11 2q15 0 20 -17l46 -179q1 -3 1 -8q0 -17 -18 -20z" />
    <glyph glyph-name="uni0156" unicode="&#x156;" horiz-adv-x="1284" 
d="M1216.5 716q-101.5 -123 -290.5 -170l216 -519q3 -6 3 -11q0 -7 -5.5 -11.5t-15.5 -4.5h-304q-21 0 -27 19l-109 293l-89 208h-202l-106 -499q-4 -21 -26 -21h-267q-10 0 -15.5 5t-5.5 13q0 5 1 8l169 674l144 679q4 21 26 21h535q240 0 355 -104t115 -282
q0 -175 -101.5 -298zM820 1178h-268l-110 -436h296q140 0 210 69.5t70 182.5q0 184 -198 184zM277 -498q-10 0 -15.5 4.5t-5.5 11.5q0 6 3 12l79 170l48 203q3 21 25 21h253q12 0 17.5 -7.5t3.5 -18.5l-41 -181q-5 -16 -16 -26l-205 -178q-12 -11 -29 -11h-117z" />
    <glyph glyph-name="uni0157" unicode="&#x157;" horiz-adv-x="794" 
d="M-21 0q-12 0 -18 7t-3 19l122 490l106 493q3 21 26 21h251q10 0 15.5 -5t5.5 -13q0 -5 -1 -8l-40 -148q78 89 180 135.5t210 46.5q20 0 39 -3q11 -2 15.5 -9.5t2.5 -18.5l-42 -177q-4 -19 -24 -19l-35 1q-92 0 -182.5 -44t-157 -125t-90.5 -185l-98 -437q-4 -21 -26 -21
h-256zM-166 -498q-10 0 -15.5 4.5t-5.5 11.5q0 6 3 12l79 170l48 203q3 21 25 21h253q12 0 17.5 -7.5t3.5 -18.5l-41 -181q-5 -16 -16 -26l-205 -178q-12 -11 -29 -11h-117z" />
    <glyph glyph-name="Rcaron" unicode="&#x158;" horiz-adv-x="1284" 
d="M1216.5 716q-101.5 -123 -290.5 -170l216 -519q3 -6 3 -11q0 -7 -5.5 -11.5t-15.5 -4.5h-304q-21 0 -27 19l-109 293l-89 208h-202l-106 -499q-4 -21 -26 -21h-267q-10 0 -15.5 5t-5.5 13q0 5 1 8l169 674l144 679q4 21 26 21h535q240 0 355 -104t115 -282
q0 -175 -101.5 -298zM820 1178h-268l-110 -436h296q140 0 210 69.5t70 182.5q0 184 -198 184zM497 1725q-10 7 -10 19q0 6 4 13l61 98q6 12 18 12q7 0 14 -4l266 -139l304 140q7 3 13 3q13 0 20 -15l45 -98q3 -6 3 -11q0 -11 -13 -21l-325 -200q-14 -8 -29 -8h-90
q-16 0 -29 10z" />
    <glyph glyph-name="rcaron" unicode="&#x159;" horiz-adv-x="794" 
d="M-21 0q-12 0 -18 7t-3 19l122 490l106 493q3 21 26 21h251q10 0 15.5 -5t5.5 -13q0 -5 -1 -8l-40 -148q78 89 180 135.5t210 46.5q20 0 39 -3q11 -2 15.5 -9.5t2.5 -18.5l-42 -177q-4 -19 -24 -19l-35 1q-92 0 -182.5 -44t-157 -125t-90.5 -185l-98 -437q-4 -21 -26 -21
h-256zM230 1355q-10 7 -10 19q0 6 4 13l61 98q6 12 18 12q7 0 14 -4l266 -139l304 140q7 3 13 3q13 0 20 -15l45 -98q3 -6 3 -11q0 -11 -13 -21l-325 -200q-14 -8 -29 -8h-90q-16 0 -29 10z" />
    <glyph glyph-name="Sacute" unicode="&#x15a;" horiz-adv-x="1293" 
d="M310.5 23q-143.5 55 -224.5 163.5t-75 262.5q2 23 25 23h272q22 0 24 -23q9 -120 84.5 -185.5t224.5 -65.5q100 0 162 29t89 71t27 84q0 56 -40 92.5t-100.5 58.5t-168.5 51q-145 38 -236 75.5t-156 112t-65 196.5q0 125 67.5 230t205 168.5t335.5 63.5q158 0 284 -43.5
t201 -137.5t75 -239q1 -12 -5.5 -18t-17.5 -6h-274q-22 0 -25 23q-9 93 -73.5 142t-184.5 49q-80 0 -141.5 -21t-95 -60t-33.5 -89q0 -52 39.5 -86t99 -55.5t164.5 -49.5q149 -41 242 -79t160 -113t67 -197q0 -127 -70 -237t-208.5 -177.5t-333.5 -67.5q-177 0 -320.5 55z
M664 1502q-3 -1 -8 -1q-17 0 -21 18l-31 109q-1 3 -1 9q0 15 15 21l492 191q4 2 11 2q15 0 20 -17l46 -179q1 -3 1 -8q0 -17 -18 -20z" />
    <glyph glyph-name="sacute" unicode="&#x15b;" horiz-adv-x="1072" 
d="M237 20.5q-110 44.5 -169 123.5t-62 181q-1 11 5.5 17t17.5 6h245q22 0 24 -23q5 -79 58 -121t154 -42q94 0 137 32.5t43 79.5q0 35 -27.5 59t-69.5 39.5t-117 37.5q-111 31 -183 62t-123.5 91.5t-51.5 156.5q0 99 58 175t164.5 117.5t245.5 41.5t240 -39t157 -111.5
t64 -169.5q2 -24 -24 -24h-235q-21 0 -24 23q-8 67 -55.5 103t-124.5 36t-120.5 -32t-43.5 -80q0 -37 28.5 -61.5t71.5 -40t120 -35.5q109 -29 178.5 -57t119.5 -84.5t50 -147.5q0 -102 -58.5 -183.5t-169.5 -128t-264 -46.5q-149 0 -259 44.5zM523 1132q-3 -1 -8 -1
q-17 0 -21 18l-31 109q-1 3 -1 9q0 15 15 21l492 191q4 2 11 2q15 0 20 -17l46 -179q1 -3 1 -8q0 -17 -18 -20z" />
    <glyph glyph-name="Scircumflex" unicode="&#x15c;" horiz-adv-x="1293" 
d="M310.5 23q-143.5 55 -224.5 163.5t-75 262.5q2 23 25 23h272q22 0 24 -23q9 -120 84.5 -185.5t224.5 -65.5q100 0 162 29t89 71t27 84q0 56 -40 92.5t-100.5 58.5t-168.5 51q-145 38 -236 75.5t-156 112t-65 196.5q0 125 67.5 230t205 168.5t335.5 63.5q158 0 284 -43.5
t201 -137.5t75 -239q1 -12 -5.5 -18t-17.5 -6h-274q-22 0 -25 23q-9 93 -73.5 142t-184.5 49q-80 0 -141.5 -21t-95 -60t-33.5 -89q0 -52 39.5 -86t99 -55.5t164.5 -49.5q149 -41 242 -79t160 -113t67 -197q0 -127 -70 -237t-208.5 -177.5t-333.5 -67.5q-177 0 -320.5 55z
M485 1618q-3 6 -3 12q0 12 13 20l323 200q14 8 29 8h90q16 0 29 -10l252 -200q10 -7 10 -19q0 -7 -4 -14l-61 -98q-6 -12 -18 -12q-8 0 -13 4l-266 139l-305 -140q-6 -3 -11 -3q-14 0 -20 15z" />
    <glyph glyph-name="scircumflex" unicode="&#x15d;" horiz-adv-x="1072" 
d="M237 20.5q-110 44.5 -169 123.5t-62 181q-1 11 5.5 17t17.5 6h245q22 0 24 -23q5 -79 58 -121t154 -42q94 0 137 32.5t43 79.5q0 35 -27.5 59t-69.5 39.5t-117 37.5q-111 31 -183 62t-123.5 91.5t-51.5 156.5q0 99 58 175t164.5 117.5t245.5 41.5t240 -39t157 -111.5
t64 -169.5q2 -24 -24 -24h-235q-21 0 -24 23q-8 67 -55.5 103t-124.5 36t-120.5 -32t-43.5 -80q0 -37 28.5 -61.5t71.5 -40t120 -35.5q109 -29 178.5 -57t119.5 -84.5t50 -147.5q0 -102 -58.5 -183.5t-169.5 -128t-264 -46.5q-149 0 -259 44.5zM344 1248q-3 6 -3 12
q0 12 13 20l323 200q14 8 29 8h90q16 0 29 -10l252 -200q10 -7 10 -19q0 -7 -4 -14l-61 -98q-6 -12 -18 -12q-8 0 -13 4l-266 139l-305 -140q-6 -3 -11 -3q-14 0 -20 15z" />
    <glyph glyph-name="Scedilla" unicode="&#x15e;" horiz-adv-x="1293" 
d="M1315.5 992q-6.5 -6 -17.5 -6h-274q-22 0 -25 23q-9 93 -73.5 142t-184.5 49q-80 0 -141.5 -21t-95 -60t-33.5 -89q0 -52 39.5 -86t99 -55.5t164.5 -49.5q149 -41 242 -79t160 -113t67 -197q0 -115 -57.5 -216.5t-171 -171.5t-275.5 -88l-155 -318q-9 -18 -29 -15
l-221 34q-18 3 -18 17q0 6 4 13l161 274q-141 21 -249 81t-167 158.5t-54 230.5q2 23 25 23h272q22 0 24 -23q9 -120 84.5 -185.5t224.5 -65.5q100 0 162 29t89 71t27 84q0 56 -40 92.5t-100.5 58.5t-168.5 51q-145 38 -236 75.5t-156 112t-65 196.5q0 125 67.5 230
t205 168.5t335.5 63.5q158 0 284 -43.5t201 -137.5t75 -239q1 -12 -5.5 -18z" />
    <glyph glyph-name="scedilla" unicode="&#x15f;" horiz-adv-x="1072" 
d="M1023 710h-235q-21 0 -24 23q-8 67 -55.5 103t-124.5 36t-120.5 -32t-43.5 -80q0 -37 28.5 -61.5t71.5 -40t120 -35.5q109 -29 178.5 -57t119.5 -84.5t50 -147.5q0 -93 -48.5 -169t-141.5 -125t-223 -61l-158 -323q-9 -18 -29 -15l-221 34q-18 3 -18 17q0 6 4 13l169 289
q-147 33 -230 121t-86 210q-1 11 5.5 17t17.5 6h245q22 0 24 -23q5 -79 58 -121t154 -42q94 0 137 32.5t43 79.5q0 35 -27.5 59t-69.5 39.5t-117 37.5q-111 31 -183 62t-123.5 91.5t-51.5 156.5q0 99 58 175t164.5 117.5t245.5 41.5t240 -39t157 -111.5t64 -169.5
q2 -24 -24 -24z" />
    <glyph glyph-name="Scaron" unicode="&#x160;" horiz-adv-x="1293" 
d="M310.5 23q-143.5 55 -224.5 163.5t-75 262.5q2 23 25 23h272q22 0 24 -23q9 -120 84.5 -185.5t224.5 -65.5q100 0 162 29t89 71t27 84q0 56 -40 92.5t-100.5 58.5t-168.5 51q-145 38 -236 75.5t-156 112t-65 196.5q0 125 67.5 230t205 168.5t335.5 63.5q158 0 284 -43.5
t201 -137.5t75 -239q1 -12 -5.5 -18t-17.5 -6h-274q-22 0 -25 23q-9 93 -73.5 142t-184.5 49q-80 0 -141.5 -21t-95 -60t-33.5 -89q0 -52 39.5 -86t99 -55.5t164.5 -49.5q149 -41 242 -79t160 -113t67 -197q0 -127 -70 -237t-208.5 -177.5t-333.5 -67.5q-177 0 -320.5 55z
M502 1725q-10 7 -10 19q0 6 4 13l61 98q6 12 18 12q7 0 14 -4l266 -139l304 140q7 3 13 3q13 0 20 -15l45 -98q3 -6 3 -11q0 -11 -13 -21l-325 -200q-14 -8 -29 -8h-90q-16 0 -29 10z" />
    <glyph glyph-name="scaron" unicode="&#x161;" horiz-adv-x="1072" 
d="M237 20.5q-110 44.5 -169 123.5t-62 181q-1 11 5.5 17t17.5 6h245q22 0 24 -23q5 -79 58 -121t154 -42q94 0 137 32.5t43 79.5q0 35 -27.5 59t-69.5 39.5t-117 37.5q-111 31 -183 62t-123.5 91.5t-51.5 156.5q0 99 58 175t164.5 117.5t245.5 41.5t240 -39t157 -111.5
t64 -169.5q2 -24 -24 -24h-235q-21 0 -24 23q-8 67 -55.5 103t-124.5 36t-120.5 -32t-43.5 -80q0 -37 28.5 -61.5t71.5 -40t120 -35.5q109 -29 178.5 -57t119.5 -84.5t50 -147.5q0 -102 -58.5 -183.5t-169.5 -128t-264 -46.5q-149 0 -259 44.5zM361 1355q-10 7 -10 19
q0 6 4 13l61 98q6 12 18 12q7 0 14 -4l266 -139l304 140q7 3 13 3q13 0 20 -15l45 -98q3 -6 3 -11q0 -11 -13 -21l-325 -200q-14 -8 -29 -8h-90q-16 0 -29 10z" />
    <glyph glyph-name="uni0162" unicode="&#x162;" horiz-adv-x="1143" 
d="M1317 1400q12 0 17 -7t3 -19l-41 -179q-4 -21 -26 -21h-380l-125 -474l-139 -679q-4 -21 -26 -21h-17l-3 -8l-164 -333q-9 -19 -30 -15l-219 42q-17 5 -17 17q0 6 4 13l171 284h-1q-21 0 -21 17q0 6 1 9l174 674l95 474h-376q-12 0 -17 7t-3 19l42 179q3 21 25 21h1073z
" />
    <glyph glyph-name="uni0163" unicode="&#x163;" horiz-adv-x="738" 
d="M797 1030q12 0 18 -7t3 -19l-39 -165q-4 -21 -26 -21h-226l-115 -508q-6 -24 -6 -43q0 -39 22.5 -56t65.5 -17q50 0 110 14q3 1 8 1q9 0 13 -6.5t2 -17.5l-34 -147q-5 -19 -22 -23q-77 -24 -140 -32l-160 -327q-10 -18 -29 -15l-221 34q-9 1 -14 6t-5 12t4 12l188 319
q-96 61 -96 186q0 41 12 92l121 516h-108q-12 0 -17.5 7t-3.5 19l40 165q3 21 25 21h112l51 237q3 21 26 21h259q12 0 18 -7t3 -19l-58 -232h219z" />
    <glyph glyph-name="Tcaron" unicode="&#x164;" horiz-adv-x="1155" 
d="M324 0q-21 0 -21 17q0 6 1 9l174 674l95 474h-376q-12 0 -17 7t-3 19l42 179q3 21 25 21h1073q12 0 17 -7t3 -19l-41 -179q-4 -21 -26 -21h-380l-125 -474l-139 -679q-4 -21 -26 -21h-276zM484 1725q-10 7 -10 19q0 6 4 13l61 98q6 12 18 12q7 0 14 -4l266 -139l304 140
q7 3 13 3q13 0 20 -15l45 -98q3 -6 3 -11q0 -11 -13 -21l-325 -200q-14 -8 -29 -8h-90q-16 0 -29 10z" />
    <glyph glyph-name="tcaron" unicode="&#x165;" horiz-adv-x="738" 
d="M797 1030q12 0 18 -7t3 -19l-39 -165q-4 -21 -26 -21h-226l-115 -508q-6 -24 -6 -43q0 -39 22.5 -56t65.5 -17q50 0 110 14q3 1 8 1q9 0 13 -6.5t2 -17.5l-34 -147q-5 -19 -22 -23q-108 -35 -195 -35q-122 0 -199.5 56.5t-77.5 173.5q0 45 11 92l121 516h-108
q-12 0 -17.5 7t-3.5 19l40 165q3 21 25 21h112l51 237q3 21 26 21h259q12 0 18 -7t3 -19l-58 -232h219zM864 1117q-9 -17 -27 -17h-143q-20 0 -20 17q0 2 2 10l151 424q7 19 27 19h195q20 0 20 -16q0 -6 -3 -12z" />
    <glyph glyph-name="Tbar" unicode="&#x166;" horiz-adv-x="1155" 
d="M1317 1400q12 0 17 -7t3 -19l-41 -179q-4 -21 -26 -21h-380l-107 -402h216q12 0 17 -7t3 -19l-41 -179q-5 -21 -26 -21h-219l-107 -525q-4 -21 -26 -21h-276q-21 0 -21 17q0 6 1 9l134 520h-219q-12 0 -17 7t-3 19l42 179q3 21 25 21h226l81 402h-376q-12 0 -17 7t-3 19
l42 179q3 21 25 21h1073z" />
    <glyph glyph-name="tbar" unicode="&#x167;" horiz-adv-x="746" 
d="M805 1030q12 0 17.5 -7t2.5 -19l-39 -165q-4 -21 -25 -21h-226l-38 -168h212q12 0 17.5 -7.5t3.5 -18.5l-38 -165q-4 -21 -26 -21h-217l-29 -128q-6 -24 -6 -43q0 -39 22.5 -56t65.5 -17q48 0 110 14q3 1 8 1q7 0 11 -4t4 -11q0 -6 -1 -9l-34 -147q-5 -19 -22 -23
q-108 -35 -194 -35q-122 0 -199.5 56.5t-77.5 173.5q0 45 11 92l32 136h-115q-12 0 -17.5 7.5t-2.5 18.5l38 165q3 21 25 21h122l39 168h-108q-13 0 -18.5 7t-2.5 19l39 165q5 21 25 21h113l50 237q4 21 26 21h260q12 0 17.5 -7t2.5 -19l-57 -232h219z" />
    <glyph glyph-name="Utilde" unicode="&#x168;" horiz-adv-x="1281" 
d="M302.5 23q-114.5 53 -174 150.5t-59.5 230.5q0 76 19 158l80 338l102 479q4 21 26 21h271q12 0 17.5 -7t2.5 -19l-118 -466l-81 -350q-15 -64 -15 -121q0 -107 58 -166t174 -59q124 0 202.5 73t114.5 227l90 390l99 477q4 21 26 21h251q12 0 17.5 -7t2.5 -19l-119 -474
l-90 -390q-63 -272 -213.5 -406t-408.5 -134q-160 0 -274.5 53zM948.5 1547.5q-33.5 17.5 -70.5 48.5q-23 20 -39 30t-34 10q-30 0 -47 -21.5t-27 -63.5q-5 -21 -26 -21h-105q-12 0 -17.5 6.5t-4.5 18.5q22 119 85 191t160 72q44 0 76 -17.5t72 -49.5q24 -20 39.5 -29.5
t30.5 -9.5q31 0 48 21t25 61q6 22 26 22h105q10 0 15.5 -6t5.5 -16q0 -7 -1 -10q-22 -120 -82.5 -187t-153.5 -67q-47 0 -80.5 17.5z" />
    <glyph glyph-name="utilde" unicode="&#x169;" horiz-adv-x="1121" 
d="M1140 1030q12 0 18 -7t3 -19l-118 -468l-113 -515q-4 -21 -26 -21h-243q-12 0 -17.5 7t-3.5 19l26 106q-62 -70 -149 -113t-187 -43q-88 0 -157.5 34.5t-109 101.5t-39.5 161q0 59 16 123l47 196l90 417q3 21 26 21h259q10 0 15.5 -5t5.5 -13q0 -5 -1 -8l-97 -378
l-43 -212q-8 -37 -8 -76q0 -69 33 -105.5t97 -36.5q104 0 175.5 95t104.5 225l29 114l78 379q3 21 26 21h263zM761.5 1177.5q-33.5 17.5 -70.5 48.5q-23 20 -39 30t-34 10q-30 0 -47 -21.5t-27 -63.5q-5 -21 -26 -21h-105q-12 0 -17.5 6.5t-4.5 18.5q22 119 85 191t160 72
q44 0 76 -17.5t72 -49.5q24 -20 39.5 -29.5t30.5 -9.5q31 0 48 21t25 61q6 22 26 22h105q10 0 15.5 -6t5.5 -16q0 -7 -1 -10q-22 -120 -82.5 -187t-153.5 -67q-47 0 -80.5 17.5z" />
    <glyph glyph-name="Umacron" unicode="&#x16a;" horiz-adv-x="1281" 
d="M302.5 23q-114.5 53 -174 150.5t-59.5 230.5q0 76 19 158l80 338l102 479q4 21 26 21h271q12 0 17.5 -7t2.5 -19l-118 -466l-81 -350q-15 -64 -15 -121q0 -107 58 -166t174 -59q124 0 202.5 73t114.5 227l90 390l99 477q4 21 26 21h251q12 0 17.5 -7t2.5 -19l-119 -474
l-90 -390q-63 -272 -213.5 -406t-408.5 -134q-160 0 -274.5 53zM590 1530q-13 0 -18.5 7t-2.5 19l37 153q6 21 25 21h607q12 0 17.5 -7t2.5 -19l-37 -153q-4 -21 -25 -21h-606z" />
    <glyph glyph-name="umacron" unicode="&#x16b;" horiz-adv-x="1121" 
d="M1140 1030q12 0 18 -7t3 -19l-118 -468l-113 -515q-4 -21 -26 -21h-243q-12 0 -17.5 7t-3.5 19l26 106q-62 -70 -149 -113t-187 -43q-88 0 -157.5 34.5t-109 101.5t-39.5 161q0 59 16 123l47 196l90 417q3 21 26 21h259q10 0 15.5 -5t5.5 -13q0 -5 -1 -8l-97 -378
l-43 -212q-8 -37 -8 -76q0 -69 33 -105.5t97 -36.5q104 0 175.5 95t104.5 225l29 114l78 379q3 21 26 21h263zM403 1160q-13 0 -18.5 7t-2.5 19l37 153q6 21 25 21h607q12 0 17.5 -7t2.5 -19l-37 -153q-4 -21 -25 -21h-606z" />
    <glyph glyph-name="Ubreve" unicode="&#x16c;" horiz-adv-x="1281" 
d="M302.5 23q-114.5 53 -174 150.5t-59.5 230.5q0 76 19 158l80 338l102 479q4 21 26 21h271q12 0 17.5 -7t2.5 -19l-118 -466l-81 -350q-15 -64 -15 -121q0 -107 58 -166t174 -59q124 0 202.5 73t114.5 227l90 390l99 477q4 21 26 21h251q12 0 17.5 -7t2.5 -19l-119 -474
l-90 -390q-63 -272 -213.5 -406t-408.5 -134q-160 0 -274.5 53zM742 1560.5q-72 40.5 -107.5 111t-29.5 158.5q3 22 26 22h147q22 0 22 -26q0 -52 32.5 -83t93.5 -31q60 0 101.5 32.5t59.5 87.5q6 20 26 20h150q12 0 18.5 -6t4.5 -17q-18 -89 -68.5 -159t-129 -110
t-176.5 -40t-170 40.5z" />
    <glyph glyph-name="ubreve" unicode="&#x16d;" horiz-adv-x="1121" 
d="M1140 1030q12 0 18 -7t3 -19l-118 -468l-113 -515q-4 -21 -26 -21h-243q-12 0 -17.5 7t-3.5 19l26 106q-62 -70 -149 -113t-187 -43q-88 0 -157.5 34.5t-109 101.5t-39.5 161q0 59 16 123l47 196l90 417q3 21 26 21h259q10 0 15.5 -5t5.5 -13q0 -5 -1 -8l-97 -378
l-43 -212q-8 -37 -8 -76q0 -69 33 -105.5t97 -36.5q104 0 175.5 95t104.5 225l29 114l78 379q3 21 26 21h263zM555 1190.5q-72 40.5 -107.5 111t-29.5 158.5q3 22 26 22h147q22 0 22 -26q0 -52 32.5 -83t93.5 -31q60 0 101.5 32.5t59.5 87.5q6 20 26 20h150q12 0 18.5 -6
t4.5 -17q-18 -89 -68.5 -159t-129 -110t-176.5 -40t-170 40.5z" />
    <glyph glyph-name="Uring" unicode="&#x16e;" horiz-adv-x="1281" 
d="M302.5 23q-114.5 53 -174 150.5t-59.5 230.5q0 76 19 158l80 338l102 479q4 21 26 21h271q12 0 17.5 -7t2.5 -19l-118 -466l-81 -350q-15 -64 -15 -121q0 -107 58 -166t174 -59q124 0 202.5 73t114.5 227l90 390l99 477q4 21 26 21h251q12 0 17.5 -7t2.5 -19l-119 -474
l-90 -390q-63 -272 -213.5 -406t-408.5 -134q-160 0 -274.5 53zM794.5 1541.5q-57.5 27.5 -91.5 78t-34 116.5q0 68 36 126t99.5 93t142.5 35q71 0 128.5 -28.5t90.5 -79t33 -114.5q0 -68 -36 -126t-99.5 -93t-142.5 -35q-69 0 -126.5 27.5zM1009.5 1661.5
q33.5 41.5 33.5 104.5q0 56 -27.5 87t-70.5 31q-56 0 -88 -44t-32 -104q0 -55 28 -85.5t72 -30.5q51 0 84.5 41.5z" />
    <glyph glyph-name="uring" unicode="&#x16f;" horiz-adv-x="1121" 
d="M1140 1030q12 0 18 -7t3 -19l-118 -468l-113 -515q-4 -21 -26 -21h-243q-12 0 -17.5 7t-3.5 19l26 106q-62 -70 -149 -113t-187 -43q-88 0 -157.5 34.5t-109 101.5t-39.5 161q0 59 16 123l47 196l90 417q3 21 26 21h259q10 0 15.5 -5t5.5 -13q0 -5 -1 -8l-97 -378
l-43 -212q-8 -37 -8 -76q0 -69 33 -105.5t97 -36.5q104 0 175.5 95t104.5 225l29 114l78 379q3 21 26 21h263zM607.5 1171.5q-57.5 27.5 -91.5 78t-34 116.5q0 68 36 126t99.5 93t142.5 35q71 0 128.5 -28.5t90.5 -79t33 -114.5q0 -68 -36 -126t-99.5 -93t-142.5 -35
q-69 0 -126.5 27.5zM822.5 1291.5q33.5 41.5 33.5 104.5q0 56 -27.5 87t-70.5 31q-56 0 -88 -44t-32 -104q0 -55 28 -85.5t72 -30.5q51 0 84.5 41.5z" />
    <glyph glyph-name="Uhungarumlaut" unicode="&#x170;" horiz-adv-x="1281" 
d="M302.5 23q-114.5 53 -174 150.5t-59.5 230.5q0 76 19 158l80 338l102 479q4 21 26 21h271q12 0 17.5 -7t2.5 -19l-118 -466l-81 -350q-15 -64 -15 -121q0 -107 58 -166t174 -59q124 0 202.5 73t114.5 227l90 390l99 477q4 21 26 21h251q12 0 17.5 -7t2.5 -19l-119 -474
l-90 -390q-63 -272 -213.5 -406t-408.5 -134q-160 0 -274.5 53zM712 1529q-9 -7 -16 -7q-9 0 -17 8l-54 56q-8 10 -8 17q0 9 7 16l311 344q8 9 17 9q10 0 17 -10l91 -112q6 -7 6 -16q0 -8 -9 -17zM1074 1519q-8 -7 -17 -7t-17 8l-53 54q-8 8 -8 17t7 16l313 344q8 9 18 9
t17 -10l90 -110q7 -10 7 -16q0 -9 -9 -17z" />
    <glyph glyph-name="uhungarumlaut" unicode="&#x171;" horiz-adv-x="1121" 
d="M1140 1030q12 0 18 -7t3 -19l-118 -468l-113 -515q-4 -21 -26 -21h-243q-12 0 -17.5 7t-3.5 19l26 106q-62 -70 -149 -113t-187 -43q-88 0 -157.5 34.5t-109 101.5t-39.5 161q0 59 16 123l47 196l90 417q3 21 26 21h259q10 0 15.5 -5t5.5 -13q0 -5 -1 -8l-97 -378
l-43 -212q-8 -37 -8 -76q0 -69 33 -105.5t97 -36.5q104 0 175.5 95t104.5 225l29 114l78 379q3 21 26 21h263zM525 1159q-9 -7 -16 -7q-9 0 -17 8l-54 56q-8 10 -8 17q0 9 7 16l311 344q8 9 17 9q10 0 17 -10l91 -112q6 -7 6 -16q0 -8 -9 -17zM887 1149q-8 -7 -17 -7t-17 8
l-53 54q-8 8 -8 17t7 16l313 344q8 9 18 9t17 -10l90 -110q7 -10 7 -16q0 -9 -9 -17z" />
    <glyph glyph-name="Uogonek" unicode="&#x172;" horiz-adv-x="1281" 
d="M1388 1400q12 0 17.5 -7t2.5 -19l-119 -474l-90 -390q-63 -272 -213.5 -406t-408.5 -134h-13q-26 -27 -42.5 -60t-16.5 -64q0 -70 102 -70h73q12 0 17.5 -7t3.5 -19l-35 -149q-4 -21 -26 -21h-105q-88 0 -149 26t-92 71.5t-31 104.5q0 64 35.5 117t98.5 91
q-158 40 -243.5 147.5t-85.5 266.5q0 72 20 158l80 338l102 479q4 21 26 21h271q12 0 17.5 -7t2.5 -19l-118 -466l-81 -350q-15 -64 -15 -121q0 -107 58 -166t174 -59q124 0 202.5 73t114.5 227l90 390l99 477q4 21 26 21h251z" />
    <glyph glyph-name="uogonek" unicode="&#x173;" horiz-adv-x="1121" 
d="M1140 1030q12 0 18 -7t3 -19l-118 -468l-113 -515q-4 -21 -26 -21h-87q-37 -25 -65 -69t-28 -85q0 -70 102 -70h73q12 0 17.5 -7t3.5 -19l-35 -149q-4 -21 -26 -21h-105q-88 0 -149 26t-92 71.5t-31 104.5q0 71 43.5 128t118.5 96q-7 9 -4 20l26 106q-62 -70 -149 -113
t-187 -43q-88 0 -157.5 34.5t-109 101.5t-39.5 161q0 59 16 123l47 196l90 417q3 21 26 21h259q10 0 15.5 -5t5.5 -13q0 -5 -1 -8l-97 -378l-43 -212q-8 -37 -8 -76q0 -69 33 -105.5t97 -36.5q104 0 175.5 95t104.5 225l29 114l78 379q3 21 26 21h263z" />
    <glyph glyph-name="Wcircumflex" unicode="&#x174;" horiz-adv-x="1844" 
d="M235 0q-11 0 -17 6.5t-6 17.5l-4 1353q0 23 23 23h247q23 0 23 -23l-41 -1117l468 1122q9 18 27 18h310q24 0 24 -24l-45 -1140l486 1146q9 18 27 18h260q10 0 15.5 -4.5t5.5 -12.5q0 -5 -3 -11l-639 -1355q-8 -17 -27 -17h-326q-11 0 -17 6.5t-6 17.5l-2 954l-420 -960
q-9 -18 -28 -18h-335zM798 1618q-3 6 -3 12q0 12 13 20l323 200q14 8 29 8h90q16 0 29 -10l252 -200q10 -7 10 -19q0 -7 -4 -14l-61 -98q-6 -12 -18 -12q-8 0 -13 4l-266 139l-305 -140q-6 -3 -11 -3q-14 0 -20 15z" />
    <glyph glyph-name="wcircumflex" unicode="&#x175;" horiz-adv-x="1446" 
d="M122 0q-24 0 -24 24l10 983q0 11 6.5 17t17.5 6h224q24 0 22 -24l-62 -772l321 778q8 18 27 18h318q25 0 23 -24l-37 -754l295 760q6 18 27 18h258q10 0 15.5 -4.5t5.5 -11.5q0 -5 -3 -11l-444 -985q-7 -18 -27 -18h-311q-23 0 -23 24l15 764l-319 -770q-7 -18 -27 -18
h-308zM510 1248q-3 6 -3 12q0 12 13 20l323 200q14 8 29 8h90q16 0 29 -10l252 -200q10 -7 10 -19q0 -7 -4 -14l-61 -98q-6 -12 -18 -12q-8 0 -13 4l-266 139l-305 -140q-6 -3 -11 -3q-14 0 -20 15z" />
    <glyph glyph-name="Ycircumflex" unicode="&#x176;" horiz-adv-x="1230" 
d="M201 1374q-1 3 -1 9q0 17 21 17h277q21 0 25 -21l148 -625l428 631q11 15 28 15h286q9 0 14.5 -4t5.5 -10q0 -7 -6 -15l-674 -891l-94 -459q-4 -21 -26 -21h-269q-21 0 -21 17q0 6 1 9l119 454zM499 1618q-3 6 -3 12q0 12 13 20l323 200q14 8 29 8h90q16 0 29 -10
l252 -200q10 -7 10 -19q0 -7 -4 -14l-61 -98q-6 -12 -18 -12q-8 0 -13 4l-266 139l-305 -140q-6 -3 -11 -3q-14 0 -20 15z" />
    <glyph glyph-name="ycircumflex" unicode="&#x177;" horiz-adv-x="1023" 
d="M103 -340q-10 0 -15 4t-5 11q0 6 4 13l188 330l-170 987l-1 6q0 19 22 19h260q24 0 25 -22l76 -638l333 643q7 17 28 17h282q10 0 15 -4t5 -11q0 -6 -4 -13l-760 -1326q-9 -16 -28 -16h-255zM303 1248q-3 6 -3 12q0 12 13 20l323 200q14 8 29 8h90q16 0 29 -10l252 -200
q10 -7 10 -19q0 -7 -4 -14l-61 -98q-6 -12 -18 -12q-8 0 -13 4l-266 139l-305 -140q-6 -3 -11 -3q-14 0 -20 15z" />
    <glyph glyph-name="Ydieresis" unicode="&#x178;" horiz-adv-x="1230" 
d="M201 1374q-1 3 -1 9q0 17 21 17h277q21 0 25 -21l148 -625l428 631q11 15 28 15h286q9 0 14.5 -4t5.5 -10q0 -7 -6 -15l-674 -891l-94 -459q-4 -21 -26 -21h-269q-21 0 -21 17q0 6 1 9l119 454zM533 1500q-12 0 -17.5 7t-3.5 19l54 223q4 21 25 21h196q12 0 18 -7t3 -19
l-53 -223q-6 -21 -26 -21h-196zM949 1500q-13 0 -18.5 7t-2.5 19l53 223q6 21 25 21h198q12 0 17.5 -7t2.5 -19l-53 -223q-4 -21 -25 -21h-197z" />
    <glyph glyph-name="Zacute" unicode="&#x179;" horiz-adv-x="1181" 
d="M-55 0q-12 0 -17.5 7t-2.5 19l48 207q4 15 15 26l941 915h-658q-12 0 -17.5 7.5t-2.5 18.5l41 179q5 21 25 21h1005q12 0 17.5 -7t2.5 -19l-50 -215q-4 -15 -15 -26l-930 -907h705q12 0 17.5 -7t2.5 -19l-41 -179q-4 -21 -25 -21h-1061zM656 1502q-3 -1 -8 -1
q-17 0 -21 18l-31 109q-1 3 -1 9q0 15 15 21l492 191q4 2 11 2q15 0 20 -17l46 -179q1 -3 1 -8q0 -17 -18 -20z" />
    <glyph glyph-name="zacute" unicode="&#x17a;" horiz-adv-x="1003" 
d="M-25 0q-12 0 -17.5 7.5t-3.5 18.5l39 171q4 15 15 26l603 595h-405q-12 0 -17.5 7t-3.5 19l40 165q3 21 25 21h751q12 0 17 -7t3 -19l-40 -174q-4 -16 -16 -27l-608 -591h484q12 0 17.5 -7.5t3.5 -18.5l-38 -165q-4 -21 -26 -21h-823zM491 1132q-3 -1 -8 -1q-17 0 -21 18
l-31 109q-1 3 -1 9q0 15 15 21l492 191q4 2 11 2q15 0 20 -17l46 -179q1 -3 1 -8q0 -17 -18 -20z" />
    <glyph glyph-name="Zdotaccent" unicode="&#x17b;" horiz-adv-x="1181" 
d="M-55 0q-12 0 -17.5 7t-2.5 19l48 207q4 15 15 26l941 915h-658q-12 0 -17.5 7.5t-2.5 18.5l41 179q5 21 25 21h1005q12 0 17.5 -7t2.5 -19l-50 -215q-4 -15 -15 -26l-930 -907h705q12 0 17.5 -7t2.5 -19l-41 -179q-4 -21 -25 -21h-1061zM691 1500q-12 0 -17.5 7t-3.5 19
l54 223q4 21 25 21h256q12 0 18 -7t3 -19l-53 -223q-6 -21 -26 -21h-256z" />
    <glyph glyph-name="zdotaccent" unicode="&#x17c;" horiz-adv-x="1003" 
d="M-25 0q-12 0 -17.5 7.5t-3.5 18.5l39 171q4 15 15 26l603 595h-405q-12 0 -17.5 7t-3.5 19l40 165q3 21 25 21h751q12 0 17 -7t3 -19l-40 -174q-4 -16 -16 -27l-608 -591h484q12 0 17.5 -7.5t3.5 -18.5l-38 -165q-4 -21 -26 -21h-823zM526 1130q-12 0 -17.5 7t-3.5 19
l54 223q4 21 25 21h256q12 0 18 -7t3 -19l-53 -223q-6 -21 -26 -21h-256z" />
    <glyph glyph-name="Zcaron" unicode="&#x17d;" horiz-adv-x="1181" 
d="M-55 0q-12 0 -17.5 7t-2.5 19l48 207q4 15 15 26l941 915h-658q-12 0 -17.5 7.5t-2.5 18.5l41 179q5 21 25 21h1005q12 0 17.5 -7t2.5 -19l-50 -215q-4 -15 -15 -26l-930 -907h705q12 0 17.5 -7t2.5 -19l-41 -179q-4 -21 -25 -21h-1061zM494 1725q-10 7 -10 19q0 6 4 13
l61 98q6 12 18 12q7 0 14 -4l266 -139l304 140q7 3 13 3q13 0 20 -15l45 -98q3 -6 3 -11q0 -11 -13 -21l-325 -200q-14 -8 -29 -8h-90q-16 0 -29 10z" />
    <glyph glyph-name="zcaron" unicode="&#x17e;" horiz-adv-x="1003" 
d="M-25 0q-12 0 -17.5 7.5t-3.5 18.5l39 171q4 15 15 26l603 595h-405q-12 0 -17.5 7t-3.5 19l40 165q3 21 25 21h751q12 0 17 -7t3 -19l-40 -174q-4 -16 -16 -27l-608 -591h484q12 0 17.5 -7.5t3.5 -18.5l-38 -165q-4 -21 -26 -21h-823zM328 1355q-10 7 -10 19q0 6 4 13
l61 98q6 12 18 12q7 0 14 -4l266 -139l304 140q7 3 13 3q13 0 20 -15l45 -98q3 -6 3 -11q0 -11 -13 -21l-325 -200q-14 -8 -29 -8h-90q-16 0 -29 10z" />
    <glyph glyph-name="florin" unicode="&#x192;" horiz-adv-x="834" 
d="M972 1395.5q5 -7.5 2 -18.5l-39 -163q-3 -18 -20 -18q-5 0 -8 1q-40 9 -107 9q-53 0 -89 -31t-53 -105l-9 -40h218q12 0 17.5 -7t2.5 -19l-39 -165q-4 -21 -25 -21h-223l-46 -196l-152 -660q-26 -111 -89 -183.5t-146.5 -105.5t-175.5 -33q-78 0 -176 16q-11 1 -16 8.5
t-2 18.5l39 163q3 18 20 18q5 0 8 -1q40 -9 107 -9q54 0 90 31t53 105l148 642l43 186h-130q-13 0 -18.5 7t-2.5 19l39 165q5 21 25 21h136l16 68q26 111 89 183.5t146.5 105.5t174.5 33q78 0 176 -16q11 -1 16 -8.5z" />
    <glyph glyph-name="Ohorn" unicode="&#x1a0;" horiz-adv-x="1507" 
d="M1601 1521q11 -8 11 -17q0 -6 -8 -16l-235 -249q73 -80 112.5 -187.5t39.5 -239.5q0 -211 -97 -405.5t-280 -315.5t-427 -121q-187 0 -333 73t-228.5 212.5t-82.5 332.5q0 211 97 405.5t280.5 315.5t428.5 121q200 0 353 -84l196 275q8 11 17 11q8 0 15 -6zM999.5 302
q107.5 98 157.5 240.5t50 277.5q0 123 -42.5 207.5t-119 126.5t-178.5 42q-164 0 -272 -98t-158 -240.5t-50 -277.5q0 -123 43 -207.5t119.5 -126.5t179.5 -42q163 0 270.5 98z" />
    <glyph glyph-name="ohorn" unicode="&#x1a1;" horiz-adv-x="1154" 
d="M1232 1151q11 -8 11 -17q0 -6 -8 -16l-212 -232q91 -116 91 -294q0 -158 -72 -300t-207.5 -229t-316.5 -87q-139 0 -247.5 54t-169.5 158t-61 250q0 158 72 300t207.5 229t316.5 87q149 0 260 -61q1 6 5 11l158 245q8 13 18 13q7 0 15 -6zM686.5 242.5
q63.5 68.5 93.5 168.5t30 195q0 122 -50 186t-136 64q-93 0 -156.5 -68.5t-93.5 -168.5t-30 -195q0 -122 50 -186t136 -64q93 0 156.5 68.5z" />
    <glyph glyph-name="Uhorn" unicode="&#x1af;" horiz-adv-x="1281" 
d="M1568 1521q10 -7 10 -16q0 -7 -8 -17l-179 -183l-102 -405l-90 -390q-63 -272 -213.5 -406t-408.5 -134q-160 0 -274.5 53t-174 150.5t-59.5 230.5q0 76 19 158l80 338l102 479q4 21 26 21h271q12 0 17.5 -7t2.5 -19l-118 -466l-81 -350q-15 -64 -15 -121q0 -107 58 -166
t174 -59q124 0 202.5 73t114.5 227l90 390l99 477q4 21 26 21h117l141 219q8 13 18 13q8 0 15 -6z" />
    <glyph glyph-name="uhorn" unicode="&#x1b0;" horiz-adv-x="1121" 
d="M1326 1151q10 -7 10 -16q0 -7 -8 -17l-186 -190l-99 -392l-113 -515q-4 -21 -26 -21h-243q-12 0 -17.5 7t-3.5 19l26 106q-62 -70 -149 -113t-187 -43q-88 0 -157.5 34.5t-109 101.5t-39.5 161q0 59 16 123l47 196l90 417q3 21 26 21h259q10 0 15.5 -5t5.5 -13
q0 -5 -1 -8l-97 -378l-43 -212q-8 -37 -8 -76q0 -69 33 -105.5t97 -36.5q104 0 175.5 95t104.5 225l29 114l78 379q3 21 26 21h135l141 219q8 13 18 13q8 0 15 -6z" />
    <glyph glyph-name="uni0218" unicode="&#x218;" horiz-adv-x="1293" 
d="M310.5 23q-143.5 55 -224.5 163.5t-75 262.5q2 23 25 23h272q22 0 24 -23q9 -120 84.5 -185.5t224.5 -65.5q100 0 162 29t89 71t27 84q0 56 -40 92.5t-100.5 58.5t-168.5 51q-145 38 -236 75.5t-156 112t-65 196.5q0 125 67.5 230t205 168.5t335.5 63.5q158 0 284 -43.5
t201 -137.5t75 -239q1 -12 -5.5 -18t-17.5 -6h-274q-22 0 -25 23q-9 93 -73.5 142t-184.5 49q-80 0 -141.5 -21t-95 -60t-33.5 -89q0 -52 39.5 -86t99 -55.5t164.5 -49.5q149 -41 242 -79t160 -113t67 -197q0 -127 -70 -237t-208.5 -177.5t-333.5 -67.5q-177 0 -320.5 55z
M322 -498q-10 0 -15.5 4.5t-5.5 11.5q0 6 3 12l79 170l48 203q3 21 25 21h253q12 0 17.5 -7.5t3.5 -18.5l-41 -181q-5 -16 -16 -26l-205 -178q-12 -11 -29 -11h-117z" />
    <glyph glyph-name="uni0219" unicode="&#x219;" horiz-adv-x="1072" 
d="M237 20.5q-110 44.5 -169 123.5t-62 181q-1 11 5.5 17t17.5 6h245q22 0 24 -23q5 -79 58 -121t154 -42q94 0 137 32.5t43 79.5q0 35 -27.5 59t-69.5 39.5t-117 37.5q-111 31 -183 62t-123.5 91.5t-51.5 156.5q0 99 58 175t164.5 117.5t245.5 41.5t240 -39t157 -111.5
t64 -169.5q2 -24 -24 -24h-235q-21 0 -24 23q-8 67 -55.5 103t-124.5 36t-120.5 -32t-43.5 -80q0 -37 28.5 -61.5t71.5 -40t120 -35.5q109 -29 178.5 -57t119.5 -84.5t50 -147.5q0 -102 -58.5 -183.5t-169.5 -128t-264 -46.5q-149 0 -259 44.5zM155 -498q-10 0 -15.5 4.5
t-5.5 11.5q0 6 3 12l79 170l48 203q3 21 25 21h253q12 0 17.5 -7.5t3.5 -18.5l-41 -181q-5 -16 -16 -26l-205 -178q-12 -11 -29 -11h-117z" />
    <glyph glyph-name="uni021A" unicode="&#x21a;" horiz-adv-x="1155" 
d="M324 0q-21 0 -21 17q0 6 1 9l174 674l95 474h-376q-12 0 -17 7t-3 19l42 179q3 21 25 21h1073q12 0 17 -7t3 -19l-41 -179q-4 -21 -26 -21h-380l-125 -474l-139 -679q-4 -21 -26 -21h-276zM188 -498q-10 0 -15.5 4.5t-5.5 11.5q0 6 3 12l79 170l48 203q3 21 25 21h253
q12 0 17.5 -7.5t3.5 -18.5l-41 -181q-5 -16 -16 -26l-205 -178q-12 -11 -29 -11h-117z" />
    <glyph glyph-name="uni021B" unicode="&#x21b;" horiz-adv-x="738" 
d="M797 1030q12 0 18 -7t3 -19l-39 -165q-4 -21 -26 -21h-226l-115 -508q-6 -24 -6 -43q0 -39 22.5 -56t65.5 -17q50 0 110 14q3 1 8 1q9 0 13 -6.5t2 -17.5l-34 -147q-5 -19 -22 -23q-108 -35 -195 -35q-122 0 -199.5 56.5t-77.5 173.5q0 45 11 92l121 516h-108
q-12 0 -17.5 7t-3.5 19l40 165q3 21 25 21h112l51 237q3 21 26 21h259q12 0 18 -7t3 -19l-58 -232h219zM13 -498q-10 0 -15.5 4.5t-5.5 11.5q0 6 3 12l79 170l48 203q3 21 25 21h253q12 0 17.5 -7.5t3.5 -18.5l-41 -181q-5 -16 -16 -26l-205 -178q-12 -11 -29 -11h-117z" />
    <glyph glyph-name="uni0237" unicode="&#x237;" horiz-adv-x="468" 
d="M-91 -340q-12 0 -17.5 7t-2.5 19l164 668l141 655q4 21 26 21h262q12 0 17.5 -7t2.5 -19l-159 -650l-146 -673q-4 -21 -26 -21h-262z" />
    <glyph glyph-name="uni0259" unicode="&#x259;" horiz-adv-x="1128" 
d="M252 31q-105 55 -161.5 154.5t-56.5 228.5q0 70 16 141q3 21 25 21h719v30q0 124 -54.5 187t-151.5 63q-81 0 -136.5 -41.5t-83.5 -120.5q-6 -20 -27 -20h-236q-12 0 -18 6.5t-3 17.5q46 167 179 261.5t331 94.5q145 0 257 -53.5t174.5 -157.5t62.5 -251
q0 -159 -71 -300.5t-205 -228.5t-314 -87q-141 0 -246 55zM330 386q-1 -9 -1 -27q0 -83 49.5 -135t137.5 -52q93 0 155.5 56.5t93.5 157.5h-435z" />
    <glyph glyph-name="quoteleft" unicode="&#x2bb;" horiz-adv-x="437" 
d="M579 1400q19 0 19 -15q0 -5 -3 -13l-107 -214l-60 -257q-4 -21 -25 -21h-237q-12 0 -17.5 7t-2.5 19l54 235q4 16 14 26l216 221q11 12 29 12h120z" />
    <glyph glyph-name="quoteleft" unicode="&#x2018;" horiz-adv-x="437" 
d="M579 1400q19 0 19 -15q0 -5 -3 -13l-107 -214l-60 -257q-4 -21 -25 -21h-237q-12 0 -17.5 7t-2.5 19l54 235q4 16 14 26l216 221q11 12 29 12h120z" />
    <glyph glyph-name="quoteright" unicode="&#x2bc;" horiz-adv-x="437" 
d="M149 880q-19 0 -19 15q0 6 3 13l108 214l59 257q5 21 25 21h237q21 0 21 -18q0 -5 -1 -8l-54 -235q-4 -16 -14 -26l-216 -220q-12 -13 -29 -13h-120z" />
    <glyph glyph-name="quoteright" unicode="&#x2019;" horiz-adv-x="437" 
d="M149 880q-19 0 -19 15q0 6 3 13l108 214l59 257q5 21 25 21h237q21 0 21 -18q0 -5 -1 -8l-54 -235q-4 -16 -14 -26l-216 -220q-12 -13 -29 -13h-120z" />
    <glyph glyph-name="circumflex" unicode="&#x2c6;" horiz-adv-x="972" 
d="M271 1248q-3 6 -3 12q0 12 13 20l323 200q14 8 29 8h90q16 0 29 -10l252 -200q10 -7 10 -19q0 -7 -4 -14l-61 -98q-6 -12 -18 -12q-8 0 -13 4l-266 139l-305 -140q-6 -3 -11 -3q-14 0 -20 15z" />
    <glyph glyph-name="caron" unicode="&#x2c7;" horiz-adv-x="972" 
d="M309 1355q-10 7 -10 19q0 6 4 13l61 98q6 12 18 12q7 0 14 -4l266 -139l304 140q7 3 13 3q13 0 20 -15l45 -98q3 -6 3 -11q0 -11 -13 -21l-325 -200q-14 -8 -29 -8h-90q-16 0 -29 10z" />
    <glyph glyph-name="breve" unicode="&#x2d8;" horiz-adv-x="898" 
d="M445 1190.5q-72 40.5 -107.5 111t-29.5 158.5q3 22 26 22h147q22 0 22 -26q0 -52 32.5 -83t93.5 -31q60 0 101.5 32.5t59.5 87.5q6 20 26 20h150q12 0 18.5 -6t4.5 -17q-18 -89 -68.5 -159t-129 -110t-176.5 -40t-170 40.5z" />
    <glyph glyph-name="dotaccent" unicode="&#x2d9;" horiz-adv-x="506" 
d="M269 1130q-12 0 -17.5 7t-3.5 19l54 223q4 21 25 21h256q12 0 18 -7t3 -19l-53 -223q-6 -21 -26 -21h-256z" />
    <glyph glyph-name="ring" unicode="&#x2da;" horiz-adv-x="724" 
d="M429.5 1171.5q-57.5 27.5 -91.5 78t-34 116.5q0 68 36 126t99.5 93t142.5 35q71 0 128.5 -28.5t90.5 -79t33 -114.5q0 -68 -36 -126t-99.5 -93t-142.5 -35q-69 0 -126.5 27.5zM644.5 1291.5q33.5 41.5 33.5 104.5q0 56 -27.5 87t-70.5 31q-56 0 -88 -44t-32 -104
q0 -55 28 -85.5t72 -30.5q51 0 84.5 41.5z" />
    <glyph glyph-name="ogonek" unicode="&#x2db;" horiz-adv-x="646" 
d="M202 -420q-88 0 -149 26t-92 71.5t-31 104.5q0 69 42 125.5t112 94.5t155 55h6q17 0 23 -16l7 -10q2 -8 2 -11q0 -11 -12 -20q-37 -25 -65 -69t-28 -85q0 -70 102 -70h73q12 0 17.5 -7t3.5 -19l-35 -149q-5 -21 -26 -21h-105z" />
    <glyph glyph-name="tilde" unicode="&#x2dc;" horiz-adv-x="839" 
d="M627.5 1177.5q-33.5 17.5 -70.5 48.5q-23 20 -39 30t-34 10q-30 0 -47 -21.5t-27 -63.5q-5 -21 -26 -21h-105q-12 0 -17.5 6.5t-4.5 18.5q22 119 85 191t160 72q44 0 76 -17.5t72 -49.5q24 -20 39.5 -29.5t30.5 -9.5q31 0 48 21t25 61q6 22 26 22h105q10 0 15.5 -6
t5.5 -16q0 -7 -1 -10q-22 -120 -82.5 -187t-153.5 -67q-47 0 -80.5 17.5z" />
    <glyph glyph-name="hungarumlaut" unicode="&#x2dd;" horiz-adv-x="980" 
d="M369 1159q-9 -7 -16 -7q-9 0 -17 8l-54 56q-8 10 -8 17q0 9 7 16l311 344q8 9 17 9q10 0 17 -10l91 -112q6 -7 6 -16q0 -8 -9 -17zM731 1149q-8 -7 -17 -7t-17 8l-53 54q-8 8 -8 17t7 16l313 344q8 9 18 9t17 -10l90 -110q7 -10 7 -16q0 -9 -9 -17z" />
    <glyph glyph-name="gravecomb" unicode="&#x300;" 
d="M-21 1138q-6 -17 -22 -17q-5 0 -8 1l-471 139q-17 5 -17 20q0 2 2 10l61 174q6 16 19 16q6 0 12 -3l449 -203q15 -6 15 -20q0 -4 -2 -10z" />
    <glyph glyph-name="acutecomb" unicode="&#x301;" 
d="M-467 1132q-3 -1 -8 -1q-17 0 -21 18l-31 109q-1 3 -1 9q0 15 15 21l492 191q4 2 11 2q15 0 20 -17l46 -179q1 -3 1 -8q0 -17 -18 -20z" />
    <glyph glyph-name="uni0302" unicode="&#x302;" 
d="M-701 1248q-3 6 -3 12q0 12 13 20l323 200q14 8 29 8h90q16 0 29 -10l252 -200q10 -7 10 -19q0 -7 -4 -14l-61 -98q-6 -12 -18 -12q-8 0 -13 4l-266 139l-305 -140q-6 -3 -11 -3q-14 0 -20 15z" />
    <glyph glyph-name="tildecomb" unicode="&#x303;" 
d="M-211.5 1177.5q-33.5 17.5 -70.5 48.5q-23 20 -39 30t-34 10q-30 0 -47 -21.5t-27 -63.5q-5 -21 -26 -21h-105q-12 0 -17.5 6.5t-4.5 18.5q22 119 85 191t160 72q44 0 76 -17.5t72 -49.5q24 -20 39.5 -29.5t30.5 -9.5q31 0 48 21t25 61q6 22 26 22h105q10 0 15.5 -6
t5.5 -16q0 -7 -1 -10q-22 -120 -82.5 -187t-153.5 -67q-47 0 -80.5 17.5z" />
    <glyph glyph-name="uni0304" unicode="&#x304;" 
d="M-579 1160q-13 0 -18.5 7t-2.5 19l37 153q6 21 25 21h607q12 0 17.5 -7t2.5 -19l-37 -153q-4 -21 -25 -21h-606z" />
    <glyph glyph-name="uni0306" unicode="&#x306;" 
d="M-453 1190.5q-72 40.5 -107.5 111t-29.5 158.5q3 22 26 22h147q22 0 22 -26q0 -52 32.5 -83t93.5 -31q60 0 101.5 32.5t59.5 87.5q6 20 26 20h150q12 0 18.5 -6t4.5 -17q-18 -89 -68.5 -159t-129 -110t-176.5 -40t-170 40.5z" />
    <glyph glyph-name="uni0307" unicode="&#x307;" 
d="M-237 1130q-12 0 -17.5 7t-3.5 19l54 223q4 21 25 21h256q12 0 18 -7t3 -19l-53 -223q-6 -21 -26 -21h-256z" />
    <glyph glyph-name="uni0308" unicode="&#x308;" 
d="M-593 1130q-12 0 -17.5 7t-3.5 19l54 223q4 21 25 21h196q12 0 18 -7t3 -19l-53 -223q-6 -21 -26 -21h-196zM-177 1130q-13 0 -18.5 7t-2.5 19l53 223q6 21 25 21h198q12 0 17.5 -7t2.5 -19l-53 -223q-4 -21 -25 -21h-197z" />
    <glyph glyph-name="hookabovecomb" unicode="&#x309;" 
d="M-311 1155q-12 0 -18 7t-3 19q11 39 35 65t52 40.5t68 29.5q41 15 59.5 27t18.5 32t-21 32t-53 12q-68 0 -86 -51q-6 -21 -25 -21h-155q-12 0 -18 7t-3 18q23 93 97.5 141t199.5 48q122 0 199.5 -44.5t77.5 -127.5q0 -46 -20 -76.5t-48 -47.5t-73 -37q-36 -15 -56.5 -27
t-31.5 -29t-27 -17h-169z" />
    <glyph glyph-name="uni030A" unicode="&#x30a;" 
d="M-294.5 1171.5q-57.5 27.5 -91.5 78t-34 116.5q0 68 36 126t99.5 93t142.5 35q71 0 128.5 -28.5t90.5 -79t33 -114.5q0 -68 -36 -126t-99.5 -93t-142.5 -35q-69 0 -126.5 27.5zM-79.5 1291.5q33.5 41.5 33.5 104.5q0 56 -27.5 87t-70.5 31q-56 0 -88 -44t-32 -104
q0 -55 28 -85.5t72 -30.5q51 0 84.5 41.5z" />
    <glyph glyph-name="uni030B" unicode="&#x30b;" 
d="M-611 1159q-9 -7 -16 -7q-9 0 -17 8l-54 56q-8 10 -8 17q0 9 7 16l311 344q8 9 17 9q10 0 17 -10l91 -112q6 -7 6 -16q0 -8 -9 -17zM-249 1149q-8 -7 -17 -7t-17 8l-53 54q-8 8 -8 17t7 16l313 344q8 9 18 9t17 -10l90 -110q7 -10 7 -16q0 -9 -9 -17z" />
    <glyph glyph-name="uni030C" unicode="&#x30c;" 
d="M-663 1355q-10 7 -10 19q0 6 4 13l61 98q6 12 18 12q7 0 14 -4l266 -139l304 140q7 3 13 3q13 0 20 -15l45 -98q3 -6 3 -11q0 -11 -13 -21l-325 -200q-14 -8 -29 -8h-90q-16 0 -29 10z" />
    <glyph glyph-name="uni0312" unicode="&#x312;" 
d="M-273 1160q-13 0 -18.5 7t-2.5 19l42 181q5 17 15 26l206 178q12 11 29 11h118q20 0 20 -16q0 -6 -3 -12l-80 -170l-48 -203q-5 -21 -26 -21h-252z" />
    <glyph glyph-name="uni031B" unicode="&#x31b;" 
d="M-202 868q-8 -9 -17 -9q-8 0 -16 11l-72 102q-5 8 -5 16q0 10 5 16l158 245q8 13 18 13q8 0 15 -6l140 -105q11 -8 11 -17q0 -6 -8 -16z" />
    <glyph glyph-name="dotbelowcomb" unicode="&#x323;" 
d="M-577 -348q-12 0 -18 7t-3 19l53 223q6 21 26 21h256q12 0 18 -7t3 -19l-53 -223q-6 -21 -26 -21h-256z" />
    <glyph glyph-name="uni0326" unicode="&#x326;" 
d="M-651 -498q-10 0 -15.5 4.5t-5.5 11.5q0 6 3 12l79 170l48 203q3 21 25 21h253q12 0 17.5 -7.5t3.5 -18.5l-41 -181q-5 -16 -16 -26l-205 -178q-12 -11 -29 -11h-117z" />
    <glyph glyph-name="uni0327" unicode="&#x327;" 
d="M-391 -344q-9 -18 -29 -15l-221 34q-9 1 -14 6t-5 12t4 12l188 319q8 16 29 14l196 -17q9 -1 14 -5.5t5 -11.5q0 -6 -3 -12z" />
    <glyph glyph-name="uni0328" unicode="&#x328;" 
d="M-444 -420q-88 0 -149 26t-92 71.5t-31 104.5q0 69 42 125.5t112 94.5t155 55h6q17 0 23 -16l7 -10q2 -8 2 -11q0 -11 -12 -20q-37 -25 -65 -69t-28 -85q0 -70 102 -70h73q12 0 17.5 -7t3.5 -19l-35 -149q-5 -21 -26 -21h-105z" />
    <glyph glyph-name="uni0394" unicode="&#x394;" horiz-adv-x="1431" 
d="M-62 0q-21 0 -21 18q0 5 1 8l46 202q4 14 12 27l736 1130q8 15 28 15h370q22 0 25 -21l202 -1122q1 -5 1 -13q0 -10 -2 -16l-48 -207q-4 -21 -25 -21h-1325zM898 1210l-590 -968h748z" />
    <glyph glyph-name="uni0394" unicode="&#x2206;" horiz-adv-x="1431" 
d="M-62 0q-21 0 -21 18q0 5 1 8l46 202q4 14 12 27l736 1130q8 15 28 15h370q22 0 25 -21l202 -1122q1 -5 1 -13q0 -10 -2 -16l-48 -207q-4 -21 -25 -21h-1325zM898 1210l-590 -968h748z" />
    <glyph glyph-name="uni03A9" unicode="&#x3a9;" horiz-adv-x="1532" 
d="M1358 226q12 0 17.5 -7.5t2.5 -18.5l-41 -179q-4 -21 -26 -21h-533q-12 0 -17 7t-3 19l42 179q5 23 26 28q124 46 215.5 138.5t140 210.5t48.5 240q0 118 -46 202t-127.5 128t-188.5 44q-158 0 -262 -89t-152 -220.5t-48 -260.5t47.5 -226t133.5 -162q9 -7 12 -18.5
t1 -19.5l-41 -179q-4 -21 -26 -21h-515q-12 0 -17.5 7.5t-2.5 18.5l42 179q3 21 25 21h200q-84 87 -126.5 200t-42.5 244q0 193 91.5 368t269 283.5t421.5 108.5q195 0 347 -72.5t237.5 -205t85.5 -306.5q0 -183 -93 -347.5t-260 -272.5h163z" />
    <glyph glyph-name="uni03A9" unicode="&#x2126;" horiz-adv-x="1532" 
d="M1358 226q12 0 17.5 -7.5t2.5 -18.5l-41 -179q-4 -21 -26 -21h-533q-12 0 -17 7t-3 19l42 179q5 23 26 28q124 46 215.5 138.5t140 210.5t48.5 240q0 118 -46 202t-127.5 128t-188.5 44q-158 0 -262 -89t-152 -220.5t-48 -260.5t47.5 -226t133.5 -162q9 -7 12 -18.5
t1 -19.5l-41 -179q-4 -21 -26 -21h-515q-12 0 -17.5 7.5t-2.5 18.5l42 179q3 21 25 21h200q-84 87 -126.5 200t-42.5 244q0 193 91.5 368t269 283.5t421.5 108.5q195 0 347 -72.5t237.5 -205t85.5 -306.5q0 -183 -93 -347.5t-260 -272.5h163z" />
    <glyph glyph-name="pi" unicode="&#x3c0;" horiz-adv-x="1113" 
d="M-31 0q-12 0 -17.5 7t-2.5 19l118 468l113 515q4 21 25 21h941q12 0 17.5 -7t2.5 -19l-139 -566l-88 -417q-4 -21 -26 -21h-263q-13 0 -18.5 7t-2.5 19l118 468l71 324h-378l-91 -380l-88 -417q-4 -21 -26 -21h-266z" />
    <glyph glyph-name="Wgrave" unicode="&#x1e80;" horiz-adv-x="1844" 
d="M235 0q-11 0 -17 6.5t-6 17.5l-4 1353q0 23 23 23h247q23 0 23 -23l-41 -1117l468 1122q9 18 27 18h310q24 0 24 -24l-45 -1140l486 1146q9 18 27 18h260q10 0 15.5 -4.5t5.5 -12.5q0 -5 -3 -11l-639 -1355q-8 -17 -27 -17h-326q-11 0 -17 6.5t-6 17.5l-2 954l-420 -960
q-9 -18 -28 -18h-335zM1350 1508q-6 -17 -22 -17q-5 0 -8 1l-471 139q-17 5 -17 20q0 2 2 10l61 174q6 16 19 16q6 0 12 -3l449 -203q15 -6 15 -20q0 -4 -2 -10z" />
    <glyph glyph-name="wgrave" unicode="&#x1e81;" horiz-adv-x="1446" 
d="M122 0q-24 0 -24 24l10 983q0 11 6.5 17t17.5 6h224q24 0 22 -24l-62 -772l321 778q8 18 27 18h318q25 0 23 -24l-37 -754l295 760q6 18 27 18h258q10 0 15.5 -4.5t5.5 -11.5q0 -5 -3 -11l-444 -985q-7 -18 -27 -18h-311q-23 0 -23 24l15 764l-319 -770q-7 -18 -27 -18
h-308zM1063 1138q-6 -17 -22 -17q-5 0 -8 1l-471 139q-17 5 -17 20q0 2 2 10l61 174q6 16 19 16q6 0 12 -3l449 -203q15 -6 15 -20q0 -4 -2 -10z" />
    <glyph glyph-name="Wacute" unicode="&#x1e82;" horiz-adv-x="1844" 
d="M235 0q-11 0 -17 6.5t-6 17.5l-4 1353q0 23 23 23h247q23 0 23 -23l-41 -1117l468 1122q9 18 27 18h310q24 0 24 -24l-45 -1140l486 1146q9 18 27 18h260q10 0 15.5 -4.5t5.5 -12.5q0 -5 -3 -11l-639 -1355q-8 -17 -27 -17h-326q-11 0 -17 6.5t-6 17.5l-2 954l-420 -960
q-9 -18 -28 -18h-335zM977 1502q-3 -1 -8 -1q-17 0 -21 18l-31 109q-1 3 -1 9q0 15 15 21l492 191q4 2 11 2q15 0 20 -17l46 -179q1 -3 1 -8q0 -17 -18 -20z" />
    <glyph glyph-name="wacute" unicode="&#x1e83;" horiz-adv-x="1446" 
d="M122 0q-24 0 -24 24l10 983q0 11 6.5 17t17.5 6h224q24 0 22 -24l-62 -772l321 778q8 18 27 18h318q25 0 23 -24l-37 -754l295 760q6 18 27 18h258q10 0 15.5 -4.5t5.5 -11.5q0 -5 -3 -11l-444 -985q-7 -18 -27 -18h-311q-23 0 -23 24l15 764l-319 -770q-7 -18 -27 -18
h-308zM690 1132q-3 -1 -8 -1q-17 0 -21 18l-31 109q-1 3 -1 9q0 15 15 21l492 191q4 2 11 2q15 0 20 -17l46 -179q1 -3 1 -8q0 -17 -18 -20z" />
    <glyph glyph-name="Wdieresis" unicode="&#x1e84;" horiz-adv-x="1844" 
d="M235 0q-11 0 -17 6.5t-6 17.5l-4 1353q0 23 23 23h247q23 0 23 -23l-41 -1117l468 1122q9 18 27 18h310q24 0 24 -24l-45 -1140l486 1146q9 18 27 18h260q10 0 15.5 -4.5t5.5 -12.5q0 -5 -3 -11l-639 -1355q-8 -17 -27 -17h-326q-11 0 -17 6.5t-6 17.5l-2 954l-420 -960
q-9 -18 -28 -18h-335zM832 1500q-12 0 -17.5 7t-3.5 19l54 223q4 21 25 21h196q12 0 18 -7t3 -19l-53 -223q-6 -21 -26 -21h-196zM1248 1500q-13 0 -18.5 7t-2.5 19l53 223q6 21 25 21h198q12 0 17.5 -7t2.5 -19l-53 -223q-4 -21 -25 -21h-197z" />
    <glyph glyph-name="wdieresis" unicode="&#x1e85;" horiz-adv-x="1446" 
d="M122 0q-24 0 -24 24l10 983q0 11 6.5 17t17.5 6h224q24 0 22 -24l-62 -772l321 778q8 18 27 18h318q25 0 23 -24l-37 -754l295 760q6 18 27 18h258q10 0 15.5 -4.5t5.5 -11.5q0 -5 -3 -11l-444 -985q-7 -18 -27 -18h-311q-23 0 -23 24l15 764l-319 -770q-7 -18 -27 -18
h-308zM545 1130q-12 0 -17.5 7t-3.5 19l54 223q4 21 25 21h196q12 0 18 -7t3 -19l-53 -223q-6 -21 -26 -21h-196zM961 1130q-13 0 -18.5 7t-2.5 19l53 223q6 21 25 21h198q12 0 17.5 -7t2.5 -19l-53 -223q-4 -21 -25 -21h-197z" />
    <glyph glyph-name="uni1EA0" unicode="&#x1ea0;" horiz-adv-x="1351" 
d="M1241 25q1 -12 -5 -18.5t-18 -6.5h-248q-23 0 -24 23l-29 333h-526l-182 -340q-11 -16 -28 -16h-277q-10 0 -15 4t-5 11q0 6 4 13l785 1356q8 16 28 16h368q24 0 25 -22zM895 598l-53 598l-321 -598h374zM377 -348q-12 0 -18 7t-3 19l53 223q6 21 26 21h256q12 0 18 -7
t3 -19l-53 -223q-6 -21 -26 -21h-256z" />
    <glyph glyph-name="uni1EA1" unicode="&#x1ea1;" horiz-adv-x="1150" 
d="M1172 1030q12 0 18 -7t3 -19l-122 -496l-105 -487q-4 -21 -26 -21h-246q-21 0 -21 17q0 6 1 9l14 55q-120 -99 -278 -99q-116 0 -201 52.5t-130 148.5t-45 223q0 148 60 296.5t180 247t290 98.5q104 0 180 -38t121 -110l23 109q4 21 26 21h258zM675.5 254
q64.5 74 96.5 179t32 195q0 109 -47 165.5t-135 56.5q-100 0 -163.5 -72.5t-92 -173.5t-28.5 -188q0 -107 46 -171.5t134 -64.5q93 0 157.5 74zM285 -354q-12 0 -18 7t-3 19l53 223q6 21 26 21h256q12 0 18 -7t3 -19l-53 -223q-6 -21 -26 -21h-256z" />
    <glyph glyph-name="uni1EA2" unicode="&#x1ea2;" horiz-adv-x="1351" 
d="M1241 25q1 -12 -5 -18.5t-18 -6.5h-248q-23 0 -24 23l-29 333h-526l-182 -340q-11 -16 -28 -16h-277q-10 0 -15 4t-5 11q0 6 4 13l785 1356q8 16 28 16h368q24 0 25 -22zM895 598l-53 598l-321 -598h374zM836 1525q-12 0 -18 7t-3 19q11 39 35 65t52 40.5t68 29.5
q41 15 59.5 27t18.5 32t-21 32t-53 12q-68 0 -86 -51q-6 -21 -25 -21h-155q-12 0 -18 7t-3 18q23 93 97.5 141t199.5 48q122 0 199.5 -44.5t77.5 -127.5q0 -46 -20 -76.5t-48 -47.5t-73 -37q-36 -15 -56.5 -27t-31.5 -29t-27 -17h-169z" />
    <glyph glyph-name="uni1EA3" unicode="&#x1ea3;" horiz-adv-x="1150" 
d="M1172 1030q12 0 18 -7t3 -19l-122 -496l-105 -487q-4 -21 -26 -21h-246q-21 0 -21 17q0 6 1 9l14 55q-120 -99 -278 -99q-116 0 -201 52.5t-130 148.5t-45 223q0 148 60 296.5t180 247t290 98.5q104 0 180 -38t121 -110l23 109q4 21 26 21h258zM675.5 254
q64.5 74 96.5 179t32 195q0 109 -47 165.5t-135 56.5q-100 0 -163.5 -72.5t-92 -173.5t-28.5 -188q0 -107 46 -171.5t134 -64.5q93 0 157.5 74zM646 1155q-12 0 -18 7t-3 19q11 39 35 65t52 40.5t68 29.5q41 15 59.5 27t18.5 32t-21 32t-53 12q-68 0 -86 -51q-6 -21 -25 -21
h-155q-12 0 -18 7t-3 18q23 93 97.5 141t199.5 48q122 0 199.5 -44.5t77.5 -127.5q0 -46 -20 -76.5t-48 -47.5t-73 -37q-36 -15 -56.5 -27t-31.5 -29t-27 -17h-169z" />
    <glyph glyph-name="uni1EA4" unicode="&#x1ea4;" horiz-adv-x="1351" 
d="M1241 25q1 -12 -5 -18.5t-18 -6.5h-248q-23 0 -24 23l-29 333h-526l-182 -340q-11 -16 -28 -16h-277q-10 0 -15 4t-5 11q0 6 4 13l785 1356q8 16 28 16h368q24 0 25 -22zM895 598l-53 598l-321 -598h374zM1259 1739q-7 -7 -15 -7q-10 0 -17 9l-79 83q-8 10 -8 17
q0 8 8 16l279 286q8 9 17 9q8 0 16 -9l110 -120q7 -7 7 -16q0 -11 -10 -18zM554 1575q-3 6 -3 11q0 12 13 20l323 200q14 9 29 9h90q16 0 29 -10l252 -201q10 -7 10 -19q0 -6 -4 -13l-61 -98q-8 -12 -19 -12q-6 0 -12 3l-266 140l-305 -140q-6 -3 -12 -3q-13 0 -19 14z" />
    <glyph glyph-name="uni1EA5" unicode="&#x1ea5;" horiz-adv-x="1150" 
d="M1172 1030q12 0 18 -7t3 -19l-122 -496l-105 -487q-4 -21 -26 -21h-246q-21 0 -21 17q0 6 1 9l14 55q-120 -99 -278 -99q-116 0 -201 52.5t-130 148.5t-45 223q0 148 60 296.5t180 247t290 98.5q104 0 180 -38t121 -110l23 109q4 21 26 21h258zM675.5 254
q64.5 74 96.5 179t32 195q0 109 -47 165.5t-135 56.5q-100 0 -163.5 -72.5t-92 -173.5t-28.5 -188q0 -107 46 -171.5t134 -64.5q93 0 157.5 74zM1069 1369q-7 -7 -15 -7q-10 0 -17 9l-79 83q-8 10 -8 17q0 8 8 16l279 286q8 9 17 9q8 0 16 -9l110 -120q7 -7 7 -16
q0 -11 -10 -18zM364 1205q-3 6 -3 11q0 12 13 20l323 200q14 9 29 9h90q16 0 29 -10l252 -201q10 -7 10 -19q0 -6 -4 -13l-61 -98q-8 -12 -19 -12q-6 0 -12 3l-266 140l-305 -140q-6 -3 -12 -3q-13 0 -19 14z" />
    <glyph glyph-name="uni1EA6" unicode="&#x1ea6;" horiz-adv-x="1351" 
d="M1241 25q1 -12 -5 -18.5t-18 -6.5h-248q-23 0 -24 23l-29 333h-526l-182 -340q-11 -16 -28 -16h-277q-10 0 -15 4t-5 11q0 6 4 13l785 1356q8 16 28 16h368q24 0 25 -22zM895 598l-53 598l-321 -598h374zM1265 1738q-8 -5 -15 -5q-10 0 -17 10l-214 273q-6 8 -6 15
q0 10 11 18l143 102q6 5 15 5q12 0 18 -13l167 -310q4 -7 4 -13q0 -11 -12 -19zM554 1573q-3 6 -3 12q0 12 13 20l323 200q14 8 29 8h90q16 0 29 -10l252 -200q10 -7 10 -19q0 -7 -4 -14l-61 -98q-6 -12 -18 -12q-8 0 -13 4l-266 139l-305 -140q-6 -3 -11 -3q-14 0 -20 15z
" />
    <glyph glyph-name="uni1EA7" unicode="&#x1ea7;" horiz-adv-x="1150" 
d="M1172 1030q12 0 18 -7t3 -19l-122 -496l-105 -487q-4 -21 -26 -21h-246q-21 0 -21 17q0 6 1 9l14 55q-120 -99 -278 -99q-116 0 -201 52.5t-130 148.5t-45 223q0 148 60 296.5t180 247t290 98.5q104 0 180 -38t121 -110l23 109q4 21 26 21h258zM675.5 254
q64.5 74 96.5 179t32 195q0 109 -47 165.5t-135 56.5q-100 0 -163.5 -72.5t-92 -173.5t-28.5 -188q0 -107 46 -171.5t134 -64.5q93 0 157.5 74zM1075 1368q-8 -5 -15 -5q-10 0 -17 10l-214 273q-6 8 -6 15q0 10 11 18l143 102q6 5 15 5q12 0 18 -13l167 -310q4 -7 4 -13
q0 -11 -12 -19zM364 1203q-3 6 -3 12q0 12 13 20l323 200q14 8 29 8h90q16 0 29 -10l252 -200q10 -7 10 -19q0 -7 -4 -14l-61 -98q-6 -12 -18 -12q-8 0 -13 4l-266 139l-305 -140q-6 -3 -11 -3q-14 0 -20 15z" />
    <glyph glyph-name="uni1EA8" unicode="&#x1ea8;" horiz-adv-x="1351" 
d="M1241 25q1 -12 -5 -18.5t-18 -6.5h-248q-23 0 -24 23l-29 333h-526l-182 -340q-11 -16 -28 -16h-277q-10 0 -15 4t-5 11q0 6 4 13l785 1356q8 16 28 16h368q24 0 25 -22zM895 598l-53 598l-321 -598h374zM554 1574q-3 6 -3 12q0 12 13 20l323 200q14 8 29 8h90
q16 0 29 -10l252 -200q10 -7 10 -19q0 -7 -4 -14l-61 -98q-6 -12 -18 -12q-8 0 -13 4l-266 139l-305 -140q-6 -3 -11 -3q-14 0 -20 15zM1194 1761q-12 0 -18 7t-3 19q11 39 35 65t52 40.5t68 29.5q41 15 59.5 27t18.5 32t-21 32t-53 12q-68 0 -86 -51q-6 -21 -25 -21h-155
q-12 0 -18 7t-3 18q23 93 97.5 141t199.5 48q122 0 199.5 -44.5t77.5 -127.5q0 -46 -20 -76.5t-48 -47.5t-73 -37q-36 -15 -56.5 -27t-31.5 -29t-27 -17h-169z" />
    <glyph glyph-name="uni1EA9" unicode="&#x1ea9;" horiz-adv-x="1150" 
d="M1172 1030q12 0 18 -7t3 -19l-122 -496l-105 -487q-4 -21 -26 -21h-246q-21 0 -21 17q0 6 1 9l14 55q-120 -99 -278 -99q-116 0 -201 52.5t-130 148.5t-45 223q0 148 60 296.5t180 247t290 98.5q104 0 180 -38t121 -110l23 109q4 21 26 21h258zM675.5 254
q64.5 74 96.5 179t32 195q0 109 -47 165.5t-135 56.5q-100 0 -163.5 -72.5t-92 -173.5t-28.5 -188q0 -107 46 -171.5t134 -64.5q93 0 157.5 74zM364 1204q-3 6 -3 12q0 12 13 20l323 200q14 8 29 8h90q16 0 29 -10l252 -200q10 -7 10 -19q0 -7 -4 -14l-61 -98
q-6 -12 -18 -12q-8 0 -13 4l-266 139l-305 -140q-6 -3 -11 -3q-14 0 -20 15zM1004 1391q-12 0 -18 7t-3 19q11 39 35 65t52 40.5t68 29.5q41 15 59.5 27t18.5 32t-21 32t-53 12q-68 0 -86 -51q-6 -21 -25 -21h-155q-12 0 -18 7t-3 18q23 93 97.5 141t199.5 48
q122 0 199.5 -44.5t77.5 -127.5q0 -46 -20 -76.5t-48 -47.5t-73 -37q-36 -15 -56.5 -27t-31.5 -29t-27 -17h-169z" />
    <glyph glyph-name="uni1EAA" unicode="&#x1eaa;" horiz-adv-x="1351" 
d="M1241 25q1 -12 -5 -18.5t-18 -6.5h-248q-23 0 -24 23l-29 333h-526l-182 -340q-11 -16 -28 -16h-277q-10 0 -15 4t-5 11q0 6 4 13l785 1356q8 16 28 16h368q24 0 25 -22zM895 598l-53 598l-321 -598h374zM554 1574q-3 6 -3 12q0 12 13 20l323 200q14 8 29 8h90
q16 0 29 -10l252 -200q10 -7 10 -19q0 -7 -4 -14l-61 -98q-6 -12 -18 -12q-8 0 -13 4l-266 139l-305 -140q-6 -3 -11 -3q-14 0 -20 15zM1060.5 1887.5q-33.5 17.5 -70.5 48.5q-23 20 -39 30t-34 10q-30 0 -47 -21.5t-27 -63.5q-5 -21 -26 -21h-105q-12 0 -17.5 6.5
t-4.5 18.5q22 119 85 191t160 72q44 0 76 -17.5t72 -49.5q24 -20 39.5 -29.5t30.5 -9.5q31 0 48 21t25 61q6 22 26 22h105q10 0 15.5 -6t5.5 -16q0 -7 -1 -10q-22 -120 -82.5 -187t-153.5 -67q-47 0 -80.5 17.5z" />
    <glyph glyph-name="uni1EAB" unicode="&#x1eab;" horiz-adv-x="1150" 
d="M1172 1030q12 0 18 -7t3 -19l-122 -496l-105 -487q-4 -21 -26 -21h-246q-21 0 -21 17q0 6 1 9l14 55q-120 -99 -278 -99q-116 0 -201 52.5t-130 148.5t-45 223q0 148 60 296.5t180 247t290 98.5q104 0 180 -38t121 -110l23 109q4 21 26 21h258zM675.5 254
q64.5 74 96.5 179t32 195q0 109 -47 165.5t-135 56.5q-100 0 -163.5 -72.5t-92 -173.5t-28.5 -188q0 -107 46 -171.5t134 -64.5q93 0 157.5 74zM364 1204q-3 6 -3 12q0 12 13 20l323 200q14 8 29 8h90q16 0 29 -10l252 -200q10 -7 10 -19q0 -7 -4 -14l-61 -98
q-6 -12 -18 -12q-8 0 -13 4l-266 139l-305 -140q-6 -3 -11 -3q-14 0 -20 15zM870.5 1517.5q-33.5 17.5 -70.5 48.5q-23 20 -39 30t-34 10q-30 0 -47 -21.5t-27 -63.5q-5 -21 -26 -21h-105q-12 0 -17.5 6.5t-4.5 18.5q22 119 85 191t160 72q44 0 76 -17.5t72 -49.5
q24 -20 39.5 -29.5t30.5 -9.5q31 0 48 21t25 61q6 22 26 22h105q10 0 15.5 -6t5.5 -16q0 -7 -1 -10q-22 -120 -82.5 -187t-153.5 -67q-47 0 -80.5 17.5z" />
    <glyph glyph-name="uni1EAC" unicode="&#x1eac;" horiz-adv-x="1351" 
d="M1241 25q1 -12 -5 -18.5t-18 -6.5h-248q-23 0 -24 23l-29 333h-526l-182 -340q-11 -16 -28 -16h-277q-10 0 -15 4t-5 11q0 6 4 13l785 1356q8 16 28 16h368q24 0 25 -22zM895 598l-53 598l-321 -598h374zM377 -348q-12 0 -18 7t-3 19l53 223q6 21 26 21h256q12 0 18 -7
t3 -19l-53 -223q-6 -21 -26 -21h-256zM572 1618q-3 6 -3 12q0 12 13 20l323 200q14 8 29 8h90q16 0 29 -10l252 -200q10 -7 10 -19q0 -7 -4 -14l-61 -98q-6 -12 -18 -12q-8 0 -13 4l-266 139l-305 -140q-6 -3 -11 -3q-14 0 -20 15z" />
    <glyph glyph-name="uni1EAD" unicode="&#x1ead;" horiz-adv-x="1150" 
d="M1172 1030q12 0 18 -7t3 -19l-122 -496l-105 -487q-4 -21 -26 -21h-246q-21 0 -21 17q0 6 1 9l14 55q-120 -99 -278 -99q-116 0 -201 52.5t-130 148.5t-45 223q0 148 60 296.5t180 247t290 98.5q104 0 180 -38t121 -110l23 109q4 21 26 21h258zM675.5 254
q64.5 74 96.5 179t32 195q0 109 -47 165.5t-135 56.5q-100 0 -163.5 -72.5t-92 -173.5t-28.5 -188q0 -107 46 -171.5t134 -64.5q93 0 157.5 74zM285 -354q-12 0 -18 7t-3 19l53 223q6 21 26 21h256q12 0 18 -7t3 -19l-53 -223q-6 -21 -26 -21h-256zM382 1248q-3 6 -3 12
q0 12 13 20l323 200q14 8 29 8h90q16 0 29 -10l252 -200q10 -7 10 -19q0 -7 -4 -14l-61 -98q-6 -12 -18 -12q-8 0 -13 4l-266 139l-305 -140q-6 -3 -11 -3q-14 0 -20 15z" />
    <glyph glyph-name="uni1EAE" unicode="&#x1eae;" horiz-adv-x="1351" 
d="M1241 25q1 -12 -5 -18.5t-18 -6.5h-248q-23 0 -24 23l-29 333h-526l-182 -340q-11 -16 -28 -16h-277q-10 0 -15 4t-5 11q0 6 4 13l785 1356q8 16 28 16h368q24 0 25 -22zM895 598l-53 598l-321 -598h374zM978 1771q-8 -7 -16 -7q-10 0 -17 9l-77 83q-8 10 -8 17q0 8 8 16
l277 286q7 9 17 9q9 0 16 -9l110 -122q7 -7 7 -16q0 -11 -10 -18zM764 1533.5q-72 40.5 -107.5 111t-29.5 157.5q3 23 26 23h147q22 0 22 -27q0 -51 32.5 -82t93.5 -31q60 0 101.5 32.5t59.5 87.5q6 20 26 20h149q12 0 18 -6.5t5 -17.5q-18 -89 -68 -159t-128.5 -109.5
t-176.5 -39.5t-170 40.5z" />
    <glyph glyph-name="uni1EAF" unicode="&#x1eaf;" horiz-adv-x="1150" 
d="M1172 1030q12 0 18 -7t3 -19l-122 -496l-105 -487q-4 -21 -26 -21h-246q-21 0 -21 17q0 6 1 9l14 55q-120 -99 -278 -99q-116 0 -201 52.5t-130 148.5t-45 223q0 148 60 296.5t180 247t290 98.5q104 0 180 -38t121 -110l23 109q4 21 26 21h258zM675.5 254
q64.5 74 96.5 179t32 195q0 109 -47 165.5t-135 56.5q-100 0 -163.5 -72.5t-92 -173.5t-28.5 -188q0 -107 46 -171.5t134 -64.5q93 0 157.5 74zM788 1401q-8 -7 -16 -7q-10 0 -17 9l-77 83q-8 10 -8 17q0 8 8 16l277 286q7 9 17 9q9 0 16 -9l110 -122q7 -7 7 -16
q0 -11 -10 -18zM574 1163.5q-72 40.5 -107.5 111t-29.5 157.5q3 23 26 23h147q22 0 22 -27q0 -51 32.5 -82t93.5 -31q60 0 101.5 32.5t59.5 87.5q6 20 26 20h149q12 0 18 -6.5t5 -17.5q-18 -89 -68 -159t-128.5 -109.5t-176.5 -39.5t-170 40.5z" />
    <glyph glyph-name="uni1EB0" unicode="&#x1eb0;" horiz-adv-x="1351" 
d="M1241 25q1 -12 -5 -18.5t-18 -6.5h-248q-23 0 -24 23l-29 333h-526l-182 -340q-11 -16 -28 -16h-277q-10 0 -15 4t-5 11q0 6 4 13l785 1356q8 16 28 16h368q24 0 25 -22zM895 598l-53 598l-321 -598h374zM971 1769q-8 -5 -14 -5q-11 0 -19 11l-213 273q-6 8 -6 14
q0 10 11 18l143 102q8 5 15 5q12 0 18 -13l164 -312q3 -6 3 -13q0 -12 -11 -19zM764 1533.5q-72 40.5 -107.5 111t-29.5 157.5q3 23 26 23h147q22 0 22 -27q0 -51 32.5 -82t93.5 -31q60 0 101.5 32.5t59.5 87.5q6 20 26 20h150q12 0 18 -6.5t5 -17.5q-18 -89 -68.5 -159
t-129 -109.5t-176.5 -39.5t-170 40.5z" />
    <glyph glyph-name="uni1EB1" unicode="&#x1eb1;" horiz-adv-x="1150" 
d="M1172 1030q12 0 18 -7t3 -19l-122 -496l-105 -487q-4 -21 -26 -21h-246q-21 0 -21 17q0 6 1 9l14 55q-120 -99 -278 -99q-116 0 -201 52.5t-130 148.5t-45 223q0 148 60 296.5t180 247t290 98.5q104 0 180 -38t121 -110l23 109q4 21 26 21h258zM675.5 254
q64.5 74 96.5 179t32 195q0 109 -47 165.5t-135 56.5q-100 0 -163.5 -72.5t-92 -173.5t-28.5 -188q0 -107 46 -171.5t134 -64.5q93 0 157.5 74zM781 1399q-8 -5 -14 -5q-11 0 -19 11l-213 273q-6 8 -6 14q0 10 11 18l143 102q8 5 15 5q12 0 18 -13l164 -312q3 -6 3 -13
q0 -12 -11 -19zM574 1163.5q-72 40.5 -107.5 111t-29.5 157.5q3 23 26 23h147q22 0 22 -27q0 -51 32.5 -82t93.5 -31q60 0 101.5 32.5t59.5 87.5q6 20 26 20h150q12 0 18 -6.5t5 -17.5q-18 -89 -68.5 -159t-129 -109.5t-176.5 -39.5t-170 40.5z" />
    <glyph glyph-name="uni1EB2" unicode="&#x1eb2;" horiz-adv-x="1351" 
d="M1241 25q1 -12 -5 -18.5t-18 -6.5h-248q-23 0 -24 23l-29 333h-526l-182 -340q-11 -16 -28 -16h-277q-10 0 -15 4t-5 11q0 6 4 13l785 1356q8 16 28 16h368q24 0 25 -22zM895 598l-53 598l-321 -598h374zM763 1532.5q-72 40.5 -107.5 111t-29.5 158.5q3 22 26 22h147
q22 0 22 -26q0 -52 32.5 -83t93.5 -31q60 0 101.5 32.5t59.5 87.5q6 20 26 20h150q12 0 18.5 -6t4.5 -17q-18 -89 -68.5 -159t-129 -110t-176.5 -40t-170 40.5zM884 1823q-12 0 -18 7t-3 19q11 39 35 65t52 40.5t68 29.5q41 15 59.5 27t18.5 32t-21 32t-53 12q-68 0 -86 -51
q-6 -21 -25 -21h-155q-12 0 -18 7t-3 18q23 93 97.5 141t199.5 48q122 0 199.5 -44.5t77.5 -127.5q0 -46 -20 -76.5t-48 -47.5t-73 -37q-36 -15 -56.5 -27t-31.5 -29t-27 -17h-169z" />
    <glyph glyph-name="uni1EB3" unicode="&#x1eb3;" horiz-adv-x="1150" 
d="M1172 1030q12 0 18 -7t3 -19l-122 -496l-105 -487q-4 -21 -26 -21h-246q-21 0 -21 17q0 6 1 9l14 55q-120 -99 -278 -99q-116 0 -201 52.5t-130 148.5t-45 223q0 148 60 296.5t180 247t290 98.5q104 0 180 -38t121 -110l23 109q4 21 26 21h258zM675.5 254
q64.5 74 96.5 179t32 195q0 109 -47 165.5t-135 56.5q-100 0 -163.5 -72.5t-92 -173.5t-28.5 -188q0 -107 46 -171.5t134 -64.5q93 0 157.5 74zM573 1162.5q-72 40.5 -107.5 111t-29.5 158.5q3 22 26 22h147q22 0 22 -26q0 -52 32.5 -83t93.5 -31q60 0 101.5 32.5t59.5 87.5
q6 20 26 20h150q12 0 18.5 -6t4.5 -17q-18 -89 -68.5 -159t-129 -110t-176.5 -40t-170 40.5zM694 1453q-12 0 -18 7t-3 19q11 39 35 65t52 40.5t68 29.5q41 15 59.5 27t18.5 32t-21 32t-53 12q-68 0 -86 -51q-6 -21 -25 -21h-155q-12 0 -18 7t-3 18q23 93 97.5 141t199.5 48
q122 0 199.5 -44.5t77.5 -127.5q0 -46 -20 -76.5t-48 -47.5t-73 -37q-36 -15 -56.5 -27t-31.5 -29t-27 -17h-169z" />
    <glyph glyph-name="uni1EB4" unicode="&#x1eb4;" horiz-adv-x="1351" 
d="M1241 25q1 -12 -5 -18.5t-18 -6.5h-248q-23 0 -24 23l-29 333h-526l-182 -340q-11 -16 -28 -16h-277q-10 0 -15 4t-5 11q0 6 4 13l785 1356q8 16 28 16h368q24 0 25 -22zM895 598l-53 598l-321 -598h374zM1049 1892q-34 16 -74 45q-26 19 -42.5 28t-34.5 9
q-26 0 -41.5 -20t-24.5 -57q-5 -21 -26 -21h-143q-12 0 -17.5 6.5t-3.5 18.5q22 114 87.5 184.5t166.5 70.5q47 0 82 -16.5t75 -46.5q25 -18 40.5 -26.5t30.5 -8.5q27 0 42.5 19t23.5 55q5 22 25 22h144q21 0 21 -21q0 -6 -1 -10q-22 -118 -84.5 -182.5t-162.5 -64.5
q-49 0 -83 16zM764 1533.5q-72 40.5 -107.5 111t-29.5 157.5q3 23 26 23h147q22 0 22 -27q0 -51 32.5 -82t93.5 -31q60 0 101.5 32.5t59.5 87.5q6 20 26 20h150q12 0 18 -6.5t5 -17.5q-18 -89 -68.5 -159t-129 -109.5t-176.5 -39.5t-170 40.5z" />
    <glyph glyph-name="uni1EB5" unicode="&#x1eb5;" horiz-adv-x="1150" 
d="M1172 1030q12 0 18 -7t3 -19l-122 -496l-105 -487q-4 -21 -26 -21h-246q-21 0 -21 17q0 6 1 9l14 55q-120 -99 -278 -99q-116 0 -201 52.5t-130 148.5t-45 223q0 148 60 296.5t180 247t290 98.5q104 0 180 -38t121 -110l23 109q4 21 26 21h258zM675.5 254
q64.5 74 96.5 179t32 195q0 109 -47 165.5t-135 56.5q-100 0 -163.5 -72.5t-92 -173.5t-28.5 -188q0 -107 46 -171.5t134 -64.5q93 0 157.5 74zM859 1522q-34 16 -74 45q-26 19 -42.5 28t-34.5 9q-26 0 -41.5 -20t-24.5 -57q-5 -21 -26 -21h-143q-12 0 -17.5 6.5t-3.5 18.5
q22 114 87.5 184.5t166.5 70.5q47 0 82 -16.5t75 -46.5q25 -18 40.5 -26.5t30.5 -8.5q27 0 42.5 19t23.5 55q5 22 25 22h144q21 0 21 -21q0 -6 -1 -10q-22 -118 -84.5 -182.5t-162.5 -64.5q-49 0 -83 16zM574 1163.5q-72 40.5 -107.5 111t-29.5 157.5q3 23 26 23h147
q22 0 22 -27q0 -51 32.5 -82t93.5 -31q60 0 101.5 32.5t59.5 87.5q6 20 26 20h150q12 0 18 -6.5t5 -17.5q-18 -89 -68.5 -159t-129 -109.5t-176.5 -39.5t-170 40.5z" />
    <glyph glyph-name="uni1EB6" unicode="&#x1eb6;" horiz-adv-x="1351" 
d="M1241 25q1 -12 -5 -18.5t-18 -6.5h-248q-23 0 -24 23l-29 333h-526l-182 -340q-11 -16 -28 -16h-277q-10 0 -15 4t-5 11q0 6 4 13l785 1356q8 16 28 16h368q24 0 25 -22zM895 598l-53 598l-321 -598h374zM377 -348q-12 0 -18 7t-3 19l53 223q6 21 26 21h256q12 0 18 -7
t3 -19l-53 -223q-6 -21 -26 -21h-256zM771 1560.5q-72 40.5 -107.5 111t-29.5 158.5q3 22 26 22h147q22 0 22 -26q0 -52 32.5 -83t93.5 -31q60 0 101.5 32.5t59.5 87.5q6 20 26 20h150q12 0 18.5 -6t4.5 -17q-18 -89 -68.5 -159t-129 -110t-176.5 -40t-170 40.5z" />
    <glyph glyph-name="uni1EB7" unicode="&#x1eb7;" horiz-adv-x="1150" 
d="M1172 1030q12 0 18 -7t3 -19l-122 -496l-105 -487q-4 -21 -26 -21h-246q-21 0 -21 17q0 6 1 9l14 55q-120 -99 -278 -99q-116 0 -201 52.5t-130 148.5t-45 223q0 148 60 296.5t180 247t290 98.5q104 0 180 -38t121 -110l23 109q4 21 26 21h258zM675.5 254
q64.5 74 96.5 179t32 195q0 109 -47 165.5t-135 56.5q-100 0 -163.5 -72.5t-92 -173.5t-28.5 -188q0 -107 46 -171.5t134 -64.5q93 0 157.5 74zM285 -354q-12 0 -18 7t-3 19l53 223q6 21 26 21h256q12 0 18 -7t3 -19l-53 -223q-6 -21 -26 -21h-256zM581 1190.5
q-72 40.5 -107.5 111t-29.5 158.5q3 22 26 22h147q22 0 22 -26q0 -52 32.5 -83t93.5 -31q60 0 101.5 32.5t59.5 87.5q6 20 26 20h150q12 0 18.5 -6t4.5 -17q-18 -89 -68.5 -159t-129 -110t-176.5 -40t-170 40.5z" />
    <glyph glyph-name="uni1EB8" unicode="&#x1eb8;" horiz-adv-x="1136" 
d="M-6 0q-10 0 -15.5 5t-5.5 13q0 5 1 8l171 674l142 679q4 21 26 21h935q12 0 17 -7t3 -19l-41 -179q-4 -21 -26 -21h-647l-88 -322h596q12 0 17 -7t3 -19l-41 -179q-4 -21 -26 -21h-601l-80 -400h658q12 0 17 -7t3 -19l-41 -179q-4 -21 -26 -21h-951zM297 -348
q-12 0 -18 7t-3 19l53 223q6 21 26 21h256q12 0 18 -7t3 -19l-53 -223q-6 -21 -26 -21h-256z" />
    <glyph glyph-name="uni1EB9" unicode="&#x1eb9;" horiz-adv-x="1128" 
d="M876 999q105 -55 162 -155t57 -229q0 -69 -16 -140q-4 -21 -26 -21h-719v-30q0 -124 54.5 -187t151.5 -63q81 0 136.5 41.5t83.5 120.5q6 20 27 20h236q12 0 18 -6.5t3 -16.5q-45 -168 -178.5 -262.5t-331.5 -94.5q-145 0 -257 53.5t-174.5 157.5t-62.5 251
q0 159 71 300.5t205 228.5t314 87q141 0 246 -55zM798 644q1 9 1 27q0 83 -49.5 135t-137.5 52q-93 0 -155.5 -56.5t-93.5 -157.5h435zM285 -348q-12 0 -18 7t-3 19l53 223q6 21 26 21h256q12 0 18 -7t3 -19l-53 -223q-6 -21 -26 -21h-256z" />
    <glyph glyph-name="uni1EBA" unicode="&#x1eba;" horiz-adv-x="1136" 
d="M-6 0q-10 0 -15.5 5t-5.5 13q0 5 1 8l171 674l142 679q4 21 26 21h935q12 0 17 -7t3 -19l-41 -179q-4 -21 -26 -21h-647l-88 -322h596q12 0 17 -7t3 -19l-41 -179q-4 -21 -26 -21h-601l-80 -400h658q12 0 17 -7t3 -19l-41 -179q-4 -21 -26 -21h-951zM776 1525
q-12 0 -18 7t-3 19q11 39 35 65t52 40.5t68 29.5q41 15 59.5 27t18.5 32t-21 32t-53 12q-68 0 -86 -51q-6 -21 -25 -21h-155q-12 0 -18 7t-3 18q23 93 97.5 141t199.5 48q122 0 199.5 -44.5t77.5 -127.5q0 -46 -20 -76.5t-48 -47.5t-73 -37q-36 -15 -56.5 -27t-31.5 -29
t-27 -17h-169z" />
    <glyph glyph-name="uni1EBB" unicode="&#x1ebb;" horiz-adv-x="1128" 
d="M876 999q105 -55 162 -155t57 -229q0 -69 -16 -140q-4 -21 -26 -21h-719v-30q0 -124 54.5 -187t151.5 -63q81 0 136.5 41.5t83.5 120.5q6 20 27 20h236q12 0 18 -6.5t3 -16.5q-45 -168 -178.5 -262.5t-331.5 -94.5q-145 0 -257 53.5t-174.5 157.5t-62.5 251
q0 159 71 300.5t205 228.5t314 87q141 0 246 -55zM798 644q1 9 1 27q0 83 -49.5 135t-137.5 52q-93 0 -155.5 -56.5t-93.5 -157.5h435zM632 1155q-12 0 -18 7t-3 19q11 39 35 65t52 40.5t68 29.5q41 15 59.5 27t18.5 32t-21 32t-53 12q-68 0 -86 -51q-6 -21 -25 -21h-155
q-12 0 -18 7t-3 18q23 93 97.5 141t199.5 48q122 0 199.5 -44.5t77.5 -127.5q0 -46 -20 -76.5t-48 -47.5t-73 -37q-36 -15 -56.5 -27t-31.5 -29t-27 -17h-169z" />
    <glyph glyph-name="uni1EBC" unicode="&#x1ebc;" horiz-adv-x="1136" 
d="M-6 0q-10 0 -15.5 5t-5.5 13q0 5 1 8l171 674l142 679q4 21 26 21h935q12 0 17 -7t3 -19l-41 -179q-4 -21 -26 -21h-647l-88 -322h596q12 0 17 -7t3 -19l-41 -179q-4 -21 -26 -21h-601l-80 -400h658q12 0 17 -7t3 -19l-41 -179q-4 -21 -26 -21h-951zM917.5 1547.5
q-33.5 17.5 -70.5 48.5q-23 20 -39 30t-34 10q-30 0 -47 -21.5t-27 -63.5q-5 -21 -26 -21h-105q-12 0 -17.5 6.5t-4.5 18.5q22 119 85 191t160 72q44 0 76 -17.5t72 -49.5q24 -20 39.5 -29.5t30.5 -9.5q31 0 48 21t25 61q6 22 26 22h105q10 0 15.5 -6t5.5 -16q0 -7 -1 -10
q-22 -120 -82.5 -187t-153.5 -67q-47 0 -80.5 17.5z" />
    <glyph glyph-name="uni1EBD" unicode="&#x1ebd;" horiz-adv-x="1128" 
d="M876 999q105 -55 162 -155t57 -229q0 -69 -16 -140q-4 -21 -26 -21h-719v-30q0 -124 54.5 -187t151.5 -63q81 0 136.5 41.5t83.5 120.5q6 20 27 20h236q12 0 18 -6.5t3 -16.5q-45 -168 -178.5 -262.5t-331.5 -94.5q-145 0 -257 53.5t-174.5 157.5t-62.5 251
q0 159 71 300.5t205 228.5t314 87q141 0 246 -55zM798 644q1 9 1 27q0 83 -49.5 135t-137.5 52q-93 0 -155.5 -56.5t-93.5 -157.5h435zM773.5 1177.5q-33.5 17.5 -70.5 48.5q-23 20 -39 30t-34 10q-30 0 -47 -21.5t-27 -63.5q-5 -21 -26 -21h-105q-12 0 -17.5 6.5t-4.5 18.5
q22 119 85 191t160 72q44 0 76 -17.5t72 -49.5q24 -20 39.5 -29.5t30.5 -9.5q31 0 48 21t25 61q6 22 26 22h105q10 0 15.5 -6t5.5 -16q0 -7 -1 -10q-22 -120 -82.5 -187t-153.5 -67q-47 0 -80.5 17.5z" />
    <glyph glyph-name="uni1EBE" unicode="&#x1ebe;" horiz-adv-x="1136" 
d="M-6 0q-10 0 -15.5 5t-5.5 13q0 5 1 8l171 674l142 679q4 21 26 21h935q12 0 17 -7t3 -19l-41 -179q-4 -21 -26 -21h-647l-88 -322h596q12 0 17 -7t3 -19l-41 -179q-4 -21 -26 -21h-601l-80 -400h658q12 0 17 -7t3 -19l-41 -179q-4 -21 -26 -21h-951zM1199 1739
q-7 -7 -15 -7q-10 0 -17 9l-79 83q-8 10 -8 17q0 8 8 16l279 286q8 9 17 9q8 0 16 -9l110 -120q7 -7 7 -16q0 -11 -10 -18zM494 1575q-3 6 -3 11q0 12 13 20l323 200q14 9 29 9h90q16 0 29 -10l252 -201q10 -7 10 -19q0 -6 -4 -13l-61 -98q-8 -12 -19 -12q-6 0 -12 3
l-266 140l-305 -140q-6 -3 -12 -3q-13 0 -19 14z" />
    <glyph glyph-name="uni1EBF" unicode="&#x1ebf;" horiz-adv-x="1128" 
d="M876 999q105 -55 162 -155t57 -229q0 -69 -16 -140q-4 -21 -26 -21h-719v-30q0 -124 54.5 -187t151.5 -63q81 0 136.5 41.5t83.5 120.5q6 20 27 20h236q12 0 18 -6.5t3 -16.5q-45 -168 -178.5 -262.5t-331.5 -94.5q-145 0 -257 53.5t-174.5 157.5t-62.5 251
q0 159 71 300.5t205 228.5t314 87q141 0 246 -55zM798 644q1 9 1 27q0 83 -49.5 135t-137.5 52q-93 0 -155.5 -56.5t-93.5 -157.5h435zM1055 1369q-7 -7 -15 -7q-10 0 -17 9l-79 83q-8 10 -8 17q0 8 8 16l279 286q8 9 17 9q8 0 16 -9l110 -120q7 -7 7 -16q0 -11 -10 -18z
M350 1205q-3 6 -3 11q0 12 13 20l323 200q14 9 29 9h90q16 0 29 -10l252 -201q10 -7 10 -19q0 -6 -4 -13l-61 -98q-8 -12 -19 -12q-6 0 -12 3l-266 140l-305 -140q-6 -3 -12 -3q-13 0 -19 14z" />
    <glyph glyph-name="uni1EC0" unicode="&#x1ec0;" horiz-adv-x="1136" 
d="M-6 0q-10 0 -15.5 5t-5.5 13q0 5 1 8l171 674l142 679q4 21 26 21h935q12 0 17 -7t3 -19l-41 -179q-4 -21 -26 -21h-647l-88 -322h596q12 0 17 -7t3 -19l-41 -179q-4 -21 -26 -21h-601l-80 -400h658q12 0 17 -7t3 -19l-41 -179q-4 -21 -26 -21h-951zM1205 1738
q-8 -5 -15 -5q-10 0 -17 10l-214 273q-6 8 -6 15q0 10 11 18l143 102q6 5 15 5q12 0 18 -13l167 -310q4 -7 4 -13q0 -11 -12 -19zM494 1573q-3 6 -3 12q0 12 13 20l323 200q14 8 29 8h90q16 0 29 -10l252 -200q10 -7 10 -19q0 -7 -4 -14l-61 -98q-6 -12 -18 -12q-8 0 -13 4
l-266 139l-305 -140q-6 -3 -11 -3q-14 0 -20 15z" />
    <glyph glyph-name="uni1EC1" unicode="&#x1ec1;" horiz-adv-x="1128" 
d="M876 999q105 -55 162 -155t57 -229q0 -69 -16 -140q-4 -21 -26 -21h-719v-30q0 -124 54.5 -187t151.5 -63q81 0 136.5 41.5t83.5 120.5q6 20 27 20h236q12 0 18 -6.5t3 -16.5q-45 -168 -178.5 -262.5t-331.5 -94.5q-145 0 -257 53.5t-174.5 157.5t-62.5 251
q0 159 71 300.5t205 228.5t314 87q141 0 246 -55zM798 644q1 9 1 27q0 83 -49.5 135t-137.5 52q-93 0 -155.5 -56.5t-93.5 -157.5h435zM1061 1368q-8 -5 -15 -5q-10 0 -17 10l-214 273q-6 8 -6 15q0 10 11 18l143 102q6 5 15 5q12 0 18 -13l167 -310q4 -7 4 -13
q0 -11 -12 -19zM350 1203q-3 6 -3 12q0 12 13 20l323 200q14 8 29 8h90q16 0 29 -10l252 -200q10 -7 10 -19q0 -7 -4 -14l-61 -98q-6 -12 -18 -12q-8 0 -13 4l-266 139l-305 -140q-6 -3 -11 -3q-14 0 -20 15z" />
    <glyph glyph-name="uni1EC2" unicode="&#x1ec2;" horiz-adv-x="1136" 
d="M-6 0q-10 0 -15.5 5t-5.5 13q0 5 1 8l171 674l142 679q4 21 26 21h935q12 0 17 -7t3 -19l-41 -179q-4 -21 -26 -21h-647l-88 -322h596q12 0 17 -7t3 -19l-41 -179q-4 -21 -26 -21h-601l-80 -400h658q12 0 17 -7t3 -19l-41 -179q-4 -21 -26 -21h-951zM494 1574q-3 6 -3 12
q0 12 13 20l323 200q14 8 29 8h90q16 0 29 -10l252 -200q10 -7 10 -19q0 -7 -4 -14l-61 -98q-6 -12 -18 -12q-8 0 -13 4l-266 139l-305 -140q-6 -3 -11 -3q-14 0 -20 15zM1134 1761q-12 0 -18 7t-3 19q11 39 35 65t52 40.5t68 29.5q41 15 59.5 27t18.5 32t-21 32t-53 12
q-68 0 -86 -51q-6 -21 -25 -21h-155q-12 0 -18 7t-3 18q23 93 97.5 141t199.5 48q122 0 199.5 -44.5t77.5 -127.5q0 -46 -20 -76.5t-48 -47.5t-73 -37q-36 -15 -56.5 -27t-31.5 -29t-27 -17h-169z" />
    <glyph glyph-name="uni1EC3" unicode="&#x1ec3;" horiz-adv-x="1128" 
d="M876 999q105 -55 162 -155t57 -229q0 -69 -16 -140q-4 -21 -26 -21h-719v-30q0 -124 54.5 -187t151.5 -63q81 0 136.5 41.5t83.5 120.5q6 20 27 20h236q12 0 18 -6.5t3 -16.5q-45 -168 -178.5 -262.5t-331.5 -94.5q-145 0 -257 53.5t-174.5 157.5t-62.5 251
q0 159 71 300.5t205 228.5t314 87q141 0 246 -55zM798 644q1 9 1 27q0 83 -49.5 135t-137.5 52q-93 0 -155.5 -56.5t-93.5 -157.5h435zM350 1204q-3 6 -3 12q0 12 13 20l323 200q14 8 29 8h90q16 0 29 -10l252 -200q10 -7 10 -19q0 -7 -4 -14l-61 -98q-6 -12 -18 -12
q-8 0 -13 4l-266 139l-305 -140q-6 -3 -11 -3q-14 0 -20 15zM990 1391q-12 0 -18 7t-3 19q11 39 35 65t52 40.5t68 29.5q41 15 59.5 27t18.5 32t-21 32t-53 12q-68 0 -86 -51q-6 -21 -25 -21h-155q-12 0 -18 7t-3 18q23 93 97.5 141t199.5 48q122 0 199.5 -44.5t77.5 -127.5
q0 -46 -20 -76.5t-48 -47.5t-73 -37q-36 -15 -56.5 -27t-31.5 -29t-27 -17h-169z" />
    <glyph glyph-name="uni1EC4" unicode="&#x1ec4;" horiz-adv-x="1136" 
d="M-6 0q-10 0 -15.5 5t-5.5 13q0 5 1 8l171 674l142 679q4 21 26 21h935q12 0 17 -7t3 -19l-41 -179q-4 -21 -26 -21h-647l-88 -322h596q12 0 17 -7t3 -19l-41 -179q-4 -21 -26 -21h-601l-80 -400h658q12 0 17 -7t3 -19l-41 -179q-4 -21 -26 -21h-951zM494 1574q-3 6 -3 12
q0 12 13 20l323 200q14 8 29 8h90q16 0 29 -10l252 -200q10 -7 10 -19q0 -7 -4 -14l-61 -98q-6 -12 -18 -12q-8 0 -13 4l-266 139l-305 -140q-6 -3 -11 -3q-14 0 -20 15zM1000.5 1887.5q-33.5 17.5 -70.5 48.5q-23 20 -39 30t-34 10q-30 0 -47 -21.5t-27 -63.5
q-5 -21 -26 -21h-105q-12 0 -17.5 6.5t-4.5 18.5q22 119 85 191t160 72q44 0 76 -17.5t72 -49.5q24 -20 39.5 -29.5t30.5 -9.5q31 0 48 21t25 61q6 22 26 22h105q10 0 15.5 -6t5.5 -16q0 -7 -1 -10q-22 -120 -82.5 -187t-153.5 -67q-47 0 -80.5 17.5z" />
    <glyph glyph-name="uni1EC5" unicode="&#x1ec5;" horiz-adv-x="1128" 
d="M876 999q105 -55 162 -155t57 -229q0 -69 -16 -140q-4 -21 -26 -21h-719v-30q0 -124 54.5 -187t151.5 -63q81 0 136.5 41.5t83.5 120.5q6 20 27 20h236q12 0 18 -6.5t3 -16.5q-45 -168 -178.5 -262.5t-331.5 -94.5q-145 0 -257 53.5t-174.5 157.5t-62.5 251
q0 159 71 300.5t205 228.5t314 87q141 0 246 -55zM798 644q1 9 1 27q0 83 -49.5 135t-137.5 52q-93 0 -155.5 -56.5t-93.5 -157.5h435zM350 1204q-3 6 -3 12q0 12 13 20l323 200q14 8 29 8h90q16 0 29 -10l252 -200q10 -7 10 -19q0 -7 -4 -14l-61 -98q-6 -12 -18 -12
q-8 0 -13 4l-266 139l-305 -140q-6 -3 -11 -3q-14 0 -20 15zM856.5 1517.5q-33.5 17.5 -70.5 48.5q-23 20 -39 30t-34 10q-30 0 -47 -21.5t-27 -63.5q-5 -21 -26 -21h-105q-12 0 -17.5 6.5t-4.5 18.5q22 119 85 191t160 72q44 0 76 -17.5t72 -49.5q24 -20 39.5 -29.5
t30.5 -9.5q31 0 48 21t25 61q6 22 26 22h105q10 0 15.5 -6t5.5 -16q0 -7 -1 -10q-22 -120 -82.5 -187t-153.5 -67q-47 0 -80.5 17.5z" />
    <glyph glyph-name="uni1EC6" unicode="&#x1ec6;" horiz-adv-x="1136" 
d="M-6 0q-10 0 -15.5 5t-5.5 13q0 5 1 8l171 674l142 679q4 21 26 21h935q12 0 17 -7t3 -19l-41 -179q-4 -21 -26 -21h-647l-88 -322h596q12 0 17 -7t3 -19l-41 -179q-4 -21 -26 -21h-601l-80 -400h658q12 0 17 -7t3 -19l-41 -179q-4 -21 -26 -21h-951zM297 -348
q-12 0 -18 7t-3 19l53 223q6 21 26 21h256q12 0 18 -7t3 -19l-53 -223q-6 -21 -26 -21h-256zM512 1618q-3 6 -3 12q0 12 13 20l323 200q14 8 29 8h90q16 0 29 -10l252 -200q10 -7 10 -19q0 -7 -4 -14l-61 -98q-6 -12 -18 -12q-8 0 -13 4l-266 139l-305 -140q-6 -3 -11 -3
q-14 0 -20 15z" />
    <glyph glyph-name="uni1EC7" unicode="&#x1ec7;" horiz-adv-x="1128" 
d="M876 999q105 -55 162 -155t57 -229q0 -69 -16 -140q-4 -21 -26 -21h-719v-30q0 -124 54.5 -187t151.5 -63q81 0 136.5 41.5t83.5 120.5q6 20 27 20h236q12 0 18 -6.5t3 -16.5q-45 -168 -178.5 -262.5t-331.5 -94.5q-145 0 -257 53.5t-174.5 157.5t-62.5 251
q0 159 71 300.5t205 228.5t314 87q141 0 246 -55zM798 644q1 9 1 27q0 83 -49.5 135t-137.5 52q-93 0 -155.5 -56.5t-93.5 -157.5h435zM285 -348q-12 0 -18 7t-3 19l53 223q6 21 26 21h256q12 0 18 -7t3 -19l-53 -223q-6 -21 -26 -21h-256zM368 1248q-3 6 -3 12q0 12 13 20
l323 200q14 8 29 8h90q16 0 29 -10l252 -200q10 -7 10 -19q0 -7 -4 -14l-61 -98q-6 -12 -18 -12q-8 0 -13 4l-266 139l-305 -140q-6 -3 -11 -3q-14 0 -20 15z" />
    <glyph glyph-name="uni1EC8" unicode="&#x1ec8;" horiz-adv-x="505" 
d="M5 0q-10 0 -16 5t-6 13q0 5 1 8l171 674l142 679q4 21 26 21h265q10 0 15.5 -5t5.5 -13q0 -5 -1 -8l-170 -674l-143 -679q-4 -21 -26 -21h-264zM406 1525q-12 0 -18 7t-3 19q11 39 35 65t52 40.5t68 29.5q41 15 59.5 27t18.5 32t-21 32t-53 12q-68 0 -86 -51
q-6 -21 -25 -21h-155q-12 0 -18 7t-3 18q23 93 97.5 141t199.5 48q122 0 199.5 -44.5t77.5 -127.5q0 -46 -20 -76.5t-48 -47.5t-73 -37q-36 -15 -56.5 -27t-31.5 -29t-27 -17h-169z" />
    <glyph glyph-name="uni1EC9" unicode="&#x1ec9;" horiz-adv-x="471" 
d="M303 1155q-12 0 -18 7t-3 19q11 39 35 65t52 40.5t68 29.5q41 15 59.5 27t18.5 32t-21 32t-53 12q-68 0 -86 -51q-6 -21 -25 -21h-135q-12 0 -18 7t-4 18q21 92 91 140.5t187 48.5q112 0 184 -44.5t72 -127.5q0 -46 -18 -76.5t-43.5 -47.5t-66.5 -37q-34 -16 -52 -27.5
t-28 -28.5q-11 -17 -28 -17h-168zM-12 0q-12 0 -18 7t-3 19l122 488l106 495q3 21 26 21h261q12 0 18 -7t3 -19l-124 -490l-103 -493q-4 -21 -26 -21h-262z" />
    <glyph glyph-name="uni1ECA" unicode="&#x1eca;" horiz-adv-x="505" 
d="M5 0q-10 0 -16 5t-6 13q0 5 1 8l171 674l142 679q4 21 26 21h265q10 0 15.5 -5t5.5 -13q0 -5 -1 -8l-170 -674l-143 -679q-4 -21 -26 -21h-264zM-73 -348q-12 0 -18 7t-3 19l53 223q6 21 26 21h256q12 0 18 -7t3 -19l-53 -223q-6 -21 -26 -21h-256z" />
    <glyph glyph-name="uni1ECB" unicode="&#x1ecb;" horiz-adv-x="469" 
d="M-12 0q-12 0 -18 7t-3 19l122 488l106 495q3 21 26 21h261q12 0 18 -7t3 -19l-124 -490l-103 -493q-4 -21 -26 -21h-262zM252 1130q-12 0 -17.5 7t-3.5 19l54 223q4 21 25 21h256q12 0 18 -7t3 -19l-53 -223q-6 -21 -26 -21h-256zM-91 -348q-12 0 -18 7t-3 19l53 223
q6 21 26 21h256q12 0 18 -7t3 -19l-53 -223q-6 -21 -26 -21h-256z" />
    <glyph glyph-name="uni1ECC" unicode="&#x1ecc;" horiz-adv-x="1507" 
d="M384 43q-146 73 -228.5 212.5t-82.5 332.5q0 211 97 405.5t280.5 315.5t428.5 121q186 0 331.5 -73t228 -212.5t82.5 -332.5q0 -211 -97 -405.5t-280 -315.5t-427 -121q-187 0 -333 73zM999.5 302q107.5 98 157.5 240.5t50 277.5q0 123 -42.5 207.5t-119 126.5t-178.5 42
q-164 0 -272 -98t-158 -240.5t-50 -277.5q0 -123 43 -207.5t119.5 -126.5t179.5 -42q163 0 270.5 98zM464 -348q-12 0 -18 7t-3 19l53 223q6 21 26 21h256q12 0 18 -7t3 -19l-53 -223q-6 -21 -26 -21h-256z" />
    <glyph glyph-name="uni1ECD" unicode="&#x1ecd;" horiz-adv-x="1154" 
d="M270.5 30q-108.5 54 -169.5 158t-61 250q0 158 72 300t207.5 229t316.5 87q139 0 247.5 -54t169.5 -158t61 -250q0 -158 -72 -300t-207.5 -229t-316.5 -87q-139 0 -247.5 54zM686.5 242.5q63.5 68.5 93.5 168.5t30 195q0 122 -50 186t-136 64q-93 0 -156.5 -68.5
t-93.5 -168.5t-30 -195q0 -122 50 -186t136 -64q93 0 156.5 68.5zM289 -348q-12 0 -18 7t-3 19l53 223q6 21 26 21h256q12 0 18 -7t3 -19l-53 -223q-6 -21 -26 -21h-256z" />
    <glyph glyph-name="uni1ECE" unicode="&#x1ece;" horiz-adv-x="1507" 
d="M384 43q-146 73 -228.5 212.5t-82.5 332.5q0 211 97 405.5t280.5 315.5t428.5 121q186 0 331.5 -73t228 -212.5t82.5 -332.5q0 -211 -97 -405.5t-280 -315.5t-427 -121q-187 0 -333 73zM999.5 302q107.5 98 157.5 240.5t50 277.5q0 123 -42.5 207.5t-119 126.5t-178.5 42
q-164 0 -272 -98t-158 -240.5t-50 -277.5q0 -123 43 -207.5t119.5 -126.5t179.5 -42q163 0 270.5 98zM861 1525q-12 0 -18 7t-3 19q11 39 35 65t52 40.5t68 29.5q41 15 59.5 27t18.5 32t-21 32t-53 12q-68 0 -86 -51q-6 -21 -25 -21h-155q-12 0 -18 7t-3 18q23 93 97.5 141
t199.5 48q122 0 199.5 -44.5t77.5 -127.5q0 -46 -20 -76.5t-48 -47.5t-73 -37q-36 -15 -56.5 -27t-31.5 -29t-27 -17h-169z" />
    <glyph glyph-name="uni1ECF" unicode="&#x1ecf;" horiz-adv-x="1154" 
d="M270.5 30q-108.5 54 -169.5 158t-61 250q0 158 72 300t207.5 229t316.5 87q139 0 247.5 -54t169.5 -158t61 -250q0 -158 -72 -300t-207.5 -229t-316.5 -87q-139 0 -247.5 54zM686.5 242.5q63.5 68.5 93.5 168.5t30 195q0 122 -50 186t-136 64q-93 0 -156.5 -68.5
t-93.5 -168.5t-30 -195q0 -122 50 -186t136 -64q93 0 156.5 68.5zM646 1155q-12 0 -18 7t-3 19q11 39 35 65t52 40.5t68 29.5q41 15 59.5 27t18.5 32t-21 32t-53 12q-68 0 -86 -51q-6 -21 -25 -21h-155q-12 0 -18 7t-3 18q23 93 97.5 141t199.5 48q122 0 199.5 -44.5
t77.5 -127.5q0 -46 -20 -76.5t-48 -47.5t-73 -37q-36 -15 -56.5 -27t-31.5 -29t-27 -17h-169z" />
    </font>
</defs>
</svg>
