<?xml version="1.0" standalone="no"?>
<!DOCTYPE svg PUBLIC "-//W3C//DTD SVG 1.1//EN" "http://www.w3.org/Graphics/SVG/1.1/DTD/svg11.dtd" >
<svg xmlns="http://www.w3.org/2000/svg" xmlns:xlink="http://www.w3.org/1999/xlink" version="1.1">
<metadata>
Created by FontForge 20170731 at Wed May 12 04:41:43 2021
 By Aleksey,,,
(c) Copyright David Jonathan Ross, 2016, 2021. All rights reserved.
</metadata>
<defs>
<font id="FormaDJRText-ExtraBold" horiz-adv-x="0" >
  <font-face 
    font-family="Forma DJR Text Extra Bold"
    font-weight="800"
    font-stretch="normal"
    units-per-em="2000"
    panose-1="0 0 0 0 0 0 0 9 0 0"
    ascent="1500"
    descent="-500"
    x-height="1030"
    cap-height="1400"
    bbox="-1151 -539 2705 2273"
    underline-thickness="50"
    underline-position="-150"
    unicode-range="U+0020-FB01"
  />
<missing-glyph horiz-adv-x="1200" 
d="M50 1388q0 5 3.5 8.5t8.5 3.5h1076q5 0 8.5 -3.5t3.5 -8.5v-1716q0 -5 -3.5 -8.5t-8.5 -3.5h-1076q-5 0 -8.5 3.5t-3.5 8.5v1716zM825 1125h-450v-1185h450v1185z" />
    <glyph glyph-name=".notdef" horiz-adv-x="1200" 
d="M50 1388q0 5 3.5 8.5t8.5 3.5h1076q5 0 8.5 -3.5t3.5 -8.5v-1716q0 -5 -3.5 -8.5t-8.5 -3.5h-1076q-5 0 -8.5 3.5t-3.5 8.5v1716zM825 1125h-450v-1185h450v1185z" />
    <glyph glyph-name=".null" 
 />
    <glyph glyph-name="nonmarkingreturn" horiz-adv-x="666" 
 />
    <glyph glyph-name="space" unicode=" " horiz-adv-x="375" 
 />
    <glyph glyph-name="space" unicode="&#xa0;" horiz-adv-x="375" 
 />
    <glyph glyph-name="exclam" unicode="!" horiz-adv-x="493" 
d="M92 416q-24 0 -24 24v937q0 11 6.5 17t17.5 6h309q11 0 17 -6t6 -17v-937q0 -11 -6 -17.5t-17 -6.5h-309zM92 0q-24 0 -24 24v284q0 11 6.5 17t17.5 6h309q11 0 17 -6t6 -17v-284q0 -11 -6 -17.5t-17 -6.5h-309z" />
    <glyph glyph-name="quotedbl" unicode="&#x22;" horiz-adv-x="901" 
d="M146 817q-23 0 -24 23l-41 536q-1 24 22 24h287q25 0 23 -24l-40 -536q-1 -23 -25 -23h-202zM554 817q-23 0 -24 23l-41 536q-1 24 22 24h287q25 0 23 -24l-40 -536q-1 -23 -25 -23h-202z" />
    <glyph glyph-name="numbersign" unicode="#" horiz-adv-x="1423" 
d="M1359 1144q12 0 18 -7t4 -18l-30 -209q-3 -22 -24 -22h-172l-53 -368h169q12 0 18 -7t4 -18l-37 -209q-5 -22 -25 -22h-165l-35 -242q-3 -22 -24 -22h-288q-12 0 -18 7t-4 18l34 239h-160l-35 -242q-3 -22 -24 -22h-288q-12 0 -18 7t-4 18l34 239h-171q-13 0 -18.5 7
t-3.5 18l37 210q2 10 8.5 15.5t16.5 5.5h168l52 368h-165q-12 0 -18 7t-4 18l30 209q1 22 24 22h170l34 234q1 22 24 22h288q12 0 18 -7t4 -18l-33 -231h160l34 234q1 22 24 22h288q12 0 18 -7t4 -18l-33 -231h167zM660 888l-53 -368h161l52 368h-160z" />
    <glyph glyph-name="dollar" unicode="$" horiz-adv-x="1317" 
d="M1140 126.5q-109 -117.5 -305 -150.5v-153q0 -11 -6.5 -17t-17.5 -6h-318q-11 0 -17 6t-6 17v162q-182 40 -288 154t-113 304q0 24 23 24h334q22 0 26 -22q10 -68 33 -113.5t71.5 -71t130.5 -25.5q97 0 146 34.5t49 110.5q0 52 -36.5 83.5t-92 48t-155.5 36.5
q-155 31 -255.5 68.5t-173.5 127.5t-73 250q0 163 93.5 273t270.5 148v122q0 11 6.5 17t16.5 6h318q11 0 17.5 -6t6.5 -17v-122q319 -69 376 -403l1 -6q0 -9 -6 -14t-17 -5h-336q-20 0 -25 22q-13 73 -63.5 112t-130.5 39q-76 0 -120.5 -32t-44.5 -97q0 -49 36 -79t91 -46
t155 -35q157 -30 258.5 -67t175.5 -126t74 -246q0 -188 -109 -305.5z" />
    <glyph glyph-name="percent" unicode="%" horiz-adv-x="1892" 
d="M169.5 771q-109.5 91 -109.5 271q0 121 50 206t142 128.5t218 43.5q124 0 215.5 -43.5t141.5 -128t50 -205.5q0 -180 -108 -271.5t-299 -91.5t-300.5 91zM287 0q-9 0 -14.5 4t-5.5 10q0 8 6 15l1066 1357q10 14 28 14h241q9 0 14.5 -4t5.5 -10q0 -7 -6 -15l-1066 -1357
q-10 -14 -28 -14h-241zM551.5 920.5q24.5 35.5 24.5 122.5q0 93 -27 133t-81 40t-80 -40t-26 -133q0 -84 26 -121t82 -37q57 0 81.5 35.5zM1206.5 23.5q-91.5 43.5 -141.5 128t-50 205.5q0 180 108 271.5t299 91.5t300.5 -91t109.5 -271q0 -121 -49.5 -206t-141.5 -128.5
t-218 -43.5q-125 0 -216.5 43.5zM1505 225q26 40 26 133q0 84 -26 121t-82 37q-57 0 -81.5 -35.5t-24.5 -122.5q0 -93 27 -133t81 -40t80 40z" />
    <glyph glyph-name="ampersand" unicode="&#x26;" horiz-adv-x="1482" 
d="M1428 29q6 -9 6 -15t-5.5 -10t-14.5 -4h-368q-18 0 -29 14l-49 63q-173 -105 -383 -105q-147 0 -267.5 49.5t-191 143t-70.5 220.5q0 150 86.5 250.5t236.5 182.5q-60 83 -94.5 158.5t-34.5 146.5q0 89 53.5 161.5t152 114.5t228.5 42q118 0 213 -35.5t151.5 -106
t58.5 -170.5q0 -79 -38.5 -140.5t-101 -108t-153.5 -95.5l103 -125l87 -107q23 69 31 138q3 22 25 22h285q12 0 18 -6.5t4 -16.5q-17 -106 -57.5 -205.5t-100.5 -185.5zM605 1059.5q19 -35.5 67 -96.5q69 39 105 77.5t36 84.5q0 53 -31 83t-86 30q-52 0 -81 -29.5t-29 -84.5
q0 -29 19 -64.5zM805 284l-225 284q-14 18 -44 54q-61 -46 -94 -98.5t-33 -118.5q0 -91 56 -136t149 -45q103 0 191 60z" />
    <glyph glyph-name="quotesingle" unicode="'" horiz-adv-x="494" 
d="M146 817q-23 0 -24 23l-41 536q-1 24 22 24h287q25 0 23 -24l-40 -536q-1 -23 -25 -23h-202z" />
    <glyph glyph-name="parenleft" unicode="(" horiz-adv-x="572" 
d="M275 -280q-20 0 -27 17q-102 207 -155 416t-53 447q0 449 205 844q9 16 28 16h232q9 0 14.5 -4t5.5 -11q0 -6 -3 -12q-179 -408 -179 -833q0 -437 182 -853q3 -6 3 -11q0 -7 -5.5 -11.5t-15.5 -4.5h-232z" />
    <glyph glyph-name="parenright" unicode=")" horiz-adv-x="572" 
d="M65 -280q-9 0 -14.5 4t-5.5 11q0 6 3 12q181 413 181 853q0 429 -179 833q-3 6 -3 11q0 16 20 16h232q19 0 28 -16q205 -395 205 -844q0 -239 -53 -448t-155 -415q-7 -17 -27 -17h-232z" />
    <glyph glyph-name="asterisk" unicode="*" horiz-adv-x="781" 
d="M309 806q-24 0 -24 24l7 160l-135 -89q-5 -4 -13 -4q-11 0 -19 12l-79 134q-4 7 -4 13q0 11 13 19l128 68l-131 68q-13 7 -13 19q0 6 3 13l74 146q7 13 19 13q6 0 13 -4l142 -88l-9 166q-1 24 23 24h161q24 0 22 -23l-5 -163l141 94q8 5 14 5q12 0 18 -14l76 -138
q3 -6 3 -13q0 -11 -12 -19l-134 -74l129 -64q13 -6 13 -18q0 -5 -3 -13l-71 -147q-8 -14 -18 -14q-8 0 -13 4l-138 84l10 -157q2 -24 -23 -24h-165z" />
    <glyph glyph-name="plus" unicode="+" horiz-adv-x="1175" 
d="M1044 820q11 0 17.5 -6t6.5 -17v-215q0 -11 -6.5 -17.5t-17.5 -6.5h-319v-364q0 -11 -6.5 -17.5t-17.5 -6.5h-225q-23 0 -23 24v364h-322q-23 0 -23 24v215q0 11 6.5 17t16.5 6h322v367q0 11 6.5 17t16.5 6h225q11 0 17.5 -6t6.5 -17v-367h319z" />
    <glyph glyph-name="comma" unicode="," horiz-adv-x="472" 
d="M22 -255q-21 0 -21 17q0 6 1 9l65 239v296q0 11 6.5 17t17.5 6h296q11 0 17 -6t6 -17v-277q0 -15 -10 -29l-186 -241q-10 -14 -29 -14h-163z" />
    <glyph glyph-name="hyphen" unicode="-" horiz-adv-x="684" 
d="M62 470q-24 0 -24 24v198q0 11 6.5 17t17.5 6h560q11 0 17.5 -6t6.5 -17v-198q0 -11 -6.5 -17.5t-17.5 -6.5h-560z" />
    <glyph glyph-name="hyphen" unicode="&#x2011;" horiz-adv-x="684" 
d="M62 470q-24 0 -24 24v198q0 11 6.5 17t17.5 6h560q11 0 17.5 -6t6.5 -17v-198q0 -11 -6.5 -17.5t-17.5 -6.5h-560z" />
    <glyph glyph-name="hyphen" unicode="&#x2010;" horiz-adv-x="684" 
d="M62 470q-24 0 -24 24v198q0 11 6.5 17t17.5 6h560q11 0 17.5 -6t6.5 -17v-198q0 -11 -6.5 -17.5t-17.5 -6.5h-560z" />
    <glyph glyph-name="hyphen" unicode="&#xad;" horiz-adv-x="684" 
d="M62 470q-24 0 -24 24v198q0 11 6.5 17t17.5 6h560q11 0 17.5 -6t6.5 -17v-198q0 -11 -6.5 -17.5t-17.5 -6.5h-560z" />
    <glyph glyph-name="period" unicode="." horiz-adv-x="482" 
d="M82 0q-11 0 -17.5 6.5t-6.5 17.5v282q0 11 6.5 17t17.5 6h320q11 0 17 -6t6 -17v-282q0 -11 -6 -17.5t-17 -6.5h-320z" />
    <glyph glyph-name="slash" unicode="/" horiz-adv-x="812" 
d="M90 -265q-13 0 -18.5 7t-2.5 19l413 1693q6 21 25 21h213q12 0 17.5 -7t2.5 -19l-413 -1693q-4 -21 -25 -21h-212z" />
    <glyph glyph-name="zero" unicode="0" horiz-adv-x="1291" 
d="M329.5 51q-133.5 84 -206 247.5t-72.5 396.5q0 243 72 408.5t204.5 247.5t315.5 82q182 0 315.5 -81t206.5 -246t73 -411q0 -232 -73 -396t-207 -248t-315 -84q-180 0 -313.5 84zM767.5 289q47.5 44 71.5 143t24 263q0 244 -54 352t-166 108q-76 0 -123.5 -45
t-70.5 -145.5t-23 -269.5q0 -163 24.5 -262t73 -143.5t122.5 -44.5t121.5 44z" />
    <glyph glyph-name="one" unicode="1" horiz-adv-x="834" 
d="M364 0q-23 0 -23 24l9 630l-5 346q-106 -101 -261 -150q-3 -1 -9 -1q-18 0 -18 21v227q0 20 19 26q197 70 285 259q4 10 10.5 14t17.5 4h300q23 0 23 -23l-8 -721l10 -632q0 -24 -23 -24h-327z" />
    <glyph glyph-name="two" unicode="2" horiz-adv-x="1152" 
d="M85 0q-11 0 -17 6.5t-6 17.5v179q0 161 62 266.5t147 164.5t219 125q87 42 136.5 71.5t81.5 71t32 96.5q2 77 -39.5 120t-118.5 43q-76 0 -121.5 -49.5t-51.5 -141.5q-2 -23 -25 -23h-285q-11 0 -17 6.5t-6 17.5q8 223 138.5 341t378.5 119q152 0 259.5 -51t164.5 -147
t59 -229q0 -138 -60.5 -233t-144.5 -151.5t-214 -120.5q-83 -41 -129 -68.5t-76.5 -62.5t-30.5 -80v-20h636q11 0 17.5 -6t6.5 -17v-221q0 -11 -6.5 -17.5t-17.5 -6.5h-972z" />
    <glyph glyph-name="three" unicode="3" horiz-adv-x="1161" 
d="M199 87.5q-132 115.5 -152 338.5q-1 11 5 17.5t18 6.5h300q22 0 24 -23q6 -93 51.5 -144t126.5 -51q80 0 129 55.5t49 149.5q0 92 -56 136.5t-172 44.5h-84q-24 0 -24 24v190q0 23 24 23h84q100 0 153.5 41.5t53.5 111.5q0 75 -43.5 117.5t-108.5 42.5
q-71 0 -112.5 -39.5t-48.5 -118.5q-3 -24 -25 -24h-299q-11 0 -17 6.5t-5 18.5q12 132 79 226t180 142.5t263 48.5q140 0 249 -47.5t170 -133t62 -196.5q0 -116 -57 -187t-155 -104q126 -37 192.5 -119t66.5 -205q0 -146 -75.5 -251t-200.5 -159t-270 -54q-243 0 -375 115.5
z" />
    <glyph glyph-name="four" unicode="4" horiz-adv-x="1236" 
d="M1170 554q11 0 17.5 -6t6.5 -17v-220q0 -11 -6.5 -17.5t-17.5 -6.5h-132v-264q0 -11 -6.5 -17t-17.5 -6h-317q-24 0 -24 23l1 264h-590q-11 0 -17 6.5t-6 17.5v269q0 18 8 30l485 775q9 15 28 15h432q11 0 17.5 -6t6.5 -17v-823h132zM675 554l1 274l7 281l-336 -555h328z
" />
    <glyph glyph-name="five" unicode="5" horiz-adv-x="1210" 
d="M221 71q-131 106 -151 292v4q0 20 22 20h313q22 0 25 -23q18 -144 153 -144q195 0 195 258q0 125 -45 189t-142 64q-65 0 -110.5 -29t-67.5 -86q-7 -19 -26 -19h-269q-11 0 -17.5 6.5t-5.5 18.5l56 756q1 22 24 22h881q11 0 17.5 -6t6.5 -17v-220q0 -11 -6.5 -17.5
t-17.5 -6.5h-586l-22 -205q107 63 255 63q132 0 237 -61.5t164 -172.5t59 -252q0 -165 -72.5 -287t-203 -187.5t-301.5 -65.5q-234 0 -365 106z" />
    <glyph glyph-name="six" unicode="6" horiz-adv-x="1235" 
d="M215 150q-149 183 -149 548q0 234 71.5 399.5t203.5 250.5t313 85q204 0 328.5 -96t153.5 -271q1 -12 -4.5 -18.5t-17.5 -6.5h-315q-20 0 -25 21q-12 51 -47 82t-93 31q-188 0 -193 -329q55 42 117.5 64.5t163.5 22.5q139 0 244.5 -55t163.5 -157t58 -237
q0 -145 -69.5 -263.5t-194.5 -186t-284 -67.5q-276 0 -425 183zM760 292.5q48 57.5 48 165.5q0 107 -44.5 166t-129.5 59q-87 0 -135 -58t-48 -164q0 -108 45.5 -167t129.5 -59q86 0 134 57.5z" />
    <glyph glyph-name="seven" unicode="7" horiz-adv-x="1032" 
d="M269 -2q-12 0 -17.5 6.5t-4.5 18.5q48 318 138 609.5t217 500.5h-545q-11 0 -17.5 6.5t-6.5 17.5v220q0 11 6.5 17t17.5 6h918q11 0 17 -6t6 -17v-238q0 -16 -7 -28q-139 -273 -234.5 -539t-135.5 -552q-3 -22 -24 -22h-328z" />
    <glyph glyph-name="eight" unicode="8" horiz-adv-x="1250" 
d="M334 22q-129 48 -204 143.5t-75 231.5q0 119 63.5 206t190.5 135q-100 41 -156 119t-56 173q0 125 63.5 215t182 137t281.5 47q165 0 284 -47t182.5 -137t63.5 -215q0 -98 -55.5 -173.5t-156.5 -118.5q127 -48 190.5 -135.5t63.5 -205.5q0 -137 -75 -232t-204.5 -143
t-292.5 -48q-161 0 -290 48zM746.5 883.5q44.5 43.5 44.5 126.5q0 82 -43 128.5t-124 46.5q-79 0 -122.5 -46t-43.5 -126q0 -83 44 -128t122 -45t122.5 43.5zM726 244q45 24 70.5 68t25.5 102q0 90 -54 139t-147 49q-90 0 -142 -49.5t-52 -138.5q0 -88 54.5 -141t142.5 -53
q57 0 102 24z" />
    <glyph glyph-name="nine" unicode="9" horiz-adv-x="1235" 
d="M254.5 63q-124.5 96 -153.5 271q-1 12 4.5 18.5t17.5 6.5h315q21 0 25 -21q12 -51 47 -82t93 -31q188 0 193 329q-55 -42 -117.5 -64.5t-163.5 -22.5q-139 0 -244.5 55t-163.5 157t-58 237q0 147 68.5 265t193.5 185t286 67q276 0 425 -182t149 -549q0 -234 -71.5 -399.5
t-203.5 -250.5t-313 -85q-204 0 -328.5 96zM738 775q48 58 48 164q0 108 -45.5 167t-129.5 59q-86 0 -134 -57.5t-48 -165.5q0 -107 44.5 -166t129.5 -59q87 0 135 58z" />
    <glyph glyph-name="colon" unicode=":" horiz-adv-x="483" 
d="M82 0q-11 0 -17.5 6.5t-6.5 17.5v282q0 11 6.5 17t17.5 6h320q11 0 17 -6t6 -17v-282q0 -11 -6 -17.5t-17 -6.5h-320zM82 702q-11 0 -17.5 6.5t-6.5 17.5v282q0 11 6.5 17t17.5 6h320q11 0 17 -6t6 -17v-282q0 -11 -6 -17.5t-17 -6.5h-320z" />
    <glyph glyph-name="semicolon" unicode=";" horiz-adv-x="481" 
d="M22 -255q-21 0 -21 17q0 6 1 9l65 239v296q0 11 6.5 17t17.5 6h296q11 0 17 -6t6 -17v-277q0 -15 -10 -29l-186 -241q-10 -14 -29 -14h-163zM79 701q-11 0 -17.5 6.5t-6.5 17.5v282q0 11 6.5 17t17.5 6h320q11 0 17 -6t6 -17v-282q0 -11 -6 -17.5t-17 -6.5h-320z" />
    <glyph glyph-name="less" unicode="&#x3c;" horiz-adv-x="1175" 
d="M126 550q-18 9 -18 28v222q0 21 18 28l914 405q6 3 11 3q17 0 17 -21v-224q0 -19 -18 -27l-668 -274l668 -275q18 -7 18 -27v-225q0 -21 -17 -21q-5 0 -11 3z" />
    <glyph glyph-name="equal" unicode="=" horiz-adv-x="1175" 
d="M131 813q-23 0 -23 24v215q0 11 6.5 17t16.5 6h913q11 0 17.5 -6t6.5 -17v-215q0 -11 -6.5 -17.5t-17.5 -6.5h-913zM131 303q-23 0 -23 24v215q0 11 6.5 17t16.5 6h913q11 0 17.5 -6t6.5 -17v-215q0 -11 -6.5 -17.5t-17.5 -6.5h-913z" />
    <glyph glyph-name="greater" unicode="&#x3e;" horiz-adv-x="1175" 
d="M135 145q-6 -3 -11 -3q-7 0 -11.5 5.5t-4.5 15.5v225q0 20 18 27l668 275l-668 274q-18 7 -18 27v224q0 10 4.5 15.5t11.5 5.5q5 0 11 -3l915 -405q18 -8 18 -28v-222q0 -18 -18 -28z" />
    <glyph glyph-name="question" unicode="?" horiz-adv-x="1108" 
d="M396 416q-24 0 -24 25q4 108 37 186.5t76.5 127.5t109.5 106q41 36 62 58t35.5 48t14.5 56q0 71 -44.5 109t-121.5 38q-154 0 -168 -165q-2 -23 -24 -23h-294q-11 0 -17.5 6.5t-5.5 17.5q16 206 151.5 313.5t380.5 107.5q144 0 258.5 -50t179.5 -143t65 -217
q0 -75 -23 -129.5t-56.5 -91.5t-89.5 -86q-52 -45 -83 -78.5t-53.5 -81t-26.5 -110.5q-1 -24 -24 -24h-315zM395 0q-11 0 -17.5 6.5t-6.5 17.5v284q0 11 6.5 17t17.5 6h316q11 0 17 -6t6 -17v-284q0 -11 -6 -17.5t-17 -6.5h-316z" />
    <glyph glyph-name="at" unicode="@" horiz-adv-x="1691" 
d="M982 880l-3 56q-1 24 23 24h267q11 0 17 -6t6 -17v-645q0 -83 53 -83q32 0 57.5 32.5t40.5 98t15 160.5q0 221 -75.5 381.5t-215 245t-328.5 84.5q-181 0 -319 -85t-214 -245.5t-76 -379.5q0 -214 76.5 -370t214 -239t318.5 -83q136 0 248 43t187 133q11 14 29 14h157
q10 0 15.5 -4t5.5 -11q0 -6 -5 -14q-112 -160 -276 -245t-361 -85q-232 0 -411 104.5t-279 300t-100 458.5q0 269 100 467t279.5 304t412.5 106q240 0 421 -105.5t280 -304.5t99 -470q0 -145 -44 -249t-119.5 -157.5t-169.5 -53.5q-61 0 -120.5 18t-105 55t-62.5 92
q-48 -79 -123 -121.5t-172 -42.5q-127 0 -217 62t-135.5 170t-45.5 244q0 129 49.5 235.5t141 168t212.5 61.5q159 0 252 -102zM947.5 312q43.5 68 43.5 208q0 255 -166 258q-86 4 -130 -61t-44 -198q0 -137 43 -206t121 -69q89 0 132.5 68z" />
    <glyph glyph-name="A" unicode="A" horiz-adv-x="1442" 
d="M1435 27l2 -9q0 -8 -5.5 -13t-15.5 -5h-335q-21 0 -27 19l-93 303h-489l-88 -302q-6 -20 -27 -20h-332q-10 0 -15.5 4.5t-5.5 12.5q0 2 2 10l464 1354q6 19 26 19h463q20 0 26 -19zM873 611l-163 528l-155 -528h318z" />
    <glyph glyph-name="B" unicode="B" horiz-adv-x="1325" 
d="M101 0q-23 0 -23 24l14 665l-14 688q0 23 23 23h634q232 0 369.5 -85t137.5 -266q0 -121 -58 -194.5t-174 -112.5q136 -30 207 -117t71 -214q0 -138 -76.5 -230.5t-199 -136.5t-264.5 -44h-647zM459 1142l-11 -292h273q76 0 117.5 37.5t41.5 107.5q0 72 -43.5 109.5
t-115.5 37.5h-262zM448 600l11 -342h262q94 0 142 40.5t48 135.5q0 87 -49 126.5t-141 39.5h-273z" />
    <glyph glyph-name="C" unicode="C" horiz-adv-x="1475" 
d="M391.5 60q-164.5 93 -253.5 258t-89 375q0 221 89.5 388.5t252.5 259.5t379 92q257 0 425 -122.5t225 -382.5l1 -6q0 -20 -22 -20h-318q-20 0 -25 21q-55 231 -291 231q-159 0 -244 -118.5t-85 -334.5q0 -218 86 -336.5t247 -118.5q241 0 290 243q4 22 26 22h324
q10 0 15.5 -5.5t5.5 -14.5q0 -5 -1 -8q-57 -263 -224.5 -389.5t-431.5 -126.5q-217 0 -381.5 93z" />
    <glyph glyph-name="D" unicode="D" horiz-adv-x="1434" 
d="M101 0q-23 0 -23 24l13 666l-13 687q0 23 23 23h515q214 0 387.5 -74.5t277.5 -234.5t104 -406q0 -242 -102.5 -395t-274 -221.5t-388.5 -68.5h-519zM449 697l12 -428h175q170 0 267 101.5t97 317.5q0 150 -47 249.5t-130.5 147t-194.5 47.5h-167z" />
    <glyph glyph-name="E" unicode="E" horiz-adv-x="1173" 
d="M101 0q-23 0 -23 24l14 664l-14 689q0 23 23 23h984q11 0 17 -6t6 -17v-221q0 -11 -6 -17.5t-17 -6.5h-627l-9 -263h573q11 0 17 -6t6 -17v-221q0 -11 -6 -17.5t-17 -6.5h-573l9 -332h643q11 0 17 -6t6 -17v-222q0 -11 -6 -17.5t-17 -6.5h-1000z" />
    <glyph glyph-name="F" unicode="F" horiz-adv-x="1115" 
d="M101 0q-23 0 -23 24l14 677l-14 676q0 23 23 23h952q11 0 17 -6t6 -17v-221q0 -11 -6 -17.5t-17 -6.5h-594l-10 -325h578q11 0 17 -6t6 -17v-221q0 -11 -6 -17.5t-17 -6.5h-578l10 -515q0 -24 -23 -24h-335z" />
    <glyph glyph-name="G" unicode="G" horiz-adv-x="1522" 
d="M395.5 60q-164.5 93 -255.5 259.5t-91 380.5q0 218 89.5 384t252 257.5t373.5 91.5q270 0 442.5 -121.5t231.5 -343.5q1 -3 1 -8q0 -8 -5.5 -13t-15.5 -5h-339q-20 0 -26 20q-64 194 -283 194q-166 0 -251 -121t-85 -338q0 -214 87.5 -333.5t255.5 -119.5
q127 0 206.5 69.5t90.5 197.5h-312q-24 0 -24 23v220q0 23 24 23h684q11 0 17 -7.5t6 -21.5q0 -258 -82.5 -432.5t-238.5 -261.5t-375 -87q-213 0 -377.5 93z" />
    <glyph glyph-name="H" unicode="H" horiz-adv-x="1439" 
d="M1347 704l14 -680q0 -24 -23 -24h-338q-23 0 -23 24l9 587h-533l9 -587q0 -24 -23 -24h-338q-23 0 -23 24l14 680l-14 673q0 23 23 23h338q23 0 23 -23l-8 -498h531l-8 498q0 23 23 23h338q23 0 23 -23z" />
    <glyph glyph-name="I" unicode="I" horiz-adv-x="554" 
d="M111 0q-23 0 -23 24l13 669l-13 684q0 23 23 23h332q23 0 23 -23l-13 -684l13 -669q0 -24 -23 -24h-332z" />
    <glyph glyph-name="J" unicode="J" horiz-adv-x="1146" 
d="M272 32q-113 63 -172.5 178.5t-64.5 272.5q0 24 23 24h317q11 0 17.5 -6.5t6.5 -18.5q3 -116 39.5 -172.5t110.5 -56.5q51 0 82 25t45.5 79.5t15.5 147.5l2 383l-10 489q0 23 23 23h344q23 0 23 -23l-9 -489l3 -386q2 -267 -132 -400t-390 -133q-161 0 -274 63z" />
    <glyph glyph-name="K" unicode="K" horiz-adv-x="1332" 
d="M1332 29q5 -6 5 -14q0 -7 -5 -11t-15 -4h-396q-16 0 -28 15l-351 524l-98 -123l5 -392q0 -24 -23 -24h-325q-23 0 -23 24l13 677l-12 676q0 23 23 23h324q23 0 23 -23l-7 -503l355 511q10 15 28 15h374q10 0 15.5 -4t5.5 -10q0 -4 -7 -15l-441 -545z" />
    <glyph glyph-name="L" unicode="L" horiz-adv-x="1035" 
d="M101 0q-23 0 -23 24l13 666l-13 687q0 23 23 23h335q23 0 23 -23l-9 -672l9 -436h527q11 0 17 -6t6 -17v-222q0 -11 -6 -17.5t-17 -6.5h-885z" />
    <glyph glyph-name="M" unicode="M" horiz-adv-x="1765" 
d="M101 0q-23 0 -23 24l11 683l-11 670q0 23 23 23h444q20 0 27 -19l332 -911l307 911q6 19 26 19h427q23 0 23 -23l-11 -670l11 -683q0 -24 -23 -24h-330q-11 0 -17.5 6.5t-6.5 17.5v536l13 352l-302 -893q-6 -19 -26 -19h-245q-20 0 -27 19l-330 910l14 -369v-536
q0 -24 -24 -24h-282z" />
    <glyph glyph-name="N" unicode="N" horiz-adv-x="1414" 
d="M101 0q-23 0 -23 24l11 670l-11 683q0 23 23 23h385q19 0 28 -16l490 -869l-10 259v603q0 23 23 23h295q23 0 23 -23l-11 -683l12 -670q0 -24 -23 -24h-398q-19 0 -28 16l-478 862l11 -299l1 -555q0 -24 -24 -24h-296z" />
    <glyph glyph-name="O" unicode="O" horiz-adv-x="1560" 
d="M395.5 60q-165.5 93 -256 258.5t-90.5 376.5q0 221 89.5 388t254.5 258.5t386 91.5q219 0 384.5 -90t256.5 -257t91 -391q0 -210 -90.5 -375.5t-257 -259t-384.5 -93.5t-383.5 93zM1037.5 364.5q88.5 118.5 88.5 330.5q0 214 -88.5 336.5t-258.5 122.5t-257.5 -120
t-87.5 -339q0 -138 40 -239t118.5 -155.5t189.5 -54.5q167 0 255.5 118.5z" />
    <glyph glyph-name="P" unicode="P" horiz-adv-x="1256" 
d="M660 1400q273 0 416 -117t143 -346q0 -147 -66.5 -254.5t-193 -165.5t-303.5 -58h-202l8 -435q0 -24 -23 -24h-338q-23 0 -23 24l13 667l-13 686q0 23 23 23h559zM803 773.5q56 50.5 56 156.5q0 104 -55.5 155.5t-158.5 51.5h-187l-7 -414h202q94 0 150 50.5z" />
    <glyph glyph-name="Q" unicode="Q" horiz-adv-x="1576" 
d="M1510 278q11 0 17 -6t6 -17v-231q0 -11 -6 -17.5t-17 -6.5h-496q-109 -33 -239 -33q-218 0 -383.5 93t-256 258.5t-90.5 376.5q0 221 89.5 388t254.5 258.5t386 91.5q219 0 384.5 -90t256.5 -257t91 -391q0 -120 -30.5 -226t-88.5 -194l56 3h66zM470 456
q40 -101 118.5 -155.5t189.5 -54.5q167 0 255.5 118.5t88.5 330.5q0 214 -88.5 336.5t-258.5 122.5t-257.5 -120t-87.5 -339q0 -138 40 -239z" />
    <glyph glyph-name="R" unicode="R" horiz-adv-x="1345" 
d="M1317 28q5 -8 5 -14t-5.5 -10t-14.5 -4h-379q-19 0 -29 16l-201 335l-94 141h-148l8 -468q0 -24 -23 -24h-335q-23 0 -23 24l11 665l-11 688q0 23 23 23h603q282 0 431.5 -115t149.5 -340q0 -148 -77 -253t-222 -155zM456 1137l-6 -382h274q84 0 142.5 45t58.5 137
q0 200 -211 200h-258z" />
    <glyph glyph-name="S" unicode="S" horiz-adv-x="1364" 
d="M369 18q-142 54 -225.5 160t-99.5 260q-1 12 5 18.5t17 6.5h334q22 0 26 -21q19 -104 85 -155.5t197 -51.5q118 0 178 35t60 110q0 51 -40.5 82.5t-103.5 48.5t-173 38q-174 33 -285.5 71t-192.5 127t-81 245q0 134 67.5 233.5t199 153.5t318.5 54q260 0 421.5 -102
t198.5 -319l1 -6q0 -9 -6 -14t-17 -5h-335q-11 0 -17 5.5t-8 16.5q-13 73 -75.5 112t-167.5 39q-95 0 -151.5 -32t-56.5 -99q0 -47 40 -76.5t100.5 -45.5t172.5 -37q175 -32 289.5 -69.5t197 -125.5t82.5 -243q0 -149 -74 -254t-214 -159.5t-334 -54.5q-191 0 -333 54z" />
    <glyph glyph-name="T" unicode="T" horiz-adv-x="1231" 
d="M443 0q-23 0 -23 24l15 680l-10 428h-371q-11 0 -17 6.5t-6 17.5v221q0 11 6.5 17t16.5 6h1122q11 0 17.5 -6t6.5 -17v-221q0 -11 -6.5 -17.5t-17.5 -6.5h-370l-10 -428l15 -680q0 -24 -23 -24h-345z" />
    <glyph glyph-name="U" unicode="U" horiz-adv-x="1337" 
d="M229.5 107q-153.5 140 -152.5 408l1 349l-8 513q0 23 23 23h344q23 0 23 -23l-9 -503l2 -356q1 -134 55 -198t167 -64q126 0 186 64t60 198v348l-7 511q0 23 23 23h306q23 0 23 -23l-6 -513v-349q0 -270 -147.5 -409t-437.5 -139q-292 0 -445.5 140z" />
    <glyph glyph-name="V" unicode="V" horiz-adv-x="1362" 
d="M5 1373q-1 3 -1 9q0 18 21 18h366q21 0 26 -20l292 -1037l281 1037q6 20 27 20h319q10 0 15.5 -5t5.5 -13q0 -6 -1 -9l-419 -1354q-6 -19 -27 -19h-447q-20 0 -26 19z" />
    <glyph glyph-name="W" unicode="W" horiz-adv-x="1908" 
d="M22 1374q-1 3 -1 8q0 8 6 13t16 5h327q22 0 26 -21l180 -947l189 947q5 21 26 21h348q21 0 25 -21l201 -956l175 956q5 21 26 21h299q13 0 18.5 -7t2.5 -19l-309 -1353q-6 -21 -26 -21h-383q-22 0 -25 21l-194 840l-183 -840q-4 -21 -26 -21h-388q-22 0 -25 21z" />
    <glyph glyph-name="X" unicode="X" horiz-adv-x="1352" 
d="M33 0q-9 0 -14.5 4t-5.5 10t5 14l438 696l-411 648q-5 8 -5 14t5.5 10t14.5 4h380q19 0 28 -16l214 -373l215 373q10 16 29 16h362q10 0 15.5 -4t5.5 -11q0 -5 -5 -13l-412 -646l443 -698q5 -8 5 -13q0 -7 -5.5 -11t-15.5 -4h-381q-19 0 -28 16l-241 434l-245 -434
q-10 -16 -28 -16h-363z" />
    <glyph glyph-name="Y" unicode="Y" horiz-adv-x="1311" 
d="M3 1372q-3 6 -3 12q0 16 20 16h372q20 0 27 -18l250 -579l253 579q7 18 27 18h342q20 0 20 -16q0 -6 -3 -12l-469 -917l9 -431q0 -24 -23 -24h-338q-23 0 -23 24l10 429z" />
    <glyph glyph-name="Z" unicode="Z" horiz-adv-x="1257" 
d="M74 0q-11 0 -17.5 6.5t-6.5 17.5v255q0 17 11 29l700 824h-633q-11 0 -17.5 6.5t-6.5 17.5v221q0 11 6.5 17t17.5 6h1058q11 0 17 -6t6 -17v-266q0 -15 -10 -29l-685 -813h669q11 0 17 -6t6 -17v-222q0 -11 -6 -17.5t-17 -6.5h-1109z" />
    <glyph glyph-name="bracketleft" unicode="[" horiz-adv-x="641" 
d="M89 -280q-24 0 -24 23v1694q0 23 24 23h469q11 0 17 -6t6 -17v-221q0 -11 -6 -17.5t-17 -6.5h-185v-1203h185q11 0 17 -6.5t6 -17.5v-222q0 -11 -6 -17t-17 -6h-469z" />
    <glyph glyph-name="backslash" unicode="\" horiz-adv-x="811" 
d="M507 -265q-19 0 -25 21l-413 1693q-1 3 -1 8q0 8 6 13t16 5h212q21 0 25 -21l413 -1693q1 -3 1 -8q0 -8 -5.5 -13t-15.5 -5h-213z" />
    <glyph glyph-name="bracketright" unicode="]" horiz-adv-x="641" 
d="M84 -280q-24 0 -24 23v222q0 11 6.5 17.5t17.5 6.5h183v1203h-183q-11 0 -17.5 6.5t-6.5 17.5v221q0 11 6.5 17t17.5 6h469q11 0 17 -6t6 -17v-1694q0 -11 -6 -17t-17 -6h-469z" />
    <glyph glyph-name="asciicircum" unicode="^" horiz-adv-x="1190" 
d="M56 408q-9 0 -14.5 4t-5.5 11q0 6 3 12l413 947q8 18 27 18h230q19 0 27 -18l412 -947q3 -6 3 -12q0 -7 -5.5 -11t-14.5 -4h-225q-19 0 -27 18l-285 702l-285 -702q-7 -18 -27 -18h-226z" />
    <glyph glyph-name="underscore" unicode="_" horiz-adv-x="895" 
d="M65 -340q-11 0 -17 6t-6 17v197q0 24 23 24h763q11 0 17.5 -6.5t6.5 -17.5v-197q0 -23 -24 -23h-763z" />
    <glyph glyph-name="grave" unicode="`" horiz-adv-x="818" 
d="M670 1123q-6 -22 -28 -17l-518 114q-18 5 -18 21q0 5 1 8l66 219q6 16 20 16q6 0 10 -2l494 -199q16 -7 16 -21q0 -6 -1 -9z" />
    <glyph glyph-name="a" unicode="a" horiz-adv-x="1218" 
d="M1144 516l9 -492q0 -24 -23 -24h-310q-25 0 -24 24l4 92q-55 -66 -131.5 -101t-172.5 -35q-141 0 -242.5 69.5t-153.5 190t-52 272.5q0 149 57.5 272t163 194.5t243.5 71.5q180 0 283 -120l-5 76q-1 24 22 24h318q23 0 23 -23zM752 289q50 74 50 230q0 149 -48.5 223
t-143.5 74t-145 -74.5t-50 -221.5q0 -155 48.5 -230t141.5 -75q97 0 147 74z" />
    <glyph glyph-name="b" unicode="b" horiz-adv-x="1218" 
d="M965.5 980.5q101.5 -69.5 153.5 -190t52 -272.5q0 -149 -57.5 -272t-163 -194.5t-243.5 -71.5q-89 0 -161 30.5t-123 89.5l5 -76q2 -24 -23 -24h-317q-23 0 -23 24l10 649l-10 704q0 23 23 23h320q24 0 24 -23l-6 -454q54 61 129 94t168 33q141 0 242.5 -69.5zM754 291
q50 75 50 221q0 152 -49 226.5t-142 74.5q-97 0 -146.5 -73t-49.5 -227q0 -297 192 -297q95 0 145 75z" />
    <glyph glyph-name="c" unicode="c" horiz-adv-x="1132" 
d="M302 38q-122 66 -188 188t-66 286t66 287.5t188.5 191t287.5 67.5q138 0 243.5 -47.5t167.5 -133.5t76 -200q1 -12 -5 -18.5t-18 -6.5h-286q-22 0 -26 22q-14 73 -52 108.5t-94 35.5q-91 -1 -135 -73t-44 -230q0 -162 44.5 -233.5t135.5 -71.5q62 0 103.5 41t50.5 120
q3 23 24 23h293q12 0 18 -5.5t5 -15.5q-12 -116 -79 -207t-177 -142.5t-247 -51.5q-164 0 -286 66z" />
    <glyph glyph-name="d" unicode="d" horiz-adv-x="1218" 
d="M1145 673l9 -649q0 -24 -24 -24h-311q-25 0 -24 24l5 91q-55 -65 -131.5 -100t-172.5 -35q-141 0 -242.5 69.5t-153.5 190t-52 272.5q0 149 57.5 272t163 194.5t243.5 71.5q178 0 281 -117l-4 444q0 23 23 23h318q24 0 24 -23zM752 288q50 74 50 230q0 150 -48.5 224.5
t-143.5 74.5t-145 -75t-50 -223q0 -155 48.5 -230t141.5 -75q97 0 147 74z" />
    <glyph glyph-name="e" unicode="e" horiz-adv-x="1174" 
d="M407 440q9 -125 55.5 -178t133.5 -53q127 0 163 119q8 20 26 20h298q12 0 18.5 -4t5.5 -12q-16 -93 -80.5 -175.5t-175 -133.5t-255.5 -51q-169 0 -293 68t-189.5 190t-65.5 282q0 164 66.5 288t187.5 191t282 67q260 0 401 -153.5t147 -440.5q0 -24 -24 -24h-701z
M475 785.5q-44 -42.5 -61 -138.5h343q-5 79 -47.5 130t-117.5 51q-73 0 -117 -42.5z" />
    <glyph glyph-name="f" unicode="f" horiz-adv-x="843" 
d="M210 0q-23 0 -23 24l10 425v330h-129q-11 0 -17.5 6.5t-6.5 17.5v204q0 23 24 23h129v46q0 119 51 195t136 111t191 35q83 0 200 -17q21 -4 21 -26v-201q0 -13 -7 -18t-18 -2q-45 9 -106 9q-58 0 -87 -24t-29 -87v-21h225q11 0 17 -6t6 -17v-204q0 -24 -23 -24h-225v-330
l11 -425q0 -24 -23 -24h-327z" />
    <glyph glyph-name="g" unicode="g" horiz-adv-x="1215" 
d="M262.5 87q-105.5 67 -160 182.5t-54.5 261.5q0 142 57.5 260t163 187t243.5 69q177 0 282 -108l-4 67q-1 24 23 24h312q24 0 24 -23l-7 -514l3 -477q1 -128 -61.5 -222.5t-183 -145.5t-289.5 -51q-146 -3 -261 35.5t-183.5 117t-76.5 190.5q-1 11 5.5 17.5t17.5 6.5h308
q21 0 25 -21q11 -50 54 -78.5t117 -28.5q85 0 133.5 46.5t48.5 138.5v117q-52 -57 -123.5 -87.5t-159.5 -30.5q-148 0 -253.5 67zM802 535q0 140 -49 210t-143 70q-95 0 -145 -70.5t-50 -208.5q0 -144 48.5 -213.5t141.5 -69.5q197 0 197 282z" />
    <glyph glyph-name="h" unicode="h" horiz-adv-x="1170" 
d="M1007.5 946.5q96.5 -107.5 95.5 -309.5l-1 -222l8 -391q2 -24 -22 -24h-323q-24 0 -23 24l9 389l-2 223q-1 80 -33.5 118.5t-90.5 38.5q-46 0 -88 -29t-72.5 -88.5t-39.5 -147.5l9 -504q0 -24 -22 -24h-322q-24 0 -24 24l10 587l-7 766q0 23 24 23h308q22 0 22 -23
l-7 -465q49 69 129 105.5t187 36.5q179 0 275.5 -107.5z" />
    <glyph glyph-name="i" unicode="i" horiz-adv-x="512" 
d="M96 0q-23 0 -23 24l8 481l-8 502q0 23 23 23h320q23 0 23 -23l-7 -502l7 -481q0 -24 -23 -24h-320zM97 1110q-24 0 -24 24v243q0 11 6.5 17t17.5 6h318q10 0 16.5 -6t6.5 -17v-243q0 -11 -6 -17.5t-17 -6.5h-318z" />
    <glyph glyph-name="j" unicode="j" horiz-adv-x="512" 
d="M95 -340q-24 0 -24 23l11 683l-11 641q0 23 24 23h323q23 0 23 -23l-11 -641l11 -683q0 -23 -23 -23h-323zM97 1110q-24 0 -24 24v243q0 11 6.5 17t17.5 6h318q10 0 16.5 -6t6.5 -17v-243q0 -11 -6 -17.5t-17 -6.5h-318z" />
    <glyph glyph-name="k" unicode="k" horiz-adv-x="1110" 
d="M1097 28q4 -7 4 -13q0 -7 -5 -11t-15 -4h-364q-19 0 -28 17l-190 376l-77 -101l3 -268q0 -24 -23 -24h-313q-23 0 -23 24l12 679l-12 674q0 23 23 23h313q23 0 23 -23l-8 -664v-31l253 334q10 14 28 14h334q9 0 14.5 -4t5.5 -10q0 -8 -7 -15l-296 -338z" />
    <glyph glyph-name="l" unicode="l" horiz-adv-x="503" 
d="M97 0q-24 0 -24 24l10 672l-10 681q0 23 24 23h310q23 0 23 -23l-10 -682l10 -671q0 -24 -23 -24h-310z" />
    <glyph glyph-name="m" unicode="m" horiz-adv-x="1709" 
d="M1644 403l6 -379q0 -24 -23 -24h-322q-24 0 -23 24l8 379v235q0 77 -26.5 116t-73.5 39q-39 0 -72.5 -32t-55.5 -94.5t-26 -150.5v-7v-106l7 -379q2 -24 -23 -24h-321q-24 0 -24 24l8 379v235q0 78 -26 116.5t-74 38.5q-42 0 -77 -36.5t-56.5 -108.5t-21.5 -174v-72
l8 -378q0 -24 -23 -24h-324q-23 0 -23 24l9 421l-6 562q0 23 24 23h301q24 0 24 -24l-5 -101q51 76 128.5 112.5t175.5 36.5q208 0 281 -163q53 88 129.5 125.5t175.5 37.5q164 0 252.5 -102t88.5 -288v-261z" />
    <glyph glyph-name="n" unicode="n" horiz-adv-x="1171" 
d="M1104 437l7 -413q0 -24 -24 -24h-319q-23 0 -23 24l6 413v201q0 73 -35 114t-92 41q-54 0 -98 -37.5t-70 -109.5t-26 -173v-38l5 -411q0 -24 -24 -24h-321q-22 0 -22 24l8 483l-5 500q0 23 24 23h299q24 0 24 -24l-5 -101q51 73 137 111t189 38q114 0 196 -48t125.5 -136
t43.5 -206v-227z" />
    <glyph glyph-name="o" unicode="o" horiz-adv-x="1192" 
d="M303 38q-124 66 -189.5 187.5t-65.5 286.5t65.5 288t189.5 190.5t295 67.5q172 0 295 -65.5t187 -187t64 -286.5t-64.5 -288.5t-187.5 -191t-294 -67.5t-295 66zM699 239.5q39 29.5 58 95.5t19 177q0 162 -44 235.5t-136 73.5q-95 -2 -138.5 -75.5t-43.5 -236.5
q0 -160 45 -229.5t139 -69.5q62 0 101 29.5z" />
    <glyph glyph-name="p" unicode="p" horiz-adv-x="1218" 
d="M965.5 980.5q101.5 -69.5 153.5 -190t52 -272.5q0 -149 -57.5 -272t-163 -194.5t-243.5 -71.5q-176 0 -278 113l6 -410q0 -23 -24 -23h-323q-23 0 -23 23l10 718l-10 606q0 23 23 23h312q25 0 23 -24l-4 -91q55 65 131.5 100t172.5 35q141 0 242.5 -69.5zM753.5 288.5
q50.5 73.5 50.5 221.5q0 303 -193 303q-194 0 -194 -302q0 -147 47.5 -221.5t140.5 -74.5q98 0 148.5 73.5z" />
    <glyph glyph-name="q" unicode="q" horiz-adv-x="1218" 
d="M795 937l-4 69v4q0 20 22 20h317q24 0 24 -23l-10 -687l9 -637q0 -23 -23 -23h-318q-23 0 -23 23l1 416q-53 -58 -125.5 -88.5t-160.5 -30.5q-145 0 -248 69t-155.5 190t-52.5 273q0 149 57.5 272t163 194.5t243.5 71.5q178 0 283 -113zM753.5 290q48.5 74 48.5 224
q0 145 -48 222t-140 77q-96 0 -147.5 -68.5t-51.5 -221.5q0 -159 49 -233t143 -74q98 0 146.5 74z" />
    <glyph glyph-name="r" unicode="r" horiz-adv-x="849" 
d="M88 0q-23 0 -23 24l11 487l-11 496q0 23 23 23h311q24 0 24 -24l-7 -142q60 86 149.5 129.5t197.5 43.5q18 0 35 -3q22 -5 22 -26v-217q0 -23 -19 -23l-25 1q-108 0 -188.5 -41t-123.5 -122.5t-39 -197.5l2 -384q0 -24 -24 -24h-315z" />
    <glyph glyph-name="s" unicode="s" horiz-adv-x="1112" 
d="M311.5 14q-117.5 39 -188 116t-79.5 188q-1 11 5.5 17.5t17.5 6.5h304q21 0 24 -23q9 -64 53.5 -95t126.5 -31q151 0 151 94q0 30 -27.5 47.5t-70 27t-118.5 21.5q-135 20 -223.5 46.5t-153.5 93.5t-65 189q0 108 57 185t161 117.5t245 40.5q211 0 340.5 -82t154.5 -240
q1 -12 -5 -18.5t-18 -6.5h-288q-20 0 -25 21q-27 110 -153 110q-127 0 -127 -90q0 -32 28 -50.5t70.5 -28t122.5 -21.5q134 -19 221.5 -44.5t152 -92.5t64.5 -190q0 -107 -62.5 -185.5t-173.5 -120t-254 -41.5q-150 0 -267.5 39z" />
    <glyph glyph-name="t" unicode="t" horiz-adv-x="814" 
d="M354.5 14q-83.5 36 -134 114t-50.5 198l2 337l1 116h-111q-11 0 -17.5 6.5t-6.5 17.5v204q0 23 24 23h110l-2 235q0 23 23 23h314q24 0 24 -23l-3 -235h221q11 0 17 -6t6 -17v-204q0 -24 -23 -24h-221v-115l2 -320q0 -63 26.5 -87.5t73.5 -24.5q56 0 113 17q3 1 8 1
q8 0 13 -5.5t5 -15.5v-184q0 -20 -18 -27q-110 -40 -209 -40q-104 0 -187.5 36z" />
    <glyph glyph-name="u" unicode="u" horiz-adv-x="1171" 
d="M235.5 24.5q-82.5 48.5 -125.5 138.5t-43 213v217l-7 414q0 23 24 23h319q23 0 23 -23l-7 -414v-209q0 -68 35 -107.5t91 -39.5q51 0 95 32.5t72.5 104t28.5 183.5v38l-5 412q0 23 24 23h321q22 0 22 -23l-8 -484l5 -499q0 -24 -24 -24h-299q-24 0 -24 24l5 101
q-54 -74 -138.5 -111.5t-187.5 -37.5q-114 0 -196.5 48.5z" />
    <glyph glyph-name="v" unicode="v" horiz-adv-x="1116" 
d="M-5 1003l-2 9q0 8 5.5 13t15.5 5h348q21 0 26 -20l184 -707l207 707q6 20 27 20h296q10 0 15.5 -5t5.5 -13l-2 -9l-332 -990q-6 -19 -27 -19h-410q-20 0 -26 19z" />
    <glyph glyph-name="w" unicode="w" horiz-adv-x="1540" 
d="M18 1004q-1 3 -1 7q0 8 6 13.5t16 5.5h303q24 0 25 -22l88 -662l126 663q5 21 26 21h355q20 0 25 -21l118 -648l96 647q3 22 25 22h275q12 0 17.5 -7.5t3.5 -18.5l-219 -983q-4 -21 -25 -21h-353q-21 0 -25 21l-143 662l-123 -662q-4 -21 -25 -21h-351q-21 0 -25 21z" />
    <glyph glyph-name="x" unicode="x" horiz-adv-x="1062" 
d="M28 0q-10 0 -15 4t-5 11q0 6 4 13l285 510l-272 464q-4 7 -4 13q0 7 5.5 11t15.5 4h342q19 0 28 -17l139 -293l133 292q7 18 27 18h309q10 0 15 -4t5 -11q0 -6 -4 -13l-266 -473l280 -501q4 -7 4 -13q0 -7 -5 -11t-15 -4h-351q-19 0 -27 18l-140 295l-143 -295
q-9 -18 -28 -18h-317z" />
    <glyph glyph-name="y" unicode="y" horiz-adv-x="1107" 
d="M754 1010q5 20 26 20h313q21 0 21 -17q0 -2 -2 -10l-452 -1324q-6 -19 -26 -19h-295q-10 0 -15.5 4.5t-5.5 12.5q0 2 2 10l94 282l-417 1034q-3 6 -3 11q0 16 22 16h355q20 0 26 -19l195 -580z" />
    <glyph glyph-name="z" unicode="z" horiz-adv-x="1025" 
d="M87 0q-23 0 -23 24v211q0 15 10 29l417 515h-363q-23 0 -23 24v204q0 11 6 17t17 6h779q11 0 17.5 -6t6.5 -17v-218q0 -15 -11 -29l-421 -508h440q11 0 17.5 -6t6.5 -17v-205q0 -11 -6.5 -17.5t-17.5 -6.5h-852z" />
    <glyph glyph-name="braceleft" unicode="{" horiz-adv-x="640" 
d="M478 1192q-46 0 -71.5 -26.5t-25.5 -75.5q0 -40 18 -93l46 -132q14 -39 14 -79q0 -62 -34 -114.5t-105 -81.5q71 -30 104.5 -83.5t33.5 -115.5q0 -39 -13 -76l-42 -120q-21 -60 -21 -104q0 -51 25.5 -77t70.5 -26h86q11 0 17.5 -6.5t6.5 -17.5v-221q0 -11 -6.5 -17
t-17.5 -6h-88q-127 0 -216 45t-133.5 123.5t-44.5 178.5q0 78 27 162l41 125q10 30 10 51q0 55 -55 55h-34q-23 0 -23 24v213q0 11 6.5 17t16.5 6h34q29 0 42 14.5t13 39.5q0 22 -10 52l-45 138q-25 76 -25 148q0 101 47.5 180t137 123.5t211.5 44.5h88q11 0 17.5 -6
t6.5 -17v-221q0 -11 -6.5 -17.5t-17.5 -6.5h-86z" />
    <glyph glyph-name="bar" unicode="|" horiz-adv-x="424" 
d="M105 -280q-10 0 -16.5 6t-6.5 17v1694q0 11 6 17t17 6h213q11 0 17.5 -6t6.5 -17v-1694q0 -23 -24 -23h-213z" />
    <glyph glyph-name="braceright" unicode="}" horiz-adv-x="640" 
d="M593 484q0 -11 -6.5 -17.5t-17.5 -6.5h-33q-55 0 -55 -55q0 -21 10 -51l41 -125q27 -84 27 -162q0 -100 -44.5 -178.5t-133.5 -123.5t-216 -45h-89q-10 0 -16.5 6t-6.5 17v221q0 11 6 17.5t17 6.5h87q45 0 70.5 26t25.5 77q0 44 -21 104l-42 120q-13 37 -13 76
q0 62 33.5 115.5t103.5 83.5q-71 29 -104.5 81t-33.5 114q0 41 14 80l46 132q18 53 18 93q0 49 -25.5 75.5t-71.5 26.5h-87q-11 0 -17 6.5t-6 17.5v221q0 11 6.5 17t16.5 6h89q122 0 211.5 -44.5t137 -123.5t47.5 -180q0 -72 -25 -148l-45 -138q-10 -30 -10 -52
q0 -25 13 -39.5t42 -14.5h33q11 0 17.5 -6t6.5 -17v-213z" />
    <glyph glyph-name="asciitilde" unicode="~" horiz-adv-x="1180" 
d="M89 537q-23 0 -23 24q4 219 85 350.5t241 131.5q72 0 127 -26t91.5 -61t79.5 -87q33 -39 52 -56.5t38 -17.5q47 0 65 53.5t20 154.5q0 24 23 24h204q24 0 24 -24q-5 -218 -84.5 -337.5t-233.5 -119.5q-66 0 -118 24t-87.5 56.5t-79.5 82.5q-39 45 -63.5 65.5t-50.5 20.5
q-45 0 -63.5 -61t-19.5 -173q0 -24 -24 -24h-203z" />
    <glyph glyph-name="exclamdown" unicode="&#xa1;" horiz-adv-x="493" 
d="M402 1030q11 0 17 -6t6 -17v-284q0 -11 -6 -17.5t-17 -6.5h-309q-11 0 -17.5 6.5t-6.5 17.5v284q0 11 6.5 17t17.5 6h309zM402 614q11 0 17 -6t6 -17v-938q0 -11 -6 -17t-17 -6h-309q-11 0 -17.5 6t-6.5 17v938q0 11 6.5 17t17.5 6h309z" />
    <glyph glyph-name="cent" unicode="&#xa2;" horiz-adv-x="1149" 
d="M1083 594q12 0 18 -5.5t5 -15.5q-13 -130 -95 -228t-213 -142v-179q0 -11 -6.5 -17.5t-17.5 -6.5h-318q-23 0 -23 24v169q-115 30 -198.5 101.5t-127.5 178t-44 239.5q0 134 44 241t127.5 179.5t198.5 103.5v136q0 11 6.5 17t16.5 6h318q11 0 17.5 -6t6.5 -17v-142
q126 -40 202.5 -132.5t91.5 -220.5q1 -12 -5 -18.5t-18 -6.5h-286q-22 0 -26 22q-14 73 -52 108.5t-94 35.5q-91 -1 -135 -73t-44 -230q0 -162 44.5 -233.5t135.5 -71.5q62 0 103.5 41t50.5 120q3 23 24 23h293z" />
    <glyph glyph-name="sterling" unicode="&#xa3;" horiz-adv-x="1303" 
d="M1244 513q12 0 18 -7.5t5 -22.5q-7 -261 -138.5 -384t-360.5 -117l-689 17q-10 0 -16.5 7t-6.5 18v214q0 22 20 26l38 9q64 13 90 61t30 121q1 66 -23 177h-173q-23 0 -23 24v196q0 11 6 17t17 6h117q-16 85 -16 135q0 125 62.5 220.5t182 149t285.5 53.5
q226 0 370.5 -103t175.5 -333q1 -12 -5 -18.5t-18 -6.5h-308q-21 0 -25 23q-24 160 -182 160q-80 0 -120.5 -45t-40.5 -114q0 -52 12 -121h241q11 0 17.5 -6t6.5 -17v-196q0 -24 -24 -24h-194q11 -73 11 -125q0 -43 -16 -89.5t-51.5 -87t-92.5 -61.5l309 -8q68 -1 105 26.5
t50 77t15 125.5q0 11 6 17t17 6h316z" />
    <glyph glyph-name="currency" unicode="&#xa4;" horiz-adv-x="1231" 
d="M1162 307q8 -8 8 -15q0 -8 -9 -17l-129 -127q-7 -7 -16 -7t-17 7l-180 176q-95 -46 -201 -46t-198 45l-178 -175q-7 -7 -16 -7t-17 7l-130 127q-9 9 -9 17q0 7 8 15l167 164q-68 100 -68 215q0 57 17 111.5t49 100.5l-170 167q-8 8 -8 15q0 8 9 17l129 127q10 8 17 8
q8 0 16 -8l180 -176q97 46 202 46q104 0 198 -44l177 174q10 8 17 8q8 0 16 -8l130 -127q9 -9 9 -17q0 -7 -8 -15l-166 -163q69 -99 69 -216q0 -57 -17.5 -111.5t-49.5 -100.5zM714 500q46 27 74 75.5t28 110.5q0 63 -28 111.5t-73.5 75t-96.5 26.5q-53 0 -98.5 -26.5
t-72 -74.5t-26.5 -112q0 -62 27 -110.5t72 -75.5t98 -27q50 0 96 27z" />
    <glyph glyph-name="yen" unicode="&#xa5;" horiz-adv-x="1299" 
d="M1279 1400q9 0 14.5 -4t5.5 -10t-5 -14l-340 -562h152q11 0 17.5 -6t6.5 -17v-190q0 -11 -6.5 -17.5t-17.5 -6.5h-278l2 -125h276q11 0 17.5 -6t6.5 -17v-190q0 -11 -6.5 -17.5t-17.5 -6.5h-271l4 -187q0 -24 -23 -24h-333q-23 0 -23 24l5 187h-272q-23 0 -23 24v190
q0 11 6.5 17t16.5 6h278l3 125h-281q-23 0 -23 24v190q0 11 6.5 17t16.5 6h154l-342 562q-5 8 -5 13q0 7 5.5 11t15.5 4h361q19 0 27 -17l256 -533l255 533q9 17 28 17h331z" />
    <glyph glyph-name="brokenbar" unicode="&#xa6;" horiz-adv-x="424" 
d="M105 720q-11 0 -17 6.5t-6 17.5v693q0 11 6 17t17 6h213q11 0 17.5 -6t6.5 -17v-693q0 -24 -24 -24h-213zM105 -280q-10 0 -16.5 6t-6.5 17v694q0 11 6 17t17 6h213q11 0 17.5 -6t6.5 -17v-694q0 -23 -24 -23h-213z" />
    <glyph glyph-name="section" unicode="&#xa7;" horiz-adv-x="1330" 
d="M1215.5 158.5q54.5 -70.5 54.5 -180.5q0 -124 -75 -213t-206 -135t-297 -46q-173 0 -313 41.5t-224.5 121t-93.5 190.5q-1 11 5.5 17t17.5 6h304q20 0 24 -22q10 -64 80 -94.5t200 -30.5q118 0 177 26t59 76q0 42 -38.5 68.5t-97.5 41t-166 33.5q-12 1 -31 5
q-154 27 -259 62t-178 111t-73 205q0 99 54 171t157 115q-99 43 -155 110.5t-56 170.5q0 129 67 219t192.5 136.5t301.5 46.5q256 0 408.5 -90.5t173.5 -261.5q1 -12 -5 -18.5t-17 -6.5h-290q-19 0 -25 21q-17 64 -76.5 98t-173.5 34q-214 0 -214 -120q0 -41 36 -66
t93 -39.5t153 -29.5l27 -4q166 -26 272.5 -55.5t184 -100.5t77.5 -197q0 -100 -54 -177t-152 -126q97 -42 151.5 -112.5zM467 428.5q40 -27.5 100.5 -42.5t169.5 -33q97 25 144 58.5t47 80.5q0 42 -38.5 68.5t-97.5 42.5t-165 37q-105 -25 -152.5 -57t-47.5 -82
q0 -45 40 -72.5z" />
    <glyph glyph-name="dieresis" unicode="&#xa8;" horiz-adv-x="904" 
d="M124 1110q-11 0 -17.5 6.5t-6.5 17.5v243q0 11 6.5 17t17.5 6h247q11 0 17 -6t6 -17v-243q0 -11 -6 -17.5t-17 -6.5h-247zM534 1110q-11 0 -17.5 6.5t-6.5 17.5v243q0 11 6.5 17t17.5 6h247q11 0 17 -6t6 -17v-243q0 -11 -6 -17.5t-17 -6.5h-247z" />
    <glyph glyph-name="copyright" unicode="&#xa9;" horiz-adv-x="1532" 
d="M384.5 60q-164.5 93 -254.5 258.5t-90 376.5q0 221 89 388t253 258.5t383 91.5q217 0 381.5 -90t255 -257t90.5 -391q0 -210 -90 -375.5t-255 -259t-382 -93.5q-216 0 -380.5 93zM1080.5 168q128.5 72 194 206t65.5 321q0 186 -65.5 323t-194.5 211.5t-315 74.5
q-188 0 -315.5 -72.5t-192 -209t-64.5 -327.5q0 -186 66 -320.5t195 -206.5t314 -72q184 0 312.5 72zM544.5 302q-102.5 59 -158 162t-55.5 232q0 139 55.5 245t157.5 164.5t236 58.5q155 0 259 -70t145 -232q1 -3 1 -8q0 -8 -6 -13t-16 -5h-172q-20 0 -26 20
q-41 137 -187 137q-105 0 -160 -76t-55 -218q0 -134 55.5 -210.5t156.5 -76.5q81 0 126.5 40t67.5 119q6 20 26 20h176q21 0 21 -20l-2 -12q-44 -169 -145 -242.5t-262 -73.5q-136 0 -238.5 59z" />
    <glyph glyph-name="ordfeminine" unicode="&#xaa;" horiz-adv-x="967" 
d="M902 1039l5 -392q0 -24 -24 -24h-243q-24 0 -23 24l2 52q-89 -94 -231 -94q-107 0 -184 53.5t-116.5 146.5t-39.5 210q0 112 43.5 204.5t124 146.5t185.5 54q133 0 213 -78l-2 37q-1 24 23 24h249q23 0 23 -23zM621 1021q0 210 -133 210q-139 0 -139 -219
q0 -110 34.5 -163.5t98.5 -53.5q139 0 139 226z" />
    <glyph glyph-name="guillemotleft" unicode="&#xab;" horiz-adv-x="1174" 
d="M386 101q-18 0 -28 14l-294 364q-7 8 -7 16q0 9 6 16l295 386q10 14 29 14h240q10 0 15.5 -4t5.5 -10q0 -4 -7 -15l-296 -387l295 -365q6 -7 6 -15q0 -14 -19 -14h-241zM854 101q-18 0 -28 14l-294 364q-7 8 -7 16q0 9 6 16l295 386q10 14 29 14h240q10 0 15.5 -4
t5.5 -10q0 -4 -7 -15l-296 -387l295 -365q6 -7 6 -15q0 -14 -19 -14h-241z" />
    <glyph glyph-name="logicalnot" unicode="&#xac;" horiz-adv-x="1190" 
d="M139 558q-24 0 -24 24v215q0 11 6.5 17t17.5 6h913q11 0 17 -6t6 -17v-603q0 -11 -6 -17.5t-17 -6.5h-225q-24 0 -24 24v364h-664z" />
    <glyph glyph-name="registered" unicode="&#xae;" horiz-adv-x="822" 
d="M221 728q-83 47 -128 131t-45 191q0 113 44.5 197.5t127 130.5t192.5 46q108 0 190.5 -45.5t127.5 -130t45 -198.5q0 -107 -45 -191t-127.5 -131t-190.5 -47t-191 47zM613 839.5q71 76.5 71 210.5q0 136 -70.5 214t-201.5 78q-135 0 -204.5 -76t-69.5 -216
q0 -134 71 -210.5t203 -76.5q130 0 201 76.5zM262 859q-24 0 -24 24v345q0 23 24 23h149q85 0 130 -31.5t45 -92.5q0 -82 -85 -113l83 -127q5 -8 5 -13q0 -7 -5.5 -11t-15.5 -4h-82q-20 0 -29 16l-77 125h-24l-1 -117q0 -11 -6 -17.5t-17 -6.5h-70zM355 1169v-90h60
q23 0 40 12t17 34q0 44 -60 44h-57z" />
    <glyph glyph-name="macron" unicode="&#xaf;" horiz-adv-x="884" 
d="M124 1140q-24 0 -24 24v178q0 11 6.5 17t17.5 6h637q10 0 16.5 -6t6.5 -17v-178q0 -11 -6 -17.5t-17 -6.5h-637z" />
    <glyph glyph-name="macron" unicode="&#x2c9;" horiz-adv-x="884" 
d="M124 1140q-24 0 -24 24v178q0 11 6.5 17t17.5 6h637q10 0 16.5 -6t6.5 -17v-178q0 -11 -6 -17.5t-17 -6.5h-637z" />
    <glyph glyph-name="degree" unicode="&#xb0;" horiz-adv-x="804" 
d="M220 798.5q-82 43.5 -128 119t-46 169.5t46.5 170t128 119t182.5 43t182.5 -43t128 -119t46.5 -170t-46.5 -169.5t-128 -119t-182.5 -43.5t-183 43.5zM483.5 986q31.5 35 31.5 101q0 67 -31.5 102t-80.5 35q-51 0 -81.5 -34.5t-30.5 -102.5q0 -66 30.5 -101t81.5 -35
q49 0 80.5 35z" />
    <glyph glyph-name="plusminus" unicode="&#xb1;" horiz-adv-x="1175" 
d="M1044 920q11 0 17.5 -6t6.5 -17v-215q0 -11 -6.5 -17.5t-17.5 -6.5h-319v-364q0 -11 -6.5 -17.5t-17.5 -6.5h-225q-23 0 -23 24v364h-322q-23 0 -23 24v215q0 11 6.5 17t16.5 6h322v367q0 11 6.5 17t16.5 6h225q11 0 17.5 -6t6.5 -17v-367h319zM131 0q-23 0 -23 24v215
q0 11 6.5 17t16.5 6h913q11 0 17.5 -6t6.5 -17v-215q0 -11 -6.5 -17.5t-17.5 -6.5h-913z" />
    <glyph glyph-name="two.sups" unicode="&#xb2;" horiz-adv-x="681" 
d="M68 613q-23 0 -23 24v93q0 92 35 152.5t84 94t124 69.5q47 22 73.5 38t43.5 37.5t17 50.5q1 40 -20 61.5t-60 21.5q-34 -1 -56.5 -23t-27.5 -63q-3 -23 -24 -23h-156q-11 0 -17.5 6.5t-5.5 17.5q7 119 82 183t213 65q131 0 202.5 -63.5t73.5 -178.5q0 -80 -35.5 -135
t-83.5 -87t-122 -68q-64 -30 -93.5 -52t-29.5 -52v-6h345q11 0 17 -6t6 -17v-116q0 -11 -6 -17.5t-17 -6.5h-539z" />
    <glyph glyph-name="three.sups" unicode="&#xb3;" horiz-adv-x="679" 
d="M38 842v4q0 20 22 20h164q20 0 25 -23q5 -42 27 -65t60 -23t63 29t25 79q0 48 -25 70.5t-76 22.5h-55q-24 0 -24 23v95q0 11 6.5 17.5t17.5 6.5h55q43 0 66.5 22t23.5 57q0 38 -21.5 60.5t-52.5 22.5q-32 0 -51.5 -17t-25.5 -51q-5 -23 -25 -23h-164q-12 0 -18 6.5
t-4 18.5q13 106 91.5 164t205.5 58q80 0 142.5 -27t97 -75t34.5 -110q0 -122 -118 -163q71 -22 108 -67.5t37 -113.5q0 -83 -44 -142.5t-115 -89.5t-153 -30q-270 0 -299 244z" />
    <glyph glyph-name="acute" unicode="&#xb4;" horiz-adv-x="818" 
d="M176 1106q-2 -1 -7 -1q-17 0 -21 18l-41 130q-2 8 -2 10q0 14 16 20l494 199q4 2 11 2q13 0 19 -16l66 -219q1 -3 1 -8q0 -16 -18 -21z" />
    <glyph glyph-name="uni03BC" unicode="&#xb5;" horiz-adv-x="1177" 
d="M426 384q0 -68 35 -107.5t91 -39.5q50 0 94.5 32.5t72.5 104.5t28 183v70l-4 380q0 23 23 23h321q23 0 23 -23l-9 -484l5 -499q0 -24 -23 -24h-300q-24 0 -23 24l5 101q-49 -67 -129 -107t-173 -41q-22 0 -32 2l2 -296q0 -23 -23 -23h-320q-24 0 -24 23l7 910l-6 414
q0 23 23 23h319q24 0 24 -23l-7 -414v-209z" />
    <glyph glyph-name="uni03BC" unicode="&#x3bc;" horiz-adv-x="1177" 
d="M426 384q0 -68 35 -107.5t91 -39.5q50 0 94.5 32.5t72.5 104.5t28 183v70l-4 380q0 23 23 23h321q23 0 23 -23l-9 -484l5 -499q0 -24 -23 -24h-300q-24 0 -23 24l5 101q-49 -67 -129 -107t-173 -41q-22 0 -32 2l2 -296q0 -23 -23 -23h-320q-24 0 -24 23l7 910l-6 414
q0 23 23 23h319q24 0 24 -23l-7 -414v-209z" />
    <glyph glyph-name="paragraph" unicode="&#xb6;" horiz-adv-x="1521" 
d="M1412 609l15 -911q0 -23 -23 -23h-332q-23 0 -23 23l9 545l2 216h-106l3 -218l10 -543q0 -23 -23 -23h-329q-24 0 -24 23l10 538l4 223h-1q-170 2 -291 60.5t-184 165.5t-63 252q0 229 141 346t408 117h789q22 0 22 -23z" />
    <glyph glyph-name="periodcentered" unicode="&#xb7;" horiz-adv-x="482" 
d="M82 440q-11 0 -17.5 6.5t-6.5 17.5v282q0 11 6.5 17t17.5 6h320q11 0 17 -6t6 -17v-282q0 -11 -6 -17.5t-17 -6.5h-320z" />
    <glyph glyph-name="periodcentered" unicode="&#x2219;" horiz-adv-x="482" 
d="M82 440q-11 0 -17.5 6.5t-6.5 17.5v282q0 11 6.5 17t17.5 6h320q11 0 17 -6t6 -17v-282q0 -11 -6 -17.5t-17 -6.5h-320z" />
    <glyph glyph-name="cedilla" unicode="&#xb8;" horiz-adv-x="619" 
d="M440 -346q-2 -11 -9.5 -15.5t-18.5 -2.5l-286 44q-19 3 -19 18q0 2 2 10l120 313q8 19 29 18l236 -19q12 -1 17 -8t3 -19z" />
    <glyph glyph-name="one.sups" unicode="&#xb9;" horiz-adv-x="512" 
d="M229 613q-23 0 -23 24l6 351l-3 169q-55 -53 -135 -80q-8 -2 -10 -2q-17 0 -17 21v119q0 20 19 27q103 39 149 140q8 18 27 18h169q11 0 17.5 -6t5.5 -17l-7 -404l8 -336q0 -24 -23 -24h-183z" />
    <glyph glyph-name="ordmasculine" unicode="&#xba;" horiz-adv-x="950" 
d="M246 648q-97 50 -147.5 143t-50.5 219t51 220t147.5 145.5t230.5 51.5t229.5 -50t145.5 -142.5t50 -218.5t-50 -220.5t-146 -146t-229 -51.5q-134 0 -231 50zM570.5 838q29.5 51 29.5 172t-30.5 175.5t-94.5 54.5q-67 -2 -97 -56.5t-30 -175.5q0 -118 31.5 -169.5
t97.5 -51.5q64 0 93.5 51z" />
    <glyph glyph-name="guillemotright" unicode="&#xbb;" horiz-adv-x="1174" 
d="M79 101q-9 0 -14 4t-5 10q0 8 6 15l296 365l-297 387q-6 9 -6 15t5.5 10t14.5 4h241q18 0 28 -14l295 -386q6 -7 6 -16q0 -8 -7 -16l-294 -364q-10 -14 -28 -14h-241zM547 101q-9 0 -14 4t-5 10q0 8 6 15l296 365l-297 387q-6 9 -6 15t5.5 10t14.5 4h241q18 0 28 -14
l295 -386q6 -7 6 -16q0 -8 -7 -16l-294 -364q-10 -14 -28 -14h-241z" />
    <glyph glyph-name="onequarter" unicode="&#xbc;" horiz-adv-x="1547" 
d="M229 613q-23 0 -23 24l6 351l-3 169q-55 -53 -135 -80q-8 -2 -10 -2q-17 0 -17 21v119q0 20 19 27q103 39 149 140q8 18 27 18h169q11 0 17.5 -6t5.5 -17l-7 -404l8 -336q0 -24 -23 -24h-183zM134 0q-9 0 -14.5 4t-5.5 10q0 8 6 15l1039 1357q10 14 29 14h194
q9 0 14.5 -4t5.5 -10q0 -7 -6 -15l-1039 -1357q-10 -14 -29 -14h-194zM1489 314q11 0 17.5 -6t6.5 -17v-115q0 -23 -24 -23h-64v-131q0 -11 -6 -17t-17 -6h-175q-24 0 -24 23v131h-317q-24 0 -24 23v150q0 15 8 29l258 417q9 15 28 15h246q11 0 17 -6t6 -17v-450h64z
M1205 314v132l4 165l-177 -297h173z" />
    <glyph glyph-name="onehalf" unicode="&#xbd;" horiz-adv-x="1616" 
d="M229 613q-23 0 -23 24l6 351l-3 169q-55 -53 -135 -80q-8 -2 -10 -2q-17 0 -17 21v119q0 20 19 27q103 39 149 140q8 18 27 18h169q11 0 17.5 -6t5.5 -17l-7 -404l8 -336q0 -24 -23 -24h-183zM130 0q-9 0 -14.5 4t-5.5 10q0 8 6 15l1039 1357q10 14 29 14h194
q9 0 14.5 -4t5.5 -10q0 -7 -6 -15l-1039 -1357q-10 -14 -29 -14h-194zM1003 0q-23 0 -23 24v93q0 92 35 152.5t84 94t124 69.5q47 22 73.5 38t43.5 37.5t17 50.5q1 40 -20 61.5t-60 21.5q-34 -1 -56.5 -23t-27.5 -63q-3 -23 -24 -23h-156q-11 0 -17.5 6.5t-5.5 17.5
q7 119 82 183t213 65q131 0 202.5 -63.5t73.5 -178.5q0 -80 -35.5 -135t-83.5 -87t-122 -68q-64 -30 -93.5 -52t-29.5 -52v-6h345q11 0 17 -6t6 -17v-116q0 -11 -6 -17.5t-17 -6.5h-539z" />
    <glyph glyph-name="threequarters" unicode="&#xbe;" horiz-adv-x="1624" 
d="M38 842v4q0 20 22 20h164q20 0 25 -23q5 -42 27 -65t60 -23t63 29t25 79q0 48 -25 70.5t-76 22.5h-55q-24 0 -24 23v95q0 11 6.5 17.5t17.5 6.5h55q43 0 66.5 22t23.5 57q0 38 -21.5 60.5t-52.5 22.5q-32 0 -51.5 -17t-25.5 -51q-5 -23 -25 -23h-164q-12 0 -18 6.5
t-4 18.5q13 106 91.5 164t205.5 58q80 0 142.5 -27t97 -75t34.5 -110q0 -122 -118 -163q71 -22 108 -67.5t37 -113.5q0 -83 -44 -142.5t-115 -89.5t-153 -30q-270 0 -299 244zM212 0q-9 0 -14.5 4t-5.5 10q0 8 6 15l1039 1357q10 14 29 14h194q9 0 14.5 -4t5.5 -10
q0 -7 -6 -15l-1039 -1357q-10 -14 -29 -14h-194zM1566 314q11 0 17.5 -6t6.5 -17v-115q0 -23 -24 -23h-64v-131q0 -11 -6 -17t-17 -6h-175q-24 0 -24 23v131h-317q-24 0 -24 23v150q0 15 8 29l258 417q9 15 28 15h246q11 0 17 -6t6 -17v-450h64zM1282 314v132l4 165
l-177 -297h173z" />
    <glyph glyph-name="questiondown" unicode="&#xbf;" horiz-adv-x="1108" 
d="M713 1030q11 0 17.5 -6t6.5 -17v-284q0 -11 -6.5 -17.5t-17.5 -6.5h-316q-11 0 -17 6.5t-6 17.5v284q0 11 6.5 17t16.5 6h316zM712 614q11 0 17.5 -6.5t5.5 -18.5q-4 -108 -37 -186.5t-76 -127.5t-109 -106q-59 -51 -85.5 -85t-26.5 -77q0 -71 44.5 -109t121.5 -38
q155 0 167 165q3 23 25 23h293q12 0 18 -6.5t5 -17.5q-15 -206 -150.5 -313.5t-380.5 -107.5q-144 0 -258.5 50t-179.5 143t-65 217q0 75 23 129.5t56 91.5t89 86q53 46 83.5 79t53.5 81t27 111q2 23 24 23h315z" />
    <glyph glyph-name="Agrave" unicode="&#xc0;" horiz-adv-x="1442" 
d="M1435 27l2 -9q0 -8 -5.5 -13t-15.5 -5h-335q-21 0 -27 19l-93 303h-489l-88 -302q-6 -20 -27 -20h-332q-10 0 -15.5 4.5t-5.5 12.5q0 2 2 10l464 1354q6 19 26 19h463q20 0 26 -19zM873 611l-163 528l-155 -528h318zM941 1493q-6 -22 -28 -17l-518 114q-18 5 -18 21
q0 5 1 8l66 219q6 16 20 16q6 0 10 -2l494 -199q16 -7 16 -21q0 -6 -1 -9z" />
    <glyph glyph-name="Aacute" unicode="&#xc1;" horiz-adv-x="1442" 
d="M1435 27l2 -9q0 -8 -5.5 -13t-15.5 -5h-335q-21 0 -27 19l-93 303h-489l-88 -302q-6 -20 -27 -20h-332q-10 0 -15.5 4.5t-5.5 12.5q0 2 2 10l464 1354q6 19 26 19h463q20 0 26 -19zM873 611l-163 528l-155 -528h318zM534 1476q-2 -1 -7 -1q-17 0 -21 18l-41 130
q-2 8 -2 10q0 14 16 20l494 199q4 2 11 2q13 0 19 -16l66 -219q1 -3 1 -8q0 -16 -18 -21z" />
    <glyph glyph-name="Acircumflex" unicode="&#xc2;" horiz-adv-x="1442" 
d="M1435 27l2 -9q0 -8 -5.5 -13t-15.5 -5h-335q-21 0 -27 19l-93 303h-489l-88 -302q-6 -20 -27 -20h-332q-10 0 -15.5 4.5t-5.5 12.5q0 2 2 10l464 1354q6 19 26 19h463q20 0 26 -19zM873 611l-163 528l-155 -528h318zM342 1615q-2 4 -2 12q0 13 11 20l292 222q11 10 29 10
h112q16 0 29 -10l292 -222q11 -7 11 -20q0 -8 -2 -12l-52 -125q-5 -14 -18 -14q-6 0 -13 3l-304 153l-301 -154q-8 -3 -13 -3q-12 0 -18 14z" />
    <glyph glyph-name="Atilde" unicode="&#xc3;" horiz-adv-x="1442" 
d="M1435 27l2 -9q0 -8 -5.5 -13t-15.5 -5h-335q-21 0 -27 19l-93 303h-489l-88 -302q-6 -20 -27 -20h-332q-10 0 -15.5 4.5t-5.5 12.5q0 2 2 10l464 1354q6 19 26 19h463q20 0 26 -19zM873 611l-163 528l-155 -528h318zM770.5 1518.5q-36.5 15.5 -78.5 42.5
q-25 17 -42.5 25.5t-34.5 8.5q-46 0 -49 -70q-1 -11 -7.5 -17.5t-16.5 -6.5h-130q-24 0 -24 25q5 127 60 203t161 76q44 0 81 -16t79 -44q28 -18 42 -25t27 -7q26 0 38 18t14 52q2 23 25 23h130q23 0 22 -30q-5 -131 -57.5 -202t-154.5 -71q-48 0 -84.5 15.5z" />
    <glyph glyph-name="Adieresis" unicode="&#xc4;" horiz-adv-x="1442" 
d="M1435 27l2 -9q0 -8 -5.5 -13t-15.5 -5h-335q-21 0 -27 19l-93 303h-489l-88 -302q-6 -20 -27 -20h-332q-10 0 -15.5 4.5t-5.5 12.5q0 2 2 10l464 1354q6 19 26 19h463q20 0 26 -19zM873 611l-163 528l-155 -528h318zM400 1480q-11 0 -17.5 6.5t-6.5 17.5v243q0 11 6.5 17
t17.5 6h247q11 0 17 -6t6 -17v-243q0 -11 -6 -17.5t-17 -6.5h-247zM810 1480q-11 0 -17.5 6.5t-6.5 17.5v243q0 11 6.5 17t17.5 6h247q11 0 17 -6t6 -17v-243q0 -11 -6 -17.5t-17 -6.5h-247z" />
    <glyph glyph-name="Aring" unicode="&#xc5;" horiz-adv-x="1442" 
d="M1435 27l2 -9q0 -8 -5.5 -13t-15.5 -5h-335q-21 0 -27 19l-93 303h-489l-88 -302q-6 -20 -27 -20h-332q-10 0 -15.5 4.5t-5.5 12.5q0 2 2 10l464 1354q6 19 26 19h463q20 0 26 -19zM873 611l-163 528l-155 -528h318zM588 1521q-64 33 -100.5 91.5t-36.5 129.5
q0 72 36.5 130.5t100.5 91.5t143 33t143 -33t100.5 -91.5t36.5 -130.5t-36.5 -130t-100.5 -91t-143 -33t-143 33zM802.5 1653q27.5 31 27.5 89q0 60 -27.5 90.5t-71.5 30.5q-45 0 -72 -30.5t-27 -90.5q0 -59 27 -89.5t72 -30.5q44 0 71.5 31z" />
    <glyph glyph-name="AE" unicode="&#xc6;" horiz-adv-x="1912" 
d="M1839 269q11 0 17.5 -6t6.5 -17v-222q0 -11 -6.5 -17.5t-17.5 -6.5h-896q-24 0 -24 24l6 298h-420l-136 -304q-7 -18 -28 -18h-320q-10 0 -15.5 4.5t-5.5 11.5q0 6 3 12l652 1355q7 17 27 17h1141q24 0 24 -23v-221q0 -11 -6.5 -17.5t-17.5 -6.5h-534l-9 -263h480
q24 0 24 -23v-221q0 -11 -6.5 -17.5t-17.5 -6.5h-480l9 -332h550zM923 1157h-44l-245 -546h295l2 77z" />
    <glyph glyph-name="Ccedilla" unicode="&#xc7;" horiz-adv-x="1475" 
d="M1409 511q10 0 15.5 -5.5t5.5 -14.5q0 -5 -1 -8q-50 -231 -185 -356t-346 -152l-70 -321q-2 -11 -9.5 -15.5t-18.5 -2.5l-286 44q-19 3 -19 18q0 2 2 10l106 275q-170 34 -295 133t-192 247.5t-67 329.5q0 221 89.5 388.5t252.5 259.5t379 92q257 0 425 -122.5
t225 -382.5l1 -6q0 -20 -22 -20h-318q-20 0 -25 21q-55 231 -291 231q-159 0 -244 -118.5t-85 -334.5q0 -218 86 -336.5t247 -118.5q241 0 290 243q4 22 26 22h324z" />
    <glyph glyph-name="Egrave" unicode="&#xc8;" horiz-adv-x="1173" 
d="M101 0q-23 0 -23 24l14 664l-14 689q0 23 23 23h984q11 0 17 -6t6 -17v-221q0 -11 -6 -17.5t-17 -6.5h-627l-9 -263h573q11 0 17 -6t6 -17v-221q0 -11 -6 -17.5t-17 -6.5h-573l9 -332h643q11 0 17 -6t6 -17v-222q0 -11 -6 -17.5t-17 -6.5h-1000zM821 1493q-6 -22 -28 -17
l-518 114q-18 5 -18 21q0 5 1 8l66 219q6 16 20 16q6 0 10 -2l494 -199q16 -7 16 -21q0 -6 -1 -9z" />
    <glyph glyph-name="Eacute" unicode="&#xc9;" horiz-adv-x="1173" 
d="M101 0q-23 0 -23 24l14 664l-14 689q0 23 23 23h984q11 0 17 -6t6 -17v-221q0 -11 -6 -17.5t-17 -6.5h-627l-9 -263h573q11 0 17 -6t6 -17v-221q0 -11 -6 -17.5t-17 -6.5h-573l9 -332h643q11 0 17 -6t6 -17v-222q0 -11 -6 -17.5t-17 -6.5h-1000zM413 1476q-2 -1 -7 -1
q-17 0 -21 18l-41 130q-2 8 -2 10q0 14 16 20l494 199q4 2 11 2q13 0 19 -16l66 -219q1 -3 1 -8q0 -16 -18 -21z" />
    <glyph glyph-name="Ecircumflex" unicode="&#xca;" horiz-adv-x="1173" 
d="M101 0q-23 0 -23 24l14 664l-14 689q0 23 23 23h984q11 0 17 -6t6 -17v-221q0 -11 -6 -17.5t-17 -6.5h-627l-9 -263h573q11 0 17 -6t6 -17v-221q0 -11 -6 -17.5t-17 -6.5h-573l9 -332h643q11 0 17 -6t6 -17v-222q0 -11 -6 -17.5t-17 -6.5h-1000zM221 1615q-2 4 -2 12
q0 13 11 20l292 222q11 10 29 10h112q16 0 29 -10l292 -222q11 -7 11 -20q0 -8 -2 -12l-52 -125q-5 -14 -18 -14q-6 0 -13 3l-304 153l-301 -154q-8 -3 -13 -3q-12 0 -18 14z" />
    <glyph glyph-name="Edieresis" unicode="&#xcb;" horiz-adv-x="1173" 
d="M101 0q-23 0 -23 24l14 664l-14 689q0 23 23 23h984q11 0 17 -6t6 -17v-221q0 -11 -6 -17.5t-17 -6.5h-627l-9 -263h573q11 0 17 -6t6 -17v-221q0 -11 -6 -17.5t-17 -6.5h-573l9 -332h643q11 0 17 -6t6 -17v-222q0 -11 -6 -17.5t-17 -6.5h-1000zM279 1480
q-11 0 -17.5 6.5t-6.5 17.5v243q0 11 6.5 17t17.5 6h247q11 0 17 -6t6 -17v-243q0 -11 -6 -17.5t-17 -6.5h-247zM689 1480q-11 0 -17.5 6.5t-6.5 17.5v243q0 11 6.5 17t17.5 6h247q11 0 17 -6t6 -17v-243q0 -11 -6 -17.5t-17 -6.5h-247z" />
    <glyph glyph-name="Igrave" unicode="&#xcc;" horiz-adv-x="554" 
d="M111 0q-23 0 -23 24l13 669l-13 684q0 23 23 23h332q23 0 23 -23l-13 -684l13 -669q0 -24 -23 -24h-332zM490 1493q-6 -22 -28 -17l-518 114q-18 5 -18 21q0 5 1 8l66 219q6 16 20 16q6 0 10 -2l494 -199q16 -7 16 -21q0 -6 -1 -9z" />
    <glyph glyph-name="Iacute" unicode="&#xcd;" horiz-adv-x="554" 
d="M111 0q-23 0 -23 24l13 669l-13 684q0 23 23 23h332q23 0 23 -23l-13 -684l13 -669q0 -24 -23 -24h-332zM83 1476q-2 -1 -7 -1q-17 0 -21 18l-41 130q-2 8 -2 10q0 14 16 20l494 199q4 2 11 2q13 0 19 -16l66 -219q1 -3 1 -8q0 -16 -18 -21z" />
    <glyph glyph-name="Icircumflex" unicode="&#xce;" horiz-adv-x="554" 
d="M111 0q-23 0 -23 24l13 669l-13 684q0 23 23 23h332q23 0 23 -23l-13 -684l13 -669q0 -24 -23 -24h-332zM-109 1615q-2 4 -2 12q0 13 11 20l292 222q11 10 29 10h112q16 0 29 -10l292 -222q11 -7 11 -20q0 -8 -2 -12l-52 -125q-5 -14 -18 -14q-6 0 -13 3l-304 153
l-301 -154q-8 -3 -13 -3q-12 0 -18 14z" />
    <glyph glyph-name="Idieresis" unicode="&#xcf;" horiz-adv-x="554" 
d="M111 0q-23 0 -23 24l13 669l-13 684q0 23 23 23h332q23 0 23 -23l-13 -684l13 -669q0 -24 -23 -24h-332zM-51 1480q-11 0 -17.5 6.5t-6.5 17.5v243q0 11 6.5 17t17.5 6h247q11 0 17 -6t6 -17v-243q0 -11 -6 -17.5t-17 -6.5h-247zM359 1480q-11 0 -17.5 6.5t-6.5 17.5v243
q0 11 6.5 17t17.5 6h247q11 0 17 -6t6 -17v-243q0 -11 -6 -17.5t-17 -6.5h-247z" />
    <glyph glyph-name="Eth" unicode="&#xd0;" horiz-adv-x="1469" 
d="M651 1400q214 0 387.5 -74.5t277.5 -234.5t104 -406q0 -242 -102.5 -395t-274 -221.5t-388.5 -68.5h-520q-22 0 -22 24l11 587h-83q-11 0 -17.5 6.5t-6.5 17.5v220q0 11 6.5 17t17.5 6h81l-9 499q0 23 22 23h516zM671 269q170 0 267 101.5t97 317.5q0 150 -47 249.5
t-130.5 147t-194.5 47.5h-168l-7 -254h266q11 0 17 -6t6 -17v-220q0 -11 -6 -17.5t-17 -6.5h-268l9 -342h176z" />
    <glyph glyph-name="Ntilde" unicode="&#xd1;" horiz-adv-x="1414" 
d="M101 0q-23 0 -23 24l11 670l-11 683q0 23 23 23h385q19 0 28 -16l490 -869l-10 259v603q0 23 23 23h295q23 0 23 -23l-11 -683l12 -670q0 -24 -23 -24h-398q-19 0 -28 16l-478 862l11 -299l1 -555q0 -24 -24 -24h-296zM764.5 1518.5q-36.5 15.5 -78.5 42.5
q-25 17 -42.5 25.5t-34.5 8.5q-46 0 -49 -70q-1 -11 -7.5 -17.5t-16.5 -6.5h-130q-24 0 -24 25q5 127 60 203t161 76q44 0 81 -16t79 -44q28 -18 42 -25t27 -7q26 0 38 18t14 52q2 23 25 23h130q23 0 22 -30q-5 -131 -57.5 -202t-154.5 -71q-48 0 -84.5 15.5z" />
    <glyph glyph-name="Ograve" unicode="&#xd2;" horiz-adv-x="1560" 
d="M395.5 60q-165.5 93 -256 258.5t-90.5 376.5q0 221 89.5 388t254.5 258.5t386 91.5q219 0 384.5 -90t256.5 -257t91 -391q0 -210 -90.5 -375.5t-257 -259t-384.5 -93.5t-383.5 93zM1037.5 364.5q88.5 118.5 88.5 330.5q0 214 -88.5 336.5t-258.5 122.5t-257.5 -120
t-87.5 -339q0 -138 40 -239t118.5 -155.5t189.5 -54.5q167 0 255.5 118.5zM990 1493q-6 -22 -28 -17l-518 114q-18 5 -18 21q0 5 1 8l66 219q6 16 20 16q6 0 10 -2l494 -199q16 -7 16 -21q0 -6 -1 -9z" />
    <glyph glyph-name="Oacute" unicode="&#xd3;" horiz-adv-x="1560" 
d="M395.5 60q-165.5 93 -256 258.5t-90.5 376.5q0 221 89.5 388t254.5 258.5t386 91.5q219 0 384.5 -90t256.5 -257t91 -391q0 -210 -90.5 -375.5t-257 -259t-384.5 -93.5t-383.5 93zM1037.5 364.5q88.5 118.5 88.5 330.5q0 214 -88.5 336.5t-258.5 122.5t-257.5 -120
t-87.5 -339q0 -138 40 -239t118.5 -155.5t189.5 -54.5q167 0 255.5 118.5zM582 1476q-2 -1 -7 -1q-17 0 -21 18l-41 130q-2 8 -2 10q0 14 16 20l494 199q4 2 11 2q13 0 19 -16l66 -219q1 -3 1 -8q0 -16 -18 -21z" />
    <glyph glyph-name="Ocircumflex" unicode="&#xd4;" horiz-adv-x="1560" 
d="M395.5 60q-165.5 93 -256 258.5t-90.5 376.5q0 221 89.5 388t254.5 258.5t386 91.5q219 0 384.5 -90t256.5 -257t91 -391q0 -210 -90.5 -375.5t-257 -259t-384.5 -93.5t-383.5 93zM1037.5 364.5q88.5 118.5 88.5 330.5q0 214 -88.5 336.5t-258.5 122.5t-257.5 -120
t-87.5 -339q0 -138 40 -239t118.5 -155.5t189.5 -54.5q167 0 255.5 118.5zM390 1615q-2 4 -2 12q0 13 11 20l292 222q11 10 29 10h112q16 0 29 -10l292 -222q11 -7 11 -20q0 -8 -2 -12l-52 -125q-5 -14 -18 -14q-6 0 -13 3l-304 153l-301 -154q-8 -3 -13 -3q-12 0 -18 14z
" />
    <glyph glyph-name="Otilde" unicode="&#xd5;" horiz-adv-x="1560" 
d="M395.5 60q-165.5 93 -256 258.5t-90.5 376.5q0 221 89.5 388t254.5 258.5t386 91.5q219 0 384.5 -90t256.5 -257t91 -391q0 -210 -90.5 -375.5t-257 -259t-384.5 -93.5t-383.5 93zM1037.5 364.5q88.5 118.5 88.5 330.5q0 214 -88.5 336.5t-258.5 122.5t-257.5 -120
t-87.5 -339q0 -138 40 -239t118.5 -155.5t189.5 -54.5q167 0 255.5 118.5zM818.5 1518.5q-36.5 15.5 -78.5 42.5q-25 17 -42.5 25.5t-34.5 8.5q-46 0 -49 -70q-1 -11 -7.5 -17.5t-16.5 -6.5h-130q-24 0 -24 25q5 127 60 203t161 76q44 0 81 -16t79 -44q28 -18 42 -25t27 -7
q26 0 38 18t14 52q2 23 25 23h130q23 0 22 -30q-5 -131 -57.5 -202t-154.5 -71q-48 0 -84.5 15.5z" />
    <glyph glyph-name="Odieresis" unicode="&#xd6;" horiz-adv-x="1560" 
d="M395.5 60q-165.5 93 -256 258.5t-90.5 376.5q0 221 89.5 388t254.5 258.5t386 91.5q219 0 384.5 -90t256.5 -257t91 -391q0 -210 -90.5 -375.5t-257 -259t-384.5 -93.5t-383.5 93zM1037.5 364.5q88.5 118.5 88.5 330.5q0 214 -88.5 336.5t-258.5 122.5t-257.5 -120
t-87.5 -339q0 -138 40 -239t118.5 -155.5t189.5 -54.5q167 0 255.5 118.5zM448 1484q-11 0 -17.5 6.5t-6.5 17.5v243q0 11 6.5 17t17.5 6h247q11 0 17 -6t6 -17v-243q0 -11 -6 -17.5t-17 -6.5h-247zM858 1484q-11 0 -17.5 6.5t-6.5 17.5v243q0 11 6.5 17t17.5 6h247
q11 0 17 -6t6 -17v-243q0 -11 -6 -17.5t-17 -6.5h-247z" />
    <glyph glyph-name="multiply" unicode="&#xd7;" horiz-adv-x="1175" 
d="M773 689l257 -257q8 -7 8 -16q0 -8 -8 -16l-151 -154q-9 -9 -17 -9t-16 8l-258 259l-259 -259q-8 -8 -16 -8t-17 9l-151 154q-8 10 -8 16q0 8 8 16l257 258l-259 259q-8 8 -8 15q0 8 9 17l153 152q8 8 17 8t16 -8l258 -258l258 258q8 8 17 8t16 -8l154 -152q8 -7 8 -16
q0 -8 -8 -16z" />
    <glyph glyph-name="Oslash" unicode="&#xd8;" horiz-adv-x="1550" 
d="M1367 1170q70 -93 107 -213t37 -262q0 -210 -90.5 -375.5t-257 -259t-384.5 -93.5q-196 0 -348 77l-129 -154q-7 -9 -17 -9q-9 0 -16 7l-195 179q-9 8 -9 17q0 6 7 16l118 141q-69 92 -105 207.5t-36 246.5q0 221 89.5 388t254.5 258.5t386 91.5q194 0 342 -71l130 154
q8 9 17 9t16 -7l195 -178q9 -9 9 -19q0 -7 -6 -15zM521.5 1034q-87.5 -120 -87.5 -339q0 -100 25 -183l496 595q-73 47 -176 47q-170 0 -257.5 -120zM1037.5 364.5q88.5 118.5 88.5 330.5q0 118 -28 206l-501 -603q76 -52 185 -52q167 0 255.5 118.5z" />
    <glyph glyph-name="Ugrave" unicode="&#xd9;" horiz-adv-x="1337" 
d="M229.5 107q-153.5 140 -152.5 408l1 349l-8 513q0 23 23 23h344q23 0 23 -23l-9 -503l2 -356q1 -134 55 -198t167 -64q126 0 186 64t60 198v348l-7 511q0 23 23 23h306q23 0 23 -23l-6 -513v-349q0 -270 -147.5 -409t-437.5 -139q-292 0 -445.5 140zM901 1493
q-6 -22 -28 -17l-518 114q-18 5 -18 21q0 5 1 8l66 219q6 16 20 16q6 0 10 -2l494 -199q16 -7 16 -21q0 -6 -1 -9z" />
    <glyph glyph-name="Uacute" unicode="&#xda;" horiz-adv-x="1337" 
d="M229.5 107q-153.5 140 -152.5 408l1 349l-8 513q0 23 23 23h344q23 0 23 -23l-9 -503l2 -356q1 -134 55 -198t167 -64q126 0 186 64t60 198v348l-7 511q0 23 23 23h306q23 0 23 -23l-6 -513v-349q0 -270 -147.5 -409t-437.5 -139q-292 0 -445.5 140zM494 1476
q-2 -1 -7 -1q-17 0 -21 18l-41 130q-2 8 -2 10q0 14 16 20l494 199q4 2 11 2q13 0 19 -16l66 -219q1 -3 1 -8q0 -16 -18 -21z" />
    <glyph glyph-name="Ucircumflex" unicode="&#xdb;" horiz-adv-x="1337" 
d="M229.5 107q-153.5 140 -152.5 408l1 349l-8 513q0 23 23 23h344q23 0 23 -23l-9 -503l2 -356q1 -134 55 -198t167 -64q126 0 186 64t60 198v348l-7 511q0 23 23 23h306q23 0 23 -23l-6 -513v-349q0 -270 -147.5 -409t-437.5 -139q-292 0 -445.5 140zM302 1615q-2 4 -2 12
q0 13 11 20l292 222q11 10 29 10h112q16 0 29 -10l292 -222q11 -7 11 -20q0 -8 -2 -12l-52 -125q-5 -14 -18 -14q-6 0 -13 3l-304 153l-301 -154q-8 -3 -13 -3q-12 0 -18 14z" />
    <glyph glyph-name="Udieresis" unicode="&#xdc;" horiz-adv-x="1337" 
d="M229.5 107q-153.5 140 -152.5 408l1 349l-8 513q0 23 23 23h344q23 0 23 -23l-9 -503l2 -356q1 -134 55 -198t167 -64q126 0 186 64t60 198v348l-7 511q0 23 23 23h306q23 0 23 -23l-6 -513v-349q0 -270 -147.5 -409t-437.5 -139q-292 0 -445.5 140zM360 1480
q-11 0 -17.5 6.5t-6.5 17.5v243q0 11 6.5 17t17.5 6h247q11 0 17 -6t6 -17v-243q0 -11 -6 -17.5t-17 -6.5h-247zM770 1480q-11 0 -17.5 6.5t-6.5 17.5v243q0 11 6.5 17t17.5 6h247q11 0 17 -6t6 -17v-243q0 -11 -6 -17.5t-17 -6.5h-247z" />
    <glyph glyph-name="Yacute" unicode="&#xdd;" horiz-adv-x="1311" 
d="M3 1372q-3 6 -3 12q0 16 20 16h372q20 0 27 -18l250 -579l253 579q7 18 27 18h342q20 0 20 -16q0 -6 -3 -12l-469 -917l9 -431q0 -24 -23 -24h-338q-23 0 -23 24l10 429zM472 1476q-2 -1 -7 -1q-17 0 -21 18l-41 130q-2 8 -2 10q0 14 16 20l494 199q4 2 11 2q13 0 19 -16
l66 -219q1 -3 1 -8q0 -16 -18 -21z" />
    <glyph glyph-name="Thorn" unicode="&#xde;" horiz-adv-x="1241" 
d="M660 1173q267 0 408 -117.5t141 -345.5q0 -148 -65 -255.5t-189.5 -165t-298.5 -57.5h-210l3 -208q0 -24 -23 -24h-325q-23 0 -23 24l11 667l-11 686q0 23 23 23h325q23 0 23 -23l-3 -204h214zM683 495q46 0 86 22.5t65 69t25 115.5q0 207 -184 207h-233l-4 -251l3 -163
h242z" />
    <glyph glyph-name="germandbls" unicode="&#xdf;" horiz-adv-x="1275" 
d="M132 0q-23 0 -23 24l9 425v517q0 237 143 344t386 107q164 0 276.5 -45t168 -125t57.5 -186q0 -112 -70.5 -184t-184.5 -92q167 -26 247 -117.5t80 -231.5q0 -141 -70 -239t-191 -147.5t-275 -49.5h-51q-23 0 -23 24v206q0 11 6.5 17t16.5 6h51q75 0 120.5 43.5
t45.5 138.5q0 97 -49.5 145t-134.5 48h-33q-23 0 -23 24v180q0 11 6 17t17 6h27q72 0 102.5 40t30.5 113q0 154 -156 154q-57 0 -94 -18t-56 -63t-19 -125v-507l9 -425q0 -24 -23 -24h-323z" />
    <glyph glyph-name="agrave" unicode="&#xe0;" horiz-adv-x="1218" 
d="M1144 516l9 -492q0 -24 -23 -24h-310q-25 0 -24 24l4 92q-55 -66 -131.5 -101t-172.5 -35q-141 0 -242.5 69.5t-153.5 190t-52 272.5q0 149 57.5 272t163 194.5t243.5 71.5q180 0 283 -120l-5 76q-1 24 22 24h318q23 0 23 -23zM752 289q50 74 50 230q0 149 -48.5 223
t-143.5 74t-145 -74.5t-50 -221.5q0 -155 48.5 -230t141.5 -75q97 0 147 74zM822 1123q-6 -22 -28 -17l-518 114q-18 5 -18 21q0 5 1 8l66 219q6 16 20 16q6 0 10 -2l494 -199q16 -7 16 -21q0 -6 -1 -9z" />
    <glyph glyph-name="aacute" unicode="&#xe1;" horiz-adv-x="1218" 
d="M1144 516l9 -492q0 -24 -23 -24h-310q-25 0 -24 24l4 92q-55 -66 -131.5 -101t-172.5 -35q-141 0 -242.5 69.5t-153.5 190t-52 272.5q0 149 57.5 272t163 194.5t243.5 71.5q180 0 283 -120l-5 76q-1 24 22 24h318q23 0 23 -23zM752 289q50 74 50 230q0 149 -48.5 223
t-143.5 74t-145 -74.5t-50 -221.5q0 -155 48.5 -230t141.5 -75q97 0 147 74zM414 1106q-2 -1 -7 -1q-17 0 -21 18l-41 130q-2 8 -2 10q0 14 16 20l494 199q4 2 11 2q13 0 19 -16l66 -219q1 -3 1 -8q0 -16 -18 -21z" />
    <glyph glyph-name="acircumflex" unicode="&#xe2;" horiz-adv-x="1218" 
d="M1144 516l9 -492q0 -24 -23 -24h-310q-25 0 -24 24l4 92q-55 -66 -131.5 -101t-172.5 -35q-141 0 -242.5 69.5t-153.5 190t-52 272.5q0 149 57.5 272t163 194.5t243.5 71.5q180 0 283 -120l-5 76q-1 24 22 24h318q23 0 23 -23zM752 289q50 74 50 230q0 149 -48.5 223
t-143.5 74t-145 -74.5t-50 -221.5q0 -155 48.5 -230t141.5 -75q97 0 147 74zM223 1245q-2 4 -2 12q0 13 11 20l292 222q11 10 29 10h112q16 0 29 -10l292 -222q11 -7 11 -20q0 -8 -2 -12l-52 -125q-5 -14 -18 -14q-6 0 -13 3l-304 153l-301 -154q-8 -3 -13 -3q-12 0 -18 14z
" />
    <glyph glyph-name="atilde" unicode="&#xe3;" horiz-adv-x="1218" 
d="M1144 516l9 -492q0 -24 -23 -24h-310q-25 0 -24 24l4 92q-55 -66 -131.5 -101t-172.5 -35q-141 0 -242.5 69.5t-153.5 190t-52 272.5q0 149 57.5 272t163 194.5t243.5 71.5q180 0 283 -120l-5 76q-1 24 22 24h318q23 0 23 -23zM752 289q50 74 50 230q0 149 -48.5 223
t-143.5 74t-145 -74.5t-50 -221.5q0 -155 48.5 -230t141.5 -75q97 0 147 74zM651.5 1148.5q-36.5 15.5 -78.5 42.5q-25 17 -42.5 25.5t-34.5 8.5q-46 0 -49 -70q-1 -11 -7.5 -17.5t-16.5 -6.5h-130q-24 0 -24 25q5 127 60 203t161 76q44 0 81 -16t79 -44q28 -18 42 -25
t27 -7q26 0 38 18t14 52q2 23 25 23h130q23 0 22 -30q-5 -131 -57.5 -202t-154.5 -71q-48 0 -84.5 15.5z" />
    <glyph glyph-name="adieresis" unicode="&#xe4;" horiz-adv-x="1218" 
d="M1144 516l9 -492q0 -24 -23 -24h-310q-25 0 -24 24l4 92q-55 -66 -131.5 -101t-172.5 -35q-141 0 -242.5 69.5t-153.5 190t-52 272.5q0 149 57.5 272t163 194.5t243.5 71.5q180 0 283 -120l-5 76q-1 24 22 24h318q23 0 23 -23zM752 289q50 74 50 230q0 149 -48.5 223
t-143.5 74t-145 -74.5t-50 -221.5q0 -155 48.5 -230t141.5 -75q97 0 147 74zM281 1110q-11 0 -17.5 6.5t-6.5 17.5v243q0 11 6.5 17t17.5 6h247q11 0 17 -6t6 -17v-243q0 -11 -6 -17.5t-17 -6.5h-247zM691 1110q-11 0 -17.5 6.5t-6.5 17.5v243q0 11 6.5 17t17.5 6h247
q11 0 17 -6t6 -17v-243q0 -11 -6 -17.5t-17 -6.5h-247z" />
    <glyph glyph-name="aring" unicode="&#xe5;" horiz-adv-x="1218" 
d="M1144 516l9 -492q0 -24 -23 -24h-310q-25 0 -24 24l4 92q-55 -66 -131.5 -101t-172.5 -35q-141 0 -242.5 69.5t-153.5 190t-52 272.5q0 149 57.5 272t163 194.5t243.5 71.5q180 0 283 -120l-5 76q-1 24 22 24h318q23 0 23 -23zM752 289q50 74 50 230q0 149 -48.5 223
t-143.5 74t-145 -74.5t-50 -221.5q0 -155 48.5 -230t141.5 -75q97 0 147 74zM469 1151q-64 33 -100.5 91.5t-36.5 129.5q0 72 36.5 130.5t100.5 91.5t143 33t143 -33t100.5 -91.5t36.5 -130.5t-36.5 -130t-100.5 -91t-143 -33t-143 33zM683.5 1283q27.5 31 27.5 89
q0 60 -27.5 90.5t-71.5 30.5q-45 0 -72 -30.5t-27 -90.5q0 -59 27 -89.5t72 -30.5q44 0 71.5 31z" />
    <glyph glyph-name="ae" unicode="&#xe6;" horiz-adv-x="1981" 
d="M253.5 49.5q-101.5 69.5 -153.5 190t-52 272.5q0 149 57.5 272t163 194.5t243.5 71.5q180 0 283 -120l-5 76v4q0 20 22 20h317q23 0 23 -23v-29q117 80 279 80q156 0 268.5 -69t174 -202t65.5 -323q0 -24 -24 -24h-701q9 -125 55.5 -178t133.5 -53q127 0 163 119
q8 20 26 20h298q26 0 24 -18q-15 -92 -77 -174.5t-163.5 -133t-230.5 -50.5q-170 0 -291 82v-30q0 -24 -23 -24h-310q-24 0 -23 24l3 92q-54 -66 -130.5 -101t-172.5 -35q-141 0 -242.5 69.5zM1282 785.5q-44 -42.5 -61 -138.5h343q-5 79 -47.5 130t-117.5 51
q-73 0 -117 -42.5zM752 288.5q50 73.5 50 229.5q0 149 -49 223.5t-143 74.5q-95 0 -145 -75t-50 -222q0 -304 190 -304q97 0 147 73.5z" />
    <glyph glyph-name="ccedilla" unicode="&#xe7;" horiz-adv-x="1132" 
d="M1068 394q12 0 18 -5.5t5 -15.5q-10 -95 -57.5 -174.5t-126 -134t-179.5 -77.5l-73 -333q-2 -11 -9.5 -15.5t-18.5 -2.5l-286 44q-19 3 -19 18q0 2 2 10l108 281q-120 28 -206 99.5t-132 179.5t-46 244q0 164 66 287.5t188.5 191t287.5 67.5q138 0 243.5 -47.5
t167.5 -133.5t76 -200q1 -12 -5 -18.5t-18 -6.5h-286q-22 0 -26 22q-14 73 -52 108.5t-94 35.5q-91 -1 -135 -73t-44 -230q0 -162 44.5 -233.5t135.5 -71.5q62 0 103.5 41t50.5 120q3 23 24 23h293z" />
    <glyph glyph-name="egrave" unicode="&#xe8;" horiz-adv-x="1174" 
d="M407 440q9 -125 55.5 -178t133.5 -53q127 0 163 119q8 20 26 20h298q12 0 18.5 -4t5.5 -12q-16 -93 -80.5 -175.5t-175 -133.5t-255.5 -51q-169 0 -293 68t-189.5 190t-65.5 282q0 164 66.5 288t187.5 191t282 67q260 0 401 -153.5t147 -440.5q0 -24 -24 -24h-701z
M475 785.5q-44 -42.5 -61 -138.5h343q-5 79 -47.5 130t-117.5 51q-73 0 -117 -42.5zM802 1123q-6 -22 -28 -17l-518 114q-18 5 -18 21q0 5 1 8l66 219q6 16 20 16q6 0 10 -2l494 -199q16 -7 16 -21q0 -6 -1 -9z" />
    <glyph glyph-name="eacute" unicode="&#xe9;" horiz-adv-x="1174" 
d="M407 440q9 -125 55.5 -178t133.5 -53q127 0 163 119q8 20 26 20h298q12 0 18.5 -4t5.5 -12q-16 -93 -80.5 -175.5t-175 -133.5t-255.5 -51q-169 0 -293 68t-189.5 190t-65.5 282q0 164 66.5 288t187.5 191t282 67q260 0 401 -153.5t147 -440.5q0 -24 -24 -24h-701z
M475 785.5q-44 -42.5 -61 -138.5h343q-5 79 -47.5 130t-117.5 51q-73 0 -117 -42.5zM395 1106q-2 -1 -7 -1q-17 0 -21 18l-41 130q-2 8 -2 10q0 14 16 20l494 199q4 2 11 2q13 0 19 -16l66 -219q1 -3 1 -8q0 -16 -18 -21z" />
    <glyph glyph-name="ecircumflex" unicode="&#xea;" horiz-adv-x="1174" 
d="M407 440q9 -125 55.5 -178t133.5 -53q127 0 163 119q8 20 26 20h298q12 0 18.5 -4t5.5 -12q-16 -93 -80.5 -175.5t-175 -133.5t-255.5 -51q-169 0 -293 68t-189.5 190t-65.5 282q0 164 66.5 288t187.5 191t282 67q260 0 401 -153.5t147 -440.5q0 -24 -24 -24h-701z
M475 785.5q-44 -42.5 -61 -138.5h343q-5 79 -47.5 130t-117.5 51q-73 0 -117 -42.5zM203 1245q-2 4 -2 12q0 13 11 20l292 222q11 10 29 10h112q16 0 29 -10l292 -222q11 -7 11 -20q0 -8 -2 -12l-52 -125q-5 -14 -18 -14q-6 0 -13 3l-304 153l-301 -154q-8 -3 -13 -3
q-12 0 -18 14z" />
    <glyph glyph-name="edieresis" unicode="&#xeb;" horiz-adv-x="1174" 
d="M407 440q9 -125 55.5 -178t133.5 -53q127 0 163 119q8 20 26 20h298q12 0 18.5 -4t5.5 -12q-16 -93 -80.5 -175.5t-175 -133.5t-255.5 -51q-169 0 -293 68t-189.5 190t-65.5 282q0 164 66.5 288t187.5 191t282 67q260 0 401 -153.5t147 -440.5q0 -24 -24 -24h-701z
M475 785.5q-44 -42.5 -61 -138.5h343q-5 79 -47.5 130t-117.5 51q-73 0 -117 -42.5zM261 1110q-11 0 -17.5 6.5t-6.5 17.5v243q0 11 6.5 17t17.5 6h247q11 0 17 -6t6 -17v-243q0 -11 -6 -17.5t-17 -6.5h-247zM671 1110q-11 0 -17.5 6.5t-6.5 17.5v243q0 11 6.5 17t17.5 6
h247q11 0 17 -6t6 -17v-243q0 -11 -6 -17.5t-17 -6.5h-247z" />
    <glyph glyph-name="igrave" unicode="&#xec;" horiz-adv-x="512" 
d="M469 1123q-6 -22 -28 -17l-461 100q-18 3 -18 20q0 6 1 9l66 217q4 16 19 16q7 0 11 -2l436 -179q16 -7 16 -22q0 -5 -1 -8zM96 0q-23 0 -23 24l8 481l-8 502q0 23 23 23h320q23 0 23 -23l-7 -502l7 -481q0 -24 -23 -24h-320z" />
    <glyph glyph-name="iacute" unicode="&#xed;" horiz-adv-x="512" 
d="M73 1106q-2 -1 -7 -1q-16 0 -22 18l-40 134q-2 6 -2 9q0 13 16 21l437 179q4 2 11 2q15 0 19 -16l66 -217q1 -3 1 -9q0 -17 -18 -20zM96 0q-23 0 -23 24l8 481l-8 502q0 23 23 23h320q23 0 23 -23l-7 -502l7 -481q0 -24 -23 -24h-320z" />
    <glyph glyph-name="icircumflex" unicode="&#xee;" horiz-adv-x="512" 
d="M-78 1245q-4 10 -4 14q0 10 10 19l243 220q14 12 29 12h110q17 0 29 -12l243 -220q10 -7 10 -19q0 -4 -4 -14l-62 -120q-6 -13 -18 -13q-7 0 -14 4l-238 155l-238 -155q-7 -5 -13 -5q-13 0 -19 14zM96 0q-23 0 -23 24l8 481l-8 502q0 23 23 23h320q23 0 23 -23l-7 -502
l7 -481q0 -24 -23 -24h-320z" />
    <glyph glyph-name="idieresis" unicode="&#xef;" horiz-adv-x="512" 
d="M-20 1110q-23 0 -23 24v243q0 11 6 17t17 6h216q11 0 17 -6t6 -17v-243q0 -11 -6 -17.5t-17 -6.5h-216zM318 1110q-23 0 -23 24v243q0 11 6.5 17t16.5 6h214q11 0 17.5 -6t6.5 -17v-243q0 -11 -6.5 -17.5t-17.5 -6.5h-214zM96 0q-23 0 -23 24l8 481l-8 502q0 23 23 23
h320q23 0 23 -23l-7 -502l7 -481q0 -24 -23 -24h-320z" />
    <glyph glyph-name="eth" unicode="&#xf0;" horiz-adv-x="1206" 
d="M970 1161q93 -109 138.5 -253t45.5 -331q0 -179 -66.5 -316.5t-194.5 -214t-305 -76.5q-156 0 -277.5 59t-190 165t-68.5 244q0 136 62 238.5t169.5 158.5t241.5 56q81 0 143 -19.5t112 -55.5q-12 115 -95 212l-219 -103q-6 -3 -12 -3q-13 0 -19 14l-69 149q-3 6 -3 12
q0 13 15 19l121 57q-67 37 -154 65q-16 4 -16 18q0 6 4 13l107 177q8 14 20 14q2 0 10 -2q193 -59 327 -146l242 113q6 3 12 3q13 0 19 -14l68 -148q3 -7 3 -13q0 -12 -14 -18zM731.5 274.5q45.5 57.5 45.5 161.5q0 103 -48.5 158t-130.5 55q-81 0 -126 -57t-45 -162
q0 -101 49 -157t130 -56q80 0 125.5 57.5z" />
    <glyph glyph-name="ntilde" unicode="&#xf1;" horiz-adv-x="1171" 
d="M1104 437l7 -413q0 -24 -24 -24h-319q-23 0 -23 24l6 413v201q0 73 -35 114t-92 41q-54 0 -98 -37.5t-70 -109.5t-26 -173v-38l5 -411q0 -24 -24 -24h-321q-22 0 -22 24l8 483l-5 500q0 23 24 23h299q24 0 24 -24l-5 -101q51 73 137 111t189 38q114 0 196 -48t125.5 -136
t43.5 -206v-227zM631.5 1148.5q-36.5 15.5 -78.5 42.5q-25 17 -42.5 25.5t-34.5 8.5q-46 0 -49 -70q-1 -11 -7.5 -17.5t-16.5 -6.5h-130q-24 0 -24 25q5 127 60 203t161 76q44 0 81 -16t79 -44q28 -18 42 -25t27 -7q26 0 38 18t14 52q2 23 25 23h130q23 0 22 -30
q-5 -131 -57.5 -202t-154.5 -71q-48 0 -84.5 15.5z" />
    <glyph glyph-name="ograve" unicode="&#xf2;" horiz-adv-x="1192" 
d="M303 38q-124 66 -189.5 187.5t-65.5 286.5t65.5 288t189.5 190.5t295 67.5q172 0 295 -65.5t187 -187t64 -286.5t-64.5 -288.5t-187.5 -191t-294 -67.5t-295 66zM699 239.5q39 29.5 58 95.5t19 177q0 162 -44 235.5t-136 73.5q-95 -2 -138.5 -75.5t-43.5 -236.5
q0 -160 45 -229.5t139 -69.5q62 0 101 29.5zM811 1123q-6 -22 -28 -17l-518 114q-18 5 -18 21q0 5 1 8l66 219q6 16 20 16q6 0 10 -2l494 -199q16 -7 16 -21q0 -6 -1 -9z" />
    <glyph glyph-name="oacute" unicode="&#xf3;" horiz-adv-x="1192" 
d="M303 38q-124 66 -189.5 187.5t-65.5 286.5t65.5 288t189.5 190.5t295 67.5q172 0 295 -65.5t187 -187t64 -286.5t-64.5 -288.5t-187.5 -191t-294 -67.5t-295 66zM699 239.5q39 29.5 58 95.5t19 177q0 162 -44 235.5t-136 73.5q-95 -2 -138.5 -75.5t-43.5 -236.5
q0 -160 45 -229.5t139 -69.5q62 0 101 29.5zM403 1106q-2 -1 -7 -1q-17 0 -21 18l-41 130q-2 8 -2 10q0 14 16 20l494 199q4 2 11 2q13 0 19 -16l66 -219q1 -3 1 -8q0 -16 -18 -21z" />
    <glyph glyph-name="ocircumflex" unicode="&#xf4;" horiz-adv-x="1192" 
d="M303 38q-124 66 -189.5 187.5t-65.5 286.5t65.5 288t189.5 190.5t295 67.5q172 0 295 -65.5t187 -187t64 -286.5t-64.5 -288.5t-187.5 -191t-294 -67.5t-295 66zM699 239.5q39 29.5 58 95.5t19 177q0 162 -44 235.5t-136 73.5q-95 -2 -138.5 -75.5t-43.5 -236.5
q0 -160 45 -229.5t139 -69.5q62 0 101 29.5zM211 1245q-2 4 -2 12q0 13 11 20l292 222q11 10 29 10h112q16 0 29 -10l292 -222q11 -7 11 -20q0 -8 -2 -12l-52 -125q-5 -14 -18 -14q-6 0 -13 3l-304 153l-301 -154q-8 -3 -13 -3q-12 0 -18 14z" />
    <glyph glyph-name="otilde" unicode="&#xf5;" horiz-adv-x="1192" 
d="M303 38q-124 66 -189.5 187.5t-65.5 286.5t65.5 288t189.5 190.5t295 67.5q172 0 295 -65.5t187 -187t64 -286.5t-64.5 -288.5t-187.5 -191t-294 -67.5t-295 66zM699 239.5q39 29.5 58 95.5t19 177q0 162 -44 235.5t-136 73.5q-95 -2 -138.5 -75.5t-43.5 -236.5
q0 -160 45 -229.5t139 -69.5q62 0 101 29.5zM639.5 1148.5q-36.5 15.5 -78.5 42.5q-25 17 -42.5 25.5t-34.5 8.5q-46 0 -49 -70q-1 -11 -7.5 -17.5t-16.5 -6.5h-130q-24 0 -24 25q5 127 60 203t161 76q44 0 81 -16t79 -44q28 -18 42 -25t27 -7q26 0 38 18t14 52q2 23 25 23
h130q23 0 22 -30q-5 -131 -57.5 -202t-154.5 -71q-48 0 -84.5 15.5z" />
    <glyph glyph-name="odieresis" unicode="&#xf6;" horiz-adv-x="1192" 
d="M303 38q-124 66 -189.5 187.5t-65.5 286.5t65.5 288t189.5 190.5t295 67.5q172 0 295 -65.5t187 -187t64 -286.5t-64.5 -288.5t-187.5 -191t-294 -67.5t-295 66zM699 239.5q39 29.5 58 95.5t19 177q0 162 -44 235.5t-136 73.5q-95 -2 -138.5 -75.5t-43.5 -236.5
q0 -160 45 -229.5t139 -69.5q62 0 101 29.5zM269 1110q-11 0 -17.5 6.5t-6.5 17.5v243q0 11 6.5 17t17.5 6h247q11 0 17 -6t6 -17v-243q0 -11 -6 -17.5t-17 -6.5h-247zM679 1110q-11 0 -17.5 6.5t-6.5 17.5v243q0 11 6.5 17t17.5 6h247q11 0 17 -6t6 -17v-243
q0 -11 -6 -17.5t-17 -6.5h-247z" />
    <glyph glyph-name="divide" unicode="&#xf7;" horiz-adv-x="1180" 
d="M431 952q-11 0 -17.5 6.5t-6.5 17.5v282q0 11 6.5 17t17.5 6h320q11 0 17 -6t6 -17v-282q0 -11 -6 -17.5t-17 -6.5h-320zM134 558q-23 0 -23 24v215q0 11 6.5 17t16.5 6h913q11 0 17.5 -6t6.5 -17v-215q0 -11 -6.5 -17.5t-17.5 -6.5h-913zM431 103q-11 0 -17.5 6.5
t-6.5 17.5v282q0 11 6.5 17t17.5 6h320q11 0 17 -6t6 -17v-282q0 -11 -6 -17.5t-17 -6.5h-320z" />
    <glyph glyph-name="oslash" unicode="&#xf8;" horiz-adv-x="1195" 
d="M1033 877q111 -140 111 -358q0 -165 -64.5 -288.5t-187.5 -191t-294 -67.5q-137 0 -247 45l-92 -113q-8 -10 -18 -10q-8 0 -16 8l-134 127q-8 10 -8 17q0 6 7 16l73 90q-56 69 -85.5 160t-29.5 200q0 165 65.5 288t189.5 190.5t295 67.5q141 0 246 -45l104 123q8 9 17 9
t16 -7l135 -126q9 -9 9 -18q0 -7 -6 -15zM457.5 745.5q-43.5 -73.5 -43.5 -236.5q0 -47 4 -79l281 356q-38 35 -103 35q-95 -2 -138.5 -75.5zM699 239.5q39 29.5 58 95.5t19 177q0 43 -6 74l-272 -346q41 -30 100 -30q62 0 101 29.5z" />
    <glyph glyph-name="ugrave" unicode="&#xf9;" horiz-adv-x="1171" 
d="M235.5 24.5q-82.5 48.5 -125.5 138.5t-43 213v217l-7 414q0 23 24 23h319q23 0 23 -23l-7 -414v-209q0 -68 35 -107.5t91 -39.5q51 0 95 32.5t72.5 104t28.5 183.5v38l-5 412q0 23 24 23h321q22 0 22 -23l-8 -484l5 -499q0 -24 -24 -24h-299q-24 0 -24 24l5 101
q-54 -74 -138.5 -111.5t-187.5 -37.5q-114 0 -196.5 48.5zM795 1123q-6 -22 -28 -17l-518 114q-18 5 -18 21q0 5 1 8l66 219q6 16 20 16q6 0 10 -2l494 -199q16 -7 16 -21q0 -6 -1 -9z" />
    <glyph glyph-name="uacute" unicode="&#xfa;" horiz-adv-x="1171" 
d="M235.5 24.5q-82.5 48.5 -125.5 138.5t-43 213v217l-7 414q0 23 24 23h319q23 0 23 -23l-7 -414v-209q0 -68 35 -107.5t91 -39.5q51 0 95 32.5t72.5 104t28.5 183.5v38l-5 412q0 23 24 23h321q22 0 22 -23l-8 -484l5 -499q0 -24 -24 -24h-299q-24 0 -24 24l5 101
q-54 -74 -138.5 -111.5t-187.5 -37.5q-114 0 -196.5 48.5zM387 1106q-2 -1 -7 -1q-17 0 -21 18l-41 130q-2 8 -2 10q0 14 16 20l494 199q4 2 11 2q13 0 19 -16l66 -219q1 -3 1 -8q0 -16 -18 -21z" />
    <glyph glyph-name="ucircumflex" unicode="&#xfb;" horiz-adv-x="1171" 
d="M235.5 24.5q-82.5 48.5 -125.5 138.5t-43 213v217l-7 414q0 23 24 23h319q23 0 23 -23l-7 -414v-209q0 -68 35 -107.5t91 -39.5q51 0 95 32.5t72.5 104t28.5 183.5v38l-5 412q0 23 24 23h321q22 0 22 -23l-8 -484l5 -499q0 -24 -24 -24h-299q-24 0 -24 24l5 101
q-54 -74 -138.5 -111.5t-187.5 -37.5q-114 0 -196.5 48.5zM195 1245q-2 4 -2 12q0 13 11 20l292 222q11 10 29 10h112q16 0 29 -10l292 -222q11 -7 11 -20q0 -8 -2 -12l-52 -125q-5 -14 -18 -14q-6 0 -13 3l-304 153l-301 -154q-8 -3 -13 -3q-12 0 -18 14z" />
    <glyph glyph-name="udieresis" unicode="&#xfc;" horiz-adv-x="1171" 
d="M235.5 24.5q-82.5 48.5 -125.5 138.5t-43 213v217l-7 414q0 23 24 23h319q23 0 23 -23l-7 -414v-209q0 -68 35 -107.5t91 -39.5q51 0 95 32.5t72.5 104t28.5 183.5v38l-5 412q0 23 24 23h321q22 0 22 -23l-8 -484l5 -499q0 -24 -24 -24h-299q-24 0 -24 24l5 101
q-54 -74 -138.5 -111.5t-187.5 -37.5q-114 0 -196.5 48.5zM253 1110q-11 0 -17.5 6.5t-6.5 17.5v243q0 11 6.5 17t17.5 6h247q11 0 17 -6t6 -17v-243q0 -11 -6 -17.5t-17 -6.5h-247zM663 1110q-11 0 -17.5 6.5t-6.5 17.5v243q0 11 6.5 17t17.5 6h247q11 0 17 -6t6 -17v-243
q0 -11 -6 -17.5t-17 -6.5h-247z" />
    <glyph glyph-name="yacute" unicode="&#xfd;" horiz-adv-x="1107" 
d="M754 1010q5 20 26 20h313q21 0 21 -17q0 -2 -2 -10l-452 -1324q-6 -19 -26 -19h-295q-10 0 -15.5 4.5t-5.5 12.5q0 2 2 10l94 282l-417 1034q-3 6 -3 11q0 16 22 16h355q20 0 26 -19l195 -580zM381 1106q-2 -1 -7 -1q-17 0 -21 18l-41 130q-2 8 -2 10q0 14 16 20l494 199
q4 2 11 2q13 0 19 -16l66 -219q1 -3 1 -8q0 -16 -18 -21z" />
    <glyph glyph-name="thorn" unicode="&#xfe;" horiz-adv-x="1221" 
d="M964.5 981q102.5 -69 154.5 -190t52 -273q0 -149 -57 -272t-162 -194.5t-242 -71.5q-176 0 -281 113l7 -410q0 -23 -23 -23h-325q-23 0 -23 23l13 868l-13 826q0 23 23 23h320q23 0 23 -23l-7 -455q54 62 128 95t166 33q144 0 246.5 -69zM804 509q0 154 -48.5 226.5
t-143.5 72.5q-97 0 -146 -71.5t-49 -219.5q0 -147 48.5 -222t141.5 -75q197 0 197 289z" />
    <glyph glyph-name="ydieresis" unicode="&#xff;" horiz-adv-x="1107" 
d="M754 1010q5 20 26 20h313q21 0 21 -17q0 -2 -2 -10l-452 -1324q-6 -19 -26 -19h-295q-10 0 -15.5 4.5t-5.5 12.5q0 2 2 10l94 282l-417 1034q-3 6 -3 11q0 16 22 16h355q20 0 26 -19l195 -580zM247 1110q-11 0 -17.5 6.5t-6.5 17.5v243q0 11 6.5 17t17.5 6h247
q11 0 17 -6t6 -17v-243q0 -11 -6 -17.5t-17 -6.5h-247zM657 1110q-11 0 -17.5 6.5t-6.5 17.5v243q0 11 6.5 17t17.5 6h247q11 0 17 -6t6 -17v-243q0 -11 -6 -17.5t-17 -6.5h-247z" />
    <glyph glyph-name="Amacron" unicode="&#x100;" horiz-adv-x="1442" 
d="M1435 27l2 -9q0 -8 -5.5 -13t-15.5 -5h-335q-21 0 -27 19l-93 303h-489l-88 -302q-6 -20 -27 -20h-332q-10 0 -15.5 4.5t-5.5 12.5q0 2 2 10l464 1354q6 19 26 19h463q20 0 26 -19zM873 611l-163 528l-155 -528h318zM409 1510q-24 0 -24 24v178q0 11 6.5 17t17.5 6h637
q10 0 16.5 -6t6.5 -17v-178q0 -11 -6 -17.5t-17 -6.5h-637z" />
    <glyph glyph-name="amacron" unicode="&#x101;" horiz-adv-x="1218" 
d="M1144 516l9 -492q0 -24 -23 -24h-310q-25 0 -24 24l4 92q-55 -66 -131.5 -101t-172.5 -35q-141 0 -242.5 69.5t-153.5 190t-52 272.5q0 149 57.5 272t163 194.5t243.5 71.5q180 0 283 -120l-5 76q-1 24 22 24h318q23 0 23 -23zM752 289q50 74 50 230q0 149 -48.5 223
t-143.5 74t-145 -74.5t-50 -221.5q0 -155 48.5 -230t141.5 -75q97 0 147 74zM290 1140q-24 0 -24 24v178q0 11 6.5 17t17.5 6h637q10 0 16.5 -6t6.5 -17v-178q0 -11 -6 -17.5t-17 -6.5h-637z" />
    <glyph glyph-name="Abreve" unicode="&#x102;" horiz-adv-x="1442" 
d="M1435 27l2 -9q0 -8 -5.5 -13t-15.5 -5h-335q-21 0 -27 19l-93 303h-489l-88 -302q-6 -20 -27 -20h-332q-10 0 -15.5 4.5t-5.5 12.5q0 2 2 10l464 1354q6 19 26 19h463q20 0 26 -19zM873 611l-163 528l-155 -528h318zM537 1537.5q-83 42.5 -130.5 117.5t-53.5 169
q-2 23 23 23h184q20 0 25 -23q7 -50 44.5 -80t99.5 -30q60 0 98.5 30t45.5 80q5 23 25 23h185q23 0 22 -21q-5 -95 -52.5 -170t-131 -118t-192.5 -43t-192 42.5z" />
    <glyph glyph-name="abreve" unicode="&#x103;" horiz-adv-x="1218" 
d="M1144 516l9 -492q0 -24 -23 -24h-310q-25 0 -24 24l4 92q-55 -66 -131.5 -101t-172.5 -35q-141 0 -242.5 69.5t-153.5 190t-52 272.5q0 149 57.5 272t163 194.5t243.5 71.5q180 0 283 -120l-5 76q-1 24 22 24h318q23 0 23 -23zM752 289q50 74 50 230q0 149 -48.5 223
t-143.5 74t-145 -74.5t-50 -221.5q0 -155 48.5 -230t141.5 -75q97 0 147 74zM417 1167.5q-83 42.5 -130.5 117.5t-53.5 169q-2 23 23 23h184q20 0 25 -23q7 -50 44.5 -80t99.5 -30q60 0 98.5 30t45.5 80q5 23 25 23h185q23 0 22 -21q-5 -95 -52.5 -170t-131 -118t-192.5 -43
t-192 42.5z" />
    <glyph glyph-name="Aogonek" unicode="&#x104;" horiz-adv-x="1442" 
d="M1435 27l2 -9q0 -8 -5.5 -13t-15.5 -5h-176q-18 -24 -33 -63.5t-15 -73.5q0 -72 97 -72h94q11 0 17 -6.5t6 -17.5v-184q0 -11 -6 -17t-17 -6h-129q-99 0 -174.5 29t-116.5 83t-41 127q0 136 132 219v1l-93 303h-489l-88 -302q-6 -20 -27 -20h-332q-10 0 -15.5 4.5
t-5.5 12.5q0 2 2 10l464 1354q6 19 26 19h463q20 0 26 -19zM710 1139l-155 -528h318z" />
    <glyph glyph-name="aogonek" unicode="&#x105;" horiz-adv-x="1218" 
d="M1150 -209q11 0 17 -6.5t6 -17.5v-184q0 -11 -6 -17t-17 -6h-129q-99 0 -174.5 29t-116.5 83t-41 127q0 127 113 207q-7 7 -6 18l4 92q-55 -66 -131.5 -101t-172.5 -35q-141 0 -242.5 69.5t-153.5 190t-52 272.5q0 149 57.5 272t163 194.5t243.5 71.5q180 0 283 -120
l-5 76q-1 24 22 24h318q23 0 23 -23l-9 -491l9 -492q0 -24 -23 -24h-123q-18 -24 -33 -63.5t-15 -73.5q0 -72 97 -72h94zM752 289q50 74 50 230q0 149 -48.5 223t-143.5 74t-145 -74.5t-50 -221.5q0 -155 48.5 -230t141.5 -75q97 0 147 74z" />
    <glyph glyph-name="Cacute" unicode="&#x106;" horiz-adv-x="1475" 
d="M391.5 60q-164.5 93 -253.5 258t-89 375q0 221 89.5 388.5t252.5 259.5t379 92q257 0 425 -122.5t225 -382.5l1 -6q0 -20 -22 -20h-318q-20 0 -25 21q-55 231 -291 231q-159 0 -244 -118.5t-85 -334.5q0 -218 86 -336.5t247 -118.5q241 0 290 243q4 22 26 22h324
q10 0 15.5 -5.5t5.5 -14.5q0 -5 -1 -8q-57 -263 -224.5 -389.5t-431.5 -126.5q-217 0 -381.5 93zM576 1476q-2 -1 -7 -1q-17 0 -21 18l-41 130q-2 8 -2 10q0 14 16 20l494 199q4 2 11 2q13 0 19 -16l66 -219q1 -3 1 -8q0 -16 -18 -21z" />
    <glyph glyph-name="cacute" unicode="&#x107;" horiz-adv-x="1132" 
d="M302 38q-122 66 -188 188t-66 286t66 287.5t188.5 191t287.5 67.5q138 0 243.5 -47.5t167.5 -133.5t76 -200q1 -12 -5 -18.5t-18 -6.5h-286q-22 0 -26 22q-14 73 -52 108.5t-94 35.5q-91 -1 -135 -73t-44 -230q0 -162 44.5 -233.5t135.5 -71.5q62 0 103.5 41t50.5 120
q3 23 24 23h293q12 0 18 -5.5t5 -15.5q-12 -116 -79 -207t-177 -142.5t-247 -51.5q-164 0 -286 66zM380 1106q-2 -1 -7 -1q-17 0 -21 18l-41 130q-2 8 -2 10q0 14 16 20l494 199q4 2 11 2q13 0 19 -16l66 -219q1 -3 1 -8q0 -16 -18 -21z" />
    <glyph glyph-name="Ccircumflex" unicode="&#x108;" horiz-adv-x="1475" 
d="M391.5 60q-164.5 93 -253.5 258t-89 375q0 221 89.5 388.5t252.5 259.5t379 92q257 0 425 -122.5t225 -382.5l1 -6q0 -20 -22 -20h-318q-20 0 -25 21q-55 231 -291 231q-159 0 -244 -118.5t-85 -334.5q0 -218 86 -336.5t247 -118.5q241 0 290 243q4 22 26 22h324
q10 0 15.5 -5.5t5.5 -14.5q0 -5 -1 -8q-57 -263 -224.5 -389.5t-431.5 -126.5q-217 0 -381.5 93zM384 1615q-2 4 -2 12q0 13 11 20l292 222q11 10 29 10h112q16 0 29 -10l292 -222q11 -7 11 -20q0 -8 -2 -12l-52 -125q-5 -14 -18 -14q-6 0 -13 3l-304 153l-301 -154
q-8 -3 -13 -3q-12 0 -18 14z" />
    <glyph glyph-name="ccircumflex" unicode="&#x109;" horiz-adv-x="1132" 
d="M302 38q-122 66 -188 188t-66 286t66 287.5t188.5 191t287.5 67.5q138 0 243.5 -47.5t167.5 -133.5t76 -200q1 -12 -5 -18.5t-18 -6.5h-286q-22 0 -26 22q-14 73 -52 108.5t-94 35.5q-91 -1 -135 -73t-44 -230q0 -162 44.5 -233.5t135.5 -71.5q62 0 103.5 41t50.5 120
q3 23 24 23h293q12 0 18 -5.5t5 -15.5q-12 -116 -79 -207t-177 -142.5t-247 -51.5q-164 0 -286 66zM188 1245q-2 4 -2 12q0 13 11 20l292 222q11 10 29 10h112q16 0 29 -10l292 -222q11 -7 11 -20q0 -8 -2 -12l-52 -125q-5 -14 -18 -14q-6 0 -13 3l-304 153l-301 -154
q-8 -3 -13 -3q-12 0 -18 14z" />
    <glyph glyph-name="Cdotaccent" unicode="&#x10a;" horiz-adv-x="1475" 
d="M391.5 60q-164.5 93 -253.5 258t-89 375q0 221 89.5 388.5t252.5 259.5t379 92q257 0 425 -122.5t225 -382.5l1 -6q0 -20 -22 -20h-318q-20 0 -25 21q-55 231 -291 231q-159 0 -244 -118.5t-85 -334.5q0 -218 86 -336.5t247 -118.5q241 0 290 243q4 22 26 22h324
q10 0 15.5 -5.5t5.5 -14.5q0 -5 -1 -8q-57 -263 -224.5 -389.5t-431.5 -126.5q-217 0 -381.5 93zM614 1484q-24 0 -24 24v243q0 11 6.5 17t17.5 6h318q10 0 16.5 -6t6.5 -17v-243q0 -11 -6 -17.5t-17 -6.5h-318z" />
    <glyph glyph-name="cdotaccent" unicode="&#x10b;" horiz-adv-x="1132" 
d="M302 38q-122 66 -188 188t-66 286t66 287.5t188.5 191t287.5 67.5q138 0 243.5 -47.5t167.5 -133.5t76 -200q1 -12 -5 -18.5t-18 -6.5h-286q-22 0 -26 22q-14 73 -52 108.5t-94 35.5q-91 -1 -135 -73t-44 -230q0 -162 44.5 -233.5t135.5 -71.5q62 0 103.5 41t50.5 120
q3 23 24 23h293q12 0 18 -5.5t5 -15.5q-12 -116 -79 -207t-177 -142.5t-247 -51.5q-164 0 -286 66zM415 1110q-24 0 -24 24v243q0 11 6.5 17t17.5 6h318q10 0 16.5 -6t6.5 -17v-243q0 -11 -6 -17.5t-17 -6.5h-318z" />
    <glyph glyph-name="Ccaron" unicode="&#x10c;" horiz-adv-x="1475" 
d="M391.5 60q-164.5 93 -253.5 258t-89 375q0 221 89.5 388.5t252.5 259.5t379 92q257 0 425 -122.5t225 -382.5l1 -6q0 -20 -22 -20h-318q-20 0 -25 21q-55 231 -291 231q-159 0 -244 -118.5t-85 -334.5q0 -218 86 -336.5t247 -118.5q241 0 290 243q4 22 26 22h324
q10 0 15.5 -5.5t5.5 -14.5q0 -5 -1 -8q-57 -263 -224.5 -389.5t-431.5 -126.5q-217 0 -381.5 93zM394 1719q-11 8 -11 20q0 7 2 11l52 126q6 14 18 14q5 0 13 -3l302 -153l301 154q8 3 13 3q12 0 18 -14l53 -127q3 -6 3 -12q0 -11 -12 -19l-292 -220q-11 -10 -29 -10h-110
q-18 0 -29 10z" />
    <glyph glyph-name="ccaron" unicode="&#x10d;" horiz-adv-x="1132" 
d="M302 38q-122 66 -188 188t-66 286t66 287.5t188.5 191t287.5 67.5q138 0 243.5 -47.5t167.5 -133.5t76 -200q1 -12 -5 -18.5t-18 -6.5h-286q-22 0 -26 22q-14 73 -52 108.5t-94 35.5q-91 -1 -135 -73t-44 -230q0 -162 44.5 -233.5t135.5 -71.5q62 0 103.5 41t50.5 120
q3 23 24 23h293q12 0 18 -5.5t5 -15.5q-12 -116 -79 -207t-177 -142.5t-247 -51.5q-164 0 -286 66zM198 1349q-11 8 -11 20q0 7 2 11l52 126q6 14 18 14q5 0 13 -3l302 -153l301 154q8 3 13 3q12 0 18 -14l53 -127q3 -6 3 -12q0 -11 -12 -19l-292 -220q-11 -10 -29 -10h-110
q-18 0 -29 10z" />
    <glyph glyph-name="Dcaron" unicode="&#x10e;" horiz-adv-x="1434" 
d="M101 0q-23 0 -23 24l13 666l-13 687q0 23 23 23h515q214 0 387.5 -74.5t277.5 -234.5t104 -406q0 -242 -102.5 -395t-274 -221.5t-388.5 -68.5h-519zM449 697l12 -428h175q170 0 267 101.5t97 317.5q0 150 -47 249.5t-130.5 147t-194.5 47.5h-167zM323 1719q-11 8 -11 20
q0 7 2 11l52 126q6 14 18 14q5 0 13 -3l302 -153l301 154q8 3 13 3q12 0 18 -14l53 -127q3 -6 3 -12q0 -11 -12 -19l-292 -220q-11 -10 -29 -10h-110q-18 0 -29 10z" />
    <glyph glyph-name="dcaron" unicode="&#x10f;" horiz-adv-x="1218" 
d="M1145 673l9 -649q0 -24 -24 -24h-311q-25 0 -24 24l5 91q-55 -65 -131.5 -100t-172.5 -35q-141 0 -242.5 69.5t-153.5 190t-52 272.5q0 149 57.5 272t163 194.5t243.5 71.5q178 0 281 -117l-4 444q0 23 23 23h318q24 0 24 -23zM752 288q50 74 50 230q0 150 -48.5 224.5
t-143.5 74.5t-145 -75t-50 -223q0 -155 48.5 -230t141.5 -75q97 0 147 74zM1444 1111q-6 -21 -26 -21h-179q-11 0 -17.5 6.5t-5.5 18.5l44 453q1 22 24 22h239q13 0 18.5 -7t2.5 -19z" />
    <glyph glyph-name="Dcroat" unicode="&#x110;" horiz-adv-x="1469" 
d="M651 1400q214 0 387.5 -74.5t277.5 -234.5t104 -406q0 -242 -102.5 -395t-274 -221.5t-388.5 -68.5h-520q-22 0 -22 24l11 587h-83q-11 0 -17.5 6.5t-6.5 17.5v220q0 11 6.5 17t17.5 6h81l-9 499q0 23 22 23h516zM671 269q170 0 267 101.5t97 317.5q0 150 -47 249.5
t-130.5 147t-194.5 47.5h-168l-7 -254h266q11 0 17 -6t6 -17v-220q0 -11 -6 -17.5t-17 -6.5h-268l9 -342h176z" />
    <glyph glyph-name="dcroat" unicode="&#x111;" horiz-adv-x="1219" 
d="M1204 1321q11 0 17.5 -6t6.5 -17v-190q0 -24 -24 -24h-54l-5 -411l9 -649q0 -24 -24 -24h-311q-25 0 -24 24l5 90q-55 -65 -131.5 -99.5t-172.5 -34.5q-141 0 -242.5 68.5t-153.5 188t-52 270.5q0 148 57.5 269.5t163 192.5t243.5 71q177 0 281 -116l-2 160h-256
q-11 0 -17 6.5t-6 17.5v190q0 11 6 17t17 6h254v56q0 23 23 23h318q24 0 24 -23l-1 -56h51zM752 286.5q50 72.5 50 225.5q0 148 -49 222t-143 74q-95 0 -145 -74.5t-50 -220.5q0 -152 48.5 -225.5t141.5 -73.5q97 0 147 72.5z" />
    <glyph glyph-name="Emacron" unicode="&#x112;" horiz-adv-x="1173" 
d="M101 0q-23 0 -23 24l14 664l-14 689q0 23 23 23h984q11 0 17 -6t6 -17v-221q0 -11 -6 -17.5t-17 -6.5h-627l-9 -263h573q11 0 17 -6t6 -17v-221q0 -11 -6 -17.5t-17 -6.5h-573l9 -332h643q11 0 17 -6t6 -17v-222q0 -11 -6 -17.5t-17 -6.5h-1000zM288 1510q-24 0 -24 24
v178q0 11 6.5 17t17.5 6h637q10 0 16.5 -6t6.5 -17v-178q0 -11 -6 -17.5t-17 -6.5h-637z" />
    <glyph glyph-name="emacron" unicode="&#x113;" horiz-adv-x="1174" 
d="M407 440q9 -125 55.5 -178t133.5 -53q127 0 163 119q8 20 26 20h298q12 0 18.5 -4t5.5 -12q-16 -93 -80.5 -175.5t-175 -133.5t-255.5 -51q-169 0 -293 68t-189.5 190t-65.5 282q0 164 66.5 288t187.5 191t282 67q260 0 401 -153.5t147 -440.5q0 -24 -24 -24h-701z
M475 785.5q-44 -42.5 -61 -138.5h343q-5 79 -47.5 130t-117.5 51q-73 0 -117 -42.5zM270 1140q-24 0 -24 24v178q0 11 6.5 17t17.5 6h637q10 0 16.5 -6t6.5 -17v-178q0 -11 -6 -17.5t-17 -6.5h-637z" />
    <glyph glyph-name="Ebreve" unicode="&#x114;" horiz-adv-x="1173" 
d="M101 0q-23 0 -23 24l14 664l-14 689q0 23 23 23h984q11 0 17 -6t6 -17v-221q0 -11 -6 -17.5t-17 -6.5h-627l-9 -263h573q11 0 17 -6t6 -17v-221q0 -11 -6 -17.5t-17 -6.5h-573l9 -332h643q11 0 17 -6t6 -17v-222q0 -11 -6 -17.5t-17 -6.5h-1000zM416 1537.5
q-83 42.5 -130.5 117.5t-53.5 169q-2 23 23 23h184q20 0 25 -23q7 -50 44.5 -80t99.5 -30q60 0 98.5 30t45.5 80q5 23 25 23h185q23 0 22 -21q-5 -95 -52.5 -170t-131 -118t-192.5 -43t-192 42.5z" />
    <glyph glyph-name="ebreve" unicode="&#x115;" horiz-adv-x="1174" 
d="M407 440q9 -125 55.5 -178t133.5 -53q127 0 163 119q8 20 26 20h298q12 0 18.5 -4t5.5 -12q-16 -93 -80.5 -175.5t-175 -133.5t-255.5 -51q-169 0 -293 68t-189.5 190t-65.5 282q0 164 66.5 288t187.5 191t282 67q260 0 401 -153.5t147 -440.5q0 -24 -24 -24h-701z
M475 785.5q-44 -42.5 -61 -138.5h343q-5 79 -47.5 130t-117.5 51q-73 0 -117 -42.5zM398 1167.5q-83 42.5 -130.5 117.5t-53.5 169q-2 23 23 23h184q20 0 25 -23q7 -50 44.5 -80t99.5 -30q60 0 98.5 30t45.5 80q5 23 25 23h185q23 0 22 -21q-5 -95 -52.5 -170t-131 -118
t-192.5 -43t-192 42.5z" />
    <glyph glyph-name="Edotaccent" unicode="&#x116;" horiz-adv-x="1173" 
d="M101 0q-23 0 -23 24l14 664l-14 689q0 23 23 23h984q11 0 17 -6t6 -17v-221q0 -11 -6 -17.5t-17 -6.5h-627l-9 -263h573q11 0 17 -6t6 -17v-221q0 -11 -6 -17.5t-17 -6.5h-573l9 -332h643q11 0 17 -6t6 -17v-222q0 -11 -6 -17.5t-17 -6.5h-1000zM448 1480q-24 0 -24 24
v243q0 11 6.5 17t17.5 6h318q10 0 16.5 -6t6.5 -17v-243q0 -11 -6 -17.5t-17 -6.5h-318z" />
    <glyph glyph-name="edotaccent" unicode="&#x117;" horiz-adv-x="1174" 
d="M407 440q9 -125 55.5 -178t133.5 -53q127 0 163 119q8 20 26 20h298q12 0 18.5 -4t5.5 -12q-16 -93 -80.5 -175.5t-175 -133.5t-255.5 -51q-169 0 -293 68t-189.5 190t-65.5 282q0 164 66.5 288t187.5 191t282 67q260 0 401 -153.5t147 -440.5q0 -24 -24 -24h-701z
M475 785.5q-44 -42.5 -61 -138.5h343q-5 79 -47.5 130t-117.5 51q-73 0 -117 -42.5zM430 1110q-24 0 -24 24v243q0 11 6.5 17t17.5 6h318q10 0 16.5 -6t6.5 -17v-243q0 -11 -6 -17.5t-17 -6.5h-318z" />
    <glyph glyph-name="Eogonek" unicode="&#x118;" horiz-adv-x="1173" 
d="M1115 -209q11 0 17 -6.5t6 -17.5v-184q0 -11 -6 -17t-17 -6h-129q-99 0 -174.5 29t-116.5 83t-41 127q0 121 105 201h-658q-23 0 -23 24l14 664l-14 689q0 23 23 23h984q11 0 17 -6t6 -17v-221q0 -11 -6 -17.5t-17 -6.5h-627l-9 -263h573q11 0 17 -6t6 -17v-221
q0 -11 -6 -17.5t-17 -6.5h-573l9 -332h643q11 0 17 -6t6 -17v-222q0 -11 -6 -17.5t-17 -6.5h-129q-18 -24 -33 -63.5t-15 -73.5q0 -72 97 -72h94z" />
    <glyph glyph-name="eogonek" unicode="&#x119;" horiz-adv-x="1174" 
d="M985 904.5q141 -153.5 147 -440.5q0 -24 -24 -24h-701q9 -125 55.5 -178t133.5 -53q127 0 163 119q8 20 26 20h298q12 0 18.5 -4t5.5 -12q-12 -72 -54.5 -139t-113 -119t-164.5 -78q-18 -25 -31.5 -62.5t-13.5 -70.5q0 -72 97 -72h94q11 0 17 -6.5t6 -17.5v-184
q0 -11 -6 -17t-17 -6h-129q-99 0 -174.5 29t-116.5 83t-41 127q0 103 75 175q-151 12 -261 83t-168 188t-58 267q0 164 66.5 288t187.5 191t282 67q260 0 401 -153.5zM757 647q-5 79 -47.5 130t-117.5 51q-73 0 -117 -42.5t-61 -138.5h343z" />
    <glyph glyph-name="Ecaron" unicode="&#x11a;" horiz-adv-x="1173" 
d="M101 0q-23 0 -23 24l14 664l-14 689q0 23 23 23h984q11 0 17 -6t6 -17v-221q0 -11 -6 -17.5t-17 -6.5h-627l-9 -263h573q11 0 17 -6t6 -17v-221q0 -11 -6 -17.5t-17 -6.5h-573l9 -332h643q11 0 17 -6t6 -17v-222q0 -11 -6 -17.5t-17 -6.5h-1000zM231 1719q-11 8 -11 20
q0 7 2 11l52 126q6 14 18 14q5 0 13 -3l302 -153l301 154q8 3 13 3q12 0 18 -14l53 -127q3 -6 3 -12q0 -11 -12 -19l-292 -220q-11 -10 -29 -10h-110q-18 0 -29 10z" />
    <glyph glyph-name="ecaron" unicode="&#x11b;" horiz-adv-x="1174" 
d="M407 440q9 -125 55.5 -178t133.5 -53q127 0 163 119q8 20 26 20h298q12 0 18.5 -4t5.5 -12q-16 -93 -80.5 -175.5t-175 -133.5t-255.5 -51q-169 0 -293 68t-189.5 190t-65.5 282q0 164 66.5 288t187.5 191t282 67q260 0 401 -153.5t147 -440.5q0 -24 -24 -24h-701z
M475 785.5q-44 -42.5 -61 -138.5h343q-5 79 -47.5 130t-117.5 51q-73 0 -117 -42.5zM213 1349q-11 8 -11 20q0 7 2 11l52 126q6 14 18 14q5 0 13 -3l302 -153l301 154q8 3 13 3q12 0 18 -14l53 -127q3 -6 3 -12q0 -11 -12 -19l-292 -220q-11 -10 -29 -10h-110q-18 0 -29 10z
" />
    <glyph glyph-name="Gcircumflex" unicode="&#x11c;" horiz-adv-x="1522" 
d="M395.5 60q-164.5 93 -255.5 259.5t-91 380.5q0 218 89.5 384t252 257.5t373.5 91.5q270 0 442.5 -121.5t231.5 -343.5q1 -3 1 -8q0 -8 -5.5 -13t-15.5 -5h-339q-20 0 -26 20q-64 194 -283 194q-166 0 -251 -121t-85 -338q0 -214 87.5 -333.5t255.5 -119.5
q127 0 206.5 69.5t90.5 197.5h-312q-24 0 -24 23v220q0 23 24 23h684q11 0 17 -7.5t6 -21.5q0 -258 -82.5 -432.5t-238.5 -261.5t-375 -87q-213 0 -377.5 93zM375 1615q-2 4 -2 12q0 13 11 20l292 222q11 10 29 10h112q16 0 29 -10l292 -222q11 -7 11 -20q0 -8 -2 -12
l-52 -125q-5 -14 -18 -14q-6 0 -13 3l-304 153l-301 -154q-8 -3 -13 -3q-12 0 -18 14z" />
    <glyph glyph-name="gcircumflex" unicode="&#x11d;" horiz-adv-x="1215" 
d="M262.5 87q-105.5 67 -160 182.5t-54.5 261.5q0 142 57.5 260t163 187t243.5 69q177 0 282 -108l-4 67q-1 24 23 24h312q24 0 24 -23l-7 -514l3 -477q1 -128 -61.5 -222.5t-183 -145.5t-289.5 -51q-146 -3 -261 35.5t-183.5 117t-76.5 190.5q-1 11 5.5 17.5t17.5 6.5h308
q21 0 25 -21q11 -50 54 -78.5t117 -28.5q85 0 133.5 46.5t48.5 138.5v117q-52 -57 -123.5 -87.5t-159.5 -30.5q-148 0 -253.5 67zM802 535q0 140 -49 210t-143 70q-95 0 -145 -70.5t-50 -208.5q0 -144 48.5 -213.5t141.5 -69.5q197 0 197 282zM218 1245q-2 4 -2 12
q0 13 11 20l292 222q11 10 29 10h112q16 0 29 -10l292 -222q11 -7 11 -20q0 -8 -2 -12l-52 -125q-5 -14 -18 -14q-6 0 -13 3l-304 153l-301 -154q-8 -3 -13 -3q-12 0 -18 14z" />
    <glyph glyph-name="Gbreve" unicode="&#x11e;" horiz-adv-x="1522" 
d="M395.5 60q-164.5 93 -255.5 259.5t-91 380.5q0 218 89.5 384t252 257.5t373.5 91.5q270 0 442.5 -121.5t231.5 -343.5q1 -3 1 -8q0 -8 -5.5 -13t-15.5 -5h-339q-20 0 -26 20q-64 194 -283 194q-166 0 -251 -121t-85 -338q0 -214 87.5 -333.5t255.5 -119.5
q127 0 206.5 69.5t90.5 197.5h-312q-24 0 -24 23v220q0 23 24 23h684q11 0 17 -7.5t6 -21.5q0 -258 -82.5 -432.5t-238.5 -261.5t-375 -87q-213 0 -377.5 93zM570 1537.5q-83 42.5 -130.5 117.5t-53.5 169q-2 23 23 23h184q20 0 25 -23q7 -50 44.5 -80t99.5 -30
q60 0 98.5 30t45.5 80q5 23 25 23h185q23 0 22 -21q-5 -95 -52.5 -170t-131 -118t-192.5 -43t-192 42.5z" />
    <glyph glyph-name="gbreve" unicode="&#x11f;" horiz-adv-x="1215" 
d="M262.5 87q-105.5 67 -160 182.5t-54.5 261.5q0 142 57.5 260t163 187t243.5 69q177 0 282 -108l-4 67q-1 24 23 24h312q24 0 24 -23l-7 -514l3 -477q1 -128 -61.5 -222.5t-183 -145.5t-289.5 -51q-146 -3 -261 35.5t-183.5 117t-76.5 190.5q-1 11 5.5 17.5t17.5 6.5h308
q21 0 25 -21q11 -50 54 -78.5t117 -28.5q85 0 133.5 46.5t48.5 138.5v117q-52 -57 -123.5 -87.5t-159.5 -30.5q-148 0 -253.5 67zM802 535q0 140 -49 210t-143 70q-95 0 -145 -70.5t-50 -208.5q0 -144 48.5 -213.5t141.5 -69.5q197 0 197 282zM413 1167.5
q-83 42.5 -130.5 117.5t-53.5 169q-2 23 23 23h184q20 0 25 -23q7 -50 44.5 -80t99.5 -30q60 0 98.5 30t45.5 80q5 23 25 23h185q23 0 22 -21q-5 -95 -52.5 -170t-131 -118t-192.5 -43t-192 42.5z" />
    <glyph glyph-name="Gdotaccent" unicode="&#x120;" horiz-adv-x="1522" 
d="M395.5 60q-164.5 93 -255.5 259.5t-91 380.5q0 218 89.5 384t252 257.5t373.5 91.5q270 0 442.5 -121.5t231.5 -343.5q1 -3 1 -8q0 -8 -5.5 -13t-15.5 -5h-339q-20 0 -26 20q-64 194 -283 194q-166 0 -251 -121t-85 -338q0 -214 87.5 -333.5t255.5 -119.5
q127 0 206.5 69.5t90.5 197.5h-312q-24 0 -24 23v220q0 23 24 23h684q11 0 17 -7.5t6 -21.5q0 -258 -82.5 -432.5t-238.5 -261.5t-375 -87q-213 0 -377.5 93zM603 1485q-24 0 -24 24v243q0 11 6.5 17t17.5 6h318q10 0 16.5 -6t6.5 -17v-243q0 -11 -6 -17.5t-17 -6.5h-318z
" />
    <glyph glyph-name="gdotaccent" unicode="&#x121;" horiz-adv-x="1215" 
d="M262.5 87q-105.5 67 -160 182.5t-54.5 261.5q0 142 57.5 260t163 187t243.5 69q177 0 282 -108l-4 67q-1 24 23 24h312q24 0 24 -23l-7 -514l3 -477q1 -128 -61.5 -222.5t-183 -145.5t-289.5 -51q-146 -3 -261 35.5t-183.5 117t-76.5 190.5q-1 11 5.5 17.5t17.5 6.5h308
q21 0 25 -21q11 -50 54 -78.5t117 -28.5q85 0 133.5 46.5t48.5 138.5v117q-52 -57 -123.5 -87.5t-159.5 -30.5q-148 0 -253.5 67zM802 535q0 140 -49 210t-143 70q-95 0 -145 -70.5t-50 -208.5q0 -144 48.5 -213.5t141.5 -69.5q197 0 197 282zM445 1110q-24 0 -24 24v243
q0 11 6.5 17t17.5 6h318q10 0 16.5 -6t6.5 -17v-243q0 -11 -6 -17.5t-17 -6.5h-318z" />
    <glyph glyph-name="uni0122" unicode="&#x122;" horiz-adv-x="1522" 
d="M395.5 60q-164.5 93 -255.5 259.5t-91 380.5q0 218 89.5 384t252 257.5t373.5 91.5q270 0 442.5 -121.5t231.5 -343.5q1 -3 1 -8q0 -8 -5.5 -13t-15.5 -5h-339q-20 0 -26 20q-64 194 -283 194q-166 0 -251 -121t-85 -338q0 -214 87.5 -333.5t255.5 -119.5
q127 0 206.5 69.5t90.5 197.5h-312q-24 0 -24 23v220q0 23 24 23h684q11 0 17 -7.5t6 -21.5q0 -258 -82.5 -432.5t-238.5 -261.5t-375 -87q-213 0 -377.5 93zM586 -539q-13 0 -18.5 7t-2.5 19l41 184v227q0 11 6.5 17.5t17.5 6.5h274q11 0 17 -6.5t6 -17.5v-208
q0 -17 -10 -30l-161 -185q-10 -14 -28 -14h-142z" />
    <glyph glyph-name="uni0123" unicode="&#x123;" horiz-adv-x="1215" 
d="M262.5 87q-105.5 67 -160 182.5t-54.5 261.5q0 142 57.5 260t163 187t243.5 69q177 0 282 -108l-4 67q-1 24 23 24h312q24 0 24 -23l-7 -514l3 -477q1 -128 -61.5 -222.5t-183 -145.5t-289.5 -51q-146 -3 -261 35.5t-183.5 117t-76.5 190.5q-1 11 5.5 17.5t17.5 6.5h308
q21 0 25 -21q11 -50 54 -78.5t117 -28.5q85 0 133.5 46.5t48.5 138.5v117q-52 -57 -123.5 -87.5t-159.5 -30.5q-148 0 -253.5 67zM802 535q0 140 -49 210t-143 70q-95 0 -145 -70.5t-50 -208.5q0 -144 48.5 -213.5t141.5 -69.5q197 0 197 282zM420 1112q-11 0 -17.5 6.5
t-6.5 17.5v208q0 17 12 29l186 188q12 12 29 12h150q13 0 18.5 -7t2.5 -19l-41 -184v-227q0 -11 -6 -17.5t-17 -6.5h-310z" />
    <glyph glyph-name="Hcircumflex" unicode="&#x124;" horiz-adv-x="1439" 
d="M1347 704l14 -680q0 -24 -23 -24h-338q-23 0 -23 24l9 587h-533l9 -587q0 -24 -23 -24h-338q-23 0 -23 24l14 680l-14 673q0 23 23 23h338q23 0 23 -23l-8 -498h531l-8 498q0 23 23 23h338q23 0 23 -23zM334 1615q-2 4 -2 12q0 13 11 20l292 222q11 10 29 10h112
q16 0 29 -10l292 -222q11 -7 11 -20q0 -8 -2 -12l-52 -125q-5 -14 -18 -14q-6 0 -13 3l-304 153l-301 -154q-8 -3 -13 -3q-12 0 -18 14z" />
    <glyph glyph-name="hcircumflex" unicode="&#x125;" horiz-adv-x="1170" 
d="M1007.5 946.5q96.5 -107.5 95.5 -309.5l-1 -222l8 -391q2 -24 -22 -24h-323q-24 0 -23 24l9 389l-2 223q-1 80 -33.5 118.5t-90.5 38.5q-46 0 -88 -29t-72.5 -88.5t-39.5 -147.5l9 -504q0 -24 -22 -24h-322q-24 0 -24 24l10 587l-7 766q0 23 24 23h308q22 0 22 -23
l-7 -465q49 69 129 105.5t187 36.5q179 0 275.5 -107.5zM-139 1615q-2 4 -2 12q0 13 11 20l292 222q11 10 29 10h112q16 0 29 -10l292 -222q11 -7 11 -20q0 -8 -2 -12l-52 -125q-5 -14 -18 -14q-6 0 -13 3l-304 153l-301 -154q-8 -3 -13 -3q-12 0 -18 14z" />
    <glyph glyph-name="Hbar" unicode="&#x126;" horiz-adv-x="1446" 
d="M1404 1194q11 0 17 -6t6 -17v-221q0 -11 -6 -17.5t-17 -6.5h-53l-2 -222l9 -680q0 -24 -23 -24h-324q-23 0 -23 24l4 432h-537l5 -432q0 -24 -24 -24h-324q-23 0 -23 24l10 680l-3 222h-52q-11 0 -17.5 6.5t-6.5 17.5v221q0 11 6.5 17t17.5 6h48l-3 183q0 23 23 23h324
q24 0 24 -23l-2 -183h531l-1 183q0 23 23 23h324q23 0 23 -23l-3 -183h49zM455 926l-2 -202h542l-3 202h-537z" />
    <glyph glyph-name="hbar" unicode="&#x127;" horiz-adv-x="1146" 
d="M983.5 936.5q96.5 -107.5 95.5 -309.5l-1 -212l8 -391q2 -24 -22 -24h-323q-24 0 -23 24l9 389l-2 213q-1 80 -33.5 118.5t-90.5 38.5q-46 0 -88 -29t-72 -88.5t-39 -147.5l8 -494q0 -24 -22 -24h-322q-24 0 -24 24l10 587l-4 473h-53q-11 0 -17.5 6.5t-6.5 17.5v190
q0 23 24 23h51l-1 56q0 23 24 23h308q22 0 22 -23l-1 -56h266q11 0 17 -6t6 -17v-190q0 -24 -23 -24h-270l-3 -182q50 69 130 105.5t187 36.5q179 0 275.5 -107.5z" />
    <glyph glyph-name="Itilde" unicode="&#x128;" horiz-adv-x="554" 
d="M111 0q-23 0 -23 24l13 669l-13 684q0 23 23 23h332q23 0 23 -23l-13 -684l13 -669q0 -24 -23 -24h-332zM319.5 1518.5q-36.5 15.5 -78.5 42.5q-25 17 -42.5 25.5t-34.5 8.5q-46 0 -49 -70q-1 -11 -7.5 -17.5t-16.5 -6.5h-130q-24 0 -24 25q5 127 60 203t161 76
q44 0 81 -16t79 -44q28 -18 42 -25t27 -7q26 0 38 18t14 52q2 23 25 23h130q23 0 22 -30q-5 -131 -57.5 -202t-154.5 -71q-48 0 -84.5 15.5z" />
    <glyph glyph-name="itilde" unicode="&#x129;" horiz-adv-x="512" 
d="M295 1149q-32 16 -67 44q-25 18 -36 25t-24 7q-20 0 -29 -18t-11 -52q-1 -11 -7 -17.5t-17 -6.5h-114q-23 0 -23 25q4 131 49.5 205t131.5 74q40 0 70.5 -16t66.5 -44q24 -17 36 -24.5t24 -7.5q20 0 29 18t11 52q2 23 25 23h113q11 0 17 -10t5 -29q-5 -130 -49 -197
t-126 -67q-43 0 -75 16zM96 0q-23 0 -23 24l8 481l-8 502q0 23 23 23h320q23 0 23 -23l-7 -502l7 -481q0 -24 -23 -24h-320z" />
    <glyph glyph-name="Imacron" unicode="&#x12a;" horiz-adv-x="554" 
d="M111 0q-23 0 -23 24l13 669l-13 684q0 23 23 23h332q23 0 23 -23l-13 -684l13 -669q0 -24 -23 -24h-332zM-42 1510q-24 0 -24 24v178q0 11 6.5 17t17.5 6h637q10 0 16.5 -6t6.5 -17v-178q0 -11 -6 -17.5t-17 -6.5h-637z" />
    <glyph glyph-name="imacron" unicode="&#x12b;" horiz-adv-x="512" 
d="M-12 1140q-23 0 -23 24v178q0 11 6 17t17 6h535q11 0 17 -6t6 -17v-178q0 -11 -6 -17.5t-17 -6.5h-535zM96 0q-23 0 -23 24l8 481l-8 502q0 23 23 23h320q23 0 23 -23l-7 -502l7 -481q0 -24 -23 -24h-320z" />
    <glyph glyph-name="Ibreve" unicode="&#x12c;" horiz-adv-x="554" 
d="M111 0q-23 0 -23 24l13 669l-13 684q0 23 23 23h332q23 0 23 -23l-13 -684l13 -669q0 -24 -23 -24h-332zM86 1537.5q-83 42.5 -130.5 117.5t-53.5 169q-2 23 23 23h184q20 0 25 -23q7 -50 44.5 -80t99.5 -30q60 0 98.5 30t45.5 80q5 23 25 23h185q23 0 22 -21
q-5 -95 -52.5 -170t-131 -118t-192.5 -43t-192 42.5z" />
    <glyph glyph-name="ibreve" unicode="&#x12d;" horiz-adv-x="512" 
d="M89.5 1164q-71.5 39 -112.5 113t-45 176q-2 24 22 24h170q22 0 24 -23q9 -118 109 -118q48 0 76 29.5t32 88.5q2 23 24 23h170q24 0 22 -27q-4 -101 -45 -174t-112.5 -112t-166.5 -39q-96 0 -167.5 39zM96 0q-23 0 -23 24l8 481l-8 502q0 23 23 23h320q23 0 23 -23
l-7 -502l7 -481q0 -24 -23 -24h-320z" />
    <glyph glyph-name="Iogonek" unicode="&#x12e;" horiz-adv-x="554" 
d="M296 0q-18 -24 -33 -63.5t-15 -73.5q0 -72 97 -72h94q11 0 17 -6.5t6 -17.5v-184q0 -11 -6 -17t-17 -6h-129q-99 0 -174.5 29t-116.5 83t-41 127q0 127 115 208q-5 7 -5 17l13 669l-13 684q0 23 23 23h332q23 0 23 -23l-13 -684l13 -669q0 -24 -23 -24h-147z" />
    <glyph glyph-name="iogonek" unicode="&#x12f;" horiz-adv-x="512" 
d="M97 1110q-24 0 -24 24v243q0 11 6.5 17t17.5 6h318q11 0 17 -6t6 -17v-243q0 -11 -6 -17.5t-17 -6.5h-318zM425 -209q11 0 17 -6.5t6 -17.5v-184q0 -11 -6 -17t-17 -6h-129q-99 0 -174.5 29t-116.5 83t-41 127q0 125 114 208q-5 7 -5 17l8 481l-8 502q0 23 23 23h320
q23 0 23 -23l-7 -502l7 -481q0 -24 -23 -24h-134q-18 -24 -33 -63.5t-15 -73.5q0 -72 97 -72h94z" />
    <glyph glyph-name="Idotaccent" unicode="&#x130;" horiz-adv-x="554" 
d="M111 0q-23 0 -23 24l13 669l-13 684q0 23 23 23h332q23 0 23 -23l-13 -684l13 -669q0 -24 -23 -24h-332zM118 1480q-24 0 -24 24v243q0 11 6.5 17t17.5 6h318q10 0 16.5 -6t6.5 -17v-243q0 -11 -6 -17.5t-17 -6.5h-318z" />
    <glyph glyph-name="dotlessi" unicode="&#x131;" horiz-adv-x="512" 
d="M96 0q-23 0 -23 24l8 481l-8 502q0 23 23 23h320q23 0 23 -23l-7 -502l7 -481q0 -24 -23 -24h-320z" />
    <glyph glyph-name="IJ" unicode="&#x132;" horiz-adv-x="1700" 
d="M111 0q-23 0 -23 24l13 669l-13 684q0 23 23 23h332q23 0 23 -23l-13 -684l13 -669q0 -24 -23 -24h-332zM826 32q-113 63 -172.5 178.5t-64.5 272.5q0 24 23 24h317q11 0 17.5 -6.5t6.5 -18.5q3 -116 39.5 -172.5t110.5 -56.5q51 0 82 25t45.5 79.5t15.5 147.5l2 383
l-10 489q0 23 23 23h344q23 0 23 -23l-9 -489l3 -386q2 -267 -132 -400t-390 -133q-161 0 -274 63z" />
    <glyph glyph-name="ij" unicode="&#x133;" horiz-adv-x="1024" 
d="M96 0q-23 0 -23 24l8 481l-8 502q0 23 23 23h320q23 0 23 -23l-7 -502l7 -481q0 -24 -23 -24h-320zM97 1110q-24 0 -24 24v243q0 11 6.5 17t17.5 6h318q10 0 16.5 -6t6.5 -17v-243q0 -11 -6 -17.5t-17 -6.5h-318zM607 -340q-24 0 -24 23l11 683l-11 641q0 23 24 23h323
q23 0 23 -23l-11 -641l11 -683q0 -23 -23 -23h-323zM609 1110q-24 0 -24 24v243q0 11 6.5 17t17.5 6h318q10 0 16.5 -6t6.5 -17v-243q0 -11 -6 -17.5t-17 -6.5h-318z" />
    <glyph glyph-name="Jcircumflex" unicode="&#x134;" horiz-adv-x="1146" 
d="M272 32q-113 63 -172.5 178.5t-64.5 272.5q0 24 23 24h317q11 0 17.5 -6.5t6.5 -18.5q3 -116 39.5 -172.5t110.5 -56.5q51 0 82 25t45.5 79.5t15.5 147.5l2 383l-10 489q0 23 23 23h344q23 0 23 -23l-9 -489l3 -386q2 -267 -132 -400t-390 -133q-161 0 -274 63zM494 1615
q-2 4 -2 12q0 13 11 20l292 222q11 10 29 10h112q16 0 29 -10l292 -222q11 -7 11 -20q0 -8 -2 -12l-52 -125q-5 -14 -18 -14q-6 0 -13 3l-304 153l-301 -154q-8 -3 -13 -3q-12 0 -18 14z" />
    <glyph glyph-name="jcircumflex" unicode="&#x135;" horiz-adv-x="512" 
d="M-78 1245q-4 10 -4 14q0 10 10 19l243 220q14 12 29 12h110q17 0 29 -12l243 -220q10 -7 10 -19q0 -4 -4 -14l-62 -120q-6 -13 -18 -13q-7 0 -14 4l-238 155l-238 -155q-7 -5 -13 -5q-13 0 -19 14zM95 -340q-24 0 -24 23l11 683l-11 641q0 23 24 23h323q23 0 23 -23
l-11 -641l11 -683q0 -23 -23 -23h-323z" />
    <glyph glyph-name="uni0136" unicode="&#x136;" horiz-adv-x="1332" 
d="M1332 29q5 -6 5 -14q0 -7 -5 -11t-15 -4h-396q-16 0 -28 15l-351 524l-98 -123l5 -392q0 -24 -23 -24h-325q-23 0 -23 24l13 677l-12 676q0 23 23 23h324q23 0 23 -23l-7 -503l355 511q10 15 28 15h374q10 0 15.5 -4t5.5 -10q0 -4 -7 -15l-441 -545zM490 -539
q-13 0 -18.5 7t-2.5 19l41 184v227q0 11 6.5 17.5t17.5 6.5h274q11 0 17 -6.5t6 -17.5v-208q0 -17 -10 -30l-161 -185q-10 -14 -28 -14h-142z" />
    <glyph glyph-name="uni0137" unicode="&#x137;" horiz-adv-x="1110" 
d="M1097 28q4 -7 4 -13q0 -7 -5 -11t-15 -4h-364q-19 0 -28 17l-190 376l-77 -101l3 -268q0 -24 -23 -24h-313q-23 0 -23 24l12 679l-12 674q0 23 23 23h313q23 0 23 -23l-8 -664v-31l253 334q10 14 28 14h334q9 0 14.5 -4t5.5 -10q0 -8 -7 -15l-296 -338zM378 -539
q-13 0 -18.5 7t-2.5 19l41 184v227q0 11 6.5 17.5t17.5 6.5h274q11 0 17 -6.5t6 -17.5v-208q0 -17 -10 -30l-161 -185q-10 -14 -28 -14h-142z" />
    <glyph glyph-name="Lacute" unicode="&#x139;" horiz-adv-x="1035" 
d="M101 0q-23 0 -23 24l13 666l-13 687q0 23 23 23h335q23 0 23 -23l-9 -672l9 -436h527q11 0 17 -6t6 -17v-222q0 -11 -6 -17.5t-17 -6.5h-885zM75 1476q-2 -1 -7 -1q-17 0 -21 18l-41 130q-2 8 -2 10q0 14 16 20l494 199q4 2 11 2q13 0 19 -16l66 -219q1 -3 1 -8
q0 -16 -18 -21z" />
    <glyph glyph-name="lacute" unicode="&#x13a;" horiz-adv-x="503" 
d="M97 0q-24 0 -24 24l10 672l-10 681q0 23 24 23h310q23 0 23 -23l-10 -682l10 -671q0 -24 -23 -24h-310zM57 1476q-2 -1 -7 -1q-17 0 -21 18l-41 130q-2 8 -2 10q0 14 16 20l494 199q4 2 11 2q13 0 19 -16l66 -219q1 -3 1 -8q0 -16 -18 -21z" />
    <glyph glyph-name="uni013B" unicode="&#x13b;" horiz-adv-x="1035" 
d="M101 0q-23 0 -23 24l13 666l-13 687q0 23 23 23h335q23 0 23 -23l-9 -672l9 -436h527q11 0 17 -6t6 -17v-222q0 -11 -6 -17.5t-17 -6.5h-885zM374 -539q-13 0 -18.5 7t-2.5 19l41 184v227q0 11 6.5 17.5t17.5 6.5h274q11 0 17 -6.5t6 -17.5v-208q0 -17 -10 -30l-161 -185
q-10 -14 -28 -14h-142z" />
    <glyph glyph-name="uni013C" unicode="&#x13c;" horiz-adv-x="503" 
d="M97 0q-24 0 -24 24l10 672l-10 681q0 23 24 23h310q23 0 23 -23l-10 -682l10 -671q0 -24 -23 -24h-310zM70 -539q-13 0 -18.5 7t-2.5 19l41 184v227q0 11 6.5 17.5t17.5 6.5h274q11 0 17 -6.5t6 -17.5v-208q0 -17 -10 -30l-161 -185q-10 -14 -28 -14h-142z" />
    <glyph glyph-name="Lcaron" unicode="&#x13d;" horiz-adv-x="1035" 
d="M101 0q-23 0 -23 24l13 666l-13 687q0 23 23 23h335q23 0 23 -23l-9 -672l9 -436h527q11 0 17 -6t6 -17v-222q0 -11 -6 -17.5t-17 -6.5h-885zM774 921q-6 -21 -26 -21h-179q-11 0 -17.5 6.5t-5.5 18.5l44 453q1 22 24 22h239q13 0 18.5 -7t2.5 -19z" />
    <glyph glyph-name="lcaron" unicode="&#x13e;" horiz-adv-x="503" 
d="M97 0q-24 0 -24 24l10 672l-10 681q0 23 24 23h310q23 0 23 -23l-10 -682l10 -671q0 -24 -23 -24h-310zM721 1111q-6 -21 -26 -21h-179q-11 0 -17.5 6.5t-5.5 18.5l44 453q1 22 24 22h239q13 0 18.5 -7t2.5 -19z" />
    <glyph glyph-name="Ldot" unicode="&#x13f;" horiz-adv-x="1035" 
d="M101 0q-23 0 -23 24l13 666l-13 687q0 23 23 23h335q23 0 23 -23l-9 -672l9 -436h527q11 0 17 -6t6 -17v-222q0 -11 -6 -17.5t-17 -6.5h-885zM627 618q-24 0 -24 24v243q0 11 6.5 17t17.5 6h318q10 0 16.5 -6t6.5 -17v-243q0 -11 -6 -17.5t-17 -6.5h-318z" />
    <glyph glyph-name="ldot" unicode="&#x140;" horiz-adv-x="829" 
d="M97 0q-24 0 -24 24l10 672l-10 681q0 23 24 23h310q23 0 23 -23l-10 -682l10 -671q0 -24 -23 -24h-310zM527 486q-11 0 -17.5 6.5t-6.5 17.5v253q0 11 6.5 17.5t17.5 6.5h279q11 0 17 -6.5t6 -17.5v-253q0 -11 -6 -17.5t-17 -6.5h-279z" />
    <glyph glyph-name="Lslash" unicode="&#x141;" horiz-adv-x="1049" 
d="M683 954q8 2 10 2q17 0 17 -21v-219q0 -20 -19 -26l-213 -70l8 -351h526q24 0 24 -23v-222q0 -11 -6.5 -17.5t-17.5 -6.5h-884q-23 0 -23 24l9 478l-66 -22l-9 -2q-8 0 -13 5.5t-5 15.5v219q0 20 19 26l76 25l-11 608q0 23 23 23h335q23 0 23 -23l-7 -490z" />
    <glyph glyph-name="lslash" unicode="&#x142;" horiz-adv-x="543" 
d="M470 769q5 4 12 4t11.5 -5.5t4.5 -15.5v-218q0 -19 -17 -28l-40 -21l6 -461q0 -24 -23 -24h-310q-23 0 -23 24l4 278l-23 -12q-5 -4 -12 -4t-11.5 5.5t-4.5 15.5v218q0 20 17 28l38 20l2 123l-10 681q0 23 23 23h310q23 0 23 -23l-8 -624z" />
    <glyph glyph-name="Nacute" unicode="&#x143;" horiz-adv-x="1414" 
d="M101 0q-23 0 -23 24l11 670l-11 683q0 23 23 23h385q19 0 28 -16l490 -869l-10 259v603q0 23 23 23h295q23 0 23 -23l-11 -683l12 -670q0 -24 -23 -24h-398q-19 0 -28 16l-478 862l11 -299l1 -555q0 -24 -24 -24h-296zM528 1476q-2 -1 -7 -1q-17 0 -21 18l-41 130
q-2 8 -2 10q0 14 16 20l494 199q4 2 11 2q13 0 19 -16l66 -219q1 -3 1 -8q0 -16 -18 -21z" />
    <glyph glyph-name="nacute" unicode="&#x144;" horiz-adv-x="1171" 
d="M1104 437l7 -413q0 -24 -24 -24h-319q-23 0 -23 24l6 413v201q0 73 -35 114t-92 41q-54 0 -98 -37.5t-70 -109.5t-26 -173v-38l5 -411q0 -24 -24 -24h-321q-22 0 -22 24l8 483l-5 500q0 23 24 23h299q24 0 24 -24l-5 -101q51 73 137 111t189 38q114 0 196 -48t125.5 -136
t43.5 -206v-227zM394 1106q-2 -1 -7 -1q-17 0 -21 18l-41 130q-2 8 -2 10q0 14 16 20l494 199q4 2 11 2q13 0 19 -16l66 -219q1 -3 1 -8q0 -16 -18 -21z" />
    <glyph glyph-name="uni0145" unicode="&#x145;" horiz-adv-x="1414" 
d="M101 0q-23 0 -23 24l11 670l-11 683q0 23 23 23h385q19 0 28 -16l490 -869l-10 259v603q0 23 23 23h295q23 0 23 -23l-11 -683l12 -670q0 -24 -23 -24h-398q-19 0 -28 16l-478 862l11 -299l1 -555q0 -24 -24 -24h-296zM527 -539q-13 0 -18.5 7t-2.5 19l41 184v227
q0 11 6.5 17.5t17.5 6.5h274q11 0 17 -6.5t6 -17.5v-208q0 -17 -10 -30l-161 -185q-10 -14 -28 -14h-142z" />
    <glyph glyph-name="uni0146" unicode="&#x146;" horiz-adv-x="1171" 
d="M1104 437l7 -413q0 -24 -24 -24h-319q-23 0 -23 24l6 413v201q0 73 -35 114t-92 41q-54 0 -98 -37.5t-70 -109.5t-26 -173v-38l5 -411q0 -24 -24 -24h-321q-22 0 -22 24l8 483l-5 500q0 23 24 23h299q24 0 24 -24l-5 -101q51 73 137 111t189 38q114 0 196 -48t125.5 -136
t43.5 -206v-227zM409 -539q-13 0 -18.5 7t-2.5 19l41 184v227q0 11 6.5 17.5t17.5 6.5h274q11 0 17 -6.5t6 -17.5v-208q0 -17 -10 -30l-161 -185q-10 -14 -28 -14h-142z" />
    <glyph glyph-name="Ncaron" unicode="&#x147;" horiz-adv-x="1414" 
d="M101 0q-23 0 -23 24l11 670l-11 683q0 23 23 23h385q19 0 28 -16l490 -869l-10 259v603q0 23 23 23h295q23 0 23 -23l-11 -683l12 -670q0 -24 -23 -24h-398q-19 0 -28 16l-478 862l11 -299l1 -555q0 -24 -24 -24h-296zM346 1719q-11 8 -11 20q0 7 2 11l52 126q6 14 18 14
q5 0 13 -3l302 -153l301 154q8 3 13 3q12 0 18 -14l53 -127q3 -6 3 -12q0 -11 -12 -19l-292 -220q-11 -10 -29 -10h-110q-18 0 -29 10z" />
    <glyph glyph-name="ncaron" unicode="&#x148;" horiz-adv-x="1171" 
d="M1104 437l7 -413q0 -24 -24 -24h-319q-23 0 -23 24l6 413v201q0 73 -35 114t-92 41q-54 0 -98 -37.5t-70 -109.5t-26 -173v-38l5 -411q0 -24 -24 -24h-321q-22 0 -22 24l8 483l-5 500q0 23 24 23h299q24 0 24 -24l-5 -101q51 73 137 111t189 38q114 0 196 -48t125.5 -136
t43.5 -206v-227zM213 1349q-11 8 -11 20q0 7 2 11l52 126q6 14 18 14q5 0 13 -3l302 -153l301 154q8 3 13 3q12 0 18 -14l53 -127q3 -6 3 -12q0 -11 -12 -19l-292 -220q-11 -10 -29 -10h-110q-18 0 -29 10z" />
    <glyph glyph-name="Eng" unicode="&#x14a;" horiz-adv-x="1410" 
d="M101 0q-23 0 -23 24l7 670l-7 683q0 23 23 23h384q19 0 28 -15l482 -756l-3 115l1 633q0 11 6.5 17t17.5 6h291q24 0 24 -23l-7 -622l7 -776q1 -118 -49.5 -194.5t-135 -111.5t-189.5 -35q-81 0 -200 17q-21 4 -21 26v201q0 21 18 21q5 0 8 -1q45 -9 105 -9q58 0 87 24
t29 84v10l-577 906l11 -263l-1 -630q0 -11 -6 -17.5t-17 -6.5h-293z" />
    <glyph glyph-name="eng" unicode="&#x14b;" horiz-adv-x="1166" 
d="M522 -343q-22 3 -22 25v202q0 12 7 17.5t18 3.5q50 -11 120 -11q49 0 75 24.5t27 87.5l3 632q0 73 -34.5 114t-91.5 41q-54 0 -98.5 -38t-70 -111.5t-25.5 -175.5v-42l5 -402q0 -24 -24 -24h-320q-23 0 -23 24l5 483l-2 500q0 23 24 23h300q25 0 23 -24l-5 -101
q51 73 137 111t189 38q114 0 197 -48t126.5 -136t43.5 -206l-1 -693q0 -114 -50.5 -188t-133.5 -108.5t-184 -34.5q-72 0 -215 17z" />
    <glyph glyph-name="Omacron" unicode="&#x14c;" horiz-adv-x="1560" 
d="M395.5 60q-165.5 93 -256 258.5t-90.5 376.5q0 221 89.5 388t254.5 258.5t386 91.5q219 0 384.5 -90t256.5 -257t91 -391q0 -210 -90.5 -375.5t-257 -259t-384.5 -93.5t-383.5 93zM1037.5 364.5q88.5 118.5 88.5 330.5q0 214 -88.5 336.5t-258.5 122.5t-257.5 -120
t-87.5 -339q0 -138 40 -239t118.5 -155.5t189.5 -54.5q167 0 255.5 118.5zM457 1510q-24 0 -24 24v178q0 11 6.5 17t17.5 6h637q10 0 16.5 -6t6.5 -17v-178q0 -11 -6 -17.5t-17 -6.5h-637z" />
    <glyph glyph-name="omacron" unicode="&#x14d;" horiz-adv-x="1192" 
d="M303 38q-124 66 -189.5 187.5t-65.5 286.5t65.5 288t189.5 190.5t295 67.5q172 0 295 -65.5t187 -187t64 -286.5t-64.5 -288.5t-187.5 -191t-294 -67.5t-295 66zM699 239.5q39 29.5 58 95.5t19 177q0 162 -44 235.5t-136 73.5q-95 -2 -138.5 -75.5t-43.5 -236.5
q0 -160 45 -229.5t139 -69.5q62 0 101 29.5zM278 1140q-24 0 -24 24v178q0 11 6.5 17t17.5 6h637q10 0 16.5 -6t6.5 -17v-178q0 -11 -6 -17.5t-17 -6.5h-637z" />
    <glyph glyph-name="Obreve" unicode="&#x14e;" horiz-adv-x="1560" 
d="M395.5 60q-165.5 93 -256 258.5t-90.5 376.5q0 221 89.5 388t254.5 258.5t386 91.5q219 0 384.5 -90t256.5 -257t91 -391q0 -210 -90.5 -375.5t-257 -259t-384.5 -93.5t-383.5 93zM1037.5 364.5q88.5 118.5 88.5 330.5q0 214 -88.5 336.5t-258.5 122.5t-257.5 -120
t-87.5 -339q0 -138 40 -239t118.5 -155.5t189.5 -54.5q167 0 255.5 118.5zM585 1537.5q-83 42.5 -130.5 117.5t-53.5 169q-2 23 23 23h184q20 0 25 -23q7 -50 44.5 -80t99.5 -30q60 0 98.5 30t45.5 80q5 23 25 23h185q23 0 22 -21q-5 -95 -52.5 -170t-131 -118t-192.5 -43
t-192 42.5z" />
    <glyph glyph-name="obreve" unicode="&#x14f;" horiz-adv-x="1192" 
d="M303 38q-124 66 -189.5 187.5t-65.5 286.5t65.5 288t189.5 190.5t295 67.5q172 0 295 -65.5t187 -187t64 -286.5t-64.5 -288.5t-187.5 -191t-294 -67.5t-295 66zM699 239.5q39 29.5 58 95.5t19 177q0 162 -44 235.5t-136 73.5q-95 -2 -138.5 -75.5t-43.5 -236.5
q0 -160 45 -229.5t139 -69.5q62 0 101 29.5zM406 1167.5q-83 42.5 -130.5 117.5t-53.5 169q-2 23 23 23h184q20 0 25 -23q7 -50 44.5 -80t99.5 -30q60 0 98.5 30t45.5 80q5 23 25 23h185q23 0 22 -21q-5 -95 -52.5 -170t-131 -118t-192.5 -43t-192 42.5z" />
    <glyph glyph-name="Ohungarumlaut" unicode="&#x150;" horiz-adv-x="1560" 
d="M395.5 60q-165.5 93 -256 258.5t-90.5 376.5q0 221 89.5 388t254.5 258.5t386 91.5q219 0 384.5 -90t256.5 -257t91 -391q0 -210 -90.5 -375.5t-257 -259t-384.5 -93.5t-383.5 93zM1037.5 364.5q88.5 118.5 88.5 330.5q0 214 -88.5 336.5t-258.5 122.5t-257.5 -120
t-87.5 -339q0 -138 40 -239t118.5 -155.5t189.5 -54.5q167 0 255.5 118.5zM603 1512q-7 -8 -17 -8q-9 0 -16 7l-86 71q-10 9 -10 19q0 6 5 14l236 353q7 11 17 11q9 0 16 -7l145 -141q8 -8 8 -16q0 -7 -8 -17zM974 1499q-8 -9 -17 -9q-7 0 -16 7l-87 70q-9 8 -9 18q0 7 5 15
l236 353q7 12 17 12q8 0 16 -8l144 -138q8 -8 8 -16q0 -7 -8 -17z" />
    <glyph glyph-name="ohungarumlaut" unicode="&#x151;" horiz-adv-x="1192" 
d="M303 38q-124 66 -189.5 187.5t-65.5 286.5t65.5 288t189.5 190.5t295 67.5q172 0 295 -65.5t187 -187t64 -286.5t-64.5 -288.5t-187.5 -191t-294 -67.5t-295 66zM699 239.5q39 29.5 58 95.5t19 177q0 162 -44 235.5t-136 73.5q-95 -2 -138.5 -75.5t-43.5 -236.5
q0 -160 45 -229.5t139 -69.5q62 0 101 29.5zM424 1142q-7 -8 -17 -8q-9 0 -16 7l-86 71q-10 9 -10 19q0 6 5 14l236 353q7 11 17 11q9 0 16 -7l145 -141q8 -8 8 -16q0 -7 -8 -17zM795 1129q-8 -9 -17 -9q-7 0 -16 7l-87 70q-9 8 -9 18q0 7 5 15l236 353q7 12 17 12
q8 0 16 -8l144 -138q8 -8 8 -16q0 -7 -8 -17z" />
    <glyph glyph-name="OE" unicode="&#x152;" horiz-adv-x="2067" 
d="M2001 269q11 0 17 -6t6 -17v-222q0 -11 -6 -17.5t-17 -6.5h-1196q-214 0 -384 68.5t-271 221.5t-101 395q0 246 103 406t274 234.5t383 74.5h1176q11 0 17 -6t6 -17v-221q0 -11 -6 -17.5t-17 -6.5h-628l-4 -263h569q11 0 17 -6t6 -17v-221q0 -11 -6 -17.5t-17 -6.5h-570
l5 -332h644zM980 269l8 419l-8 444h-183q-111 0 -194.5 -47.5t-130.5 -147t-47 -249.5q0 -216 96.5 -317.5t267.5 -101.5h191z" />
    <glyph glyph-name="oe" unicode="&#x153;" horiz-adv-x="1925" 
d="M283.5 38q-118.5 66 -181 187.5t-62.5 286.5t62.5 288t181 190.5t282.5 67.5q130 0 229.5 -45t163.5 -131q64 86 163 131t226 45q168 0 286.5 -73t181 -207.5t66.5 -318.5q0 -24 -23 -24h-719q10 -119 56.5 -172t135.5 -53q61 0 102.5 25.5t59.5 87.5q6 20 26 20h299
q11 0 18 -4.5t6 -11.5q-11 -91 -74 -172.5t-171 -132t-246 -50.5q-130 0 -229.5 47t-164.5 132q-65 -86 -164.5 -132.5t-227.5 -46.5q-164 0 -282.5 66zM1209.5 782.5q-43.5 -40.5 -60.5 -124.5h345q-13 70 -54 117.5t-114 47.5t-116.5 -40.5zM691.5 239.5
q38.5 29.5 57.5 95.5t19 177q0 162 -44 235.5t-136 73.5q-95 -2 -138.5 -75.5t-43.5 -236.5q0 -160 45 -229.5t140 -69.5q62 0 100.5 29.5z" />
    <glyph glyph-name="Racute" unicode="&#x154;" horiz-adv-x="1345" 
d="M1317 28q5 -8 5 -14t-5.5 -10t-14.5 -4h-379q-19 0 -29 16l-201 335l-94 141h-148l8 -468q0 -24 -23 -24h-335q-23 0 -23 24l11 665l-11 688q0 23 23 23h603q282 0 431.5 -115t149.5 -340q0 -148 -77 -253t-222 -155zM456 1137l-6 -382h274q84 0 142.5 45t58.5 137
q0 200 -211 200h-258zM466 1476q-2 -1 -7 -1q-17 0 -21 18l-41 130q-2 8 -2 10q0 14 16 20l494 199q4 2 11 2q13 0 19 -16l66 -219q1 -3 1 -8q0 -16 -18 -21z" />
    <glyph glyph-name="racute" unicode="&#x155;" horiz-adv-x="849" 
d="M88 0q-23 0 -23 24l11 487l-11 496q0 23 23 23h311q24 0 24 -24l-7 -142q60 86 149.5 129.5t197.5 43.5q18 0 35 -3q22 -5 22 -26v-217q0 -23 -19 -23l-25 1q-108 0 -188.5 -41t-123.5 -122.5t-39 -197.5l2 -384q0 -24 -24 -24h-315zM244 1106q-2 -1 -7 -1q-17 0 -21 18
l-41 130q-2 8 -2 10q0 14 16 20l494 199q4 2 11 2q13 0 19 -16l66 -219q1 -3 1 -8q0 -16 -18 -21z" />
    <glyph glyph-name="uni0156" unicode="&#x156;" horiz-adv-x="1345" 
d="M1317 28q5 -8 5 -14t-5.5 -10t-14.5 -4h-379q-19 0 -29 16l-201 335l-94 141h-148l8 -468q0 -24 -23 -24h-335q-23 0 -23 24l11 665l-11 688q0 23 23 23h603q282 0 431.5 -115t149.5 -340q0 -148 -77 -253t-222 -155zM456 1137l-6 -382h274q84 0 142.5 45t58.5 137
q0 200 -211 200h-258zM503 -539q-13 0 -18.5 7t-2.5 19l41 184v227q0 11 6.5 17.5t17.5 6.5h274q11 0 17 -6.5t6 -17.5v-208q0 -17 -10 -30l-161 -185q-10 -14 -28 -14h-142z" />
    <glyph glyph-name="uni0157" unicode="&#x157;" horiz-adv-x="849" 
d="M88 0q-23 0 -23 24l11 487l-11 496q0 23 23 23h311q24 0 24 -24l-7 -142q60 86 149.5 129.5t197.5 43.5q18 0 35 -3q22 -5 22 -26v-217q0 -23 -19 -23l-25 1q-108 0 -188.5 -41t-123.5 -122.5t-39 -197.5l2 -384q0 -24 -24 -24h-315zM65 -539q-13 0 -18.5 7t-2.5 19
l41 184v227q0 11 6.5 17.5t17.5 6.5h274q11 0 17 -6.5t6 -17.5v-208q0 -17 -10 -30l-161 -185q-10 -14 -28 -14h-142z" />
    <glyph glyph-name="Rcaron" unicode="&#x158;" horiz-adv-x="1345" 
d="M1317 28q5 -8 5 -14t-5.5 -10t-14.5 -4h-379q-19 0 -29 16l-201 335l-94 141h-148l8 -468q0 -24 -23 -24h-335q-23 0 -23 24l11 665l-11 688q0 23 23 23h603q282 0 431.5 -115t149.5 -340q0 -148 -77 -253t-222 -155zM456 1137l-6 -382h274q84 0 142.5 45t58.5 137
q0 200 -211 200h-258zM284 1719q-11 8 -11 20q0 7 2 11l52 126q6 14 18 14q5 0 13 -3l302 -153l301 154q8 3 13 3q12 0 18 -14l53 -127q3 -6 3 -12q0 -11 -12 -19l-292 -220q-11 -10 -29 -10h-110q-18 0 -29 10z" />
    <glyph glyph-name="rcaron" unicode="&#x159;" horiz-adv-x="849" 
d="M88 0q-23 0 -23 24l11 487l-11 496q0 23 23 23h311q24 0 24 -24l-7 -142q60 86 149.5 129.5t197.5 43.5q18 0 35 -3q22 -5 22 -26v-217q0 -23 -19 -23l-25 1q-108 0 -188.5 -41t-123.5 -122.5t-39 -197.5l2 -384q0 -24 -24 -24h-315zM62 1349q-11 8 -11 20q0 7 2 11
l52 126q6 14 18 14q5 0 13 -3l302 -153l301 154q8 3 13 3q12 0 18 -14l53 -127q3 -6 3 -12q0 -11 -12 -19l-292 -220q-11 -10 -29 -10h-110q-18 0 -29 10z" />
    <glyph glyph-name="Sacute" unicode="&#x15a;" horiz-adv-x="1364" 
d="M369 18q-142 54 -225.5 160t-99.5 260q-1 12 5 18.5t17 6.5h334q22 0 26 -21q19 -104 85 -155.5t197 -51.5q118 0 178 35t60 110q0 51 -40.5 82.5t-103.5 48.5t-173 38q-174 33 -285.5 71t-192.5 127t-81 245q0 134 67.5 233.5t199 153.5t318.5 54q260 0 421.5 -102
t198.5 -319l1 -6q0 -9 -6 -14t-17 -5h-335q-11 0 -17 5.5t-8 16.5q-13 73 -75.5 112t-167.5 39q-95 0 -151.5 -32t-56.5 -99q0 -47 40 -76.5t100.5 -45.5t172.5 -37q175 -32 289.5 -69.5t197 -125.5t82.5 -243q0 -149 -74 -254t-214 -159.5t-334 -54.5q-191 0 -333 54z
M478 1476q-2 -1 -7 -1q-17 0 -21 18l-41 130q-2 8 -2 10q0 14 16 20l494 199q4 2 11 2q13 0 19 -16l66 -219q1 -3 1 -8q0 -16 -18 -21z" />
    <glyph glyph-name="sacute" unicode="&#x15b;" horiz-adv-x="1112" 
d="M311.5 14q-117.5 39 -188 116t-79.5 188q-1 11 5.5 17.5t17.5 6.5h304q21 0 24 -23q9 -64 53.5 -95t126.5 -31q151 0 151 94q0 30 -27.5 47.5t-70 27t-118.5 21.5q-135 20 -223.5 46.5t-153.5 93.5t-65 189q0 108 57 185t161 117.5t245 40.5q211 0 340.5 -82t154.5 -240
q1 -12 -5 -18.5t-18 -6.5h-288q-20 0 -25 21q-27 110 -153 110q-127 0 -127 -90q0 -32 28 -50.5t70.5 -28t122.5 -21.5q134 -19 221.5 -44.5t152 -92.5t64.5 -190q0 -107 -62.5 -185.5t-173.5 -120t-254 -41.5q-150 0 -267.5 39zM357 1106q-2 -1 -7 -1q-17 0 -21 18l-41 130
q-2 8 -2 10q0 14 16 20l494 199q4 2 11 2q13 0 19 -16l66 -219q1 -3 1 -8q0 -16 -18 -21z" />
    <glyph glyph-name="Scircumflex" unicode="&#x15c;" horiz-adv-x="1364" 
d="M369 18q-142 54 -225.5 160t-99.5 260q-1 12 5 18.5t17 6.5h334q22 0 26 -21q19 -104 85 -155.5t197 -51.5q118 0 178 35t60 110q0 51 -40.5 82.5t-103.5 48.5t-173 38q-174 33 -285.5 71t-192.5 127t-81 245q0 134 67.5 233.5t199 153.5t318.5 54q260 0 421.5 -102
t198.5 -319l1 -6q0 -9 -6 -14t-17 -5h-335q-11 0 -17 5.5t-8 16.5q-13 73 -75.5 112t-167.5 39q-95 0 -151.5 -32t-56.5 -99q0 -47 40 -76.5t100.5 -45.5t172.5 -37q175 -32 289.5 -69.5t197 -125.5t82.5 -243q0 -149 -74 -254t-214 -159.5t-334 -54.5q-191 0 -333 54z
M287 1615q-2 4 -2 12q0 13 11 20l292 222q11 10 29 10h112q16 0 29 -10l292 -222q11 -7 11 -20q0 -8 -2 -12l-52 -125q-5 -14 -18 -14q-6 0 -13 3l-304 153l-301 -154q-8 -3 -13 -3q-12 0 -18 14z" />
    <glyph glyph-name="scircumflex" unicode="&#x15d;" horiz-adv-x="1112" 
d="M311.5 14q-117.5 39 -188 116t-79.5 188q-1 11 5.5 17.5t17.5 6.5h304q21 0 24 -23q9 -64 53.5 -95t126.5 -31q151 0 151 94q0 30 -27.5 47.5t-70 27t-118.5 21.5q-135 20 -223.5 46.5t-153.5 93.5t-65 189q0 108 57 185t161 117.5t245 40.5q211 0 340.5 -82t154.5 -240
q1 -12 -5 -18.5t-18 -6.5h-288q-20 0 -25 21q-27 110 -153 110q-127 0 -127 -90q0 -32 28 -50.5t70.5 -28t122.5 -21.5q134 -19 221.5 -44.5t152 -92.5t64.5 -190q0 -107 -62.5 -185.5t-173.5 -120t-254 -41.5q-150 0 -267.5 39zM165 1245q-2 4 -2 12q0 13 11 20l292 222
q11 10 29 10h112q16 0 29 -10l292 -222q11 -7 11 -20q0 -8 -2 -12l-52 -125q-5 -14 -18 -14q-6 0 -13 3l-304 153l-301 -154q-8 -3 -13 -3q-12 0 -18 14z" />
    <glyph glyph-name="Scedilla" unicode="&#x15e;" horiz-adv-x="1364" 
d="M1192.5 112.5q-131.5 -119.5 -370.5 -142.5l-69 -316q-2 -11 -9.5 -15.5t-18.5 -2.5l-286 44q-19 3 -19 18q0 2 2 10l103 269q-212 33 -336 150t-145 311q-1 12 5 18.5t17 6.5h334q22 0 26 -21q19 -104 85 -155.5t197 -51.5q118 0 178 35t60 110q0 51 -40.5 82.5
t-103.5 48.5t-173 38q-174 33 -285.5 71t-192.5 127t-81 245q0 134 67.5 233.5t199 153.5t318.5 54q260 0 421.5 -102t198.5 -319l1 -6q0 -9 -6 -14t-17 -5h-335q-11 0 -17 5.5t-8 16.5q-13 73 -75.5 112t-167.5 39q-95 0 -151.5 -32t-56.5 -99q0 -47 40 -76.5t100.5 -45.5
t172.5 -37q175 -32 289.5 -69.5t197 -125.5t82.5 -243q0 -200 -131.5 -319.5z" />
    <glyph glyph-name="scedilla" unicode="&#x15f;" horiz-adv-x="1112" 
d="M969 96.5q-100 -88.5 -269 -113.5l-72 -329q-2 -11 -9.5 -15.5t-18.5 -2.5l-286 44q-19 3 -19 18q0 2 2 10l108 282q-158 29 -254 113t-107 215q-1 11 5.5 17.5t17.5 6.5h304q21 0 24 -23q9 -64 53.5 -95t126.5 -31q151 0 151 94q0 30 -27.5 47.5t-70 27t-118.5 21.5
q-135 20 -223.5 46.5t-153.5 93.5t-65 189q0 108 57 185t161 117.5t245 40.5q211 0 340.5 -82t154.5 -240q1 -12 -5 -18.5t-18 -6.5h-288q-20 0 -25 21q-27 110 -153 110q-127 0 -127 -90q0 -32 28 -50.5t70.5 -28t122.5 -21.5q134 -19 221.5 -44.5t152 -92.5t64.5 -190
q0 -137 -100 -225.5z" />
    <glyph glyph-name="Scaron" unicode="&#x160;" horiz-adv-x="1364" 
d="M369 18q-142 54 -225.5 160t-99.5 260q-1 12 5 18.5t17 6.5h334q22 0 26 -21q19 -104 85 -155.5t197 -51.5q118 0 178 35t60 110q0 51 -40.5 82.5t-103.5 48.5t-173 38q-174 33 -285.5 71t-192.5 127t-81 245q0 134 67.5 233.5t199 153.5t318.5 54q260 0 421.5 -102
t198.5 -319l1 -6q0 -9 -6 -14t-17 -5h-335q-11 0 -17 5.5t-8 16.5q-13 73 -75.5 112t-167.5 39q-95 0 -151.5 -32t-56.5 -99q0 -47 40 -76.5t100.5 -45.5t172.5 -37q175 -32 289.5 -69.5t197 -125.5t82.5 -243q0 -149 -74 -254t-214 -159.5t-334 -54.5q-191 0 -333 54z
M297 1719q-11 8 -11 20q0 7 2 11l52 126q6 14 18 14q5 0 13 -3l302 -153l301 154q8 3 13 3q12 0 18 -14l53 -127q3 -6 3 -12q0 -11 -12 -19l-292 -220q-11 -10 -29 -10h-110q-18 0 -29 10z" />
    <glyph glyph-name="scaron" unicode="&#x161;" horiz-adv-x="1112" 
d="M311.5 14q-117.5 39 -188 116t-79.5 188q-1 11 5.5 17.5t17.5 6.5h304q21 0 24 -23q9 -64 53.5 -95t126.5 -31q151 0 151 94q0 30 -27.5 47.5t-70 27t-118.5 21.5q-135 20 -223.5 46.5t-153.5 93.5t-65 189q0 108 57 185t161 117.5t245 40.5q211 0 340.5 -82t154.5 -240
q1 -12 -5 -18.5t-18 -6.5h-288q-20 0 -25 21q-27 110 -153 110q-127 0 -127 -90q0 -32 28 -50.5t70.5 -28t122.5 -21.5q134 -19 221.5 -44.5t152 -92.5t64.5 -190q0 -107 -62.5 -185.5t-173.5 -120t-254 -41.5q-150 0 -267.5 39zM175 1349q-11 8 -11 20q0 7 2 11l52 126
q6 14 18 14q5 0 13 -3l302 -153l301 154q8 3 13 3q12 0 18 -14l53 -127q3 -6 3 -12q0 -11 -12 -19l-292 -220q-11 -10 -29 -10h-110q-18 0 -29 10z" />
    <glyph glyph-name="uni0162" unicode="&#x162;" horiz-adv-x="1231" 
d="M1176 1400q11 0 17.5 -6t6.5 -17v-221q0 -11 -6.5 -17.5t-17.5 -6.5h-370l-10 -428l15 -680q0 -24 -23 -24h-29l-74 -346q-2 -11 -9.5 -15.5t-18.5 -2.5l-286 44q-19 3 -19 18q0 2 2 10l109 292h-20q-23 0 -23 24l15 680l-10 428h-371q-11 0 -17 6.5t-6 17.5v221
q0 11 6.5 17t16.5 6h1122z" />
    <glyph glyph-name="uni0163" unicode="&#x163;" horiz-adv-x="814" 
d="M528 779v-115l2 -320q0 -63 26.5 -87.5t73.5 -24.5q56 0 113 17q3 1 8 1q8 0 13 -5.5t5 -15.5v-184q0 -20 -18 -27q-68 -25 -134 -34l-72 -330q-2 -11 -9.5 -15.5t-18.5 -2.5l-286 44q-19 3 -19 18q0 2 2 10l120 313l1 3q-77 40 -121 115t-44 187l2 337l1 116h-111
q-11 0 -17.5 6.5t-6.5 17.5v204q0 23 24 23h110l-2 235q0 23 23 23h314q24 0 24 -23l-3 -235h221q11 0 17 -6t6 -17v-204q0 -24 -23 -24h-221z" />
    <glyph glyph-name="Tcaron" unicode="&#x164;" horiz-adv-x="1231" 
d="M443 0q-23 0 -23 24l15 680l-10 428h-371q-11 0 -17 6.5t-6 17.5v221q0 11 6.5 17t16.5 6h1122q11 0 17.5 -6t6.5 -17v-221q0 -11 -6.5 -17.5t-17.5 -6.5h-370l-10 -428l15 -680q0 -24 -23 -24h-345zM240 1719q-11 8 -11 20q0 7 2 11l52 126q6 14 18 14q5 0 13 -3
l302 -153l301 154q8 3 13 3q12 0 18 -14l53 -127q3 -6 3 -12q0 -11 -12 -19l-292 -220q-11 -10 -29 -10h-110q-18 0 -29 10z" />
    <glyph glyph-name="tcaron" unicode="&#x165;" horiz-adv-x="814" 
d="M354.5 14q-83.5 36 -134 114t-50.5 198l2 337l1 116h-111q-11 0 -17.5 6.5t-6.5 17.5v204q0 23 24 23h110l-2 235q0 23 23 23h314q24 0 24 -23l-3 -235h221q11 0 17 -6t6 -17v-204q0 -24 -23 -24h-221v-115l2 -320q0 -63 26.5 -87.5t73.5 -24.5q56 0 113 17q3 1 8 1
q8 0 13 -5.5t5 -15.5v-184q0 -20 -18 -27q-110 -40 -209 -40q-104 0 -187.5 36zM814 1111q-6 -21 -26 -21h-179q-11 0 -17.5 6.5t-5.5 18.5l44 453q1 22 24 22h239q13 0 18.5 -7t2.5 -19z" />
    <glyph glyph-name="Tbar" unicode="&#x166;" horiz-adv-x="1231" 
d="M1176 1400q11 0 17.5 -6t6.5 -17v-221q0 -11 -6.5 -17.5t-17.5 -6.5h-370l-8 -338h209q11 0 17 -6t6 -17v-220q0 -11 -6 -17.5t-17 -6.5h-207l11 -503q0 -24 -23 -24h-345q-23 0 -23 24l11 503h-207q-11 0 -17.5 6.5t-6.5 17.5v220q0 11 6.5 17t17.5 6h209l-8 338h-371
q-11 0 -17 6.5t-6 17.5v221q0 11 6.5 17t16.5 6h1122z" />
    <glyph glyph-name="tbar" unicode="&#x167;" horiz-adv-x="815" 
d="M529 779l1 -124h218q11 0 17 -6t6 -17v-194q0 -11 -6 -17.5t-17 -6.5h-217l1 -70q0 -63 26.5 -87.5t73.5 -24.5q57 0 112 17q3 1 8 1q9 0 14 -5.5t5 -15.5v-184q0 -20 -19 -27q-110 -40 -208 -40q-104 0 -187.5 36t-134 114t-50.5 198v88h-109q-11 0 -17.5 6.5t-6.5 17.5
v194q0 11 6.5 17t17.5 6h110l1 124h-111q-23 0 -23 24v204q0 11 6 17t17 6h110l-2 235q0 23 24 23h314q23 0 23 -23l-2 -235h220q11 0 17.5 -6t6.5 -17v-204q0 -24 -24 -24h-221z" />
    <glyph glyph-name="Utilde" unicode="&#x168;" horiz-adv-x="1337" 
d="M229.5 107q-153.5 140 -152.5 408l1 349l-8 513q0 23 23 23h344q23 0 23 -23l-9 -503l2 -356q1 -134 55 -198t167 -64q126 0 186 64t60 198v348l-7 511q0 23 23 23h306q23 0 23 -23l-6 -513v-349q0 -270 -147.5 -409t-437.5 -139q-292 0 -445.5 140zM730.5 1518.5
q-36.5 15.5 -78.5 42.5q-25 17 -42.5 25.5t-34.5 8.5q-46 0 -49 -70q-1 -11 -7.5 -17.5t-16.5 -6.5h-130q-24 0 -24 25q5 127 60 203t161 76q44 0 81 -16t79 -44q28 -18 42 -25t27 -7q26 0 38 18t14 52q2 23 25 23h130q23 0 22 -30q-5 -131 -57.5 -202t-154.5 -71
q-48 0 -84.5 15.5z" />
    <glyph glyph-name="utilde" unicode="&#x169;" horiz-adv-x="1171" 
d="M235.5 24.5q-82.5 48.5 -125.5 138.5t-43 213v217l-7 414q0 23 24 23h319q23 0 23 -23l-7 -414v-209q0 -68 35 -107.5t91 -39.5q51 0 95 32.5t72.5 104t28.5 183.5v38l-5 412q0 23 24 23h321q22 0 22 -23l-8 -484l5 -499q0 -24 -24 -24h-299q-24 0 -24 24l5 101
q-54 -74 -138.5 -111.5t-187.5 -37.5q-114 0 -196.5 48.5zM623.5 1148.5q-36.5 15.5 -78.5 42.5q-25 17 -42.5 25.5t-34.5 8.5q-46 0 -49 -70q-1 -11 -7.5 -17.5t-16.5 -6.5h-130q-24 0 -24 25q5 127 60 203t161 76q44 0 81 -16t79 -44q28 -18 42 -25t27 -7q26 0 38 18
t14 52q2 23 25 23h130q23 0 22 -30q-5 -131 -57.5 -202t-154.5 -71q-48 0 -84.5 15.5z" />
    <glyph glyph-name="Umacron" unicode="&#x16a;" horiz-adv-x="1337" 
d="M229.5 107q-153.5 140 -152.5 408l1 349l-8 513q0 23 23 23h344q23 0 23 -23l-9 -503l2 -356q1 -134 55 -198t167 -64q126 0 186 64t60 198v348l-7 511q0 23 23 23h306q23 0 23 -23l-6 -513v-349q0 -270 -147.5 -409t-437.5 -139q-292 0 -445.5 140zM369 1510
q-24 0 -24 24v178q0 11 6.5 17t17.5 6h637q10 0 16.5 -6t6.5 -17v-178q0 -11 -6 -17.5t-17 -6.5h-637z" />
    <glyph glyph-name="umacron" unicode="&#x16b;" horiz-adv-x="1171" 
d="M235.5 24.5q-82.5 48.5 -125.5 138.5t-43 213v217l-7 414q0 23 24 23h319q23 0 23 -23l-7 -414v-209q0 -68 35 -107.5t91 -39.5q51 0 95 32.5t72.5 104t28.5 183.5v38l-5 412q0 23 24 23h321q22 0 22 -23l-8 -484l5 -499q0 -24 -24 -24h-299q-24 0 -24 24l5 101
q-54 -74 -138.5 -111.5t-187.5 -37.5q-114 0 -196.5 48.5zM262 1140q-24 0 -24 24v178q0 11 6.5 17t17.5 6h637q10 0 16.5 -6t6.5 -17v-178q0 -11 -6 -17.5t-17 -6.5h-637z" />
    <glyph glyph-name="Ubreve" unicode="&#x16c;" horiz-adv-x="1337" 
d="M229.5 107q-153.5 140 -152.5 408l1 349l-8 513q0 23 23 23h344q23 0 23 -23l-9 -503l2 -356q1 -134 55 -198t167 -64q126 0 186 64t60 198v348l-7 511q0 23 23 23h306q23 0 23 -23l-6 -513v-349q0 -270 -147.5 -409t-437.5 -139q-292 0 -445.5 140zM497 1537.5
q-83 42.5 -130.5 117.5t-53.5 169q-2 23 23 23h184q20 0 25 -23q7 -50 44.5 -80t99.5 -30q60 0 98.5 30t45.5 80q5 23 25 23h185q23 0 22 -21q-5 -95 -52.5 -170t-131 -118t-192.5 -43t-192 42.5z" />
    <glyph glyph-name="ubreve" unicode="&#x16d;" horiz-adv-x="1171" 
d="M235.5 24.5q-82.5 48.5 -125.5 138.5t-43 213v217l-7 414q0 23 24 23h319q23 0 23 -23l-7 -414v-209q0 -68 35 -107.5t91 -39.5q51 0 95 32.5t72.5 104t28.5 183.5v38l-5 412q0 23 24 23h321q22 0 22 -23l-8 -484l5 -499q0 -24 -24 -24h-299q-24 0 -24 24l5 101
q-54 -74 -138.5 -111.5t-187.5 -37.5q-114 0 -196.5 48.5zM390 1167.5q-83 42.5 -130.5 117.5t-53.5 169q-2 23 23 23h184q20 0 25 -23q7 -50 44.5 -80t99.5 -30q60 0 98.5 30t45.5 80q5 23 25 23h185q23 0 22 -21q-5 -95 -52.5 -170t-131 -118t-192.5 -43t-192 42.5z" />
    <glyph glyph-name="Uring" unicode="&#x16e;" horiz-adv-x="1337" 
d="M229.5 107q-153.5 140 -152.5 408l1 349l-8 513q0 23 23 23h344q23 0 23 -23l-9 -503l2 -356q1 -134 55 -198t167 -64q126 0 186 64t60 198v348l-7 511q0 23 23 23h306q23 0 23 -23l-6 -513v-349q0 -270 -147.5 -409t-437.5 -139q-292 0 -445.5 140zM548 1521
q-64 33 -100.5 91.5t-36.5 129.5q0 72 36.5 130.5t100.5 91.5t143 33t143 -33t100.5 -91.5t36.5 -130.5t-36.5 -130t-100.5 -91t-143 -33t-143 33zM762.5 1653q27.5 31 27.5 89q0 60 -27.5 90.5t-71.5 30.5q-45 0 -72 -30.5t-27 -90.5q0 -59 27 -89.5t72 -30.5q44 0 71.5 31
z" />
    <glyph glyph-name="uring" unicode="&#x16f;" horiz-adv-x="1171" 
d="M235.5 24.5q-82.5 48.5 -125.5 138.5t-43 213v217l-7 414q0 23 24 23h319q23 0 23 -23l-7 -414v-209q0 -68 35 -107.5t91 -39.5q51 0 95 32.5t72.5 104t28.5 183.5v38l-5 412q0 23 24 23h321q22 0 22 -23l-8 -484l5 -499q0 -24 -24 -24h-299q-24 0 -24 24l5 101
q-54 -74 -138.5 -111.5t-187.5 -37.5q-114 0 -196.5 48.5zM441 1151q-64 33 -100.5 91.5t-36.5 129.5q0 72 36.5 130.5t100.5 91.5t143 33t143 -33t100.5 -91.5t36.5 -130.5t-36.5 -130t-100.5 -91t-143 -33t-143 33zM655.5 1283q27.5 31 27.5 89q0 60 -27.5 90.5
t-71.5 30.5q-45 0 -72 -30.5t-27 -90.5q0 -59 27 -89.5t72 -30.5q44 0 71.5 31z" />
    <glyph glyph-name="Uhungarumlaut" unicode="&#x170;" horiz-adv-x="1337" 
d="M229.5 107q-153.5 140 -152.5 408l1 349l-8 513q0 23 23 23h344q23 0 23 -23l-9 -503l2 -356q1 -134 55 -198t167 -64q126 0 186 64t60 198v348l-7 511q0 23 23 23h306q23 0 23 -23l-6 -513v-349q0 -270 -147.5 -409t-437.5 -139q-292 0 -445.5 140zM515 1512
q-7 -8 -17 -8q-9 0 -16 7l-86 71q-10 9 -10 19q0 6 5 14l236 353q7 11 17 11q9 0 16 -7l145 -141q8 -8 8 -16q0 -7 -8 -17zM886 1499q-8 -9 -17 -9q-7 0 -16 7l-87 70q-9 8 -9 18q0 7 5 15l236 353q7 12 17 12q8 0 16 -8l144 -138q8 -8 8 -16q0 -7 -8 -17z" />
    <glyph glyph-name="uhungarumlaut" unicode="&#x171;" horiz-adv-x="1171" 
d="M235.5 24.5q-82.5 48.5 -125.5 138.5t-43 213v217l-7 414q0 23 24 23h319q23 0 23 -23l-7 -414v-209q0 -68 35 -107.5t91 -39.5q51 0 95 32.5t72.5 104t28.5 183.5v38l-5 412q0 23 24 23h321q22 0 22 -23l-8 -484l5 -499q0 -24 -24 -24h-299q-24 0 -24 24l5 101
q-54 -74 -138.5 -111.5t-187.5 -37.5q-114 0 -196.5 48.5zM408 1142q-7 -8 -17 -8q-9 0 -16 7l-86 71q-10 9 -10 19q0 6 5 14l236 353q7 11 17 11q9 0 16 -7l145 -141q8 -8 8 -16q0 -7 -8 -17zM779 1129q-8 -9 -17 -9q-7 0 -16 7l-87 70q-9 8 -9 18q0 7 5 15l236 353
q7 12 17 12q8 0 16 -8l144 -138q8 -8 8 -16q0 -7 -8 -17z" />
    <glyph glyph-name="Uogonek" unicode="&#x172;" horiz-adv-x="1337" 
d="M1243 1400q23 0 23 -23l-6 -513v-349q0 -255 -131 -393t-390 -153q-29 -60 -29 -106q0 -72 97 -72h94q11 0 17 -6.5t6 -17.5v-184q0 -11 -6 -17t-17 -6h-129q-99 0 -174.5 29t-116.5 83t-41 127q0 106 80 180q-218 35 -331 171t-112 365l1 349l-8 513q0 23 23 23h344
q23 0 23 -23l-9 -503l2 -356q1 -134 55 -198t167 -64q126 0 186 64t60 198v348l-7 511q0 23 23 23h306z" />
    <glyph glyph-name="uogonek" unicode="&#x173;" horiz-adv-x="1171" 
d="M1088 -209q11 0 17 -6.5t6 -17.5v-184q0 -11 -6 -17t-17 -6h-129q-99 0 -174.5 29t-116.5 83t-41 127q0 134 127 216q-1 3 -1 9l5 101q-54 -74 -138.5 -111.5t-187.5 -37.5q-114 0 -196.5 48.5t-125.5 138.5t-43 213v217l-7 414q0 23 24 23h319q23 0 23 -23l-7 -414v-209
q0 -68 35 -107.5t91 -39.5q51 0 95 32.5t72.5 104t28.5 183.5v38l-5 412q0 23 24 23h321q22 0 22 -23l-8 -484l5 -499q0 -24 -24 -24h-131q-18 -24 -33 -63.5t-15 -73.5q0 -72 97 -72h94z" />
    <glyph glyph-name="Wcircumflex" unicode="&#x174;" horiz-adv-x="1908" 
d="M22 1374q-1 3 -1 8q0 8 6 13t16 5h327q22 0 26 -21l180 -947l189 947q5 21 26 21h348q21 0 25 -21l201 -956l175 956q5 21 26 21h299q13 0 18.5 -7t2.5 -19l-309 -1353q-6 -21 -26 -21h-383q-22 0 -25 21l-194 840l-183 -840q-4 -21 -26 -21h-388q-22 0 -25 21zM580 1615
q-2 4 -2 12q0 13 11 20l292 222q11 10 29 10h112q16 0 29 -10l292 -222q11 -7 11 -20q0 -8 -2 -12l-52 -125q-5 -14 -18 -14q-6 0 -13 3l-304 153l-301 -154q-8 -3 -13 -3q-12 0 -18 14z" />
    <glyph glyph-name="wcircumflex" unicode="&#x175;" horiz-adv-x="1540" 
d="M18 1004q-1 3 -1 7q0 8 6 13.5t16 5.5h303q24 0 25 -22l88 -662l126 663q5 21 26 21h355q20 0 25 -21l118 -648l96 647q3 22 25 22h275q12 0 17.5 -7.5t3.5 -18.5l-219 -983q-4 -21 -25 -21h-353q-21 0 -25 21l-143 662l-123 -662q-4 -21 -25 -21h-351q-21 0 -25 21z
M387 1245q-2 4 -2 12q0 13 11 20l292 222q11 10 29 10h112q16 0 29 -10l292 -222q11 -7 11 -20q0 -8 -2 -12l-52 -125q-5 -14 -18 -14q-6 0 -13 3l-304 153l-301 -154q-8 -3 -13 -3q-12 0 -18 14z" />
    <glyph glyph-name="Ycircumflex" unicode="&#x176;" horiz-adv-x="1311" 
d="M3 1372q-3 6 -3 12q0 16 20 16h372q20 0 27 -18l250 -579l253 579q7 18 27 18h342q20 0 20 -16q0 -6 -3 -12l-469 -917l9 -431q0 -24 -23 -24h-338q-23 0 -23 24l10 429zM280 1615q-2 4 -2 12q0 13 11 20l292 222q11 10 29 10h112q16 0 29 -10l292 -222q11 -7 11 -20
q0 -8 -2 -12l-52 -125q-5 -14 -18 -14q-6 0 -13 3l-304 153l-301 -154q-8 -3 -13 -3q-12 0 -18 14z" />
    <glyph glyph-name="ycircumflex" unicode="&#x177;" horiz-adv-x="1107" 
d="M754 1010q5 20 26 20h313q21 0 21 -17q0 -2 -2 -10l-452 -1324q-6 -19 -26 -19h-295q-10 0 -15.5 4.5t-5.5 12.5q0 2 2 10l94 282l-417 1034q-3 6 -3 11q0 16 22 16h355q20 0 26 -19l195 -580zM189 1245q-2 4 -2 12q0 13 11 20l292 222q11 10 29 10h112q16 0 29 -10
l292 -222q11 -7 11 -20q0 -8 -2 -12l-52 -125q-5 -14 -18 -14q-6 0 -13 3l-304 153l-301 -154q-8 -3 -13 -3q-12 0 -18 14z" />
    <glyph glyph-name="Ydieresis" unicode="&#x178;" horiz-adv-x="1311" 
d="M3 1372q-3 6 -3 12q0 16 20 16h372q20 0 27 -18l250 -579l253 579q7 18 27 18h342q20 0 20 -16q0 -6 -3 -12l-469 -917l9 -431q0 -24 -23 -24h-338q-23 0 -23 24l10 429zM338 1480q-11 0 -17.5 6.5t-6.5 17.5v243q0 11 6.5 17t17.5 6h247q11 0 17 -6t6 -17v-243
q0 -11 -6 -17.5t-17 -6.5h-247zM748 1480q-11 0 -17.5 6.5t-6.5 17.5v243q0 11 6.5 17t17.5 6h247q11 0 17 -6t6 -17v-243q0 -11 -6 -17.5t-17 -6.5h-247z" />
    <glyph glyph-name="Zacute" unicode="&#x179;" horiz-adv-x="1257" 
d="M74 0q-11 0 -17.5 6.5t-6.5 17.5v255q0 17 11 29l700 824h-633q-11 0 -17.5 6.5t-6.5 17.5v221q0 11 6.5 17t17.5 6h1058q11 0 17 -6t6 -17v-266q0 -15 -10 -29l-685 -813h669q11 0 17 -6t6 -17v-222q0 -11 -6 -17.5t-17 -6.5h-1109zM463 1476q-2 -1 -7 -1q-17 0 -21 18
l-41 130q-2 8 -2 10q0 14 16 20l494 199q4 2 11 2q13 0 19 -16l66 -219q1 -3 1 -8q0 -16 -18 -21z" />
    <glyph glyph-name="zacute" unicode="&#x17a;" horiz-adv-x="1025" 
d="M87 0q-23 0 -23 24v211q0 15 10 29l417 515h-363q-23 0 -23 24v204q0 11 6 17t17 6h779q11 0 17.5 -6t6.5 -17v-218q0 -15 -11 -29l-421 -508h440q11 0 17.5 -6t6.5 -17v-205q0 -11 -6.5 -17.5t-17.5 -6.5h-852zM324 1106q-2 -1 -7 -1q-17 0 -21 18l-41 130q-2 8 -2 10
q0 14 16 20l494 199q4 2 11 2q13 0 19 -16l66 -219q1 -3 1 -8q0 -16 -18 -21z" />
    <glyph glyph-name="Zdotaccent" unicode="&#x17b;" horiz-adv-x="1257" 
d="M74 0q-11 0 -17.5 6.5t-6.5 17.5v255q0 17 11 29l700 824h-633q-11 0 -17.5 6.5t-6.5 17.5v221q0 11 6.5 17t17.5 6h1058q11 0 17 -6t6 -17v-266q0 -15 -10 -29l-685 -813h669q11 0 17 -6t6 -17v-222q0 -11 -6 -17.5t-17 -6.5h-1109zM498 1480q-24 0 -24 24v243
q0 11 6.5 17t17.5 6h318q10 0 16.5 -6t6.5 -17v-243q0 -11 -6 -17.5t-17 -6.5h-318z" />
    <glyph glyph-name="zdotaccent" unicode="&#x17c;" horiz-adv-x="1025" 
d="M87 0q-23 0 -23 24v211q0 15 10 29l417 515h-363q-23 0 -23 24v204q0 11 6 17t17 6h779q11 0 17.5 -6t6.5 -17v-218q0 -15 -11 -29l-421 -508h440q11 0 17.5 -6t6.5 -17v-205q0 -11 -6.5 -17.5t-17.5 -6.5h-852zM360 1110q-24 0 -24 24v243q0 11 6.5 17t17.5 6h318
q10 0 16.5 -6t6.5 -17v-243q0 -11 -6 -17.5t-17 -6.5h-318z" />
    <glyph glyph-name="Zcaron" unicode="&#x17d;" horiz-adv-x="1257" 
d="M74 0q-11 0 -17.5 6.5t-6.5 17.5v255q0 17 11 29l700 824h-633q-11 0 -17.5 6.5t-6.5 17.5v221q0 11 6.5 17t17.5 6h1058q11 0 17 -6t6 -17v-266q0 -15 -10 -29l-685 -813h669q11 0 17 -6t6 -17v-222q0 -11 -6 -17.5t-17 -6.5h-1109zM281 1719q-11 8 -11 20q0 7 2 11
l52 126q6 14 18 14q5 0 13 -3l302 -153l301 154q8 3 13 3q12 0 18 -14l53 -127q3 -6 3 -12q0 -11 -12 -19l-292 -220q-11 -10 -29 -10h-110q-18 0 -29 10z" />
    <glyph glyph-name="zcaron" unicode="&#x17e;" horiz-adv-x="1025" 
d="M87 0q-23 0 -23 24v211q0 15 10 29l417 515h-363q-23 0 -23 24v204q0 11 6 17t17 6h779q11 0 17.5 -6t6.5 -17v-218q0 -15 -11 -29l-421 -508h440q11 0 17.5 -6t6.5 -17v-205q0 -11 -6.5 -17.5t-17.5 -6.5h-852zM143 1349q-11 8 -11 20q0 7 2 11l52 126q6 14 18 14
q5 0 13 -3l302 -153l301 154q8 3 13 3q12 0 18 -14l53 -127q3 -6 3 -12q0 -11 -12 -19l-292 -220q-11 -10 -29 -10h-110q-18 0 -29 10z" />
    <glyph glyph-name="florin" unicode="&#x192;" horiz-adv-x="922" 
d="M616.5 1137.5q-28.5 -24.5 -28.5 -86.5v-21h224q11 0 17 -6t6 -17v-205q0 -11 -6 -17.5t-17 -6.5h-224v-807q0 -114 -50 -188t-132.5 -108.5t-183.5 -34.5q-71 0 -212 17q-22 3 -22 25v202q0 12 7 17.5t19 3.5q49 -11 120 -11q48 0 75 25t27 87v772h-129q-11 0 -17.5 6.5
t-6.5 17.5v205q0 11 6.5 17t17.5 6h129v56q0 114 50 188t133.5 108.5t184.5 34.5q89 0 210 -17q21 -4 21 -26v-201q0 -12 -6.5 -17.5t-18.5 -3.5q-52 10 -112 10q-53 0 -81.5 -24.5z" />
    <glyph glyph-name="Ohorn" unicode="&#x1a0;" horiz-adv-x="1560" 
d="M1280 1262q112 -97 171.5 -241.5t59.5 -325.5q0 -210 -90.5 -375.5t-257 -259t-384.5 -93.5t-383.5 93t-256 258.5t-90.5 376.5q0 221 89.5 388t254.5 258.5t386 91.5q178 0 323 -61l148 303q8 14 19 14q6 0 13 -4l195 -110q12 -7 12 -17q0 -9 -5 -15zM1037.5 364.5
q88.5 118.5 88.5 330.5q0 214 -88.5 336.5t-258.5 122.5t-257.5 -120t-87.5 -339q0 -138 40 -239t118.5 -155.5t189.5 -54.5q167 0 255.5 118.5z" />
    <glyph glyph-name="ohorn" unicode="&#x1a1;" horiz-adv-x="1192" 
d="M1175 1205q12 -7 12 -17q0 -9 -5 -15l-183 -258q71 -70 108 -170.5t37 -225.5q0 -165 -64.5 -288.5t-187.5 -191t-294 -67.5t-295 66t-189.5 187.5t-65.5 286.5t65.5 288t189.5 190.5t295 67.5q123 0 219 -33l131 280q6 14 18 14q7 0 14 -4zM699 239.5q39 29.5 58 95.5
t19 177q0 162 -44 235.5t-136 73.5q-95 -2 -138.5 -75.5t-43.5 -236.5q0 -160 45 -229.5t139 -69.5q62 0 101 29.5z" />
    <glyph glyph-name="Uhorn" unicode="&#x1af;" horiz-adv-x="1337" 
d="M1447 1576q12 -7 12 -18q0 -9 -5 -15l-189 -266l-5 -413v-349q0 -270 -147.5 -409t-437.5 -139q-292 0 -445.5 140t-152.5 408l1 349l-8 513q0 23 23 23h344q23 0 23 -23l-9 -503l2 -356q1 -134 55 -198t167 -64q126 0 186 64t60 198v348l-7 511q0 23 23 23h156l128 275
q6 14 18 14q7 0 14 -4z" />
    <glyph glyph-name="uhorn" unicode="&#x1b0;" horiz-adv-x="1171" 
d="M1101 907l-6 -384l5 -499q0 -24 -24 -24h-299q-24 0 -24 24l5 101q-54 -74 -138.5 -111.5t-187.5 -37.5q-114 0 -196.5 48.5t-125.5 138.5t-43 213v217l-7 414q0 23 24 23h319q23 0 23 -23l-7 -414v-209q0 -68 35 -107.5t91 -39.5q51 0 95 32.5t72.5 104t28.5 183.5v38
l-5 412q0 23 24 23h169l128 275q6 14 18 14q7 0 14 -4l194 -109q12 -7 12 -18q0 -9 -5 -15z" />
    <glyph glyph-name="uni0218" unicode="&#x218;" horiz-adv-x="1364" 
d="M369 18q-142 54 -225.5 160t-99.5 260q-1 12 5 18.5t17 6.5h334q22 0 26 -21q19 -104 85 -155.5t197 -51.5q118 0 178 35t60 110q0 51 -40.5 82.5t-103.5 48.5t-173 38q-174 33 -285.5 71t-192.5 127t-81 245q0 134 67.5 233.5t199 153.5t318.5 54q260 0 421.5 -102
t198.5 -319l1 -6q0 -9 -6 -14t-17 -5h-335q-11 0 -17 5.5t-8 16.5q-13 73 -75.5 112t-167.5 39q-95 0 -151.5 -32t-56.5 -99q0 -47 40 -76.5t100.5 -45.5t172.5 -37q175 -32 289.5 -69.5t197 -125.5t82.5 -243q0 -149 -74 -254t-214 -159.5t-334 -54.5q-191 0 -333 54z
M503 -539q-13 0 -18.5 7t-2.5 19l41 184v227q0 11 6.5 17.5t17.5 6.5h274q11 0 17 -6.5t6 -17.5v-208q0 -17 -10 -30l-161 -185q-10 -14 -28 -14h-142z" />
    <glyph glyph-name="uni0219" unicode="&#x219;" horiz-adv-x="1112" 
d="M311.5 14q-117.5 39 -188 116t-79.5 188q-1 11 5.5 17.5t17.5 6.5h304q21 0 24 -23q9 -64 53.5 -95t126.5 -31q151 0 151 94q0 30 -27.5 47.5t-70 27t-118.5 21.5q-135 20 -223.5 46.5t-153.5 93.5t-65 189q0 108 57 185t161 117.5t245 40.5q211 0 340.5 -82t154.5 -240
q1 -12 -5 -18.5t-18 -6.5h-288q-20 0 -25 21q-27 110 -153 110q-127 0 -127 -90q0 -32 28 -50.5t70.5 -28t122.5 -21.5q134 -19 221.5 -44.5t152 -92.5t64.5 -190q0 -107 -62.5 -185.5t-173.5 -120t-254 -41.5q-150 0 -267.5 39zM378 -539q-13 0 -18.5 7t-2.5 19l41 184v227
q0 11 6.5 17.5t17.5 6.5h274q11 0 17 -6.5t6 -17.5v-208q0 -17 -10 -30l-161 -185q-10 -14 -28 -14h-142z" />
    <glyph glyph-name="uni021A" unicode="&#x21a;" horiz-adv-x="1231" 
d="M443 0q-23 0 -23 24l15 680l-10 428h-371q-11 0 -17 6.5t-6 17.5v221q0 11 6.5 17t16.5 6h1122q11 0 17.5 -6t6.5 -17v-221q0 -11 -6.5 -17.5t-17.5 -6.5h-370l-10 -428l15 -680q0 -24 -23 -24h-345zM435 -539q-13 0 -18.5 7t-2.5 19l41 184v227q0 11 6.5 17.5t17.5 6.5
h274q11 0 17 -6.5t6 -17.5v-208q0 -17 -10 -30l-161 -185q-10 -14 -28 -14h-142z" />
    <glyph glyph-name="uni021B" unicode="&#x21b;" horiz-adv-x="814" 
d="M354.5 14q-83.5 36 -134 114t-50.5 198l2 337l1 116h-111q-11 0 -17.5 6.5t-6.5 17.5v204q0 23 24 23h110l-2 235q0 23 23 23h314q24 0 24 -23l-3 -235h221q11 0 17 -6t6 -17v-204q0 -24 -23 -24h-221v-115l2 -320q0 -63 26.5 -87.5t73.5 -24.5q56 0 113 17q3 1 8 1
q8 0 13 -5.5t5 -15.5v-184q0 -20 -18 -27q-110 -40 -209 -40q-104 0 -187.5 36zM295 -539q-13 0 -18.5 7t-2.5 19l41 184v227q0 11 6.5 17.5t17.5 6.5h274q11 0 17 -6.5t6 -17.5v-208q0 -17 -10 -30l-161 -185q-10 -14 -28 -14h-142z" />
    <glyph glyph-name="uni0237" unicode="&#x237;" horiz-adv-x="512" 
d="M95 -340q-24 0 -24 23l11 683l-11 641q0 23 24 23h323q23 0 23 -23l-11 -641l11 -683q0 -23 -23 -23h-323z" />
    <glyph glyph-name="uni0237" unicode="&#xf6be;" horiz-adv-x="512" 
d="M95 -340q-24 0 -24 23l11 683l-11 641q0 23 24 23h323q23 0 23 -23l-11 -641l11 -683q0 -23 -23 -23h-323z" />
    <glyph glyph-name="uni0259" unicode="&#x259;" horiz-adv-x="1174" 
d="M767 590q-9 125 -55 178t-134 53q-128 0 -163 -119q-8 -20 -26 -20h-298q-12 0 -18 4.5t-5 11.5q15 93 79.5 175.5t175 133.5t255.5 51q169 0 293 -68t189.5 -190t65.5 -282q0 -164 -66.5 -288t-187.5 -191t-282 -67q-260 0 -401 153.5t-147 440.5q0 24 24 24h701z
M699 244.5q44 42.5 61 138.5h-343q5 -79 47.5 -130t117.5 -51q73 0 117 42.5z" />
    <glyph glyph-name="quoteleft" unicode="&#x2bb;" horiz-adv-x="521" 
d="M456 1400q21 0 21 -17q0 -6 -1 -9l-65 -239v-295q0 -11 -6.5 -17.5t-17.5 -6.5h-296q-23 0 -23 24v276q0 16 10 29l186 241q10 14 29 14h163z" />
    <glyph glyph-name="quoteleft" unicode="&#x2018;" horiz-adv-x="521" 
d="M456 1400q21 0 21 -17q0 -6 -1 -9l-65 -239v-295q0 -11 -6.5 -17.5t-17.5 -6.5h-296q-23 0 -23 24v276q0 16 10 29l186 241q10 14 29 14h163z" />
    <glyph glyph-name="circumflex" unicode="&#x2c6;" horiz-adv-x="988" 
d="M108 1245q-2 4 -2 12q0 13 11 20l292 222q11 10 29 10h112q16 0 29 -10l292 -222q11 -7 11 -20q0 -8 -2 -12l-52 -125q-5 -14 -18 -14q-6 0 -13 3l-304 153l-301 -154q-8 -3 -13 -3q-12 0 -18 14z" />
    <glyph glyph-name="caron" unicode="&#x2c7;" horiz-adv-x="986" 
d="M117 1349q-11 8 -11 20q0 7 2 11l52 126q6 14 18 14q5 0 13 -3l302 -153l301 154q8 3 13 3q12 0 18 -14l53 -127q3 -6 3 -12q0 -11 -12 -19l-292 -220q-11 -10 -29 -10h-110q-18 0 -29 10z" />
    <glyph glyph-name="breve" unicode="&#x2d8;" horiz-adv-x="954" 
d="M285 1167.5q-83 42.5 -130.5 117.5t-53.5 169q-2 23 23 23h184q20 0 25 -23q7 -50 44.5 -80t99.5 -30q60 0 98.5 30t45.5 80q5 23 25 23h185q23 0 22 -21q-5 -95 -52.5 -170t-131 -118t-192.5 -43t-192 42.5z" />
    <glyph glyph-name="dotaccent" unicode="&#x2d9;" horiz-adv-x="565" 
d="M124 1110q-24 0 -24 24v243q0 11 6.5 17t17.5 6h318q10 0 16.5 -6t6.5 -17v-243q0 -11 -6 -17.5t-17 -6.5h-318z" />
    <glyph glyph-name="ring" unicode="&#x2da;" horiz-adv-x="760" 
d="M237 1151q-64 33 -100.5 91.5t-36.5 129.5q0 72 36.5 130.5t100.5 91.5t143 33t143 -33t100.5 -91.5t36.5 -130.5t-36.5 -130t-100.5 -91t-143 -33t-143 33zM451.5 1283q27.5 31 27.5 89q0 60 -27.5 90.5t-71.5 30.5q-45 0 -72 -30.5t-27 -90.5q0 -59 27 -89.5t72 -30.5
q44 0 71.5 31z" />
    <glyph glyph-name="ogonek" unicode="&#x2db;" horiz-adv-x="684" 
d="M432 -440q-99 0 -174.5 29t-116.5 83t-41 127q0 103 71 171.5t191 105.5l9 2q12 0 21 -14l26 -32q6 -7 6 -15t-6 -17q-18 -24 -33 -63.5t-15 -73.5q0 -72 97 -72h94q11 0 17 -6.5t6 -17.5v-184q0 -11 -6 -17t-17 -6h-129z" />
    <glyph glyph-name="tilde" unicode="&#x2dc;" horiz-adv-x="880" 
d="M482.5 1148.5q-36.5 15.5 -78.5 42.5q-25 17 -42.5 25.5t-34.5 8.5q-46 0 -49 -70q-1 -11 -7.5 -17.5t-16.5 -6.5h-130q-24 0 -24 25q5 127 60 203t161 76q44 0 81 -16t79 -44q28 -18 42 -25t27 -7q26 0 38 18t14 52q2 23 25 23h130q23 0 22 -30q-5 -131 -57.5 -202
t-154.5 -71q-48 0 -84.5 15.5z" />
    <glyph glyph-name="hungarumlaut" unicode="&#x2dd;" horiz-adv-x="1013" 
d="M236 1142q-7 -8 -17 -8q-9 0 -16 7l-86 71q-10 9 -10 19q0 6 5 14l236 353q7 11 17 11q9 0 16 -7l145 -141q8 -8 8 -16q0 -7 -8 -17zM607 1129q-8 -9 -17 -9q-7 0 -16 7l-87 70q-9 8 -9 18q0 7 5 15l236 353q7 12 17 12q8 0 16 -8l144 -138q8 -8 8 -16q0 -7 -8 -17z" />
    <glyph glyph-name="gravecomb" unicode="&#x300;" 
d="M-148 1123q-6 -22 -28 -17l-518 114q-18 5 -18 21q0 5 1 8l66 219q6 16 20 16q6 0 10 -2l494 -199q16 -7 16 -21q0 -6 -1 -9z" />
    <glyph glyph-name="acutecomb" unicode="&#x301;" 
d="M-642 1106q-2 -1 -7 -1q-17 0 -21 18l-41 130q-2 8 -2 10q0 14 16 20l494 199q4 2 11 2q13 0 19 -16l66 -219q1 -3 1 -8q0 -16 -18 -21z" />
    <glyph glyph-name="uni0302" unicode="&#x302;" 
d="M-880 1245q-2 4 -2 12q0 13 11 20l292 222q11 10 29 10h112q16 0 29 -10l292 -222q11 -7 11 -20q0 -8 -2 -12l-52 -125q-5 -14 -18 -14q-6 0 -13 3l-304 153l-301 -154q-8 -3 -13 -3q-12 0 -18 14z" />
    <glyph glyph-name="tildecomb" unicode="&#x303;" 
d="M-397.5 1148.5q-36.5 15.5 -78.5 42.5q-25 17 -42.5 25.5t-34.5 8.5q-46 0 -49 -70q-1 -11 -7.5 -17.5t-16.5 -6.5h-130q-24 0 -24 25q5 127 60 203t161 76q44 0 81 -16t79 -44q28 -18 42 -25t27 -7q26 0 38 18t14 52q2 23 25 23h130q23 0 22 -30q-5 -131 -57.5 -202
t-154.5 -71q-48 0 -84.5 15.5z" />
    <glyph glyph-name="uni0304" unicode="&#x304;" 
d="M-760 1140q-24 0 -24 24v178q0 11 6.5 17t17.5 6h637q10 0 16.5 -6t6.5 -17v-178q0 -11 -6 -17.5t-17 -6.5h-637z" />
    <glyph glyph-name="uni0306" unicode="&#x306;" 
d="M-669 1167.5q-83 42.5 -130.5 117.5t-53.5 169q-2 23 23 23h184q20 0 25 -23q7 -50 44.5 -80t99.5 -30q60 0 98.5 30t45.5 80q5 23 25 23h185q23 0 22 -21q-5 -95 -52.5 -170t-131 -118t-192.5 -43t-192 42.5z" />
    <glyph glyph-name="uni0307" unicode="&#x307;" 
d="M-441 1110q-24 0 -24 24v243q0 11 6.5 17t17.5 6h318q10 0 16.5 -6t6.5 -17v-243q0 -11 -6 -17.5t-17 -6.5h-318z" />
    <glyph glyph-name="uni0308" unicode="&#x308;" 
d="M-780 1110q-11 0 -17.5 6.5t-6.5 17.5v243q0 11 6.5 17t17.5 6h247q11 0 17 -6t6 -17v-243q0 -11 -6 -17.5t-17 -6.5h-247zM-370 1110q-11 0 -17.5 6.5t-6.5 17.5v243q0 11 6.5 17t17.5 6h247q11 0 17 -6t6 -17v-243q0 -11 -6 -17.5t-17 -6.5h-247z" />
    <glyph glyph-name="hookabovecomb" unicode="&#x309;" 
d="M-512 1110q-12 0 -18 6.5t-4 18.5q5 40 24.5 66.5t43.5 41.5t60 31q35 15 50.5 26.5t15.5 30.5q0 21 -16.5 33.5t-51.5 12.5q-30 0 -49.5 -12t-25.5 -36q-3 -11 -8.5 -16t-16.5 -5h-182q-12 0 -18 6.5t-5 17.5q13 99 92 152t216 53q92 0 161 -23.5t106.5 -68.5t37.5 -106
q0 -38 -16 -64.5t-38.5 -43t-57.5 -34.5q-34 -19 -52.5 -33t-25.5 -33q-8 -21 -25 -21h-197z" />
    <glyph glyph-name="uni030A" unicode="&#x30a;" 
d="M-523 1151q-64 33 -100.5 91.5t-36.5 129.5q0 72 36.5 130.5t100.5 91.5t143 33t143 -33t100.5 -91.5t36.5 -130.5t-36.5 -130t-100.5 -91t-143 -33t-143 33zM-308.5 1283q27.5 31 27.5 89q0 60 -27.5 90.5t-71.5 30.5q-45 0 -72 -30.5t-27 -90.5q0 -59 27 -89.5
t72 -30.5q44 0 71.5 31z" />
    <glyph glyph-name="uni030B" unicode="&#x30b;" 
d="M-777 1142q-7 -8 -17 -8q-9 0 -16 7l-86 71q-10 9 -10 19q0 6 5 14l236 353q7 11 17 11q9 0 16 -7l145 -141q8 -8 8 -16q0 -7 -8 -17zM-406 1129q-8 -9 -17 -9q-7 0 -16 7l-87 70q-9 8 -9 18q0 7 5 15l236 353q7 12 17 12q8 0 16 -8l144 -138q8 -8 8 -16q0 -7 -8 -17z
" />
    <glyph glyph-name="uni030C" unicode="&#x30c;" 
d="M-869 1349q-11 8 -11 20q0 7 2 11l52 126q6 14 18 14q5 0 13 -3l302 -153l301 154q8 3 13 3q12 0 18 -14l53 -127q3 -6 3 -12q0 -11 -12 -19l-292 -220q-11 -10 -29 -10h-110q-18 0 -29 10z" />
    <glyph glyph-name="uni0312" unicode="&#x312;" 
d="M-480 1112q-11 0 -17.5 6.5t-6.5 17.5v208q0 17 12 29l186 188q12 12 29 12h150q13 0 18.5 -7t2.5 -19l-41 -184v-227q0 -11 -6 -17.5t-17 -6.5h-310z" />
    <glyph glyph-name="uni031B" unicode="&#x31b;" 
d="M-297 889q-9 -11 -18 -11q-7 0 -14 4l-137 76q-13 7 -13 20q0 6 3 12l147 315q6 14 18 14q7 0 14 -4l195 -110q12 -7 12 -17q0 -9 -5 -15z" />
    <glyph glyph-name="dotbelowcomb" unicode="&#x323;" 
d="M-441 -369q-24 0 -24 24v243q0 11 6.5 17t17.5 6h318q10 0 16.5 -6t6.5 -17v-243q0 -11 -6 -17.5t-17 -6.5h-318z" />
    <glyph glyph-name="uni0326" unicode="&#x326;" 
d="M-441 -539q-13 0 -18.5 7t-2.5 19l41 184v227q0 11 6.5 17.5t17.5 6.5h274q11 0 17 -6.5t6 -17.5v-208q0 -17 -10 -30l-161 -185q-10 -14 -28 -14h-142z" />
    <glyph glyph-name="uni0327" unicode="&#x327;" 
d="M-179 -346q-2 -11 -9.5 -15.5t-18.5 -2.5l-286 44q-19 3 -19 18q0 2 2 10l120 313q8 19 29 18l236 -19q12 -1 17 -8t3 -19z" />
    <glyph glyph-name="uni0328" unicode="&#x328;" 
d="M-252 -440q-99 0 -174.5 29t-116.5 83t-41 127q0 103 71 171.5t191 105.5l9 2q12 0 21 -14l26 -32q6 -7 6 -15t-6 -17q-18 -24 -33 -63.5t-15 -73.5q0 -72 97 -72h94q11 0 17 -6.5t6 -17.5v-184q0 -11 -6 -17t-17 -6h-129z" />
    <glyph glyph-name="uni0394" unicode="&#x394;" horiz-adv-x="1507" 
d="M59 0q-11 0 -17.5 6.5t-6.5 17.5v250q0 16 6 29l464 1079q9 18 28 18h453q19 0 28 -18l452 -1079q6 -16 6 -29v-250q0 -11 -6 -17.5t-17 -6.5h-1390zM1098 289l-356 888l-336 -888h692z" />
    <glyph glyph-name="uni0394" unicode="&#x2206;" horiz-adv-x="1507" 
d="M59 0q-11 0 -17.5 6.5t-6.5 17.5v250q0 16 6 29l464 1079q9 18 28 18h453q19 0 28 -18l452 -1079q6 -16 6 -29v-250q0 -11 -6 -17.5t-17 -6.5h-1390zM1098 289l-356 888l-336 -888h692z" />
    <glyph glyph-name="uni03A9" unicode="&#x3a9;" horiz-adv-x="1560" 
d="M1433 268q11 0 17 -6t6 -17v-221q0 -24 -23 -24h-566q-11 0 -17.5 6.5t-6.5 17.5v221q0 22 22 32q122 51 195 170t73 288q0 189 -84 300t-245 118h-47q-162 -7 -246 -118t-84 -300q0 -169 72.5 -288t194.5 -170q22 -10 22 -32v-221q0 -11 -6 -17.5t-17 -6.5h-565
q-11 0 -17.5 6.5t-6.5 17.5v221q0 11 6.5 17t17.5 6h135q-100 96 -155.5 222t-55.5 270q0 201 87 351.5t246.5 234t371.5 87.5h47q211 -4 370 -87.5t246 -234t87 -351.5q0 -145 -55 -270.5t-156 -221.5h137z" />
    <glyph glyph-name="uni03A9" unicode="&#x2126;" horiz-adv-x="1560" 
d="M1433 268q11 0 17 -6t6 -17v-221q0 -24 -23 -24h-566q-11 0 -17.5 6.5t-6.5 17.5v221q0 22 22 32q122 51 195 170t73 288q0 189 -84 300t-245 118h-47q-162 -7 -246 -118t-84 -300q0 -169 72.5 -288t194.5 -170q22 -10 22 -32v-221q0 -11 -6 -17.5t-17 -6.5h-565
q-11 0 -17.5 6.5t-6.5 17.5v221q0 11 6.5 17t17.5 6h135q-100 96 -155.5 222t-55.5 270q0 201 87 351.5t246.5 234t371.5 87.5h47q211 -4 370 -87.5t246 -234t87 -351.5q0 -145 -55 -270.5t-156 -221.5h137z" />
    <glyph glyph-name="pi" unicode="&#x3c0;" horiz-adv-x="1174" 
d="M86 0q-23 0 -23 24l6 483l-2 500q0 23 23 23h997q24 0 24 -23l-6 -528l6 -455q0 -24 -23 -24h-319q-23 0 -23 24l4 441l-4 314h-315l-6 -342l5 -413q0 -24 -24 -24h-320z" />
    <glyph glyph-name="Wgrave" unicode="&#x1e80;" horiz-adv-x="1908" 
d="M22 1374q-1 3 -1 8q0 8 6 13t16 5h327q22 0 26 -21l180 -947l189 947q5 21 26 21h348q21 0 25 -21l201 -956l175 956q5 21 26 21h299q13 0 18.5 -7t2.5 -19l-309 -1353q-6 -21 -26 -21h-383q-22 0 -25 21l-194 840l-183 -840q-4 -21 -26 -21h-388q-22 0 -25 21z
M1180 1493q-6 -22 -28 -17l-518 114q-18 5 -18 21q0 5 1 8l66 219q6 16 20 16q6 0 10 -2l494 -199q16 -7 16 -21q0 -6 -1 -9z" />
    <glyph glyph-name="wgrave" unicode="&#x1e81;" horiz-adv-x="1540" 
d="M18 1004q-1 3 -1 7q0 8 6 13.5t16 5.5h303q24 0 25 -22l88 -662l126 663q5 21 26 21h355q20 0 25 -21l118 -648l96 647q3 22 25 22h275q12 0 17.5 -7.5t3.5 -18.5l-219 -983q-4 -21 -25 -21h-353q-21 0 -25 21l-143 662l-123 -662q-4 -21 -25 -21h-351q-21 0 -25 21z
M990 1123q-6 -22 -28 -17l-518 114q-18 5 -18 21q0 5 1 8l66 219q6 16 20 16q6 0 10 -2l494 -199q16 -7 16 -21q0 -6 -1 -9z" />
    <glyph glyph-name="Wacute" unicode="&#x1e82;" horiz-adv-x="1908" 
d="M22 1374q-1 3 -1 8q0 8 6 13t16 5h327q22 0 26 -21l180 -947l189 947q5 21 26 21h348q21 0 25 -21l201 -956l175 956q5 21 26 21h299q13 0 18.5 -7t2.5 -19l-309 -1353q-6 -21 -26 -21h-383q-22 0 -25 21l-194 840l-183 -840q-4 -21 -26 -21h-388q-22 0 -25 21zM772 1476
q-2 -1 -7 -1q-17 0 -21 18l-41 130q-2 8 -2 10q0 14 16 20l494 199q4 2 11 2q13 0 19 -16l66 -219q1 -3 1 -8q0 -16 -18 -21z" />
    <glyph glyph-name="wacute" unicode="&#x1e83;" horiz-adv-x="1540" 
d="M18 1004q-1 3 -1 7q0 8 6 13.5t16 5.5h303q24 0 25 -22l88 -662l126 663q5 21 26 21h355q20 0 25 -21l118 -648l96 647q3 22 25 22h275q12 0 17.5 -7.5t3.5 -18.5l-219 -983q-4 -21 -25 -21h-353q-21 0 -25 21l-143 662l-123 -662q-4 -21 -25 -21h-351q-21 0 -25 21z
M579 1106q-2 -1 -7 -1q-17 0 -21 18l-41 130q-2 8 -2 10q0 14 16 20l494 199q4 2 11 2q13 0 19 -16l66 -219q1 -3 1 -8q0 -16 -18 -21z" />
    <glyph glyph-name="Wdieresis" unicode="&#x1e84;" horiz-adv-x="1908" 
d="M22 1374q-1 3 -1 8q0 8 6 13t16 5h327q22 0 26 -21l180 -947l189 947q5 21 26 21h348q21 0 25 -21l201 -956l175 956q5 21 26 21h299q13 0 18.5 -7t2.5 -19l-309 -1353q-6 -21 -26 -21h-383q-22 0 -25 21l-194 840l-183 -840q-4 -21 -26 -21h-388q-22 0 -25 21zM638 1480
q-11 0 -17.5 6.5t-6.5 17.5v243q0 11 6.5 17t17.5 6h247q11 0 17 -6t6 -17v-243q0 -11 -6 -17.5t-17 -6.5h-247zM1048 1480q-11 0 -17.5 6.5t-6.5 17.5v243q0 11 6.5 17t17.5 6h247q11 0 17 -6t6 -17v-243q0 -11 -6 -17.5t-17 -6.5h-247z" />
    <glyph glyph-name="wdieresis" unicode="&#x1e85;" horiz-adv-x="1540" 
d="M18 1004q-1 3 -1 7q0 8 6 13.5t16 5.5h303q24 0 25 -22l88 -662l126 663q5 21 26 21h355q20 0 25 -21l118 -648l96 647q3 22 25 22h275q12 0 17.5 -7.5t3.5 -18.5l-219 -983q-4 -21 -25 -21h-353q-21 0 -25 21l-143 662l-123 -662q-4 -21 -25 -21h-351q-21 0 -25 21z
M445 1110q-11 0 -17.5 6.5t-6.5 17.5v243q0 11 6.5 17t17.5 6h247q11 0 17 -6t6 -17v-243q0 -11 -6 -17.5t-17 -6.5h-247zM855 1110q-11 0 -17.5 6.5t-6.5 17.5v243q0 11 6.5 17t17.5 6h247q11 0 17 -6t6 -17v-243q0 -11 -6 -17.5t-17 -6.5h-247z" />
    <glyph glyph-name="uni1EA0" unicode="&#x1ea0;" horiz-adv-x="1442" 
d="M1435 27l2 -9q0 -8 -5.5 -13t-15.5 -5h-335q-21 0 -27 19l-93 303h-489l-88 -302q-6 -20 -27 -20h-332q-10 0 -15.5 4.5t-5.5 12.5q0 2 2 10l464 1354q6 19 26 19h463q20 0 26 -19zM873 611l-163 528l-155 -528h318zM560 -369q-24 0 -24 24v243q0 11 6.5 17t17.5 6h318
q10 0 16.5 -6t6.5 -17v-243q0 -11 -6 -17.5t-17 -6.5h-318z" />
    <glyph glyph-name="uni1EA1" unicode="&#x1ea1;" horiz-adv-x="1218" 
d="M1144 516l9 -492q0 -24 -23 -24h-310q-25 0 -24 24l4 92q-55 -66 -131.5 -101t-172.5 -35q-141 0 -242.5 69.5t-153.5 190t-52 272.5q0 149 57.5 272t163 194.5t243.5 71.5q180 0 283 -120l-5 76q-1 24 22 24h318q23 0 23 -23zM752 289q50 74 50 230q0 149 -48.5 223
t-143.5 74t-145 -74.5t-50 -221.5q0 -155 48.5 -230t141.5 -75q97 0 147 74zM452 -369q-24 0 -24 24v243q0 11 6.5 17t17.5 6h318q10 0 16.5 -6t6.5 -17v-243q0 -11 -6 -17.5t-17 -6.5h-318z" />
    <glyph glyph-name="uni1EA2" unicode="&#x1ea2;" horiz-adv-x="1442" 
d="M1435 27l2 -9q0 -8 -5.5 -13t-15.5 -5h-335q-21 0 -27 19l-93 303h-489l-88 -302q-6 -20 -27 -20h-332q-10 0 -15.5 4.5t-5.5 12.5q0 2 2 10l464 1354q6 19 26 19h463q20 0 26 -19zM873 611l-163 528l-155 -528h318zM631 1480q-12 0 -18 6.5t-4 18.5q5 40 24.5 66.5
t43.5 41.5t60 31q35 15 50.5 26.5t15.5 30.5q0 21 -16.5 33.5t-51.5 12.5q-30 0 -49.5 -12t-25.5 -36q-3 -11 -8.5 -16t-16.5 -5h-182q-12 0 -18 6.5t-5 17.5q13 99 92 152t216 53q92 0 161 -23.5t106.5 -68.5t37.5 -106q0 -38 -16 -64.5t-38.5 -43t-57.5 -34.5
q-34 -19 -52.5 -33t-25.5 -33q-8 -21 -25 -21h-197z" />
    <glyph glyph-name="uni1EA3" unicode="&#x1ea3;" horiz-adv-x="1218" 
d="M1144 516l9 -492q0 -24 -23 -24h-310q-25 0 -24 24l4 92q-55 -66 -131.5 -101t-172.5 -35q-141 0 -242.5 69.5t-153.5 190t-52 272.5q0 149 57.5 272t163 194.5t243.5 71.5q180 0 283 -120l-5 76q-1 24 22 24h318q23 0 23 -23zM752 289q50 74 50 230q0 149 -48.5 223
t-143.5 74t-145 -74.5t-50 -221.5q0 -155 48.5 -230t141.5 -75q97 0 147 74zM512 1110q-12 0 -18 6.5t-4 18.5q5 40 24.5 66.5t43.5 41.5t60 31q35 15 50.5 26.5t15.5 30.5q0 21 -16.5 33.5t-51.5 12.5q-30 0 -49.5 -12t-25.5 -36q-3 -11 -8.5 -16t-16.5 -5h-182
q-12 0 -18 6.5t-5 17.5q13 99 92 152t216 53q92 0 161 -23.5t106.5 -68.5t37.5 -106q0 -38 -16 -64.5t-38.5 -43t-57.5 -34.5q-34 -19 -52.5 -33t-25.5 -33q-8 -21 -25 -21h-197z" />
    <glyph glyph-name="uni1EA4" unicode="&#x1ea4;" horiz-adv-x="1442" 
d="M1435 27l2 -9q0 -8 -5.5 -13t-15.5 -5h-335q-21 0 -27 19l-93 303h-489l-88 -302q-6 -20 -27 -20h-332q-10 0 -15.5 4.5t-5.5 12.5q0 2 2 10l464 1354q6 19 26 19h463q20 0 26 -19zM873 611l-163 528l-155 -528h318zM1071 1746q-8 -8 -17 -8t-16 7l-104 90q-9 9 -9 17
q0 9 6 16l226 308q7 11 18 11q9 0 16 -7l152 -137q9 -7 9 -17q0 -9 -8 -17zM342 1587q-2 4 -2 12q0 13 11 20l292 222q12 9 29 9h112q16 0 29 -9l292 -222q11 -7 11 -20q0 -8 -2 -12l-52 -125q-5 -15 -18 -15q-7 0 -13 3l-304 153l-301 -154q-6 -3 -12 -3q-13 0 -19 15z" />
    <glyph glyph-name="uni1EA5" unicode="&#x1ea5;" horiz-adv-x="1218" 
d="M1144 516l9 -492q0 -24 -23 -24h-310q-25 0 -24 24l4 92q-55 -66 -131.5 -101t-172.5 -35q-141 0 -242.5 69.5t-153.5 190t-52 272.5q0 149 57.5 272t163 194.5t243.5 71.5q180 0 283 -120l-5 76q-1 24 22 24h318q23 0 23 -23zM752 289q50 74 50 230q0 149 -48.5 223
t-143.5 74t-145 -74.5t-50 -221.5q0 -155 48.5 -230t141.5 -75q97 0 147 74zM952 1376q-8 -8 -17 -8t-16 7l-104 90q-9 9 -9 17q0 9 6 16l226 308q7 11 18 11q9 0 16 -7l152 -137q9 -7 9 -17q0 -9 -8 -17zM223 1217q-2 4 -2 12q0 13 11 20l292 222q12 9 29 9h112q16 0 29 -9
l292 -222q11 -7 11 -20q0 -8 -2 -12l-52 -125q-5 -15 -18 -15q-7 0 -13 3l-304 153l-301 -154q-6 -3 -12 -3q-13 0 -19 15z" />
    <glyph glyph-name="uni1EA6" unicode="&#x1ea6;" horiz-adv-x="1442" 
d="M1435 27l2 -9q0 -8 -5.5 -13t-15.5 -5h-335q-21 0 -27 19l-93 303h-489l-88 -302q-6 -20 -27 -20h-332q-10 0 -15.5 4.5t-5.5 12.5q0 2 2 10l464 1354q6 19 26 19h463q20 0 26 -19zM873 611l-163 528l-155 -528h318zM1075 1742q-7 -7 -16 -7q-7 0 -17 8l-273 263
q-8 8 -8 17t8 16l153 138q7 7 17 7t17 -11l227 -308q6 -7 6 -15t-10 -18zM342 1587q-2 4 -2 12q0 13 11 20l292 222q12 9 29 9h112q16 0 29 -9l292 -222q11 -7 11 -20q0 -8 -2 -12l-52 -125q-5 -15 -18 -15q-7 0 -13 3l-304 153l-301 -154q-6 -3 -12 -3q-13 0 -19 15z" />
    <glyph glyph-name="uni1EA7" unicode="&#x1ea7;" horiz-adv-x="1218" 
d="M1144 516l9 -492q0 -24 -23 -24h-310q-25 0 -24 24l4 92q-55 -66 -131.5 -101t-172.5 -35q-141 0 -242.5 69.5t-153.5 190t-52 272.5q0 149 57.5 272t163 194.5t243.5 71.5q180 0 283 -120l-5 76q-1 24 22 24h318q23 0 23 -23zM752 289q50 74 50 230q0 149 -48.5 223
t-143.5 74t-145 -74.5t-50 -221.5q0 -155 48.5 -230t141.5 -75q97 0 147 74zM956 1372q-7 -7 -16 -7q-7 0 -17 8l-273 263q-8 8 -8 17t8 16l153 138q7 7 17 7t17 -11l227 -308q6 -7 6 -15t-10 -18zM223 1217q-2 4 -2 12q0 13 11 20l292 222q12 9 29 9h112q16 0 29 -9
l292 -222q11 -7 11 -20q0 -8 -2 -12l-52 -125q-5 -15 -18 -15q-7 0 -13 3l-304 153l-301 -154q-6 -3 -12 -3q-13 0 -19 15z" />
    <glyph glyph-name="uni1EA8" unicode="&#x1ea8;" horiz-adv-x="1442" 
d="M1435 27l2 -9q0 -8 -5.5 -13t-15.5 -5h-335q-21 0 -27 19l-93 303h-489l-88 -302q-6 -20 -27 -20h-332q-10 0 -15.5 4.5t-5.5 12.5q0 2 2 10l464 1354q6 19 26 19h463q20 0 26 -19zM873 611l-163 528l-155 -528h318zM342 1586q-2 4 -2 12q0 13 11 20l292 222q11 10 29 10
h112q16 0 29 -10l292 -222q11 -7 11 -20q0 -8 -2 -12l-52 -125q-5 -14 -18 -14q-6 0 -13 3l-304 153l-301 -154q-8 -3 -13 -3q-12 0 -18 14zM979 1772q-12 0 -18 6.5t-4 18.5q5 40 24.5 66.5t43.5 41.5t60 31q35 15 50.5 26.5t15.5 30.5q0 21 -16.5 33.5t-51.5 12.5
q-30 0 -49.5 -12t-25.5 -36q-3 -11 -8.5 -16t-16.5 -5h-182q-12 0 -18 6.5t-5 17.5q13 99 92 152t216 53q92 0 161 -23.5t106.5 -68.5t37.5 -106q0 -38 -16 -64.5t-38.5 -43t-57.5 -34.5q-34 -19 -52.5 -33t-25.5 -33q-8 -21 -25 -21h-197z" />
    <glyph glyph-name="uni1EA9" unicode="&#x1ea9;" horiz-adv-x="1218" 
d="M1144 516l9 -492q0 -24 -23 -24h-310q-25 0 -24 24l4 92q-55 -66 -131.5 -101t-172.5 -35q-141 0 -242.5 69.5t-153.5 190t-52 272.5q0 149 57.5 272t163 194.5t243.5 71.5q180 0 283 -120l-5 76q-1 24 22 24h318q23 0 23 -23zM752 289q50 74 50 230q0 149 -48.5 223
t-143.5 74t-145 -74.5t-50 -221.5q0 -155 48.5 -230t141.5 -75q97 0 147 74zM223 1216q-2 4 -2 12q0 13 11 20l292 222q11 10 29 10h112q16 0 29 -10l292 -222q11 -7 11 -20q0 -8 -2 -12l-52 -125q-5 -14 -18 -14q-6 0 -13 3l-304 153l-301 -154q-8 -3 -13 -3q-12 0 -18 14z
M860 1402q-12 0 -18 6.5t-4 18.5q5 40 24.5 66.5t43.5 41.5t60 31q35 15 50.5 26.5t15.5 30.5q0 21 -16.5 33.5t-51.5 12.5q-30 0 -49.5 -12t-25.5 -36q-3 -11 -8.5 -16t-16.5 -5h-182q-12 0 -18 6.5t-5 17.5q13 99 92 152t216 53q92 0 161 -23.5t106.5 -68.5t37.5 -106
q0 -38 -16 -64.5t-38.5 -43t-57.5 -34.5q-34 -19 -52.5 -33t-25.5 -33q-8 -21 -25 -21h-197z" />
    <glyph glyph-name="uni1EAA" unicode="&#x1eaa;" horiz-adv-x="1442" 
d="M1435 27l2 -9q0 -8 -5.5 -13t-15.5 -5h-335q-21 0 -27 19l-93 303h-489l-88 -302q-6 -20 -27 -20h-332q-10 0 -15.5 4.5t-5.5 12.5q0 2 2 10l464 1354q6 19 26 19h463q20 0 26 -19zM873 611l-163 528l-155 -528h318zM342 1586q-2 4 -2 12q0 13 11 20l292 222q11 10 29 10
h112q16 0 29 -10l292 -222q11 -7 11 -20q0 -8 -2 -12l-52 -125q-5 -14 -18 -14q-6 0 -13 3l-304 153l-301 -154q-8 -3 -13 -3q-12 0 -18 14zM770.5 1908.5q-36.5 15.5 -78.5 42.5q-25 17 -42.5 25.5t-34.5 8.5q-46 0 -49 -70q-1 -11 -7.5 -17.5t-16.5 -6.5h-130
q-24 0 -24 25q5 127 60 203t161 76q44 0 81 -16t79 -44q28 -18 42 -25t27 -7q26 0 38 18t14 52q2 23 25 23h130q23 0 22 -30q-5 -131 -57.5 -202t-154.5 -71q-48 0 -84.5 15.5z" />
    <glyph glyph-name="uni1EAB" unicode="&#x1eab;" horiz-adv-x="1218" 
d="M1144 516l9 -492q0 -24 -23 -24h-310q-25 0 -24 24l4 92q-55 -66 -131.5 -101t-172.5 -35q-141 0 -242.5 69.5t-153.5 190t-52 272.5q0 149 57.5 272t163 194.5t243.5 71.5q180 0 283 -120l-5 76q-1 24 22 24h318q23 0 23 -23zM752 289q50 74 50 230q0 149 -48.5 223
t-143.5 74t-145 -74.5t-50 -221.5q0 -155 48.5 -230t141.5 -75q97 0 147 74zM223 1216q-2 4 -2 12q0 13 11 20l292 222q11 10 29 10h112q16 0 29 -10l292 -222q11 -7 11 -20q0 -8 -2 -12l-52 -125q-5 -14 -18 -14q-6 0 -13 3l-304 153l-301 -154q-8 -3 -13 -3q-12 0 -18 14z
M651.5 1538.5q-36.5 15.5 -78.5 42.5q-25 17 -42.5 25.5t-34.5 8.5q-46 0 -49 -70q-1 -11 -7.5 -17.5t-16.5 -6.5h-130q-24 0 -24 25q5 127 60 203t161 76q44 0 81 -16t79 -44q28 -18 42 -25t27 -7q26 0 38 18t14 52q2 23 25 23h130q23 0 22 -30q-5 -131 -57.5 -202
t-154.5 -71q-48 0 -84.5 15.5z" />
    <glyph glyph-name="uni1EAC" unicode="&#x1eac;" horiz-adv-x="1442" 
d="M1435 27l2 -9q0 -8 -5.5 -13t-15.5 -5h-335q-21 0 -27 19l-93 303h-489l-88 -302q-6 -20 -27 -20h-332q-10 0 -15.5 4.5t-5.5 12.5q0 2 2 10l464 1354q6 19 26 19h463q20 0 26 -19zM873 611l-163 528l-155 -528h318zM560 -369q-24 0 -24 24v243q0 11 6.5 17t17.5 6h318
q10 0 16.5 -6t6.5 -17v-243q0 -11 -6 -17.5t-17 -6.5h-318zM342 1615q-2 4 -2 12q0 13 11 20l292 222q11 10 29 10h112q16 0 29 -10l292 -222q11 -7 11 -20q0 -8 -2 -12l-52 -125q-5 -14 -18 -14q-6 0 -13 3l-304 153l-301 -154q-8 -3 -13 -3q-12 0 -18 14z" />
    <glyph glyph-name="uni1EAD" unicode="&#x1ead;" horiz-adv-x="1218" 
d="M1144 516l9 -492q0 -24 -23 -24h-310q-25 0 -24 24l4 92q-55 -66 -131.5 -101t-172.5 -35q-141 0 -242.5 69.5t-153.5 190t-52 272.5q0 149 57.5 272t163 194.5t243.5 71.5q180 0 283 -120l-5 76q-1 24 22 24h318q23 0 23 -23zM752 289q50 74 50 230q0 149 -48.5 223
t-143.5 74t-145 -74.5t-50 -221.5q0 -155 48.5 -230t141.5 -75q97 0 147 74zM452 -369q-24 0 -24 24v243q0 11 6.5 17t17.5 6h318q10 0 16.5 -6t6.5 -17v-243q0 -11 -6 -17.5t-17 -6.5h-318zM223 1245q-2 4 -2 12q0 13 11 20l292 222q11 10 29 10h112q16 0 29 -10l292 -222
q11 -7 11 -20q0 -8 -2 -12l-52 -125q-5 -14 -18 -14q-6 0 -13 3l-304 153l-301 -154q-8 -3 -13 -3q-12 0 -18 14z" />
    <glyph glyph-name="uni1EAE" unicode="&#x1eae;" horiz-adv-x="1442" 
d="M1435 27l2 -9q0 -8 -5.5 -13t-15.5 -5h-335q-21 0 -27 19l-93 303h-489l-88 -302q-6 -20 -27 -20h-332q-10 0 -15.5 4.5t-5.5 12.5q0 2 2 10l464 1354q6 19 26 19h463q20 0 26 -19zM873 611l-163 528l-155 -528h318zM752 1786q-8 -8 -17 -8t-16 7l-107 90q-9 8 -9 17
q0 7 5 15l239 327q8 11 17 11q7 0 16 -7l159 -140q9 -7 9 -17q0 -8 -9 -17zM537 1521.5q-83 42.5 -130.5 117t-53.5 168.5q-2 24 23 24h184q20 0 25 -23q7 -50 44.5 -80t99.5 -30q60 0 98.5 30t45.5 80q5 23 25 23h185q23 0 22 -21q-5 -95 -52.5 -170t-131 -118t-192.5 -43
t-192 42.5z" />
    <glyph glyph-name="uni1EAF" unicode="&#x1eaf;" horiz-adv-x="1218" 
d="M1144 516l9 -492q0 -24 -23 -24h-310q-25 0 -24 24l4 92q-55 -66 -131.5 -101t-172.5 -35q-141 0 -242.5 69.5t-153.5 190t-52 272.5q0 149 57.5 272t163 194.5t243.5 71.5q180 0 283 -120l-5 76q-1 24 22 24h318q23 0 23 -23zM752 289q50 74 50 230q0 149 -48.5 223
t-143.5 74t-145 -74.5t-50 -221.5q0 -155 48.5 -230t141.5 -75q97 0 147 74zM633 1416q-8 -8 -17 -8t-16 7l-107 90q-9 8 -9 17q0 7 5 15l239 327q8 11 17 11q7 0 16 -7l159 -140q9 -7 9 -17q0 -8 -9 -17zM418 1151.5q-83 42.5 -130.5 117t-53.5 168.5q-2 24 23 24h184
q20 0 25 -23q7 -50 44.5 -80t99.5 -30q60 0 98.5 30t45.5 80q5 23 25 23h185q23 0 22 -21q-5 -95 -52.5 -170t-131 -118t-192.5 -43t-192 42.5z" />
    <glyph glyph-name="uni1EB0" unicode="&#x1eb0;" horiz-adv-x="1442" 
d="M1435 27l2 -9q0 -8 -5.5 -13t-15.5 -5h-335q-21 0 -27 19l-93 303h-489l-88 -302q-6 -20 -27 -20h-332q-10 0 -15.5 4.5t-5.5 12.5q0 2 2 10l464 1354q6 19 26 19h463q20 0 26 -19zM873 611l-163 528l-155 -528h318zM740 1785q-7 -7 -16 -7t-17 8l-287 278q-8 8 -8 17
q0 8 9 17l158 140q9 7 16 7q10 0 18 -11l238 -327q6 -7 6 -15q0 -9 -10 -17zM537 1521.5q-83 42.5 -130.5 117t-53.5 168.5q-2 24 23 24h184q20 0 25 -23q7 -50 44.5 -80t99.5 -30q60 0 98.5 30t45.5 80q5 23 25 23h185q23 0 22 -21q-5 -95 -52.5 -170t-131 -118t-192.5 -43
t-192 42.5z" />
    <glyph glyph-name="uni1EB1" unicode="&#x1eb1;" horiz-adv-x="1218" 
d="M1144 516l9 -492q0 -24 -23 -24h-310q-25 0 -24 24l4 92q-55 -66 -131.5 -101t-172.5 -35q-141 0 -242.5 69.5t-153.5 190t-52 272.5q0 149 57.5 272t163 194.5t243.5 71.5q180 0 283 -120l-5 76q-1 24 22 24h318q23 0 23 -23zM752 289q50 74 50 230q0 149 -48.5 223
t-143.5 74t-145 -74.5t-50 -221.5q0 -155 48.5 -230t141.5 -75q97 0 147 74zM621 1415q-7 -7 -16 -7t-17 8l-287 278q-8 8 -8 17q0 8 9 17l158 140q9 7 16 7q10 0 18 -11l238 -327q6 -7 6 -15q0 -9 -10 -17zM418 1151.5q-83 42.5 -130.5 117t-53.5 168.5q-2 24 23 24h184
q20 0 25 -23q7 -50 44.5 -80t99.5 -30q60 0 98.5 30t45.5 80q5 23 25 23h185q23 0 22 -21q-5 -95 -52.5 -170t-131 -118t-192.5 -43t-192 42.5z" />
    <glyph glyph-name="uni1EB2" unicode="&#x1eb2;" horiz-adv-x="1442" 
d="M1435 27l2 -9q0 -8 -5.5 -13t-15.5 -5h-335q-21 0 -27 19l-93 303h-489l-88 -302q-6 -20 -27 -20h-332q-10 0 -15.5 4.5t-5.5 12.5q0 2 2 10l464 1354q6 19 26 19h463q20 0 26 -19zM873 611l-163 528l-155 -528h318zM537 1521.5q-83 42.5 -130.5 117.5t-53.5 169
q-2 23 23 23h184q20 0 25 -23q7 -50 44.5 -80t99.5 -30q60 0 98.5 30t45.5 80q5 23 25 23h185q23 0 22 -21q-5 -95 -52.5 -170t-131 -118t-192.5 -43t-192 42.5zM630 1846q-12 0 -18 6.5t-4 18.5q5 40 24.5 66.5t43.5 41.5t60 31q35 15 50.5 26.5t15.5 30.5q0 21 -16.5 33.5
t-51.5 12.5q-30 0 -49.5 -12t-25.5 -36q-3 -11 -8.5 -16t-16.5 -5h-182q-12 0 -18 6.5t-5 17.5q13 99 92 152t216 53q92 0 161 -23.5t106.5 -68.5t37.5 -106q0 -38 -16 -64.5t-38.5 -43t-57.5 -34.5q-34 -19 -52.5 -33t-25.5 -33q-8 -21 -25 -21h-197z" />
    <glyph glyph-name="uni1EB3" unicode="&#x1eb3;" horiz-adv-x="1218" 
d="M1144 516l9 -492q0 -24 -23 -24h-310q-25 0 -24 24l4 92q-55 -66 -131.5 -101t-172.5 -35q-141 0 -242.5 69.5t-153.5 190t-52 272.5q0 149 57.5 272t163 194.5t243.5 71.5q180 0 283 -120l-5 76q-1 24 22 24h318q23 0 23 -23zM752 289q50 74 50 230q0 149 -48.5 223
t-143.5 74t-145 -74.5t-50 -221.5q0 -155 48.5 -230t141.5 -75q97 0 147 74zM418 1151.5q-83 42.5 -130.5 117.5t-53.5 169q-2 23 23 23h184q20 0 25 -23q7 -50 44.5 -80t99.5 -30q60 0 98.5 30t45.5 80q5 23 25 23h185q23 0 22 -21q-5 -95 -52.5 -170t-131 -118t-192.5 -43
t-192 42.5zM511 1476q-12 0 -18 6.5t-4 18.5q5 40 24.5 66.5t43.5 41.5t60 31q35 15 50.5 26.5t15.5 30.5q0 21 -16.5 33.5t-51.5 12.5q-30 0 -49.5 -12t-25.5 -36q-3 -11 -8.5 -16t-16.5 -5h-182q-12 0 -18 6.5t-5 17.5q13 99 92 152t216 53q92 0 161 -23.5t106.5 -68.5
t37.5 -106q0 -38 -16 -64.5t-38.5 -43t-57.5 -34.5q-34 -19 -52.5 -33t-25.5 -33q-8 -21 -25 -21h-197z" />
    <glyph glyph-name="uni1EB4" unicode="&#x1eb4;" horiz-adv-x="1442" 
d="M1435 27l2 -9q0 -8 -5.5 -13t-15.5 -5h-335q-21 0 -27 19l-93 303h-489l-88 -302q-6 -20 -27 -20h-332q-10 0 -15.5 4.5t-5.5 12.5q0 2 2 10l464 1354q6 19 26 19h463q20 0 26 -19zM873 611l-163 528l-155 -528h318zM770 1896.5q-36 15.5 -79 43.5q-26 17 -42 25t-32 8
q-25 0 -37 -18.5t-14 -52.5q-2 -23 -24 -23h-130q-24 0 -24 24q5 127 60 203.5t161 76.5q44 0 80.5 -16t77.5 -44q27 -17 42 -24.5t28 -7.5q27 0 39 17.5t14 51.5q1 11 7.5 17.5t17.5 6.5h130q24 0 22 -31q-5 -131 -57.5 -201.5t-154.5 -70.5q-49 0 -85 15.5zM537 1521.5
q-83 42.5 -130.5 117t-53.5 168.5q-2 24 23 24h184q20 0 25 -23q7 -50 44.5 -80t99.5 -30q60 0 98.5 30t45.5 80q5 23 25 23h185q23 0 22 -21q-5 -95 -52.5 -170t-131 -118t-192.5 -43t-192 42.5z" />
    <glyph glyph-name="uni1EB5" unicode="&#x1eb5;" horiz-adv-x="1218" 
d="M1144 516l9 -492q0 -24 -23 -24h-310q-25 0 -24 24l4 92q-55 -66 -131.5 -101t-172.5 -35q-141 0 -242.5 69.5t-153.5 190t-52 272.5q0 149 57.5 272t163 194.5t243.5 71.5q180 0 283 -120l-5 76q-1 24 22 24h318q23 0 23 -23zM752 289q50 74 50 230q0 149 -48.5 223
t-143.5 74t-145 -74.5t-50 -221.5q0 -155 48.5 -230t141.5 -75q97 0 147 74zM651 1526.5q-36 15.5 -79 43.5q-26 17 -42 25t-32 8q-25 0 -37 -18.5t-14 -52.5q-2 -23 -24 -23h-130q-24 0 -24 24q5 127 60 203.5t161 76.5q44 0 80.5 -16t77.5 -44q27 -17 42 -24.5t28 -7.5
q27 0 39 17.5t14 51.5q1 11 7.5 17.5t17.5 6.5h130q24 0 22 -31q-5 -131 -57.5 -201.5t-154.5 -70.5q-49 0 -85 15.5zM418 1151.5q-83 42.5 -130.5 117t-53.5 168.5q-2 24 23 24h184q20 0 25 -23q7 -50 44.5 -80t99.5 -30q60 0 98.5 30t45.5 80q5 23 25 23h185q23 0 22 -21
q-5 -95 -52.5 -170t-131 -118t-192.5 -43t-192 42.5z" />
    <glyph glyph-name="uni1EB6" unicode="&#x1eb6;" horiz-adv-x="1442" 
d="M1435 27l2 -9q0 -8 -5.5 -13t-15.5 -5h-335q-21 0 -27 19l-93 303h-489l-88 -302q-6 -20 -27 -20h-332q-10 0 -15.5 4.5t-5.5 12.5q0 2 2 10l464 1354q6 19 26 19h463q20 0 26 -19zM873 611l-163 528l-155 -528h318zM560 -369q-24 0 -24 24v243q0 11 6.5 17t17.5 6h318
q10 0 16.5 -6t6.5 -17v-243q0 -11 -6 -17.5t-17 -6.5h-318zM537 1537.5q-83 42.5 -130.5 117.5t-53.5 169q-2 23 23 23h184q20 0 25 -23q7 -50 44.5 -80t99.5 -30q60 0 98.5 30t45.5 80q5 23 25 23h185q23 0 22 -21q-5 -95 -52.5 -170t-131 -118t-192.5 -43t-192 42.5z" />
    <glyph glyph-name="uni1EB7" unicode="&#x1eb7;" horiz-adv-x="1218" 
d="M1144 516l9 -492q0 -24 -23 -24h-310q-25 0 -24 24l4 92q-55 -66 -131.5 -101t-172.5 -35q-141 0 -242.5 69.5t-153.5 190t-52 272.5q0 149 57.5 272t163 194.5t243.5 71.5q180 0 283 -120l-5 76q-1 24 22 24h318q23 0 23 -23zM752 289q50 74 50 230q0 149 -48.5 223
t-143.5 74t-145 -74.5t-50 -221.5q0 -155 48.5 -230t141.5 -75q97 0 147 74zM452 -369q-24 0 -24 24v243q0 11 6.5 17t17.5 6h318q10 0 16.5 -6t6.5 -17v-243q0 -11 -6 -17.5t-17 -6.5h-318zM417 1167.5q-83 42.5 -130.5 117.5t-53.5 169q-2 23 23 23h184q20 0 25 -23
q7 -50 44.5 -80t99.5 -30q60 0 98.5 30t45.5 80q5 23 25 23h185q23 0 22 -21q-5 -95 -52.5 -170t-131 -118t-192.5 -43t-192 42.5z" />
    <glyph glyph-name="uni1EB8" unicode="&#x1eb8;" horiz-adv-x="1173" 
d="M101 0q-23 0 -23 24l14 664l-14 689q0 23 23 23h984q11 0 17 -6t6 -17v-221q0 -11 -6 -17.5t-17 -6.5h-627l-9 -263h573q11 0 17 -6t6 -17v-221q0 -11 -6 -17.5t-17 -6.5h-573l9 -332h643q11 0 17 -6t6 -17v-222q0 -11 -6 -17.5t-17 -6.5h-1000zM444 -369q-24 0 -24 24
v243q0 11 6.5 17t17.5 6h318q10 0 16.5 -6t6.5 -17v-243q0 -11 -6 -17.5t-17 -6.5h-318z" />
    <glyph glyph-name="uni1EB9" unicode="&#x1eb9;" horiz-adv-x="1174" 
d="M407 440q9 -125 55.5 -178t133.5 -53q127 0 163 119q8 20 26 20h298q12 0 18.5 -4t5.5 -12q-16 -93 -80.5 -175.5t-175 -133.5t-255.5 -51q-169 0 -293 68t-189.5 190t-65.5 282q0 164 66.5 288t187.5 191t282 67q260 0 401 -153.5t147 -440.5q0 -24 -24 -24h-701z
M475 785.5q-44 -42.5 -61 -138.5h343q-5 79 -47.5 130t-117.5 51q-73 0 -117 -42.5zM430 -369q-24 0 -24 24v243q0 11 6.5 17t17.5 6h318q10 0 16.5 -6t6.5 -17v-243q0 -11 -6 -17.5t-17 -6.5h-318z" />
    <glyph glyph-name="uni1EBA" unicode="&#x1eba;" horiz-adv-x="1173" 
d="M101 0q-23 0 -23 24l14 664l-14 689q0 23 23 23h984q11 0 17 -6t6 -17v-221q0 -11 -6 -17.5t-17 -6.5h-627l-9 -263h573q11 0 17 -6t6 -17v-221q0 -11 -6 -17.5t-17 -6.5h-573l9 -332h643q11 0 17 -6t6 -17v-222q0 -11 -6 -17.5t-17 -6.5h-1000zM510 1480q-12 0 -18 6.5
t-4 18.5q5 40 24.5 66.5t43.5 41.5t60 31q35 15 50.5 26.5t15.5 30.5q0 21 -16.5 33.5t-51.5 12.5q-30 0 -49.5 -12t-25.5 -36q-3 -11 -8.5 -16t-16.5 -5h-182q-12 0 -18 6.5t-5 17.5q13 99 92 152t216 53q92 0 161 -23.5t106.5 -68.5t37.5 -106q0 -38 -16 -64.5t-38.5 -43
t-57.5 -34.5q-34 -19 -52.5 -33t-25.5 -33q-8 -21 -25 -21h-197z" />
    <glyph glyph-name="uni1EBB" unicode="&#x1ebb;" horiz-adv-x="1174" 
d="M407 440q9 -125 55.5 -178t133.5 -53q127 0 163 119q8 20 26 20h298q12 0 18.5 -4t5.5 -12q-16 -93 -80.5 -175.5t-175 -133.5t-255.5 -51q-169 0 -293 68t-189.5 190t-65.5 282q0 164 66.5 288t187.5 191t282 67q260 0 401 -153.5t147 -440.5q0 -24 -24 -24h-701z
M475 785.5q-44 -42.5 -61 -138.5h343q-5 79 -47.5 130t-117.5 51q-73 0 -117 -42.5zM492 1110q-12 0 -18 6.5t-4 18.5q5 40 24.5 66.5t43.5 41.5t60 31q35 15 50.5 26.5t15.5 30.5q0 21 -16.5 33.5t-51.5 12.5q-30 0 -49.5 -12t-25.5 -36q-3 -11 -8.5 -16t-16.5 -5h-182
q-12 0 -18 6.5t-5 17.5q13 99 92 152t216 53q92 0 161 -23.5t106.5 -68.5t37.5 -106q0 -38 -16 -64.5t-38.5 -43t-57.5 -34.5q-34 -19 -52.5 -33t-25.5 -33q-8 -21 -25 -21h-197z" />
    <glyph glyph-name="uni1EBC" unicode="&#x1ebc;" horiz-adv-x="1173" 
d="M101 0q-23 0 -23 24l14 664l-14 689q0 23 23 23h984q11 0 17 -6t6 -17v-221q0 -11 -6 -17.5t-17 -6.5h-627l-9 -263h573q11 0 17 -6t6 -17v-221q0 -11 -6 -17.5t-17 -6.5h-573l9 -332h643q11 0 17 -6t6 -17v-222q0 -11 -6 -17.5t-17 -6.5h-1000zM649.5 1518.5
q-36.5 15.5 -78.5 42.5q-25 17 -42.5 25.5t-34.5 8.5q-46 0 -49 -70q-1 -11 -7.5 -17.5t-16.5 -6.5h-130q-24 0 -24 25q5 127 60 203t161 76q44 0 81 -16t79 -44q28 -18 42 -25t27 -7q26 0 38 18t14 52q2 23 25 23h130q23 0 22 -30q-5 -131 -57.5 -202t-154.5 -71
q-48 0 -84.5 15.5z" />
    <glyph glyph-name="uni1EBD" unicode="&#x1ebd;" horiz-adv-x="1174" 
d="M407 440q9 -125 55.5 -178t133.5 -53q127 0 163 119q8 20 26 20h298q12 0 18.5 -4t5.5 -12q-16 -93 -80.5 -175.5t-175 -133.5t-255.5 -51q-169 0 -293 68t-189.5 190t-65.5 282q0 164 66.5 288t187.5 191t282 67q260 0 401 -153.5t147 -440.5q0 -24 -24 -24h-701z
M475 785.5q-44 -42.5 -61 -138.5h343q-5 79 -47.5 130t-117.5 51q-73 0 -117 -42.5zM631.5 1148.5q-36.5 15.5 -78.5 42.5q-25 17 -42.5 25.5t-34.5 8.5q-46 0 -49 -70q-1 -11 -7.5 -17.5t-16.5 -6.5h-130q-24 0 -24 25q5 127 60 203t161 76q44 0 81 -16t79 -44
q28 -18 42 -25t27 -7q26 0 38 18t14 52q2 23 25 23h130q23 0 22 -30q-5 -131 -57.5 -202t-154.5 -71q-48 0 -84.5 15.5z" />
    <glyph glyph-name="uni1EBE" unicode="&#x1ebe;" horiz-adv-x="1173" 
d="M101 0q-23 0 -23 24l14 664l-14 689q0 23 23 23h984q11 0 17 -6t6 -17v-221q0 -11 -6 -17.5t-17 -6.5h-627l-9 -263h573q11 0 17 -6t6 -17v-221q0 -11 -6 -17.5t-17 -6.5h-573l9 -332h643q11 0 17 -6t6 -17v-222q0 -11 -6 -17.5t-17 -6.5h-1000zM950 1746q-8 -8 -17 -8
t-16 7l-104 90q-9 9 -9 17q0 9 6 16l226 308q7 11 18 11q9 0 16 -7l152 -137q9 -7 9 -17q0 -9 -8 -17zM221 1587q-2 4 -2 12q0 13 11 20l292 222q12 9 29 9h112q16 0 29 -9l292 -222q11 -7 11 -20q0 -8 -2 -12l-52 -125q-5 -15 -18 -15q-7 0 -13 3l-304 153l-301 -154
q-6 -3 -12 -3q-13 0 -19 15z" />
    <glyph glyph-name="uni1EBF" unicode="&#x1ebf;" horiz-adv-x="1174" 
d="M407 440q9 -125 55.5 -178t133.5 -53q127 0 163 119q8 20 26 20h298q12 0 18.5 -4t5.5 -12q-16 -93 -80.5 -175.5t-175 -133.5t-255.5 -51q-169 0 -293 68t-189.5 190t-65.5 282q0 164 66.5 288t187.5 191t282 67q260 0 401 -153.5t147 -440.5q0 -24 -24 -24h-701z
M475 785.5q-44 -42.5 -61 -138.5h343q-5 79 -47.5 130t-117.5 51q-73 0 -117 -42.5zM932 1376q-8 -8 -17 -8t-16 7l-104 90q-9 9 -9 17q0 9 6 16l226 308q7 11 18 11q9 0 16 -7l152 -137q9 -7 9 -17q0 -9 -8 -17zM203 1217q-2 4 -2 12q0 13 11 20l292 222q12 9 29 9h112
q16 0 29 -9l292 -222q11 -7 11 -20q0 -8 -2 -12l-52 -125q-5 -15 -18 -15q-7 0 -13 3l-304 153l-301 -154q-6 -3 -12 -3q-13 0 -19 15z" />
    <glyph glyph-name="uni1EC0" unicode="&#x1ec0;" horiz-adv-x="1173" 
d="M101 0q-23 0 -23 24l14 664l-14 689q0 23 23 23h984q11 0 17 -6t6 -17v-221q0 -11 -6 -17.5t-17 -6.5h-627l-9 -263h573q11 0 17 -6t6 -17v-221q0 -11 -6 -17.5t-17 -6.5h-573l9 -332h643q11 0 17 -6t6 -17v-222q0 -11 -6 -17.5t-17 -6.5h-1000zM954 1742q-7 -7 -16 -7
q-7 0 -17 8l-273 263q-8 8 -8 17t8 16l153 138q7 7 17 7t17 -11l227 -308q6 -7 6 -15t-10 -18zM221 1587q-2 4 -2 12q0 13 11 20l292 222q12 9 29 9h112q16 0 29 -9l292 -222q11 -7 11 -20q0 -8 -2 -12l-52 -125q-5 -15 -18 -15q-7 0 -13 3l-304 153l-301 -154q-6 -3 -12 -3
q-13 0 -19 15z" />
    <glyph glyph-name="uni1EC1" unicode="&#x1ec1;" horiz-adv-x="1174" 
d="M407 440q9 -125 55.5 -178t133.5 -53q127 0 163 119q8 20 26 20h298q12 0 18.5 -4t5.5 -12q-16 -93 -80.5 -175.5t-175 -133.5t-255.5 -51q-169 0 -293 68t-189.5 190t-65.5 282q0 164 66.5 288t187.5 191t282 67q260 0 401 -153.5t147 -440.5q0 -24 -24 -24h-701z
M475 785.5q-44 -42.5 -61 -138.5h343q-5 79 -47.5 130t-117.5 51q-73 0 -117 -42.5zM936 1372q-7 -7 -16 -7q-7 0 -17 8l-273 263q-8 8 -8 17t8 16l153 138q7 7 17 7t17 -11l227 -308q6 -7 6 -15t-10 -18zM203 1217q-2 4 -2 12q0 13 11 20l292 222q12 9 29 9h112q16 0 29 -9
l292 -222q11 -7 11 -20q0 -8 -2 -12l-52 -125q-5 -15 -18 -15q-7 0 -13 3l-304 153l-301 -154q-6 -3 -12 -3q-13 0 -19 15z" />
    <glyph glyph-name="uni1EC2" unicode="&#x1ec2;" horiz-adv-x="1173" 
d="M101 0q-23 0 -23 24l14 664l-14 689q0 23 23 23h984q11 0 17 -6t6 -17v-221q0 -11 -6 -17.5t-17 -6.5h-627l-9 -263h573q11 0 17 -6t6 -17v-221q0 -11 -6 -17.5t-17 -6.5h-573l9 -332h643q11 0 17 -6t6 -17v-222q0 -11 -6 -17.5t-17 -6.5h-1000zM221 1586q-2 4 -2 12
q0 13 11 20l292 222q11 10 29 10h112q16 0 29 -10l292 -222q11 -7 11 -20q0 -8 -2 -12l-52 -125q-5 -14 -18 -14q-6 0 -13 3l-304 153l-301 -154q-8 -3 -13 -3q-12 0 -18 14zM858 1772q-12 0 -18 6.5t-4 18.5q5 40 24.5 66.5t43.5 41.5t60 31q35 15 50.5 26.5t15.5 30.5
q0 21 -16.5 33.5t-51.5 12.5q-30 0 -49.5 -12t-25.5 -36q-3 -11 -8.5 -16t-16.5 -5h-182q-12 0 -18 6.5t-5 17.5q13 99 92 152t216 53q92 0 161 -23.5t106.5 -68.5t37.5 -106q0 -38 -16 -64.5t-38.5 -43t-57.5 -34.5q-34 -19 -52.5 -33t-25.5 -33q-8 -21 -25 -21h-197z" />
    <glyph glyph-name="uni1EC3" unicode="&#x1ec3;" horiz-adv-x="1174" 
d="M407 440q9 -125 55.5 -178t133.5 -53q127 0 163 119q8 20 26 20h298q12 0 18.5 -4t5.5 -12q-16 -93 -80.5 -175.5t-175 -133.5t-255.5 -51q-169 0 -293 68t-189.5 190t-65.5 282q0 164 66.5 288t187.5 191t282 67q260 0 401 -153.5t147 -440.5q0 -24 -24 -24h-701z
M475 785.5q-44 -42.5 -61 -138.5h343q-5 79 -47.5 130t-117.5 51q-73 0 -117 -42.5zM203 1216q-2 4 -2 12q0 13 11 20l292 222q11 10 29 10h112q16 0 29 -10l292 -222q11 -7 11 -20q0 -8 -2 -12l-52 -125q-5 -14 -18 -14q-6 0 -13 3l-304 153l-301 -154q-8 -3 -13 -3
q-12 0 -18 14zM840 1402q-12 0 -18 6.5t-4 18.5q5 40 24.5 66.5t43.5 41.5t60 31q35 15 50.5 26.5t15.5 30.5q0 21 -16.5 33.5t-51.5 12.5q-30 0 -49.5 -12t-25.5 -36q-3 -11 -8.5 -16t-16.5 -5h-182q-12 0 -18 6.5t-5 17.5q13 99 92 152t216 53q92 0 161 -23.5t106.5 -68.5
t37.5 -106q0 -38 -16 -64.5t-38.5 -43t-57.5 -34.5q-34 -19 -52.5 -33t-25.5 -33q-8 -21 -25 -21h-197z" />
    <glyph glyph-name="uni1EC4" unicode="&#x1ec4;" horiz-adv-x="1173" 
d="M101 0q-23 0 -23 24l14 664l-14 689q0 23 23 23h984q11 0 17 -6t6 -17v-221q0 -11 -6 -17.5t-17 -6.5h-627l-9 -263h573q11 0 17 -6t6 -17v-221q0 -11 -6 -17.5t-17 -6.5h-573l9 -332h643q11 0 17 -6t6 -17v-222q0 -11 -6 -17.5t-17 -6.5h-1000zM221 1586q-2 4 -2 12
q0 13 11 20l292 222q11 10 29 10h112q16 0 29 -10l292 -222q11 -7 11 -20q0 -8 -2 -12l-52 -125q-5 -14 -18 -14q-6 0 -13 3l-304 153l-301 -154q-8 -3 -13 -3q-12 0 -18 14zM649.5 1908.5q-36.5 15.5 -78.5 42.5q-25 17 -42.5 25.5t-34.5 8.5q-46 0 -49 -70
q-1 -11 -7.5 -17.5t-16.5 -6.5h-130q-24 0 -24 25q5 127 60 203t161 76q44 0 81 -16t79 -44q28 -18 42 -25t27 -7q26 0 38 18t14 52q2 23 25 23h130q23 0 22 -30q-5 -131 -57.5 -202t-154.5 -71q-48 0 -84.5 15.5z" />
    <glyph glyph-name="uni1EC5" unicode="&#x1ec5;" horiz-adv-x="1174" 
d="M407 440q9 -125 55.5 -178t133.5 -53q127 0 163 119q8 20 26 20h298q12 0 18.5 -4t5.5 -12q-16 -93 -80.5 -175.5t-175 -133.5t-255.5 -51q-169 0 -293 68t-189.5 190t-65.5 282q0 164 66.5 288t187.5 191t282 67q260 0 401 -153.5t147 -440.5q0 -24 -24 -24h-701z
M475 785.5q-44 -42.5 -61 -138.5h343q-5 79 -47.5 130t-117.5 51q-73 0 -117 -42.5zM203 1216q-2 4 -2 12q0 13 11 20l292 222q11 10 29 10h112q16 0 29 -10l292 -222q11 -7 11 -20q0 -8 -2 -12l-52 -125q-5 -14 -18 -14q-6 0 -13 3l-304 153l-301 -154q-8 -3 -13 -3
q-12 0 -18 14zM631.5 1538.5q-36.5 15.5 -78.5 42.5q-25 17 -42.5 25.5t-34.5 8.5q-46 0 -49 -70q-1 -11 -7.5 -17.5t-16.5 -6.5h-130q-24 0 -24 25q5 127 60 203t161 76q44 0 81 -16t79 -44q28 -18 42 -25t27 -7q26 0 38 18t14 52q2 23 25 23h130q23 0 22 -30
q-5 -131 -57.5 -202t-154.5 -71q-48 0 -84.5 15.5z" />
    <glyph glyph-name="uni1EC6" unicode="&#x1ec6;" horiz-adv-x="1173" 
d="M101 0q-23 0 -23 24l14 664l-14 689q0 23 23 23h984q11 0 17 -6t6 -17v-221q0 -11 -6 -17.5t-17 -6.5h-627l-9 -263h573q11 0 17 -6t6 -17v-221q0 -11 -6 -17.5t-17 -6.5h-573l9 -332h643q11 0 17 -6t6 -17v-222q0 -11 -6 -17.5t-17 -6.5h-1000zM444 -369q-24 0 -24 24
v243q0 11 6.5 17t17.5 6h318q10 0 16.5 -6t6.5 -17v-243q0 -11 -6 -17.5t-17 -6.5h-318zM221 1615q-2 4 -2 12q0 13 11 20l292 222q11 10 29 10h112q16 0 29 -10l292 -222q11 -7 11 -20q0 -8 -2 -12l-52 -125q-5 -14 -18 -14q-6 0 -13 3l-304 153l-301 -154q-8 -3 -13 -3
q-12 0 -18 14z" />
    <glyph glyph-name="uni1EC7" unicode="&#x1ec7;" horiz-adv-x="1174" 
d="M407 440q9 -125 55.5 -178t133.5 -53q127 0 163 119q8 20 26 20h298q12 0 18.5 -4t5.5 -12q-16 -93 -80.5 -175.5t-175 -133.5t-255.5 -51q-169 0 -293 68t-189.5 190t-65.5 282q0 164 66.5 288t187.5 191t282 67q260 0 401 -153.5t147 -440.5q0 -24 -24 -24h-701z
M475 785.5q-44 -42.5 -61 -138.5h343q-5 79 -47.5 130t-117.5 51q-73 0 -117 -42.5zM430 -369q-24 0 -24 24v243q0 11 6.5 17t17.5 6h318q10 0 16.5 -6t6.5 -17v-243q0 -11 -6 -17.5t-17 -6.5h-318zM203 1245q-2 4 -2 12q0 13 11 20l292 222q11 10 29 10h112q16 0 29 -10
l292 -222q11 -7 11 -20q0 -8 -2 -12l-52 -125q-5 -14 -18 -14q-6 0 -13 3l-304 153l-301 -154q-8 -3 -13 -3q-12 0 -18 14z" />
    <glyph glyph-name="uni1EC8" unicode="&#x1ec8;" horiz-adv-x="554" 
d="M111 0q-23 0 -23 24l13 669l-13 684q0 23 23 23h332q23 0 23 -23l-13 -684l13 -669q0 -24 -23 -24h-332zM180 1480q-12 0 -18 6.5t-4 18.5q5 40 24.5 66.5t43.5 41.5t60 31q35 15 50.5 26.5t15.5 30.5q0 21 -16.5 33.5t-51.5 12.5q-30 0 -49.5 -12t-25.5 -36
q-3 -11 -8.5 -16t-16.5 -5h-182q-12 0 -18 6.5t-5 17.5q13 99 92 152t216 53q92 0 161 -23.5t106.5 -68.5t37.5 -106q0 -38 -16 -64.5t-38.5 -43t-57.5 -34.5q-34 -19 -52.5 -33t-25.5 -33q-8 -21 -25 -21h-197z" />
    <glyph glyph-name="uni1EC9" unicode="&#x1ec9;" horiz-adv-x="512" 
d="M159 1110q-12 0 -18 6.5t-4 18.5q5 40 24 66.5t42.5 41.5t59.5 31q34 15 49.5 26.5t15.5 30.5q0 21 -16 33.5t-49 12.5q-60 0 -72 -47q-3 -12 -8.5 -17t-16.5 -5h-155q-12 0 -18 6.5t-5 17.5q12 99 83.5 152t194.5 53q126 0 200.5 -53t74.5 -145q0 -54 -25 -84t-70 -58
q-28 -18 -44 -32t-22 -34q-6 -21 -25 -21h-196zM96 0q-23 0 -23 24l8 481l-8 502q0 23 23 23h320q23 0 23 -23l-7 -502l7 -481q0 -24 -23 -24h-320z" />
    <glyph glyph-name="uni1ECA" unicode="&#x1eca;" horiz-adv-x="554" 
d="M111 0q-23 0 -23 24l13 669l-13 684q0 23 23 23h332q23 0 23 -23l-13 -684l13 -669q0 -24 -23 -24h-332zM118 -369q-24 0 -24 24v243q0 11 6.5 17t17.5 6h318q10 0 16.5 -6t6.5 -17v-243q0 -11 -6 -17.5t-17 -6.5h-318z" />
    <glyph glyph-name="uni1ECB" unicode="&#x1ecb;" horiz-adv-x="512" 
d="M96 0q-23 0 -23 24l8 481l-8 502q0 23 23 23h320q23 0 23 -23l-7 -502l7 -481q0 -24 -23 -24h-320zM97 1110q-24 0 -24 24v243q0 11 6.5 17t17.5 6h318q10 0 16.5 -6t6.5 -17v-243q0 -11 -6 -17.5t-17 -6.5h-318zM98 -369q-24 0 -24 24v243q0 11 6.5 17t17.5 6h318
q10 0 16.5 -6t6.5 -17v-243q0 -11 -6 -17.5t-17 -6.5h-318z" />
    <glyph glyph-name="uni1ECC" unicode="&#x1ecc;" horiz-adv-x="1560" 
d="M395.5 60q-165.5 93 -256 258.5t-90.5 376.5q0 221 89.5 388t254.5 258.5t386 91.5q219 0 384.5 -90t256.5 -257t91 -391q0 -210 -90.5 -375.5t-257 -259t-384.5 -93.5t-383.5 93zM1037.5 364.5q88.5 118.5 88.5 330.5q0 214 -88.5 336.5t-258.5 122.5t-257.5 -120
t-87.5 -339q0 -138 40 -239t118.5 -155.5t189.5 -54.5q167 0 255.5 118.5zM617 -369q-24 0 -24 24v243q0 11 6.5 17t17.5 6h318q10 0 16.5 -6t6.5 -17v-243q0 -11 -6 -17.5t-17 -6.5h-318z" />
    <glyph glyph-name="uni1ECD" unicode="&#x1ecd;" horiz-adv-x="1192" 
d="M303 38q-124 66 -189.5 187.5t-65.5 286.5t65.5 288t189.5 190.5t295 67.5q172 0 295 -65.5t187 -187t64 -286.5t-64.5 -288.5t-187.5 -191t-294 -67.5t-295 66zM699 239.5q39 29.5 58 95.5t19 177q0 162 -44 235.5t-136 73.5q-95 -2 -138.5 -75.5t-43.5 -236.5
q0 -160 45 -229.5t139 -69.5q62 0 101 29.5zM437 -369q-24 0 -24 24v243q0 11 6.5 17t17.5 6h318q10 0 16.5 -6t6.5 -17v-243q0 -11 -6 -17.5t-17 -6.5h-318z" />
    <glyph glyph-name="uni1ECE" unicode="&#x1ece;" horiz-adv-x="1560" 
d="M395.5 60q-165.5 93 -256 258.5t-90.5 376.5q0 221 89.5 388t254.5 258.5t386 91.5q219 0 384.5 -90t256.5 -257t91 -391q0 -210 -90.5 -375.5t-257 -259t-384.5 -93.5t-383.5 93zM1037.5 364.5q88.5 118.5 88.5 330.5q0 214 -88.5 336.5t-258.5 122.5t-257.5 -120
t-87.5 -339q0 -138 40 -239t118.5 -155.5t189.5 -54.5q167 0 255.5 118.5zM679 1480q-12 0 -18 6.5t-4 18.5q5 40 24.5 66.5t43.5 41.5t60 31q35 15 50.5 26.5t15.5 30.5q0 21 -16.5 33.5t-51.5 12.5q-30 0 -49.5 -12t-25.5 -36q-3 -11 -8.5 -16t-16.5 -5h-182
q-12 0 -18 6.5t-5 17.5q13 99 92 152t216 53q92 0 161 -23.5t106.5 -68.5t37.5 -106q0 -38 -16 -64.5t-38.5 -43t-57.5 -34.5q-34 -19 -52.5 -33t-25.5 -33q-8 -21 -25 -21h-197z" />
    <glyph glyph-name="uni1ECF" unicode="&#x1ecf;" horiz-adv-x="1192" 
d="M303 38q-124 66 -189.5 187.5t-65.5 286.5t65.5 288t189.5 190.5t295 67.5q172 0 295 -65.5t187 -187t64 -286.5t-64.5 -288.5t-187.5 -191t-294 -67.5t-295 66zM699 239.5q39 29.5 58 95.5t19 177q0 162 -44 235.5t-136 73.5q-95 -2 -138.5 -75.5t-43.5 -236.5
q0 -160 45 -229.5t139 -69.5q62 0 101 29.5zM500 1110q-12 0 -18 6.5t-4 18.5q5 40 24.5 66.5t43.5 41.5t60 31q35 15 50.5 26.5t15.5 30.5q0 21 -16.5 33.5t-51.5 12.5q-30 0 -49.5 -12t-25.5 -36q-3 -11 -8.5 -16t-16.5 -5h-182q-12 0 -18 6.5t-5 17.5q13 99 92 152
t216 53q92 0 161 -23.5t106.5 -68.5t37.5 -106q0 -38 -16 -64.5t-38.5 -43t-57.5 -34.5q-34 -19 -52.5 -33t-25.5 -33q-8 -21 -25 -21h-197z" />
    <glyph glyph-name="uni1ED0" unicode="&#x1ed0;" horiz-adv-x="1560" 
d="M395.5 60q-165.5 93 -256 258.5t-90.5 376.5q0 221 89.5 388t254.5 258.5t386 91.5q219 0 384.5 -90t256.5 -257t91 -391q0 -210 -90.5 -375.5t-257 -259t-384.5 -93.5t-383.5 93zM1037.5 364.5q88.5 118.5 88.5 330.5q0 214 -88.5 336.5t-258.5 122.5t-257.5 -120
t-87.5 -339q0 -138 40 -239t118.5 -155.5t189.5 -54.5q167 0 255.5 118.5zM1119 1746q-8 -8 -17 -8t-16 7l-104 90q-9 9 -9 17q0 9 6 16l226 308q7 11 18 11q9 0 16 -7l152 -137q9 -7 9 -17q0 -9 -8 -17zM390 1587q-2 4 -2 12q0 13 11 20l292 222q12 9 29 9h112q16 0 29 -9
l292 -222q11 -7 11 -20q0 -8 -2 -12l-52 -125q-5 -15 -18 -15q-7 0 -13 3l-304 153l-301 -154q-6 -3 -12 -3q-13 0 -19 15z" />
    <glyph glyph-name="uni1ED1" unicode="&#x1ed1;" horiz-adv-x="1192" 
d="M303 38q-124 66 -189.5 187.5t-65.5 286.5t65.5 288t189.5 190.5t295 67.5q172 0 295 -65.5t187 -187t64 -286.5t-64.5 -288.5t-187.5 -191t-294 -67.5t-295 66zM699 239.5q39 29.5 58 95.5t19 177q0 162 -44 235.5t-136 73.5q-95 -2 -138.5 -75.5t-43.5 -236.5
q0 -160 45 -229.5t139 -69.5q62 0 101 29.5zM940 1376q-8 -8 -17 -8t-16 7l-104 90q-9 9 -9 17q0 9 6 16l226 308q7 11 18 11q9 0 16 -7l152 -137q9 -7 9 -17q0 -9 -8 -17zM211 1217q-2 4 -2 12q0 13 11 20l292 222q12 9 29 9h112q16 0 29 -9l292 -222q11 -7 11 -20
q0 -8 -2 -12l-52 -125q-5 -15 -18 -15q-7 0 -13 3l-304 153l-301 -154q-6 -3 -12 -3q-13 0 -19 15z" />
    <glyph glyph-name="uni1ED2" unicode="&#x1ed2;" horiz-adv-x="1560" 
d="M395.5 60q-165.5 93 -256 258.5t-90.5 376.5q0 221 89.5 388t254.5 258.5t386 91.5q219 0 384.5 -90t256.5 -257t91 -391q0 -210 -90.5 -375.5t-257 -259t-384.5 -93.5t-383.5 93zM1037.5 364.5q88.5 118.5 88.5 330.5q0 214 -88.5 336.5t-258.5 122.5t-257.5 -120
t-87.5 -339q0 -138 40 -239t118.5 -155.5t189.5 -54.5q167 0 255.5 118.5zM1123 1742q-7 -7 -16 -7q-7 0 -17 8l-273 263q-8 8 -8 17t8 16l153 138q7 7 17 7t17 -11l227 -308q6 -7 6 -15t-10 -18zM390 1587q-2 4 -2 12q0 13 11 20l292 222q12 9 29 9h112q16 0 29 -9
l292 -222q11 -7 11 -20q0 -8 -2 -12l-52 -125q-5 -15 -18 -15q-7 0 -13 3l-304 153l-301 -154q-6 -3 -12 -3q-13 0 -19 15z" />
    <glyph glyph-name="uni1ED3" unicode="&#x1ed3;" horiz-adv-x="1192" 
d="M303 38q-124 66 -189.5 187.5t-65.5 286.5t65.5 288t189.5 190.5t295 67.5q172 0 295 -65.5t187 -187t64 -286.5t-64.5 -288.5t-187.5 -191t-294 -67.5t-295 66zM699 239.5q39 29.5 58 95.5t19 177q0 162 -44 235.5t-136 73.5q-95 -2 -138.5 -75.5t-43.5 -236.5
q0 -160 45 -229.5t139 -69.5q62 0 101 29.5zM944 1372q-7 -7 -16 -7q-7 0 -17 8l-273 263q-8 8 -8 17t8 16l153 138q7 7 17 7t17 -11l227 -308q6 -7 6 -15t-10 -18zM211 1217q-2 4 -2 12q0 13 11 20l292 222q12 9 29 9h112q16 0 29 -9l292 -222q11 -7 11 -20q0 -8 -2 -12
l-52 -125q-5 -15 -18 -15q-7 0 -13 3l-304 153l-301 -154q-6 -3 -12 -3q-13 0 -19 15z" />
    <glyph glyph-name="uni1ED4" unicode="&#x1ed4;" horiz-adv-x="1560" 
d="M395.5 60q-165.5 93 -256 258.5t-90.5 376.5q0 221 89.5 388t254.5 258.5t386 91.5q219 0 384.5 -90t256.5 -257t91 -391q0 -210 -90.5 -375.5t-257 -259t-384.5 -93.5t-383.5 93zM1037.5 364.5q88.5 118.5 88.5 330.5q0 214 -88.5 336.5t-258.5 122.5t-257.5 -120
t-87.5 -339q0 -138 40 -239t118.5 -155.5t189.5 -54.5q167 0 255.5 118.5zM390 1586q-2 4 -2 12q0 13 11 20l292 222q11 10 29 10h112q16 0 29 -10l292 -222q11 -7 11 -20q0 -8 -2 -12l-52 -125q-5 -14 -18 -14q-6 0 -13 3l-304 153l-301 -154q-8 -3 -13 -3q-12 0 -18 14z
M1027 1772q-12 0 -18 6.5t-4 18.5q5 40 24.5 66.5t43.5 41.5t60 31q35 15 50.5 26.5t15.5 30.5q0 21 -16.5 33.5t-51.5 12.5q-30 0 -49.5 -12t-25.5 -36q-3 -11 -8.5 -16t-16.5 -5h-182q-12 0 -18 6.5t-5 17.5q13 99 92 152t216 53q92 0 161 -23.5t106.5 -68.5t37.5 -106
q0 -38 -16 -64.5t-38.5 -43t-57.5 -34.5q-34 -19 -52.5 -33t-25.5 -33q-8 -21 -25 -21h-197z" />
    <glyph glyph-name="uni1ED5" unicode="&#x1ed5;" horiz-adv-x="1192" 
d="M303 38q-124 66 -189.5 187.5t-65.5 286.5t65.5 288t189.5 190.5t295 67.5q172 0 295 -65.5t187 -187t64 -286.5t-64.5 -288.5t-187.5 -191t-294 -67.5t-295 66zM699 239.5q39 29.5 58 95.5t19 177q0 162 -44 235.5t-136 73.5q-95 -2 -138.5 -75.5t-43.5 -236.5
q0 -160 45 -229.5t139 -69.5q62 0 101 29.5zM211 1216q-2 4 -2 12q0 13 11 20l292 222q11 10 29 10h112q16 0 29 -10l292 -222q11 -7 11 -20q0 -8 -2 -12l-52 -125q-5 -14 -18 -14q-6 0 -13 3l-304 153l-301 -154q-8 -3 -13 -3q-12 0 -18 14zM848 1402q-12 0 -18 6.5
t-4 18.5q5 40 24.5 66.5t43.5 41.5t60 31q35 15 50.5 26.5t15.5 30.5q0 21 -16.5 33.5t-51.5 12.5q-30 0 -49.5 -12t-25.5 -36q-3 -11 -8.5 -16t-16.5 -5h-182q-12 0 -18 6.5t-5 17.5q13 99 92 152t216 53q92 0 161 -23.5t106.5 -68.5t37.5 -106q0 -38 -16 -64.5t-38.5 -43
t-57.5 -34.5q-34 -19 -52.5 -33t-25.5 -33q-8 -21 -25 -21h-197z" />
    <glyph glyph-name="uni1ED6" unicode="&#x1ed6;" horiz-adv-x="1560" 
d="M395.5 60q-165.5 93 -256 258.5t-90.5 376.5q0 221 89.5 388t254.5 258.5t386 91.5q219 0 384.5 -90t256.5 -257t91 -391q0 -210 -90.5 -375.5t-257 -259t-384.5 -93.5t-383.5 93zM1037.5 364.5q88.5 118.5 88.5 330.5q0 214 -88.5 336.5t-258.5 122.5t-257.5 -120
t-87.5 -339q0 -138 40 -239t118.5 -155.5t189.5 -54.5q167 0 255.5 118.5zM390 1586q-2 4 -2 12q0 13 11 20l292 222q11 10 29 10h112q16 0 29 -10l292 -222q11 -7 11 -20q0 -8 -2 -12l-52 -125q-5 -14 -18 -14q-6 0 -13 3l-304 153l-301 -154q-8 -3 -13 -3q-12 0 -18 14z
M818.5 1908.5q-36.5 15.5 -78.5 42.5q-25 17 -42.5 25.5t-34.5 8.5q-46 0 -49 -70q-1 -11 -7.5 -17.5t-16.5 -6.5h-130q-24 0 -24 25q5 127 60 203t161 76q44 0 81 -16t79 -44q28 -18 42 -25t27 -7q26 0 38 18t14 52q2 23 25 23h130q23 0 22 -30q-5 -131 -57.5 -202
t-154.5 -71q-48 0 -84.5 15.5z" />
    <glyph glyph-name="uni1ED7" unicode="&#x1ed7;" horiz-adv-x="1192" 
d="M303 38q-124 66 -189.5 187.5t-65.5 286.5t65.5 288t189.5 190.5t295 67.5q172 0 295 -65.5t187 -187t64 -286.5t-64.5 -288.5t-187.5 -191t-294 -67.5t-295 66zM699 239.5q39 29.5 58 95.5t19 177q0 162 -44 235.5t-136 73.5q-95 -2 -138.5 -75.5t-43.5 -236.5
q0 -160 45 -229.5t139 -69.5q62 0 101 29.5zM211 1216q-2 4 -2 12q0 13 11 20l292 222q11 10 29 10h112q16 0 29 -10l292 -222q11 -7 11 -20q0 -8 -2 -12l-52 -125q-5 -14 -18 -14q-6 0 -13 3l-304 153l-301 -154q-8 -3 -13 -3q-12 0 -18 14zM639.5 1538.5
q-36.5 15.5 -78.5 42.5q-25 17 -42.5 25.5t-34.5 8.5q-46 0 -49 -70q-1 -11 -7.5 -17.5t-16.5 -6.5h-130q-24 0 -24 25q5 127 60 203t161 76q44 0 81 -16t79 -44q28 -18 42 -25t27 -7q26 0 38 18t14 52q2 23 25 23h130q23 0 22 -30q-5 -131 -57.5 -202t-154.5 -71
q-48 0 -84.5 15.5z" />
    <glyph glyph-name="uni1ED8" unicode="&#x1ed8;" horiz-adv-x="1560" 
d="M395.5 60q-165.5 93 -256 258.5t-90.5 376.5q0 221 89.5 388t254.5 258.5t386 91.5q219 0 384.5 -90t256.5 -257t91 -391q0 -210 -90.5 -375.5t-257 -259t-384.5 -93.5t-383.5 93zM1037.5 364.5q88.5 118.5 88.5 330.5q0 214 -88.5 336.5t-258.5 122.5t-257.5 -120
t-87.5 -339q0 -138 40 -239t118.5 -155.5t189.5 -54.5q167 0 255.5 118.5zM617 -369q-24 0 -24 24v243q0 11 6.5 17t17.5 6h318q10 0 16.5 -6t6.5 -17v-243q0 -11 -6 -17.5t-17 -6.5h-318zM390 1615q-2 4 -2 12q0 13 11 20l292 222q11 10 29 10h112q16 0 29 -10l292 -222
q11 -7 11 -20q0 -8 -2 -12l-52 -125q-5 -14 -18 -14q-6 0 -13 3l-304 153l-301 -154q-8 -3 -13 -3q-12 0 -18 14z" />
    <glyph glyph-name="uni1ED9" unicode="&#x1ed9;" horiz-adv-x="1192" 
d="M303 38q-124 66 -189.5 187.5t-65.5 286.5t65.5 288t189.5 190.5t295 67.5q172 0 295 -65.5t187 -187t64 -286.5t-64.5 -288.5t-187.5 -191t-294 -67.5t-295 66zM699 239.5q39 29.5 58 95.5t19 177q0 162 -44 235.5t-136 73.5q-95 -2 -138.5 -75.5t-43.5 -236.5
q0 -160 45 -229.5t139 -69.5q62 0 101 29.5zM437 -369q-24 0 -24 24v243q0 11 6.5 17t17.5 6h318q10 0 16.5 -6t6.5 -17v-243q0 -11 -6 -17.5t-17 -6.5h-318zM211 1245q-2 4 -2 12q0 13 11 20l292 222q11 10 29 10h112q16 0 29 -10l292 -222q11 -7 11 -20q0 -8 -2 -12
l-52 -125q-5 -14 -18 -14q-6 0 -13 3l-304 153l-301 -154q-8 -3 -13 -3q-12 0 -18 14z" />
    <glyph glyph-name="uni1EDA" unicode="&#x1eda;" horiz-adv-x="1560" 
d="M1280 1262q112 -97 171.5 -241.5t59.5 -325.5q0 -210 -90.5 -375.5t-257 -259t-384.5 -93.5t-383.5 93t-256 258.5t-90.5 376.5q0 221 89.5 388t254.5 258.5t386 91.5q178 0 323 -61l148 303q8 14 19 14q6 0 13 -4l195 -110q12 -7 12 -17q0 -9 -5 -15zM1037.5 364.5
q88.5 118.5 88.5 330.5q0 214 -88.5 336.5t-258.5 122.5t-257.5 -120t-87.5 -339q0 -138 40 -239t118.5 -155.5t189.5 -54.5q167 0 255.5 118.5zM567 1476q-2 -1 -7 -1q-17 0 -21 18l-41 130q-2 8 -2 10q0 14 16 20l494 199q4 2 11 2q13 0 19 -16l66 -219q1 -3 1 -8
q0 -16 -18 -21z" />
    <glyph glyph-name="uni1EDB" unicode="&#x1edb;" horiz-adv-x="1192" 
d="M1175 1205q12 -7 12 -17q0 -9 -5 -15l-183 -258q71 -70 108 -170.5t37 -225.5q0 -165 -64.5 -288.5t-187.5 -191t-294 -67.5t-295 66t-189.5 187.5t-65.5 286.5t65.5 288t189.5 190.5t295 67.5q123 0 219 -33l131 280q6 14 18 14q7 0 14 -4zM699 239.5q39 29.5 58 95.5
t19 177q0 162 -44 235.5t-136 73.5q-95 -2 -138.5 -75.5t-43.5 -236.5q0 -160 45 -229.5t139 -69.5q62 0 101 29.5zM307 1106q-2 -1 -7 -1q-17 0 -21 18l-41 130q-2 8 -2 10q0 14 16 20l494 199q4 2 11 2q13 0 19 -16l66 -219q1 -3 1 -8q0 -16 -18 -21z" />
    <glyph glyph-name="uni1EDC" unicode="&#x1edc;" horiz-adv-x="1560" 
d="M1280 1262q112 -97 171.5 -241.5t59.5 -325.5q0 -210 -90.5 -375.5t-257 -259t-384.5 -93.5t-383.5 93t-256 258.5t-90.5 376.5q0 221 89.5 388t254.5 258.5t386 91.5q178 0 323 -61l148 303q8 14 19 14q6 0 13 -4l195 -110q12 -7 12 -17q0 -9 -5 -15zM1037.5 364.5
q88.5 118.5 88.5 330.5q0 214 -88.5 336.5t-258.5 122.5t-257.5 -120t-87.5 -339q0 -138 40 -239t118.5 -155.5t189.5 -54.5q167 0 255.5 118.5zM990 1493q-6 -22 -28 -17l-518 114q-18 5 -18 21q0 5 1 8l66 219q6 16 20 16q6 0 10 -2l494 -199q16 -7 16 -21q0 -6 -1 -9z
" />
    <glyph glyph-name="uni1EDD" unicode="&#x1edd;" horiz-adv-x="1192" 
d="M1175 1205q12 -7 12 -17q0 -9 -5 -15l-183 -258q71 -70 108 -170.5t37 -225.5q0 -165 -64.5 -288.5t-187.5 -191t-294 -67.5t-295 66t-189.5 187.5t-65.5 286.5t65.5 288t189.5 190.5t295 67.5q123 0 219 -33l131 280q6 14 18 14q7 0 14 -4zM699 239.5q39 29.5 58 95.5
t19 177q0 162 -44 235.5t-136 73.5q-95 -2 -138.5 -75.5t-43.5 -236.5q0 -160 45 -229.5t139 -69.5q62 0 101 29.5zM780 1124q-6 -22 -28 -17l-518 114q-18 5 -18 21q0 5 1 8l66 219q6 16 20 16q6 0 10 -2l494 -199q16 -7 16 -21q0 -6 -1 -9z" />
    </font>
</defs>
</svg>
