<?xml version="1.0" standalone="no"?>
<!DOCTYPE svg PUBLIC "-//W3C//DTD SVG 1.1//EN" "http://www.w3.org/Graphics/SVG/1.1/DTD/svg11.dtd" >
<svg xmlns="http://www.w3.org/2000/svg" xmlns:xlink="http://www.w3.org/1999/xlink" version="1.1">
<metadata>
Created by FontForge 20170731 at Wed May 12 04:41:42 2021
 By Aleksey,,,
(c) Copyright David Jonathan Ross, 2016, 2021. All rights reserved.
</metadata>
<defs>
<font id="FormaDJRText-ExtraBoldItalic" horiz-adv-x="1173" >
  <font-face 
    font-family="Forma DJR Text Extra Bold"
    font-weight="800"
    font-style="italic"
    font-stretch="normal"
    units-per-em="2000"
    panose-1="0 0 0 0 0 0 0 9 0 0"
    ascent="1500"
    descent="-500"
    x-height="1030"
    cap-height="1400"
    bbox="-953 -539 2607 2260"
    underline-thickness="50"
    underline-position="-150"
    slope="-13"
    unicode-range="U+0020-FB02"
  />
<missing-glyph horiz-adv-x="1200" 
d="M248 1388q2 5 6 8.5t9 3.5h1076q5 0 7.5 -3.5t1.5 -8.5l-396 -1716q-2 -5 -6 -8.5t-9 -3.5h-1076q-5 0 -7.5 3.5t-1.5 8.5zM513 1125l-274 -1185h450l274 1185h-450z" />
    <glyph glyph-name=".notdef" horiz-adv-x="1200" 
d="M248 1388q2 5 6 8.5t9 3.5h1076q5 0 7.5 -3.5t1.5 -8.5l-396 -1716q-2 -5 -6 -8.5t-9 -3.5h-1076q-5 0 -7.5 3.5t-1.5 8.5zM513 1125l-274 -1185h450l274 1185h-450z" />
    <glyph glyph-name=".null" horiz-adv-x="0" 
 />
    <glyph glyph-name="nonmarkingreturn" horiz-adv-x="666" 
 />
    <glyph glyph-name="space" unicode=" " horiz-adv-x="366" 
 />
    <glyph glyph-name="space" unicode="&#xa0;" horiz-adv-x="366" 
 />
    <glyph glyph-name="exclam" unicode="!" horiz-adv-x="493" 
d="M72 416q-12 0 -17 7t-3 19l218 937q3 21 25 21h309q12 0 17 -7t3 -19l-217 -937q-4 -21 -26 -21h-309zM-24 0q-12 0 -17 7t-3 19l66 284q3 21 25 21h309q12 0 17 -7t3 -19l-65 -284q-4 -21 -26 -21h-309z" />
    <glyph glyph-name="quotedbl" unicode="&#x22;" horiz-adv-x="901" 
d="M220 817q-12 0 -18 7t-4 18l83 536q3 22 25 22h286q21 0 21 -17q0 -6 -1 -9l-164 -537q-6 -20 -27 -20h-201zM628 817q-12 0 -18 7t-4 18l83 536q3 22 25 22h286q21 0 21 -17q0 -6 -1 -9l-164 -537q-6 -20 -27 -20h-201z" />
    <glyph glyph-name="numbersign" unicode="#" horiz-adv-x="1423" 
d="M1501 1144q21 0 21 -17q0 -2 -2 -10l-79 -210q-6 -19 -27 -19h-172l-138 -368h165q21 0 21 -17q0 -2 -2 -10l-87 -211q-7 -18 -27 -18h-166l-92 -245q-6 -19 -27 -19h-286q-10 0 -15.5 4.5t-5.5 12.5q0 2 2 10l89 237h-160l-92 -245q-6 -19 -27 -19h-286q-10 0 -15.5 4.5
t-5.5 12.5q0 2 2 10l89 237h-168q-21 0 -21 17q0 2 2 10l87 211q8 18 27 18h169l138 368h-163q-10 0 -15.5 4.5t-5.5 12.5q0 2 2 10l79 210q6 19 27 19h172l88 237q6 19 27 19h286q21 0 21 -17q0 -2 -2 -10l-86 -229h161l88 237q6 19 27 19h286q21 0 21 -17q0 -2 -2 -10
l-86 -229h164zM747 888l-138 -368h160l138 368h-160z" />
    <glyph glyph-name="dollar" unicode="$" horiz-adv-x="1263" 
d="M988 1394q135 -47 214.5 -146t82.5 -237q0 -24 -24 -24h-336q-22 0 -24 23q-5 73 -53.5 112t-128.5 39q-76 0 -129.5 -33t-53.5 -99q0 -44 31 -73.5t78 -48.5t132 -44q132 -40 217 -79.5t146.5 -121.5t61.5 -217q0 -137 -68.5 -240.5t-187 -163t-267.5 -71.5l-35 -149
q-4 -21 -25 -21h-318q-12 0 -17.5 7t-2.5 19l44 188q-147 54 -231 163t-82 260q0 23 24 23h333q11 0 17 -6.5t6 -17.5q0 -91 58 -146t171 -55q84 0 142.5 39.5t58.5 112.5q0 50 -32 82.5t-80.5 51.5t-136.5 45q-128 37 -210 75t-141 118t-59 213q0 126 62.5 222t168.5 154
t237 77l26 114q5 21 25 21h318q21 0 21 -18q0 -5 -1 -8z" />
    <glyph glyph-name="percent" unicode="%" horiz-adv-x="1863" 
d="M348 712.5q-83 34.5 -131.5 107t-48.5 179.5t47.5 203.5t144 157t236.5 60.5q105 0 186.5 -36t128 -109t46.5 -181q0 -107 -45.5 -202t-140.5 -154.5t-236 -59.5q-104 0 -187 34.5zM224 0q-9 0 -14.5 4t-5.5 10q0 8 7 15l1243 1358q12 13 29 13h245q9 0 14.5 -3.5
t5.5 -9.5t-8 -16l-1243 -1358q-12 -13 -29 -13h-244zM625.5 924q31.5 39 42.5 87.5t11 86.5q0 60 -25.5 88t-66.5 28q-56 0 -87.5 -39.5t-43 -88.5t-11.5 -86q0 -60 26.5 -87.5t67.5 -27.5q55 0 86.5 39zM1171 14.5q-83 34.5 -132 106.5t-49 180q0 107 47.5 203.5t144 157
t236.5 60.5q105 0 186.5 -36t128 -109t46.5 -181q0 -107 -45.5 -202t-140 -154.5t-235.5 -59.5q-104 0 -187 34.5zM1447.5 225q31.5 39 43 88.5t11.5 86.5q0 60 -25.5 87.5t-66.5 27.5q-56 0 -88 -39.5t-43 -88t-11 -85.5q0 -60 26 -88t67 -28q55 0 86.5 39z" />
    <glyph glyph-name="ampersand" unicode="&#x26;" horiz-adv-x="1444" 
d="M276 11q-110 39 -180 125t-70 221q0 123 57.5 212t149 148.5t217.5 110.5q-57 131 -57 235q0 115 61.5 200.5t166.5 131t231 45.5q112 0 204.5 -36t147 -105.5t54.5 -165.5q0 -92 -50.5 -159.5t-130 -114.5t-196.5 -95l30 -52l109 -184q42 75 66 150q6 19 26 19h280
q21 0 21 -18q0 -6 -1 -9q-37 -110 -98.5 -211.5t-142.5 -186.5l144 -244q4 -7 4 -13q0 -7 -5 -11t-15 -4h-348q-19 0 -28 16l-30 50q-183 -94 -381 -94q-126 0 -236 39zM775 951q91 41 139 85t48 103q0 49 -30.5 75t-78.5 26q-43 0 -71.5 -20.5t-41.5 -51t-13 -61.5
q0 -55 48 -156zM772 271l-180 301l-30 52q-83 -47 -128.5 -104.5t-45.5 -133.5q0 -86 54.5 -126.5t140.5 -40.5q96 0 189 52z" />
    <glyph glyph-name="quotesingle" unicode="'" horiz-adv-x="494" 
d="M220 817q-12 0 -18 7t-4 18l83 536q3 22 25 22h286q21 0 21 -17q0 -6 -1 -9l-164 -537q-6 -20 -27 -20h-201z" />
    <glyph glyph-name="parenleft" unicode="(" horiz-adv-x="573" 
d="M95 -280q-22 0 -26 20q-59 222 -59 438q0 331 119 657t334 611q11 14 29 14h229q9 0 14.5 -4t5.5 -10q0 -7 -5 -15q-204 -303 -315.5 -632.5t-111.5 -664.5q0 -200 41 -388l1 -6q0 -20 -22 -20h-234z" />
    <glyph glyph-name="parenright" unicode=")" horiz-adv-x="573" 
d="M512 1460q21 0 27 -20q58 -224 58 -438q0 -330 -119 -657t-334 -611q-10 -14 -29 -14h-229q-9 0 -14.5 4t-5.5 10q0 7 5 15q204 303 315.5 632.5t111.5 664.5q0 197 -40 388q-1 3 -1 8q0 8 5.5 13t15.5 5h234z" />
    <glyph glyph-name="asterisk" unicode="*" horiz-adv-x="756" 
d="M388 806q-12 0 -17.5 7t-3.5 18l28 160l-159 -89q-7 -4 -13 -4q-13 0 -19 15l-46 131q-2 8 -2 10q0 15 15 21l148 67l-112 66q-12 8 -12 18q0 9 5 15l113 151q7 11 18 11q7 0 15 -5l119 -86l12 165q2 23 24 23h161q12 0 17.5 -6.5t3.5 -18.5l-25 -163l166 95q7 4 13 4
q14 0 18 -16l42 -134q2 -8 2 -10q0 -14 -15 -20l-156 -76l111 -61q13 -7 13 -18q0 -6 -5 -14l-110 -154q-8 -11 -18 -11q-7 0 -15 6l-114 82l-12 -156q-2 -23 -25 -23h-165z" />
    <glyph glyph-name="plus" unicode="+" horiz-adv-x="1170" 
d="M1110 820q12 0 17 -7t3 -19l-50 -215q-3 -21 -25 -21h-323l-85 -367q-3 -21 -25 -21h-225q-12 0 -17 7t-3 19l84 362h-319q-12 0 -17.5 7t-2.5 19l49 215q5 21 26 21h325l85 369q5 21 26 21h225q12 0 17 -7t3 -19l-85 -364h317z" />
    <glyph glyph-name="comma" unicode="," horiz-adv-x="474" 
d="M-146 -255q-20 0 -20 16q0 6 3 12l120 237l69 298q5 21 26 21h295q12 0 17 -7t3 -19l-64 -275q-3 -15 -14 -26l-246 -245q-12 -12 -29 -12h-160z" />
    <glyph glyph-name="hyphen" unicode="-" horiz-adv-x="668" 
d="M53 475q-12 0 -17 7t-3 19l45 198q5 21 26 21h548q12 0 17 -7t3 -19l-46 -198q-3 -21 -25 -21h-548z" />
    <glyph glyph-name="hyphen" unicode="&#x2011;" horiz-adv-x="668" 
d="M53 475q-12 0 -17 7t-3 19l45 198q5 21 26 21h548q12 0 17 -7t3 -19l-46 -198q-3 -21 -25 -21h-548z" />
    <glyph glyph-name="hyphen" unicode="&#x2010;" horiz-adv-x="668" 
d="M53 475q-12 0 -17 7t-3 19l45 198q5 21 26 21h548q12 0 17 -7t3 -19l-46 -198q-3 -21 -25 -21h-548z" />
    <glyph glyph-name="hyphen" unicode="&#xad;" horiz-adv-x="668" 
d="M53 475q-12 0 -17 7t-3 19l45 198q5 21 26 21h548q12 0 17 -7t3 -19l-46 -198q-3 -21 -25 -21h-548z" />
    <glyph glyph-name="period" unicode="." horiz-adv-x="486" 
d="M-32 0q-12 0 -17.5 7t-2.5 19l65 282q5 21 26 21h320q12 0 17 -7t3 -19l-66 -282q-3 -21 -25 -21h-320z" />
    <glyph glyph-name="slash" unicode="/" horiz-adv-x="802" 
d="M-113 -340q-10 0 -15.5 4.5t-5.5 12.5q0 5 3 11l804 1695q8 17 27 17h223q20 0 20 -16q0 -6 -3 -12l-803 -1695q-8 -17 -28 -17h-222z" />
    <glyph glyph-name="zero" unicode="0" horiz-adv-x="1285" 
d="M314 38.5q-115 70.5 -174.5 199t-59.5 299.5q0 198 75.5 405.5t233 349t389.5 141.5q161 0 276.5 -71t176 -200t60.5 -300q0 -196 -75.5 -403.5t-233.5 -349t-392 -141.5q-161 0 -276 70.5zM792 363.5q72 118.5 104 274t32 267.5q0 119 -40.5 185.5t-122.5 66.5
q-113 0 -185.5 -117.5t-104.5 -273t-32 -269.5q0 -121 41.5 -186.5t122.5 -65.5q113 0 185 118.5z" />
    <glyph glyph-name="one" unicode="1" horiz-adv-x="840" 
d="M247 0q-12 0 -18 7t-3 19l169 667l66 307q-129 -102 -295 -149q-8 -2 -10 -2q-8 0 -12 7t-2 17l52 226q4 18 23 24q214 70 349 262q11 15 29 15h303q12 0 18 -7t3 -19l-173 -681l-140 -672q-4 -21 -26 -21h-333z" />
    <glyph glyph-name="two" unicode="2" horiz-adv-x="1141" 
d="M-31 0q-13 0 -18 7t-3 19l52 222q40 172 130 279.5t190.5 162t249.5 110.5q98 37 152 63t88.5 66.5t34.5 99.5q0 69 -40.5 103t-103.5 34q-151 0 -189 -192q-4 -22 -25 -22h-296q-12 0 -17.5 6.5t-3.5 18.5q33 226 176 340t374 115q139 0 246 -41t168.5 -127t61.5 -215
q0 -138 -69.5 -233t-166.5 -152t-252 -124q-103 -44 -163.5 -75t-105 -72t-55.5 -93l-7 -32h620q12 0 17 -7t3 -19l-51 -221q-5 -21 -26 -21h-971z" />
    <glyph glyph-name="three" unicode="3" horiz-adv-x="1162" 
d="M269 18.5q-115 50.5 -178 146.5t-63 229q0 14 2 42q1 22 25 22h298q11 0 17 -6.5t5 -17.5q-4 -89 39.5 -143.5t134.5 -54.5q66 0 111 28.5t67 76t22 104.5q0 77 -46.5 122t-131.5 45h-121q-12 0 -17.5 7t-2.5 19l46 194q6 21 26 21h126q90 0 157 39t67 129
q0 70 -42 106.5t-109 36.5q-70 0 -117.5 -41t-66.5 -123q-4 -22 -25 -22h-292q-13 0 -18.5 7t-3.5 19q46 215 187 321.5t351 106.5q139 0 248.5 -44.5t171 -127.5t61.5 -192q0 -79 -32 -149t-95 -121.5t-153 -73.5q92 -47 140.5 -123.5t48.5 -180.5q0 -130 -71 -233
t-200 -161t-297 -58q-154 0 -269 50.5z" />
    <glyph glyph-name="four" unicode="4" horiz-adv-x="1230" 
d="M1213 1400q12 0 17 -7t3 -19l-190 -820h130q12 0 17 -7t3 -19l-51 -220q-3 -21 -25 -21h-135l-63 -269q-3 -21 -25 -21h-316q-12 0 -17 7t-3 19l61 264h-588q-12 0 -17.5 7.5t-2.5 18.5l60 268q4 14 14 27l658 779q12 13 29 13h441zM743 828l62 239l-425 -513h300z" />
    <glyph glyph-name="five" unicode="5" horiz-adv-x="1210" 
d="M281.5 15.5q-116.5 47.5 -181.5 140t-58 222.5q1 10 7 16t17 6h299q21 0 23 -24q1 -67 43 -108.5t114 -41.5q79 0 132 49t78.5 121.5t25.5 142.5q0 91 -42.5 138.5t-120.5 47.5q-120 0 -189 -118q-10 -17 -28 -17h-265q-21 0 -21 17q0 6 1 9l233 764q6 20 27 20h880
q12 0 17.5 -7t2.5 -19l-51 -220q-4 -21 -25 -21h-597l-66 -215q99 65 220 65q112 0 204.5 -47.5t147 -142.5t54.5 -232q0 -157 -71.5 -292.5t-211.5 -218t-337 -82.5q-145 0 -261.5 47.5z" />
    <glyph glyph-name="six" unicode="6" horiz-adv-x="1246" 
d="M223.5 117q-136.5 149 -137.5 430q0 143 32 275q41 177 128.5 314.5t223 217t313.5 79.5q139 0 247.5 -49t170.5 -138.5t67 -207.5q2 -24 -23 -24h-298q-22 0 -25 23q-6 61 -46.5 99t-109.5 38q-107 0 -174 -91t-89 -232q56 38 123 57.5t140 19.5q118 0 217 -49
t157.5 -143t58.5 -222q0 -136 -65.5 -261t-197.5 -205t-322 -80q-254 0 -390.5 149zM728 273.5q48 37.5 72 96.5t24 122q0 91 -47 139.5t-124 48.5q-80 0 -133.5 -49.5t-70.5 -126.5q-8 -40 -8 -75q0 -92 46 -142.5t125 -50.5q68 0 116 37.5z" />
    <glyph glyph-name="seven" unicode="7" horiz-adv-x="1029" 
d="M153 -3q-10 0 -15.5 4.5t-5.5 12.5q0 2 2 10q122 319 278.5 610t331.5 499h-542q-12 0 -17 7t-3 19l51 220q5 21 26 21h918q12 0 17 -7t3 -19l-55 -235q-2 -12 -12 -27q-201 -268 -359.5 -537.5t-264.5 -558.5q-7 -19 -27 -19h-326z" />
    <glyph glyph-name="eight" unicode="8" horiz-adv-x="1246" 
d="M293.5 18q-123.5 50 -191.5 141.5t-68 213.5q0 96 42.5 178t118.5 139.5t174 80.5q-68 34 -106 101t-38 143q0 95 56 191.5t175 161t299 64.5q142 0 256 -44.5t179.5 -129t65.5 -199.5q0 -113 -71 -204.5t-209 -132.5q97 -49 143 -126.5t46 -173.5q0 -134 -73.5 -237
t-206.5 -160t-305 -57q-163 0 -286.5 50zM821.5 873q38.5 27 58 69.5t19.5 89.5q0 69 -41 109t-108 40q-55 0 -94.5 -27.5t-60 -70.5t-20.5 -89q0 -69 41 -108.5t111 -39.5q56 0 94.5 27zM704 256.5q46 30.5 68.5 78t22.5 98.5q0 80 -52 121.5t-129 41.5q-68 0 -115 -31
t-69.5 -78.5t-22.5 -98.5q0 -80 52.5 -121t130.5 -41q68 0 114 30.5z" />
    <glyph glyph-name="nine" unicode="9" horiz-adv-x="1245" 
d="M301.5 17q-108.5 49 -170.5 139t-67 208q0 23 23 23h299q21 0 24 -23q6 -60 47 -98.5t110 -38.5q107 0 174 91t89 232q-56 -38 -123 -57.5t-140 -19.5q-118 0 -217 49t-157.5 143t-58.5 222q0 136 65.5 261t197.5 205t322 80q254 0 390.5 -149t137.5 -430
q0 -143 -32 -275q-41 -177 -128.5 -314.5t-223 -217t-313.5 -79.5q-140 0 -248.5 49zM813.5 770.5q53.5 49.5 70.5 126.5q8 40 8 75q0 92 -46 142.5t-125 50.5q-68 0 -116 -37.5t-72 -96.5t-24 -122q0 -91 47 -139.5t124 -48.5q80 0 133.5 49.5z" />
    <glyph glyph-name="colon" unicode=":" horiz-adv-x="491" 
d="M136 702q-12 0 -17.5 7t-2.5 19l65 282q5 21 26 21h320q12 0 17 -7t3 -19l-66 -282q-3 -21 -25 -21h-320zM-32 0q-12 0 -17.5 7t-2.5 19l65 282q5 21 26 21h320q12 0 17 -7t3 -19l-66 -282q-3 -21 -25 -21h-320z" />
    <glyph glyph-name="semicolon" unicode=";" horiz-adv-x="486" 
d="M129 702q-12 0 -17.5 7t-2.5 19l65 282q5 21 26 21h320q12 0 17 -7t3 -19l-66 -282q-3 -21 -25 -21h-320zM-146 -255q-20 0 -20 16q0 6 3 12l120 237l69 298q5 21 26 21h295q12 0 17 -7t3 -19l-64 -275q-3 -15 -14 -26l-246 -245q-12 -12 -29 -12h-160z" />
    <glyph glyph-name="less" unicode="&#x3c;" horiz-adv-x="1170" 
d="M135 549q-20 9 -15 30l51 223q4 18 22 25l1009 405q6 3 11 3q8 0 12 -6.5t2 -17.5l-56 -240q-5 -18 -22 -24l-732 -275l600 -273q19 -9 15 -30l-49 -210q-5 -17 -18 -17q-6 0 -12 3z" />
    <glyph glyph-name="equal" unicode="=" horiz-adv-x="1170" 
d="M201 813q-12 0 -17.5 7t-2.5 19l49 215q5 21 26 21h913q12 0 17 -7t3 -19l-50 -215q-3 -21 -25 -21h-913zM83 303q-12 0 -17.5 7t-2.5 19l49 215q5 21 26 21h913q12 0 17 -7t3 -19l-50 -215q-3 -21 -25 -21h-913z" />
    <glyph glyph-name="greater" unicode="&#x3e;" horiz-adv-x="1170" 
d="M49 146q-4 -2 -11 -2q-8 0 -12 6t-2 17l55 239q3 18 21 24l735 276l-603 273q-15 8 -15 21q0 6 1 9l51 210q3 17 18 17q5 0 11 -3l819 -404q18 -9 14 -30l-51 -223q-5 -18 -21 -25z" />
    <glyph glyph-name="question" unicode="?" horiz-adv-x="1107" 
d="M377 416q-22 0 -22 19q0 5 1 8q24 103 72 178.5t102 123.5t133 105q55 40 85.5 66t50 57.5t19.5 69.5q0 57 -42 89t-108 32q-78 0 -124.5 -41.5t-61.5 -118.5q-3 -22 -24 -22h-294q-12 0 -17.5 6.5t-4.5 18.5q38 213 179 319.5t362 106.5q139 0 251 -42t177 -126t65 -205
q0 -85 -32.5 -149t-79 -107.5t-125.5 -102.5q-64 -47 -103.5 -81t-72.5 -80t-47 -103q-6 -21 -26 -21h-313zM282 0q-12 0 -17.5 7t-2.5 19l65 284q5 21 25 21h319q12 0 17.5 -7.5t2.5 -18.5l-65 -284q-4 -21 -25 -21h-319z" />
    <glyph glyph-name="at" unicode="@" horiz-adv-x="1702" 
d="M1327.5 1296q162.5 -84 255 -241.5t92.5 -371.5q0 -158 -50.5 -306t-149 -241.5t-234.5 -93.5q-96 0 -174.5 39.5t-100.5 109.5q-56 -67 -129 -105t-162 -38q-99 0 -174 46.5t-116 132.5t-41 199q0 130 54 259t160.5 214t255.5 85q90 0 155.5 -31.5t103.5 -91.5l19 84
q5 21 25 21h269q12 0 17.5 -7t3.5 -19l-138 -607q-1 -4 -5 -20.5t-4 -34.5q0 -66 56 -66q49 0 90.5 78.5t66 192.5t24.5 212q0 160 -71 277.5t-196.5 179t-285.5 61.5q-220 0 -383 -113.5t-248.5 -299t-85.5 -395.5q0 -183 66.5 -317.5t191.5 -207.5t296 -73q221 0 393 130
q15 10 31 8l164 -18q20 -3 20 -15q0 -6 -7 -13q-120 -123 -276 -191t-340 -68q-214 0 -378.5 91t-256 260.5t-91.5 396.5q0 257 115.5 485.5t325.5 367.5t479 139q205 0 367.5 -84zM922.5 306.5q51.5 60.5 75.5 145t24 156.5q0 85 -38 131t-105 46q-78 0 -128.5 -59
t-72.5 -140t-22 -151q0 -85 35 -137t104 -52q76 0 127.5 60.5z" />
    <glyph glyph-name="A" unicode="A" horiz-adv-x="1442" 
d="M1322 25q1 -12 -5 -18.5t-17 -6.5h-313q-23 0 -24 23l-23 299h-489l-159 -305q-9 -17 -28 -17h-354q-10 0 -15 4t-5 11q0 6 4 13l778 1356q8 16 28 16h461q23 0 25 -22zM918 611l-41 528l-276 -528h317z" />
    <glyph glyph-name="B" unicode="B" horiz-adv-x="1321" 
d="M-16 0q-10 0 -15.5 5t-5.5 13q0 5 1 8l171 674l142 679q4 21 26 21h603q247 0 355 -89.5t108 -235.5q0 -132 -80.5 -222t-233.5 -126q109 -37 159 -105.5t50 -170.5q0 -128 -71.5 -230t-213.5 -161.5t-345 -59.5h-650zM801 850q97 0 145.5 46.5t48.5 121.5
q0 59 -32.5 91.5t-108.5 32.5h-248l-80 -292h275zM672 258q114 0 171 54.5t57 143.5q0 68 -38 106t-128 38h-267l-66 -342h271z" />
    <glyph glyph-name="C" unicode="C" horiz-adv-x="1468" 
d="M395.5 41q-146.5 74 -229 217t-82.5 341q0 213 97.5 405t280.5 310.5t428 118.5q174 0 304 -62t206 -177.5t88 -273.5q1 -11 -5.5 -17.5t-17.5 -6.5h-305q-22 0 -25 23q-14 117 -83.5 176.5t-181.5 59.5q-143 0 -235.5 -91.5t-133.5 -222.5t-41 -253q0 -172 79 -257.5
t214 -85.5q115 0 192.5 63t118.5 177q7 19 26 19h313q12 0 18 -6.5t3 -16.5q-43 -153 -137.5 -269t-236 -180.5t-319.5 -64.5q-189 0 -335.5 74z" />
    <glyph glyph-name="D" unicode="D" horiz-adv-x="1433" 
d="M-16 0q-12 0 -17.5 7t-2.5 19l173 678l140 675q4 21 26 21h479q191 0 339.5 -70.5t232 -205.5t83.5 -321q0 -206 -98.5 -390.5t-282.5 -298.5t-428 -114h-644zM641 268q148 0 243.5 87.5t138.5 213.5t43 244q0 159 -80 239t-220 80h-161l-111 -425l-89 -439h236z" />
    <glyph glyph-name="E" unicode="E" 
d="M-16 0q-12 0 -17.5 7t-2.5 19l169 662l144 691q4 21 26 21h984q12 0 17 -7t3 -19l-51 -221q-4 -21 -26 -21h-627l-74 -263h571q12 0 17 -7t3 -19l-51 -221q-4 -21 -26 -21h-576l-64 -332h638q12 0 17 -7t3 -19l-51 -222q-4 -21 -26 -21h-1000z" />
    <glyph glyph-name="F" unicode="F" horiz-adv-x="1116" 
d="M-16 0q-12 0 -17.5 7t-2.5 19l172 675l141 678q4 21 26 21h952q12 0 17 -7t3 -19l-51 -221q-4 -21 -26 -21h-594l-89 -325h576q12 0 17 -7t3 -19l-51 -221q-4 -21 -26 -21h-581l-107 -518q-4 -21 -26 -21h-336z" />
    <glyph glyph-name="G" unicode="G" horiz-adv-x="1518" 
d="M391.5 44q-147.5 77 -227 220t-79.5 335q0 217 98.5 408.5t283.5 308.5t432 117q170 0 302 -57t210.5 -162.5t91.5 -246.5q1 -12 -5 -18.5t-17 -6.5h-314q-20 0 -25 21q-22 97 -91.5 147t-172.5 50q-145 0 -239 -90.5t-136 -221.5t-42 -257q0 -175 81 -262t219 -87
q127 0 211.5 71.5t124.5 198.5h-326q-12 0 -17.5 7.5t-2.5 18.5l50 217q3 21 25 21h669q12 0 17.5 -8t3.5 -23q-36 -252 -140.5 -426.5t-267 -263t-371.5 -88.5q-198 0 -345.5 77z" />
    <glyph glyph-name="H" unicode="H" horiz-adv-x="1440" 
d="M1541 1400q10 0 15.5 -5t5.5 -13q0 -5 -1 -8l-171 -670l-142 -683q-3 -21 -26 -21h-338q-12 0 -18 7t-3 19l147 585h-535l-126 -590q-3 -21 -26 -21h-338q-13 0 -18.5 7t-2.5 19l173 678l140 675q4 21 26 21h339q12 0 17.5 -7t3.5 -19l-124 -495h532l105 500q4 21 26 21
h339z" />
    <glyph glyph-name="I" unicode="I" horiz-adv-x="555" 
d="M-6 0q-10 0 -15.5 5t-5.5 13q0 5 1 8l169 667l144 686q4 21 26 21h333q10 0 15.5 -5t5.5 -13q0 -5 -1 -8l-172 -681l-141 -672q-4 -21 -26 -21h-333z" />
    <glyph glyph-name="J" unicode="J" horiz-adv-x="1143" 
d="M230.5 19.5q-103.5 50.5 -157.5 143.5t-54 220q0 44 8 100q3 22 25 22h318q12 0 17.5 -7t4.5 -19q-6 -43 -6 -78q0 -148 116 -148q43 0 76 22.5t60 77t50 149.5l92 386l102 491q5 21 26 21h344q10 0 15.5 -5t5.5 -13q0 -5 -1 -8l-123 -486l-88 -389
q-62 -273 -206.5 -401.5t-375.5 -128.5q-145 0 -248.5 50.5z" />
    <glyph glyph-name="K" unicode="K" horiz-adv-x="1332" 
d="M278 1379q4 21 26 21h324q12 0 17.5 -7t2.5 -19l-120 -487l463 500q12 13 29 13h395q20 0 20 -13q0 -8 -8 -16l-585 -562l368 -781q3 -6 3 -12q0 -7 -5.5 -11.5t-15.5 -4.5h-363q-19 0 -28 18l-231 527l-154 -149l-81 -375q-4 -21 -26 -21h-325q-10 0 -15.5 5t-5.5 13
q0 5 1 8l167 664z" />
    <glyph glyph-name="L" unicode="L" horiz-adv-x="1035" 
d="M-16 0q-12 0 -17.5 7t-2.5 19l167 656l146 697q4 21 26 21h336q12 0 17.5 -7t2.5 -19l-167 -669l-89 -436h523q12 0 17 -7t3 -19l-51 -222q-4 -21 -26 -21h-885z" />
    <glyph glyph-name="M" unicode="M" horiz-adv-x="1765" 
d="M-16 0q-12 0 -17.5 7t-2.5 19l170 681l143 672q4 21 26 21h410q22 0 25 -22l120 -908l520 914q9 16 28 16h461q12 0 17.5 -7t2.5 -19l-167 -667l-146 -686q-4 -21 -26 -21h-330q-12 0 -17.5 7t-2.5 19l115 504l61 245l39 134l-508 -893q-9 -16 -28 -16h-244q-22 0 -25 22
l-119 907l-28 -156l-52 -245l-117 -507q-4 -21 -26 -21h-282z" />
    <glyph glyph-name="N" unicode="N" horiz-adv-x="1415" 
d="M-16 0q-12 0 -17.5 7t-2.5 19l167 668l146 685q4 21 26 21h377q20 0 26 -19l294 -882l61 304l135 576q3 21 25 21h294q12 0 17.5 -7t2.5 -19l-170 -680l-142 -673q-4 -21 -26 -21h-390q-20 0 -26 19l-285 877l-68 -346l-123 -529q-4 -21 -26 -21h-295z" />
    <glyph glyph-name="O" unicode="O" horiz-adv-x="1556" 
d="M402.5 41.5q-149.5 74.5 -234.5 216.5t-85 338q0 214 100 406.5t286.5 311.5t431.5 119q190 0 339.5 -74t234.5 -216t85 -338q0 -214 -100 -407t-286 -312t-431 -119q-191 0 -340.5 74.5zM1001.5 336.5q95.5 91.5 139 223t43.5 255.5q0 169 -81 254.5t-217 85.5
q-148 0 -244 -91.5t-139.5 -223t-43.5 -255.5q0 -169 81 -254.5t218 -85.5q148 0 243.5 91.5z" />
    <glyph glyph-name="P" unicode="P" horiz-adv-x="1260" 
d="M815 1400q260 0 384 -111.5t124 -302.5q0 -155 -76 -274.5t-221.5 -186t-347.5 -66.5h-237l-93 -438q-4 -21 -26 -21h-338q-12 0 -17.5 7t-2.5 19l169 665l144 688q4 21 26 21h512zM893 789.5q67 66.5 67 173.5q0 174 -191 174h-167l-103 -414h194q133 0 200 66.5z" />
    <glyph glyph-name="Q" unicode="Q" horiz-adv-x="1570" 
d="M1467 278q12 0 17 -7t3 -19l-53 -231q-4 -21 -26 -21h-427q-116 -33 -238 -33q-191 0 -340.5 74.5t-234.5 216.5t-85 338q0 214 100 406.5t286.5 311.5t431.5 119q190 0 339.5 -74t234.5 -216t85 -338q0 -143 -46.5 -280t-133.5 -249l35 2h52zM540 330.5
q81 -85.5 218 -85.5q148 0 243.5 91.5t139 223t43.5 255.5q0 169 -81 254.5t-217 85.5q-148 0 -244 -91.5t-139.5 -223t-43.5 -255.5q0 -169 81 -254.5z" />
    <glyph glyph-name="R" unicode="R" horiz-adv-x="1346" 
d="M1278 703q-99 -125 -283 -177l210 -499q3 -6 3 -11q0 -7 -5.5 -11.5t-15.5 -4.5h-362q-21 0 -27 19l-131 334l-59 139h-162l-100 -471q-4 -21 -26 -21h-336q-10 0 -15.5 5t-5.5 13q0 5 1 8l166 663l147 690q4 21 26 21h578q253 0 374.5 -107.5t121.5 -290.5
q0 -174 -99 -299zM840 1137h-239l-96 -382h264q123 0 184.5 61t61.5 160q0 161 -175 161z" />
    <glyph glyph-name="S" unicode="S" horiz-adv-x="1366" 
d="M331 21.5q-148 55.5 -232.5 163t-82.5 255.5q0 23 24 23h335q21 0 23 -23q9 -95 79.5 -149.5t204.5 -54.5q76 0 129 20.5t79.5 54.5t26.5 75q0 49 -37 81t-93 51.5t-156 44.5q-147 37 -241 75t-161.5 116.5t-67.5 209.5q0 137 80 243.5t224.5 166t331.5 59.5
q165 0 297.5 -47.5t210 -142.5t79.5 -232q0 -24 -24 -24h-337q-21 0 -24 23q-9 72 -67.5 111t-160.5 39q-99 0 -163 -34.5t-64 -97.5q0 -43 35.5 -72.5t89.5 -48t151 -43.5q151 -39 248.5 -78.5t168 -120t70.5 -211.5q0 -141 -80.5 -252t-227 -173.5t-337.5 -62.5
q-183 0 -331 55.5z" />
    <glyph glyph-name="T" unicode="T" horiz-adv-x="1231" 
d="M327 0q-12 0 -17.5 7t-2.5 19l173 678l87 428h-367q-12 0 -17.5 7t-2.5 19l51 221q4 21 25 21h1122q21 0 21 -18q0 -5 -1 -8l-51 -221q-4 -21 -25 -21h-373l-112 -428l-141 -683q-3 -21 -26 -21h-343z" />
    <glyph glyph-name="U" unicode="U" horiz-adv-x="1337" 
d="M319.5 20q-121.5 53 -185.5 152.5t-64 236.5q0 80 20 161l70 294l109 515q3 21 26 21h333q10 0 15.5 -5t5.5 -13q0 -5 -1 -8l-128 -500l-70 -308q-15 -63 -15 -115q0 -95 50 -145t152 -50q108 0 173.5 61t97.5 196l83 353l107 513q4 21 26 21h321q12 0 17.5 -7t2.5 -19
l-129 -510l-80 -354q-63 -274 -217.5 -408.5t-428.5 -134.5q-169 0 -290.5 53z" />
    <glyph glyph-name="V" unicode="V" horiz-adv-x="1362" 
d="M204 1376v4q0 20 22 20h337q23 0 25 -23l49 -1043l525 1049q7 17 28 17h347q20 0 20 -16q0 -6 -3 -12l-733 -1355q-11 -17 -28 -17h-447q-23 0 -24 23z" />
    <glyph glyph-name="W" unicode="W" horiz-adv-x="1908" 
d="M235 0q-23 0 -23 24l9 1353q0 23 23 23h301q25 0 23 -24l-42 -951l410 957q9 18 28 18h347q25 0 23 -24l-23 -964l401 970q6 18 27 18h327q10 0 15.5 -4.5t5.5 -11.5q0 -6 -3 -12l-623 -1354q-8 -18 -27 -18h-383q-23 0 -23 24l-1 836l-377 -842q-7 -18 -28 -18h-387z
" />
    <glyph glyph-name="X" unicode="X" horiz-adv-x="1352" 
d="M-81 0q-9 0 -14.5 4t-5.5 10q0 8 7 15l615 698l-278 646q-3 6 -3 11q0 7 5.5 11.5t15.5 4.5h352q20 0 27 -18l154 -383l300 387q10 14 29 14h366q9 0 14.5 -4t5.5 -10q0 -8 -7 -15l-571 -664l289 -680q3 -6 3 -11q0 -7 -5.5 -11.5t-15.5 -4.5h-351q-20 0 -27 19l-165 422
l-346 -427q-11 -14 -29 -14h-365z" />
    <glyph glyph-name="Y" unicode="Y" horiz-adv-x="1311" 
d="M201 1374q-1 3 -1 8q0 8 5.5 13t15.5 5h344q22 0 25 -21l120 -571l384 577q11 15 28 15h370q9 0 14.5 -4t5.5 -10q0 -7 -6 -15l-681 -913l-92 -437q-4 -21 -26 -21h-335q-12 0 -17.5 7t-2.5 19l108 428z" />
    <glyph glyph-name="Z" unicode="Z" horiz-adv-x="1257" 
d="M-42 0q-12 0 -17.5 7t-3.5 19l59 254q3 15 15 26l892 826h-629q-21 0 -21 18q0 5 1 8l51 221q5 21 25 21h1058q12 0 17.5 -7t2.5 -19l-61 -264q-4 -15 -15 -26l-875 -815h666q12 0 17.5 -7t2.5 -19l-51 -222q-4 -21 -25 -21h-1109z" />
    <glyph glyph-name="bracketleft" unicode="[" horiz-adv-x="641" 
d="M-93 -280q-12 0 -17 7t-3 19l392 1693q3 21 25 21h468q13 0 18 -7t3 -19l-52 -221q-6 -21 -26 -21h-187l-277 -1203h182q12 0 17 -7t3 -19l-51 -222q-4 -21 -26 -21h-469z" />
    <glyph glyph-name="backslash" unicode="\" horiz-adv-x="717" 
d="M272 -340q-11 0 -17.5 6t-6.5 17l-23 1694q0 23 24 23h200q11 0 17 -6t6 -17l23 -1694q0 -23 -23 -23h-200z" />
    <glyph glyph-name="bracketright" unicode="]" horiz-adv-x="642" 
d="M-97 -280q-12 0 -17 7t-3 19l51 222q5 21 26 21h186l277 1203h-180q-13 0 -18 7t-3 19l53 221q5 21 25 21h469q12 0 17 -7t3 -19l-391 -1693q-4 -21 -26 -21h-469z" />
    <glyph glyph-name="asciicircum" unicode="^" horiz-adv-x="1195" 
d="M40 408q-9 0 -14.5 4t-5.5 10t5 14l634 949q11 15 28 15h230q22 0 26 -21l192 -945l1 -6q0 -20 -22 -20h-217q-11 0 -18 5.5t-8 15.5l-124 698l-448 -704q-9 -15 -28 -15h-231z" />
    <glyph glyph-name="underscore" unicode="_" horiz-adv-x="900" 
d="M-126 -340q-12 0 -17 7t-3 19l45 197q4 21 26 21h763q12 0 17 -7t3 -19l-45 -197q-4 -21 -26 -21h-763z" />
    <glyph glyph-name="grave" unicode="`" horiz-adv-x="825" 
d="M807 1111q-3 -10 -10.5 -14t-18.5 -2l-500 129q-18 5 -18 19q0 4 2 10l75 218q6 16 20 16q7 0 11 -2l474 -205q16 -6 16 -21q0 -2 -2 -10z" />
    <glyph glyph-name="a" unicode="a" horiz-adv-x="1200" 
d="M1226 1030q13 0 18.5 -7t2.5 -19l-124 -504l-103 -479q-4 -21 -26 -21h-302q-21 0 -21 17q0 6 1 9l13 52q-117 -97 -269 -97q-114 0 -199.5 53.5t-132 151t-46.5 226.5q0 149 61 296.5t181.5 244t289.5 96.5q100 0 173.5 -35t118.5 -101l20 96q4 21 26 21h318z
M690.5 280.5q55.5 68.5 82 164t26.5 175.5q0 96 -40 147t-115 51q-86 0 -141 -66t-79 -157t-24 -170q0 -96 38.5 -154.5t114.5 -58.5q82 0 137.5 68.5z" />
    <glyph glyph-name="b" unicode="b" horiz-adv-x="1210" 
d="M993.5 995.5q85.5 -53.5 132 -151t46.5 -226.5q0 -149 -61 -296.5t-181.5 -244t-289.5 -96.5q-104 0 -179.5 38t-119.5 110l-21 -108q-3 -21 -25 -21h-320q-12 0 -18 7t-3 19l169 676l145 677q3 21 26 21h320q12 0 17.5 -7t2.5 -19l-102 -417q115 92 262 92
q114 0 199.5 -53.5zM707 278q55 66 79 157t24 170q0 96 -38.5 154.5t-114.5 58.5q-82 0 -137.5 -68.5t-82 -164t-26.5 -175.5q0 -96 40 -147t115 -51q86 0 141 66z" />
    <glyph glyph-name="c" unicode="c" horiz-adv-x="1133" 
d="M281 28.5q-112 54.5 -174.5 160t-62.5 255.5q0 161 73 301t211.5 225t324.5 85q135 0 237.5 -46.5t160.5 -133.5t62 -204q0 -24 -23 -24h-295q-23 0 -23 24q-6 72 -45 110t-99 38q-74 0 -124.5 -60t-75.5 -150.5t-25 -179.5q0 -111 38 -165t108 -54q67 0 114.5 44
t70.5 118q6 20 26 20h295q12 0 18 -6t3 -16q-29 -118 -101.5 -207t-184 -139t-251.5 -50q-146 0 -258 54.5z" />
    <glyph glyph-name="d" unicode="d" horiz-adv-x="1206" 
d="M1309 1400q13 0 18.5 -7t2.5 -19l-173 -709l-139 -644q-4 -21 -26 -21h-300q-12 0 -17.5 7t-2.5 19l14 53q-118 -98 -270 -98q-114 0 -199.5 53.5t-132 151t-46.5 226.5q0 149 61 296.5t181.5 244t289.5 96.5q99 0 172 -34.5t118 -100.5l103 465q4 21 26 21h320z
M690.5 280.5q55.5 68.5 82 164t26.5 175.5q0 96 -40 147t-114 51q-87 0 -142 -66t-79 -157t-24 -170q0 -96 38.5 -154.5t114.5 -58.5q82 0 137.5 68.5z" />
    <glyph glyph-name="e" unicode="e" horiz-adv-x="1174" 
d="M910.5 997q110.5 -58 169.5 -161t59 -236q0 -69 -16 -139q-4 -21 -25 -21h-702v-20q2 -106 47.5 -158.5t124.5 -52.5q65 0 110 33t68 91q7 19 27 19h293q13 0 19 -5.5t3 -15.5q-28 -107 -98.5 -187t-180 -124.5t-249.5 -44.5q-151 0 -267.5 54.5t-182.5 160.5t-66 255
q0 161 74 301t212.5 224.5t321.5 84.5q148 0 258.5 -58zM783 647q1 7 1 20q0 70 -40 113.5t-115 43.5q-76 0 -127 -46t-78 -131h359z" />
    <glyph glyph-name="f" unicode="f" horiz-adv-x="844" 
d="M993.5 1391.5q4.5 -7.5 2.5 -18.5l-48 -203q-6 -23 -29 -18q-40 10 -104 10q-58 0 -92 -24t-49 -87l-4 -21h220q12 0 17.5 -7t3.5 -19l-48 -204q-4 -21 -26 -21h-225l-77 -330l-86 -428q-4 -21 -26 -21h-329q-13 0 -18.5 7t-2.5 19l109 423l78 330h-128q-12 0 -17.5 7
t-3.5 19l49 204q3 21 25 21h132l11 46q27 119 95.5 195t161.5 111t199 35q92 0 194 -17q11 -1 15.5 -8.5z" />
    <glyph glyph-name="g" unicode="g" horiz-adv-x="1208" 
d="M1233 1030q12 0 17.5 -7t3.5 -19l-137 -569l-95 -430q-46 -206 -189 -307.5t-372 -101.5q-154 0 -268.5 46.5t-177 127.5t-68.5 182q0 24 23 24h314q21 0 24 -23q7 -60 51.5 -92.5t117.5 -32.5q82 0 130 43.5t70 138.5l24 106q-116 -93 -271 -93q-117 0 -204 51t-134 144
t-47 217q0 144 60.5 286t180.5 235t289 93q103 0 178.5 -35.5t119.5 -102.5l20 98q5 21 26 21h314zM700 319q55 65 80.5 154.5t25.5 163.5q0 88 -41 134.5t-116 46.5q-86 0 -140.5 -62t-78 -147.5t-23.5 -159.5q0 -89 39 -142t116 -53q83 0 138 65z" />
    <glyph glyph-name="h" unicode="h" horiz-adv-x="1172" 
d="M-25 0q-12 0 -18 7t-3 19l121 481l195 872q5 21 25 21h307q12 0 17.5 -7t2.5 -19l-112 -460q65 64 148.5 102t178.5 38q90 0 160.5 -34.5t110.5 -102t40 -161.5q0 -58 -16 -122l-47 -197l-88 -416q-4 -21 -26 -21h-319q-12 0 -18 7t-3 19l94 369l47 219q7 31 7 62
q0 56 -27 86.5t-81 30.5q-100 0 -162 -97t-89 -221l-20 -85l-76 -369q-4 -21 -26 -21h-323z" />
    <glyph glyph-name="i" unicode="i" horiz-adv-x="512" 
d="M-20 0q-12 0 -18 7t-3 19l121 479l107 504q3 21 26 21h321q12 0 18 -7t3 -19l-127 -499l-100 -484q-4 -21 -26 -21h-322zM239 1112q-12 0 -18 7t-3 19l57 241q4 21 26 21h317q12 0 17.5 -7t3.5 -19l-58 -242q-4 -20 -25 -20h-317z" />
    <glyph glyph-name="j" unicode="j" horiz-adv-x="512" 
d="M-98 -340q-13 0 -18.5 7t-2.5 19l168 680l137 643q4 21 26 21h322q12 0 17.5 -7t3.5 -19l-158 -638l-148 -685q-3 -21 -26 -21h-321zM239 1112q-12 0 -18 7t-3 19l57 241q4 21 26 21h317q12 0 17.5 -7t3.5 -19l-58 -242q-4 -20 -25 -20h-317z" />
    <glyph glyph-name="k" unicode="k" horiz-adv-x="1103" 
d="M1139 1030q20 0 20 -13q0 -7 -9 -16l-371 -341l201 -633q1 -3 1 -9q0 -18 -20 -18h-339q-20 0 -26 20l-57 223l-51 165l-118 -117l-58 -270q-4 -21 -26 -21h-312q-12 0 -17.5 7t-2.5 19l168 677l145 676q3 21 26 21h311q13 0 18.5 -7t2.5 -19l-163 -659l-2 -8l300 311
q11 12 28 12h351z" />
    <glyph glyph-name="l" unicode="l" horiz-adv-x="504" 
d="M-20 0q-12 0 -17.5 7t-2.5 19l168 670l145 683q4 21 26 21h312q12 0 17.5 -7t2.5 -19l-169 -679l-144 -674q-4 -21 -26 -21h-312z" />
    <glyph glyph-name="m" unicode="m" horiz-adv-x="1725" 
d="M1558 1021q68 -33 106 -98t38 -158q0 -57 -17 -131l-46 -197l-89 -416q-4 -21 -26 -21h-320q-12 0 -17.5 7t-2.5 19l94 369l47 219q8 40 8 71q0 50 -20.5 79t-62.5 29q-73 0 -123.5 -75.5t-80.5 -188.5l-9 -38l-12 -54l-90 -416q-3 -21 -26 -21h-319q-12 0 -18 7t-3 19
l94 369l48 219q8 40 8 71q0 50 -20.5 79t-62.5 29q-83 0 -135.5 -94t-81.5 -224l-20 -85l-76 -369q-4 -21 -26 -21h-323q-12 0 -18 7t-3 19l121 481l112 502q4 21 25 21h299q13 0 18.5 -7t2.5 -19l-22 -90q60 64 138.5 102t169.5 38q89 0 152.5 -36.5t93.5 -108.5
q70 68 155 106.5t182 38.5q90 0 158 -33z" />
    <glyph glyph-name="n" unicode="n" horiz-adv-x="1171" 
d="M-26 0q-12 0 -17.5 7t-3.5 19l121 481l112 502q4 21 25 21h299q13 0 18.5 -7t2.5 -19l-22 -90q65 64 148.5 102t178.5 38q90 0 160.5 -34.5t110.5 -102t40 -162.5q0 -55 -15 -121l-48 -197l-88 -416q-4 -21 -26 -21h-320q-12 0 -17.5 7t-2.5 19l95 369l46 219q7 32 7 63
q0 55 -27 85.5t-81 30.5q-100 0 -161 -96.5t-90 -221.5l-20 -85l-76 -369q-4 -21 -26 -21h-323z" />
    <glyph glyph-name="o" unicode="o" horiz-adv-x="1197" 
d="M285 29.5q-113 54.5 -177 160.5t-64 255q0 161 74.5 301t213.5 224.5t323 84.5q144 0 256.5 -54.5t176.5 -160.5t64 -254q0 -161 -74.5 -301t-213.5 -225t-322 -85q-144 0 -257 54.5zM689.5 271.5q53.5 62.5 78.5 154t25 176.5q0 108 -40.5 163.5t-112.5 55.5
q-79 0 -132.5 -61.5t-79 -152.5t-25.5 -179q0 -109 40.5 -164t111.5 -55q81 0 134.5 62.5z" />
    <glyph glyph-name="p" unicode="p" horiz-adv-x="1205" 
d="M988.5 995.5q85.5 -53.5 132 -151t46.5 -226.5q0 -149 -61 -296.5t-181.5 -244t-289.5 -96.5q-101 0 -175.5 36t-119.5 105l-97 -441q-4 -21 -26 -21h-322q-12 0 -18 7t-3 19l176 715l130 608q3 21 26 21h301q10 0 15.5 -5t5.5 -13q0 -5 -1 -8l-15 -59q121 104 277 104
q114 0 199.5 -53.5zM702 278q55 66 79 157t24 170q0 96 -38.5 154.5t-114.5 58.5q-82 0 -137.5 -68.5t-82 -164t-26.5 -175.5q0 -96 40 -147t115 -51q86 0 141 66z" />
    <glyph glyph-name="q" unicode="q" horiz-adv-x="1205" 
d="M1231 1030q13 0 18.5 -7t2.5 -19l-165 -684l-140 -641q-4 -21 -26 -21l-317 2q-12 0 -17.5 7t-2.5 19l95 387q-115 -92 -263 -92q-114 0 -199.5 53.5t-132 151t-46.5 226.5q0 149 61 296.5t181.5 244t289.5 96.5q100 0 174 -35.5t119 -101.5l20 97q5 21 26 21h322z
M690.5 280.5q55.5 68.5 82 164t26.5 175.5q0 96 -40 147t-115 51q-86 0 -141 -66t-79 -157t-24 -170q0 -96 38.5 -154.5t114.5 -58.5q82 0 137.5 68.5z" />
    <glyph glyph-name="r" unicode="r" horiz-adv-x="839" 
d="M-27 0q-12 0 -17.5 7t-2.5 19l123 485l104 498q4 21 26 21h310q12 0 17.5 -7t2.5 -19l-38 -140q78 85 175.5 129t201.5 44q15 0 31 -3q11 -1 16 -8.5t2 -18.5l-51 -219q-5 -20 -21 -20l-26 1q-100 0 -189 -43.5t-152 -125t-86 -192.5l-86 -387q-4 -21 -26 -21h-314z" />
    <glyph glyph-name="s" unicode="s" horiz-adv-x="1112" 
d="M246.5 20q-116.5 45 -178.5 123t-67 177q-1 11 5.5 17t18.5 6h300q21 0 24 -23q11 -125 181 -125q75 0 109 24.5t34 61.5q0 29 -24.5 49t-62.5 33t-107 31q-112 30 -185 60.5t-126.5 92.5t-53.5 164q0 101 59.5 179t170.5 121.5t260 43.5q145 0 250.5 -41t163.5 -114
t65 -169q2 -24 -23 -24h-285q-22 0 -25 23q-8 53 -46 82t-102 29q-62 0 -94.5 -24t-32.5 -61q0 -31 26 -52t65.5 -34.5t109.5 -31.5q109 -28 180 -56.5t122 -86.5t51 -152q0 -104 -61.5 -187.5t-175.5 -132t-267 -48.5q-162 0 -278.5 45z" />
    <glyph glyph-name="t" unicode="t" horiz-adv-x="814" 
d="M865 1030q12 0 17.5 -7t3.5 -19l-48 -204q-4 -21 -26 -21h-222l-98 -435q-5 -21 -5 -43q0 -38 20.5 -53.5t57.5 -15.5q53 0 115 16q3 1 8 1q9 0 13 -6.5t2 -17.5l-42 -182q-5 -18 -23 -24q-121 -41 -219 -41q-135 0 -219.5 61.5t-84.5 186.5q0 46 12 100l107 453h-108
q-12 0 -17.5 7t-3.5 19l49 204q3 21 25 21h113l53 237q1 10 8 15.5t17 5.5h314q12 0 17.5 -7t3.5 -19l-56 -232h216z" />
    <glyph glyph-name="u" unicode="u" 
d="M1198 1030q12 0 17.5 -7t2.5 -19l-120 -481l-112 -502q-4 -21 -25 -21h-299q-13 0 -18.5 7t-2.5 19l22 90q-65 -64 -148.5 -102t-178.5 -38q-90 0 -160.5 34.5t-111 101.5t-40.5 161q0 59 16 123l48 197l88 416q4 21 26 21h320q12 0 17.5 -7t2.5 -19l-95 -369l-45 -219
q-7 -32 -7 -64q0 -55 27 -85t80 -30q100 0 160.5 96.5t89.5 221.5l21 85l76 369q5 21 26 21h323z" />
    <glyph glyph-name="v" unicode="v" horiz-adv-x="1125" 
d="M112 1006v4q0 20 22 20h303q23 0 25 -23l32 -694l380 700q11 17 28 17h321q10 0 15 -4t5 -11q0 -6 -4 -13l-579 -990q-9 -16 -28 -16h-388q-22 0 -25 22z" />
    <glyph glyph-name="w" unicode="w" horiz-adv-x="1533" 
d="M139 0q-23 0 -23 24l13 983q0 11 6.5 17t16.5 6h279q11 0 17.5 -6.5t5.5 -18.5l-65 -662l280 669q8 18 28 18h354q25 0 23 -24l-32 -647l247 652q6 19 27 19h297q10 0 15.5 -4.5t5.5 -11.5q0 -6 -3 -12l-446 -984q-8 -18 -27 -18h-352q-23 0 -23 24l11 661l-278 -667
q-8 -18 -27 -18h-350z" />
    <glyph glyph-name="x" unicode="x" horiz-adv-x="1059" 
d="M-87 0q-9 0 -14.5 4t-5.5 10t6 15l432 528l-192 445q-3 6 -3 12q0 7 5.5 11.5t15.5 4.5h313q20 0 27 -18l98 -256l182 259q11 15 29 15h327q20 0 20 -13q0 -8 -7 -16l-408 -505l196 -469q3 -6 3 -11q0 -7 -5.5 -11.5t-15.5 -4.5h-320q-21 0 -27 19l-100 259l-195 -263
q-11 -15 -29 -15h-332z" />
    <glyph glyph-name="y" unicode="y" horiz-adv-x="1116" 
d="M136 -340q-10 0 -15 4t-5 11q0 6 4 13l162 289l-168 1028q-2 11 4 18t18 7h322q22 0 25 -22l62 -603l310 608q7 17 27 17h331q10 0 15 -4t5 -11q0 -6 -4 -13l-758 -1326q-8 -16 -28 -16h-307z" />
    <glyph glyph-name="z" unicode="z" horiz-adv-x="1026" 
d="M-28 0q-12 0 -17.5 7t-3.5 19l48 210q4 15 15 26l538 517h-359q-13 0 -18.5 7t-2.5 19l48 204q5 21 25 21h779q12 0 17.5 -7t2.5 -19l-50 -215q-4 -16 -15 -27l-540 -510h437q13 0 18 -7t3 -19l-48 -205q-4 -21 -25 -21h-852z" />
    <glyph glyph-name="braceleft" unicode="{" horiz-adv-x="642" 
d="M314 -280q-111 0 -187.5 34t-115 95t-38.5 141q0 111 71 239l70 125q24 43 24 69q0 37 -45 37h-31q-12 0 -17.5 7t-3.5 19l50 213q5 21 25 21h37q37 0 54 23.5t17 61.5q0 14 -1 21l-14 138q-2 32 -2 47q0 126 58 228.5t164.5 161.5t246.5 59h105q12 0 17.5 -7t2.5 -19
l-52 -221q-4 -21 -25 -21h-89q-57 0 -91.5 -41.5t-34.5 -117.5q0 -10 2 -36l16 -152q1 -7 1 -22q0 -73 -45.5 -137.5t-140.5 -98.5q49 -24 71.5 -63t22.5 -85q0 -63 -36 -124l-70 -120q-46 -79 -46 -132q0 -37 21.5 -56t59.5 -19h75q12 0 17.5 -7t3.5 -19l-51 -221
q-4 -21 -25 -21h-71z" />
    <glyph glyph-name="bar" unicode="|" horiz-adv-x="428" 
d="M-73 -280q-12 0 -17 7t-3 19l392 1693q3 21 25 21h213q12 0 17 -7t3 -19l-391 -1693q-4 -21 -26 -21h-213z" />
    <glyph glyph-name="braceright" unicode="}" horiz-adv-x="642" 
d="M-104 -280q-21 0 -21 18q0 5 1 8l51 221q4 21 25 21h90q57 0 91 42.5t34 121.5q0 28 -2 43l-14 140q-1 7 -1 21q0 71 45.5 136t139.5 99q-49 24 -72 61.5t-23 83.5q0 63 38 129l76 132q40 70 40 120q0 36 -21.5 55.5t-60.5 19.5h-76q-12 0 -17.5 7t-3.5 19l52 221
q5 21 25 21h72q106 0 183 -34t117.5 -96t40.5 -144q0 -104 -65 -222l-76 -138q-25 -43 -25 -70q0 -36 45 -36h30q12 0 17.5 -7t3.5 -19l-50 -213q-4 -21 -25 -21h-36q-37 0 -53.5 -23.5t-16.5 -61.5q0 -14 1 -21l12 -125q2 -18 2 -53q0 -127 -53.5 -230.5t-159 -164.5
t-254.5 -61h-106z" />
    <glyph glyph-name="asciitilde" unicode="~" horiz-adv-x="1170" 
d="M92 537q-25 0 -22 26q41 219 144 349.5t265 130.5q73 0 125.5 -24.5t84.5 -58t69 -84.5q30 -42 50 -61.5t45 -19.5q50 0 81.5 57t41.5 152q2 23 24 23h203q12 0 17.5 -7t3.5 -19q-39 -218 -138 -336.5t-256 -118.5q-69 0 -119.5 23.5t-82.5 56t-68 81.5q-35 46 -58 67
t-53 21q-52 0 -85 -63.5t-45 -171.5q-3 -23 -26 -23h-201z" />
    <glyph glyph-name="exclamdown" unicode="&#xa1;" horiz-adv-x="493" 
d="M517 1030q12 0 17.5 -7.5t2.5 -18.5l-65 -284q-4 -21 -25 -21h-309q-12 0 -17.5 7t-2.5 19l65 284q5 21 25 21h309zM421 614q12 0 17.5 -7t2.5 -19l-217 -937q-4 -21 -25 -21h-310q-12 0 -17 7t-3 19l218 937q5 21 25 21h309z" />
    <glyph glyph-name="cent" unicode="&#xa2;" horiz-adv-x="1154" 
d="M935 1210q104 -45 163 -132.5t63 -206.5q0 -24 -24 -24h-295q-21 0 -23 24q-6 72 -45 110t-98 38q-74 0 -124.5 -60t-75.5 -150.5t-25 -179.5q0 -111 38 -165t108 -54q66 0 113.5 44t70.5 118q6 20 26 20h295q12 0 18 -6t3 -16q-37 -149 -141.5 -250.5t-262.5 -132.5
l-39 -166q-3 -21 -25 -21h-318q-12 0 -17 7t-3 19l44 188q-127 51 -198 160.5t-71 269.5q0 143 57.5 270t168 215t260.5 115l30 130q5 21 26 21h318q12 0 17 -7t3 -19z" />
    <glyph glyph-name="sterling" unicode="&#xa3;" horiz-adv-x="1297" 
d="M1300 970h-308q-22 0 -25 23q-13 164 -160 164q-196 0 -202 -282h244q12 0 17 -7t3 -19l-45 -196q-3 -21 -25 -21h-196q-8 -144 -62 -238.5t-176 -124.5l282 -8q75 -3 122 16.5t77 70t52 143.5q4 22 26 22h313q10 0 15.5 -6.5t5.5 -17.5q0 -7 -1 -11
q-41 -197 -130 -306.5t-214 -149.5t-296 -37l-658 14q-12 0 -17.5 7.5t-2.5 18.5l49 215q4 18 24 23l42 7q96 16 138 110.5t46 251.5h-170q-12 0 -17 7t-3 19l45 196q5 21 26 21h116v8q0 167 63.5 290.5t192.5 191.5t320 68q240 0 374 -112.5t138 -326.5q2 -24 -23 -24z" />
    <glyph glyph-name="currency" unicode="&#xa4;" horiz-adv-x="1231" 
d="M1261 1033q6 -9 6 -16q0 -9 -11 -17l-181 -140q27 -66 27 -145q0 -76 -25.5 -145t-72.5 -125l115 -157q6 -7 6 -15q0 -10 -11 -18l-148 -109q-7 -6 -14 -6q-11 0 -19 11l-119 161q-88 -34 -189 -34q-142 0 -249 66l-188 -147q-9 -6 -16 -6q-10 0 -17 10l-108 137
q-6 8 -6 16q0 9 10 18l182 141q-27 65 -27 144q0 76 25.5 145t72.5 125l-115 157q-5 6 -5 14q0 12 10 19l148 109q8 6 15 6q10 0 18 -11l119 -161q88 34 189 34q144 0 248 -66l190 148q8 6 15 6q10 0 18 -10zM503.5 522q51.5 -51 133.5 -51q68 0 117.5 34t75 88.5
t25.5 114.5q0 90 -51.5 141.5t-134.5 51.5q-68 0 -117 -34t-74.5 -88.5t-25.5 -116.5q0 -89 51.5 -140z" />
    <glyph glyph-name="yen" unicode="&#xa5;" horiz-adv-x="1295" 
d="M1476 1400q9 0 14.5 -4t5.5 -10q0 -7 -7 -15l-473 -566h153q12 0 17 -7t3 -19l-43 -190q-4 -21 -26 -21h-285l-25 -120h276q12 0 17 -7t3 -19l-43 -190q-4 -21 -26 -21h-275l-38 -190q-4 -21 -27 -21h-331q-10 0 -15.5 5t-5.5 13q0 5 1 8l48 185h-270q-12 0 -17 7t-3 19
l44 190q3 21 25 21h283l31 120h-280q-12 0 -17 7t-3 19l44 190q3 21 25 21h159l-214 568q-2 8 -2 10q0 17 21 17h337q21 0 26 -20l139 -527l379 533q10 14 28 14h347z" />
    <glyph glyph-name="brokenbar" unicode="&#xa6;" horiz-adv-x="428" 
d="M158 720q-12 0 -17 7t-3 19l161 693q5 21 26 21h213q12 0 17 -7t3 -19l-162 -693q-3 -21 -25 -21h-213zM-72 -280q-12 0 -17.5 7.5t-2.5 18.5l159 693q5 21 26 21h213q12 0 17 -7t3 -19l-160 -693q-3 -21 -25 -21h-213z" />
    <glyph glyph-name="section" unicode="&#xa7;" horiz-adv-x="1331" 
d="M1069.5 1362q124.5 -45 196.5 -128.5t74 -196.5q0 -24 -24 -24h-289q-22 0 -24 23q-7 66 -69.5 102.5t-166.5 36.5q-99 0 -164 -31.5t-65 -94.5q0 -37 34 -62t85.5 -41t144.5 -37q146 -34 239.5 -68t161.5 -103.5t68 -183.5q0 -108 -67 -191t-185 -132q117 -84 117 -225
q0 -129 -79.5 -224.5t-216 -145.5t-304.5 -50q-170 0 -305 49.5t-212.5 142.5t-79.5 217q0 24 24 24h272q22 0 24 -23q7 -83 84 -133.5t214 -50.5q104 0 170.5 38.5t66.5 107.5q0 42 -35.5 69.5t-89.5 44t-151 37.5q-142 31 -232.5 63t-156 99.5t-65.5 181.5q0 108 69.5 189
t190.5 128q-127 83 -127 231q0 127 81.5 219t217 139.5t293.5 47.5q156 0 280.5 -45zM893 572q-34 29 -87.5 46.5t-139.5 36.5q-127 -4 -194.5 -41t-67.5 -103q0 -42 35.5 -70t89.5 -45t152 -41l21 -5q98 4 161.5 44.5t63.5 104.5q0 44 -34 73z" />
    <glyph glyph-name="dieresis" unicode="&#xa8;" horiz-adv-x="903" 
d="M264 1110q-13 0 -18 7t-3 19l58 243q4 21 25 21h246q13 0 18 -7t3 -19l-57 -243q-6 -21 -26 -21h-246zM671 1110q-12 0 -17.5 7t-2.5 19l57 243q4 21 26 21h246q12 0 17.5 -7t3.5 -19l-58 -243q-4 -21 -25 -21h-247z" />
    <glyph glyph-name="copyright" unicode="&#xa9;" horiz-adv-x="1572" 
d="M448.5 60q-164.5 93 -254.5 258.5t-90 376.5q0 221 89 388t253 258.5t383 91.5q217 0 381.5 -90t255 -257t90.5 -391q0 -210 -90 -375.5t-255 -259t-382 -93.5q-216 0 -380.5 93zM1144.5 168q128.5 72 194 206t65.5 321q0 186 -65.5 323t-194.5 211.5t-315 74.5
q-188 0 -315.5 -72.5t-192 -209t-64.5 -327.5q0 -186 66 -320.5t195 -206.5t314 -72q184 0 312.5 72zM608.5 302q-102.5 59 -158 162t-55.5 232q0 139 55.5 245t157.5 164.5t236 58.5q155 0 259 -70t145 -232q1 -3 1 -7q0 -9 -6 -14t-16 -5h-172q-21 0 -27 20
q-39 137 -186 137q-105 0 -160 -76t-55 -218q0 -134 55.5 -210.5t156.5 -76.5q81 0 126.5 40t66.5 119q6 20 27 20h176q21 0 21 -20q0 -4 -2 -12q-45 -169 -145.5 -242.5t-261.5 -73.5q-136 0 -238.5 59z" />
    <glyph glyph-name="ordfeminine" unicode="&#xaa;" horiz-adv-x="966" 
d="M1084 1403q12 0 18 -7t3 -19l-89 -375l-80 -358q-5 -21 -26 -21h-232q-12 0 -17.5 7t-2.5 19l9 37q-96 -81 -218 -81q-86 0 -152 41t-102 116t-36 174q0 114 48 226t144 185t230 73q145 0 217 -89l10 51q5 21 25 21h251zM669 845.5q41 50.5 60.5 121t19.5 128.5
q0 66 -28.5 101t-81.5 35q-64 0 -105 -48t-59 -113.5t-18 -122.5q0 -70 27 -111t84 -41q60 0 101 50.5z" />
    <glyph glyph-name="guillemotleft" unicode="&#xab;" horiz-adv-x="1168" 
d="M290 101q-18 0 -29 16l-207 360q-4 7 -4 14q0 9 8 19l379 389q11 12 29 12h248q19 0 19 -13q0 -8 -8 -16l-387 -394l211 -359q4 -7 4 -13q0 -7 -5 -11t-15 -4h-243zM758 101q-18 0 -29 16l-207 360q-4 7 -4 14q0 9 8 19l379 389q11 12 29 12h248q19 0 19 -13q0 -8 -8 -16
l-387 -394l211 -359q4 -7 4 -13q0 -7 -5 -11t-15 -4h-243z" />
    <glyph glyph-name="logicalnot" unicode="&#xac;" horiz-adv-x="1190" 
d="M1090 578l-1 -4l-89 -383q-3 -21 -25 -21h-225q-12 0 -17 7t-3 19l83 362h-661q-12 0 -17.5 7t-2.5 19l49 215q5 21 26 21h913q12 0 17 -7t3 -19z" />
    <glyph glyph-name="registered" unicode="&#xae;" horiz-adv-x="822" 
d="M346 728q-83 47 -128 131t-45 191q0 113 44.5 197.5t127 130.5t192.5 46q108 0 190.5 -45.5t127.5 -130t45 -198.5q0 -107 -45 -191t-127.5 -131t-190.5 -47t-191 47zM738 839.5q71 76.5 71 210.5q0 136 -70.5 214t-201.5 78q-135 0 -204.5 -76t-69.5 -216
q0 -134 71 -210.5t203 -76.5q130 0 201 76.5zM386 859q-23 0 -23 24v345q0 11 6 17t17 6h150q85 0 130 -31.5t45 -92.5q0 -82 -85 -113l82 -127q5 -8 5 -14t-5.5 -10t-14.5 -4h-83q-18 0 -28 16l-76 125h-25l-1 -117q0 -11 -6.5 -17.5t-17.5 -6.5h-70zM540 1079q23 0 40 12
t17 34q0 44 -60 44h-57l1 -90h59z" />
    <glyph glyph-name="macron" unicode="&#xaf;" horiz-adv-x="885" 
d="M271 1140q-12 0 -17.5 7t-2.5 19l42 178q4 21 26 21h636q12 0 17.5 -7t3.5 -19l-43 -178q-4 -21 -25 -21h-637z" />
    <glyph glyph-name="macron" unicode="&#x2c9;" horiz-adv-x="885" 
d="M271 1140q-12 0 -17.5 7t-2.5 19l42 178q4 21 26 21h636q12 0 17.5 -7t3.5 -19l-43 -178q-4 -21 -25 -21h-637z" />
    <glyph glyph-name="degree" unicode="&#xb0;" horiz-adv-x="799" 
d="M333.5 792.5q-77.5 36.5 -122.5 103.5t-45 156q0 93 50 177.5t140 136.5t204 52q95 0 172 -37.5t121.5 -104.5t44.5 -154q0 -92 -50.5 -176.5t-140.5 -137t-203 -52.5q-93 0 -170.5 36.5zM586 976q31 26 47.5 66t16.5 80q0 50 -27 76.5t-71 26.5q-46 0 -77 -28t-46 -68.5
t-15 -76.5q0 -48 26.5 -75t71.5 -27q43 0 74 26z" />
    <glyph glyph-name="plusminus" unicode="&#xb1;" horiz-adv-x="1171" 
d="M1133 920q12 0 17 -7t3 -19l-50 -215q-3 -21 -25 -21h-323l-85 -367q-3 -21 -25 -21h-225q-12 0 -17 7t-3 19l84 362h-319q-12 0 -17.5 7t-2.5 19l49 215q5 21 26 21h325l85 369q5 21 26 21h225q12 0 17 -7t3 -19l-85 -364h317zM14 0q-12 0 -17.5 7t-2.5 19l49 215
q5 21 26 21h913q12 0 17 -7t3 -19l-50 -215q-3 -21 -25 -21h-913z" />
    <glyph glyph-name="two.sups" unicode="&#xb2;" horiz-adv-x="628" 
d="M72 617q-12 0 -17.5 7t-3.5 19l28 118q23 98 74 158.5t108 90.5t141 60q54 19 82.5 32.5t47 34t18.5 51.5q0 34 -20 52t-52 18q-35 0 -61 -23.5t-36 -74.5q-2 -11 -8 -16.5t-17 -5.5h-153q-12 0 -18 6.5t-4 18.5q17 126 98 190t210 64q121 0 195 -55t74 -162
q0 -78 -39.5 -131.5t-94.5 -85.5t-141 -70q-80 -34 -118 -59t-41 -61l-2 -14h316q12 0 17.5 -7.5t3.5 -18.5l-26 -115q-4 -21 -26 -21h-535z" />
    <glyph glyph-name="three.sups" unicode="&#xb3;" horiz-adv-x="657" 
d="M243 628.5q-67 30.5 -102 87.5t-32 136q2 22 25 22h163q23 0 23 -24q2 -39 23.5 -64t63.5 -25q46 0 72.5 30t26.5 76q0 39 -23.5 62t-66.5 23h-58q-12 0 -17.5 7t-3.5 19l25 98q4 21 25 21h64q49 0 81 22.5t32 65.5q0 34 -21 51.5t-53 17.5q-33 0 -56 -17t-33 -50
q-6 -21 -26 -21h-159q-12 0 -17.5 7t-2.5 19q29 113 108 169t193 56q79 0 142 -25.5t98 -72.5t35 -108q0 -67 -39.5 -119.5t-113.5 -72.5q50 -27 76.5 -69t26.5 -98q0 -74 -40.5 -132t-114 -90t-167.5 -32q-90 0 -157 30.5z" />
    <glyph glyph-name="acute" unicode="&#xb4;" horiz-adv-x="838" 
d="M344 1109q-2 -1 -7 -1q-17 0 -21 18l-32 139q-1 3 -1 7q0 17 17 23l517 190q4 2 11 2q15 0 18 -18l49 -220l1 -7q0 -16 -19 -21z" />
    <glyph glyph-name="uni03BC" unicode="&#xb5;" horiz-adv-x="1181" 
d="M185 1013q3 17 22 17h327q10 0 14.5 -6t2.5 -16l-142 -596q-8 -37 -8 -63q0 -53 27.5 -82.5t80.5 -29.5q100 0 161 96.5t90 221.5l19 85l79 373q4 17 22 17h328q10 0 15 -6t2 -16l-119 -485l-115 -506q-3 -17 -21 -17h-306q-10 0 -14.5 6t-2.5 16l23 94
q-64 -63 -143 -101t-168 -39q-25 0 -48 5l-68 -304q-3 -17 -21 -17h-328q-11 0 -15.5 6t-2.5 16l189 785z" />
    <glyph glyph-name="uni03BC" unicode="&#x3bc;" horiz-adv-x="1181" 
d="M185 1013q3 17 22 17h327q10 0 14.5 -6t2.5 -16l-142 -596q-8 -37 -8 -63q0 -53 27.5 -82.5t80.5 -29.5q100 0 161 96.5t90 221.5l19 85l79 373q4 17 22 17h328q10 0 15 -6t2 -16l-119 -485l-115 -506q-3 -17 -21 -17h-306q-10 0 -14.5 6t-2.5 16l23 94
q-64 -63 -143 -101t-168 -39q-25 0 -48 5l-68 -304q-3 -17 -21 -17h-328q-11 0 -15.5 6t-2.5 16l189 785z" />
    <glyph glyph-name="paragraph" unicode="&#xb6;" horiz-adv-x="1506" 
d="M1592 1400q12 0 17.5 -7t3.5 -19l-187 -758l-202 -920q-1 -10 -8 -15.5t-17 -5.5h-329q-12 0 -18 7t-3 19l134 542l52 216h-106l-47 -218l-116 -545q-3 -21 -26 -21h-326q-12 0 -18 7t-3 19l132 535l55 226h-2q-140 0 -237 54.5t-145 148t-48 208.5q0 155 76 274.5
t221.5 186t347.5 66.5h799z" />
    <glyph glyph-name="periodcentered" unicode="&#xb7;" horiz-adv-x="486" 
d="M67 440q-12 0 -17.5 7t-2.5 19l65 282q5 21 26 21h320q12 0 17 -7t3 -19l-66 -282q-3 -21 -25 -21h-320z" />
    <glyph glyph-name="periodcentered" unicode="&#x2219;" horiz-adv-x="486" 
d="M67 440q-12 0 -17.5 7t-2.5 19l65 282q5 21 26 21h320q12 0 17 -7t3 -19l-66 -282q-3 -21 -25 -21h-320z" />
    <glyph glyph-name="cedilla" unicode="&#xb8;" horiz-adv-x="630" 
d="M255 -351q-9 -18 -29 -15l-275 40q-19 3 -19 17q0 7 4 12l187 321q9 17 29 15l250 -19q19 -2 19 -16q0 -6 -3 -12z" />
    <glyph glyph-name="one.sups" unicode="&#xb9;" horiz-adv-x="497" 
d="M251 617q-10 0 -15.5 5t-5.5 13q0 5 1 8l95 364l28 149q-64 -50 -158 -80q-3 -1 -9 -1q-19 0 -15 24l27 117q3 18 22 24q122 42 191 143q10 15 28 15h172q12 0 17.5 -7t2.5 -19l-109 -414l-60 -320q-4 -21 -26 -21h-186z" />
    <glyph glyph-name="ordmasculine" unicode="&#xba;" horiz-adv-x="970" 
d="M354 641q-89 42 -140 123t-51 195q0 123 58.5 230.5t168 172.5t254.5 65q113 0 202 -41.5t140 -123t51 -194.5q0 -123 -59.5 -230.5t-169 -173t-252.5 -65.5q-113 0 -202 42zM664.5 833q39.5 47 57.5 114.5t18 131.5q0 80 -28.5 120.5t-79.5 40.5q-57 0 -96.5 -45.5
t-58.5 -113.5t-19 -136q0 -80 28 -119.5t80 -39.5q59 0 98.5 47z" />
    <glyph glyph-name="guillemotright" unicode="&#xbb;" horiz-adv-x="1168" 
d="M-14 101q-20 0 -20 13q0 8 8 16l381 382l-206 371q-4 7 -4 13q0 7 5 11t15 4h244q20 0 28 -17l202 -371q4 -7 4 -14q0 -10 -8 -18l-373 -378q-12 -12 -29 -12h-247zM454 101q-20 0 -20 13q0 8 8 16l381 382l-206 371q-4 7 -4 13q0 7 5 11t15 4h244q20 0 28 -17l202 -371
q4 -7 4 -14q0 -10 -8 -18l-373 -378q-12 -12 -29 -12h-247z" />
    <glyph glyph-name="onequarter" unicode="&#xbc;" horiz-adv-x="1583" 
d="M251 617q-10 0 -15.5 5t-5.5 13q0 5 1 8l95 364l28 149q-64 -50 -158 -80q-3 -1 -9 -1q-19 0 -15 24l27 117q3 18 22 24q122 42 191 143q10 15 28 15h172q12 0 17.5 -7t2.5 -19l-109 -414l-60 -320q-4 -21 -26 -21h-186zM120 0q-9 0 -14.5 4t-5.5 10q0 8 7 15l1198 1358
q10 13 28 13h192q20 0 20 -13q0 -8 -7 -16l-1197 -1358q-12 -13 -29 -13h-192zM1509 781q12 0 17 -7t3 -19l-102 -443h62q12 0 18 -7t3 -19l-28 -116q-6 -21 -26 -21h-66l-30 -130q-4 -21 -26 -21h-174q-12 0 -17 7t-3 19l29 125h-313q-12 0 -17.5 7.5t-2.5 18.5l33 147
q2 13 13 27l353 419q10 13 28 13h246zM1235 439l41 149l-227 -276h157z" />
    <glyph glyph-name="onehalf" unicode="&#xbd;" horiz-adv-x="1646" 
d="M948 0q-12 0 -17.5 7t-3.5 19l28 118q23 98 74 158.5t108 90.5t141 60q54 19 82.5 32.5t47 34t18.5 51.5q0 34 -20 52t-52 18q-35 0 -61 -23.5t-36 -74.5q-2 -11 -8 -16.5t-17 -5.5h-153q-12 0 -18 6.5t-4 18.5q17 126 98 190t210 64q121 0 195 -55t74 -162
q0 -78 -39.5 -131.5t-94.5 -85.5t-141 -70q-80 -34 -118 -59t-41 -61l-2 -14h316q12 0 17.5 -7.5t3.5 -18.5l-26 -115q-4 -21 -26 -21h-535zM251 617q-10 0 -15.5 5t-5.5 13q0 5 1 8l95 364l28 149q-64 -50 -158 -80q-3 -1 -9 -1q-19 0 -15 24l27 117q3 18 22 24
q122 42 191 143q10 15 28 15h172q12 0 17.5 -7t2.5 -19l-109 -414l-60 -320q-4 -21 -26 -21h-186zM115 0q-9 0 -14.5 4t-5.5 10q0 8 7 15l1198 1358q10 13 28 13h192q20 0 20 -13q0 -8 -7 -16l-1197 -1358q-12 -13 -29 -13h-192z" />
    <glyph glyph-name="threequarters" unicode="&#xbe;" horiz-adv-x="1700" 
d="M243 628.5q-67 30.5 -102 87.5t-32 136q2 22 25 22h163q23 0 23 -24q2 -39 23.5 -64t63.5 -25q46 0 72.5 30t26.5 76q0 39 -23.5 62t-66.5 23h-58q-12 0 -17.5 7t-3.5 19l25 98q4 21 25 21h64q49 0 81 22.5t32 65.5q0 34 -21 51.5t-53 17.5q-33 0 -56 -17t-33 -50
q-6 -21 -26 -21h-159q-12 0 -17.5 7t-2.5 19q29 113 108 169t193 56q79 0 142 -25.5t98 -72.5t35 -108q0 -67 -39.5 -119.5t-113.5 -72.5q50 -27 76.5 -69t26.5 -98q0 -74 -40.5 -132t-114 -90t-167.5 -32q-90 0 -157 30.5zM237 0q-9 0 -14.5 4t-5.5 10q0 8 7 15l1198 1358
q10 13 28 13h192q20 0 20 -13q0 -8 -7 -16l-1197 -1358q-12 -13 -29 -13h-192zM1626 781q12 0 17 -7t3 -19l-102 -443h62q12 0 18 -7t3 -19l-28 -116q-6 -21 -26 -21h-66l-30 -130q-4 -21 -26 -21h-174q-12 0 -17 7t-3 19l29 125h-313q-12 0 -17.5 7.5t-2.5 18.5l33 147
q2 13 13 27l353 419q10 13 28 13h246zM1352 439l41 149l-227 -276h157z" />
    <glyph glyph-name="questiondown" unicode="&#xbf;" horiz-adv-x="1107" 
d="M826 1030q12 0 17 -7t3 -19l-65 -284q-4 -21 -26 -21h-319q-12 0 -17 7t-3 19l66 284q3 21 25 21h319zM731 614q10 0 15.5 -5t5.5 -14q0 -5 -1 -8q-24 -103 -72 -178.5t-102 -123.5t-133 -105q-55 -40 -85.5 -66t-50 -57.5t-19.5 -69.5q0 -57 42 -89t108 -32
q78 0 124.5 41.5t61.5 118.5q2 11 8 16.5t17 5.5h293q12 0 18 -6.5t4 -18.5q-37 -213 -178 -319.5t-363 -106.5q-139 0 -251 42t-177 126t-65 205q0 85 32.5 149t79.5 108t125 102q65 49 104 82.5t72 79.5t48 102q5 21 25 21h314z" />
    <glyph glyph-name="Agrave" unicode="&#xc0;" horiz-adv-x="1442" 
d="M1322 25q1 -12 -5 -18.5t-17 -6.5h-313q-23 0 -24 23l-23 299h-489l-159 -305q-9 -17 -28 -17h-354q-10 0 -15 4t-5 11q0 6 4 13l778 1356q8 16 28 16h461q23 0 25 -22zM918 611l-41 528l-276 -528h317zM1173 1481q-3 -10 -10.5 -14t-18.5 -2l-500 129q-18 5 -18 19
q0 4 2 10l75 218q6 16 20 16q7 0 11 -2l474 -205q16 -6 16 -21q0 -2 -2 -10z" />
    <glyph glyph-name="Aacute" unicode="&#xc1;" horiz-adv-x="1442" 
d="M1322 25q1 -12 -5 -18.5t-17 -6.5h-313q-23 0 -24 23l-23 299h-489l-159 -305q-9 -17 -28 -17h-354q-10 0 -15 4t-5 11q0 6 4 13l778 1356q8 16 28 16h461q23 0 25 -22zM918 611l-41 528l-276 -528h317zM767 1479q-2 -1 -7 -1q-17 0 -21 18l-32 139q-1 3 -1 7q0 17 17 23
l517 190q4 2 11 2q15 0 18 -18l49 -220l1 -7q0 -16 -19 -21z" />
    <glyph glyph-name="Acircumflex" unicode="&#xc2;" horiz-adv-x="1442" 
d="M1322 25q1 -12 -5 -18.5t-17 -6.5h-313q-23 0 -24 23l-23 299h-489l-159 -305q-9 -17 -28 -17h-354q-10 0 -15 4t-5 11q0 6 4 13l778 1356q8 16 28 16h461q23 0 25 -22zM918 611l-41 528l-276 -528h317zM581 1621q-3 6 -3 11q0 11 13 21l339 222q13 9 30 9h111
q17 0 28 -10l263 -224q9 -7 9 -18q0 -7 -4 -14l-76 -123q-7 -12 -18 -12q-7 0 -14 4l-277 150l-316 -151q-6 -3 -12 -3q-14 0 -20 15z" />
    <glyph glyph-name="Atilde" unicode="&#xc3;" horiz-adv-x="1442" 
d="M1322 25q1 -12 -5 -18.5t-17 -6.5h-313q-23 0 -24 23l-23 299h-489l-159 -305q-9 -17 -28 -17h-354q-10 0 -15 4t-5 11q0 6 4 13l778 1356q8 16 28 16h461q23 0 25 -22zM918 611l-41 528l-276 -528h317zM1006 1519.5q-35 15.5 -74 43.5q-24 17 -39 25t-30 8
q-28 0 -44 -19t-25 -55q-6 -21 -26 -21h-130q-11 0 -17 6.5t-5 18.5q20 128 90.5 207t178.5 79q44 0 76.5 -15t74.5 -44q24 -17 38.5 -25t28.5 -8q28 0 44 18t24 53q4 22 26 22h131q11 0 16.5 -8.5t3.5 -23.5q-22 -131 -89 -204t-170 -73q-48 0 -83 15.5z" />
    <glyph glyph-name="Adieresis" unicode="&#xc4;" horiz-adv-x="1442" 
d="M1322 25q1 -12 -5 -18.5t-17 -6.5h-313q-23 0 -24 23l-23 299h-489l-159 -305q-9 -17 -28 -17h-354q-10 0 -15 4t-5 11q0 6 4 13l778 1356q8 16 28 16h461q23 0 25 -22zM918 611l-41 528l-276 -528h317zM617 1480q-13 0 -18 7t-3 19l58 243q4 21 25 21h246q13 0 18 -7
t3 -19l-57 -243q-6 -21 -26 -21h-246zM1024 1480q-12 0 -17.5 7t-2.5 19l57 243q4 21 26 21h246q12 0 17.5 -7t3.5 -19l-58 -243q-4 -21 -25 -21h-247z" />
    <glyph glyph-name="Aring" unicode="&#xc5;" horiz-adv-x="1442" 
d="M1322 25q1 -12 -5 -18.5t-17 -6.5h-313q-23 0 -24 23l-23 299h-489l-159 -305q-9 -17 -28 -17h-354q-10 0 -15 4t-5 11q0 6 4 13l778 1356q8 16 28 16h461q23 0 25 -22zM918 611l-41 528l-276 -528h317zM845.5 1517.5q-62.5 29.5 -99.5 84t-37 125.5q0 72 39 134
t107.5 99t154.5 37q76 0 138.5 -30t99 -84.5t36.5 -124.5q0 -72 -39 -134t-107.5 -99t-154.5 -37q-75 0 -137.5 29.5zM1070 1661q31 40 31 96q0 50 -26.5 78.5t-68.5 28.5q-53 0 -83.5 -41.5t-30.5 -95.5q0 -50 27 -78t69 -28q51 0 82 40z" />
    <glyph glyph-name="AE" unicode="&#xc6;" horiz-adv-x="1917" 
d="M2031 1400q12 0 17 -7t3 -19l-52 -221q-3 -21 -25 -21h-535l-74 -263h479q12 0 17 -7t3 -19l-52 -221q-3 -21 -25 -21h-484l-64 -332h546q12 0 17 -7t3 -19l-52 -222q-3 -21 -25 -21h-897q-10 0 -15.5 5t-5.5 13q0 5 1 8l75 296h-413l-206 -307q-10 -15 -28 -15h-328
q-10 0 -15 4t-5 11q0 8 5 14l956 1357q11 14 29 14h1150zM666 611h293l20 77l99 469h-45z" />
    <glyph glyph-name="Ccedilla" unicode="&#xc7;" horiz-adv-x="1468" 
d="M1482.5 902.5q-6.5 -6.5 -17.5 -6.5h-305q-22 0 -25 23q-14 117 -83.5 176.5t-181.5 59.5q-143 0 -235.5 -91.5t-133.5 -222.5t-41 -253q0 -172 79 -257.5t214 -85.5q115 0 192.5 63t118.5 177q7 19 26 19h313q12 0 18 -6.5t3 -16.5q-39 -141 -123 -251t-208 -177.5
t-281 -81.5l-153 -322q-9 -18 -29 -15l-275 40q-18 3 -18 16q0 6 4 13l170 293q-130 37 -226 118.5t-148.5 204.5t-52.5 280q0 213 97.5 405t280.5 310.5t428 118.5q174 0 304 -62t206 -177.5t88 -273.5q1 -11 -5.5 -17.5z" />
    <glyph glyph-name="Egrave" unicode="&#xc8;" 
d="M-16 0q-12 0 -17.5 7t-2.5 19l169 662l144 691q4 21 26 21h984q12 0 17 -7t3 -19l-51 -221q-4 -21 -26 -21h-627l-74 -263h571q12 0 17 -7t3 -19l-51 -221q-4 -21 -26 -21h-576l-64 -332h638q12 0 17 -7t3 -19l-51 -222q-4 -21 -26 -21h-1000zM1071 1481
q-3 -10 -10.5 -14t-18.5 -2l-500 129q-18 5 -18 19q0 4 2 10l75 218q6 16 20 16q7 0 11 -2l474 -205q16 -6 16 -21q0 -2 -2 -10z" />
    <glyph glyph-name="Eacute" unicode="&#xc9;" 
d="M-16 0q-12 0 -17.5 7t-2.5 19l169 662l144 691q4 21 26 21h984q12 0 17 -7t3 -19l-51 -221q-4 -21 -26 -21h-627l-74 -263h571q12 0 17 -7t3 -19l-51 -221q-4 -21 -26 -21h-576l-64 -332h638q12 0 17 -7t3 -19l-51 -222q-4 -21 -26 -21h-1000zM665 1479q-2 -1 -7 -1
q-17 0 -21 18l-32 139q-1 3 -1 7q0 17 17 23l517 190q4 2 11 2q15 0 18 -18l49 -220l1 -7q0 -16 -19 -21z" />
    <glyph glyph-name="Ecircumflex" unicode="&#xca;" 
d="M-16 0q-12 0 -17.5 7t-2.5 19l169 662l144 691q4 21 26 21h984q12 0 17 -7t3 -19l-51 -221q-4 -21 -26 -21h-627l-74 -263h571q12 0 17 -7t3 -19l-51 -221q-4 -21 -26 -21h-576l-64 -332h638q12 0 17 -7t3 -19l-51 -222q-4 -21 -26 -21h-1000zM480 1621q-3 6 -3 11
q0 11 13 21l339 222q13 9 30 9h111q17 0 28 -10l263 -224q9 -7 9 -18q0 -7 -4 -14l-76 -123q-7 -12 -18 -12q-7 0 -14 4l-277 150l-316 -151q-6 -3 -12 -3q-14 0 -20 15z" />
    <glyph glyph-name="Edieresis" unicode="&#xcb;" 
d="M-16 0q-12 0 -17.5 7t-2.5 19l169 662l144 691q4 21 26 21h984q12 0 17 -7t3 -19l-51 -221q-4 -21 -26 -21h-627l-74 -263h571q12 0 17 -7t3 -19l-51 -221q-4 -21 -26 -21h-576l-64 -332h638q12 0 17 -7t3 -19l-51 -222q-4 -21 -26 -21h-1000zM515 1480q-13 0 -18 7
t-3 19l58 243q4 21 25 21h246q13 0 18 -7t3 -19l-57 -243q-6 -21 -26 -21h-246zM922 1480q-12 0 -17.5 7t-2.5 19l57 243q4 21 26 21h246q12 0 17.5 -7t3.5 -19l-58 -243q-4 -21 -25 -21h-247z" />
    <glyph glyph-name="Igrave" unicode="&#xcc;" horiz-adv-x="555" 
d="M-6 0q-10 0 -15.5 5t-5.5 13q0 5 1 8l169 667l144 686q4 21 26 21h333q10 0 15.5 -5t5.5 -13q0 -5 -1 -8l-172 -681l-141 -672q-4 -21 -26 -21h-333zM732 1481q-3 -10 -10.5 -14t-18.5 -2l-500 129q-18 5 -18 19q0 4 2 10l75 218q6 16 20 16q7 0 11 -2l474 -205
q16 -6 16 -21q0 -2 -2 -10z" />
    <glyph glyph-name="Iacute" unicode="&#xcd;" horiz-adv-x="555" 
d="M-6 0q-10 0 -15.5 5t-5.5 13q0 5 1 8l169 667l144 686q4 21 26 21h333q10 0 15.5 -5t5.5 -13q0 -5 -1 -8l-172 -681l-141 -672q-4 -21 -26 -21h-333zM326 1479q-2 -1 -7 -1q-17 0 -21 18l-32 139q-1 3 -1 7q0 17 17 23l517 190q4 2 11 2q15 0 18 -18l49 -220l1 -7
q0 -16 -19 -21z" />
    <glyph glyph-name="Icircumflex" unicode="&#xce;" horiz-adv-x="555" 
d="M-6 0q-10 0 -15.5 5t-5.5 13q0 5 1 8l169 667l144 686q4 21 26 21h333q10 0 15.5 -5t5.5 -13q0 -5 -1 -8l-172 -681l-141 -672q-4 -21 -26 -21h-333zM140 1621q-3 6 -3 11q0 11 13 21l339 222q13 9 30 9h111q17 0 28 -10l263 -224q9 -7 9 -18q0 -7 -4 -14l-76 -123
q-7 -12 -18 -12q-7 0 -14 4l-277 150l-316 -151q-6 -3 -12 -3q-14 0 -20 15z" />
    <glyph glyph-name="Idieresis" unicode="&#xcf;" horiz-adv-x="555" 
d="M-6 0q-10 0 -15.5 5t-5.5 13q0 5 1 8l169 667l144 686q4 21 26 21h333q10 0 15.5 -5t5.5 -13q0 -5 -1 -8l-172 -681l-141 -672q-4 -21 -26 -21h-333zM176 1480q-13 0 -18 7t-3 19l58 243q4 21 25 21h246q13 0 18 -7t3 -19l-57 -243q-6 -21 -26 -21h-246zM583 1480
q-12 0 -17.5 7t-2.5 19l57 243q4 21 26 21h246q12 0 17.5 -7t3.5 -19l-58 -243q-4 -21 -25 -21h-247z" />
    <glyph glyph-name="Eth" unicode="&#xd0;" horiz-adv-x="1465" 
d="M814 1400q191 0 339.5 -70.5t232 -205.5t83.5 -321q0 -206 -98.5 -390.5t-282.5 -298.5t-428 -114h-644q-10 0 -15.5 5t-5.5 13q0 5 1 8l149 585h-80q-12 0 -17.5 7t-2.5 19l51 220q5 21 25 21h84l104 501q4 21 26 21h479zM673 268q148 0 243.5 87.5t138.5 213.5t43 244
q0 159 -80 239t-220 80h-162l-66 -254h264q12 0 17.5 -7t2.5 -19l-51 -220q-4 -21 -25 -21h-272l-70 -343h237z" />
    <glyph glyph-name="Ntilde" unicode="&#xd1;" horiz-adv-x="1415" 
d="M-16 0q-12 0 -17.5 7t-2.5 19l167 668l146 685q4 21 26 21h377q20 0 26 -19l294 -882l61 304l135 576q3 21 25 21h294q12 0 17.5 -7t2.5 -19l-170 -680l-142 -673q-4 -21 -26 -21h-390q-20 0 -26 19l-285 877l-68 -346l-123 -529q-4 -21 -26 -21h-295zM996 1519.5
q-35 15.5 -74 43.5q-24 17 -39 25t-30 8q-28 0 -44 -19t-25 -55q-6 -21 -26 -21h-130q-11 0 -17 6.5t-5 18.5q20 128 90.5 207t178.5 79q44 0 76.5 -15t74.5 -44q24 -17 38.5 -25t28.5 -8q28 0 44 18t24 53q4 22 26 22h131q11 0 16.5 -8.5t3.5 -23.5q-22 -131 -89 -204
t-170 -73q-48 0 -83 15.5z" />
    <glyph glyph-name="Ograve" unicode="&#xd2;" horiz-adv-x="1556" 
d="M402.5 41.5q-149.5 74.5 -234.5 216.5t-85 338q0 214 100 406.5t286.5 311.5t431.5 119q190 0 339.5 -74t234.5 -216t85 -338q0 -214 -100 -407t-286 -312t-431 -119q-191 0 -340.5 74.5zM1001.5 336.5q95.5 91.5 139 223t43.5 255.5q0 169 -81 254.5t-217 85.5
q-148 0 -244 -91.5t-139.5 -223t-43.5 -255.5q0 -169 81 -254.5t218 -85.5q148 0 243.5 91.5zM1210 1481q-3 -10 -10.5 -14t-18.5 -2l-500 129q-18 5 -18 19q0 4 2 10l75 218q6 16 20 16q7 0 11 -2l474 -205q16 -6 16 -21q0 -2 -2 -10z" />
    <glyph glyph-name="Oacute" unicode="&#xd3;" horiz-adv-x="1556" 
d="M402.5 41.5q-149.5 74.5 -234.5 216.5t-85 338q0 214 100 406.5t286.5 311.5t431.5 119q190 0 339.5 -74t234.5 -216t85 -338q0 -214 -100 -407t-286 -312t-431 -119q-191 0 -340.5 74.5zM1001.5 336.5q95.5 91.5 139 223t43.5 255.5q0 169 -81 254.5t-217 85.5
q-148 0 -244 -91.5t-139.5 -223t-43.5 -255.5q0 -169 81 -254.5t218 -85.5q148 0 243.5 91.5zM804 1479q-2 -1 -7 -1q-17 0 -21 18l-32 139q-1 3 -1 7q0 17 17 23l517 190q4 2 11 2q15 0 18 -18l49 -220l1 -7q0 -16 -19 -21z" />
    <glyph glyph-name="Ocircumflex" unicode="&#xd4;" horiz-adv-x="1556" 
d="M402.5 41.5q-149.5 74.5 -234.5 216.5t-85 338q0 214 100 406.5t286.5 311.5t431.5 119q190 0 339.5 -74t234.5 -216t85 -338q0 -214 -100 -407t-286 -312t-431 -119q-191 0 -340.5 74.5zM1001.5 336.5q95.5 91.5 139 223t43.5 255.5q0 169 -81 254.5t-217 85.5
q-148 0 -244 -91.5t-139.5 -223t-43.5 -255.5q0 -169 81 -254.5t218 -85.5q148 0 243.5 91.5zM618 1621q-3 6 -3 11q0 11 13 21l339 222q13 9 30 9h111q17 0 28 -10l263 -224q9 -7 9 -18q0 -7 -4 -14l-76 -123q-7 -12 -18 -12q-7 0 -14 4l-277 150l-316 -151q-6 -3 -12 -3
q-14 0 -20 15z" />
    <glyph glyph-name="Otilde" unicode="&#xd5;" horiz-adv-x="1556" 
d="M402.5 41.5q-149.5 74.5 -234.5 216.5t-85 338q0 214 100 406.5t286.5 311.5t431.5 119q190 0 339.5 -74t234.5 -216t85 -338q0 -214 -100 -407t-286 -312t-431 -119q-191 0 -340.5 74.5zM1001.5 336.5q95.5 91.5 139 223t43.5 255.5q0 169 -81 254.5t-217 85.5
q-148 0 -244 -91.5t-139.5 -223t-43.5 -255.5q0 -169 81 -254.5t218 -85.5q148 0 243.5 91.5zM1043 1519.5q-35 15.5 -74 43.5q-24 17 -39 25t-30 8q-28 0 -44 -19t-25 -55q-6 -21 -26 -21h-130q-11 0 -17 6.5t-5 18.5q20 128 90.5 207t178.5 79q44 0 76.5 -15t74.5 -44
q24 -17 38.5 -25t28.5 -8q28 0 44 18t24 53q4 22 26 22h131q11 0 16.5 -8.5t3.5 -23.5q-22 -131 -89 -204t-170 -73q-48 0 -83 15.5z" />
    <glyph glyph-name="Odieresis" unicode="&#xd6;" horiz-adv-x="1556" 
d="M402.5 41.5q-149.5 74.5 -234.5 216.5t-85 338q0 214 100 406.5t286.5 311.5t431.5 119q190 0 339.5 -74t234.5 -216t85 -338q0 -214 -100 -407t-286 -312t-431 -119q-191 0 -340.5 74.5zM1001.5 336.5q95.5 91.5 139 223t43.5 255.5q0 169 -81 254.5t-217 85.5
q-148 0 -244 -91.5t-139.5 -223t-43.5 -255.5q0 -169 81 -254.5t218 -85.5q148 0 243.5 91.5zM653 1480q-13 0 -18 7t-3 19l58 243q4 21 25 21h246q13 0 18 -7t3 -19l-57 -243q-6 -21 -26 -21h-246zM1060 1480q-12 0 -17.5 7t-2.5 19l57 243q4 21 26 21h246q12 0 17.5 -7
t3.5 -19l-58 -243q-4 -21 -25 -21h-247z" />
    <glyph glyph-name="multiply" unicode="&#xd7;" horiz-adv-x="1170" 
d="M1139 983q7 -7 7 -15q0 -11 -10 -18l-327 -266l193 -250q6 -7 6 -15t-10 -18l-172 -156q-7 -6 -16 -6t-17 9l-200 261l-327 -265q-7 -7 -16 -7q-10 0 -17 10l-130 151q-7 7 -7 16q0 10 10 17l336 274l-186 242q-6 8 -6 16t9 17l174 153q7 7 16 7q10 0 17 -10l192 -250
l314 255q8 6 15 6q9 0 18 -9z" />
    <glyph glyph-name="Oslash" unicode="&#xd8;" horiz-adv-x="1554" 
d="M1668 1335q7 -7 7 -15q0 -9 -9 -18l-184 -173q78 -140 78 -324q0 -214 -100 -407t-286 -312t-431 -119q-112 0 -211.5 26.5t-180.5 77.5l-196 -183q-7 -7 -16 -7t-17 9l-150 175q-7 7 -7 16q0 7 8 17l186 175q-76 138 -76 323q0 214 100 406.5t286.5 311.5t431.5 119
q111 0 210 -26t179 -77l195 182q7 7 15 7q9 0 17 -9zM642 1063.5q-96 -91.5 -139.5 -223t-43.5 -255.5q0 -32 5 -65l614 572q-73 63 -192 63q-148 0 -244 -91.5zM1001.5 336.5q95.5 91.5 139 223t43.5 255.5q0 26 -6 68l-615 -574q74 -64 195 -64q148 0 243.5 91.5z" />
    <glyph glyph-name="Ugrave" unicode="&#xd9;" horiz-adv-x="1337" 
d="M319.5 20q-121.5 53 -185.5 152.5t-64 236.5q0 80 20 161l70 294l109 515q3 21 26 21h333q10 0 15.5 -5t5.5 -13q0 -5 -1 -8l-128 -500l-70 -308q-15 -63 -15 -115q0 -95 50 -145t152 -50q108 0 173.5 61t97.5 196l83 353l107 513q4 21 26 21h321q12 0 17.5 -7t2.5 -19
l-129 -510l-80 -354q-63 -274 -217.5 -408.5t-428.5 -134.5q-169 0 -290.5 53zM1132 1481q-3 -10 -10.5 -14t-18.5 -2l-500 129q-18 5 -18 19q0 4 2 10l75 218q6 16 20 16q7 0 11 -2l474 -205q16 -6 16 -21q0 -2 -2 -10z" />
    <glyph glyph-name="Uacute" unicode="&#xda;" horiz-adv-x="1337" 
d="M319.5 20q-121.5 53 -185.5 152.5t-64 236.5q0 80 20 161l70 294l109 515q3 21 26 21h333q10 0 15.5 -5t5.5 -13q0 -5 -1 -8l-128 -500l-70 -308q-15 -63 -15 -115q0 -95 50 -145t152 -50q108 0 173.5 61t97.5 196l83 353l107 513q4 21 26 21h321q12 0 17.5 -7t2.5 -19
l-129 -510l-80 -354q-63 -274 -217.5 -408.5t-428.5 -134.5q-169 0 -290.5 53zM726 1479q-2 -1 -7 -1q-17 0 -21 18l-32 139q-1 3 -1 7q0 17 17 23l517 190q4 2 11 2q15 0 18 -18l49 -220l1 -7q0 -16 -19 -21z" />
    <glyph glyph-name="Ucircumflex" unicode="&#xdb;" horiz-adv-x="1337" 
d="M319.5 20q-121.5 53 -185.5 152.5t-64 236.5q0 80 20 161l70 294l109 515q3 21 26 21h333q10 0 15.5 -5t5.5 -13q0 -5 -1 -8l-128 -500l-70 -308q-15 -63 -15 -115q0 -95 50 -145t152 -50q108 0 173.5 61t97.5 196l83 353l107 513q4 21 26 21h321q12 0 17.5 -7t2.5 -19
l-129 -510l-80 -354q-63 -274 -217.5 -408.5t-428.5 -134.5q-169 0 -290.5 53zM540 1621q-3 6 -3 11q0 11 13 21l339 222q13 9 30 9h111q17 0 28 -10l263 -224q9 -7 9 -18q0 -7 -4 -14l-76 -123q-7 -12 -18 -12q-7 0 -14 4l-277 150l-316 -151q-6 -3 -12 -3q-14 0 -20 15z
" />
    <glyph glyph-name="Udieresis" unicode="&#xdc;" horiz-adv-x="1337" 
d="M319.5 20q-121.5 53 -185.5 152.5t-64 236.5q0 80 20 161l70 294l109 515q3 21 26 21h333q10 0 15.5 -5t5.5 -13q0 -5 -1 -8l-128 -500l-70 -308q-15 -63 -15 -115q0 -95 50 -145t152 -50q108 0 173.5 61t97.5 196l83 353l107 513q4 21 26 21h321q12 0 17.5 -7t2.5 -19
l-129 -510l-80 -354q-63 -274 -217.5 -408.5t-428.5 -134.5q-169 0 -290.5 53zM575 1480q-13 0 -18 7t-3 19l58 243q4 21 25 21h246q13 0 18 -7t3 -19l-57 -243q-6 -21 -26 -21h-246zM982 1480q-12 0 -17.5 7t-2.5 19l57 243q4 21 26 21h246q12 0 17.5 -7t3.5 -19l-58 -243
q-4 -21 -25 -21h-247z" />
    <glyph glyph-name="Yacute" unicode="&#xdd;" horiz-adv-x="1311" 
d="M201 1374q-1 3 -1 8q0 8 5.5 13t15.5 5h344q22 0 25 -21l120 -571l384 577q11 15 28 15h370q9 0 14.5 -4t5.5 -10q0 -7 -6 -15l-681 -913l-92 -437q-4 -21 -26 -21h-335q-12 0 -17.5 7t-2.5 19l108 428zM691 1479q-2 -1 -7 -1q-17 0 -21 18l-32 139q-1 3 -1 7q0 17 17 23
l517 190q4 2 11 2q15 0 18 -18l49 -220l1 -7q0 -16 -19 -21z" />
    <glyph glyph-name="Thorn" unicode="&#xde;" horiz-adv-x="1255" 
d="M755 1173q260 0 384 -111.5t124 -302.5q0 -155 -76 -274.5t-221.5 -186t-347.5 -66.5h-235l-44 -211q-4 -21 -26 -21h-326q-12 0 -18 7t-3 19l167 665l147 688q4 21 26 21h325q13 0 18.5 -7t2.5 -19l-50 -201h153zM633 496q133 0 200 66.5t67 173.5q0 174 -191 174h-173
l-63 -252l-34 -162h194z" />
    <glyph glyph-name="germandbls" unicode="&#xdf;" horiz-adv-x="1231" 
d="M-22 0q-13 0 -18.5 7t-2.5 19l107 423l122 533q49 219 190 327.5t387 108.5q157 0 260 -44.5t151 -119t48 -168.5q0 -119 -75 -202.5t-217 -120.5q125 -34 183.5 -110.5t58.5 -192.5q0 -131 -68 -235t-207.5 -164.5t-345.5 -60.5h-97q-12 0 -17.5 7t-2.5 19l49 205
q6 21 26 21h55q121 0 181.5 60t60.5 157q0 76 -40.5 118t-124.5 42h-41q-12 0 -17.5 7t-2.5 19l42 179q5 21 25 21h26q100 0 149 47t49 125q0 62 -34 98t-108 36q-78 0 -123.5 -42.5t-68.5 -139.5l-125 -530l-87 -428q-3 -21 -26 -21h-321z" />
    <glyph glyph-name="agrave" unicode="&#xe0;" horiz-adv-x="1200" 
d="M1226 1030q13 0 18.5 -7t2.5 -19l-124 -504l-103 -479q-4 -21 -26 -21h-302q-21 0 -21 17q0 6 1 9l13 52q-117 -97 -269 -97q-114 0 -199.5 53.5t-132 151t-46.5 226.5q0 149 61 296.5t181.5 244t289.5 96.5q100 0 173.5 -35t118.5 -101l20 96q4 21 26 21h318z
M690.5 280.5q55.5 68.5 82 164t26.5 175.5q0 96 -40 147t-115 51q-86 0 -141 -66t-79 -157t-24 -170q0 -96 38.5 -154.5t114.5 -58.5q82 0 137.5 68.5zM972 1111q-3 -10 -10.5 -14t-18.5 -2l-500 129q-18 5 -18 19q0 4 2 10l75 218q6 16 20 16q7 0 11 -2l474 -205
q16 -6 16 -21q0 -2 -2 -10z" />
    <glyph glyph-name="aacute" unicode="&#xe1;" horiz-adv-x="1200" 
d="M1226 1030q13 0 18.5 -7t2.5 -19l-124 -504l-103 -479q-4 -21 -26 -21h-302q-21 0 -21 17q0 6 1 9l13 52q-117 -97 -269 -97q-114 0 -199.5 53.5t-132 151t-46.5 226.5q0 149 61 296.5t181.5 244t289.5 96.5q100 0 173.5 -35t118.5 -101l20 96q4 21 26 21h318z
M690.5 280.5q55.5 68.5 82 164t26.5 175.5q0 96 -40 147t-115 51q-86 0 -141 -66t-79 -157t-24 -170q0 -96 38.5 -154.5t114.5 -58.5q82 0 137.5 68.5zM566 1109q-2 -1 -7 -1q-17 0 -21 18l-32 139q-1 3 -1 7q0 17 17 23l517 190q4 2 11 2q15 0 18 -18l49 -220l1 -7
q0 -16 -19 -21z" />
    <glyph glyph-name="acircumflex" unicode="&#xe2;" horiz-adv-x="1200" 
d="M1226 1030q13 0 18.5 -7t2.5 -19l-124 -504l-103 -479q-4 -21 -26 -21h-302q-21 0 -21 17q0 6 1 9l13 52q-117 -97 -269 -97q-114 0 -199.5 53.5t-132 151t-46.5 226.5q0 149 61 296.5t181.5 244t289.5 96.5q100 0 173.5 -35t118.5 -101l20 96q4 21 26 21h318z
M690.5 280.5q55.5 68.5 82 164t26.5 175.5q0 96 -40 147t-115 51q-86 0 -141 -66t-79 -157t-24 -170q0 -96 38.5 -154.5t114.5 -58.5q82 0 137.5 68.5zM380 1251q-3 6 -3 11q0 11 13 21l339 222q13 9 30 9h111q17 0 28 -10l263 -224q9 -7 9 -18q0 -7 -4 -14l-76 -123
q-7 -12 -18 -12q-7 0 -14 4l-277 150l-316 -151q-6 -3 -12 -3q-14 0 -20 15z" />
    <glyph glyph-name="atilde" unicode="&#xe3;" horiz-adv-x="1200" 
d="M1226 1030q13 0 18.5 -7t2.5 -19l-124 -504l-103 -479q-4 -21 -26 -21h-302q-21 0 -21 17q0 6 1 9l13 52q-117 -97 -269 -97q-114 0 -199.5 53.5t-132 151t-46.5 226.5q0 149 61 296.5t181.5 244t289.5 96.5q100 0 173.5 -35t118.5 -101l20 96q4 21 26 21h318z
M690.5 280.5q55.5 68.5 82 164t26.5 175.5q0 96 -40 147t-115 51q-86 0 -141 -66t-79 -157t-24 -170q0 -96 38.5 -154.5t114.5 -58.5q82 0 137.5 68.5zM804 1149.5q-35 15.5 -74 43.5q-24 17 -39 25t-30 8q-28 0 -44 -19t-25 -55q-6 -21 -26 -21h-130q-11 0 -17 6.5t-5 18.5
q20 128 90.5 207t178.5 79q44 0 76.5 -15t74.5 -44q24 -17 38.5 -25t28.5 -8q28 0 44 18t24 53q4 22 26 22h131q11 0 16.5 -8.5t3.5 -23.5q-22 -131 -89 -204t-170 -73q-48 0 -83 15.5z" />
    <glyph glyph-name="adieresis" unicode="&#xe4;" horiz-adv-x="1200" 
d="M1226 1030q13 0 18.5 -7t2.5 -19l-124 -504l-103 -479q-4 -21 -26 -21h-302q-21 0 -21 17q0 6 1 9l13 52q-117 -97 -269 -97q-114 0 -199.5 53.5t-132 151t-46.5 226.5q0 149 61 296.5t181.5 244t289.5 96.5q100 0 173.5 -35t118.5 -101l20 96q4 21 26 21h318z
M690.5 280.5q55.5 68.5 82 164t26.5 175.5q0 96 -40 147t-115 51q-86 0 -141 -66t-79 -157t-24 -170q0 -96 38.5 -154.5t114.5 -58.5q82 0 137.5 68.5zM415 1110q-13 0 -18 7t-3 19l58 243q4 21 25 21h246q13 0 18 -7t3 -19l-57 -243q-6 -21 -26 -21h-246zM822 1110
q-12 0 -17.5 7t-2.5 19l57 243q4 21 26 21h246q12 0 17.5 -7t3.5 -19l-58 -243q-4 -21 -25 -21h-247z" />
    <glyph glyph-name="aring" unicode="&#xe5;" horiz-adv-x="1200" 
d="M1226 1030q13 0 18.5 -7t2.5 -19l-124 -504l-103 -479q-4 -21 -26 -21h-302q-21 0 -21 17q0 6 1 9l13 52q-117 -97 -269 -97q-114 0 -199.5 53.5t-132 151t-46.5 226.5q0 149 61 296.5t181.5 244t289.5 96.5q100 0 173.5 -35t118.5 -101l20 96q4 21 26 21h318z
M690.5 280.5q55.5 68.5 82 164t26.5 175.5q0 96 -40 147t-115 51q-86 0 -141 -66t-79 -157t-24 -170q0 -96 38.5 -154.5t114.5 -58.5q82 0 137.5 68.5zM643.5 1147.5q-62.5 29.5 -99.5 84t-37 125.5q0 72 39 134t107.5 99t154.5 37q76 0 138.5 -30t99 -84.5t36.5 -124.5
q0 -72 -39 -134t-107.5 -99t-154.5 -37q-75 0 -137.5 29.5zM868 1291q31 40 31 96q0 50 -26.5 78.5t-68.5 28.5q-53 0 -83.5 -41.5t-30.5 -95.5q0 -50 27 -78t69 -28q51 0 82 40z" />
    <glyph glyph-name="ae" unicode="&#xe6;" horiz-adv-x="1960" 
d="M1715 998q102 -57 157 -158.5t55 -232.5q0 -67 -17 -146q-4 -21 -26 -21h-700v-8q1 -118 44.5 -170.5t123.5 -52.5q68 0 113 33t67 91q7 19 27 19h294q12 0 18.5 -5.5t3.5 -15.5q-27 -105 -96.5 -185.5t-176 -125.5t-241.5 -45q-102 0 -186.5 27t-144.5 79l-13 -60
q-5 -21 -26 -21h-299q-12 0 -17.5 7t-3.5 19l13 52q-115 -97 -268 -97q-114 0 -199.5 53.5t-132 151t-46.5 226.5q0 149 61 296.5t181.5 244t289.5 96.5q174 0 268 -105l15 65q4 21 26 21h299q12 0 17.5 -7t3.5 -18l-9 -36q121 86 285 86q138 0 240 -57zM1570 647q1 7 1 20
q0 69 -40 112.5t-114 43.5q-76 0 -127.5 -47t-78.5 -129h359zM690.5 280.5q55.5 68.5 82 164t26.5 175.5q0 96 -40 147t-115 51q-86 0 -141 -66t-79 -157t-24 -170q0 -96 38.5 -154.5t114.5 -58.5q82 0 137.5 68.5z" />
    <glyph glyph-name="ccedilla" unicode="&#xe7;" horiz-adv-x="1133" 
d="M890.5 1008.5q102.5 -46.5 160.5 -133.5t62 -204q0 -24 -23 -24h-295q-23 0 -23 24q-6 72 -45 110t-99 38q-74 0 -124.5 -60t-75.5 -150.5t-25 -179.5q0 -111 38 -165t108 -54q67 0 114.5 44t70.5 118q6 20 26 20h295q12 0 18 -6t3 -16q-26 -106 -88 -190t-156.5 -136.5
t-214.5 -65.5l-156 -329q-9 -18 -29 -15l-275 40q-18 3 -18 16q0 6 4 13l178 308q-130 49 -203.5 159.5t-73.5 273.5q0 161 73 301t211.5 225t324.5 85q135 0 237.5 -46.5z" />
    <glyph glyph-name="egrave" unicode="&#xe8;" horiz-adv-x="1174" 
d="M910.5 997q110.5 -58 169.5 -161t59 -236q0 -69 -16 -139q-4 -21 -25 -21h-702v-20q2 -106 47.5 -158.5t124.5 -52.5q65 0 110 33t68 91q7 19 27 19h293q13 0 19 -5.5t3 -15.5q-28 -107 -98.5 -187t-180 -124.5t-249.5 -44.5q-151 0 -267.5 54.5t-182.5 160.5t-66 255
q0 161 74 301t212.5 224.5t321.5 84.5q148 0 258.5 -58zM783 647q1 7 1 20q0 70 -40 113.5t-115 43.5q-76 0 -127 -46t-78 -131h359zM959 1111q-3 -10 -10.5 -14t-18.5 -2l-500 129q-18 5 -18 19q0 4 2 10l75 218q6 16 20 16q7 0 11 -2l474 -205q16 -6 16 -21q0 -2 -2 -10z
" />
    <glyph glyph-name="eacute" unicode="&#xe9;" horiz-adv-x="1174" 
d="M910.5 997q110.5 -58 169.5 -161t59 -236q0 -69 -16 -139q-4 -21 -25 -21h-702v-20q2 -106 47.5 -158.5t124.5 -52.5q65 0 110 33t68 91q7 19 27 19h293q13 0 19 -5.5t3 -15.5q-28 -107 -98.5 -187t-180 -124.5t-249.5 -44.5q-151 0 -267.5 54.5t-182.5 160.5t-66 255
q0 161 74 301t212.5 224.5t321.5 84.5q148 0 258.5 -58zM783 647q1 7 1 20q0 70 -40 113.5t-115 43.5q-76 0 -127 -46t-78 -131h359zM553 1109q-2 -1 -7 -1q-17 0 -21 18l-32 139q-1 3 -1 7q0 17 17 23l517 190q4 2 11 2q15 0 18 -18l49 -220l1 -7q0 -16 -19 -21z" />
    <glyph glyph-name="ecircumflex" unicode="&#xea;" horiz-adv-x="1174" 
d="M910.5 997q110.5 -58 169.5 -161t59 -236q0 -69 -16 -139q-4 -21 -25 -21h-702v-20q2 -106 47.5 -158.5t124.5 -52.5q65 0 110 33t68 91q7 19 27 19h293q13 0 19 -5.5t3 -15.5q-28 -107 -98.5 -187t-180 -124.5t-249.5 -44.5q-151 0 -267.5 54.5t-182.5 160.5t-66 255
q0 161 74 301t212.5 224.5t321.5 84.5q148 0 258.5 -58zM783 647q1 7 1 20q0 70 -40 113.5t-115 43.5q-76 0 -127 -46t-78 -131h359zM367 1251q-3 6 -3 11q0 11 13 21l339 222q13 9 30 9h111q17 0 28 -10l263 -224q9 -7 9 -18q0 -7 -4 -14l-76 -123q-7 -12 -18 -12
q-7 0 -14 4l-277 150l-316 -151q-6 -3 -12 -3q-14 0 -20 15z" />
    <glyph glyph-name="edieresis" unicode="&#xeb;" horiz-adv-x="1174" 
d="M910.5 997q110.5 -58 169.5 -161t59 -236q0 -69 -16 -139q-4 -21 -25 -21h-702v-20q2 -106 47.5 -158.5t124.5 -52.5q65 0 110 33t68 91q7 19 27 19h293q13 0 19 -5.5t3 -15.5q-28 -107 -98.5 -187t-180 -124.5t-249.5 -44.5q-151 0 -267.5 54.5t-182.5 160.5t-66 255
q0 161 74 301t212.5 224.5t321.5 84.5q148 0 258.5 -58zM783 647q1 7 1 20q0 70 -40 113.5t-115 43.5q-76 0 -127 -46t-78 -131h359zM402 1110q-13 0 -18 7t-3 19l58 243q4 21 25 21h246q13 0 18 -7t3 -19l-57 -243q-6 -21 -26 -21h-246zM809 1110q-12 0 -17.5 7t-2.5 19
l57 243q4 21 26 21h246q12 0 17.5 -7t3.5 -19l-58 -243q-4 -21 -25 -21h-247z" />
    <glyph glyph-name="igrave" unicode="&#xec;" horiz-adv-x="514" 
d="M618 1120q-6 -16 -21 -16q-5 0 -8 1l-440 106q-17 5 -17 19q0 7 2 11l86 215q6 15 21 15q6 0 10 -2l409 -182q15 -6 15 -20q0 -3 -2 -11zM-20 0q-12 0 -18 7t-3 19l121 479l107 504q3 21 26 21h321q12 0 18 -7t3 -19l-127 -499l-100 -484q-4 -21 -26 -21h-322z" />
    <glyph glyph-name="iacute" unicode="&#xed;" horiz-adv-x="514" 
d="M212 1105q-2 -1 -7 -1q-8 0 -14 5t-7 14l-33 139q-1 3 -1 7q0 16 17 22l472 178q8 2 10 2q8 0 13.5 -5t6.5 -13l48 -220q1 -3 1 -8q0 -8 -5 -13.5t-14 -6.5zM-20 0q-12 0 -18 7t-3 19l121 479l107 504q3 21 26 21h321q12 0 18 -7t3 -19l-127 -499l-100 -484
q-4 -21 -26 -21h-322z" />
    <glyph glyph-name="icircumflex" unicode="&#xee;" horiz-adv-x="513" 
d="M94 1245q-3 6 -3 12q0 11 11 20l282 227q13 10 29 10h109q19 0 29 -13l208 -223q8 -10 8 -18q0 -7 -6 -16l-81 -118q-8 -11 -18 -11q-8 0 -14 5l-215 149l-259 -149q-7 -4 -13 -4q-12 0 -18 15zM-20 0q-12 0 -18 7t-3 19l121 479l107 504q3 21 26 21h321q12 0 18 -7
t3 -19l-127 -499l-100 -484q-4 -21 -26 -21h-322z" />
    <glyph glyph-name="idieresis" unicode="&#xef;" horiz-adv-x="513" 
d="M122 1110q-12 0 -17 7t-3 19l56 243q5 21 26 21h215q12 0 17 -7t3 -19l-57 -243q-3 -21 -25 -21h-215zM460 1110q-12 0 -17 7t-3 19l56 243q5 21 26 21h214q12 0 17 -7t3 -19l-57 -243q-3 -21 -25 -21h-214zM-20 0q-12 0 -18 7t-3 19l121 479l107 504q3 21 26 21h321
q12 0 18 -7t3 -19l-127 -499l-100 -484q-4 -21 -26 -21h-322z" />
    <glyph glyph-name="eth" unicode="&#xf0;" horiz-adv-x="1211" 
d="M1240 1335q6 2 9 2q8 0 13.5 -5t6.5 -13l34 -145q1 -3 1 -9q0 -15 -17 -20l-190 -55q87 -165 87 -382q0 -196 -67.5 -363t-213 -270t-367.5 -103q-147 0 -261 47.5t-179 141t-65 226.5q0 135 66 250.5t186 184.5t275 69q97 0 172 -31.5t123 -87.5q2 27 2 57q0 92 -49 176
l-242 -71q-6 -2 -9 -2q-7 0 -12.5 5t-7.5 14l-35 145q-1 3 -1 8q0 16 18 20l141 42q-66 51 -148 87q-14 8 -14 18q0 8 7 15l152 162q9 9 19 9q7 0 14 -3q174 -85 284 -197zM669 247.5q48 40.5 71.5 103t23.5 127.5q0 81 -40 128t-113 47q-67 0 -114.5 -40.5t-70.5 -103
t-23 -127.5q0 -81 38.5 -128t111.5 -47q68 0 116 40.5z" />
    <glyph glyph-name="ntilde" unicode="&#xf1;" horiz-adv-x="1171" 
d="M-26 0q-12 0 -17.5 7t-3.5 19l121 481l112 502q4 21 25 21h299q13 0 18.5 -7t2.5 -19l-22 -90q65 64 148.5 102t178.5 38q90 0 160.5 -34.5t110.5 -102t40 -162.5q0 -55 -15 -121l-48 -197l-88 -416q-4 -21 -26 -21h-320q-12 0 -17.5 7t-2.5 19l95 369l46 219q7 32 7 63
q0 55 -27 85.5t-81 30.5q-100 0 -161 -96.5t-90 -221.5l-20 -85l-76 -369q-4 -21 -26 -21h-323zM798 1149.5q-35 15.5 -74 43.5q-24 17 -39 25t-30 8q-28 0 -44 -19t-25 -55q-6 -21 -26 -21h-130q-11 0 -17 6.5t-5 18.5q20 128 90.5 207t178.5 79q44 0 76.5 -15t74.5 -44
q24 -17 38.5 -25t28.5 -8q28 0 44 18t24 53q4 22 26 22h131q11 0 16.5 -8.5t3.5 -23.5q-22 -131 -89 -204t-170 -73q-48 0 -83 15.5z" />
    <glyph glyph-name="ograve" unicode="&#xf2;" horiz-adv-x="1197" 
d="M285 29.5q-113 54.5 -177 160.5t-64 255q0 161 74.5 301t213.5 224.5t323 84.5q144 0 256.5 -54.5t176.5 -160.5t64 -254q0 -161 -74.5 -301t-213.5 -225t-322 -85q-144 0 -257 54.5zM689.5 271.5q53.5 62.5 78.5 154t25 176.5q0 108 -40.5 163.5t-112.5 55.5
q-79 0 -132.5 -61.5t-79 -152.5t-25.5 -179q0 -109 40.5 -164t111.5 -55q81 0 134.5 62.5zM969 1111q-3 -10 -10.5 -14t-18.5 -2l-500 129q-18 5 -18 19q0 4 2 10l75 218q6 16 20 16q7 0 11 -2l474 -205q16 -6 16 -21q0 -2 -2 -10z" />
    <glyph glyph-name="oacute" unicode="&#xf3;" horiz-adv-x="1197" 
d="M285 29.5q-113 54.5 -177 160.5t-64 255q0 161 74.5 301t213.5 224.5t323 84.5q144 0 256.5 -54.5t176.5 -160.5t64 -254q0 -161 -74.5 -301t-213.5 -225t-322 -85q-144 0 -257 54.5zM689.5 271.5q53.5 62.5 78.5 154t25 176.5q0 108 -40.5 163.5t-112.5 55.5
q-79 0 -132.5 -61.5t-79 -152.5t-25.5 -179q0 -109 40.5 -164t111.5 -55q81 0 134.5 62.5zM563 1109q-2 -1 -7 -1q-17 0 -21 18l-32 139q-1 3 -1 7q0 17 17 23l517 190q4 2 11 2q15 0 18 -18l49 -220l1 -7q0 -16 -19 -21z" />
    <glyph glyph-name="ocircumflex" unicode="&#xf4;" horiz-adv-x="1197" 
d="M285 29.5q-113 54.5 -177 160.5t-64 255q0 161 74.5 301t213.5 224.5t323 84.5q144 0 256.5 -54.5t176.5 -160.5t64 -254q0 -161 -74.5 -301t-213.5 -225t-322 -85q-144 0 -257 54.5zM689.5 271.5q53.5 62.5 78.5 154t25 176.5q0 108 -40.5 163.5t-112.5 55.5
q-79 0 -132.5 -61.5t-79 -152.5t-25.5 -179q0 -109 40.5 -164t111.5 -55q81 0 134.5 62.5zM377 1251q-3 6 -3 11q0 11 13 21l339 222q13 9 30 9h111q17 0 28 -10l263 -224q9 -7 9 -18q0 -7 -4 -14l-76 -123q-7 -12 -18 -12q-7 0 -14 4l-277 150l-316 -151q-6 -3 -12 -3
q-14 0 -20 15z" />
    <glyph glyph-name="otilde" unicode="&#xf5;" horiz-adv-x="1197" 
d="M285 29.5q-113 54.5 -177 160.5t-64 255q0 161 74.5 301t213.5 224.5t323 84.5q144 0 256.5 -54.5t176.5 -160.5t64 -254q0 -161 -74.5 -301t-213.5 -225t-322 -85q-144 0 -257 54.5zM689.5 271.5q53.5 62.5 78.5 154t25 176.5q0 108 -40.5 163.5t-112.5 55.5
q-79 0 -132.5 -61.5t-79 -152.5t-25.5 -179q0 -109 40.5 -164t111.5 -55q81 0 134.5 62.5zM801 1149.5q-35 15.5 -74 43.5q-24 17 -39 25t-30 8q-28 0 -44 -19t-25 -55q-6 -21 -26 -21h-130q-11 0 -17 6.5t-5 18.5q20 128 90.5 207t178.5 79q44 0 76.5 -15t74.5 -44
q24 -17 38.5 -25t28.5 -8q28 0 44 18t24 53q4 22 26 22h131q11 0 16.5 -8.5t3.5 -23.5q-22 -131 -89 -204t-170 -73q-48 0 -83 15.5z" />
    <glyph glyph-name="odieresis" unicode="&#xf6;" horiz-adv-x="1197" 
d="M285 29.5q-113 54.5 -177 160.5t-64 255q0 161 74.5 301t213.5 224.5t323 84.5q144 0 256.5 -54.5t176.5 -160.5t64 -254q0 -161 -74.5 -301t-213.5 -225t-322 -85q-144 0 -257 54.5zM689.5 271.5q53.5 62.5 78.5 154t25 176.5q0 108 -40.5 163.5t-112.5 55.5
q-79 0 -132.5 -61.5t-79 -152.5t-25.5 -179q0 -109 40.5 -164t111.5 -55q81 0 134.5 62.5zM412 1110q-13 0 -18 7t-3 19l58 243q4 21 25 21h246q13 0 18 -7t3 -19l-57 -243q-6 -21 -26 -21h-246zM819 1110q-12 0 -17.5 7t-2.5 19l57 243q4 21 26 21h246q12 0 17.5 -7
t3.5 -19l-58 -243q-4 -21 -25 -21h-247z" />
    <glyph glyph-name="divide" unicode="&#xf7;" horiz-adv-x="1170" 
d="M529 952q-12 0 -17.5 7t-2.5 19l65 282q5 21 26 21h320q12 0 17 -7t3 -19l-66 -282q-3 -21 -25 -21h-320zM142 558q-12 0 -17.5 7t-2.5 19l49 215q5 21 26 21h913q12 0 17 -7t3 -19l-50 -215q-3 -21 -25 -21h-913zM333 99q-12 0 -17.5 7t-2.5 19l65 282q5 21 26 21h320
q12 0 17 -7t3 -19l-66 -282q-3 -21 -25 -21h-320z" />
    <glyph glyph-name="oslash" unicode="&#xf8;" horiz-adv-x="1194" 
d="M275 37l-142 -135q-8 -8 -15 -8q-10 0 -18 11l-103 124q-7 9 -7 16q0 8 9 17l120 113q-75 111 -75 270q0 161 74.5 301t213.5 224.5t323 84.5q152 0 265 -59l139 132q8 8 16 8q10 0 18 -11l102 -124q7 -9 7 -16q0 -8 -9 -16l-116 -110q75 -114 75 -273q0 -161 -74.5 -301
t-213.5 -225t-322 -85q-155 0 -267 62zM514 766.5q-52 -54.5 -78.5 -137t-30.5 -167.5v-30l332 351q-37 38 -97 38q-74 0 -126 -54.5zM683 265q52 56 78.5 139.5t30.5 167.5q0 22 -1 32l-334 -356q37 -39 98 -39q76 0 128 56z" />
    <glyph glyph-name="ugrave" unicode="&#xf9;" 
d="M1198 1030q12 0 17.5 -7t2.5 -19l-120 -481l-112 -502q-4 -21 -25 -21h-299q-13 0 -18.5 7t-2.5 19l22 90q-65 -64 -148.5 -102t-178.5 -38q-90 0 -160.5 34.5t-111 101.5t-40.5 161q0 59 16 123l48 197l88 416q4 21 26 21h320q12 0 17.5 -7t2.5 -19l-95 -369l-45 -219
q-7 -32 -7 -64q0 -55 27 -85t80 -30q100 0 160.5 96.5t89.5 221.5l21 85l76 369q5 21 26 21h323zM951 1111q-3 -10 -10.5 -14t-18.5 -2l-500 129q-18 5 -18 19q0 4 2 10l75 218q6 16 20 16q7 0 11 -2l474 -205q16 -6 16 -21q0 -2 -2 -10z" />
    <glyph glyph-name="uacute" unicode="&#xfa;" 
d="M1198 1030q12 0 17.5 -7t2.5 -19l-120 -481l-112 -502q-4 -21 -25 -21h-299q-13 0 -18.5 7t-2.5 19l22 90q-65 -64 -148.5 -102t-178.5 -38q-90 0 -160.5 34.5t-111 101.5t-40.5 161q0 59 16 123l48 197l88 416q4 21 26 21h320q12 0 17.5 -7t2.5 -19l-95 -369l-45 -219
q-7 -32 -7 -64q0 -55 27 -85t80 -30q100 0 160.5 96.5t89.5 221.5l21 85l76 369q5 21 26 21h323zM545 1109q-2 -1 -7 -1q-17 0 -21 18l-32 139q-1 3 -1 7q0 17 17 23l517 190q4 2 11 2q15 0 18 -18l49 -220l1 -7q0 -16 -19 -21z" />
    <glyph glyph-name="ucircumflex" unicode="&#xfb;" 
d="M1198 1030q12 0 17.5 -7t2.5 -19l-120 -481l-112 -502q-4 -21 -25 -21h-299q-13 0 -18.5 7t-2.5 19l22 90q-65 -64 -148.5 -102t-178.5 -38q-90 0 -160.5 34.5t-111 101.5t-40.5 161q0 59 16 123l48 197l88 416q4 21 26 21h320q12 0 17.5 -7t2.5 -19l-95 -369l-45 -219
q-7 -32 -7 -64q0 -55 27 -85t80 -30q100 0 160.5 96.5t89.5 221.5l21 85l76 369q5 21 26 21h323zM359 1251q-3 6 -3 11q0 11 13 21l339 222q13 9 30 9h111q17 0 28 -10l263 -224q9 -7 9 -18q0 -7 -4 -14l-76 -123q-7 -12 -18 -12q-7 0 -14 4l-277 150l-316 -151
q-6 -3 -12 -3q-14 0 -20 15z" />
    <glyph glyph-name="udieresis" unicode="&#xfc;" 
d="M1198 1030q12 0 17.5 -7t2.5 -19l-120 -481l-112 -502q-4 -21 -25 -21h-299q-13 0 -18.5 7t-2.5 19l22 90q-65 -64 -148.5 -102t-178.5 -38q-90 0 -160.5 34.5t-111 101.5t-40.5 161q0 59 16 123l48 197l88 416q4 21 26 21h320q12 0 17.5 -7t2.5 -19l-95 -369l-45 -219
q-7 -32 -7 -64q0 -55 27 -85t80 -30q100 0 160.5 96.5t89.5 221.5l21 85l76 369q5 21 26 21h323zM394 1110q-13 0 -18 7t-3 19l58 243q4 21 25 21h246q13 0 18 -7t3 -19l-57 -243q-6 -21 -26 -21h-246zM801 1110q-12 0 -17.5 7t-2.5 19l57 243q4 21 26 21h246q12 0 17.5 -7
t3.5 -19l-58 -243q-4 -21 -25 -21h-247z" />
    <glyph glyph-name="yacute" unicode="&#xfd;" horiz-adv-x="1116" 
d="M136 -340q-10 0 -15 4t-5 11q0 6 4 13l162 289l-168 1028q-2 11 4 18t18 7h322q22 0 25 -22l62 -603l310 608q7 17 27 17h331q10 0 15 -4t5 -11q0 -6 -4 -13l-758 -1326q-8 -16 -28 -16h-307zM517 1109q-2 -1 -7 -1q-17 0 -21 18l-32 139q-1 3 -1 7q0 17 17 23l517 190
q4 2 11 2q15 0 18 -18l49 -220l1 -7q0 -16 -19 -21z" />
    <glyph glyph-name="thorn" unicode="&#xfe;" horiz-adv-x="1207" 
d="M990.5 995.5q85.5 -53.5 132 -151t46.5 -226.5q0 -149 -61 -296.5t-181.5 -244t-289.5 -96.5q-101 0 -175 36t-119 105l-98 -441q-4 -21 -26 -21h-322q-12 0 -17.5 7t-3.5 19l217 907l174 786q4 21 25 21h313q12 0 18 -7t3 -19l-105 -423q118 98 270 98
q114 0 199.5 -53.5zM704 275.5q55 66.5 79 158.5t24 171q0 98 -38 157t-114 59q-83 0 -138.5 -69t-82 -165.5t-26.5 -176.5q0 -98 40 -149.5t114 -51.5q87 0 142 66.5z" />
    <glyph glyph-name="ydieresis" unicode="&#xff;" horiz-adv-x="1116" 
d="M136 -340q-10 0 -15 4t-5 11q0 6 4 13l162 289l-168 1028q-2 11 4 18t18 7h322q22 0 25 -22l62 -603l310 608q7 17 27 17h331q10 0 15 -4t5 -11q0 -6 -4 -13l-758 -1326q-8 -16 -28 -16h-307zM366 1110q-13 0 -18 7t-3 19l58 243q4 21 25 21h246q13 0 18 -7t3 -19
l-57 -243q-6 -21 -26 -21h-246zM773 1110q-12 0 -17.5 7t-2.5 19l57 243q4 21 26 21h246q12 0 17.5 -7t3.5 -19l-58 -243q-4 -21 -25 -21h-247z" />
    <glyph glyph-name="Amacron" unicode="&#x100;" horiz-adv-x="1442" 
d="M1322 25q1 -12 -5 -18.5t-17 -6.5h-313q-23 0 -24 23l-23 299h-489l-159 -305q-9 -17 -28 -17h-354q-10 0 -15 4t-5 11q0 6 4 13l778 1356q8 16 28 16h461q23 0 25 -22zM918 611l-41 528l-276 -528h317zM632 1510q-12 0 -17.5 7t-2.5 19l42 178q4 21 26 21h636
q12 0 17.5 -7t3.5 -19l-43 -178q-4 -21 -25 -21h-637z" />
    <glyph glyph-name="amacron" unicode="&#x101;" horiz-adv-x="1200" 
d="M1226 1030q13 0 18.5 -7t2.5 -19l-124 -504l-103 -479q-4 -21 -26 -21h-302q-21 0 -21 17q0 6 1 9l13 52q-117 -97 -269 -97q-114 0 -199.5 53.5t-132 151t-46.5 226.5q0 149 61 296.5t181.5 244t289.5 96.5q100 0 173.5 -35t118.5 -101l20 96q4 21 26 21h318z
M690.5 280.5q55.5 68.5 82 164t26.5 175.5q0 96 -40 147t-115 51q-86 0 -141 -66t-79 -157t-24 -170q0 -96 38.5 -154.5t114.5 -58.5q82 0 137.5 68.5zM431 1140q-12 0 -17.5 7t-2.5 19l42 178q4 21 26 21h636q12 0 17.5 -7t3.5 -19l-43 -178q-4 -21 -25 -21h-637z" />
    <glyph glyph-name="Abreve" unicode="&#x102;" horiz-adv-x="1442" 
d="M1322 25q1 -12 -5 -18.5t-17 -6.5h-313q-23 0 -24 23l-23 299h-489l-159 -305q-9 -17 -28 -17h-354q-10 0 -15 4t-5 11q0 6 4 13l778 1356q8 16 28 16h461q23 0 25 -22zM918 611l-41 528l-276 -528h317zM797.5 1534q-76.5 39 -117.5 107t-41 154q0 20 1 30q1 22 24 22
h184q23 0 23 -26q0 -49 31.5 -78.5t90.5 -29.5q58 0 97.5 30.5t57.5 83.5q6 20 26 20h185q12 0 18.5 -6t4.5 -17q-19 -95 -73.5 -169.5t-140.5 -117t-193 -42.5q-101 0 -177.5 39z" />
    <glyph glyph-name="abreve" unicode="&#x103;" horiz-adv-x="1200" 
d="M1226 1030q13 0 18.5 -7t2.5 -19l-124 -504l-103 -479q-4 -21 -26 -21h-302q-21 0 -21 17q0 6 1 9l13 52q-117 -97 -269 -97q-114 0 -199.5 53.5t-132 151t-46.5 226.5q0 149 61 296.5t181.5 244t289.5 96.5q100 0 173.5 -35t118.5 -101l20 96q4 21 26 21h318z
M690.5 280.5q55.5 68.5 82 164t26.5 175.5q0 96 -40 147t-115 51q-86 0 -141 -66t-79 -157t-24 -170q0 -96 38.5 -154.5t114.5 -58.5q82 0 137.5 68.5zM596.5 1164q-76.5 39 -117.5 107t-41 154q0 20 1 30q1 22 24 22h184q23 0 23 -26q0 -49 31.5 -78.5t90.5 -29.5
q58 0 97.5 30.5t57.5 83.5q6 20 26 20h185q12 0 18.5 -6t4.5 -17q-19 -95 -73.5 -169.5t-140.5 -117t-193 -42.5q-101 0 -177.5 39z" />
    <glyph glyph-name="Aogonek" unicode="&#x104;" horiz-adv-x="1442" 
d="M1322 25q1 -12 -5 -18.5t-17 -6.5h-161q-29 -25 -52 -67.5t-23 -78.5q0 -63 95 -63h79q13 0 18 -7t3 -19l-43 -184q-4 -21 -26 -21h-119q-95 0 -161.5 27.5t-99.5 76.5t-33 112q0 79 50 141.5t136 101.5v4l-23 299h-489l-159 -305q-9 -17 -28 -17h-354q-10 0 -15 4t-5 11
q0 6 4 13l778 1356q8 16 28 16h461q23 0 25 -22zM877 1139l-276 -528h317z" />
    <glyph glyph-name="aogonek" unicode="&#x105;" horiz-adv-x="1200" 
d="M1226 1030q13 0 18.5 -7t2.5 -19l-124 -504l-103 -479q-4 -21 -26 -21h-119q-29 -25 -52 -67.5t-23 -78.5q0 -63 95 -63h79q13 0 18 -7t3 -19l-43 -184q-4 -21 -26 -21h-119q-95 0 -161.5 27.5t-99.5 76.5t-33 112q0 73 43 131.5t118 98.5q-4 6 -4 11q0 3 2 9l13 52
q-117 -97 -269 -97q-114 0 -199.5 53.5t-132 151t-46.5 226.5q0 149 61 296.5t181.5 244t289.5 96.5q100 0 173.5 -35t118.5 -101l20 96q4 21 26 21h318zM690.5 280.5q55.5 68.5 82 164t26.5 175.5q0 96 -40 147t-115 51q-86 0 -141 -66t-79 -157t-24 -170
q0 -96 38.5 -154.5t114.5 -58.5q82 0 137.5 68.5z" />
    <glyph glyph-name="Cacute" unicode="&#x106;" horiz-adv-x="1468" 
d="M395.5 41q-146.5 74 -229 217t-82.5 341q0 213 97.5 405t280.5 310.5t428 118.5q174 0 304 -62t206 -177.5t88 -273.5q1 -11 -5.5 -17.5t-17.5 -6.5h-305q-22 0 -25 23q-14 117 -83.5 176.5t-181.5 59.5q-143 0 -235.5 -91.5t-133.5 -222.5t-41 -253q0 -172 79 -257.5
t214 -85.5q115 0 192.5 63t118.5 177q7 19 26 19h313q12 0 18 -6.5t3 -16.5q-43 -153 -137.5 -269t-236 -180.5t-319.5 -64.5q-189 0 -335.5 74zM758 1479q-2 -1 -7 -1q-17 0 -21 18l-32 139q-1 3 -1 7q0 17 17 23l517 190q4 2 11 2q15 0 18 -18l49 -220l1 -7q0 -16 -19 -21
z" />
    <glyph glyph-name="cacute" unicode="&#x107;" horiz-adv-x="1133" 
d="M281 28.5q-112 54.5 -174.5 160t-62.5 255.5q0 161 73 301t211.5 225t324.5 85q135 0 237.5 -46.5t160.5 -133.5t62 -204q0 -24 -23 -24h-295q-23 0 -23 24q-6 72 -45 110t-99 38q-74 0 -124.5 -60t-75.5 -150.5t-25 -179.5q0 -111 38 -165t108 -54q67 0 114.5 44
t70.5 118q6 20 26 20h295q12 0 18 -6t3 -16q-29 -118 -101.5 -207t-184 -139t-251.5 -50q-146 0 -258 54.5zM533 1109q-2 -1 -7 -1q-17 0 -21 18l-32 139q-1 3 -1 7q0 17 17 23l517 190q4 2 11 2q15 0 18 -18l49 -220l1 -7q0 -16 -19 -21z" />
    <glyph glyph-name="Ccircumflex" unicode="&#x108;" horiz-adv-x="1468" 
d="M395.5 41q-146.5 74 -229 217t-82.5 341q0 213 97.5 405t280.5 310.5t428 118.5q174 0 304 -62t206 -177.5t88 -273.5q1 -11 -5.5 -17.5t-17.5 -6.5h-305q-22 0 -25 23q-14 117 -83.5 176.5t-181.5 59.5q-143 0 -235.5 -91.5t-133.5 -222.5t-41 -253q0 -172 79 -257.5
t214 -85.5q115 0 192.5 63t118.5 177q7 19 26 19h313q12 0 18 -6.5t3 -16.5q-43 -153 -137.5 -269t-236 -180.5t-319.5 -64.5q-189 0 -335.5 74zM572 1621q-3 6 -3 11q0 11 13 21l339 222q13 9 30 9h111q17 0 28 -10l263 -224q9 -7 9 -18q0 -7 -4 -14l-76 -123
q-7 -12 -18 -12q-7 0 -14 4l-277 150l-316 -151q-6 -3 -12 -3q-14 0 -20 15z" />
    <glyph glyph-name="ccircumflex" unicode="&#x109;" horiz-adv-x="1133" 
d="M281 28.5q-112 54.5 -174.5 160t-62.5 255.5q0 161 73 301t211.5 225t324.5 85q135 0 237.5 -46.5t160.5 -133.5t62 -204q0 -24 -23 -24h-295q-23 0 -23 24q-6 72 -45 110t-99 38q-74 0 -124.5 -60t-75.5 -150.5t-25 -179.5q0 -111 38 -165t108 -54q67 0 114.5 44
t70.5 118q6 20 26 20h295q12 0 18 -6t3 -16q-29 -118 -101.5 -207t-184 -139t-251.5 -50q-146 0 -258 54.5zM347 1251q-3 6 -3 11q0 11 13 21l339 222q13 9 30 9h111q17 0 28 -10l263 -224q9 -7 9 -18q0 -7 -4 -14l-76 -123q-7 -12 -18 -12q-7 0 -14 4l-277 150l-316 -151
q-6 -3 -12 -3q-14 0 -20 15z" />
    <glyph glyph-name="Cdotaccent" unicode="&#x10a;" horiz-adv-x="1468" 
d="M395.5 41q-146.5 74 -229 217t-82.5 341q0 213 97.5 405t280.5 310.5t428 118.5q174 0 304 -62t206 -177.5t88 -273.5q1 -11 -5.5 -17.5t-17.5 -6.5h-305q-22 0 -25 23q-14 117 -83.5 176.5t-181.5 59.5q-143 0 -235.5 -91.5t-133.5 -222.5t-41 -253q0 -172 79 -257.5
t214 -85.5q115 0 192.5 63t118.5 177q7 19 26 19h313q12 0 18 -6.5t3 -16.5q-43 -153 -137.5 -269t-236 -180.5t-319.5 -64.5q-189 0 -335.5 74zM776 1492q-12 0 -18 7t-3 19l57 241q4 21 26 21h317q12 0 17.5 -7t3.5 -19l-58 -242q-4 -20 -25 -20h-317z" />
    <glyph glyph-name="cdotaccent" unicode="&#x10b;" horiz-adv-x="1133" 
d="M281 28.5q-112 54.5 -174.5 160t-62.5 255.5q0 161 73 301t211.5 225t324.5 85q135 0 237.5 -46.5t160.5 -133.5t62 -204q0 -24 -23 -24h-295q-23 0 -23 24q-6 72 -45 110t-99 38q-74 0 -124.5 -60t-75.5 -150.5t-25 -179.5q0 -111 38 -165t108 -54q67 0 114.5 44
t70.5 118q6 20 26 20h295q12 0 18 -6t3 -16q-29 -118 -101.5 -207t-184 -139t-251.5 -50q-146 0 -258 54.5zM551 1112q-12 0 -18 7t-3 19l57 241q4 21 26 21h317q12 0 17.5 -7t3.5 -19l-58 -242q-4 -20 -25 -20h-317z" />
    <glyph glyph-name="Ccaron" unicode="&#x10c;" horiz-adv-x="1468" 
d="M395.5 41q-146.5 74 -229 217t-82.5 341q0 213 97.5 405t280.5 310.5t428 118.5q174 0 304 -62t206 -177.5t88 -273.5q1 -11 -5.5 -17.5t-17.5 -6.5h-305q-22 0 -25 23q-14 117 -83.5 176.5t-181.5 59.5q-143 0 -235.5 -91.5t-133.5 -222.5t-41 -253q0 -172 79 -257.5
t214 -85.5q115 0 192.5 63t118.5 177q7 19 26 19h313q12 0 18 -6.5t3 -16.5q-43 -153 -137.5 -269t-236 -180.5t-319.5 -64.5q-189 0 -335.5 74zM596 1723q-10 7 -10 19q0 6 5 14l76 122q7 12 18 12q7 0 14 -4l277 -150l316 151q6 3 12 3q13 0 19 -15l53 -123q3 -6 3 -12
q0 -12 -12 -20l-340 -222q-14 -9 -29 -9h-111q-17 0 -29 11z" />
    <glyph glyph-name="ccaron" unicode="&#x10d;" horiz-adv-x="1133" 
d="M281 28.5q-112 54.5 -174.5 160t-62.5 255.5q0 161 73 301t211.5 225t324.5 85q135 0 237.5 -46.5t160.5 -133.5t62 -204q0 -24 -23 -24h-295q-23 0 -23 24q-6 72 -45 110t-99 38q-74 0 -124.5 -60t-75.5 -150.5t-25 -179.5q0 -111 38 -165t108 -54q67 0 114.5 44
t70.5 118q6 20 26 20h295q12 0 18 -6t3 -16q-29 -118 -101.5 -207t-184 -139t-251.5 -50q-146 0 -258 54.5zM371 1353q-10 7 -10 19q0 6 5 14l76 122q7 12 18 12q7 0 14 -4l277 -150l316 151q6 3 12 3q13 0 19 -15l53 -123q3 -6 3 -12q0 -12 -12 -20l-340 -222
q-14 -9 -29 -9h-111q-17 0 -29 11z" />
    <glyph glyph-name="Dcaron" unicode="&#x10e;" horiz-adv-x="1433" 
d="M-16 0q-12 0 -17.5 7t-2.5 19l173 678l140 675q4 21 26 21h479q191 0 339.5 -70.5t232 -205.5t83.5 -321q0 -206 -98.5 -390.5t-282.5 -298.5t-428 -114h-644zM641 268q148 0 243.5 87.5t138.5 213.5t43 244q0 159 -80 239t-220 80h-161l-111 -425l-89 -439h236z
M543 1723q-10 7 -10 19q0 6 5 14l76 122q7 12 18 12q7 0 14 -4l277 -150l316 151q6 3 12 3q13 0 19 -15l53 -123q3 -6 3 -12q0 -12 -12 -20l-340 -222q-14 -9 -29 -9h-111q-17 0 -29 11z" />
    <glyph glyph-name="dcaron" unicode="&#x10f;" horiz-adv-x="1206" 
d="M1309 1400q13 0 18.5 -7t2.5 -19l-173 -709l-139 -644q-4 -21 -26 -21h-300q-12 0 -17.5 7t-2.5 19l14 53q-118 -98 -270 -98q-114 0 -199.5 53.5t-132 151t-46.5 226.5q0 149 61 296.5t181.5 244t289.5 96.5q99 0 172 -34.5t118 -100.5l103 465q4 21 26 21h320z
M690.5 280.5q55.5 68.5 82 164t26.5 175.5q0 96 -40 147t-114 51q-87 0 -142 -66t-79 -157t-24 -170q0 -96 38.5 -154.5t114.5 -58.5q82 0 137.5 68.5zM1555 1114q-8 -18 -28 -18h-177q-20 0 -20 18q0 6 1 9l149 454q7 19 27 19h239q20 0 20 -16q0 -6 -3 -12z" />
    <glyph glyph-name="Dcroat" unicode="&#x110;" horiz-adv-x="1465" 
d="M814 1400q191 0 339.5 -70.5t232 -205.5t83.5 -321q0 -206 -98.5 -390.5t-282.5 -298.5t-428 -114h-644q-10 0 -15.5 5t-5.5 13q0 5 1 8l149 585h-80q-12 0 -17.5 7t-2.5 19l51 220q5 21 25 21h84l104 501q4 21 26 21h479zM673 268q148 0 243.5 87.5t138.5 213.5t43 244
q0 159 -80 239t-220 80h-162l-66 -254h264q12 0 17.5 -7t2.5 -19l-51 -220q-4 -21 -25 -21h-272l-70 -343h237z" />
    <glyph glyph-name="dcroat" unicode="&#x111;" horiz-adv-x="1207" 
d="M1365 1321q12 0 17 -7t3 -19l-45 -190q-3 -21 -25 -21h-57l-102 -419l-139 -644q-4 -21 -26 -21h-300q-12 0 -17.5 7t-2.5 19l14 53q-118 -98 -271 -98q-114 0 -199 53t-131.5 150t-46.5 225q0 148 61 293.5t181.5 241t289.5 95.5q99 0 171.5 -33.5t117.5 -97.5l39 176
h-247q-12 0 -17 7t-3 19l44 190q5 21 26 21h249l13 58q4 21 26 21h320q13 0 18.5 -7t2.5 -19l-13 -53h49zM690 279.5q56 68.5 82 163t26 172.5q0 95 -40 144.5t-113 49.5q-87 0 -142.5 -65.5t-79.5 -155.5t-24 -168q0 -94 38 -151.5t114 -57.5q83 0 139 68.5z" />
    <glyph glyph-name="Emacron" unicode="&#x112;" 
d="M-16 0q-12 0 -17.5 7t-2.5 19l169 662l144 691q4 21 26 21h984q12 0 17 -7t3 -19l-51 -221q-4 -21 -26 -21h-627l-74 -263h571q12 0 17 -7t3 -19l-51 -221q-4 -21 -26 -21h-576l-64 -332h638q12 0 17 -7t3 -19l-51 -222q-4 -21 -26 -21h-1000zM531 1510q-12 0 -17.5 7
t-2.5 19l42 178q4 21 26 21h636q12 0 17.5 -7t3.5 -19l-43 -178q-4 -21 -25 -21h-637z" />
    <glyph glyph-name="emacron" unicode="&#x113;" horiz-adv-x="1174" 
d="M910.5 997q110.5 -58 169.5 -161t59 -236q0 -69 -16 -139q-4 -21 -25 -21h-702v-20q2 -106 47.5 -158.5t124.5 -52.5q65 0 110 33t68 91q7 19 27 19h293q13 0 19 -5.5t3 -15.5q-28 -107 -98.5 -187t-180 -124.5t-249.5 -44.5q-151 0 -267.5 54.5t-182.5 160.5t-66 255
q0 161 74 301t212.5 224.5t321.5 84.5q148 0 258.5 -58zM783 647q1 7 1 20q0 70 -40 113.5t-115 43.5q-76 0 -127 -46t-78 -131h359zM418 1140q-12 0 -17.5 7t-2.5 19l42 178q4 21 26 21h636q12 0 17.5 -7t3.5 -19l-43 -178q-4 -21 -25 -21h-637z" />
    <glyph glyph-name="Ebreve" unicode="&#x114;" 
d="M-16 0q-12 0 -17.5 7t-2.5 19l169 662l144 691q4 21 26 21h984q12 0 17 -7t3 -19l-51 -221q-4 -21 -26 -21h-627l-74 -263h571q12 0 17 -7t3 -19l-51 -221q-4 -21 -26 -21h-576l-64 -332h638q12 0 17 -7t3 -19l-51 -222q-4 -21 -26 -21h-1000zM695.5 1534
q-76.5 39 -117.5 107t-41 154q0 20 1 30q1 22 24 22h184q23 0 23 -26q0 -49 31.5 -78.5t90.5 -29.5q58 0 97.5 30.5t57.5 83.5q6 20 26 20h185q12 0 18.5 -6t4.5 -17q-19 -95 -73.5 -169.5t-140.5 -117t-193 -42.5q-101 0 -177.5 39z" />
    <glyph glyph-name="ebreve" unicode="&#x115;" horiz-adv-x="1174" 
d="M910.5 997q110.5 -58 169.5 -161t59 -236q0 -69 -16 -139q-4 -21 -25 -21h-702v-20q2 -106 47.5 -158.5t124.5 -52.5q65 0 110 33t68 91q7 19 27 19h293q13 0 19 -5.5t3 -15.5q-28 -107 -98.5 -187t-180 -124.5t-249.5 -44.5q-151 0 -267.5 54.5t-182.5 160.5t-66 255
q0 161 74 301t212.5 224.5t321.5 84.5q148 0 258.5 -58zM783 647q1 7 1 20q0 70 -40 113.5t-115 43.5q-76 0 -127 -46t-78 -131h359zM583.5 1164q-76.5 39 -117.5 107t-41 154q0 20 1 30q1 22 24 22h184q23 0 23 -26q0 -49 31.5 -78.5t90.5 -29.5q58 0 97.5 30.5t57.5 83.5
q6 20 26 20h185q12 0 18.5 -6t4.5 -17q-19 -95 -73.5 -169.5t-140.5 -117t-193 -42.5q-101 0 -177.5 39z" />
    <glyph glyph-name="Edotaccent" unicode="&#x116;" 
d="M-16 0q-12 0 -17.5 7t-2.5 19l169 662l144 691q4 21 26 21h984q12 0 17 -7t3 -19l-51 -221q-4 -21 -26 -21h-627l-74 -263h571q12 0 17 -7t3 -19l-51 -221q-4 -21 -26 -21h-576l-64 -332h638q12 0 17 -7t3 -19l-51 -222q-4 -21 -26 -21h-1000zM684 1482q-12 0 -18 7
t-3 19l57 241q4 21 26 21h317q12 0 17.5 -7t3.5 -19l-58 -242q-4 -20 -25 -20h-317z" />
    <glyph glyph-name="edotaccent" unicode="&#x117;" horiz-adv-x="1174" 
d="M910.5 997q110.5 -58 169.5 -161t59 -236q0 -69 -16 -139q-4 -21 -25 -21h-702v-20q2 -106 47.5 -158.5t124.5 -52.5q65 0 110 33t68 91q7 19 27 19h293q13 0 19 -5.5t3 -15.5q-28 -107 -98.5 -187t-180 -124.5t-249.5 -44.5q-151 0 -267.5 54.5t-182.5 160.5t-66 255
q0 161 74 301t212.5 224.5t321.5 84.5q148 0 258.5 -58zM783 647q1 7 1 20q0 70 -40 113.5t-115 43.5q-76 0 -127 -46t-78 -131h359zM571 1112q-12 0 -18 7t-3 19l57 241q4 21 26 21h317q12 0 17.5 -7t3.5 -19l-58 -242q-4 -20 -25 -20h-317z" />
    <glyph glyph-name="Eogonek" unicode="&#x118;" 
d="M1287 1400q12 0 17 -7t3 -19l-51 -221q-4 -21 -26 -21h-627l-74 -263h571q12 0 17 -7t3 -19l-51 -221q-4 -21 -26 -21h-576l-64 -332h638q12 0 17 -7t3 -19l-51 -222q-4 -21 -26 -21h-153q-29 -25 -52 -67.5t-23 -78.5q0 -63 95 -63h79q13 0 18 -7t3 -19l-43 -184
q-4 -21 -26 -21h-119q-95 0 -161.5 27.5t-99.5 76.5t-33 112q0 70 40 127t110 97h-635q-12 0 -17.5 7t-2.5 19l169 662l144 691q4 21 26 21h984z" />
    <glyph glyph-name="eogonek" unicode="&#x119;" horiz-adv-x="1174" 
d="M910.5 997q110.5 -58 169.5 -161t59 -236q0 -69 -16 -139q-4 -21 -25 -21h-702v-20q2 -106 47.5 -158.5t124.5 -52.5q65 0 110 33t68 91q7 19 27 19h293q13 0 19 -5.5t3 -15.5q-37 -144 -151.5 -237.5t-287.5 -113.5q-23 -27 -39 -61.5t-16 -64.5q0 -63 95 -63h79
q13 0 18 -7t3 -19l-43 -184q-4 -21 -26 -21h-119q-95 0 -161.5 27.5t-99.5 76.5t-33 112q0 64 33.5 117t92.5 93q-117 21 -204.5 80t-136 155t-48.5 224q0 161 74 301t212.5 224.5t321.5 84.5q148 0 258.5 -58zM783 647q1 7 1 20q0 70 -40 113.5t-115 43.5q-76 0 -127 -46
t-78 -131h359z" />
    <glyph glyph-name="Ecaron" unicode="&#x11a;" 
d="M-16 0q-12 0 -17.5 7t-2.5 19l169 662l144 691q4 21 26 21h984q12 0 17 -7t3 -19l-51 -221q-4 -21 -26 -21h-627l-74 -263h571q12 0 17 -7t3 -19l-51 -221q-4 -21 -26 -21h-576l-64 -332h638q12 0 17 -7t3 -19l-51 -222q-4 -21 -26 -21h-1000zM504 1723q-10 7 -10 19
q0 6 5 14l76 122q7 12 18 12q7 0 14 -4l277 -150l316 151q6 3 12 3q13 0 19 -15l53 -123q3 -6 3 -12q0 -12 -12 -20l-340 -222q-14 -9 -29 -9h-111q-17 0 -29 11z" />
    <glyph glyph-name="ecaron" unicode="&#x11b;" horiz-adv-x="1174" 
d="M910.5 997q110.5 -58 169.5 -161t59 -236q0 -69 -16 -139q-4 -21 -25 -21h-702v-20q2 -106 47.5 -158.5t124.5 -52.5q65 0 110 33t68 91q7 19 27 19h293q13 0 19 -5.5t3 -15.5q-28 -107 -98.5 -187t-180 -124.5t-249.5 -44.5q-151 0 -267.5 54.5t-182.5 160.5t-66 255
q0 161 74 301t212.5 224.5t321.5 84.5q148 0 258.5 -58zM783 647q1 7 1 20q0 70 -40 113.5t-115 43.5q-76 0 -127 -46t-78 -131h359zM391 1353q-10 7 -10 19q0 6 5 14l76 122q7 12 18 12q7 0 14 -4l277 -150l316 151q6 3 12 3q13 0 19 -15l53 -123q3 -6 3 -12q0 -12 -12 -20
l-340 -222q-14 -9 -29 -9h-111q-17 0 -29 11z" />
    <glyph glyph-name="Gcircumflex" unicode="&#x11c;" horiz-adv-x="1518" 
d="M391.5 44q-147.5 77 -227 220t-79.5 335q0 217 98.5 408.5t283.5 308.5t432 117q170 0 302 -57t210.5 -162.5t91.5 -246.5q1 -12 -5 -18.5t-17 -6.5h-314q-20 0 -25 21q-22 97 -91.5 147t-172.5 50q-145 0 -239 -90.5t-136 -221.5t-42 -257q0 -175 81 -262t219 -87
q127 0 211.5 71.5t124.5 198.5h-326q-12 0 -17.5 7.5t-2.5 18.5l50 217q3 21 25 21h669q12 0 17.5 -8t3.5 -23q-36 -252 -140.5 -426.5t-267 -263t-371.5 -88.5q-198 0 -345.5 77zM594 1621q-3 6 -3 11q0 11 13 21l339 222q13 9 30 9h111q17 0 28 -10l263 -224q9 -7 9 -18
q0 -7 -4 -14l-76 -123q-7 -12 -18 -12q-7 0 -14 4l-277 150l-316 -151q-6 -3 -12 -3q-14 0 -20 15z" />
    <glyph glyph-name="gcircumflex" unicode="&#x11d;" horiz-adv-x="1208" 
d="M1233 1030q12 0 17.5 -7t3.5 -19l-137 -569l-95 -430q-46 -206 -189 -307.5t-372 -101.5q-154 0 -268.5 46.5t-177 127.5t-68.5 182q0 24 23 24h314q21 0 24 -23q7 -60 51.5 -92.5t117.5 -32.5q82 0 130 43.5t70 138.5l24 106q-116 -93 -271 -93q-117 0 -204 51t-134 144
t-47 217q0 144 60.5 286t180.5 235t289 93q103 0 178.5 -35.5t119.5 -102.5l20 98q5 21 26 21h314zM700 319q55 65 80.5 154.5t25.5 163.5q0 88 -41 134.5t-116 46.5q-86 0 -140.5 -62t-78 -147.5t-23.5 -159.5q0 -89 39 -142t116 -53q83 0 138 65zM381 1251q-3 6 -3 11
q0 11 13 21l339 222q13 9 30 9h111q17 0 28 -10l263 -224q9 -7 9 -18q0 -7 -4 -14l-76 -123q-7 -12 -18 -12q-7 0 -14 4l-277 150l-316 -151q-6 -3 -12 -3q-14 0 -20 15z" />
    <glyph glyph-name="Gbreve" unicode="&#x11e;" horiz-adv-x="1518" 
d="M391.5 44q-147.5 77 -227 220t-79.5 335q0 217 98.5 408.5t283.5 308.5t432 117q170 0 302 -57t210.5 -162.5t91.5 -246.5q1 -12 -5 -18.5t-17 -6.5h-314q-20 0 -25 21q-22 97 -91.5 147t-172.5 50q-145 0 -239 -90.5t-136 -221.5t-42 -257q0 -175 81 -262t219 -87
q127 0 211.5 71.5t124.5 198.5h-326q-12 0 -17.5 7.5t-2.5 18.5l50 217q3 21 25 21h669q12 0 17.5 -8t3.5 -23q-36 -252 -140.5 -426.5t-267 -263t-371.5 -88.5q-198 0 -345.5 77zM809.5 1534q-76.5 39 -117.5 107t-41 154q0 20 1 30q1 22 24 22h184q23 0 23 -26
q0 -49 31.5 -78.5t90.5 -29.5q58 0 97.5 30.5t57.5 83.5q6 20 26 20h185q12 0 18.5 -6t4.5 -17q-19 -95 -73.5 -169.5t-140.5 -117t-193 -42.5q-101 0 -177.5 39z" />
    <glyph glyph-name="gbreve" unicode="&#x11f;" horiz-adv-x="1208" 
d="M1233 1030q12 0 17.5 -7t3.5 -19l-137 -569l-95 -430q-46 -206 -189 -307.5t-372 -101.5q-154 0 -268.5 46.5t-177 127.5t-68.5 182q0 24 23 24h314q21 0 24 -23q7 -60 51.5 -92.5t117.5 -32.5q82 0 130 43.5t70 138.5l24 106q-116 -93 -271 -93q-117 0 -204 51t-134 144
t-47 217q0 144 60.5 286t180.5 235t289 93q103 0 178.5 -35.5t119.5 -102.5l20 98q5 21 26 21h314zM700 319q55 65 80.5 154.5t25.5 163.5q0 88 -41 134.5t-116 46.5q-86 0 -140.5 -62t-78 -147.5t-23.5 -159.5q0 -89 39 -142t116 -53q83 0 138 65zM596.5 1164
q-76.5 39 -117.5 107t-41 154q0 20 1 30q1 22 24 22h184q23 0 23 -26q0 -49 31.5 -78.5t90.5 -29.5q58 0 97.5 30.5t57.5 83.5q6 20 26 20h185q12 0 18.5 -6t4.5 -17q-19 -95 -73.5 -169.5t-140.5 -117t-193 -42.5q-101 0 -177.5 39z" />
    <glyph glyph-name="Gdotaccent" unicode="&#x120;" horiz-adv-x="1518" 
d="M391.5 44q-147.5 77 -227 220t-79.5 335q0 217 98.5 408.5t283.5 308.5t432 117q170 0 302 -57t210.5 -162.5t91.5 -246.5q1 -12 -5 -18.5t-17 -6.5h-314q-20 0 -25 21q-22 97 -91.5 147t-172.5 50q-145 0 -239 -90.5t-136 -221.5t-42 -257q0 -175 81 -262t219 -87
q127 0 211.5 71.5t124.5 198.5h-326q-12 0 -17.5 7.5t-2.5 18.5l50 217q3 21 25 21h669q12 0 17.5 -8t3.5 -23q-36 -252 -140.5 -426.5t-267 -263t-371.5 -88.5q-198 0 -345.5 77zM798 1482q-12 0 -18 7t-3 19l57 241q4 21 26 21h317q12 0 17.5 -7t3.5 -19l-58 -242
q-4 -20 -25 -20h-317z" />
    <glyph glyph-name="gdotaccent" unicode="&#x121;" horiz-adv-x="1208" 
d="M1233 1030q12 0 17.5 -7t3.5 -19l-137 -569l-95 -430q-46 -206 -189 -307.5t-372 -101.5q-154 0 -268.5 46.5t-177 127.5t-68.5 182q0 24 23 24h314q21 0 24 -23q7 -60 51.5 -92.5t117.5 -32.5q82 0 130 43.5t70 138.5l24 106q-116 -93 -271 -93q-117 0 -204 51t-134 144
t-47 217q0 144 60.5 286t180.5 235t289 93q103 0 178.5 -35.5t119.5 -102.5l20 98q5 21 26 21h314zM700 319q55 65 80.5 154.5t25.5 163.5q0 88 -41 134.5t-116 46.5q-86 0 -140.5 -62t-78 -147.5t-23.5 -159.5q0 -89 39 -142t116 -53q83 0 138 65zM585 1112q-12 0 -18 7
t-3 19l57 241q4 21 26 21h317q12 0 17.5 -7t3.5 -19l-58 -242q-4 -20 -25 -20h-317z" />
    <glyph glyph-name="uni0122" unicode="&#x122;" horiz-adv-x="1518" 
d="M391.5 44q-147.5 77 -227 220t-79.5 335q0 217 98.5 408.5t283.5 308.5t432 117q170 0 302 -57t210.5 -162.5t91.5 -246.5q1 -12 -5 -18.5t-17 -6.5h-314q-20 0 -25 21q-22 97 -91.5 147t-172.5 50q-145 0 -239 -90.5t-136 -221.5t-42 -257q0 -175 81 -262t219 -87
q127 0 211.5 71.5t124.5 198.5h-326q-12 0 -17.5 7.5t-2.5 18.5l50 217q3 21 25 21h669q12 0 17.5 -8t3.5 -23q-36 -252 -140.5 -426.5t-267 -263t-371.5 -88.5q-198 0 -345.5 77zM399 -538q-21 0 -21 17q0 5 3 11l83 182l54 230q3 21 25 21h310q12 0 17.5 -7t2.5 -19
l-47 -207q-5 -17 -16 -26l-234 -192q-13 -10 -29 -10h-148z" />
    <glyph glyph-name="uni0123" unicode="&#x123;" horiz-adv-x="1208" 
d="M1233 1030q12 0 17.5 -7t3.5 -19l-137 -569l-95 -430q-46 -206 -189 -307.5t-372 -101.5q-154 0 -268.5 46.5t-177 127.5t-68.5 182q0 24 23 24h314q21 0 24 -23q7 -60 51.5 -92.5t117.5 -32.5q82 0 130 43.5t70 138.5l24 106q-116 -93 -271 -93q-117 0 -204 51t-134 144
t-47 217q0 144 60.5 286t180.5 235t289 93q103 0 178.5 -35.5t119.5 -102.5l20 98q5 21 26 21h314zM700 319q55 65 80.5 154.5t25.5 163.5q0 88 -41 134.5t-116 46.5q-86 0 -140.5 -62t-78 -147.5t-23.5 -159.5q0 -89 39 -142t116 -53q83 0 138 65zM591 1127q-12 0 -17 7
t-3 19l48 207q5 17 16 26l234 192q13 10 29 10h148q20 0 20 -16q0 -6 -3 -12l-83 -182l-54 -230q-3 -21 -25 -21h-310z" />
    <glyph glyph-name="Hcircumflex" unicode="&#x124;" horiz-adv-x="1440" 
d="M1541 1400q10 0 15.5 -5t5.5 -13q0 -5 -1 -8l-171 -670l-142 -683q-3 -21 -26 -21h-338q-12 0 -18 7t-3 19l147 585h-535l-126 -590q-3 -21 -26 -21h-338q-13 0 -18.5 7t-2.5 19l173 678l140 675q4 21 26 21h339q12 0 17.5 -7t3.5 -19l-124 -495h532l105 500q4 21 26 21
h339zM584 1621q-3 6 -3 11q0 11 13 21l339 222q13 9 30 9h111q17 0 28 -10l263 -224q9 -7 9 -18q0 -7 -4 -14l-76 -123q-7 -12 -18 -12q-7 0 -14 4l-277 150l-316 -151q-6 -3 -12 -3q-14 0 -20 15z" />
    <glyph glyph-name="hcircumflex" unicode="&#x125;" horiz-adv-x="1172" 
d="M-25 0q-12 0 -18 7t-3 19l121 481l195 872q5 21 25 21h307q12 0 17.5 -7t2.5 -19l-112 -460q65 64 148.5 102t178.5 38q90 0 160.5 -34.5t110.5 -102t40 -161.5q0 -58 -16 -122l-47 -197l-88 -416q-4 -21 -26 -21h-319q-12 0 -18 7t-3 19l94 369l47 219q7 31 7 62
q0 56 -27 86.5t-81 30.5q-100 0 -162 -97t-89 -221l-20 -85l-76 -369q-4 -21 -26 -21h-323zM110 1621q-3 6 -3 11q0 11 13 21l339 222q13 9 30 9h111q17 0 28 -10l263 -224q9 -7 9 -18q0 -7 -4 -14l-76 -123q-7 -12 -18 -12q-7 0 -14 4l-277 150l-316 -151q-6 -3 -12 -3
q-14 0 -20 15z" />
    <glyph glyph-name="Hbar" unicode="&#x126;" horiz-adv-x="1446" 
d="M1557 1194q12 0 17 -7t3 -19l-51 -221q-3 -21 -25 -21h-52l-56 -222l-142 -683q-4 -21 -26 -21h-333q-13 0 -18.5 7t-2.5 19l107 430h-534l-92 -435q-4 -21 -26 -21h-334q-12 0 -17.5 7t-2.5 19l173 678l46 222h-50q-12 0 -17.5 7.5t-2.5 18.5l50 221q5 21 26 21h50
l38 185q4 21 26 21h333q12 0 18 -7t3 -19l-45 -180h525l39 185q4 21 26 21h333q10 0 15.5 -5t5.5 -13q0 -5 -1 -8l-45 -180h39zM553 926l-51 -202h543l43 202h-535z" />
    <glyph glyph-name="hbar" unicode="&#x127;" horiz-adv-x="1200" 
d="M1023.5 1009.5q70.5 -34.5 111 -102t40.5 -161.5q0 -58 -16 -122l-46 -189l-88 -414q-4 -21 -26 -21h-319q-10 0 -15.5 5t-5.5 13q0 5 1 8l94 369l44 209q7 32 7 63q0 55 -27 85.5t-81 30.5q-99 0 -160 -96t-91 -222l-18 -75l-76 -369q-4 -21 -26 -21h-323q-12 0 -17.5 7
t-3.5 19l121 481l129 577h-51q-12 0 -17 7t-3 19l45 190q3 21 25 21h54l13 58q5 21 25 21h307q12 0 17.5 -7t3.5 -19l-13 -53h258q12 0 17 -7t3 -19l-44 -190q-4 -21 -26 -21h-266l-44 -180q65 64 148.5 102t178.5 38q90 0 160.5 -34.5z" />
    <glyph glyph-name="Itilde" unicode="&#x128;" horiz-adv-x="555" 
d="M-6 0q-10 0 -15.5 5t-5.5 13q0 5 1 8l169 667l144 686q4 21 26 21h333q10 0 15.5 -5t5.5 -13q0 -5 -1 -8l-172 -681l-141 -672q-4 -21 -26 -21h-333zM565 1519.5q-35 15.5 -74 43.5q-24 17 -39 25t-30 8q-28 0 -44 -19t-25 -55q-6 -21 -26 -21h-130q-11 0 -17 6.5
t-5 18.5q20 128 90.5 207t178.5 79q44 0 76.5 -15t74.5 -44q24 -17 38.5 -25t28.5 -8q28 0 44 18t24 53q4 22 26 22h131q11 0 16.5 -8.5t3.5 -23.5q-22 -131 -89 -204t-170 -73q-48 0 -83 15.5z" />
    <glyph glyph-name="itilde" unicode="&#x129;" horiz-adv-x="513" 
d="M454.5 1150q-29.5 16 -59.5 44q-21 18 -32 25t-24 7q-20 0 -35 -18t-24 -54q-4 -22 -25 -22h-118q-12 0 -17.5 7t-3.5 19q23 139 85 208.5t144 69.5q43 0 70.5 -15t60.5 -44q20 -18 31.5 -25.5t24.5 -7.5q20 0 35.5 17.5t23.5 53.5q6 22 26 22h118q19 0 19 -31
q0 -5 -2 -19q-27 -131 -86 -192t-138 -61q-44 0 -73.5 16zM-20 0q-12 0 -18 7t-3 19l121 479l107 504q3 21 26 21h321q12 0 18 -7t3 -19l-127 -499l-100 -484q-4 -21 -26 -21h-322z" />
    <glyph glyph-name="Imacron" unicode="&#x12a;" horiz-adv-x="555" 
d="M-6 0q-10 0 -15.5 5t-5.5 13q0 5 1 8l169 667l144 686q4 21 26 21h333q10 0 15.5 -5t5.5 -13q0 -5 -1 -8l-172 -681l-141 -672q-4 -21 -26 -21h-333zM191 1510q-12 0 -17.5 7t-2.5 19l42 178q4 21 26 21h636q12 0 17.5 -7t3.5 -19l-43 -178q-4 -21 -25 -21h-637z" />
    <glyph glyph-name="imacron" unicode="&#x12b;" horiz-adv-x="513" 
d="M137 1140q-12 0 -17.5 7t-2.5 19l41 178q5 21 25 21h534q21 0 21 -18q0 -5 -1 -8l-41 -178q-4 -21 -25 -21h-534zM-20 0q-12 0 -18 7t-3 19l121 479l107 504q3 21 26 21h321q12 0 18 -7t3 -19l-127 -499l-100 -484q-4 -21 -26 -21h-322z" />
    <glyph glyph-name="Ibreve" unicode="&#x12c;" horiz-adv-x="555" 
d="M-6 0q-10 0 -15.5 5t-5.5 13q0 5 1 8l169 667l144 686q4 21 26 21h333q10 0 15.5 -5t5.5 -13q0 -5 -1 -8l-172 -681l-141 -672q-4 -21 -26 -21h-333zM356.5 1534q-76.5 39 -117.5 107t-41 154q0 20 1 30q1 22 24 22h184q23 0 23 -26q0 -49 31.5 -78.5t90.5 -29.5
q58 0 97.5 30.5t57.5 83.5q6 20 26 20h185q12 0 18.5 -6t4.5 -17q-19 -95 -73.5 -169.5t-140.5 -117t-193 -42.5q-101 0 -177.5 39z" />
    <glyph glyph-name="ibreve" unicode="&#x12d;" horiz-adv-x="512" 
d="M276 1160.5q-65 35.5 -100 100t-35 149.5q0 30 2 45q1 22 25 22h168q24 0 22 -25q-2 -56 21.5 -86t70.5 -30q48 0 80.5 30.5t46.5 89.5q6 21 26 21h169q12 0 17.5 -7t3.5 -20q-20 -97 -69.5 -170.5t-125 -114t-170.5 -40.5q-87 0 -152 35.5zM-20 0q-12 0 -18 7t-3 19
l121 479l107 504q3 21 26 21h321q12 0 18 -7t3 -19l-127 -499l-100 -484q-4 -21 -26 -21h-322z" />
    <glyph glyph-name="Iogonek" unicode="&#x12e;" horiz-adv-x="555" 
d="M646 1400q10 0 15.5 -5t5.5 -13q0 -5 -1 -8l-172 -681l-141 -672q-4 -21 -26 -21h-158q-29 -25 -52 -67.5t-23 -78.5q0 -63 95 -63h79q13 0 18 -7t3 -19l-43 -184q-5 -21 -26 -21h-119q-95 0 -161.5 27.5t-99.5 76.5t-33 112q0 75 44.5 134.5t122.5 99.5q-2 4 -2 7t2 9
l169 667l144 686q4 21 26 21h333z" />
    <glyph glyph-name="iogonek" unicode="&#x12f;" horiz-adv-x="512" 
d="M618 1400q12 0 17.5 -7t3.5 -19l-58 -242q-4 -20 -25 -20h-317q-12 0 -18 7t-3 19l57 241q5 21 26 21h317zM534 1030q12 0 18 -7t3 -19l-127 -499l-100 -484q-4 -21 -26 -21h-138q-29 -25 -52 -67.5t-23 -78.5q0 -63 95 -63h79q13 0 18 -7t3 -19l-43 -184q-4 -21 -26 -21
h-119q-95 0 -161.5 27.5t-99.5 76.5t-33 112q0 73 43 131.5t118 98.5q-7 7 -4 20l121 479l107 504q3 21 26 21h321z" />
    <glyph glyph-name="Idotaccent" unicode="&#x130;" horiz-adv-x="555" 
d="M-6 0q-10 0 -15.5 5t-5.5 13q0 5 1 8l169 667l144 686q4 21 26 21h333q10 0 15.5 -5t5.5 -13q0 -5 -1 -8l-172 -681l-141 -672q-4 -21 -26 -21h-333zM345 1482q-12 0 -18 7t-3 19l57 241q4 21 26 21h317q12 0 17.5 -7t3.5 -19l-58 -242q-4 -20 -25 -20h-317z" />
    <glyph glyph-name="dotlessi" unicode="&#x131;" horiz-adv-x="512" 
d="M-20 0q-12 0 -18 7t-3 19l121 479l107 504q3 21 26 21h321q12 0 18 -7t3 -19l-127 -499l-100 -484q-4 -21 -26 -21h-322z" />
    <glyph glyph-name="IJ" unicode="&#x132;" horiz-adv-x="1698" 
d="M-6 0q-10 0 -15.5 5t-5.5 13q0 5 1 8l169 667l144 686q4 21 26 21h333q10 0 15.5 -5t5.5 -13q0 -5 -1 -8l-172 -681l-141 -672q-4 -21 -26 -21h-333zM785.5 19.5q-103.5 50.5 -157.5 143.5t-54 220q0 44 8 100q3 22 25 22h318q12 0 17.5 -7t4.5 -19q-6 -43 -6 -78
q0 -148 116 -148q43 0 76 22.5t60 77t50 149.5l92 386l102 491q5 21 26 21h344q10 0 15.5 -5t5.5 -13q0 -5 -1 -8l-123 -486l-88 -389q-62 -273 -206.5 -401.5t-375.5 -128.5q-145 0 -248.5 50.5z" />
    <glyph glyph-name="ij" unicode="&#x133;" horiz-adv-x="1024" 
d="M-20 0q-12 0 -18 7t-3 19l121 479l107 504q3 21 26 21h321q12 0 18 -7t3 -19l-127 -499l-100 -484q-4 -21 -26 -21h-322zM239 1112q-12 0 -18 7t-3 19l57 241q4 21 26 21h317q12 0 17.5 -7t3.5 -19l-58 -242q-4 -20 -25 -20h-317zM414 -340q-13 0 -18.5 7t-2.5 19
l168 680l137 643q4 21 26 21h322q12 0 17.5 -7t3.5 -19l-158 -638l-148 -685q-3 -21 -26 -21h-321zM751 1112q-12 0 -18 7t-3 19l57 241q4 21 26 21h317q12 0 17.5 -7t3.5 -19l-58 -242q-4 -20 -25 -20h-317z" />
    <glyph glyph-name="Jcircumflex" unicode="&#x134;" horiz-adv-x="1143" 
d="M230.5 19.5q-103.5 50.5 -157.5 143.5t-54 220q0 44 8 100q3 22 25 22h318q12 0 17.5 -7t4.5 -19q-6 -43 -6 -78q0 -148 116 -148q43 0 76 22.5t60 77t50 149.5l92 386l102 491q5 21 26 21h344q10 0 15.5 -5t5.5 -13q0 -5 -1 -8l-123 -486l-88 -389
q-62 -273 -206.5 -401.5t-375.5 -128.5q-145 0 -248.5 50.5zM742 1621q-3 6 -3 11q0 11 13 21l339 222q13 9 30 9h111q17 0 28 -10l263 -224q9 -7 9 -18q0 -7 -4 -14l-76 -123q-7 -12 -18 -12q-7 0 -14 4l-277 150l-316 -151q-6 -3 -12 -3q-14 0 -20 15z" />
    <glyph glyph-name="jcircumflex" unicode="&#x135;" horiz-adv-x="512" 
d="M93 1245q-2 4 -2 12q0 11 10 20l282 227q13 10 29 10h110q17 0 29 -13l208 -223q7 -8 7 -18t-5 -16l-81 -118q-8 -11 -19 -11q-8 0 -14 5l-215 149l-258 -149q-7 -4 -13 -4q-13 0 -19 15zM-98 -340q-13 0 -18.5 7t-2.5 19l168 680l137 643q4 21 26 21h322q12 0 17.5 -7
t3.5 -19l-158 -638l-148 -685q-3 -21 -26 -21h-321z" />
    <glyph glyph-name="uni0136" unicode="&#x136;" horiz-adv-x="1332" 
d="M278 1379q4 21 26 21h324q12 0 17.5 -7t2.5 -19l-120 -487l463 500q12 13 29 13h395q20 0 20 -13q0 -8 -8 -16l-585 -562l368 -781q3 -6 3 -12q0 -7 -5.5 -11.5t-15.5 -4.5h-363q-19 0 -28 18l-231 527l-154 -149l-81 -375q-4 -21 -26 -21h-325q-10 0 -15.5 5t-5.5 13
q0 5 1 8l167 664zM255 -538q-21 0 -21 17q0 5 3 11l83 182l54 230q3 21 25 21h310q12 0 17.5 -7t2.5 -19l-47 -207q-5 -17 -16 -26l-234 -192q-13 -10 -29 -10h-148z" />
    <glyph glyph-name="uni0137" unicode="&#x137;" horiz-adv-x="1103" 
d="M1139 1030q20 0 20 -13q0 -7 -9 -16l-371 -341l201 -633q1 -3 1 -9q0 -18 -20 -18h-339q-20 0 -26 20l-57 223l-51 165l-118 -117l-58 -270q-4 -21 -26 -21h-312q-12 0 -17.5 7t-2.5 19l168 677l145 676q3 21 26 21h311q13 0 18.5 -7t2.5 -19l-163 -659l-2 -8l300 311
q11 12 28 12h351zM138 -538q-21 0 -21 17q0 5 3 11l83 182l54 230q3 21 25 21h310q12 0 17.5 -7t2.5 -19l-47 -207q-5 -17 -16 -26l-234 -192q-13 -10 -29 -10h-148z" />
    <glyph glyph-name="Lacute" unicode="&#x139;" horiz-adv-x="1035" 
d="M-16 0q-12 0 -17.5 7t-2.5 19l167 656l146 697q4 21 26 21h336q12 0 17.5 -7t2.5 -19l-167 -669l-89 -436h523q12 0 17 -7t3 -19l-51 -222q-4 -21 -26 -21h-885zM318 1479q-2 -1 -7 -1q-17 0 -21 18l-32 139q-1 3 -1 7q0 17 17 23l517 190q4 2 11 2q15 0 18 -18l49 -220
l1 -7q0 -16 -19 -21z" />
    <glyph glyph-name="lacute" unicode="&#x13a;" horiz-adv-x="504" 
d="M-20 0q-12 0 -17.5 7t-2.5 19l168 670l145 683q4 21 26 21h312q12 0 17.5 -7t2.5 -19l-169 -679l-144 -674q-4 -21 -26 -21h-312zM302 1479q-2 -1 -7 -1q-17 0 -21 18l-32 139q-1 3 -1 7q0 17 17 23l517 190q4 2 11 2q15 0 18 -18l49 -220l1 -7q0 -16 -19 -21z" />
    <glyph glyph-name="uni013B" unicode="&#x13b;" horiz-adv-x="1035" 
d="M-16 0q-12 0 -17.5 7t-2.5 19l167 656l146 697q4 21 26 21h336q12 0 17.5 -7t2.5 -19l-167 -669l-89 -436h523q12 0 17 -7t3 -19l-51 -222q-4 -21 -26 -21h-885zM113 -538q-21 0 -21 17q0 5 3 11l83 182l54 230q3 21 25 21h310q12 0 17.5 -7t2.5 -19l-47 -207
q-5 -17 -16 -26l-234 -192q-13 -10 -29 -10h-148z" />
    <glyph glyph-name="uni013C" unicode="&#x13c;" horiz-adv-x="504" 
d="M-20 0q-12 0 -17.5 7t-2.5 19l168 670l145 683q4 21 26 21h312q12 0 17.5 -7t2.5 -19l-169 -679l-144 -674q-4 -21 -26 -21h-312zM-182 -538q-21 0 -21 17q0 5 3 11l83 182l54 230q3 21 25 21h310q12 0 17.5 -7t2.5 -19l-47 -207q-5 -17 -16 -26l-234 -192
q-13 -10 -29 -10h-148z" />
    <glyph glyph-name="Lcaron" unicode="&#x13d;" horiz-adv-x="1035" 
d="M-16 0q-12 0 -17.5 7t-2.5 19l167 656l146 697q4 21 26 21h336q12 0 17.5 -7t2.5 -19l-167 -669l-89 -436h523q12 0 17 -7t3 -19l-51 -222q-4 -21 -26 -21h-885zM865 918q-8 -18 -28 -18h-177q-20 0 -20 18q0 6 1 9l149 454q7 19 27 19h239q20 0 20 -16q0 -6 -3 -12z" />
    <glyph glyph-name="lcaron" unicode="&#x13e;" horiz-adv-x="504" 
d="M-20 0q-12 0 -17.5 7t-2.5 19l168 670l145 683q4 21 26 21h312q12 0 17.5 -7t2.5 -19l-169 -679l-144 -674q-4 -21 -26 -21h-312zM856 1108q-8 -18 -28 -18h-177q-20 0 -20 18q0 6 1 9l149 454q7 19 27 19h239q20 0 20 -16q0 -6 -3 -12z" />
    <glyph glyph-name="Ldot" unicode="&#x13f;" horiz-adv-x="1035" 
d="M-16 0q-12 0 -17.5 7t-2.5 19l167 656l146 697q4 21 26 21h336q12 0 17.5 -7t2.5 -19l-167 -669l-89 -436h523q12 0 17 -7t3 -19l-51 -222q-4 -21 -26 -21h-885zM643 604q-12 0 -18 7t-3 19l57 241q4 21 26 21h317q12 0 17.5 -7t3.5 -19l-58 -242q-4 -20 -25 -20h-317z
" />
    <glyph glyph-name="ldot" unicode="&#x140;" horiz-adv-x="761" 
d="M-20 0q-12 0 -17.5 7t-2.5 19l168 670l145 683q4 21 26 21h312q12 0 17.5 -7t2.5 -19l-169 -679l-144 -674q-4 -21 -26 -21h-312zM495 509q-13 0 -18 7t-3 19l60 253q5 21 25 21h278q13 0 18 -7t3 -19l-59 -253q-6 -21 -26 -21h-278z" />
    <glyph glyph-name="Lslash" unicode="&#x141;" horiz-adv-x="1059" 
d="M950 269q12 0 17.5 -7t2.5 -19l-51 -222q-4 -21 -25 -21h-885q-13 0 -18.5 7t-2.5 19l121 474l-67 -20q-3 -1 -9 -1q-19 0 -15 24l50 217q3 18 22 24l83 25l128 610q4 21 26 21h336q12 0 17.5 -7t3.5 -19l-123 -488l222 68q3 1 9 1q20 0 15 -24l-51 -217q-5 -18 -23 -23
l-235 -72l-71 -350h523z" />
    <glyph glyph-name="lslash" unicode="&#x142;" horiz-adv-x="551" 
d="M634 1400q12 0 17.5 -7t3.5 -19l-154 -617l30 15q6 3 12 3q8 0 12 -6.5t2 -16.5l-50 -216q-4 -15 -20 -25l-46 -22l-100 -468q-3 -21 -26 -21h-311q-13 0 -18.5 7t-2.5 19l69 276l-25 -12q-6 -3 -12 -3q-14 0 -14 15q0 5 1 8l50 216q2 9 6.5 14.5t13.5 10.5l48 23l31 122
l145 683q4 21 26 21h312z" />
    <glyph glyph-name="Nacute" unicode="&#x143;" horiz-adv-x="1415" 
d="M-16 0q-12 0 -17.5 7t-2.5 19l167 668l146 685q4 21 26 21h377q20 0 26 -19l294 -882l61 304l135 576q3 21 25 21h294q12 0 17.5 -7t2.5 -19l-170 -680l-142 -673q-4 -21 -26 -21h-390q-20 0 -26 19l-285 877l-68 -346l-123 -529q-4 -21 -26 -21h-295zM757 1479
q-2 -1 -7 -1q-17 0 -21 18l-32 139q-1 3 -1 7q0 17 17 23l517 190q4 2 11 2q15 0 18 -18l49 -220l1 -7q0 -16 -19 -21z" />
    <glyph glyph-name="nacute" unicode="&#x144;" horiz-adv-x="1171" 
d="M-26 0q-12 0 -17.5 7t-3.5 19l121 481l112 502q4 21 25 21h299q13 0 18.5 -7t2.5 -19l-22 -90q65 64 148.5 102t178.5 38q90 0 160.5 -34.5t110.5 -102t40 -162.5q0 -55 -15 -121l-48 -197l-88 -416q-4 -21 -26 -21h-320q-12 0 -17.5 7t-2.5 19l95 369l46 219q7 32 7 63
q0 55 -27 85.5t-81 30.5q-100 0 -161 -96.5t-90 -221.5l-20 -85l-76 -369q-4 -21 -26 -21h-323zM560 1109q-2 -1 -7 -1q-17 0 -21 18l-32 139q-1 3 -1 7q0 17 17 23l517 190q4 2 11 2q15 0 18 -18l49 -220l1 -7q0 -16 -19 -21z" />
    <glyph glyph-name="uni0145" unicode="&#x145;" horiz-adv-x="1415" 
d="M-16 0q-12 0 -17.5 7t-2.5 19l167 668l146 685q4 21 26 21h377q20 0 26 -19l294 -882l61 304l135 576q3 21 25 21h294q12 0 17.5 -7t2.5 -19l-170 -680l-142 -673q-4 -21 -26 -21h-390q-20 0 -26 19l-285 877l-68 -346l-123 -529q-4 -21 -26 -21h-295zM274 -538
q-21 0 -21 17q0 5 3 11l83 182l54 230q3 21 25 21h310q12 0 17.5 -7t2.5 -19l-47 -207q-5 -17 -16 -26l-234 -192q-13 -10 -29 -10h-148z" />
    <glyph glyph-name="uni0146" unicode="&#x146;" horiz-adv-x="1171" 
d="M-26 0q-12 0 -17.5 7t-3.5 19l121 481l112 502q4 21 25 21h299q13 0 18.5 -7t2.5 -19l-22 -90q65 64 148.5 102t178.5 38q90 0 160.5 -34.5t110.5 -102t40 -162.5q0 -55 -15 -121l-48 -197l-88 -416q-4 -21 -26 -21h-320q-12 0 -17.5 7t-2.5 19l95 369l46 219q7 32 7 63
q0 55 -27 85.5t-81 30.5q-100 0 -161 -96.5t-90 -221.5l-20 -85l-76 -369q-4 -21 -26 -21h-323zM161 -538q-21 0 -21 17q0 5 3 11l83 182l54 230q3 21 25 21h310q12 0 17.5 -7t2.5 -19l-47 -207q-5 -17 -16 -26l-234 -192q-13 -10 -29 -10h-148z" />
    <glyph glyph-name="Ncaron" unicode="&#x147;" horiz-adv-x="1415" 
d="M-16 0q-12 0 -17.5 7t-2.5 19l167 668l146 685q4 21 26 21h377q20 0 26 -19l294 -882l61 304l135 576q3 21 25 21h294q12 0 17.5 -7t2.5 -19l-170 -680l-142 -673q-4 -21 -26 -21h-390q-20 0 -26 19l-285 877l-68 -346l-123 -529q-4 -21 -26 -21h-295zM596 1723
q-10 7 -10 19q0 6 5 14l76 122q7 12 18 12q7 0 14 -4l277 -150l316 151q6 3 12 3q13 0 19 -15l53 -123q3 -6 3 -12q0 -12 -12 -20l-340 -222q-14 -9 -29 -9h-111q-17 0 -29 11z" />
    <glyph glyph-name="ncaron" unicode="&#x148;" horiz-adv-x="1171" 
d="M-26 0q-12 0 -17.5 7t-3.5 19l121 481l112 502q4 21 25 21h299q13 0 18.5 -7t2.5 -19l-22 -90q65 64 148.5 102t178.5 38q90 0 160.5 -34.5t110.5 -102t40 -162.5q0 -55 -15 -121l-48 -197l-88 -416q-4 -21 -26 -21h-320q-12 0 -17.5 7t-2.5 19l95 369l46 219q7 32 7 63
q0 55 -27 85.5t-81 30.5q-100 0 -161 -96.5t-90 -221.5l-20 -85l-76 -369q-4 -21 -26 -21h-323zM398 1353q-10 7 -10 19q0 6 5 14l76 122q7 12 18 12q7 0 14 -4l277 -150l316 151q6 3 12 3q13 0 19 -15l53 -123q3 -6 3 -12q0 -12 -12 -20l-340 -222q-14 -9 -29 -9h-111
q-17 0 -29 11z" />
    <glyph glyph-name="Eng" unicode="&#x14a;" horiz-adv-x="1414" 
d="M-16 0q-10 0 -15.5 5t-5.5 13q0 5 1 8l167 668l147 685q4 21 26 21h385q19 0 27 -18l305 -772l52 245l123 524q5 21 25 21h294q10 0 15.5 -5t5.5 -13q0 -5 -1 -8l-167 -665l-160 -730q-26 -119 -94 -195.5t-160.5 -111t-197.5 -34.5q-94 0 -192 17q-11 1 -15.5 8.5
t-2.5 18.5l46 203q6 23 28 18q41 -10 105 -10q55 0 90 22.5t48 77.5l5 17l-364 920l-54 -280l-145 -629q-4 -21 -26 -21h-295z" />
    <glyph glyph-name="eng" unicode="&#x14b;" horiz-adv-x="1169" 
d="M381 -339q-11 2 -15.5 9.5t-2.5 18.5l51 202q4 22 28 17q42 -10 74 -10q47 0 73.5 24t41.5 86l142 610q8 35 8 61q0 54 -27.5 84t-79.5 30q-96 0 -160.5 -93.5t-94.5 -224.5l-18 -80l-78 -374q-3 -21 -26 -21h-323q-12 0 -17.5 7t-3.5 19l121 481l112 502q4 21 25 21h299
q13 0 18.5 -7t2.5 -19l-22 -90q65 65 148 102.5t177 37.5q91 0 162 -35t111 -102t40 -161q0 -57 -14 -116l-149 -660q-39 -177 -156.5 -258t-270.5 -81q-72 0 -176 20z" />
    <glyph glyph-name="Omacron" unicode="&#x14c;" horiz-adv-x="1556" 
d="M402.5 41.5q-149.5 74.5 -234.5 216.5t-85 338q0 214 100 406.5t286.5 311.5t431.5 119q190 0 339.5 -74t234.5 -216t85 -338q0 -214 -100 -407t-286 -312t-431 -119q-191 0 -340.5 74.5zM1001.5 336.5q95.5 91.5 139 223t43.5 255.5q0 169 -81 254.5t-217 85.5
q-148 0 -244 -91.5t-139.5 -223t-43.5 -255.5q0 -169 81 -254.5t218 -85.5q148 0 243.5 91.5zM669 1510q-12 0 -17.5 7t-2.5 19l42 178q4 21 26 21h636q12 0 17.5 -7t3.5 -19l-43 -178q-4 -21 -25 -21h-637z" />
    <glyph glyph-name="omacron" unicode="&#x14d;" horiz-adv-x="1197" 
d="M285 29.5q-113 54.5 -177 160.5t-64 255q0 161 74.5 301t213.5 224.5t323 84.5q144 0 256.5 -54.5t176.5 -160.5t64 -254q0 -161 -74.5 -301t-213.5 -225t-322 -85q-144 0 -257 54.5zM689.5 271.5q53.5 62.5 78.5 154t25 176.5q0 108 -40.5 163.5t-112.5 55.5
q-79 0 -132.5 -61.5t-79 -152.5t-25.5 -179q0 -109 40.5 -164t111.5 -55q81 0 134.5 62.5zM428 1140q-12 0 -17.5 7t-2.5 19l42 178q4 21 26 21h636q12 0 17.5 -7t3.5 -19l-43 -178q-4 -21 -25 -21h-637z" />
    <glyph glyph-name="Obreve" unicode="&#x14e;" horiz-adv-x="1556" 
d="M402.5 41.5q-149.5 74.5 -234.5 216.5t-85 338q0 214 100 406.5t286.5 311.5t431.5 119q190 0 339.5 -74t234.5 -216t85 -338q0 -214 -100 -407t-286 -312t-431 -119q-191 0 -340.5 74.5zM1001.5 336.5q95.5 91.5 139 223t43.5 255.5q0 169 -81 254.5t-217 85.5
q-148 0 -244 -91.5t-139.5 -223t-43.5 -255.5q0 -169 81 -254.5t218 -85.5q148 0 243.5 91.5zM834.5 1534q-76.5 39 -117.5 107t-41 154q0 20 1 30q1 22 24 22h184q23 0 23 -26q0 -49 31.5 -78.5t90.5 -29.5q58 0 97.5 30.5t57.5 83.5q6 20 26 20h185q12 0 18.5 -6t4.5 -17
q-19 -95 -73.5 -169.5t-140.5 -117t-193 -42.5q-101 0 -177.5 39z" />
    <glyph glyph-name="obreve" unicode="&#x14f;" horiz-adv-x="1197" 
d="M285 29.5q-113 54.5 -177 160.5t-64 255q0 161 74.5 301t213.5 224.5t323 84.5q144 0 256.5 -54.5t176.5 -160.5t64 -254q0 -161 -74.5 -301t-213.5 -225t-322 -85q-144 0 -257 54.5zM689.5 271.5q53.5 62.5 78.5 154t25 176.5q0 108 -40.5 163.5t-112.5 55.5
q-79 0 -132.5 -61.5t-79 -152.5t-25.5 -179q0 -109 40.5 -164t111.5 -55q81 0 134.5 62.5zM593.5 1164q-76.5 39 -117.5 107t-41 154q0 20 1 30q1 22 24 22h184q23 0 23 -26q0 -49 31.5 -78.5t90.5 -29.5q58 0 97.5 30.5t57.5 83.5q6 20 26 20h185q12 0 18.5 -6t4.5 -17
q-19 -95 -73.5 -169.5t-140.5 -117t-193 -42.5q-101 0 -177.5 39z" />
    <glyph glyph-name="Ohungarumlaut" unicode="&#x150;" horiz-adv-x="1556" 
d="M402.5 41.5q-149.5 74.5 -234.5 216.5t-85 338q0 214 100 406.5t286.5 311.5t431.5 119q190 0 339.5 -74t234.5 -216t85 -338q0 -214 -100 -407t-286 -312t-431 -119q-191 0 -340.5 74.5zM1001.5 336.5q95.5 91.5 139 223t43.5 255.5q0 169 -81 254.5t-217 85.5
q-148 0 -244 -91.5t-139.5 -223t-43.5 -255.5q0 -169 81 -254.5t218 -85.5q148 0 243.5 91.5zM811 1509q-7 -6 -16 -6t-17 8l-67 69q-8 8 -8 17t7 16l320 358q8 9 16 9q10 0 17 -10l112 -138q6 -7 6 -16q0 -10 -10 -17zM1181 1496q-7 -6 -16 -6t-17 8l-68 67q-8 8 -8 17
t7 16l322 358q7 9 16 9q10 0 17 -10l111 -135q6 -7 6 -15q0 -9 -10 -18z" />
    <glyph glyph-name="ohungarumlaut" unicode="&#x151;" horiz-adv-x="1197" 
d="M285 29.5q-113 54.5 -177 160.5t-64 255q0 161 74.5 301t213.5 224.5t323 84.5q144 0 256.5 -54.5t176.5 -160.5t64 -254q0 -161 -74.5 -301t-213.5 -225t-322 -85q-144 0 -257 54.5zM689.5 271.5q53.5 62.5 78.5 154t25 176.5q0 108 -40.5 163.5t-112.5 55.5
q-79 0 -132.5 -61.5t-79 -152.5t-25.5 -179q0 -109 40.5 -164t111.5 -55q81 0 134.5 62.5zM569 1139q-7 -6 -16 -6t-17 8l-67 69q-8 8 -8 17t7 16l320 358q8 9 16 9q10 0 17 -10l112 -138q6 -7 6 -16q0 -10 -10 -17zM939 1126q-7 -6 -16 -6t-17 8l-68 67q-8 8 -8 17t7 16
l322 358q7 9 16 9q10 0 17 -10l111 -135q6 -7 6 -15q0 -9 -10 -18z" />
    <glyph glyph-name="OE" unicode="&#x152;" horiz-adv-x="2065" 
d="M737 0q-191 0 -339.5 70.5t-232 205.5t-83.5 321q0 206 98.5 390.5t282.5 298.5t428 114h1287q21 0 21 -18q0 -5 -1 -8l-51 -221q-4 -21 -25 -21h-628l-71 -263h568q21 0 21 -18q0 -5 -1 -8l-51 -221q-4 -21 -25 -21h-575l-66 -332h638q21 0 21 -18q0 -5 -1 -8l-51 -222
q-4 -21 -25 -21h-1139zM533 348q80 -80 220 -80h162l109 428l92 436h-238q-148 0 -243.5 -87.5t-138.5 -213.5t-43 -244q0 -159 80 -239z" />
    <glyph glyph-name="oe" unicode="&#x153;" horiz-adv-x="1909" 
d="M1652.5 997.5q106.5 -57.5 164 -160t57.5 -234.5q0 -71 -16 -142q-4 -21 -25 -21h-691v-18q6 -213 165 -213q64 0 108.5 33t65.5 91q7 19 27 19h294q10 0 15.5 -5t5.5 -13q0 -5 -1 -8q-27 -105 -96 -184t-175 -123t-240 -44q-121 0 -220.5 37.5t-165.5 109.5
q-77 -70 -177.5 -108.5t-219.5 -38.5q-140 0 -249 54.5t-171.5 160.5t-62.5 255q0 161 72.5 301t208.5 224.5t315 84.5q114 0 209 -37t159 -107q77 68 176.5 106t217.5 38q143 0 249.5 -57.5zM1519 647q1 7 1 20q0 69 -39 112.5t-111 43.5q-74 0 -124 -46.5t-77 -129.5h350z
M690.5 271.5q53.5 62.5 78.5 154t25 176.5q0 108 -40.5 163.5t-112.5 55.5q-79 0 -132.5 -61.5t-79 -152.5t-25.5 -179q0 -109 40.5 -164t111.5 -55q81 0 134.5 62.5z" />
    <glyph glyph-name="Racute" unicode="&#x154;" horiz-adv-x="1346" 
d="M1278 703q-99 -125 -283 -177l210 -499q3 -6 3 -11q0 -7 -5.5 -11.5t-15.5 -4.5h-362q-21 0 -27 19l-131 334l-59 139h-162l-100 -471q-4 -21 -26 -21h-336q-10 0 -15.5 5t-5.5 13q0 5 1 8l166 663l147 690q4 21 26 21h578q253 0 374.5 -107.5t121.5 -290.5
q0 -174 -99 -299zM840 1137h-239l-96 -382h264q123 0 184.5 61t61.5 160q0 161 -175 161zM676 1479q-2 -1 -7 -1q-17 0 -21 18l-32 139q-1 3 -1 7q0 17 17 23l517 190q4 2 11 2q15 0 18 -18l49 -220l1 -7q0 -16 -19 -21z" />
    <glyph glyph-name="racute" unicode="&#x155;" horiz-adv-x="839" 
d="M-27 0q-12 0 -17.5 7t-2.5 19l123 485l104 498q4 21 26 21h310q12 0 17.5 -7t2.5 -19l-38 -140q78 85 175.5 129t201.5 44q15 0 31 -3q11 -1 16 -8.5t2 -18.5l-51 -219q-5 -20 -21 -20l-26 1q-100 0 -189 -43.5t-152 -125t-86 -192.5l-86 -387q-4 -21 -26 -21h-314z
M393 1109q-2 -1 -7 -1q-17 0 -21 18l-32 139q-1 3 -1 7q0 17 17 23l517 190q4 2 11 2q15 0 18 -18l49 -220l1 -7q0 -16 -19 -21z" />
    <glyph glyph-name="uni0156" unicode="&#x156;" horiz-adv-x="1346" 
d="M1278 703q-99 -125 -283 -177l210 -499q3 -6 3 -11q0 -7 -5.5 -11.5t-15.5 -4.5h-362q-21 0 -27 19l-131 334l-59 139h-162l-100 -471q-4 -21 -26 -21h-336q-10 0 -15.5 5t-5.5 13q0 5 1 8l166 663l147 690q4 21 26 21h578q253 0 374.5 -107.5t121.5 -290.5
q0 -174 -99 -299zM840 1137h-239l-96 -382h264q123 0 184.5 61t61.5 160q0 161 -175 161zM261 -538q-21 0 -21 17q0 5 3 11l83 182l54 230q3 21 25 21h310q12 0 17.5 -7t2.5 -19l-47 -207q-5 -17 -16 -26l-234 -192q-13 -10 -29 -10h-148z" />
    <glyph glyph-name="uni0157" unicode="&#x157;" horiz-adv-x="839" 
d="M-27 0q-12 0 -17.5 7t-2.5 19l123 485l104 498q4 21 26 21h310q12 0 17.5 -7t2.5 -19l-38 -140q78 85 175.5 129t201.5 44q15 0 31 -3q11 -1 16 -8.5t2 -18.5l-51 -219q-5 -20 -21 -20l-26 1q-100 0 -189 -43.5t-152 -125t-86 -192.5l-86 -387q-4 -21 -26 -21h-314z
M-183 -538q-21 0 -21 17q0 5 3 11l83 182l54 230q3 21 25 21h310q12 0 17.5 -7t2.5 -19l-47 -207q-5 -17 -16 -26l-234 -192q-13 -10 -29 -10h-148z" />
    <glyph glyph-name="Rcaron" unicode="&#x158;" horiz-adv-x="1346" 
d="M1278 703q-99 -125 -283 -177l210 -499q3 -6 3 -11q0 -7 -5.5 -11.5t-15.5 -4.5h-362q-21 0 -27 19l-131 334l-59 139h-162l-100 -471q-4 -21 -26 -21h-336q-10 0 -15.5 5t-5.5 13q0 5 1 8l166 663l147 690q4 21 26 21h578q253 0 374.5 -107.5t121.5 -290.5
q0 -174 -99 -299zM840 1137h-239l-96 -382h264q123 0 184.5 61t61.5 160q0 161 -175 161zM515 1723q-10 7 -10 19q0 6 5 14l76 122q7 12 18 12q7 0 14 -4l277 -150l316 151q6 3 12 3q13 0 19 -15l53 -123q3 -6 3 -12q0 -12 -12 -20l-340 -222q-14 -9 -29 -9h-111
q-17 0 -29 11z" />
    <glyph glyph-name="rcaron" unicode="&#x159;" horiz-adv-x="839" 
d="M-27 0q-12 0 -17.5 7t-2.5 19l123 485l104 498q4 21 26 21h310q12 0 17.5 -7t2.5 -19l-38 -140q78 85 175.5 129t201.5 44q15 0 31 -3q11 -1 16 -8.5t2 -18.5l-51 -219q-5 -20 -21 -20l-26 1q-100 0 -189 -43.5t-152 -125t-86 -192.5l-86 -387q-4 -21 -26 -21h-314z
M231 1353q-10 7 -10 19q0 6 5 14l76 122q7 12 18 12q7 0 14 -4l277 -150l316 151q6 3 12 3q13 0 19 -15l53 -123q3 -6 3 -12q0 -12 -12 -20l-340 -222q-14 -9 -29 -9h-111q-17 0 -29 11z" />
    <glyph glyph-name="Sacute" unicode="&#x15a;" horiz-adv-x="1366" 
d="M331 21.5q-148 55.5 -232.5 163t-82.5 255.5q0 23 24 23h335q21 0 23 -23q9 -95 79.5 -149.5t204.5 -54.5q76 0 129 20.5t79.5 54.5t26.5 75q0 49 -37 81t-93 51.5t-156 44.5q-147 37 -241 75t-161.5 116.5t-67.5 209.5q0 137 80 243.5t224.5 166t331.5 59.5
q165 0 297.5 -47.5t210 -142.5t79.5 -232q0 -24 -24 -24h-337q-21 0 -24 23q-9 72 -67.5 111t-160.5 39q-99 0 -163 -34.5t-64 -97.5q0 -43 35.5 -72.5t89.5 -48t151 -43.5q151 -39 248.5 -78.5t168 -120t70.5 -211.5q0 -141 -80.5 -252t-227 -173.5t-337.5 -62.5
q-183 0 -331 55.5zM699 1481q-2 -1 -7 -1q-17 0 -21 18l-32 139q-1 3 -1 7q0 17 17 23l517 190q4 2 11 2q15 0 18 -18l49 -220l1 -7q0 -16 -19 -21z" />
    <glyph glyph-name="sacute" unicode="&#x15b;" horiz-adv-x="1112" 
d="M246.5 20q-116.5 45 -178.5 123t-67 177q-1 11 5.5 17t18.5 6h300q21 0 24 -23q11 -125 181 -125q75 0 109 24.5t34 61.5q0 29 -24.5 49t-62.5 33t-107 31q-112 30 -185 60.5t-126.5 92.5t-53.5 164q0 101 59.5 179t170.5 121.5t260 43.5q145 0 250.5 -41t163.5 -114
t65 -169q2 -24 -23 -24h-285q-22 0 -25 23q-8 53 -46 82t-102 29q-62 0 -94.5 -24t-32.5 -61q0 -31 26 -52t65.5 -34.5t109.5 -31.5q109 -28 180 -56.5t122 -86.5t51 -152q0 -104 -61.5 -187.5t-175.5 -132t-267 -48.5q-162 0 -278.5 45zM525 1109q-2 -1 -7 -1q-17 0 -21 18
l-32 139q-1 3 -1 7q0 17 17 23l517 190q4 2 11 2q15 0 18 -18l49 -220l1 -7q0 -16 -19 -21z" />
    <glyph glyph-name="Scircumflex" unicode="&#x15c;" horiz-adv-x="1366" 
d="M331 21.5q-148 55.5 -232.5 163t-82.5 255.5q0 23 24 23h335q21 0 23 -23q9 -95 79.5 -149.5t204.5 -54.5q76 0 129 20.5t79.5 54.5t26.5 75q0 49 -37 81t-93 51.5t-156 44.5q-147 37 -241 75t-161.5 116.5t-67.5 209.5q0 137 80 243.5t224.5 166t331.5 59.5
q165 0 297.5 -47.5t210 -142.5t79.5 -232q0 -24 -24 -24h-337q-21 0 -24 23q-9 72 -67.5 111t-160.5 39q-99 0 -163 -34.5t-64 -97.5q0 -43 35.5 -72.5t89.5 -48t151 -43.5q151 -39 248.5 -78.5t168 -120t70.5 -211.5q0 -141 -80.5 -252t-227 -173.5t-337.5 -62.5
q-183 0 -331 55.5zM513 1623q-3 6 -3 11q0 11 13 21l339 222q13 9 30 9h111q17 0 28 -10l263 -224q9 -7 9 -18q0 -7 -4 -14l-76 -123q-7 -12 -18 -12q-7 0 -14 4l-277 150l-316 -151q-6 -3 -12 -3q-14 0 -20 15z" />
    <glyph glyph-name="scircumflex" unicode="&#x15d;" horiz-adv-x="1112" 
d="M246.5 20q-116.5 45 -178.5 123t-67 177q-1 11 5.5 17t18.5 6h300q21 0 24 -23q11 -125 181 -125q75 0 109 24.5t34 61.5q0 29 -24.5 49t-62.5 33t-107 31q-112 30 -185 60.5t-126.5 92.5t-53.5 164q0 101 59.5 179t170.5 121.5t260 43.5q145 0 250.5 -41t163.5 -114
t65 -169q2 -24 -23 -24h-285q-22 0 -25 23q-8 53 -46 82t-102 29q-62 0 -94.5 -24t-32.5 -61q0 -31 26 -52t65.5 -34.5t109.5 -31.5q109 -28 180 -56.5t122 -86.5t51 -152q0 -104 -61.5 -187.5t-175.5 -132t-267 -48.5q-162 0 -278.5 45zM339 1251q-3 6 -3 11q0 11 13 21
l339 222q13 9 30 9h111q17 0 28 -10l263 -224q9 -7 9 -18q0 -7 -4 -14l-76 -123q-7 -12 -18 -12q-7 0 -14 4l-277 150l-316 -151q-6 -3 -12 -3q-14 0 -20 15z" />
    <glyph glyph-name="Scedilla" unicode="&#x15e;" horiz-adv-x="1366" 
d="M1094.5 1385.5q132.5 -47.5 210 -142.5t79.5 -232q0 -24 -24 -24h-337q-21 0 -24 23q-9 72 -67.5 111t-160.5 39q-99 0 -163 -34.5t-64 -97.5q0 -43 35.5 -72.5t89.5 -48t151 -43.5q151 -39 248.5 -78.5t168 -120t70.5 -211.5q0 -129 -67.5 -233t-191.5 -169.5
t-289 -81.5l-153 -322q-9 -18 -29 -15l-275 40q-18 3 -18 16q0 6 4 13l165 285q-131 27 -230.5 88t-154 153.5t-52.5 211.5q0 23 24 23h335q21 0 23 -23q9 -95 79.5 -149.5t204.5 -54.5q76 0 129 20.5t79.5 54.5t26.5 75q0 49 -37 81t-93 51.5t-156 44.5q-147 37 -241 75
t-161.5 116.5t-67.5 209.5q0 137 80 243.5t224.5 166t331.5 59.5q165 0 297.5 -47.5z" />
    <glyph glyph-name="scedilla" unicode="&#x15f;" horiz-adv-x="1112" 
d="M1060 707h-285q-22 0 -25 23q-8 53 -46 82t-102 29q-62 0 -94.5 -24t-32.5 -61q0 -31 26 -52t65.5 -34.5t109.5 -31.5q109 -28 180 -56.5t122 -86.5t51 -152t-50 -172t-145 -128.5t-223 -63.5l-157 -330q-9 -18 -29 -15l-275 40q-18 3 -18 16q0 6 4 13l172 297
q-143 37 -222 122t-85 198q-1 11 5.5 17t18.5 6h300q21 0 24 -23q11 -125 181 -125q75 0 109 24.5t34 61.5q0 29 -24.5 49t-62.5 33t-107 31q-112 30 -185 60.5t-126.5 92.5t-53.5 164q0 101 59.5 179t170.5 121.5t260 43.5q145 0 250.5 -41t163.5 -114t65 -169
q2 -24 -23 -24z" />
    <glyph glyph-name="Scaron" unicode="&#x160;" horiz-adv-x="1366" 
d="M331 21.5q-148 55.5 -232.5 163t-82.5 255.5q0 23 24 23h335q21 0 23 -23q9 -95 79.5 -149.5t204.5 -54.5q76 0 129 20.5t79.5 54.5t26.5 75q0 49 -37 81t-93 51.5t-156 44.5q-147 37 -241 75t-161.5 116.5t-67.5 209.5q0 137 80 243.5t224.5 166t331.5 59.5
q165 0 297.5 -47.5t210 -142.5t79.5 -232q0 -24 -24 -24h-337q-21 0 -24 23q-9 72 -67.5 111t-160.5 39q-99 0 -163 -34.5t-64 -97.5q0 -43 35.5 -72.5t89.5 -48t151 -43.5q151 -39 248.5 -78.5t168 -120t70.5 -211.5q0 -141 -80.5 -252t-227 -173.5t-337.5 -62.5
q-183 0 -331 55.5zM537 1725q-10 7 -10 19q0 6 5 14l76 122q7 12 18 12q7 0 14 -4l277 -150l316 151q6 3 12 3q13 0 19 -15l53 -123q3 -6 3 -12q0 -12 -12 -20l-340 -222q-14 -9 -29 -9h-111q-17 0 -29 11z" />
    <glyph glyph-name="scaron" unicode="&#x161;" horiz-adv-x="1112" 
d="M246.5 20q-116.5 45 -178.5 123t-67 177q-1 11 5.5 17t18.5 6h300q21 0 24 -23q11 -125 181 -125q75 0 109 24.5t34 61.5q0 29 -24.5 49t-62.5 33t-107 31q-112 30 -185 60.5t-126.5 92.5t-53.5 164q0 101 59.5 179t170.5 121.5t260 43.5q145 0 250.5 -41t163.5 -114
t65 -169q2 -24 -23 -24h-285q-22 0 -25 23q-8 53 -46 82t-102 29q-62 0 -94.5 -24t-32.5 -61q0 -31 26 -52t65.5 -34.5t109.5 -31.5q109 -28 180 -56.5t122 -86.5t51 -152q0 -104 -61.5 -187.5t-175.5 -132t-267 -48.5q-162 0 -278.5 45zM364 1353q-10 7 -10 19q0 6 5 14
l76 122q7 12 18 12q7 0 14 -4l277 -150l316 151q6 3 12 3q13 0 19 -15l53 -123q3 -6 3 -12q0 -12 -12 -20l-340 -222q-14 -9 -29 -9h-111q-17 0 -29 11z" />
    <glyph glyph-name="uni0162" unicode="&#x162;" horiz-adv-x="1225" 
d="M1378 1400q21 0 21 -18q0 -5 -1 -8l-51 -221q-4 -21 -25 -21h-373l-112 -428l-141 -683q-3 -21 -26 -21h-20l-3 -8l-163 -341q-9 -19 -30 -16l-274 44q-18 3 -18 17q0 6 4 13l172 291h-11q-12 0 -17.5 7t-2.5 19l173 678l87 428h-367q-12 0 -17.5 7t-2.5 19l51 221
q4 21 25 21h1122z" />
    <glyph glyph-name="uni0163" unicode="&#x163;" horiz-adv-x="814" 
d="M865 1030q12 0 17.5 -7t3.5 -19l-48 -204q-4 -21 -26 -21h-222l-98 -435q-5 -21 -5 -43q0 -38 20.5 -53.5t57.5 -15.5q53 0 115 16q3 1 8 1q9 0 13 -6.5t2 -17.5l-42 -182q-5 -18 -23 -24q-71 -24 -130 -33l-160 -337q-9 -18 -29 -15l-275 40q-19 3 -19 17q0 7 4 12
l187 321l2 3q-103 63 -103 199q0 46 12 100l107 453h-108q-12 0 -17.5 7t-3.5 19l49 204q3 21 25 21h113l53 237q1 10 8 15.5t17 5.5h314q12 0 17.5 -7t3.5 -19l-56 -232h216z" />
    <glyph glyph-name="Tcaron" unicode="&#x164;" horiz-adv-x="1231" 
d="M327 0q-12 0 -17.5 7t-2.5 19l173 678l87 428h-367q-12 0 -17.5 7t-2.5 19l51 221q4 21 25 21h1122q21 0 21 -18q0 -5 -1 -8l-51 -221q-4 -21 -25 -21h-373l-112 -428l-141 -683q-3 -21 -26 -21h-343zM493 1723q-10 7 -10 19q0 6 5 14l76 122q7 12 18 12q7 0 14 -4
l277 -150l316 151q6 3 12 3q13 0 19 -15l53 -123q3 -6 3 -12q0 -12 -12 -20l-340 -222q-14 -9 -29 -9h-111q-17 0 -29 11z" />
    <glyph glyph-name="tcaron" unicode="&#x165;" horiz-adv-x="814" 
d="M865 1030q12 0 17.5 -7t3.5 -19l-48 -204q-4 -21 -26 -21h-222l-98 -435q-5 -21 -5 -43q0 -38 20.5 -53.5t57.5 -15.5q53 0 115 16q3 1 8 1q9 0 13 -6.5t2 -17.5l-42 -182q-5 -18 -23 -24q-121 -41 -219 -41q-135 0 -219.5 61.5t-84.5 186.5q0 46 12 100l107 453h-108
q-12 0 -17.5 7t-3.5 19l49 204q3 21 25 21h113l53 237q1 10 8 15.5t17 5.5h314q12 0 17.5 -7t3.5 -19l-56 -232h216zM958 1108q-8 -18 -28 -18h-177q-20 0 -20 18q0 6 1 9l149 454q7 19 27 19h239q20 0 20 -16q0 -6 -3 -12z" />
    <glyph glyph-name="Tbar" unicode="&#x166;" horiz-adv-x="1231" 
d="M1378 1400q21 0 21 -18q0 -5 -1 -8l-51 -221q-4 -21 -25 -21h-373l-89 -338h207q12 0 17.5 -7t2.5 -19l-50 -220q-4 -21 -25 -21h-211l-105 -506q-3 -21 -26 -21h-343q-12 0 -17.5 7t-2.5 19l128 501h-206q-12 0 -17.5 7.5t-2.5 18.5l50 220q5 21 25 21h215l68 338h-367
q-12 0 -17.5 7t-2.5 19l51 221q4 21 25 21h1122z" />
    <glyph glyph-name="tbar" unicode="&#x167;" horiz-adv-x="818" 
d="M869 1030q12 0 17.5 -7t3.5 -19l-49 -204q-3 -21 -25 -21h-222l-28 -124h211q12 0 17.5 -7t3.5 -19l-45 -194q-4 -21 -25 -21h-216l-16 -70q-5 -21 -5 -43q0 -38 20.5 -53.5t57.5 -15.5q52 0 114 16q3 1 9 1q9 0 13 -6.5t2 -17.5l-43 -182q-3 -18 -22 -24
q-121 -41 -219 -41q-135 0 -220 61.5t-85 186.5q0 47 13 100l21 88h-109q-12 0 -17.5 7.5t-3.5 18.5l45 194q5 21 25 21h117l29 124h-108q-12 0 -18 7t-3 19l48 204q5 21 26 21h113l52 237q5 21 26 21h314q12 0 17.5 -7t3.5 -19l-57 -232h217z" />
    <glyph glyph-name="Utilde" unicode="&#x168;" horiz-adv-x="1337" 
d="M319.5 20q-121.5 53 -185.5 152.5t-64 236.5q0 80 20 161l70 294l109 515q3 21 26 21h333q10 0 15.5 -5t5.5 -13q0 -5 -1 -8l-128 -500l-70 -308q-15 -63 -15 -115q0 -95 50 -145t152 -50q108 0 173.5 61t97.5 196l83 353l107 513q4 21 26 21h321q12 0 17.5 -7t2.5 -19
l-129 -510l-80 -354q-63 -274 -217.5 -408.5t-428.5 -134.5q-169 0 -290.5 53zM965 1519.5q-35 15.5 -74 43.5q-24 17 -39 25t-30 8q-28 0 -44 -19t-25 -55q-6 -21 -26 -21h-130q-11 0 -17 6.5t-5 18.5q20 128 90.5 207t178.5 79q44 0 76.5 -15t74.5 -44q24 -17 38.5 -25
t28.5 -8q28 0 44 18t24 53q4 22 26 22h131q11 0 16.5 -8.5t3.5 -23.5q-22 -131 -89 -204t-170 -73q-48 0 -83 15.5z" />
    <glyph glyph-name="utilde" unicode="&#x169;" 
d="M1198 1030q12 0 17.5 -7t2.5 -19l-120 -481l-112 -502q-4 -21 -25 -21h-299q-13 0 -18.5 7t-2.5 19l22 90q-65 -64 -148.5 -102t-178.5 -38q-90 0 -160.5 34.5t-111 101.5t-40.5 161q0 59 16 123l48 197l88 416q4 21 26 21h320q12 0 17.5 -7t2.5 -19l-95 -369l-45 -219
q-7 -32 -7 -64q0 -55 27 -85t80 -30q100 0 160.5 96.5t89.5 221.5l21 85l76 369q5 21 26 21h323zM784 1149.5q-35 15.5 -74 43.5q-24 17 -39 25t-30 8q-28 0 -44 -19t-25 -55q-6 -21 -26 -21h-130q-11 0 -17 6.5t-5 18.5q20 128 90.5 207t178.5 79q44 0 76.5 -15t74.5 -44
q24 -17 38.5 -25t28.5 -8q28 0 44 18t24 53q4 22 26 22h131q11 0 16.5 -8.5t3.5 -23.5q-22 -131 -89 -204t-170 -73q-48 0 -83 15.5z" />
    <glyph glyph-name="Umacron" unicode="&#x16a;" horiz-adv-x="1337" 
d="M319.5 20q-121.5 53 -185.5 152.5t-64 236.5q0 80 20 161l70 294l109 515q3 21 26 21h333q10 0 15.5 -5t5.5 -13q0 -5 -1 -8l-128 -500l-70 -308q-15 -63 -15 -115q0 -95 50 -145t152 -50q108 0 173.5 61t97.5 196l83 353l107 513q4 21 26 21h321q12 0 17.5 -7t2.5 -19
l-129 -510l-80 -354q-63 -274 -217.5 -408.5t-428.5 -134.5q-169 0 -290.5 53zM591 1510q-12 0 -17.5 7t-2.5 19l42 178q4 21 26 21h636q12 0 17.5 -7t3.5 -19l-43 -178q-4 -21 -25 -21h-637z" />
    <glyph glyph-name="umacron" unicode="&#x16b;" 
d="M1198 1030q12 0 17.5 -7t2.5 -19l-120 -481l-112 -502q-4 -21 -25 -21h-299q-13 0 -18.5 7t-2.5 19l22 90q-65 -64 -148.5 -102t-178.5 -38q-90 0 -160.5 34.5t-111 101.5t-40.5 161q0 59 16 123l48 197l88 416q4 21 26 21h320q12 0 17.5 -7t2.5 -19l-95 -369l-45 -219
q-7 -32 -7 -64q0 -55 27 -85t80 -30q100 0 160.5 96.5t89.5 221.5l21 85l76 369q5 21 26 21h323zM410 1140q-12 0 -17.5 7t-2.5 19l42 178q4 21 26 21h636q12 0 17.5 -7t3.5 -19l-43 -178q-4 -21 -25 -21h-637z" />
    <glyph glyph-name="Ubreve" unicode="&#x16c;" horiz-adv-x="1337" 
d="M319.5 20q-121.5 53 -185.5 152.5t-64 236.5q0 80 20 161l70 294l109 515q3 21 26 21h333q10 0 15.5 -5t5.5 -13q0 -5 -1 -8l-128 -500l-70 -308q-15 -63 -15 -115q0 -95 50 -145t152 -50q108 0 173.5 61t97.5 196l83 353l107 513q4 21 26 21h321q12 0 17.5 -7t2.5 -19
l-129 -510l-80 -354q-63 -274 -217.5 -408.5t-428.5 -134.5q-169 0 -290.5 53zM756.5 1534q-76.5 39 -117.5 107t-41 154q0 20 1 30q1 22 24 22h184q23 0 23 -26q0 -49 31.5 -78.5t90.5 -29.5q58 0 97.5 30.5t57.5 83.5q6 20 26 20h185q12 0 18.5 -6t4.5 -17
q-19 -95 -73.5 -169.5t-140.5 -117t-193 -42.5q-101 0 -177.5 39z" />
    <glyph glyph-name="ubreve" unicode="&#x16d;" 
d="M1198 1030q12 0 17.5 -7t2.5 -19l-120 -481l-112 -502q-4 -21 -25 -21h-299q-13 0 -18.5 7t-2.5 19l22 90q-65 -64 -148.5 -102t-178.5 -38q-90 0 -160.5 34.5t-111 101.5t-40.5 161q0 59 16 123l48 197l88 416q4 21 26 21h320q12 0 17.5 -7t2.5 -19l-95 -369l-45 -219
q-7 -32 -7 -64q0 -55 27 -85t80 -30q100 0 160.5 96.5t89.5 221.5l21 85l76 369q5 21 26 21h323zM575.5 1164q-76.5 39 -117.5 107t-41 154q0 20 1 30q1 22 24 22h184q23 0 23 -26q0 -49 31.5 -78.5t90.5 -29.5q58 0 97.5 30.5t57.5 83.5q6 20 26 20h185q12 0 18.5 -6
t4.5 -17q-19 -95 -73.5 -169.5t-140.5 -117t-193 -42.5q-101 0 -177.5 39z" />
    <glyph glyph-name="Uring" unicode="&#x16e;" horiz-adv-x="1337" 
d="M319.5 20q-121.5 53 -185.5 152.5t-64 236.5q0 80 20 161l70 294l109 515q3 21 26 21h333q10 0 15.5 -5t5.5 -13q0 -5 -1 -8l-128 -500l-70 -308q-15 -63 -15 -115q0 -95 50 -145t152 -50q108 0 173.5 61t97.5 196l83 353l107 513q4 21 26 21h321q12 0 17.5 -7t2.5 -19
l-129 -510l-80 -354q-63 -274 -217.5 -408.5t-428.5 -134.5q-169 0 -290.5 53zM804.5 1517.5q-62.5 29.5 -99.5 84t-37 125.5q0 72 39 134t107.5 99t154.5 37q76 0 138.5 -30t99 -84.5t36.5 -124.5q0 -72 -39 -134t-107.5 -99t-154.5 -37q-75 0 -137.5 29.5zM1029 1661
q31 40 31 96q0 50 -26.5 78.5t-68.5 28.5q-53 0 -83.5 -41.5t-30.5 -95.5q0 -50 27 -78t69 -28q51 0 82 40z" />
    <glyph glyph-name="uring" unicode="&#x16f;" 
d="M1198 1030q12 0 17.5 -7t2.5 -19l-120 -481l-112 -502q-4 -21 -25 -21h-299q-13 0 -18.5 7t-2.5 19l22 90q-65 -64 -148.5 -102t-178.5 -38q-90 0 -160.5 34.5t-111 101.5t-40.5 161q0 59 16 123l48 197l88 416q4 21 26 21h320q12 0 17.5 -7t2.5 -19l-95 -369l-45 -219
q-7 -32 -7 -64q0 -55 27 -85t80 -30q100 0 160.5 96.5t89.5 221.5l21 85l76 369q5 21 26 21h323zM623.5 1147.5q-62.5 29.5 -99.5 84t-37 125.5q0 72 39 134t107.5 99t154.5 37q76 0 138.5 -30t99 -84.5t36.5 -124.5q0 -72 -39 -134t-107.5 -99t-154.5 -37
q-75 0 -137.5 29.5zM848 1291q31 40 31 96q0 50 -26.5 78.5t-68.5 28.5q-53 0 -83.5 -41.5t-30.5 -95.5q0 -50 27 -78t69 -28q51 0 82 40z" />
    <glyph glyph-name="Uhungarumlaut" unicode="&#x170;" horiz-adv-x="1337" 
d="M319.5 20q-121.5 53 -185.5 152.5t-64 236.5q0 80 20 161l70 294l109 515q3 21 26 21h333q10 0 15.5 -5t5.5 -13q0 -5 -1 -8l-128 -500l-70 -308q-15 -63 -15 -115q0 -95 50 -145t152 -50q108 0 173.5 61t97.5 196l83 353l107 513q4 21 26 21h321q12 0 17.5 -7t2.5 -19
l-129 -510l-80 -354q-63 -274 -217.5 -408.5t-428.5 -134.5q-169 0 -290.5 53zM733 1509q-7 -6 -16 -6t-17 8l-67 69q-8 8 -8 17t7 16l320 358q8 9 16 9q10 0 17 -10l112 -138q6 -7 6 -16q0 -10 -10 -17zM1103 1496q-7 -6 -16 -6t-17 8l-68 67q-8 8 -8 17t7 16l322 358
q7 9 16 9q10 0 17 -10l111 -135q6 -7 6 -15q0 -9 -10 -18z" />
    <glyph glyph-name="uhungarumlaut" unicode="&#x171;" 
d="M1198 1030q12 0 17.5 -7t2.5 -19l-120 -481l-112 -502q-4 -21 -25 -21h-299q-13 0 -18.5 7t-2.5 19l22 90q-65 -64 -148.5 -102t-178.5 -38q-90 0 -160.5 34.5t-111 101.5t-40.5 161q0 59 16 123l48 197l88 416q4 21 26 21h320q12 0 17.5 -7t2.5 -19l-95 -369l-45 -219
q-7 -32 -7 -64q0 -55 27 -85t80 -30q100 0 160.5 96.5t89.5 221.5l21 85l76 369q5 21 26 21h323zM552 1139q-7 -6 -16 -6t-17 8l-67 69q-8 8 -8 17t7 16l320 358q8 9 16 9q10 0 17 -10l112 -138q6 -7 6 -16q0 -10 -10 -17zM922 1126q-7 -6 -16 -6t-17 8l-68 67q-8 8 -8 17
t7 16l322 358q7 9 16 9q10 0 17 -10l111 -135q6 -7 6 -15q0 -9 -10 -18z" />
    <glyph glyph-name="Uogonek" unicode="&#x172;" horiz-adv-x="1337" 
d="M1445 1400q12 0 17.5 -7t2.5 -19l-129 -510l-80 -354q-62 -270 -212 -404t-414 -139q-20 -26 -32.5 -56.5t-12.5 -56.5q0 -63 95 -63h79q13 0 18 -7t3 -19l-43 -184q-4 -21 -26 -21h-119q-95 0 -161.5 27.5t-99.5 76.5t-33 112q0 64 33.5 117.5t93.5 92.5
q-170 38 -262.5 148t-92.5 275q0 80 20 161l70 294l109 515q3 21 26 21h333q10 0 15.5 -5t5.5 -13q0 -5 -1 -8l-128 -500l-70 -308q-15 -63 -15 -115q0 -95 50 -145t152 -50q108 0 173.5 61t97.5 196l83 353l107 513q4 21 26 21h321z" />
    <glyph glyph-name="uogonek" unicode="&#x173;" 
d="M1198 1030q12 0 17.5 -7t2.5 -19l-120 -481l-112 -502q-4 -21 -25 -21h-115q-29 -25 -52 -67.5t-23 -78.5q0 -63 95 -63h79q13 0 18 -7t3 -19l-43 -184q-4 -21 -26 -21h-119q-95 0 -161.5 27.5t-99.5 76.5t-33 112q0 73 43 131.5t118 98.5q-7 6 -4 20l22 90
q-65 -64 -148.5 -102t-178.5 -38q-90 0 -160.5 34.5t-111 101.5t-40.5 161q0 59 16 123l48 197l88 416q4 21 26 21h320q12 0 17.5 -7t2.5 -19l-95 -369l-45 -219q-7 -32 -7 -64q0 -55 27 -85t80 -30q100 0 160.5 96.5t89.5 221.5l21 85l76 369q5 21 26 21h323z" />
    <glyph glyph-name="Wcircumflex" unicode="&#x174;" horiz-adv-x="1908" 
d="M235 0q-23 0 -23 24l9 1353q0 23 23 23h301q25 0 23 -24l-42 -951l410 957q9 18 28 18h347q25 0 23 -24l-23 -964l401 970q6 18 27 18h327q10 0 15.5 -4.5t5.5 -11.5q0 -6 -3 -12l-623 -1354q-8 -18 -27 -18h-383q-23 0 -23 24l-1 836l-377 -842q-7 -18 -28 -18h-387z
M798 1621q-3 6 -3 11q0 11 13 21l339 222q13 9 30 9h111q17 0 28 -10l263 -224q9 -7 9 -18q0 -7 -4 -14l-76 -123q-7 -12 -18 -12q-7 0 -14 4l-277 150l-316 -151q-6 -3 -12 -3q-14 0 -20 15z" />
    <glyph glyph-name="wcircumflex" unicode="&#x175;" horiz-adv-x="1533" 
d="M139 0q-23 0 -23 24l13 983q0 11 6.5 17t16.5 6h279q11 0 17.5 -6.5t5.5 -18.5l-65 -662l280 669q8 18 28 18h354q25 0 23 -24l-32 -647l247 652q6 19 27 19h297q10 0 15.5 -4.5t5.5 -11.5q0 -6 -3 -12l-446 -984q-8 -18 -27 -18h-352q-23 0 -23 24l11 661l-278 -667
q-8 -18 -27 -18h-350zM535 1251q-3 6 -3 11q0 11 13 21l339 222q13 9 30 9h111q17 0 28 -10l263 -224q9 -7 9 -18q0 -7 -4 -14l-76 -123q-7 -12 -18 -12q-7 0 -14 4l-277 150l-316 -151q-6 -3 -12 -3q-14 0 -20 15z" />
    <glyph glyph-name="Ycircumflex" unicode="&#x176;" horiz-adv-x="1311" 
d="M201 1374q-1 3 -1 8q0 8 5.5 13t15.5 5h344q22 0 25 -21l120 -571l384 577q11 15 28 15h370q9 0 14.5 -4t5.5 -10q0 -7 -6 -15l-681 -913l-92 -437q-4 -21 -26 -21h-335q-12 0 -17.5 7t-2.5 19l108 428zM505 1621q-3 6 -3 11q0 11 13 21l339 222q13 9 30 9h111
q17 0 28 -10l263 -224q9 -7 9 -18q0 -7 -4 -14l-76 -123q-7 -12 -18 -12q-7 0 -14 4l-277 150l-316 -151q-6 -3 -12 -3q-14 0 -20 15z" />
    <glyph glyph-name="ycircumflex" unicode="&#x177;" horiz-adv-x="1116" 
d="M136 -340q-10 0 -15 4t-5 11q0 6 4 13l162 289l-168 1028q-2 11 4 18t18 7h322q22 0 25 -22l62 -603l310 608q7 17 27 17h331q10 0 15 -4t5 -11q0 -6 -4 -13l-758 -1326q-8 -16 -28 -16h-307zM331 1251q-3 6 -3 11q0 11 13 21l339 222q13 9 30 9h111q17 0 28 -10
l263 -224q9 -7 9 -18q0 -7 -4 -14l-76 -123q-7 -12 -18 -12q-7 0 -14 4l-277 150l-316 -151q-6 -3 -12 -3q-14 0 -20 15z" />
    <glyph glyph-name="Ydieresis" unicode="&#x178;" horiz-adv-x="1311" 
d="M201 1374q-1 3 -1 8q0 8 5.5 13t15.5 5h344q22 0 25 -21l120 -571l384 577q11 15 28 15h370q9 0 14.5 -4t5.5 -10q0 -7 -6 -15l-681 -913l-92 -437q-4 -21 -26 -21h-335q-12 0 -17.5 7t-2.5 19l108 428zM540 1480q-13 0 -18 7t-3 19l58 243q4 21 25 21h246q13 0 18 -7
t3 -19l-57 -243q-6 -21 -26 -21h-246zM947 1480q-12 0 -17.5 7t-2.5 19l57 243q4 21 26 21h246q12 0 17.5 -7t3.5 -19l-58 -243q-4 -21 -25 -21h-247z" />
    <glyph glyph-name="Zacute" unicode="&#x179;" horiz-adv-x="1257" 
d="M-42 0q-12 0 -17.5 7t-3.5 19l59 254q3 15 15 26l892 826h-629q-21 0 -21 18q0 5 1 8l51 221q5 21 25 21h1058q12 0 17.5 -7t2.5 -19l-61 -264q-4 -15 -15 -26l-875 -815h666q12 0 17.5 -7t2.5 -19l-51 -222q-4 -21 -25 -21h-1109zM672 1479q-2 -1 -7 -1q-17 0 -21 18
l-32 139q-1 3 -1 7q0 17 17 23l517 190q4 2 11 2q15 0 18 -18l49 -220l1 -7q0 -16 -19 -21z" />
    <glyph glyph-name="zacute" unicode="&#x17a;" horiz-adv-x="1026" 
d="M-28 0q-12 0 -17.5 7t-3.5 19l48 210q4 15 15 26l538 517h-359q-13 0 -18.5 7t-2.5 19l48 204q5 21 25 21h779q12 0 17.5 -7t2.5 -19l-50 -215q-4 -16 -15 -27l-540 -510h437q13 0 18 -7t3 -19l-48 -205q-4 -21 -25 -21h-852zM475 1109q-2 -1 -7 -1q-17 0 -21 18l-32 139
q-1 3 -1 7q0 17 17 23l517 190q4 2 11 2q15 0 18 -18l49 -220l1 -7q0 -16 -19 -21z" />
    <glyph glyph-name="Zdotaccent" unicode="&#x17b;" horiz-adv-x="1257" 
d="M-42 0q-12 0 -17.5 7t-3.5 19l59 254q3 15 15 26l892 826h-629q-21 0 -21 18q0 5 1 8l51 221q5 21 25 21h1058q12 0 17.5 -7t2.5 -19l-61 -264q-4 -15 -15 -26l-875 -815h666q12 0 17.5 -7t2.5 -19l-51 -222q-4 -21 -25 -21h-1109zM690 1482q-12 0 -18 7t-3 19l57 241
q4 21 26 21h317q12 0 17.5 -7t3.5 -19l-58 -242q-4 -20 -25 -20h-317z" />
    <glyph glyph-name="zdotaccent" unicode="&#x17c;" horiz-adv-x="1026" 
d="M-28 0q-12 0 -17.5 7t-3.5 19l48 210q4 15 15 26l538 517h-359q-13 0 -18.5 7t-2.5 19l48 204q5 21 25 21h779q12 0 17.5 -7t2.5 -19l-50 -215q-4 -16 -15 -27l-540 -510h437q13 0 18 -7t3 -19l-48 -205q-4 -21 -25 -21h-852zM494 1112q-12 0 -18 7t-3 19l57 241
q4 21 26 21h317q12 0 17.5 -7t3.5 -19l-58 -242q-4 -20 -25 -20h-317z" />
    <glyph glyph-name="Zcaron" unicode="&#x17d;" horiz-adv-x="1257" 
d="M-42 0q-12 0 -17.5 7t-3.5 19l59 254q3 15 15 26l892 826h-629q-21 0 -21 18q0 5 1 8l51 221q5 21 25 21h1058q12 0 17.5 -7t2.5 -19l-61 -264q-4 -15 -15 -26l-875 -815h666q12 0 17.5 -7t2.5 -19l-51 -222q-4 -21 -25 -21h-1109zM510 1723q-10 7 -10 19q0 6 5 14
l76 122q7 12 18 12q7 0 14 -4l277 -150l316 151q6 3 12 3q13 0 19 -15l53 -123q3 -6 3 -12q0 -12 -12 -20l-340 -222q-14 -9 -29 -9h-111q-17 0 -29 11z" />
    <glyph glyph-name="zcaron" unicode="&#x17e;" horiz-adv-x="1026" 
d="M-28 0q-12 0 -17.5 7t-3.5 19l48 210q4 15 15 26l538 517h-359q-13 0 -18.5 7t-2.5 19l48 204q5 21 25 21h779q12 0 17.5 -7t2.5 -19l-50 -215q-4 -16 -15 -27l-540 -510h437q13 0 18 -7t3 -19l-48 -205q-4 -21 -25 -21h-852zM314 1353q-10 7 -10 19q0 6 5 14l76 122
q7 12 18 12q7 0 14 -4l277 -150l316 151q6 3 12 3q13 0 19 -15l53 -123q3 -6 3 -12q0 -12 -12 -20l-340 -222q-14 -9 -29 -9h-111q-17 0 -29 11z" />
    <glyph glyph-name="florin" unicode="&#x192;" horiz-adv-x="882" 
d="M1028 1381q0 -5 -1 -8l-48 -203q-5 -23 -28 -18q-40 10 -103 10q-66 0 -97 -26t-44 -85l-5 -21h219q12 0 17.5 -7t3.5 -19l-49 -205q-3 -21 -25 -21h-226l-54 -229l-128 -568q-38 -173 -155.5 -257t-303.5 -84q-92 0 -192 17q-11 1 -15.5 8.5t-2.5 18.5l48 203
q6 23 28 18q41 -10 104 -10q66 0 96.5 26t44.5 85l133 569l46 203h-128q-12 0 -17.5 7t-2.5 19l48 205q5 21 26 21h131l10 46q40 173 157 257t303 84q91 0 191 -17q19 -3 19 -19z" />
    <glyph glyph-name="Ohorn" unicode="&#x1a0;" horiz-adv-x="1556" 
d="M1652 1509q11 -8 11 -17q0 -6 -8 -16l-241 -250q70 -80 108 -186t38 -235q0 -214 -100 -407t-286 -312t-431 -119q-191 0 -340.5 74.5t-234.5 216.5t-85 338q0 214 100 406.5t286.5 311.5t431.5 119q196 0 348 -79l200 278q8 11 18 11q7 0 14 -6zM1001.5 336.5
q95.5 91.5 139 223t43.5 255.5q0 169 -81 254.5t-217 85.5q-148 0 -244 -91.5t-139.5 -223t-43.5 -255.5q0 -169 81 -254.5t218 -85.5q148 0 243.5 91.5z" />
    <glyph glyph-name="ohorn" unicode="&#x1a1;" horiz-adv-x="1197" 
d="M1281 1140q10 -7 10 -17q0 -8 -7 -16l-220 -231q88 -118 88 -290q0 -161 -74.5 -301t-213.5 -225t-322 -85q-144 0 -257 54.5t-177 160.5t-64 255q0 161 74.5 301t213.5 224.5t323 84.5q141 0 251 -52l172 259q8 12 18 12q7 0 14 -6zM689.5 271.5q53.5 62.5 78.5 154
t25 176.5q0 108 -40.5 163.5t-112.5 55.5q-79 0 -132.5 -61.5t-79 -152.5t-25.5 -179q0 -109 40.5 -164t111.5 -55q81 0 134.5 62.5z" />
    <glyph glyph-name="Uhorn" unicode="&#x1af;" horiz-adv-x="1337" 
d="M1621 1519q10 -7 10 -16q0 -7 -8 -17l-174 -177l-113 -445l-80 -354q-63 -274 -217.5 -408.5t-428.5 -134.5q-169 0 -290.5 53t-185.5 152.5t-64 236.5q0 80 20 161l70 294l109 515q3 21 26 21h333q10 0 15.5 -5t5.5 -13q0 -5 -1 -8l-128 -500l-70 -308q-15 -63 -15 -115
q0 -95 50 -145t152 -50q108 0 173.5 61t97.5 196l83 353l107 513q4 21 26 21h141l154 242q8 12 17 12t16 -6z" />
    <glyph glyph-name="uhorn" unicode="&#x1b0;" 
d="M1379 1149q10 -7 10 -16q0 -7 -8 -17l-181 -183l-102 -410l-112 -502q-4 -21 -25 -21h-299q-13 0 -18.5 7t-2.5 19l22 90q-65 -64 -148.5 -102t-178.5 -38q-90 0 -160.5 34.5t-111 101.5t-40.5 161q0 59 16 123l48 197l88 416q4 21 26 21h320q12 0 17.5 -7t2.5 -19
l-95 -369l-45 -219q-7 -32 -7 -64q0 -55 27 -85t80 -30q100 0 160.5 96.5t89.5 221.5l21 85l76 369q5 21 26 21h148l154 242q8 12 17 12t16 -6z" />
    <glyph glyph-name="uni0218" unicode="&#x218;" horiz-adv-x="1366" 
d="M331 21.5q-148 55.5 -232.5 163t-82.5 255.5q0 23 24 23h335q21 0 23 -23q9 -95 79.5 -149.5t204.5 -54.5q76 0 129 20.5t79.5 54.5t26.5 75q0 49 -37 81t-93 51.5t-156 44.5q-147 37 -241 75t-161.5 116.5t-67.5 209.5q0 137 80 243.5t224.5 166t331.5 59.5
q165 0 297.5 -47.5t210 -142.5t79.5 -232q0 -24 -24 -24h-337q-21 0 -24 23q-9 72 -67.5 111t-160.5 39q-99 0 -163 -34.5t-64 -97.5q0 -43 35.5 -72.5t89.5 -48t151 -43.5q151 -39 248.5 -78.5t168 -120t70.5 -211.5q0 -141 -80.5 -252t-227 -173.5t-337.5 -62.5
q-183 0 -331 55.5zM279 -539q-21 0 -21 17q0 5 3 11l83 182l54 230q3 21 25 21h310q12 0 17.5 -7t2.5 -19l-47 -207q-5 -17 -16 -26l-234 -192q-13 -10 -29 -10h-148z" />
    <glyph glyph-name="uni0219" unicode="&#x219;" horiz-adv-x="1112" 
d="M246.5 20q-116.5 45 -178.5 123t-67 177q-1 11 5.5 17t18.5 6h300q21 0 24 -23q11 -125 181 -125q75 0 109 24.5t34 61.5q0 29 -24.5 49t-62.5 33t-107 31q-112 30 -185 60.5t-126.5 92.5t-53.5 164q0 101 59.5 179t170.5 121.5t260 43.5q145 0 250.5 -41t163.5 -114
t65 -169q2 -24 -23 -24h-285q-22 0 -25 23q-8 53 -46 82t-102 29q-62 0 -94.5 -24t-32.5 -61q0 -31 26 -52t65.5 -34.5t109.5 -31.5q109 -28 180 -56.5t122 -86.5t51 -152q0 -104 -61.5 -187.5t-175.5 -132t-267 -48.5q-162 0 -278.5 45zM127 -538q-21 0 -21 17q0 5 3 11
l83 182l54 230q3 21 25 21h310q12 0 17.5 -7t2.5 -19l-47 -207q-5 -17 -16 -26l-234 -192q-13 -10 -29 -10h-148z" />
    <glyph glyph-name="uni021A" unicode="&#x21a;" horiz-adv-x="1231" 
d="M327 0q-12 0 -17.5 7t-2.5 19l173 678l87 428h-367q-12 0 -17.5 7t-2.5 19l51 221q4 21 25 21h1122q21 0 21 -18q0 -5 -1 -8l-51 -221q-4 -21 -25 -21h-373l-112 -428l-141 -683q-3 -21 -26 -21h-343zM182 -538q-21 0 -21 17q0 5 3 11l83 182l54 230q3 21 25 21h310
q12 0 17.5 -7t2.5 -19l-47 -207q-5 -17 -16 -26l-234 -192q-13 -10 -29 -10h-148z" />
    <glyph glyph-name="uni021B" unicode="&#x21b;" horiz-adv-x="814" 
d="M865 1030q12 0 17.5 -7t3.5 -19l-48 -204q-4 -21 -26 -21h-222l-98 -435q-5 -21 -5 -43q0 -38 20.5 -53.5t57.5 -15.5q53 0 115 16q3 1 8 1q9 0 13 -6.5t2 -17.5l-42 -182q-5 -18 -23 -24q-121 -41 -219 -41q-135 0 -219.5 61.5t-84.5 186.5q0 46 12 100l107 453h-108
q-12 0 -17.5 7t-3.5 19l49 204q3 21 25 21h113l53 237q1 10 8 15.5t17 5.5h314q12 0 17.5 -7t3.5 -19l-56 -232h216zM23 -538q-21 0 -21 17q0 5 3 11l83 182l54 230q3 21 25 21h310q12 0 17.5 -7t2.5 -19l-47 -207q-5 -17 -16 -26l-234 -192q-13 -10 -29 -10h-148z" />
    <glyph glyph-name="uni0237" unicode="&#x237;" horiz-adv-x="512" 
d="M-98 -340q-13 0 -18.5 7t-2.5 19l168 680l137 643q4 21 26 21h322q12 0 17.5 -7t3.5 -19l-158 -638l-148 -685q-3 -21 -26 -21h-321z" />
    <glyph glyph-name="uni0259" unicode="&#x259;" horiz-adv-x="1174" 
d="M263.5 33q-110.5 58 -169.5 161t-59 236q0 69 16 139q4 21 26 21h701v20q-2 106 -47.5 158.5t-124.5 52.5q-66 0 -110.5 -32.5t-66.5 -91.5q-7 -19 -28 -19h-293q-12 0 -18.5 5.5t-3.5 15.5q28 107 98.5 187t180 124.5t249.5 44.5q151 0 267.5 -54.5t182.5 -160.5
t66 -255q0 -161 -74 -301t-212.5 -224.5t-321.5 -84.5q-148 0 -258.5 58zM391 383q-1 -7 -1 -20q0 -70 40 -113.5t115 -43.5q76 0 127 46t78 131h-359z" />
    <glyph glyph-name="quoteleft" unicode="&#x2bb;" horiz-adv-x="520" 
d="M659 1400q19 0 19 -15q0 -5 -3 -13l-120 -237l-69 -298q-3 -21 -25 -21h-295q-12 0 -17 7t-3 19l63 275q4 15 15 26l246 245q12 12 29 12h160z" />
    <glyph glyph-name="quoteleft" unicode="&#x2018;" horiz-adv-x="520" 
d="M659 1400q19 0 19 -15q0 -5 -3 -13l-120 -237l-69 -298q-3 -21 -25 -21h-295q-12 0 -17 7t-3 19l63 275q4 15 15 26l246 245q12 12 29 12h160z" />
    <glyph glyph-name="quoteright" unicode="&#x2bc;" horiz-adv-x="520" 
d="M137 817q-19 0 -19 15q0 6 3 13l119 237l70 298q5 21 25 21h295q12 0 17.5 -7t2.5 -19l-63 -275q-4 -15 -15 -26l-246 -245q-11 -12 -29 -12h-160z" />
    <glyph glyph-name="quoteright" unicode="&#x2019;" horiz-adv-x="520" 
d="M137 817q-19 0 -19 15q0 6 3 13l119 237l70 298q5 21 25 21h295q12 0 17.5 -7t2.5 -19l-63 -275q-4 -15 -15 -26l-246 -245q-11 -12 -29 -12h-160z" />
    <glyph glyph-name="circumflex" unicode="&#x2c6;" horiz-adv-x="1000" 
d="M267 1251q-3 6 -3 11q0 11 13 21l339 222q13 9 30 9h111q17 0 28 -10l263 -224q9 -7 9 -18q0 -7 -4 -14l-76 -123q-7 -12 -18 -12q-7 0 -14 4l-277 150l-316 -151q-6 -3 -12 -3q-14 0 -20 15z" />
    <glyph glyph-name="caron" unicode="&#x2c7;" horiz-adv-x="1000" 
d="M304 1353q-10 7 -10 19q0 6 5 14l76 122q7 12 18 12q7 0 14 -4l277 -150l316 151q6 3 12 3q13 0 19 -15l53 -123q3 -6 3 -12q0 -12 -12 -20l-340 -222q-14 -9 -29 -9h-111q-17 0 -29 11z" />
    <glyph glyph-name="breve" unicode="&#x2d8;" horiz-adv-x="952" 
d="M471.5 1164q-76.5 39 -117.5 107t-41 154q0 20 1 30q1 22 24 22h184q23 0 23 -26q0 -49 31.5 -78.5t90.5 -29.5q58 0 97.5 30.5t57.5 83.5q6 20 26 20h185q12 0 18.5 -6t4.5 -17q-19 -95 -73.5 -169.5t-140.5 -117t-193 -42.5q-101 0 -177.5 39z" />
    <glyph glyph-name="dotaccent" unicode="&#x2d9;" horiz-adv-x="567" 
d="M265 1112q-12 0 -18 7t-3 19l57 241q4 21 26 21h317q12 0 17.5 -7t3.5 -19l-58 -242q-4 -20 -25 -20h-317z" />
    <glyph glyph-name="ring" unicode="&#x2da;" horiz-adv-x="771" 
d="M435.5 1147.5q-62.5 29.5 -99.5 84t-37 125.5q0 72 39 134t107.5 99t154.5 37q76 0 138.5 -30t99 -84.5t36.5 -124.5q0 -72 -39 -134t-107.5 -99t-154.5 -37q-75 0 -137.5 29.5zM660 1291q31 40 31 96q0 50 -26.5 78.5t-68.5 28.5q-53 0 -83.5 -41.5t-30.5 -95.5
q0 -50 27 -78t69 -28q51 0 82 40z" />
    <glyph glyph-name="ogonek" unicode="&#x2db;" horiz-adv-x="686" 
d="M224 -440q-95 0 -161.5 27.5t-99.5 76.5t-33 112q0 74 44.5 133.5t120 98.5t167.5 55h6q17 0 23 -16l9 -15q2 -4 2 -12q0 -11 -10 -20q-29 -25 -52 -67.5t-23 -78.5q0 -63 95 -63h79q13 0 18 -7t3 -19l-43 -184q-5 -21 -26 -21h-119z" />
    <glyph glyph-name="tilde" unicode="&#x2dc;" horiz-adv-x="877" 
d="M640 1149.5q-35 15.5 -74 43.5q-24 17 -39 25t-30 8q-28 0 -44 -19t-25 -55q-6 -21 -26 -21h-130q-11 0 -17 6.5t-5 18.5q20 128 90.5 207t178.5 79q44 0 76.5 -15t74.5 -44q24 -17 38.5 -25t28.5 -8q28 0 44 18t24 53q4 22 26 22h131q11 0 16.5 -8.5t3.5 -23.5
q-22 -131 -89 -204t-170 -73q-48 0 -83 15.5z" />
    <glyph glyph-name="hungarumlaut" unicode="&#x2dd;" horiz-adv-x="1018" 
d="M381 1139q-7 -6 -16 -6t-17 8l-67 69q-8 8 -8 17t7 16l320 358q8 9 16 9q10 0 17 -10l112 -138q6 -7 6 -16q0 -10 -10 -17zM751 1126q-7 -6 -16 -6t-17 8l-68 67q-8 8 -8 17t7 16l322 358q7 9 16 9q10 0 17 -10l111 -135q6 -7 6 -15q0 -9 -10 -18z" />
    <glyph glyph-name="gravecomb" unicode="&#x300;" horiz-adv-x="0" 
d="M-18 1111q-3 -10 -10.5 -14t-18.5 -2l-500 129q-18 5 -18 19q0 4 2 10l75 218q6 16 20 16q7 0 11 -2l474 -205q16 -6 16 -21q0 -2 -2 -10z" />
    <glyph glyph-name="acutecomb" unicode="&#x301;" horiz-adv-x="0" 
d="M-494 1109q-2 -1 -7 -1q-17 0 -21 18l-32 139q-1 3 -1 7q0 17 17 23l517 190q4 2 11 2q15 0 18 -18l49 -220l1 -7q0 -16 -19 -21z" />
    <glyph glyph-name="uni0302" unicode="&#x302;" horiz-adv-x="0" 
d="M-733 1251q-3 6 -3 11q0 11 13 21l339 222q13 9 30 9h111q17 0 28 -10l263 -224q9 -7 9 -18q0 -7 -4 -14l-76 -123q-7 -12 -18 -12q-7 0 -14 4l-277 150l-316 -151q-6 -3 -12 -3q-14 0 -20 15z" />
    <glyph glyph-name="tildecomb" unicode="&#x303;" horiz-adv-x="0" 
d="M-237 1149.5q-35 15.5 -74 43.5q-24 17 -39 25t-30 8q-28 0 -44 -19t-25 -55q-6 -21 -26 -21h-130q-11 0 -17 6.5t-5 18.5q20 128 90.5 207t178.5 79q44 0 76.5 -15t74.5 -44q24 -17 38.5 -25t28.5 -8q28 0 44 18t24 53q4 22 26 22h131q11 0 16.5 -8.5t3.5 -23.5
q-22 -131 -89 -204t-170 -73q-48 0 -83 15.5z" />
    <glyph glyph-name="uni0304" unicode="&#x304;" horiz-adv-x="0" 
d="M-614 1140q-12 0 -17.5 7t-2.5 19l42 178q4 21 26 21h636q12 0 17.5 -7t3.5 -19l-43 -178q-4 -21 -25 -21h-637z" />
    <glyph glyph-name="uni0306" unicode="&#x306;" horiz-adv-x="0" 
d="M-480.5 1164q-76.5 39 -117.5 107t-41 154q0 20 1 30q1 22 24 22h184q23 0 23 -26q0 -49 31.5 -78.5t90.5 -29.5q58 0 97.5 30.5t57.5 83.5q6 20 26 20h185q12 0 18.5 -6t4.5 -17q-19 -95 -73.5 -169.5t-140.5 -117t-193 -42.5q-101 0 -177.5 39z" />
    <glyph glyph-name="uni0307" unicode="&#x307;" horiz-adv-x="0" 
d="M-302 1112q-12 0 -18 7t-3 19l57 241q4 21 26 21h317q12 0 17.5 -7t3.5 -19l-58 -242q-4 -20 -25 -20h-317z" />
    <glyph glyph-name="uni0308" unicode="&#x308;" horiz-adv-x="0" 
d="M-639 1110q-13 0 -18 7t-3 19l58 243q4 21 25 21h246q13 0 18 -7t3 -19l-57 -243q-6 -21 -26 -21h-246zM-232 1110q-12 0 -17.5 7t-2.5 19l57 243q4 21 26 21h246q12 0 17.5 -7t3.5 -19l-58 -243q-4 -21 -25 -21h-247z" />
    <glyph glyph-name="hookabovecomb" unicode="&#x309;" horiz-adv-x="0" 
d="M-365 1125q-10 0 -15.5 5t-5.5 13q0 5 1 8q12 44 38.5 72t56 42t70.5 28t59.5 25.5t18.5 33.5q0 18 -18 29.5t-48 11.5q-64 0 -81 -50q-8 -20 -26 -20h-184q-12 0 -18 6.5t-3 18.5q25 100 108 152t214 52q85 0 152.5 -22.5t106 -65t38.5 -100.5q0 -48 -21 -79t-50 -48.5
t-76 -37.5q-38 -16 -59.5 -28t-32.5 -29t-28 -17h-197z" />
    <glyph glyph-name="uni030A" unicode="&#x30a;" horiz-adv-x="0" 
d="M-335.5 1147.5q-62.5 29.5 -99.5 84t-37 125.5q0 72 39 134t107.5 99t154.5 37q76 0 138.5 -30t99 -84.5t36.5 -124.5q0 -72 -39 -134t-107.5 -99t-154.5 -37q-75 0 -137.5 29.5zM-111 1291q31 40 31 96q0 50 -26.5 78.5t-68.5 28.5q-53 0 -83.5 -41.5t-30.5 -95.5
q0 -50 27 -78t69 -28q51 0 82 40z" />
    <glyph glyph-name="uni030B" unicode="&#x30b;" horiz-adv-x="0" 
d="M-637 1139q-7 -6 -16 -6t-17 8l-67 69q-8 8 -8 17t7 16l320 358q8 9 16 9q10 0 17 -10l112 -138q6 -7 6 -16q0 -10 -10 -17zM-267 1126q-7 -6 -16 -6t-17 8l-68 67q-8 8 -8 17t7 16l322 358q7 9 16 9q10 0 17 -10l111 -135q6 -7 6 -15q0 -9 -10 -18z" />
    <glyph glyph-name="uni030C" unicode="&#x30c;" horiz-adv-x="0" 
d="M-696 1353q-10 7 -10 19q0 6 5 14l76 122q7 12 18 12q7 0 14 -4l277 -150l316 151q6 3 12 3q13 0 19 -15l53 -123q3 -6 3 -12q0 -12 -12 -20l-340 -222q-14 -9 -29 -9h-111q-17 0 -29 11z" />
    <glyph glyph-name="uni0312" unicode="&#x312;" horiz-adv-x="0" 
d="M-337 1127q-12 0 -17 7t-3 19l48 207q5 17 16 26l234 192q13 10 29 10h148q20 0 20 -16q0 -6 -3 -12l-83 -182l-54 -230q-3 -21 -25 -21h-310z" />
    <glyph glyph-name="uni031B" unicode="&#x31b;" horiz-adv-x="0" 
d="M-219 851q-9 -9 -17 -9q-9 0 -16 9l-107 108q-7 7 -7 17t5 16l179 270q7 12 18 12q6 0 14 -6l171 -128q10 -7 10 -17q0 -8 -7 -16z" />
    <glyph glyph-name="dotbelowcomb" unicode="&#x323;" horiz-adv-x="0" 
d="M-643 -367q-12 0 -17.5 7t-3.5 19l57 242q6 21 26 21h317q12 0 17.5 -7t3.5 -19l-57 -242q-6 -21 -26 -21h-317z" />
    <glyph glyph-name="uni0326" unicode="&#x326;" horiz-adv-x="0" 
d="M-717 -538q-21 0 -21 17q0 5 3 11l83 182l54 230q3 21 25 21h310q12 0 17.5 -7t2.5 -19l-47 -207q-5 -17 -16 -26l-234 -192q-13 -10 -29 -10h-148z" />
    <glyph glyph-name="uni0327" unicode="&#x327;" horiz-adv-x="0" 
d="M-375 -351q-9 -18 -29 -15l-275 40q-19 3 -19 17q0 7 4 12l187 321q9 17 29 15l250 -19q19 -2 19 -16q0 -6 -3 -12z" />
    <glyph glyph-name="uni0328" unicode="&#x328;" horiz-adv-x="0" 
d="M-462 -440q-95 0 -161.5 27.5t-99.5 76.5t-33 112q0 74 44.5 133.5t120 98.5t167.5 55h6q17 0 23 -16l9 -15q2 -4 2 -12q0 -11 -10 -20q-29 -25 -52 -67.5t-23 -78.5q0 -63 95 -63h79q13 0 18 -7t3 -19l-43 -184q-5 -21 -26 -21h-119z" />
    <glyph glyph-name="uni0394" unicode="&#x394;" horiz-adv-x="1507" 
d="M-57 0q-12 0 -17.5 7t-2.5 19l57 249q4 14 12 27l717 1083q11 15 28 15h453q22 0 26 -21l202 -1075q1 -5 1 -13q0 -10 -2 -16l-59 -254q-3 -21 -25 -21h-1390zM920 1177l-541 -888h692z" />
    <glyph glyph-name="uni0394" unicode="&#x2206;" horiz-adv-x="1507" 
d="M-57 0q-12 0 -17.5 7t-2.5 19l57 249q4 14 12 27l717 1083q11 15 28 15h453q22 0 26 -21l202 -1075q1 -5 1 -13q0 -10 -2 -16l-59 -254q-3 -21 -25 -21h-1390zM920 1177l-541 -888h692z" />
    <glyph glyph-name="uni03A9" unicode="&#x3a9;" horiz-adv-x="1578" 
d="M1410 268q12 0 17 -7t3 -19l-51 -221q-4 -21 -26 -21h-571q-12 0 -17 7t-3 19l52 221q4 20 26 27q114 36 199 122t129.5 197.5t44.5 223.5q0 105 -41 182t-115 117t-170 40q-143 0 -237 -83.5t-136.5 -205.5t-42.5 -239q0 -121 45 -209.5t127 -140.5q9 -6 13 -16t2 -20
l-51 -221q-4 -21 -26 -21h-549q-12 0 -17 7t-3 19l52 221q3 21 25 21h161q-74 84 -111.5 190t-37.5 225q0 193 94.5 365.5t276 278.5t428.5 106q201 0 359 -73.5t246.5 -207t88.5 -306.5q0 -167 -82 -320.5t-230 -257.5h128z" />
    <glyph glyph-name="uni03A9" unicode="&#x2126;" horiz-adv-x="1578" 
d="M1410 268q12 0 17 -7t3 -19l-51 -221q-4 -21 -26 -21h-571q-12 0 -17 7t-3 19l52 221q4 20 26 27q114 36 199 122t129.5 197.5t44.5 223.5q0 105 -41 182t-115 117t-170 40q-143 0 -237 -83.5t-136.5 -205.5t-42.5 -239q0 -121 45 -209.5t127 -140.5q9 -6 13 -16t2 -20
l-51 -221q-4 -21 -26 -21h-549q-12 0 -17 7t-3 19l52 221q3 21 25 21h161q-74 84 -111.5 190t-37.5 225q0 193 94.5 365.5t276 278.5t428.5 106q201 0 359 -73.5t246.5 -207t88.5 -306.5q0 -167 -82 -320.5t-230 -257.5h128z" />
    <glyph glyph-name="pi" unicode="&#x3c0;" horiz-adv-x="1174" 
d="M-30 0q-13 0 -18.5 7t-2.5 19l122 481l109 502q4 21 26 21h999q12 0 17.5 -7t3.5 -19l-131 -525l-96 -458q-3 -21 -26 -21h-320q-12 0 -18 7t-3 19l110 439l66 314h-318l-85 -342l-88 -416q-3 -21 -26 -21h-321z" />
    <glyph glyph-name="Wgrave" unicode="&#x1e80;" horiz-adv-x="1908" 
d="M235 0q-23 0 -23 24l9 1353q0 23 23 23h301q25 0 23 -24l-42 -951l410 957q9 18 28 18h347q25 0 23 -24l-23 -964l401 970q6 18 27 18h327q10 0 15.5 -4.5t5.5 -11.5q0 -6 -3 -12l-623 -1354q-8 -18 -27 -18h-383q-23 0 -23 24l-1 836l-377 -842q-7 -18 -28 -18h-387z
M1390 1481q-3 -10 -10.5 -14t-18.5 -2l-500 129q-18 5 -18 19q0 4 2 10l75 218q6 16 20 16q7 0 11 -2l474 -205q16 -6 16 -21q0 -2 -2 -10z" />
    <glyph glyph-name="wgrave" unicode="&#x1e81;" horiz-adv-x="1533" 
d="M139 0q-23 0 -23 24l13 983q0 11 6.5 17t16.5 6h279q11 0 17.5 -6.5t5.5 -18.5l-65 -662l280 669q8 18 28 18h354q25 0 23 -24l-32 -647l247 652q6 19 27 19h297q10 0 15.5 -4.5t5.5 -11.5q0 -6 -3 -12l-446 -984q-8 -18 -27 -18h-352q-23 0 -23 24l11 661l-278 -667
q-8 -18 -27 -18h-350zM1127 1111q-3 -10 -10.5 -14t-18.5 -2l-500 129q-18 5 -18 19q0 4 2 10l75 218q6 16 20 16q7 0 11 -2l474 -205q16 -6 16 -21q0 -2 -2 -10z" />
    <glyph glyph-name="Wacute" unicode="&#x1e82;" horiz-adv-x="1908" 
d="M235 0q-23 0 -23 24l9 1353q0 23 23 23h301q25 0 23 -24l-42 -951l410 957q9 18 28 18h347q25 0 23 -24l-23 -964l401 970q6 18 27 18h327q10 0 15.5 -4.5t5.5 -11.5q0 -6 -3 -12l-623 -1354q-8 -18 -27 -18h-383q-23 0 -23 24l-1 836l-377 -842q-7 -18 -28 -18h-387z
M984 1479q-2 -1 -7 -1q-17 0 -21 18l-32 139q-1 3 -1 7q0 17 17 23l517 190q4 2 11 2q15 0 18 -18l49 -220l1 -7q0 -16 -19 -21z" />
    <glyph glyph-name="wacute" unicode="&#x1e83;" horiz-adv-x="1533" 
d="M139 0q-23 0 -23 24l13 983q0 11 6.5 17t16.5 6h279q11 0 17.5 -6.5t5.5 -18.5l-65 -662l280 669q8 18 28 18h354q25 0 23 -24l-32 -647l247 652q6 19 27 19h297q10 0 15.5 -4.5t5.5 -11.5q0 -6 -3 -12l-446 -984q-8 -18 -27 -18h-352q-23 0 -23 24l11 661l-278 -667
q-8 -18 -27 -18h-350zM721 1109q-2 -1 -7 -1q-17 0 -21 18l-32 139q-1 3 -1 7q0 17 17 23l517 190q4 2 11 2q15 0 18 -18l49 -220l1 -7q0 -16 -19 -21z" />
    <glyph glyph-name="Wdieresis" unicode="&#x1e84;" horiz-adv-x="1908" 
d="M235 0q-23 0 -23 24l9 1353q0 23 23 23h301q25 0 23 -24l-42 -951l410 957q9 18 28 18h347q25 0 23 -24l-23 -964l401 970q6 18 27 18h327q10 0 15.5 -4.5t5.5 -11.5q0 -6 -3 -12l-623 -1354q-8 -18 -27 -18h-383q-23 0 -23 24l-1 836l-377 -842q-7 -18 -28 -18h-387z
M834 1480q-13 0 -18 7t-3 19l58 243q4 21 25 21h246q13 0 18 -7t3 -19l-57 -243q-6 -21 -26 -21h-246zM1241 1480q-12 0 -17.5 7t-2.5 19l57 243q4 21 26 21h246q12 0 17.5 -7t3.5 -19l-58 -243q-4 -21 -25 -21h-247z" />
    <glyph glyph-name="wdieresis" unicode="&#x1e85;" horiz-adv-x="1533" 
d="M139 0q-23 0 -23 24l13 983q0 11 6.5 17t16.5 6h279q11 0 17.5 -6.5t5.5 -18.5l-65 -662l280 669q8 18 28 18h354q25 0 23 -24l-32 -647l247 652q6 19 27 19h297q10 0 15.5 -4.5t5.5 -11.5q0 -6 -3 -12l-446 -984q-8 -18 -27 -18h-352q-23 0 -23 24l11 661l-278 -667
q-8 -18 -27 -18h-350zM571 1110q-13 0 -18 7t-3 19l58 243q4 21 25 21h246q13 0 18 -7t3 -19l-57 -243q-6 -21 -26 -21h-246zM978 1110q-12 0 -17.5 7t-2.5 19l57 243q4 21 26 21h246q12 0 17.5 -7t3.5 -19l-58 -243q-4 -21 -25 -21h-247z" />
    <glyph glyph-name="uni1EA0" unicode="&#x1ea0;" horiz-adv-x="1442" 
d="M1322 25q1 -12 -5 -18.5t-17 -6.5h-313q-23 0 -24 23l-23 299h-489l-159 -305q-9 -17 -28 -17h-354q-10 0 -15 4t-5 11q0 6 4 13l778 1356q8 16 28 16h461q23 0 25 -22zM918 611l-41 528l-276 -528h317zM389 -367q-12 0 -17.5 7t-3.5 19l57 242q6 21 26 21h317
q12 0 17.5 -7t3.5 -19l-57 -242q-6 -21 -26 -21h-317z" />
    <glyph glyph-name="uni1EA1" unicode="&#x1ea1;" horiz-adv-x="1200" 
d="M1226 1030q13 0 18.5 -7t2.5 -19l-124 -504l-103 -479q-4 -21 -26 -21h-302q-21 0 -21 17q0 6 1 9l13 52q-117 -97 -269 -97q-114 0 -199.5 53.5t-132 151t-46.5 226.5q0 149 61 296.5t181.5 244t289.5 96.5q100 0 173.5 -35t118.5 -101l20 96q4 21 26 21h318z
M690.5 280.5q55.5 68.5 82 164t26.5 175.5q0 96 -40 147t-115 51q-86 0 -141 -66t-79 -157t-24 -170q0 -96 38.5 -154.5t114.5 -58.5q82 0 137.5 68.5zM272 -370q-12 0 -17.5 7t-3.5 19l57 242q6 21 26 21h317q12 0 17.5 -7t3.5 -19l-57 -242q-6 -21 -26 -21h-317z" />
    <glyph glyph-name="uni1EA2" unicode="&#x1ea2;" horiz-adv-x="1442" 
d="M1322 25q1 -12 -5 -18.5t-17 -6.5h-313q-23 0 -24 23l-23 299h-489l-159 -305q-9 -17 -28 -17h-354q-10 0 -15 4t-5 11q0 6 4 13l778 1356q8 16 28 16h461q23 0 25 -22zM918 611l-41 528l-276 -528h317zM844 1495q-10 0 -15.5 5t-5.5 13q0 5 1 8q12 44 38.5 72t56 42
t70.5 28t59.5 25.5t18.5 33.5q0 18 -18 29.5t-48 11.5q-64 0 -81 -50q-8 -20 -26 -20h-184q-12 0 -18 6.5t-3 18.5q25 100 108 152t214 52q85 0 152.5 -22.5t106 -65t38.5 -100.5q0 -48 -21 -79t-50 -48.5t-76 -37.5q-38 -16 -59.5 -28t-32.5 -29t-28 -17h-197z" />
    <glyph glyph-name="uni1EA3" unicode="&#x1ea3;" horiz-adv-x="1200" 
d="M1226 1030q13 0 18.5 -7t2.5 -19l-124 -504l-103 -479q-4 -21 -26 -21h-302q-21 0 -21 17q0 6 1 9l13 52q-117 -97 -269 -97q-114 0 -199.5 53.5t-132 151t-46.5 226.5q0 149 61 296.5t181.5 244t289.5 96.5q100 0 173.5 -35t118.5 -101l20 96q4 21 26 21h318z
M690.5 280.5q55.5 68.5 82 164t26.5 175.5q0 96 -40 147t-115 51q-86 0 -141 -66t-79 -157t-24 -170q0 -96 38.5 -154.5t114.5 -58.5q82 0 137.5 68.5zM642 1125q-10 0 -15.5 5t-5.5 13q0 5 1 8q12 44 38.5 72t56 42t70.5 28t59.5 25.5t18.5 33.5q0 18 -18 29.5t-48 11.5
q-64 0 -81 -50q-8 -20 -26 -20h-184q-12 0 -18 6.5t-3 18.5q25 100 108 152t214 52q85 0 152.5 -22.5t106 -65t38.5 -100.5q0 -48 -21 -79t-50 -48.5t-76 -37.5q-38 -16 -59.5 -28t-32.5 -29t-28 -17h-197z" />
    <glyph glyph-name="uni1EA4" unicode="&#x1ea4;" horiz-adv-x="1442" 
d="M1322 25q1 -12 -5 -18.5t-17 -6.5h-313q-23 0 -24 23l-23 299h-489l-159 -305q-9 -17 -28 -17h-354q-10 0 -15 4t-5 11q0 6 4 13l778 1356q8 16 28 16h461q23 0 25 -22zM918 611l-41 528l-276 -528h317zM1323 1735q-7 -6 -16 -6q-8 0 -17 9l-99 104q-8 10 -8 17q0 8 8 16
l289 302q8 8 17 8q8 0 16 -9l137 -150q7 -7 7 -15q0 -11 -10 -18zM566 1584q-3 6 -3 12q0 13 12 20l340 223q12 8 29 8h111q18 0 29 -10l263 -224q9 -7 9 -18q0 -7 -4 -14l-77 -123q-8 -12 -19 -12q-3 0 -13 4l-277 150l-316 -150q-7 -3 -13 -3q-12 0 -18 14z" />
    <glyph glyph-name="uni1EA5" unicode="&#x1ea5;" horiz-adv-x="1200" 
d="M1226 1030q13 0 18.5 -7t2.5 -19l-124 -504l-103 -479q-4 -21 -26 -21h-302q-21 0 -21 17q0 6 1 9l13 52q-117 -97 -269 -97q-114 0 -199.5 53.5t-132 151t-46.5 226.5q0 149 61 296.5t181.5 244t289.5 96.5q100 0 173.5 -35t118.5 -101l20 96q4 21 26 21h318z
M690.5 280.5q55.5 68.5 82 164t26.5 175.5q0 96 -40 147t-115 51q-86 0 -141 -66t-79 -157t-24 -170q0 -96 38.5 -154.5t114.5 -58.5q82 0 137.5 68.5zM1121 1365q-7 -6 -16 -6q-8 0 -17 9l-99 104q-8 10 -8 17q0 8 8 16l289 302q8 8 17 8q8 0 16 -9l137 -150q7 -7 7 -15
q0 -11 -10 -18zM364 1214q-3 6 -3 12q0 13 12 20l340 223q12 8 29 8h111q18 0 29 -10l263 -224q9 -7 9 -18q0 -7 -4 -14l-77 -123q-8 -12 -19 -12q-3 0 -13 4l-277 150l-316 -150q-7 -3 -13 -3q-12 0 -18 14z" />
    <glyph glyph-name="uni1EA6" unicode="&#x1ea6;" horiz-adv-x="1442" 
d="M1322 25q1 -12 -5 -18.5t-17 -6.5h-313q-23 0 -24 23l-23 299h-489l-159 -305q-9 -17 -28 -17h-354q-10 0 -15 4t-5 11q0 6 4 13l778 1356q8 16 28 16h461q23 0 25 -22zM918 611l-41 528l-276 -528h317zM1322 1734q-8 -5 -15 -5q-11 0 -18 10l-229 285q-6 8 -6 15
q0 10 11 18l179 126q8 5 15 5q12 0 18 -13l173 -328q3 -6 3 -13q0 -11 -11 -19zM566 1584q-3 6 -3 11q0 13 12 20l340 223q14 9 29 9h111q17 0 29 -11l263 -223q10 -10 10 -19q0 -6 -5 -14l-77 -122q-7 -12 -19 -12q-6 0 -13 3l-277 151l-316 -151q-6 -3 -12 -3
q-13 0 -19 15z" />
    <glyph glyph-name="uni1EA7" unicode="&#x1ea7;" horiz-adv-x="1200" 
d="M1226 1030q13 0 18.5 -7t2.5 -19l-124 -504l-103 -479q-4 -21 -26 -21h-302q-21 0 -21 17q0 6 1 9l13 52q-117 -97 -269 -97q-114 0 -199.5 53.5t-132 151t-46.5 226.5q0 149 61 296.5t181.5 244t289.5 96.5q100 0 173.5 -35t118.5 -101l20 96q4 21 26 21h318z
M690.5 280.5q55.5 68.5 82 164t26.5 175.5q0 96 -40 147t-115 51q-86 0 -141 -66t-79 -157t-24 -170q0 -96 38.5 -154.5t114.5 -58.5q82 0 137.5 68.5zM1120 1364q-8 -5 -15 -5q-11 0 -18 10l-229 285q-6 8 -6 15q0 10 11 18l179 126q8 5 15 5q12 0 18 -13l173 -328
q3 -6 3 -13q0 -11 -11 -19zM364 1214q-3 6 -3 11q0 13 12 20l340 223q14 9 29 9h111q17 0 29 -11l263 -223q10 -10 10 -19q0 -6 -5 -14l-77 -122q-7 -12 -19 -12q-6 0 -13 3l-277 151l-316 -151q-6 -3 -12 -3q-13 0 -19 15z" />
    <glyph glyph-name="uni1EA8" unicode="&#x1ea8;" horiz-adv-x="1442" 
d="M1322 25q1 -12 -5 -18.5t-17 -6.5h-313q-23 0 -24 23l-23 299h-489l-159 -305q-9 -17 -28 -17h-354q-10 0 -15 4t-5 11q0 6 4 13l778 1356q8 16 28 16h461q23 0 25 -22zM918 611l-41 528l-276 -528h317zM566 1584q-3 6 -3 11q0 11 13 21l339 222q13 9 30 9h111
q17 0 28 -10l263 -224q9 -7 9 -18q0 -7 -4 -14l-76 -123q-7 -12 -18 -12q-7 0 -14 4l-277 150l-316 -151q-6 -3 -12 -3q-14 0 -20 15zM1247 1766q-10 0 -15.5 5t-5.5 13q0 5 1 8q12 44 38.5 72t56 42t70.5 28t59.5 25.5t18.5 33.5q0 18 -18 29.5t-48 11.5q-64 0 -81 -50
q-8 -20 -26 -20h-184q-12 0 -18 6.5t-3 18.5q25 100 108 152t214 52q85 0 152.5 -22.5t106 -65t38.5 -100.5q0 -48 -21 -79t-50 -48.5t-76 -37.5q-38 -16 -59.5 -28t-32.5 -29t-28 -17h-197z" />
    <glyph glyph-name="uni1EA9" unicode="&#x1ea9;" horiz-adv-x="1200" 
d="M1226 1030q13 0 18.5 -7t2.5 -19l-124 -504l-103 -479q-4 -21 -26 -21h-302q-21 0 -21 17q0 6 1 9l13 52q-117 -97 -269 -97q-114 0 -199.5 53.5t-132 151t-46.5 226.5q0 149 61 296.5t181.5 244t289.5 96.5q100 0 173.5 -35t118.5 -101l20 96q4 21 26 21h318z
M690.5 280.5q55.5 68.5 82 164t26.5 175.5q0 96 -40 147t-115 51q-86 0 -141 -66t-79 -157t-24 -170q0 -96 38.5 -154.5t114.5 -58.5q82 0 137.5 68.5zM364 1214q-3 6 -3 11q0 11 13 21l339 222q13 9 30 9h111q17 0 28 -10l263 -224q9 -7 9 -18q0 -7 -4 -14l-76 -123
q-7 -12 -18 -12q-7 0 -14 4l-277 150l-316 -151q-6 -3 -12 -3q-14 0 -20 15zM1045 1396q-10 0 -15.5 5t-5.5 13q0 5 1 8q12 44 38.5 72t56 42t70.5 28t59.5 25.5t18.5 33.5q0 18 -18 29.5t-48 11.5q-64 0 -81 -50q-8 -20 -26 -20h-184q-12 0 -18 6.5t-3 18.5q25 100 108 152
t214 52q85 0 152.5 -22.5t106 -65t38.5 -100.5q0 -48 -21 -79t-50 -48.5t-76 -37.5q-38 -16 -59.5 -28t-32.5 -29t-28 -17h-197z" />
    <glyph glyph-name="uni1EAA" unicode="&#x1eaa;" horiz-adv-x="1442" 
d="M1322 25q1 -12 -5 -18.5t-17 -6.5h-313q-23 0 -24 23l-23 299h-489l-159 -305q-9 -17 -28 -17h-354q-10 0 -15 4t-5 11q0 6 4 13l778 1356q8 16 28 16h461q23 0 25 -22zM918 611l-41 528l-276 -528h317zM565 1584q-3 6 -3 11q0 11 13 21l339 222q13 9 30 9h111
q17 0 28 -10l263 -224q9 -7 9 -18q0 -7 -4 -14l-76 -123q-7 -12 -18 -12q-7 0 -14 4l-277 150l-316 -151q-6 -3 -12 -3q-14 0 -20 15zM1096 1908.5q-35 15.5 -74 43.5q-24 17 -39 25t-30 8q-28 0 -44 -19t-25 -55q-6 -21 -26 -21h-130q-11 0 -17 6.5t-5 18.5
q20 128 90.5 207t178.5 79q44 0 76.5 -15t74.5 -44q24 -17 38.5 -25t28.5 -8q28 0 44 18t24 53q4 22 26 22h131q11 0 16.5 -8.5t3.5 -23.5q-22 -131 -89 -204t-170 -73q-48 0 -83 15.5z" />
    <glyph glyph-name="uni1EAB" unicode="&#x1eab;" horiz-adv-x="1200" 
d="M1226 1030q13 0 18.5 -7t2.5 -19l-124 -504l-103 -479q-4 -21 -26 -21h-302q-21 0 -21 17q0 6 1 9l13 52q-117 -97 -269 -97q-114 0 -199.5 53.5t-132 151t-46.5 226.5q0 149 61 296.5t181.5 244t289.5 96.5q100 0 173.5 -35t118.5 -101l20 96q4 21 26 21h318z
M690.5 280.5q55.5 68.5 82 164t26.5 175.5q0 96 -40 147t-115 51q-86 0 -141 -66t-79 -157t-24 -170q0 -96 38.5 -154.5t114.5 -58.5q82 0 137.5 68.5zM363 1214q-3 6 -3 11q0 11 13 21l339 222q13 9 30 9h111q17 0 28 -10l263 -224q9 -7 9 -18q0 -7 -4 -14l-76 -123
q-7 -12 -18 -12q-7 0 -14 4l-277 150l-316 -151q-6 -3 -12 -3q-14 0 -20 15zM894 1538.5q-35 15.5 -74 43.5q-24 17 -39 25t-30 8q-28 0 -44 -19t-25 -55q-6 -21 -26 -21h-130q-11 0 -17 6.5t-5 18.5q20 128 90.5 207t178.5 79q44 0 76.5 -15t74.5 -44q24 -17 38.5 -25
t28.5 -8q28 0 44 18t24 53q4 22 26 22h131q11 0 16.5 -8.5t3.5 -23.5q-22 -131 -89 -204t-170 -73q-48 0 -83 15.5z" />
    <glyph glyph-name="uni1EAC" unicode="&#x1eac;" horiz-adv-x="1442" 
d="M1322 25q1 -12 -5 -18.5t-17 -6.5h-313q-23 0 -24 23l-23 299h-489l-159 -305q-9 -17 -28 -17h-354q-10 0 -15 4t-5 11q0 6 4 13l778 1356q8 16 28 16h461q23 0 25 -22zM918 611l-41 528l-276 -528h317zM389 -367q-12 0 -17.5 7t-3.5 19l57 242q6 21 26 21h317
q12 0 17.5 -7t3.5 -19l-57 -242q-6 -21 -26 -21h-317zM581 1621q-3 6 -3 11q0 11 13 21l339 222q13 9 30 9h111q17 0 28 -10l263 -224q9 -7 9 -18q0 -7 -4 -14l-76 -123q-7 -12 -18 -12q-7 0 -14 4l-277 150l-316 -151q-6 -3 -12 -3q-14 0 -20 15z" />
    <glyph glyph-name="uni1EAD" unicode="&#x1ead;" horiz-adv-x="1200" 
d="M1226 1030q13 0 18.5 -7t2.5 -19l-124 -504l-103 -479q-4 -21 -26 -21h-302q-21 0 -21 17q0 6 1 9l13 52q-117 -97 -269 -97q-114 0 -199.5 53.5t-132 151t-46.5 226.5q0 149 61 296.5t181.5 244t289.5 96.5q100 0 173.5 -35t118.5 -101l20 96q4 21 26 21h318z
M690.5 280.5q55.5 68.5 82 164t26.5 175.5q0 96 -40 147t-115 51q-86 0 -141 -66t-79 -157t-24 -170q0 -96 38.5 -154.5t114.5 -58.5q82 0 137.5 68.5zM272 -370q-12 0 -17.5 7t-3.5 19l57 242q6 21 26 21h317q12 0 17.5 -7t3.5 -19l-57 -242q-6 -21 -26 -21h-317zM380 1251
q-3 6 -3 11q0 11 13 21l339 222q13 9 30 9h111q17 0 28 -10l263 -224q9 -7 9 -18q0 -7 -4 -14l-76 -123q-7 -12 -18 -12q-7 0 -14 4l-277 150l-316 -151q-6 -3 -12 -3q-14 0 -20 15z" />
    <glyph glyph-name="uni1EAE" unicode="&#x1eae;" horiz-adv-x="1442" 
d="M1322 25q1 -12 -5 -18.5t-17 -6.5h-313q-23 0 -24 23l-23 299h-489l-159 -305q-9 -17 -28 -17h-354q-10 0 -15 4t-5 11q0 6 4 13l778 1356q8 16 28 16h461q23 0 25 -22zM918 611l-41 528l-276 -528h317zM1011 1766q-8 -6 -16 -6t-17 9l-98 104q-8 10 -8 17q0 8 8 16
l288 302q8 8 17 8t16 -9l137 -151q7 -7 7 -15q0 -11 -10 -18zM788.5 1510q-76.5 39 -117.5 107t-41 154q0 20 1 30q1 22 25 22h183q23 0 23 -24q0 -50 31.5 -80t91.5 -30q58 0 97.5 30.5t56.5 83.5q7 20 27 20h184q12 0 18 -6t4 -17q-19 -95 -73.5 -169.5t-139.5 -117
t-192 -42.5q-102 0 -178.5 39z" />
    <glyph glyph-name="uni1EAF" unicode="&#x1eaf;" horiz-adv-x="1200" 
d="M1226 1030q13 0 18.5 -7t2.5 -19l-124 -504l-103 -479q-4 -21 -26 -21h-302q-21 0 -21 17q0 6 1 9l13 52q-117 -97 -269 -97q-114 0 -199.5 53.5t-132 151t-46.5 226.5q0 149 61 296.5t181.5 244t289.5 96.5q100 0 173.5 -35t118.5 -101l20 96q4 21 26 21h318z
M690.5 280.5q55.5 68.5 82 164t26.5 175.5q0 96 -40 147t-115 51q-86 0 -141 -66t-79 -157t-24 -170q0 -96 38.5 -154.5t114.5 -58.5q82 0 137.5 68.5zM809 1396q-8 -6 -16 -6t-17 9l-98 104q-8 10 -8 17q0 8 8 16l288 302q8 8 17 8t16 -9l137 -151q7 -7 7 -15
q0 -11 -10 -18zM586.5 1140q-76.5 39 -117.5 107t-41 154q0 20 1 30q1 22 25 22h183q23 0 23 -24q0 -50 31.5 -80t91.5 -30q58 0 97.5 30.5t56.5 83.5q7 20 27 20h184q12 0 18 -6t4 -17q-19 -95 -73.5 -169.5t-139.5 -117t-192 -42.5q-102 0 -178.5 39z" />
    <glyph glyph-name="uni1EB0" unicode="&#x1eb0;" horiz-adv-x="1442" 
d="M1322 25q1 -12 -5 -18.5t-17 -6.5h-313q-23 0 -24 23l-23 299h-489l-159 -305q-9 -17 -28 -17h-354q-10 0 -15 4t-5 11q0 6 4 13l778 1356q8 16 28 16h461q23 0 25 -22zM918 611l-41 528l-276 -528h317zM1002 1765q-8 -5 -15 -5q-11 0 -18 10l-229 284q-6 9 -6 16
q0 9 11 17l179 127q8 5 14 5q12 0 18 -13l168 -332q3 -7 3 -13q0 -12 -11 -19zM788.5 1510q-76.5 39 -117.5 107t-41 154q0 20 1 30q1 22 25 22h183q23 0 23 -24q0 -50 31.5 -80t91.5 -30q58 0 97.5 30.5t56.5 83.5q7 20 27 20h185q12 0 18 -6t4 -17q-19 -95 -73.5 -169.5
t-140 -117t-192.5 -42.5q-102 0 -178.5 39z" />
    <glyph glyph-name="uni1EB1" unicode="&#x1eb1;" horiz-adv-x="1200" 
d="M1226 1030q13 0 18.5 -7t2.5 -19l-124 -504l-103 -479q-4 -21 -26 -21h-302q-21 0 -21 17q0 6 1 9l13 52q-117 -97 -269 -97q-114 0 -199.5 53.5t-132 151t-46.5 226.5q0 149 61 296.5t181.5 244t289.5 96.5q100 0 173.5 -35t118.5 -101l20 96q4 21 26 21h318z
M690.5 280.5q55.5 68.5 82 164t26.5 175.5q0 96 -40 147t-115 51q-86 0 -141 -66t-79 -157t-24 -170q0 -96 38.5 -154.5t114.5 -58.5q82 0 137.5 68.5zM800 1395q-8 -5 -15 -5q-11 0 -18 10l-229 284q-6 9 -6 16q0 9 11 17l179 127q8 5 14 5q12 0 18 -13l168 -332
q3 -7 3 -13q0 -12 -11 -19zM586.5 1140q-76.5 39 -117.5 107t-41 154q0 20 1 30q1 22 25 22h183q23 0 23 -24q0 -50 31.5 -80t91.5 -30q58 0 97.5 30.5t56.5 83.5q7 20 27 20h185q12 0 18 -6t4 -17q-19 -95 -73.5 -169.5t-140 -117t-192.5 -42.5q-102 0 -178.5 39z" />
    <glyph glyph-name="uni1EB2" unicode="&#x1eb2;" horiz-adv-x="1442" 
d="M1322 25q1 -12 -5 -18.5t-17 -6.5h-313q-23 0 -24 23l-23 299h-489l-159 -305q-9 -17 -28 -17h-354q-10 0 -15 4t-5 11q0 6 4 13l778 1356q8 16 28 16h461q23 0 25 -22zM918 611l-41 528l-276 -528h317zM788.5 1510q-76.5 39 -117.5 107t-41 154q0 20 1 30q1 22 24 22
h184q23 0 23 -26q0 -49 31.5 -78.5t90.5 -29.5q58 0 97.5 30.5t57.5 83.5q6 20 26 20h185q12 0 18.5 -6t4.5 -17q-19 -95 -73.5 -169.5t-140.5 -117t-193 -42.5q-101 0 -177.5 39zM910 1833q-10 0 -15.5 5t-5.5 13q0 5 1 8q12 44 38.5 72t56 42t70.5 28t59.5 25.5t18.5 33.5
q0 18 -18 29.5t-48 11.5q-64 0 -81 -50q-8 -20 -26 -20h-184q-12 0 -18 6.5t-3 18.5q25 100 108 152t214 52q85 0 152.5 -22.5t106 -65t38.5 -100.5q0 -48 -21 -79t-50 -48.5t-76 -37.5q-38 -16 -59.5 -28t-32.5 -29t-28 -17h-197z" />
    <glyph glyph-name="uni1EB3" unicode="&#x1eb3;" horiz-adv-x="1200" 
d="M1226 1030q13 0 18.5 -7t2.5 -19l-124 -504l-103 -479q-4 -21 -26 -21h-302q-21 0 -21 17q0 6 1 9l13 52q-117 -97 -269 -97q-114 0 -199.5 53.5t-132 151t-46.5 226.5q0 149 61 296.5t181.5 244t289.5 96.5q100 0 173.5 -35t118.5 -101l20 96q4 21 26 21h318z
M690.5 280.5q55.5 68.5 82 164t26.5 175.5q0 96 -40 147t-115 51q-86 0 -141 -66t-79 -157t-24 -170q0 -96 38.5 -154.5t114.5 -58.5q82 0 137.5 68.5zM586.5 1140q-76.5 39 -117.5 107t-41 154q0 20 1 30q1 22 24 22h184q23 0 23 -26q0 -49 31.5 -78.5t90.5 -29.5
q58 0 97.5 30.5t57.5 83.5q6 20 26 20h185q12 0 18.5 -6t4.5 -17q-19 -95 -73.5 -169.5t-140.5 -117t-193 -42.5q-101 0 -177.5 39zM708 1463q-10 0 -15.5 5t-5.5 13q0 5 1 8q12 44 38.5 72t56 42t70.5 28t59.5 25.5t18.5 33.5q0 18 -18 29.5t-48 11.5q-64 0 -81 -50
q-8 -20 -26 -20h-184q-12 0 -18 6.5t-3 18.5q25 100 108 152t214 52q85 0 152.5 -22.5t106 -65t38.5 -100.5q0 -48 -21 -79t-50 -48.5t-76 -37.5q-38 -16 -59.5 -28t-32.5 -29t-28 -17h-197z" />
    <glyph glyph-name="uni1EB4" unicode="&#x1eb4;" horiz-adv-x="1442" 
d="M1322 25q1 -12 -5 -18.5t-17 -6.5h-313q-23 0 -24 23l-23 299h-489l-159 -305q-9 -17 -28 -17h-354q-10 0 -15 4t-5 11q0 6 4 13l778 1356q8 16 28 16h461q23 0 25 -22zM918 611l-41 528l-276 -528h317zM1078.5 1889q-35.5 15 -74.5 42q-24 16 -39.5 23.5t-31.5 7.5
q-48 0 -65 -70q-6 -21 -26 -21h-149q-12 0 -17.5 6.5t-4.5 18.5q21 126 92.5 204t181.5 78q45 0 79 -15t77 -42q23 -16 38 -23.5t29 -7.5q27 0 42 17t22 50q4 22 26 22h149q12 0 17.5 -8.5t2.5 -23.5q-22 -130 -90 -201.5t-173 -71.5q-50 0 -85.5 15zM788.5 1510
q-76.5 39 -117.5 107t-41 154q0 20 1 30q1 22 25 22h183q23 0 23 -24q0 -50 31.5 -80t91.5 -30q58 0 97.5 30.5t56.5 83.5q7 20 27 20h184q12 0 18 -6t4 -17q-19 -95 -73.5 -169.5t-139.5 -117t-192 -42.5q-102 0 -178.5 39z" />
    <glyph glyph-name="uni1EB5" unicode="&#x1eb5;" horiz-adv-x="1200" 
d="M1226 1030q13 0 18.5 -7t2.5 -19l-124 -504l-103 -479q-4 -21 -26 -21h-302q-21 0 -21 17q0 6 1 9l13 52q-117 -97 -269 -97q-114 0 -199.5 53.5t-132 151t-46.5 226.5q0 149 61 296.5t181.5 244t289.5 96.5q100 0 173.5 -35t118.5 -101l20 96q4 21 26 21h318z
M690.5 280.5q55.5 68.5 82 164t26.5 175.5q0 96 -40 147t-115 51q-86 0 -141 -66t-79 -157t-24 -170q0 -96 38.5 -154.5t114.5 -58.5q82 0 137.5 68.5zM876.5 1519q-35.5 15 -74.5 42q-24 16 -39.5 23.5t-31.5 7.5q-48 0 -65 -70q-6 -21 -26 -21h-149q-12 0 -17.5 6.5
t-4.5 18.5q21 126 92.5 204t181.5 78q45 0 79 -15t77 -42q23 -16 38 -23.5t29 -7.5q27 0 42 17t22 50q4 22 26 22h149q12 0 17.5 -8.5t2.5 -23.5q-22 -130 -90 -201.5t-173 -71.5q-50 0 -85.5 15zM586.5 1140q-76.5 39 -117.5 107t-41 154q0 20 1 30q1 22 25 22h183
q23 0 23 -24q0 -50 31.5 -80t91.5 -30q58 0 97.5 30.5t56.5 83.5q7 20 27 20h184q12 0 18 -6t4 -17q-19 -95 -73.5 -169.5t-139.5 -117t-192 -42.5q-102 0 -178.5 39z" />
    <glyph glyph-name="uni1EB6" unicode="&#x1eb6;" horiz-adv-x="1442" 
d="M1322 25q1 -12 -5 -18.5t-17 -6.5h-313q-23 0 -24 23l-23 299h-489l-159 -305q-9 -17 -28 -17h-354q-10 0 -15 4t-5 11q0 6 4 13l778 1356q8 16 28 16h461q23 0 25 -22zM918 611l-41 528l-276 -528h317zM389 -367q-12 0 -17.5 7t-3.5 19l57 242q6 21 26 21h317
q12 0 17.5 -7t3.5 -19l-57 -242q-6 -21 -26 -21h-317zM797.5 1534q-76.5 39 -117.5 107t-41 154q0 20 1 30q1 22 24 22h184q23 0 23 -26q0 -49 31.5 -78.5t90.5 -29.5q58 0 97.5 30.5t57.5 83.5q6 20 26 20h185q12 0 18.5 -6t4.5 -17q-19 -95 -73.5 -169.5t-140.5 -117
t-193 -42.5q-101 0 -177.5 39z" />
    <glyph glyph-name="uni1EB7" unicode="&#x1eb7;" horiz-adv-x="1200" 
d="M1226 1030q13 0 18.5 -7t2.5 -19l-124 -504l-103 -479q-4 -21 -26 -21h-302q-21 0 -21 17q0 6 1 9l13 52q-117 -97 -269 -97q-114 0 -199.5 53.5t-132 151t-46.5 226.5q0 149 61 296.5t181.5 244t289.5 96.5q100 0 173.5 -35t118.5 -101l20 96q4 21 26 21h318z
M690.5 280.5q55.5 68.5 82 164t26.5 175.5q0 96 -40 147t-115 51q-86 0 -141 -66t-79 -157t-24 -170q0 -96 38.5 -154.5t114.5 -58.5q82 0 137.5 68.5zM272 -370q-12 0 -17.5 7t-3.5 19l57 242q6 21 26 21h317q12 0 17.5 -7t3.5 -19l-57 -242q-6 -21 -26 -21h-317z
M596.5 1164q-76.5 39 -117.5 107t-41 154q0 20 1 30q1 22 24 22h184q23 0 23 -26q0 -49 31.5 -78.5t90.5 -29.5q58 0 97.5 30.5t57.5 83.5q6 20 26 20h185q12 0 18.5 -6t4.5 -17q-19 -95 -73.5 -169.5t-140.5 -117t-193 -42.5q-101 0 -177.5 39z" />
    <glyph glyph-name="uni1EB8" unicode="&#x1eb8;" 
d="M-16 0q-12 0 -17.5 7t-2.5 19l169 662l144 691q4 21 26 21h984q12 0 17 -7t3 -19l-51 -221q-4 -21 -26 -21h-627l-74 -263h571q12 0 17 -7t3 -19l-51 -221q-4 -21 -26 -21h-576l-64 -332h638q12 0 17 -7t3 -19l-51 -222q-4 -21 -26 -21h-1000zM260 -367q-12 0 -17.5 7
t-3.5 19l57 242q6 21 26 21h317q12 0 17.5 -7t3.5 -19l-57 -242q-6 -21 -26 -21h-317z" />
    <glyph glyph-name="uni1EB9" unicode="&#x1eb9;" horiz-adv-x="1174" 
d="M910.5 997q110.5 -58 169.5 -161t59 -236q0 -69 -16 -139q-4 -21 -25 -21h-702v-20q2 -106 47.5 -158.5t124.5 -52.5q65 0 110 33t68 91q7 19 27 19h293q13 0 19 -5.5t3 -15.5q-28 -107 -98.5 -187t-180 -124.5t-249.5 -44.5q-151 0 -267.5 54.5t-182.5 160.5t-66 255
q0 161 74 301t212.5 224.5t321.5 84.5q148 0 258.5 -58zM783 647q1 7 1 20q0 70 -40 113.5t-115 43.5q-76 0 -127 -46t-78 -131h359zM271 -367q-12 0 -17.5 7t-3.5 19l57 242q6 21 26 21h317q12 0 17.5 -7t3.5 -19l-57 -242q-6 -21 -26 -21h-317z" />
    <glyph glyph-name="uni1EBA" unicode="&#x1eba;" 
d="M-16 0q-12 0 -17.5 7t-2.5 19l169 662l144 691q4 21 26 21h984q12 0 17 -7t3 -19l-51 -221q-4 -21 -26 -21h-627l-74 -263h571q12 0 17 -7t3 -19l-51 -221q-4 -21 -26 -21h-576l-64 -332h638q12 0 17 -7t3 -19l-51 -222q-4 -21 -26 -21h-1000zM742 1495q-10 0 -15.5 5
t-5.5 13q0 5 1 8q12 44 38.5 72t56 42t70.5 28t59.5 25.5t18.5 33.5q0 18 -18 29.5t-48 11.5q-64 0 -81 -50q-8 -20 -26 -20h-184q-12 0 -18 6.5t-3 18.5q25 100 108 152t214 52q85 0 152.5 -22.5t106 -65t38.5 -100.5q0 -48 -21 -79t-50 -48.5t-76 -37.5q-38 -16 -59.5 -28
t-32.5 -29t-28 -17h-197z" />
    <glyph glyph-name="uni1EBB" unicode="&#x1ebb;" horiz-adv-x="1174" 
d="M910.5 997q110.5 -58 169.5 -161t59 -236q0 -69 -16 -139q-4 -21 -25 -21h-702v-20q2 -106 47.5 -158.5t124.5 -52.5q65 0 110 33t68 91q7 19 27 19h293q13 0 19 -5.5t3 -15.5q-28 -107 -98.5 -187t-180 -124.5t-249.5 -44.5q-151 0 -267.5 54.5t-182.5 160.5t-66 255
q0 161 74 301t212.5 224.5t321.5 84.5q148 0 258.5 -58zM783 647q1 7 1 20q0 70 -40 113.5t-115 43.5q-76 0 -127 -46t-78 -131h359zM629 1125q-10 0 -15.5 5t-5.5 13q0 5 1 8q12 44 38.5 72t56 42t70.5 28t59.5 25.5t18.5 33.5q0 18 -18 29.5t-48 11.5q-64 0 -81 -50
q-8 -20 -26 -20h-184q-12 0 -18 6.5t-3 18.5q25 100 108 152t214 52q85 0 152.5 -22.5t106 -65t38.5 -100.5q0 -48 -21 -79t-50 -48.5t-76 -37.5q-38 -16 -59.5 -28t-32.5 -29t-28 -17h-197z" />
    <glyph glyph-name="uni1EBC" unicode="&#x1ebc;" 
d="M-16 0q-12 0 -17.5 7t-2.5 19l169 662l144 691q4 21 26 21h984q12 0 17 -7t3 -19l-51 -221q-4 -21 -26 -21h-627l-74 -263h571q12 0 17 -7t3 -19l-51 -221q-4 -21 -26 -21h-576l-64 -332h638q12 0 17 -7t3 -19l-51 -222q-4 -21 -26 -21h-1000zM904 1519.5
q-35 15.5 -74 43.5q-24 17 -39 25t-30 8q-28 0 -44 -19t-25 -55q-6 -21 -26 -21h-130q-11 0 -17 6.5t-5 18.5q20 128 90.5 207t178.5 79q44 0 76.5 -15t74.5 -44q24 -17 38.5 -25t28.5 -8q28 0 44 18t24 53q4 22 26 22h131q11 0 16.5 -8.5t3.5 -23.5q-22 -131 -89 -204
t-170 -73q-48 0 -83 15.5z" />
    <glyph glyph-name="uni1EBD" unicode="&#x1ebd;" horiz-adv-x="1174" 
d="M910.5 997q110.5 -58 169.5 -161t59 -236q0 -69 -16 -139q-4 -21 -25 -21h-702v-20q2 -106 47.5 -158.5t124.5 -52.5q65 0 110 33t68 91q7 19 27 19h293q13 0 19 -5.5t3 -15.5q-28 -107 -98.5 -187t-180 -124.5t-249.5 -44.5q-151 0 -267.5 54.5t-182.5 160.5t-66 255
q0 161 74 301t212.5 224.5t321.5 84.5q148 0 258.5 -58zM783 647q1 7 1 20q0 70 -40 113.5t-115 43.5q-76 0 -127 -46t-78 -131h359zM791 1149.5q-35 15.5 -74 43.5q-24 17 -39 25t-30 8q-28 0 -44 -19t-25 -55q-6 -21 -26 -21h-130q-11 0 -17 6.5t-5 18.5q20 128 90.5 207
t178.5 79q44 0 76.5 -15t74.5 -44q24 -17 38.5 -25t28.5 -8q28 0 44 18t24 53q4 22 26 22h131q11 0 16.5 -8.5t3.5 -23.5q-22 -131 -89 -204t-170 -73q-48 0 -83 15.5z" />
    <glyph glyph-name="uni1EBE" unicode="&#x1ebe;" 
d="M-16 0q-12 0 -17.5 7t-2.5 19l169 662l144 691q4 21 26 21h984q12 0 17 -7t3 -19l-51 -221q-4 -21 -26 -21h-627l-74 -263h571q12 0 17 -7t3 -19l-51 -221q-4 -21 -26 -21h-576l-64 -332h638q12 0 17 -7t3 -19l-51 -222q-4 -21 -26 -21h-1000zM1221 1735q-7 -6 -16 -6
q-8 0 -17 9l-99 104q-8 10 -8 17q0 8 8 16l289 302q8 8 17 8q8 0 16 -9l137 -150q7 -7 7 -15q0 -11 -10 -18zM464 1584q-3 6 -3 12q0 13 12 20l340 223q12 8 29 8h111q18 0 29 -10l263 -224q9 -7 9 -18q0 -7 -4 -14l-77 -123q-8 -12 -19 -12q-3 0 -13 4l-277 150l-316 -150
q-7 -3 -13 -3q-12 0 -18 14z" />
    <glyph glyph-name="uni1EBF" unicode="&#x1ebf;" horiz-adv-x="1174" 
d="M910.5 997q110.5 -58 169.5 -161t59 -236q0 -69 -16 -139q-4 -21 -25 -21h-702v-20q2 -106 47.5 -158.5t124.5 -52.5q65 0 110 33t68 91q7 19 27 19h293q13 0 19 -5.5t3 -15.5q-28 -107 -98.5 -187t-180 -124.5t-249.5 -44.5q-151 0 -267.5 54.5t-182.5 160.5t-66 255
q0 161 74 301t212.5 224.5t321.5 84.5q148 0 258.5 -58zM783 647q1 7 1 20q0 70 -40 113.5t-115 43.5q-76 0 -127 -46t-78 -131h359zM1108 1365q-7 -6 -16 -6q-8 0 -17 9l-99 104q-8 10 -8 17q0 8 8 16l289 302q8 8 17 8q8 0 16 -9l137 -150q7 -7 7 -15q0 -11 -10 -18z
M351 1214q-3 6 -3 12q0 13 12 20l340 223q12 8 29 8h111q18 0 29 -10l263 -224q9 -7 9 -18q0 -7 -4 -14l-77 -123q-8 -12 -19 -12q-3 0 -13 4l-277 150l-316 -150q-7 -3 -13 -3q-12 0 -18 14z" />
    <glyph glyph-name="uni1EC0" unicode="&#x1ec0;" 
d="M-16 0q-12 0 -17.5 7t-2.5 19l169 662l144 691q4 21 26 21h984q12 0 17 -7t3 -19l-51 -221q-4 -21 -26 -21h-627l-74 -263h571q12 0 17 -7t3 -19l-51 -221q-4 -21 -26 -21h-576l-64 -332h638q12 0 17 -7t3 -19l-51 -222q-4 -21 -26 -21h-1000zM1220 1734q-8 -5 -15 -5
q-11 0 -18 10l-229 285q-6 8 -6 15q0 10 11 18l179 126q8 5 15 5q12 0 18 -13l173 -328q3 -6 3 -13q0 -11 -11 -19zM464 1584q-3 6 -3 11q0 13 12 20l340 223q14 9 29 9h111q17 0 29 -11l263 -223q10 -10 10 -19q0 -6 -5 -14l-77 -122q-7 -12 -19 -12q-6 0 -13 3l-277 151
l-316 -151q-6 -3 -12 -3q-13 0 -19 15z" />
    <glyph glyph-name="uni1EC1" unicode="&#x1ec1;" horiz-adv-x="1174" 
d="M910.5 997q110.5 -58 169.5 -161t59 -236q0 -69 -16 -139q-4 -21 -25 -21h-702v-20q2 -106 47.5 -158.5t124.5 -52.5q65 0 110 33t68 91q7 19 27 19h293q13 0 19 -5.5t3 -15.5q-28 -107 -98.5 -187t-180 -124.5t-249.5 -44.5q-151 0 -267.5 54.5t-182.5 160.5t-66 255
q0 161 74 301t212.5 224.5t321.5 84.5q148 0 258.5 -58zM783 647q1 7 1 20q0 70 -40 113.5t-115 43.5q-76 0 -127 -46t-78 -131h359zM1107 1364q-8 -5 -15 -5q-11 0 -18 10l-229 285q-6 8 -6 15q0 10 11 18l179 126q8 5 15 5q12 0 18 -13l173 -328q3 -6 3 -13q0 -11 -11 -19
zM351 1214q-3 6 -3 11q0 13 12 20l340 223q14 9 29 9h111q17 0 29 -11l263 -223q10 -10 10 -19q0 -6 -5 -14l-77 -122q-7 -12 -19 -12q-6 0 -13 3l-277 151l-316 -151q-6 -3 -12 -3q-13 0 -19 15z" />
    <glyph glyph-name="uni1EC2" unicode="&#x1ec2;" 
d="M-16 0q-12 0 -17.5 7t-2.5 19l169 662l144 691q4 21 26 21h984q12 0 17 -7t3 -19l-51 -221q-4 -21 -26 -21h-627l-74 -263h571q12 0 17 -7t3 -19l-51 -221q-4 -21 -26 -21h-576l-64 -332h638q12 0 17 -7t3 -19l-51 -222q-4 -21 -26 -21h-1000zM464 1584q-3 6 -3 11
q0 11 13 21l339 222q13 9 30 9h111q17 0 28 -10l263 -224q9 -7 9 -18q0 -7 -4 -14l-76 -123q-7 -12 -18 -12q-7 0 -14 4l-277 150l-316 -151q-6 -3 -12 -3q-14 0 -20 15zM1145 1766q-10 0 -15.5 5t-5.5 13q0 5 1 8q12 44 38.5 72t56 42t70.5 28t59.5 25.5t18.5 33.5
q0 18 -18 29.5t-48 11.5q-64 0 -81 -50q-8 -20 -26 -20h-184q-12 0 -18 6.5t-3 18.5q25 100 108 152t214 52q85 0 152.5 -22.5t106 -65t38.5 -100.5q0 -48 -21 -79t-50 -48.5t-76 -37.5q-38 -16 -59.5 -28t-32.5 -29t-28 -17h-197z" />
    <glyph glyph-name="uni1EC3" unicode="&#x1ec3;" horiz-adv-x="1174" 
d="M910.5 997q110.5 -58 169.5 -161t59 -236q0 -69 -16 -139q-4 -21 -25 -21h-702v-20q2 -106 47.5 -158.5t124.5 -52.5q65 0 110 33t68 91q7 19 27 19h293q13 0 19 -5.5t3 -15.5q-28 -107 -98.5 -187t-180 -124.5t-249.5 -44.5q-151 0 -267.5 54.5t-182.5 160.5t-66 255
q0 161 74 301t212.5 224.5t321.5 84.5q148 0 258.5 -58zM783 647q1 7 1 20q0 70 -40 113.5t-115 43.5q-76 0 -127 -46t-78 -131h359zM351 1214q-3 6 -3 11q0 11 13 21l339 222q13 9 30 9h111q17 0 28 -10l263 -224q9 -7 9 -18q0 -7 -4 -14l-76 -123q-7 -12 -18 -12
q-7 0 -14 4l-277 150l-316 -151q-6 -3 -12 -3q-14 0 -20 15zM1032 1396q-10 0 -15.5 5t-5.5 13q0 5 1 8q12 44 38.5 72t56 42t70.5 28t59.5 25.5t18.5 33.5q0 18 -18 29.5t-48 11.5q-64 0 -81 -50q-8 -20 -26 -20h-184q-12 0 -18 6.5t-3 18.5q25 100 108 152t214 52
q85 0 152.5 -22.5t106 -65t38.5 -100.5q0 -48 -21 -79t-50 -48.5t-76 -37.5q-38 -16 -59.5 -28t-32.5 -29t-28 -17h-197z" />
    <glyph glyph-name="uni1EC4" unicode="&#x1ec4;" 
d="M-16 0q-12 0 -17.5 7t-2.5 19l169 662l144 691q4 21 26 21h984q12 0 17 -7t3 -19l-51 -221q-4 -21 -26 -21h-627l-74 -263h571q12 0 17 -7t3 -19l-51 -221q-4 -21 -26 -21h-576l-64 -332h638q12 0 17 -7t3 -19l-51 -222q-4 -21 -26 -21h-1000zM463 1584q-3 6 -3 11
q0 11 13 21l339 222q13 9 30 9h111q17 0 28 -10l263 -224q9 -7 9 -18q0 -7 -4 -14l-76 -123q-7 -12 -18 -12q-7 0 -14 4l-277 150l-316 -151q-6 -3 -12 -3q-14 0 -20 15zM994 1908.5q-35 15.5 -74 43.5q-24 17 -39 25t-30 8q-28 0 -44 -19t-25 -55q-6 -21 -26 -21h-130
q-11 0 -17 6.5t-5 18.5q20 128 90.5 207t178.5 79q44 0 76.5 -15t74.5 -44q24 -17 38.5 -25t28.5 -8q28 0 44 18t24 53q4 22 26 22h131q11 0 16.5 -8.5t3.5 -23.5q-22 -131 -89 -204t-170 -73q-48 0 -83 15.5z" />
    <glyph glyph-name="uni1EC5" unicode="&#x1ec5;" horiz-adv-x="1174" 
d="M910.5 997q110.5 -58 169.5 -161t59 -236q0 -69 -16 -139q-4 -21 -25 -21h-702v-20q2 -106 47.5 -158.5t124.5 -52.5q65 0 110 33t68 91q7 19 27 19h293q13 0 19 -5.5t3 -15.5q-28 -107 -98.5 -187t-180 -124.5t-249.5 -44.5q-151 0 -267.5 54.5t-182.5 160.5t-66 255
q0 161 74 301t212.5 224.5t321.5 84.5q148 0 258.5 -58zM783 647q1 7 1 20q0 70 -40 113.5t-115 43.5q-76 0 -127 -46t-78 -131h359zM350 1214q-3 6 -3 11q0 11 13 21l339 222q13 9 30 9h111q17 0 28 -10l263 -224q9 -7 9 -18q0 -7 -4 -14l-76 -123q-7 -12 -18 -12
q-7 0 -14 4l-277 150l-316 -151q-6 -3 -12 -3q-14 0 -20 15zM881 1538.5q-35 15.5 -74 43.5q-24 17 -39 25t-30 8q-28 0 -44 -19t-25 -55q-6 -21 -26 -21h-130q-11 0 -17 6.5t-5 18.5q20 128 90.5 207t178.5 79q44 0 76.5 -15t74.5 -44q24 -17 38.5 -25t28.5 -8q28 0 44 18
t24 53q4 22 26 22h131q11 0 16.5 -8.5t3.5 -23.5q-22 -131 -89 -204t-170 -73q-48 0 -83 15.5z" />
    <glyph glyph-name="uni1EC6" unicode="&#x1ec6;" 
d="M-16 0q-12 0 -17.5 7t-2.5 19l169 662l144 691q4 21 26 21h984q12 0 17 -7t3 -19l-51 -221q-4 -21 -26 -21h-627l-74 -263h571q12 0 17 -7t3 -19l-51 -221q-4 -21 -26 -21h-576l-64 -332h638q12 0 17 -7t3 -19l-51 -222q-4 -21 -26 -21h-1000zM260 -367q-12 0 -17.5 7
t-3.5 19l57 242q6 21 26 21h317q12 0 17.5 -7t3.5 -19l-57 -242q-6 -21 -26 -21h-317zM480 1621q-3 6 -3 11q0 11 13 21l339 222q13 9 30 9h111q17 0 28 -10l263 -224q9 -7 9 -18q0 -7 -4 -14l-76 -123q-7 -12 -18 -12q-7 0 -14 4l-277 150l-316 -151q-6 -3 -12 -3
q-14 0 -20 15z" />
    <glyph glyph-name="uni1EC7" unicode="&#x1ec7;" horiz-adv-x="1174" 
d="M910.5 997q110.5 -58 169.5 -161t59 -236q0 -69 -16 -139q-4 -21 -25 -21h-702v-20q2 -106 47.5 -158.5t124.5 -52.5q65 0 110 33t68 91q7 19 27 19h293q13 0 19 -5.5t3 -15.5q-28 -107 -98.5 -187t-180 -124.5t-249.5 -44.5q-151 0 -267.5 54.5t-182.5 160.5t-66 255
q0 161 74 301t212.5 224.5t321.5 84.5q148 0 258.5 -58zM783 647q1 7 1 20q0 70 -40 113.5t-115 43.5q-76 0 -127 -46t-78 -131h359zM271 -367q-12 0 -17.5 7t-3.5 19l57 242q6 21 26 21h317q12 0 17.5 -7t3.5 -19l-57 -242q-6 -21 -26 -21h-317zM367 1251q-3 6 -3 11
q0 11 13 21l339 222q13 9 30 9h111q17 0 28 -10l263 -224q9 -7 9 -18q0 -7 -4 -14l-76 -123q-7 -12 -18 -12q-7 0 -14 4l-277 150l-316 -151q-6 -3 -12 -3q-14 0 -20 15z" />
    <glyph glyph-name="uni1EC8" unicode="&#x1ec8;" horiz-adv-x="555" 
d="M-6 0q-10 0 -15.5 5t-5.5 13q0 5 1 8l169 667l144 686q4 21 26 21h333q10 0 15.5 -5t5.5 -13q0 -5 -1 -8l-172 -681l-141 -672q-4 -21 -26 -21h-333zM403 1495q-10 0 -15.5 5t-5.5 13q0 5 1 8q12 44 38.5 72t56 42t70.5 28t59.5 25.5t18.5 33.5q0 18 -18 29.5t-48 11.5
q-64 0 -81 -50q-8 -20 -26 -20h-184q-12 0 -18 6.5t-3 18.5q25 100 108 152t214 52q85 0 152.5 -22.5t106 -65t38.5 -100.5q0 -48 -21 -79t-50 -48.5t-76 -37.5q-38 -16 -59.5 -28t-32.5 -29t-28 -17h-197z" />
    <glyph glyph-name="uni1EC9" unicode="&#x1ec9;" horiz-adv-x="513" 
d="M298 1125q-12 0 -18 7t-3 19q12 44 38.5 72t55.5 42t70 28t59 25.5t18 33.5q0 18 -17.5 29.5t-46.5 11.5q-61 0 -79 -50q-8 -20 -26 -20h-155q-13 0 -19 6.5t-3 18.5q22 100 97.5 152t194.5 52q76 0 137 -22.5t95.5 -65t34.5 -100.5q0 -48 -18 -79t-43.5 -48t-66.5 -37
q-35 -18 -53 -29.5t-28 -28.5q-11 -17 -28 -17h-196zM-20 0q-12 0 -18 7t-3 19l121 479l107 504q3 21 26 21h321q12 0 18 -7t3 -19l-127 -499l-100 -484q-4 -21 -26 -21h-322z" />
    <glyph glyph-name="uni1ECA" unicode="&#x1eca;" horiz-adv-x="555" 
d="M-6 0q-10 0 -15.5 5t-5.5 13q0 5 1 8l169 667l144 686q4 21 26 21h333q10 0 15.5 -5t5.5 -13q0 -5 -1 -8l-172 -681l-141 -672q-4 -21 -26 -21h-333zM-82 -367q-12 0 -17.5 7t-3.5 19l57 242q6 21 26 21h317q12 0 17.5 -7t3.5 -19l-57 -242q-6 -21 -26 -21h-317z" />
    <glyph glyph-name="uni1ECB" unicode="&#x1ecb;" horiz-adv-x="512" 
d="M-20 0q-12 0 -18 7t-3 19l121 479l107 504q3 21 26 21h321q12 0 18 -7t3 -19l-127 -499l-100 -484q-4 -21 -26 -21h-322zM239 1112q-12 0 -18 7t-3 19l57 241q4 21 26 21h317q12 0 17.5 -7t3.5 -19l-58 -242q-4 -20 -25 -20h-317zM-103 -367q-12 0 -17.5 7t-3.5 19
l57 242q6 21 26 21h317q12 0 17.5 -7t3.5 -19l-57 -242q-6 -21 -26 -21h-317z" />
    <glyph glyph-name="uni1ECC" unicode="&#x1ecc;" horiz-adv-x="1556" 
d="M402.5 41.5q-149.5 74.5 -234.5 216.5t-85 338q0 214 100 406.5t286.5 311.5t431.5 119q190 0 339.5 -74t234.5 -216t85 -338q0 -214 -100 -407t-286 -312t-431 -119q-191 0 -340.5 74.5zM1001.5 336.5q95.5 91.5 139 223t43.5 255.5q0 169 -81 254.5t-217 85.5
q-148 0 -244 -91.5t-139.5 -223t-43.5 -255.5q0 -169 81 -254.5t218 -85.5q148 0 243.5 91.5zM462 -367q-12 0 -17.5 7t-3.5 19l57 242q6 21 26 21h317q12 0 17.5 -7t3.5 -19l-57 -242q-6 -21 -26 -21h-317z" />
    <glyph glyph-name="uni1ECD" unicode="&#x1ecd;" horiz-adv-x="1197" 
d="M285 29.5q-113 54.5 -177 160.5t-64 255q0 161 74.5 301t213.5 224.5t323 84.5q144 0 256.5 -54.5t176.5 -160.5t64 -254q0 -161 -74.5 -301t-213.5 -225t-322 -85q-144 0 -257 54.5zM689.5 271.5q53.5 62.5 78.5 154t25 176.5q0 108 -40.5 163.5t-112.5 55.5
q-79 0 -132.5 -61.5t-79 -152.5t-25.5 -179q0 -109 40.5 -164t111.5 -55q81 0 134.5 62.5zM276 -367q-12 0 -17.5 7t-3.5 19l57 242q6 21 26 21h317q12 0 17.5 -7t3.5 -19l-57 -242q-6 -21 -26 -21h-317z" />
    <glyph glyph-name="uni1ECE" unicode="&#x1ece;" horiz-adv-x="1556" 
d="M402.5 41.5q-149.5 74.5 -234.5 216.5t-85 338q0 214 100 406.5t286.5 311.5t431.5 119q190 0 339.5 -74t234.5 -216t85 -338q0 -214 -100 -407t-286 -312t-431 -119q-191 0 -340.5 74.5zM1001.5 336.5q95.5 91.5 139 223t43.5 255.5q0 169 -81 254.5t-217 85.5
q-148 0 -244 -91.5t-139.5 -223t-43.5 -255.5q0 -169 81 -254.5t218 -85.5q148 0 243.5 91.5zM881 1495q-10 0 -15.5 5t-5.5 13q0 5 1 8q12 44 38.5 72t56 42t70.5 28t59.5 25.5t18.5 33.5q0 18 -18 29.5t-48 11.5q-64 0 -81 -50q-8 -20 -26 -20h-184q-12 0 -18 6.5t-3 18.5
q25 100 108 152t214 52q85 0 152.5 -22.5t106 -65t38.5 -100.5q0 -48 -21 -79t-50 -48.5t-76 -37.5q-38 -16 -59.5 -28t-32.5 -29t-28 -17h-197z" />
    <glyph glyph-name="uni1ECF" unicode="&#x1ecf;" horiz-adv-x="1197" 
d="M285 29.5q-113 54.5 -177 160.5t-64 255q0 161 74.5 301t213.5 224.5t323 84.5q144 0 256.5 -54.5t176.5 -160.5t64 -254q0 -161 -74.5 -301t-213.5 -225t-322 -85q-144 0 -257 54.5zM689.5 271.5q53.5 62.5 78.5 154t25 176.5q0 108 -40.5 163.5t-112.5 55.5
q-79 0 -132.5 -61.5t-79 -152.5t-25.5 -179q0 -109 40.5 -164t111.5 -55q81 0 134.5 62.5zM639 1125q-10 0 -15.5 5t-5.5 13q0 5 1 8q12 44 38.5 72t56 42t70.5 28t59.5 25.5t18.5 33.5q0 18 -18 29.5t-48 11.5q-64 0 -81 -50q-8 -20 -26 -20h-184q-12 0 -18 6.5t-3 18.5
q25 100 108 152t214 52q85 0 152.5 -22.5t106 -65t38.5 -100.5q0 -48 -21 -79t-50 -48.5t-76 -37.5q-38 -16 -59.5 -28t-32.5 -29t-28 -17h-197z" />
    <glyph glyph-name="uni1ED0" unicode="&#x1ed0;" horiz-adv-x="1556" 
d="M402.5 41.5q-149.5 74.5 -234.5 216.5t-85 338q0 214 100 406.5t286.5 311.5t431.5 119q190 0 339.5 -74t234.5 -216t85 -338q0 -214 -100 -407t-286 -312t-431 -119q-191 0 -340.5 74.5zM1001.5 336.5q95.5 91.5 139 223t43.5 255.5q0 169 -81 254.5t-217 85.5
q-148 0 -244 -91.5t-139.5 -223t-43.5 -255.5q0 -169 81 -254.5t218 -85.5q148 0 243.5 91.5zM1360 1735q-7 -6 -16 -6q-8 0 -17 9l-99 104q-8 10 -8 17q0 8 8 16l289 302q8 8 17 8q8 0 16 -9l137 -150q7 -7 7 -15q0 -11 -10 -18zM603 1584q-3 6 -3 12q0 13 12 20l340 223
q12 8 29 8h111q18 0 29 -10l263 -224q9 -7 9 -18q0 -7 -4 -14l-77 -123q-8 -12 -19 -12q-3 0 -13 4l-277 150l-316 -150q-7 -3 -13 -3q-12 0 -18 14z" />
    </font>
</defs>
</svg>
