<?xml version="1.0" standalone="no"?>
<!DOCTYPE svg PUBLIC "-//W3C//DTD SVG 1.1//EN" "http://www.w3.org/Graphics/SVG/1.1/DTD/svg11.dtd" >
<svg xmlns="http://www.w3.org/2000/svg" xmlns:xlink="http://www.w3.org/1999/xlink" version="1.1">
<metadata>
Created by FontForge 20170731 at Wed May 12 04:41:42 2021
 By Aleksey,,,
(c) Copyright David Jonathan Ross, 2016, 2021. All rights reserved.
</metadata>
<defs>
<font id="FormaDJRText-ExtraLight" horiz-adv-x="0" >
  <font-face 
    font-family="Forma DJR Text Extra Light"
    font-weight="200"
    font-stretch="normal"
    units-per-em="2000"
    panose-1="0 0 0 0 0 0 0 9 0 0"
    ascent="1500"
    descent="-500"
    x-height="1030"
    cap-height="1400"
    bbox="-797 -416 1982 2001"
    underline-thickness="50"
    underline-position="-150"
    unicode-range="U+0020-FB01"
  />
<missing-glyph horiz-adv-x="1200" 
d="M50 1388q0 5 3.5 8.5t8.5 3.5h1076q5 0 8.5 -3.5t3.5 -8.5v-1716q0 -5 -3.5 -8.5t-8.5 -3.5h-1076q-5 0 -8.5 3.5t-3.5 8.5v1716zM1095 1345h-990v-1630h990v1630z" />
    <glyph glyph-name=".notdef" horiz-adv-x="1200" 
d="M50 1388q0 5 3.5 8.5t8.5 3.5h1076q5 0 8.5 -3.5t3.5 -8.5v-1716q0 -5 -3.5 -8.5t-8.5 -3.5h-1076q-5 0 -8.5 3.5t-3.5 8.5v1716zM1095 1345h-990v-1630h990v1630z" />
    <glyph glyph-name=".null" 
 />
    <glyph glyph-name="nonmarkingreturn" horiz-adv-x="666" 
 />
    <glyph glyph-name="space" unicode=" " horiz-adv-x="350" 
 />
    <glyph glyph-name="space" unicode="&#xa0;" horiz-adv-x="350" 
 />
    <glyph glyph-name="exclam" unicode="!" horiz-adv-x="351" 
d="M159 366q-7 0 -11 4.5t-4 11.5v1003q0 7 4 11t11 4h35q7 0 11.5 -4t4.5 -11v-1003q0 -16 -16 -16h-35zM145 0q-7 0 -11 4.5t-4 11.5v85q0 7 4 11t11 4h61q7 0 11.5 -4t4.5 -11v-85q0 -16 -16 -16h-61z" />
    <glyph glyph-name="quotedbl" unicode="&#x22;" horiz-adv-x="476" 
d="M135 1134q-14 0 -16 16l-11 235q0 7 4 11t11 4h45q8 0 12 -4t3 -11l-11 -235q0 -16 -16 -16h-21zM320 1134q-14 0 -16 16l-11 235q0 7 4 11t11 4h45q8 0 12 -4t3 -11l-11 -235q0 -16 -16 -16h-21z" />
    <glyph glyph-name="numbersign" unicode="#" horiz-adv-x="1345" 
d="M1312 1044q17 0 14 -16l-4 -25q-1 -15 -16 -15h-352l-81 -568h353q17 0 14 -16l-4 -25q-1 -15 -16 -15h-355l-51 -349q-1 -15 -16 -15h-29q-17 0 -14 17l50 347h-360l-51 -349q-1 -15 -16 -15h-29q-17 0 -14 17l50 347h-350q-17 0 -14 17l4 25q2 14 16 14h352l81 568
h-351q-17 0 -14 17l4 25q2 14 16 14h353l49 342q3 14 16 14h29q17 0 14 -16l-48 -340h360l49 342q3 14 16 14h29q17 0 14 -16l-48 -340h350zM534 988l-81 -568h360l81 568h-360z" />
    <glyph glyph-name="dollar" unicode="$" horiz-adv-x="1057" 
d="M922.5 170q-55.5 -91 -151 -137t-215.5 -49v-169q0 -7 -4.5 -11t-11.5 -4h-31q-7 0 -11 4t-4 11v171q-197 14 -300 142t-114 348q0 7 4 11.5t11 4.5h39q16 0 16 -15q13 -215 105.5 -325t290.5 -110q107 0 191 36.5t132.5 115t48.5 198.5q0 113 -53.5 175.5t-131.5 88.5
t-211 51q-136 25 -218 53t-138 95t-56 189q0 120 50 203.5t137 125.5t197 45v127q0 7 4 11t11 4h31q7 0 11.5 -4t4.5 -11v-128q194 -12 291 -117t108 -302v-2q0 -14 -15 -14h-35q-15 0 -15 16q-7 182 -96.5 272t-273.5 90q-162 0 -256 -77.5t-94 -236.5q0 -100 50 -155.5
t123 -79.5t200 -48q142 -26 228.5 -56.5t146.5 -105t60 -209.5q0 -131 -55.5 -222z" />
    <glyph glyph-name="percent" unicode="%" horiz-adv-x="1422" 
d="M208.5 819q-56.5 39 -87.5 111.5t-31 171.5q0 98 31 169.5t88 110t133 38.5t132.5 -38.5t87 -110.5t30.5 -171q0 -98 -31.5 -170t-88.5 -111t-132 -39t-131.5 39zM280 0q-7 0 -10.5 3t-3.5 8q0 4 3 8l807 1371q6 10 18 10h37q13 0 13 -10q0 -4 -3 -9l-807 -1371
q-7 -10 -18 -10h-36zM477 903q51 71 51 197q0 82 -23 142.5t-65.5 93t-99.5 32.5q-87 0 -137.5 -72t-50.5 -196q0 -126 51 -197t137 -71t137 71zM948.5 19q-56.5 39 -87.5 111.5t-31 171.5q0 98 31 169.5t88 110t133 38.5t132.5 -38.5t87 -110.5t30.5 -171q0 -98 -31.5 -170
t-88.5 -111t-132 -39t-131.5 39zM1217 103q51 71 51 197q0 82 -23 142.5t-65.5 93t-99.5 32.5q-87 0 -137.5 -72t-50.5 -196q0 -126 51 -197t137 -71t137 71z" />
    <glyph glyph-name="ampersand" unicode="&#x26;" horiz-adv-x="1257" 
d="M1220 19q5 -5 5 -10q0 -4 -3.5 -6.5t-10.5 -2.5h-48q-11 0 -19 9l-189 198q-79 -109 -190 -168t-243 -59q-116 0 -217 44t-163 130t-62 208q0 101 44.5 178t114 132t171.5 113q-88 102 -127 181t-39 170q0 77 33.5 143t102 106.5t168.5 40.5q87 0 157.5 -35.5t110.5 -99
t40 -145.5q0 -88 -47 -154t-115 -112t-186 -111l133 -142l37 -39l271 -285q93 173 101 420q0 15 15 15h27q16 0 16 -21q-3 -133 -33 -248.5t-84 -208.5zM344.5 985q34.5 -69 121.5 -169q111 60 175 102.5t107.5 100.5t43.5 133q0 64 -30 113.5t-85 77t-127 27.5
q-115 0 -177.5 -58.5t-62.5 -177.5q0 -80 34.5 -149zM747.5 91q99.5 55 168.5 157l-324 340l-26 27q-18 20 -54.5 58t-59.5 65q-95 -54 -160 -104t-105.5 -118t-40.5 -156q0 -96 47 -169.5t133 -114t200 -40.5q122 0 221.5 55z" />
    <glyph glyph-name="quotesingle" unicode="'" horiz-adv-x="291" 
d="M135 1134q-14 0 -16 16l-11 235q0 7 4 11t11 4h45q8 0 12 -4t3 -11l-11 -235q0 -16 -16 -16h-21z" />
    <glyph glyph-name="parenleft" unicode="(" horiz-adv-x="426" 
d="M298 -280q-12 0 -18 11q-103 207 -156.5 418t-53.5 451q0 455 208 849q6 11 18 11h24q13 0 13 -10l-2 -8q-183 -406 -183 -842q0 -448 186 -862q1 -3 1 -7q0 -11 -13 -11h-24z" />
    <glyph glyph-name="parenright" unicode=")" horiz-adv-x="426" 
d="M104 -280q-8 0 -11.5 5t-0.5 13q187 416 187 862q0 434 -184 842l-2 8q0 10 13 10h24q12 0 19 -11q208 -398 208 -849q0 -239 -53.5 -450t-156.5 -419q-7 -11 -19 -11h-24z" />
    <glyph glyph-name="asterisk" unicode="*" horiz-adv-x="659" 
d="M316 906q-7 0 -11 4.5t-4 11.5l6 242l-207 -128q-5 -3 -10 -3q-8 0 -12 7l-14 20q-3 5 -3 9q0 8 8 13l216 118l-219 107q-6 3 -8 8.5t1 12.5l13 26q5 9 12 9q3 0 8 -3l215 -124l-6 249q0 7 4 11t11 4h23q15 0 15 -15l-7 -249l215 134q5 3 9 3q8 0 12 -7l14 -20
q3 -4 3 -10q0 -8 -8 -12l-221 -122l215 -109q12 -6 7 -21l-10 -24q-4 -10 -12 -10q-5 0 -9 3l-213 125l6 -244q0 -16 -16 -16h-23z" />
    <glyph glyph-name="plus" unicode="+" horiz-adv-x="920" 
d="M875 720q7 0 11 -4t4 -11v-31q0 -7 -4 -11.5t-11 -4.5h-383v-422q0 -7 -4 -11.5t-11 -4.5h-31q-16 0 -16 16v422h-384q-16 0 -16 16v31q0 7 4.5 11t11.5 4h384v425q0 7 4.5 11t11.5 4h31q7 0 11 -4t4 -11v-425h383z" />
    <glyph glyph-name="comma" unicode="," horiz-adv-x="228" 
d="M52 -150q-14 0 -11 17l37 133v101q0 7 4.5 11t11.5 4h45q7 0 11 -4t4 -11v-91q0 -9 -5 -19l-71 -130q-6 -11 -18 -11h-8z" />
    <glyph glyph-name="hyphen" unicode="-" horiz-adv-x="501" 
d="M70 566q-16 0 -16 16v31q0 7 4.5 11t11.5 4h362q7 0 11 -4t4 -11v-31q0 -7 -4 -11.5t-11 -4.5h-362z" />
    <glyph glyph-name="hyphen" unicode="&#x2011;" horiz-adv-x="501" 
d="M70 566q-16 0 -16 16v31q0 7 4.5 11t11.5 4h362q7 0 11 -4t4 -11v-31q0 -7 -4 -11.5t-11 -4.5h-362z" />
    <glyph glyph-name="hyphen" unicode="&#x2010;" horiz-adv-x="501" 
d="M70 566q-16 0 -16 16v31q0 7 4.5 11t11.5 4h362q7 0 11 -4t4 -11v-31q0 -7 -4 -11.5t-11 -4.5h-362z" />
    <glyph glyph-name="hyphen" unicode="&#xad;" horiz-adv-x="501" 
d="M70 566q-16 0 -16 16v31q0 7 4.5 11t11.5 4h362q7 0 11 -4t4 -11v-31q0 -7 -4 -11.5t-11 -4.5h-362z" />
    <glyph glyph-name="period" unicode="." horiz-adv-x="228" 
d="M84 0q-16 0 -16 16v85q0 7 4.5 11t11.5 4h61q7 0 11 -4t4 -11v-85q0 -7 -4 -11.5t-11 -4.5h-61z" />
    <glyph glyph-name="slash" unicode="/" horiz-adv-x="566" 
d="M58 -295q-8 0 -11.5 4.5t-2.5 12.5l417 1709q1 7 5.5 10.5t11.5 3.5h28q8 0 11.5 -4.5t2.5 -12.5l-416 -1709q-3 -14 -18 -14h-28z" />
    <glyph glyph-name="zero" unicode="0" horiz-adv-x="1078" 
d="M301.5 67.5q-101.5 87.5 -157.5 250.5t-56 384t56 383t158 248.5t238 86.5t237.5 -86.5t157 -249t55.5 -384.5t-56.5 -384.5t-158.5 -249t-237 -86.5t-236.5 87.5zM740 118.5q86 78.5 132.5 227.5t46.5 354t-46.5 354t-132.5 227.5t-202 78.5q-117 0 -202.5 -79
t-131.5 -227.5t-46 -353.5q0 -204 47 -353t132.5 -228t200.5 -79q116 0 202 78.5z" />
    <glyph glyph-name="one" unicode="1" horiz-adv-x="603" 
d="M361 0q-16 0 -16 16l4 657l-4 649q-109 -100 -282 -162q-2 -1 -6 -1q-12 0 -12 14v28q0 14 12 18q77 32 152 78.5t128 94.5q8 8 19 8h40q7 0 11 -4t4 -11l-3 -709l3 -660q0 -7 -4 -11.5t-11 -4.5h-35z" />
    <glyph glyph-name="two" unicode="2" horiz-adv-x="955" 
d="M100 0q-7 0 -11 4.5t-4 11.5v152q0 128 55.5 216.5t135 143t211.5 122.5q116 59 184.5 104t115 113t46.5 163q0 92 -37 167t-114 119t-191 44q-168 0 -259.5 -107t-100.5 -315q0 -16 -16 -16h-29q-7 0 -11 4.5t-4 11.5q8 236 117.5 359t306.5 123q126 0 217 -47.5
t139 -135t48 -207.5q0 -112 -51 -190.5t-124.5 -128.5t-198.5 -114t-198.5 -114t-124.5 -128.5t-51 -190.5v-104h712q7 0 11.5 -4t4.5 -11v-29q0 -16 -16 -16h-763z" />
    <glyph glyph-name="three" unicode="3" horiz-adv-x="1057" 
d="M198.5 93q-112.5 113 -123.5 331v2q0 14 15 14h39q16 0 16 -15q8 -189 97.5 -287t269.5 -98q130 0 216 46.5t127 129t41 191.5q0 98 -45 168.5t-130 107.5t-203 37h-90q-16 0 -16 16v29q0 7 4.5 11t11.5 4h90q168 0 256 73.5t88 206.5q0 96 -42 164t-117 102t-171 34
q-350 0 -373 -376q0 -16 -16 -16h-33q-16 0 -16 16q4 140 61.5 238t155 148t221.5 50q111 0 202.5 -42.5t145.5 -123.5t54 -193q0 -120 -68 -196t-186 -113q134 -22 210 -116t76 -233q0 -123 -53 -218.5t-155.5 -150t-245.5 -54.5q-201 0 -313.5 113z" />
    <glyph glyph-name="four" unicode="4" horiz-adv-x="995" 
d="M920 504q7 0 11.5 -4t4.5 -11v-29q0 -16 -16 -16h-130v-428q0 -16 -16 -16h-35q-7 0 -11 4.5t-4 11.5v428h-659q-7 0 -11 4.5t-4 11.5v28q0 11 6 19l613 884q5 9 19 9h86q7 0 11.5 -4t4.5 -11v-881h130zM724 504v850l-594 -850h594z" />
    <glyph glyph-name="five" unicode="5" horiz-adv-x="1008" 
d="M201.5 85.5q-102.5 105.5 -121.5 300.5v2q0 14 14 14h41q15 0 15 -15q12 -156 99 -251.5t249 -95.5q107 0 189 58.5t127 165t45 246.5t-42 238.5t-119 148.5t-180 50q-134 0 -217 -70t-115 -201q-4 -14 -18 -14h-36q-8 0 -12 4.5t-3 11.5l42 707q1 15 16 15h642
q7 0 11 -4t4 -11v-29q0 -7 -4 -11.5t-11 -4.5h-605l-32 -511q60 90 139.5 134.5t198.5 44.5q123 0 216 -58t144.5 -170t51.5 -270q0 -159 -54.5 -279t-152.5 -185.5t-225 -65.5q-194 0 -296.5 105.5z" />
    <glyph glyph-name="six" unicode="6" horiz-adv-x="1042" 
d="M204.5 153.5q-116.5 173.5 -116.5 534.5q0 229 55.5 393.5t159 251.5t245.5 87q166 0 255.5 -81t110.5 -246v-3q0 -14 -14 -14h-41q-15 0 -16 16q-10 126 -84.5 197t-210.5 71q-120 0 -208 -81.5t-135 -231.5t-47 -351q49 114 153 174t235 60q124 0 218 -53.5t146 -154
t52 -238.5q0 -148 -53.5 -262.5t-150 -178t-220.5 -63.5q-217 0 -333.5 173.5zM731.5 93q79.5 53 120 151.5t40.5 233.5q-2 118 -43 206t-120 136t-191 48q-113 0 -195 -47t-125.5 -134t-43.5 -205q0 -120 44 -221t126.5 -161t193.5 -60q114 0 193.5 53z" />
    <glyph glyph-name="seven" unicode="7" horiz-adv-x="858" 
d="M315 0q-8 0 -11.5 4.5t-2.5 12.5q128 709 441 1323h-678q-16 0 -16 16v29q0 7 4.5 11t11.5 4h731q7 0 11 -4t4 -11v-31q0 -10 -4 -19q-317 -639 -425 -1320q-3 -15 -17 -15h-49z" />
    <glyph glyph-name="eight" unicode="8" horiz-adv-x="1059" 
d="M304 31q-101 51 -158 140.5t-57 202.5q0 91 36.5 169t103 131.5t154.5 73.5q-113 34 -172.5 119t-59.5 201q0 101 50.5 181.5t138 125.5t193.5 45t193.5 -45.5t138 -127t50.5 -183.5q0 -65 -28 -129t-82.5 -114t-131.5 -73q92 -20 160.5 -73.5t106 -131.5t37.5 -169
q0 -113 -57 -202.5t-158 -140.5t-229 -51t-229 51zM699.5 822.5q71.5 40.5 109.5 105t38 132.5q0 94 -40.5 161.5t-111.5 103t-162 35.5q-92 0 -163 -36t-111 -105.5t-40 -165.5q0 -75 38 -137t109 -98t167 -36q95 0 166.5 40.5zM729 82q84 42 129 116t45 168q0 103 -43 183
t-126.5 125.5t-200.5 47.5q-116 -2 -199.5 -48t-127 -125.5t-43.5 -182.5q0 -94 45 -168t129 -116t196 -42t196 42z" />
    <glyph glyph-name="nine" unicode="9" horiz-adv-x="1042" 
d="M238 61q-89 81 -110 247v2q0 14 14 14h41q15 0 16 -15q10 -132 86 -200.5t211 -68.5q123 0 210 78.5t132.5 227.5t45.5 356q-48 -113 -152.5 -172.5t-235.5 -59.5q-124 0 -218 53.5t-146 154t-52 238.5q0 148 53.5 262.5t150 178t220.5 63.5q217 0 333.5 -173.5
t116.5 -534.5q0 -229 -55.5 -393.5t-159 -251.5t-245.5 -87q-167 0 -256 81zM699 579q82 47 125.5 134t43.5 205q0 120 -44 221t-126.5 161t-193.5 60q-114 0 -193.5 -53t-120 -151.5t-40.5 -233.5q2 -118 43 -206t120 -136t191 -48q113 0 195 47z" />
    <glyph glyph-name="colon" unicode=":" horiz-adv-x="228" 
d="M84 0q-16 0 -16 16v85q0 7 4.5 11t11.5 4h61q7 0 11 -4t4 -11v-85q0 -7 -4 -11.5t-11 -4.5h-61zM84 914q-16 0 -16 16v85q0 7 4.5 11t11.5 4h61q7 0 11 -4t4 -11v-85q0 -7 -4 -11.5t-11 -4.5h-61z" />
    <glyph glyph-name="semicolon" unicode=";" horiz-adv-x="228" 
d="M52 -150q-14 0 -11 17l37 133v101q0 7 4.5 11t11.5 4h45q7 0 11 -4t4 -11v-91q0 -9 -5 -19l-71 -130q-6 -11 -18 -11h-8zM84 914q-16 0 -16 16v85q0 7 4.5 11t11.5 4h61q7 0 11 -4t4 -11v-85q0 -7 -4 -11.5t-11 -4.5h-61z" />
    <glyph glyph-name="less" unicode="&#x3c;" horiz-adv-x="920" 
d="M41 653q-11 5 -11 18v36q0 13 11 18l831 387q6 2 7 2q11 0 11 -14v-29q0 -14 -11 -18l-783 -363l783 -365q11 -4 11 -18v-29q0 -8 -5.5 -11.5t-12.5 0.5z" />
    <glyph glyph-name="equal" unicode="=" horiz-adv-x="920" 
d="M46 858q-16 0 -16 16v31q0 7 4.5 11t11.5 4h829q7 0 11 -4t4 -11v-31q0 -7 -4 -11.5t-11 -4.5h-829zM46 458q-16 0 -16 16v31q0 7 4.5 11t11.5 4h829q7 0 11 -4t4 -11v-31q0 -7 -4 -11.5t-11 -4.5h-829z" />
    <glyph glyph-name="greater" unicode="&#x3e;" horiz-adv-x="920" 
d="M48 267q-6 -2 -7 -2q-11 0 -11 13v29q0 13 11 18l783 365l-783 363q-11 5 -11 18v29q0 9 5 12.5t13 -0.5l831 -387q11 -4 11 -18v-36q0 -14 -11 -18z" />
    <glyph glyph-name="question" unicode="?" horiz-adv-x="910" 
d="M431 366q-7 0 -11 4.5t-4 11.5q2 98 31 172t68.5 125t103.5 116q54 55 85 93t51.5 88t20.5 112q0 86 -40.5 147.5t-113 93t-166.5 31.5q-171 0 -252.5 -89.5t-87.5 -272.5q0 -16 -16 -16h-34q-7 0 -11 4.5t-4 11.5q8 205 113 312.5t294 107.5q108 0 194 -39.5t135 -115.5
t49 -181q0 -72 -22.5 -128t-55 -96.5t-89.5 -97.5q-62 -62 -98.5 -108.5t-63.5 -113.5t-29 -156q0 -16 -16 -16h-31zM415 0q-7 0 -11 4.5t-4 11.5v85q0 7 4 11t11 4h61q7 0 11.5 -4t4.5 -11v-85q0 -16 -16 -16h-61z" />
    <glyph glyph-name="at" unicode="@" horiz-adv-x="1724" 
d="M1007 949q80 -55 124 -160l-4 186q0 7 4.5 11t11.5 4h31q7 0 11 -4t4 -11v-623q0 -153 44.5 -210.5t121.5 -57.5q66 0 118 46t82 140t30 230q0 261 -89.5 449.5t-255 287.5t-389.5 99q-217 0 -378 -100t-248.5 -288.5t-87.5 -447.5q0 -253 87.5 -437t249 -281.5
t377.5 -97.5q194 0 338 53.5t212 169.5q6 11 18 11h27q9 0 13 -4t0 -11q-73 -136 -231.5 -199.5t-376.5 -63.5q-230 0 -404.5 104.5t-270 299.5t-95.5 458q0 270 96 468.5t270.5 304t405.5 105.5q237 0 415.5 -105.5t276.5 -304.5t98 -470q0 -144 -39 -248t-104.5 -158
t-144.5 -54q-88 0 -145.5 49.5t-72.5 172.5q-43 -110 -125.5 -172t-194.5 -62q-116 0 -198.5 63.5t-125 173.5t-42.5 249q0 137 42.5 248.5t125.5 176.5t198 65q110 0 190 -55zM988.5 131.5q69.5 47.5 108 143.5t38.5 236q0 137 -37 235t-106 150t-165 52q-105 0 -175.5 -56
t-104.5 -152t-34 -216q0 -124 33.5 -223.5t103.5 -158t175 -58.5q94 0 163.5 47.5z" />
    <glyph glyph-name="A" unicode="A" horiz-adv-x="1164" 
d="M1132 18q2 -4 2 -7q0 -5 -4 -8t-10 -3h-41q-13 0 -18 12l-173 480h-617l-174 -480q-3 -12 -17 -12h-36q-8 0 -11.5 5t-0.5 13l507 1370q3 12 17 12h52q14 0 17 -12zM868 548l-288 794l-289 -794h577z" />
    <glyph glyph-name="B" unicode="B" horiz-adv-x="1218" 
d="M144 0q-16 0 -16 16l4 730l-4 639q0 7 4.5 11t11.5 4h460q138 0 242 -40t161 -113.5t57 -172.5q0 -135 -67 -211.5t-207 -108.5q164 -41 239.5 -128t80.5 -222q0 -206 -139 -305t-371 -99h-456zM198 1342l-4 -562h404q193 0 294.5 63t101.5 213q0 141 -105 213.5
t-291 72.5h-400zM194 722l4 -662h400q210 0 326 82.5t116 259.5q0 109 -60.5 181t-160.5 105.5t-221 33.5h-404z" />
    <glyph glyph-name="C" unicode="C" horiz-adv-x="1318" 
d="M359.5 62.5q-136.5 82.5 -207.5 245.5t-71 402q0 218 73 378t211 246t328 86q136 0 248 -48.5t190 -155.5t104 -275v-3q0 -14 -14 -14h-39q-15 0 -17 15q-33 220 -160 322.5t-314 102.5q-168 0 -290 -81.5t-186 -229.5t-64 -345q0 -225 65 -375t186 -223.5t289 -73.5
q136 0 242 52t170 154t73 249q2 15 17 15h38q8 0 12 -4.5t3 -12.5q-13 -161 -85.5 -275.5t-193 -174t-276.5 -59.5q-195 0 -331.5 82.5z" />
    <glyph glyph-name="D" unicode="D" horiz-adv-x="1294" 
d="M144 0q-7 0 -11 4.5t-4 11.5l4 726l-4 643q0 7 4 11t11 4h395q199 0 352 -86t237.5 -242t84.5 -360q0 -221 -91.5 -382.5t-244.5 -245.5t-334 -84h-399zM199 742l4 -686h356q143 0 277 71.5t220.5 219t86.5 363.5q0 202 -80 345t-214.5 216t-297.5 73h-348z" />
    <glyph glyph-name="E" unicode="E" horiz-adv-x="1006" 
d="M144 0q-16 0 -16 16l4 734l-4 635q0 7 4.5 11t11.5 4h751q7 0 11 -4t4 -11v-25q0 -7 -4 -11.5t-11 -4.5h-697l-4 -560h663q7 0 11 -4t4 -11v-25q0 -7 -4 -11.5t-11 -4.5h-663l4 -672h713q7 0 11 -4t4 -11v-25q0 -7 -4 -11.5t-11 -4.5h-767z" />
    <glyph glyph-name="F" unicode="F" horiz-adv-x="959" 
d="M144 0q-16 0 -16 16l4 682l-4 687q0 7 4.5 11t11.5 4h731q7 0 11 -4t4 -11v-25q0 -7 -4 -11.5t-11 -4.5h-677l-4 -622h643q7 0 11 -4t4 -11v-25q0 -7 -4 -11.5t-11 -4.5h-643l4 -650q0 -7 -4 -11.5t-11 -4.5h-39z" />
    <glyph glyph-name="G" unicode="G" horiz-adv-x="1321" 
d="M367.5 67.5q-134.5 87.5 -210.5 251t-76 383.5q0 219 76.5 381.5t210.5 249.5t303 87q213 0 352 -112t183 -329v-4q0 -13 -14 -13h-36q-16 0 -17 14q-35 190 -158 289t-310 99q-149 0 -267 -79t-185.5 -229t-67.5 -356q0 -202 67.5 -352.5t186.5 -231t268 -80.5
q165 0 278.5 74.5t170 209t55.5 314.5h-494q-16 0 -16 16v25q0 7 4.5 11t11.5 4h543q15 0 15 -18q4 -215 -60 -370.5t-192.5 -238.5t-315.5 -83q-171 0 -305.5 87.5z" />
    <glyph glyph-name="H" unicode="H" horiz-adv-x="1270" 
d="M1138 684l4 -668q0 -7 -4 -11.5t-11 -4.5h-39q-16 0 -16 16l4 668v44h-882v-44l4 -668q0 -7 -4 -11.5t-11 -4.5h-39q-16 0 -16 16l4 668l-4 701q0 7 4.5 11t11.5 4h39q7 0 11 -4t4 -11l-3 -601h880l-3 601q0 7 4.5 11t11.5 4h39q7 0 11 -4t4 -11z" />
    <glyph glyph-name="I" unicode="I" horiz-adv-x="347" 
d="M154 0q-7 0 -11 4.5t-4 11.5l4 712l-4 657q0 7 4 11t11 4h39q7 0 11.5 -4t4.5 -11l-4 -657l4 -712q0 -16 -16 -16h-39z" />
    <glyph glyph-name="J" unicode="J" horiz-adv-x="901" 
d="M143.5 102q-87.5 128 -89.5 378q0 7 4 11.5t11 4.5h35q16 0 16 -16q1 -145 28 -243t93.5 -152.5t182.5 -54.5q119 0 186 56.5t92.5 156.5t25.5 249v478l-2 415q0 7 4 11t11 4h39q7 0 11.5 -4t4.5 -11l-2 -415v-478q0 -256 -87.5 -387t-282.5 -131q-193 0 -280.5 128z" />
    <glyph glyph-name="K" unicode="K" horiz-adv-x="1008" 
d="M977 19q3 -4 3 -9q0 -10 -14 -10h-47q-13 0 -19 10l-509 790l-195 -223l3 -561q0 -16 -16 -16h-39q-7 0 -11 4.5t-4 11.5l4 726l-4 643q0 7 4 11t11 4h39q7 0 11.5 -4t4.5 -11l-4 -643v-80l628 730q7 8 19 8h46q6 0 9.5 -2.5t3.5 -6.5q0 -3 -5 -10l-458 -527z" />
    <glyph glyph-name="L" unicode="L" horiz-adv-x="918" 
d="M144 0q-7 0 -11 4.5t-4 11.5l4 756l-4 613q0 7 4 11t11 4h39q7 0 11.5 -4t4.5 -11l-4 -615l4 -714h672q7 0 11.5 -4t4.5 -11v-25q0 -16 -16 -16h-727z" />
    <glyph glyph-name="M" unicode="M" horiz-adv-x="1496" 
d="M144 0q-16 0 -16 16l4 656l-2 713q0 7 4.5 11t11.5 4h69q13 0 18 -12l517 -1294l517 1294q6 12 18 12h66q7 0 11 -4t4 -11l-2 -713l4 -656q0 -7 -4 -11.5t-11 -4.5h-39q-16 0 -16 16l4 656l2 646l-521 -1306q-4 -12 -18 -12h-34q-13 0 -18 12l-521 1299l2 -639l4 -656
q0 -7 -4 -11.5t-11 -4.5h-39z" />
    <glyph glyph-name="N" unicode="N" horiz-adv-x="1302" 
d="M144 0q-16 0 -16 16l4 708l-2 661q0 7 4.5 11t11.5 4h36q14 0 19 -9l905 -1289l2 622l-4 661q0 7 4.5 11t11.5 4h39q7 0 11 -4t4 -11l-4 -661l2 -708q0 -7 -4 -11.5t-11 -4.5h-45q-13 0 -19 10l-897 1268l-2 -554l4 -708q0 -7 -4 -11.5t-11 -4.5h-39z" />
    <glyph glyph-name="O" unicode="O" horiz-adv-x="1424" 
d="M380.5 67.5q-142.5 87.5 -221 250.5t-78.5 384t78.5 383t221.5 248.5t332 86.5t331.5 -86.5t220.5 -249t78 -384.5t-78.5 -384.5t-221.5 -249t-332 -86.5q-188 0 -330.5 87.5zM1008 115.5q127 79.5 196 229t69 355.5t-69 355.5t-196 229t-297 79.5t-296.5 -80
t-195 -229.5t-68.5 -354.5t69 -354.5t195.5 -229.5t295.5 -80q170 0 297 79.5z" />
    <glyph glyph-name="P" unicode="P" horiz-adv-x="1046" 
d="M532 1400q140 0 244.5 -45t162 -134.5t57.5 -218.5q0 -207 -124 -307.5t-332 -100.5h-345l3 -578q0 -7 -4 -11.5t-11 -4.5h-39q-16 0 -16 16l4 722l-4 647q0 7 4.5 11t11.5 4h388zM540 650q190 0 288 82.5t98 269.5q0 171 -101.5 256.5t-292.5 85.5h-334l-4 -606v-88h346
z" />
    <glyph glyph-name="Q" unicode="Q" horiz-adv-x="1424" 
d="M1333 60q7 0 11.5 -4t4.5 -11v-29q0 -16 -16 -16h-452q-82 -20 -170 -20q-188 0 -330.5 87.5t-221 250.5t-78.5 384t78.5 383t221.5 248.5t332 86.5t331.5 -86.5t220.5 -249t78 -384.5q0 -232 -86.5 -399.5t-241.5 -249.5l112 9h206zM220 345.5q69 -149.5 195.5 -229.5
t295.5 -80q170 0 297 79.5t196 229t69 355.5t-69 355.5t-196 229t-297 79.5t-296.5 -80t-195 -229.5t-68.5 -354.5t69 -354.5z" />
    <glyph glyph-name="R" unicode="R" horiz-adv-x="1128" 
d="M1046 19q3 -4 3 -9q0 -10 -13 -10h-46q-12 0 -18 10l-90 146l-298 478h-389l3 -618q0 -7 -4 -11.5t-11 -4.5h-39q-16 0 -16 16l4 728l-4 641q0 7 4.5 11t11.5 4h412q145 0 252 -43t165.5 -127.5t58.5 -207.5q0 -176 -100.5 -271.5t-274.5 -112.5zM198 1344l-4 -602v-52
h382q386 0 386 332q0 155 -101.5 238.5t-282.5 83.5h-380z" />
    <glyph glyph-name="S" unicode="S" horiz-adv-x="1177" 
d="M223 113.5q-131 129.5 -143 362.5q0 7 4 11.5t11 4.5h37q16 0 16 -15q12 -214 121.5 -324.5t338.5 -110.5q123 0 219.5 36.5t153.5 115t57 198.5q0 109 -61 170.5t-150.5 89t-241.5 54.5q-158 28 -251.5 57.5t-158.5 96.5t-65 186q0 121 60 204.5t164 125.5t236 42
q237 0 365 -107t140 -313v-2q0 -14 -15 -14h-37q-15 0 -16 16q-11 185 -116 273.5t-316 88.5q-188 0 -296.5 -78.5t-108.5 -233.5q0 -96 57 -151t141 -80t229 -51q163 -29 262.5 -61t169 -106t69.5 -207t-65.5 -225t-177.5 -137.5t-251 -45.5q-250 0 -381 129.5z" />
    <glyph glyph-name="T" unicode="T" horiz-adv-x="948" 
d="M455 0q-16 0 -16 16l4 670l-4 655h-392q-16 0 -16 16v28q0 7 4.5 11t11.5 4h855q7 0 11 -4t4 -11v-28q0 -7 -4 -11.5t-11 -4.5h-393l-4 -655l4 -670q0 -7 -4 -11.5t-11 -4.5h-39z" />
    <glyph glyph-name="U" unicode="U" horiz-adv-x="1199" 
d="M247.5 127q-117.5 147 -117.5 413v506l-2 339q0 7 4 11t11 4h39q7 0 11.5 -4t4.5 -11l-2 -339v-506q0 -230 97.5 -367t306.5 -137t306.5 137t97.5 367v506l-2 339q0 7 4 11t11 4h39q7 0 11.5 -4t4.5 -11l-2 -339v-506q0 -266 -117.5 -413t-352.5 -147t-352.5 147z" />
    <glyph glyph-name="V" unicode="V" horiz-adv-x="1164" 
d="M32 1382q-1 2 -1 7t3.5 8t9.5 3h42q14 0 17 -12l482 -1326l482 1326q3 12 17 12h36q8 0 12 -5.5t0 -12.5l-507 -1370q-3 -12 -17 -12h-52q-14 0 -17 12z" />
    <glyph glyph-name="W" unicode="W" horiz-adv-x="1674" 
d="M40 1383v5q0 12 13 12h36q14 0 18 -13l356 -1293l339 1293q3 13 17 13h44q14 0 18 -13l336 -1293l357 1293q3 13 17 13h30q8 0 11.5 -4.5t1.5 -12.5l-381 -1370q-4 -13 -18 -13h-40q-14 0 -17 13l-341 1293l-340 -1293q-4 -13 -18 -13h-40q-14 0 -17 13z" />
    <glyph glyph-name="X" unicode="X" horiz-adv-x="1120" 
d="M67 0q-13 0 -13 10q0 5 3 9l462 723l-412 639q-3 5 -3 9q0 10 13 10h44q13 0 19 -10l383 -594l375 594q5 10 19 10h34q13 0 13 -10q0 -4 -3 -9l-400 -641l462 -721q3 -4 3 -9q0 -10 -13 -10h-42q-12 0 -19 10l-437 680l-433 -680q-6 -10 -18 -10h-37z" />
    <glyph glyph-name="Y" unicode="Y" horiz-adv-x="1036" 
d="M35 1382q-3 5 -3 8q0 10 14 10h43q14 0 19 -11l413 -810l414 810q6 11 19 11h36q9 0 12.5 -5t-0.5 -13l-455 -878l2 -488q0 -7 -4 -11.5t-11 -4.5h-39q-16 0 -16 16l2 496z" />
    <glyph glyph-name="Z" unicode="Z" horiz-adv-x="1096" 
d="M87 0q-16 0 -16 16v34q0 9 6 19l852 1275h-790q-16 0 -16 16v25q0 7 4.5 11t11.5 4h851q7 0 11 -4t4 -11v-35q0 -8 -6 -19l-852 -1275h863q7 0 11 -4t4 -11v-25q0 -7 -4 -11.5t-11 -4.5h-923z" />
    <glyph glyph-name="bracketleft" unicode="[" horiz-adv-x="419" 
d="M139 -280q-7 0 -11 4t-4 11v1710q0 7 4 11t11 4h205q7 0 11.5 -4t4.5 -11v-25q0 -16 -16 -16h-154v-1628h154q16 0 16 -16v-25q0 -7 -4.5 -11t-11.5 -4h-205z" />
    <glyph glyph-name="backslash" unicode="\" horiz-adv-x="566" 
d="M478 -295q-7 0 -11.5 3.5t-5.5 10.5l-417 1709v4q0 13 14 13h30q15 0 18 -14l416 -1709v-4q0 -13 -14 -13h-30z" />
    <glyph glyph-name="bracketright" unicode="]" horiz-adv-x="419" 
d="M75 -280q-7 0 -11 4t-4 11v25q0 7 4 11.5t11 4.5h155v1628h-155q-7 0 -11 4.5t-4 11.5v25q0 7 4 11t11 4h205q7 0 11.5 -4t4.5 -11v-1710q0 -7 -4.5 -11t-11.5 -4h-205z" />
    <glyph glyph-name="asciicircum" unicode="^" horiz-adv-x="905" 
d="M85 670q-13 0 -13 10l2 8l355 701q4 11 18 11h11q14 0 19 -11l354 -701l2 -8q0 -10 -13 -10h-28q-14 0 -19 11l-320 641l-320 -641q-6 -11 -19 -11h-29z" />
    <glyph glyph-name="underscore" unicode="_" horiz-adv-x="766" 
d="M70 -340q-7 0 -11.5 4t-4.5 11v31q0 16 16 16h627q7 0 11 -4.5t4 -11.5v-31q0 -7 -4 -11t-11 -4h-627z" />
    <glyph glyph-name="grave" unicode="`" horiz-adv-x="644" 
d="M531 1162q-5 -9 -13 -9l-8 2l-395 186q-13 7 -8 21l14 26q4 9 12 9q6 0 9 -2l388 -200q10 -4 10 -12q0 -4 -3 -9z" />
    <glyph glyph-name="a" unicode="a" horiz-adv-x="1012" 
d="M888 538l4 -522q0 -7 -4 -11.5t-11 -4.5h-33q-16 0 -16 16l4 218q-47 -119 -137 -185.5t-217 -66.5q-128 0 -220 69.5t-139 190t-47 272.5q0 150 47.5 272t139 193t219.5 71q126 0 216 -62t138 -182l-4 209q0 7 4.5 11t11.5 4h33q7 0 11 -4t4 -11zM671 88q79 54 122 161
t43 262q0 152 -41.5 261.5t-120 167.5t-186.5 58q-118 0 -197 -63t-117.5 -170.5t-38.5 -240.5q0 -137 38 -247.5t116.5 -176.5t196.5 -66q106 0 185 54z" />
    <glyph glyph-name="b" unicode="b" horiz-adv-x="1012" 
d="M754 982q92 -70 139 -191t47 -273q0 -151 -47.5 -273t-139 -193.5t-219.5 -71.5q-127 0 -217 63.5t-137 184.5l4 -210q0 -16 -16 -16h-33q-7 0 -11 4.5t-4 11.5l4 832l-4 535q0 7 4 11t11 4h35q7 0 11.5 -4t4.5 -11l-2 -573q48 114 137.5 177t212.5 63q128 0 220 -70z
M721.5 95q79.5 63 117.5 170.5t38 242.5q0 138 -38 249.5t-116.5 177t-196.5 65.5q-104 0 -183 -54t-123 -161.5t-44 -263.5q0 -153 41.5 -263t120 -168t186.5 -58q118 0 197.5 63z" />
    <glyph glyph-name="c" unicode="c" horiz-adv-x="987" 
d="M270.5 45.5q-98.5 65.5 -148.5 185.5t-50 281q0 162 50 283t149 188t241 67q120 0 207.5 -43t137.5 -122t61 -185v-4q0 -12 -14 -12h-28q-14 0 -16 15q-23 146 -114.5 222.5t-233.5 76.5q-185 0 -279 -130.5t-94 -355.5t93 -352.5t278 -127.5q102 0 180.5 38.5
t125.5 112.5t57 178q2 15 15 15h28q17 0 15 -14q-10 -113 -60 -199t-141.5 -134.5t-219.5 -48.5q-141 0 -239.5 65.5z" />
    <glyph glyph-name="d" unicode="d" horiz-adv-x="1012" 
d="M888 868l4 -852q0 -7 -4 -11.5t-11 -4.5h-33q-16 0 -16 16l4 214q-48 -118 -138.5 -184t-215.5 -66q-128 0 -220 70t-139 191t-47 273q0 151 47.5 273t139 193.5t219.5 71.5q124 0 213 -60.5t137 -177.5l-2 571q0 7 4.5 11t11.5 4h35q7 0 11 -4t4 -11zM669 86
q79 54 123 161.5t44 263.5q0 152 -41.5 262.5t-120 169.5t-186.5 59q-118 0 -197.5 -64t-117.5 -172t-38 -242q0 -138 37.5 -249t116.5 -177t197 -66q104 0 183 54z" />
    <glyph glyph-name="e" unicode="e" horiz-adv-x="1013" 
d="M139 532q0 -247 99 -373.5t288 -126.5q149 0 236 84.5t113 237.5q2 14 17 14h29q8 0 12 -4.5t3 -12.5q-31 -180 -133 -275.5t-277 -95.5q-146 0 -248 66t-154 186t-52 280q0 157 52.5 279t152 190.5t235.5 68.5q130 0 225 -59t147 -172t54 -271q0 -16 -15 -16h-784z
M253 888.5q-95 -109.5 -111 -300.5h728q0 117 -41.5 210t-122 146.5t-194.5 53.5q-164 0 -259 -109.5z" />
    <glyph glyph-name="f" unicode="f" horiz-adv-x="549" 
d="M220 0q-7 0 -11 4.5t-4 11.5l2 460v502h-153q-7 0 -11 4t-4 11v22q0 7 4 11t11 4h153v118q0 101 30.5 165t77.5 92t98 29q50 0 86 -13q12 -4 12 -18v-17q0 -7 -5 -11t-13 -2q-33 9 -72 9q-152 0 -152 -234v-118h224q7 0 11.5 -4t4.5 -11v-22q0 -7 -4.5 -11t-11.5 -4h-224
v-502l2 -460q0 -16 -16 -16h-35z" />
    <glyph glyph-name="g" unicode="g" horiz-adv-x="1004" 
d="M259.5 68.5q-92.5 64.5 -140 179t-47.5 264.5q0 152 47.5 274t140.5 193t226 71q123 0 211.5 -65t134.5 -188l-4 218q0 7 4.5 11t11.5 4h33q7 0 11 -4t4 -11l-4 -482l2 -413q1 -249 -106 -376.5t-299 -127.5q-164 0 -273 75.5t-123 230.5v2q0 14 15 14h33q14 0 17 -15
q16 -130 105 -191t223 -61q346 0 346 449v118q-46 -113 -134 -173.5t-210 -60.5q-132 0 -224.5 64.5zM672 103.5q76 49.5 119 152t43 255.5q0 152 -41.5 262t-120 168.5t-186.5 58.5q-114 0 -193.5 -62.5t-119.5 -173t-40 -252.5q0 -216 91.5 -337t271.5 -121
q100 0 176 49.5z" />
    <glyph glyph-name="h" unicode="h" horiz-adv-x="979" 
d="M781.5 950q86.5 -104 86.5 -316v-192l2 -426q0 -7 -4 -11.5t-11 -4.5h-35q-16 0 -16 16l2 426v182q0 378 -278 378q-116 0 -200 -79t-148 -226l4 -681q0 -7 -4 -11.5t-11 -4.5h-35q-16 0 -16 16l4 704l-4 666q0 16 16 16h35q7 0 11 -4.5t4 -11.5l-4 -586q49 106 139 180
t217 74q159 0 245.5 -104z" />
    <glyph glyph-name="i" unicode="i" horiz-adv-x="325" 
d="M145 0q-7 0 -11 4.5t-4 11.5l2 534l-2 465q0 7 4 11t11 4h35q7 0 11.5 -4t4.5 -11l-2 -465l2 -534q0 -16 -16 -16h-35zM148 1180q-16 0 -16 16v83q0 7 4.5 11t11.5 4h35q7 0 11 -4t4 -11v-83q0 -7 -4 -11.5t-11 -4.5h-35z" />
    <glyph glyph-name="j" unicode="j" horiz-adv-x="325" 
d="M145 -340q-7 0 -11 4t-4 11l2 631l-2 709q0 7 4 11t11 4h35q7 0 11.5 -4t4.5 -11l-2 -709l2 -631q0 -7 -4.5 -11t-11.5 -4h-35zM148 1180q-16 0 -16 16v83q0 7 4.5 11t11.5 4h35q7 0 11 -4t4 -11v-83q0 -7 -4 -11.5t-11 -4.5h-35z" />
    <glyph glyph-name="k" unicode="k" horiz-adv-x="833" 
d="M782 18q3 -4 3 -9q0 -11 -13 -11h-43q-12 0 -18 11l-371 602l-157 -155l3 -442q0 -16 -16 -16h-35q-7 0 -11 4.5t-4 11.5l4 674l-4 697q0 7 4 11t11 4h35q7 0 11.5 -4t4.5 -11l-4 -697l1 -162l487 496q7 8 19 8h47q14 0 14 -9q0 -4 -6 -10l-358 -354z" />
    <glyph glyph-name="l" unicode="l" horiz-adv-x="325" 
d="M145 0q-7 0 -11 4.5t-4 11.5l4 702l-4 667q0 7 4 11t11 4h35q7 0 11.5 -4t4.5 -11l-4 -663l4 -706q0 -16 -16 -16h-35z" />
    <glyph glyph-name="m" unicode="m" horiz-adv-x="1583" 
d="M1472 442l2 -426q0 -16 -16 -16h-35q-7 0 -11 4.5t-4 11.5l2 426v182q0 198 -68 286t-194 88q-104 0 -179 -68.5t-136 -199.5q5 -50 5 -96v-192l2 -426q0 -16 -16 -16h-35q-7 0 -11 4.5t-4 11.5l2 426v182q0 198 -68 286t-194 88q-110 0 -187.5 -76.5t-142.5 -223.5v-256
l2 -426q0 -16 -16 -16h-35q-7 0 -11 4.5t-4 11.5l4 426l-4 573q0 7 4 11t11 4h35q7 0 11.5 -4t4.5 -11l-4 -215q49 108 134 181t206 73q116 0 192 -61t106 -185q50 105 134 175.5t202 70.5q151 0 233.5 -104t82.5 -316v-192z" />
    <glyph glyph-name="n" unicode="n" horiz-adv-x="979" 
d="M868 442l2 -426q0 -16 -16 -16h-35q-7 0 -11 4.5t-4 11.5l2 426v182q0 198 -72.5 286t-205.5 88q-116 0 -198 -77t-146 -223v-256l2 -426q0 -16 -16 -16h-35q-7 0 -11 4.5t-4 11.5l4 426l-4 573q0 7 4 11t11 4h35q7 0 11.5 -4t4.5 -11l-4 -215q49 107 138.5 180.5
t215.5 73.5q159 0 245.5 -104t86.5 -316v-192z" />
    <glyph glyph-name="o" unicode="o" horiz-adv-x="1041" 
d="M278 46q-101 66 -153 186.5t-52 281.5t52 282t153 187.5t243 66.5t243 -66.5t153 -187.5t52 -282t-52 -281.5t-153 -186.5t-243 -66t-243 66zM731.5 91.5q85.5 59.5 128 168t42.5 254.5t-43 255t-128.5 169t-209.5 60t-209.5 -60t-128.5 -168.5t-43 -255.5t43 -255
t128.5 -167.5t209.5 -59.5q125 0 210.5 59.5z" />
    <glyph glyph-name="p" unicode="p" horiz-adv-x="1012" 
d="M754 982q92 -70 139 -191t47 -273q0 -151 -47.5 -273t-139 -193.5t-219.5 -71.5q-125 0 -214.5 62t-136.5 180l3 -547q0 -7 -4.5 -11t-11.5 -4h-35q-7 0 -11 4t-4 11l4 811l-4 529q0 7 4 11t11 4h33q7 0 11.5 -4t4.5 -11l-4 -214q48 118 138.5 184.5t215.5 66.5
q128 0 220 -70zM721 95.5q79 63.5 117.5 171t38.5 241.5q0 138 -38 249.5t-116.5 177t-196.5 65.5q-105 0 -183.5 -54.5t-122.5 -162t-44 -262.5q0 -153 41.5 -263t120 -168t186.5 -58q118 0 197 63.5z" />
    <glyph glyph-name="q" unicode="q" horiz-adv-x="1012" 
d="M695 983q90 -63 137 -183l-4 215q0 7 4.5 11t11.5 4h33q7 0 11 -4t4 -11l-4 -545l4 -795q0 -7 -4 -11t-11 -4h-35q-7 0 -11.5 4t-4.5 11l3 548q-48 -113 -137 -175t-214 -62q-128 0 -220 69t-139 188.5t-47 270.5q0 149 47.5 270t139 191.5t219.5 70.5q127 0 217 -63z
M669 91.5q79 53.5 123 160t44 259.5q0 151 -41.5 260t-120 166.5t-186.5 57.5q-118 0 -197 -63t-117.5 -169.5t-38.5 -238.5q0 -136 38 -246t116.5 -175t196.5 -65q104 0 183 53.5z" />
    <glyph glyph-name="r" unicode="r" horiz-adv-x="632" 
d="M135 0q-7 0 -11 4.5t-4 11.5l4 520l-4 479q0 7 4 11t11 4h35q7 0 11.5 -4t4.5 -11l-6 -204q49 110 138 170.5t194 60.5q40 0 77 -8q13 -3 13 -18v-24q0 -8 -4.5 -11.5t-13.5 -1.5q-29 7 -81 7q-70 0 -133.5 -31.5t-113 -98t-74.5 -168.5l4 -672q0 -16 -16 -16h-35z" />
    <glyph glyph-name="s" unicode="s" horiz-adv-x="931" 
d="M179 73.5q-108 93.5 -112 282.5q0 15 15 15h29q16 0 16 -15q9 -324 354 -324q94 0 167.5 28.5t115 83t41.5 130.5q0 83 -47 129.5t-115 67t-185 41.5q-122 21 -195 44t-123.5 75.5t-50.5 146.5q0 87 46.5 148t129 92.5t188.5 31.5q107 0 192.5 -32.5t137.5 -101
t56 -170.5q0 -16 -16 -16h-29q-15 0 -15 16q-6 129 -96 190.5t-230 61.5q-141 0 -221.5 -56.5t-80.5 -163.5q0 -72 43 -112.5t106.5 -59t173.5 -37.5q128 -22 206 -47t132.5 -83.5t54.5 -164.5q0 -90 -51 -156.5t-138.5 -102t-196.5 -35.5q-194 0 -302 93.5z" />
    <glyph glyph-name="t" unicode="t" horiz-adv-x="563" 
d="M248.5 48.5q-55.5 62.5 -55.5 213.5v713h-116q-7 0 -11.5 4t-4.5 11v25q0 7 4.5 11t11.5 4h116l-2 243q0 7 4.5 11t11.5 4h35q7 0 11 -4t4 -11l-2 -243h247q7 0 11 -4t4 -11v-25q0 -7 -4 -11t-11 -4h-247v-713q0 -84 14.5 -131t46 -67t87.5 -20q61 0 97 8h4q13 0 13 -13
v-24q0 -16 -10 -17q-65 -12 -100 -12q-103 0 -158.5 62.5z" />
    <glyph glyph-name="u" unicode="u" horiz-adv-x="979" 
d="M198.5 80q-86.5 104 -86.5 316v192l-2 427q0 7 4 11t11 4h35q7 0 11.5 -4t4.5 -11l-2 -427v-182q0 -198 72.5 -286t205.5 -88q116 0 198 77t146 223v256l-2 427q0 7 4 11t11 4h35q7 0 11.5 -4t4.5 -11l-4 -427l4 -572q0 -16 -16 -16h-35q-7 0 -11 4.5t-4 11.5l4 214
q-49 -107 -138.5 -180.5t-215.5 -73.5q-159 0 -245.5 104z" />
    <glyph glyph-name="v" unicode="v" horiz-adv-x="917" 
d="M33 1012q-2 6 -2 7q0 11 14 11h40q11 0 17 -12l364 -963l353 963q3 12 17 12h37q8 0 11.5 -5t0.5 -13l-375 -1002q-4 -12 -17 -12h-54q-12 0 -18 12z" />
    <glyph glyph-name="w" unicode="w" horiz-adv-x="1364" 
d="M40 1013q-1 2 -1 6q0 11 14 11h34q14 0 18 -13l286 -944l254 944q4 13 17 13h45q14 0 18 -13l274 -941l265 941q4 13 17 13h30q16 0 13 -17l-287 -1000q-4 -13 -18 -13h-44q-14 0 -17 13l-277 959l-250 -959q-4 -13 -18 -13h-42q-15 0 -18 13z" />
    <glyph glyph-name="x" unicode="x" horiz-adv-x="890" 
d="M54 0q-13 0 -13 10q0 5 3 9l362 527l-322 465q-3 5 -3 9q0 10 13 10h42q14 0 19 -9l291 -422l286 421q7 10 19 10h36q13 0 13 -10q0 -4 -3 -9l-314 -464l364 -528q3 -4 3 -8q0 -5 -4 -8t-10 -3h-40q-13 0 -19 10l-334 486l-333 -486q-6 -10 -19 -10h-37z" />
    <glyph glyph-name="y" unicode="y" horiz-adv-x="874" 
d="M774 1017q4 13 18 13h38q8 0 12 -5t1 -13l-472 -1339q-3 -13 -17 -13h-28q-8 0 -11.5 5t-1.5 13l118 326l-399 1008q-1 2 -1 7t3.5 8t9.5 3h40q14 0 18 -12l359 -920z" />
    <glyph glyph-name="z" unicode="z" horiz-adv-x="862" 
d="M71 0q-16 0 -16 16v31q0 9 6 19l651 909h-597q-7 0 -11.5 4t-4.5 11v25q0 7 4.5 11t11.5 4h657q7 0 11 -4t4 -11v-28q0 -8 -6 -19l-654 -912h665q7 0 11 -4.5t4 -11.5v-24q0 -7 -4 -11.5t-11 -4.5h-721z" />
    <glyph glyph-name="braceleft" unicode="{" horiz-adv-x="440" 
d="M320 1404q-59 0 -85.5 -22.5t-26.5 -76.5q0 -46 20 -129l98 -410q10 -45 10 -71q0 -43 -22 -69t-69 -36q47 -10 68.5 -36t21.5 -70q0 -31 -9 -70l-90 -386q-24 -107 -24 -154q0 -55 25 -76.5t83 -21.5h35q7 0 11 -4.5t4 -11.5v-25q0 -7 -4 -11t-11 -4h-37
q-86 0 -127.5 37t-41.5 122q0 61 21 151l90 384q14 56 14 81q0 33 -22.5 49t-77.5 16h-28q-16 0 -16 16v29q0 7 4.5 11t11.5 4h28q55 0 77.5 16.5t22.5 49.5q0 26 -14 80l-98 410q-17 71 -17 120q0 85 44 124.5t129 39.5h37q7 0 11 -4t4 -11v-25q0 -7 -4 -11.5t-11 -4.5h-35
z" />
    <glyph glyph-name="bar" unicode="|" horiz-adv-x="162" 
d="M66 -280q-7 0 -11.5 4t-4.5 11v1710q0 7 4.5 11t11.5 4h31q7 0 11 -4t4 -11v-1710q0 -7 -4 -11t-11 -4h-31z" />
    <glyph glyph-name="braceright" unicode="}" horiz-adv-x="440" 
d="M310 576q0 -7 -4 -11.5t-11 -4.5h-29q-55 0 -77.5 -16t-22.5 -49q0 -25 14 -81l90 -384q21 -90 21 -151q0 -85 -41.5 -122t-127.5 -37h-36q-7 0 -11.5 4t-4.5 11v25q0 16 16 16h34q58 0 83 21.5t25 76.5q0 47 -24 154l-90 386q-9 39 -9 70q0 44 21.5 70t68.5 36
q-47 10 -69 36t-22 69q0 26 10 71l98 410q20 83 20 129q0 54 -26.5 76.5t-85.5 22.5h-34q-16 0 -16 16v25q0 7 4.5 11t11.5 4h36q85 0 129 -39.5t44 -124.5q0 -49 -17 -120l-98 -410q-14 -54 -14 -80q0 -33 22.5 -49.5t77.5 -16.5h29q7 0 11 -4t4 -11v-29z" />
    <glyph glyph-name="asciitilde" unicode="~" horiz-adv-x="915" 
d="M73 612q-15 0 -15 16q3 151 58.5 245.5t155.5 94.5q47 0 84.5 -24t64.5 -59t63 -92q45 -71 78.5 -106t77.5 -35q79 0 118.5 77t41.5 208q0 15 15 15h27q16 0 16 -15q-3 -152 -58.5 -246.5t-159.5 -94.5q-46 0 -82.5 23.5t-62.5 58t-60 89.5q-32 50 -53 78t-48.5 47.5
t-61.5 19.5q-77 0 -115.5 -76t-40.5 -208q0 -16 -16 -16h-27z" />
    <glyph glyph-name="exclamdown" unicode="&#xa1;" horiz-adv-x="351" 
d="M206 1030q7 0 11.5 -4t4.5 -11v-85q0 -16 -16 -16h-61q-7 0 -11 4.5t-4 11.5v85q0 7 4 11t11 4h61zM192 664q7 0 11.5 -4t4.5 -11v-1004q0 -7 -4.5 -11t-11.5 -4h-35q-7 0 -11 4t-4 11v1004q0 7 4 11t11 4h35z" />
    <glyph glyph-name="cent" unicode="&#xa2;" horiz-adv-x="987" 
d="M916 576q17 0 15 -14q-14 -162 -110 -264.5t-265 -115.5v-166q0 -7 -4 -11.5t-11 -4.5h-31q-16 0 -16 16v164q-136 4 -231 70.5t-143 185t-48 276.5t48 277.5t143 188t231 72.5v155q0 7 4.5 11t11.5 4h31q7 0 11 -4t4 -11v-157q160 -12 253.5 -104.5t108.5 -243.5v-4
q0 -12 -14 -12h-28q-14 0 -16 15q-23 146 -114.5 222.5t-233.5 76.5q-185 0 -279 -130.5t-94 -355.5t93 -352.5t278 -127.5q102 0 180.5 38.5t125.5 112.5t57 178q2 15 15 15h28z" />
    <glyph glyph-name="sterling" unicode="&#xa3;" horiz-adv-x="1048" 
d="M975 388q15 0 15 -17q-4 -207 -104 -303t-294 -88l-548 19q-7 0 -11.5 4.5t-4.5 12.5v17q0 14 12 18l46 19q108 44 154 106.5t46 145.5q0 64 -17.5 135.5t-53.5 186.5h-187q-16 0 -16 16v25q0 7 4.5 11t11.5 4h170q-29 94 -45.5 171t-16.5 149q0 114 50 204.5t139.5 142
t202.5 51.5q182 0 285 -114t125 -306v-2q0 -14 -14 -14h-35q-14 0 -17 15q-18 165 -105 265t-239 100q-95 0 -170 -45t-116.5 -123t-41.5 -174q0 -67 17 -143.5t49 -176.5h359q7 0 11 -4t4 -11v-25q0 -7 -4 -11.5t-11 -4.5h-342q33 -105 50 -180.5t17 -141.5q0 -90 -53 -160
t-149 -106l444 -20l29 -1q158 0 228 82.5t73 255.5q0 15 16 15h37z" />
    <glyph glyph-name="currency" unicode="&#xa4;" horiz-adv-x="902" 
d="M835 289q5 -5 5 -10t-6 -11l-22 -21q-4 -4 -10 -4t-11 5l-151 167q-38 -39 -86.5 -60t-102.5 -21q-53 0 -101 20.5t-86 58.5l-153 -166q-5 -5 -10 -5q-4 0 -11 5l-22 21q-5 7 -5 11q0 6 4 10l158 171q-32 46 -49 104t-17 122q0 65 17 123.5t49 103.5l-138 156q-4 5 -4 11
q0 7 4 11l21 22q5 6 10 6t12 -7l135 -151q38 37 85.5 57t100.5 20q56 0 105.5 -22t88.5 -63l147 159q6 6 13 6q5 0 9 -5l21 -22q5 -5 5 -11q0 -4 -5 -11l-152 -165q60 -95 60 -218q0 -63 -16.5 -120.5t-47.5 -103.5zM570.5 430q52.5 38 82.5 105t30 151q0 87 -29.5 153.5
t-82.5 103.5t-120 37q-68 0 -121 -37t-82 -103.5t-29 -153.5q0 -84 29.5 -151t82 -105t120.5 -38q67 0 119.5 38z" />
    <glyph glyph-name="yen" unicode="&#xa5;" horiz-adv-x="1066" 
d="M562 564v-104h387q7 0 11 -4t4 -11v-31q0 -7 -4 -11.5t-11 -4.5h-386v-138h386q7 0 11 -4t4 -11v-31q0 -7 -4 -11.5t-11 -4.5h-386l1 -182q0 -7 -4 -11.5t-11 -4.5h-39q-16 0 -16 16l1 182h-375q-16 0 -16 16v31q0 7 4.5 11t11.5 4h375v138h-375q-16 0 -16 16v31
q0 7 4.5 11t11.5 4h376v112l-446 810q-2 3 -2 8q0 10 14 10h44q12 0 18 -11l412 -753l414 753q6 11 18 11h37q14 0 14 -10q0 -3 -3 -8z" />
    <glyph glyph-name="brokenbar" unicode="&#xa6;" horiz-adv-x="162" 
d="M66 720q-16 0 -16 16v709q0 7 4.5 11t11.5 4h31q7 0 11 -4t4 -11v-709q0 -7 -4 -11.5t-11 -4.5h-31zM66 -280q-7 0 -11.5 4t-4.5 11v710q0 7 4.5 11t11.5 4h31q7 0 11 -4t4 -11v-710q0 -7 -4 -11t-11 -4h-31z" />
    <glyph glyph-name="section" unicode="&#xa7;" horiz-adv-x="1060" 
d="M822 156q67 -40 107.5 -103.5t40.5 -154.5q0 -95 -56 -166.5t-153 -109.5t-217 -38q-213 0 -331 98.5t-123 297.5q0 16 16 16h29q15 0 15 -16q9 -344 394 -344q105 0 187.5 31t129.5 90t47 141q0 87 -50.5 144t-126.5 91t-199 72q-141 44 -223 79t-139.5 98.5
t-57.5 163.5q0 114 76.5 187t207.5 95q-87 30 -148.5 66t-98.5 91t-37 133q0 94 51.5 159.5t142.5 99t210 33.5t213.5 -35t151.5 -107.5t61 -181.5q0 -16 -15 -16h-29q-16 0 -16 16q-6 139 -107 205.5t-259 66.5q-160 0 -251 -61.5t-91 -178.5q0 -72 47 -120t117 -77.5
t189 -65.5q145 -44 232.5 -81t149 -105t61.5 -175q0 -104 -85 -173.5t-224 -91.5q94 -33 161 -73zM221 412q47 -49 117 -77.5t191 -65.5l27 -8q107 3 186.5 31.5t122.5 80t43 121.5q0 85 -52.5 140t-128.5 86.5t-206 69.5l-21 6q-156 -4 -241 -71t-85 -189q0 -75 47 -124z
" />
    <glyph glyph-name="dieresis" unicode="&#xa8;" horiz-adv-x="496" 
d="M116 1180q-16 0 -16 16v83q0 7 4.5 11t11.5 4h51q7 0 11 -4t4 -11v-83q0 -7 -4 -11.5t-11 -4.5h-51zM330 1180q-16 0 -16 16v83q0 7 4.5 11t11.5 4h51q7 0 11 -4t4 -11v-83q0 -7 -4 -11.5t-11 -4.5h-51z" />
    <glyph glyph-name="copyright" unicode="&#xa9;" horiz-adv-x="1442" 
d="M389.5 67.5q-142.5 87.5 -221 250.5t-78.5 384t78.5 383t221.5 248.5t332 86.5t331.5 -86.5t220.5 -249t78 -384.5t-78.5 -384.5t-221.5 -249t-332 -86.5q-188 0 -330.5 87.5zM1022 115.5q129 79.5 198.5 229t69.5 355.5t-69.5 355.5t-198.5 229t-302 79.5t-302 -80
t-198.5 -229.5t-69.5 -354.5t70 -354.5t199 -229.5t301 -80q173 0 302 79.5zM439.5 357.5q-101.5 119.5 -101.5 350.5q0 141 47 244t135.5 157.5t211.5 54.5q134 0 227.5 -72.5t120.5 -228.5v-2q0 -15 -15 -15h-30q-15 0 -17 15q-21 129 -98.5 189t-189.5 60
q-102 0 -176.5 -51t-114 -142.5t-39.5 -210.5q0 -208 86.5 -311t243.5 -103q125 0 205 69.5t90 199.5q2 15 16 15h31q8 0 12 -4.5t3 -12.5q-9 -101 -56 -173.5t-124 -110t-177 -37.5q-189 0 -290.5 119.5z" />
    <glyph glyph-name="ordfeminine" unicode="&#xaa;" horiz-adv-x="818" 
d="M726 1032l2 -372q0 -7 -4 -11.5t-11 -4.5h-31q-16 0 -16 16l2 129q-40 -75 -108.5 -116t-163.5 -41q-103 0 -176.5 51t-111.5 140t-38 201q0 111 38 201t111.5 142.5t176.5 52.5q94 0 163 -40t109 -117l-2 128q0 7 4.5 11t11.5 4h31q7 0 11 -4t4 -11zM599 769.5
q73 87.5 73 252.5q0 108 -32.5 186t-92.5 119t-143 41q-90 0 -151 -45t-90 -121t-29 -170q0 -99 29 -178t89.5 -125.5t149.5 -46.5q124 0 197 87.5z" />
    <glyph glyph-name="guillemotleft" unicode="&#xab;" horiz-adv-x="653" 
d="M258 268q-12 0 -18 10l-193 323q-3 6 -3 11q0 6 3 10l192 294q7 10 19 10h28q13 0 13 -10q0 -4 -3 -9l-194 -295l195 -325q3 -4 3 -9q0 -10 -13 -10h-29zM533 268q-12 0 -18 10l-193 323q-3 6 -3 11q0 6 3 10l192 294q7 10 19 10h28q13 0 13 -10q0 -4 -3 -9l-194 -295
l195 -325q3 -4 3 -9q0 -10 -13 -10h-29z" />
    <glyph glyph-name="logicalnot" unicode="&#xac;" horiz-adv-x="920" 
d="M46 658q-16 0 -16 16v31q0 7 4.5 11t11.5 4h831q7 0 11 -4t4 -11v-469q0 -7 -4 -11.5t-11 -4.5h-31q-16 0 -16 16v422h-784z" />
    <glyph glyph-name="registered" unicode="&#xae;" horiz-adv-x="682" 
d="M194.5 853q-63.5 37 -99 105.5t-35.5 161.5q0 94 35 162.5t99 105t148 36.5q85 0 148 -36.5t97.5 -105t34.5 -162.5q0 -93 -34.5 -161.5t-97.5 -105.5t-148 -37q-84 0 -147.5 37zM519.5 921.5q64.5 71.5 64.5 198.5t-64.5 199.5t-177.5 72.5q-74 0 -129 -33t-85 -94.5
t-30 -144.5q0 -84 30 -145t85 -93t129 -32q113 0 177.5 71.5zM230 924q-16 0 -16 16v361q0 7 4.5 11t11.5 4h112q68 0 108 -29t40 -83q0 -47 -27 -74.5t-75 -35.5l96 -151q3 -6 3 -10q0 -9 -12 -9h-15q-12 0 -19 10l-99 156h-90l4 -150q0 -7 -4 -11.5t-11 -4.5h-11z
M256 1284l-4 -158h94q51 0 76.5 18t25.5 58t-26 61t-76 21h-90z" />
    <glyph glyph-name="macron" unicode="&#xaf;" horiz-adv-x="714" 
d="M116 1220q-16 0 -16 16v27q0 7 4.5 11t11.5 4h483q7 0 11 -4t4 -11v-27q0 -7 -4 -11.5t-11 -4.5h-483z" />
    <glyph glyph-name="macron" unicode="&#x2c9;" horiz-adv-x="714" 
d="M116 1220q-16 0 -16 16v27q0 7 4.5 11t11.5 4h483q7 0 11 -4t4 -11v-27q0 -7 -4 -11.5t-11 -4.5h-483z" />
    <glyph glyph-name="degree" unicode="&#xb0;" horiz-adv-x="644" 
d="M189 934.5q-60 34.5 -94.5 94.5t-34.5 133t34 133t94 94.5t134 34.5t134 -34.5t94 -94.5t34 -133t-34.5 -133t-94.5 -94.5t-133 -34.5t-133 34.5zM430.5 975.5q48.5 27.5 76 76.5t27.5 110q0 63 -27.5 111.5t-75.5 75.5t-109 27q-62 0 -110.5 -27t-75 -75.5t-26.5 -111.5
q0 -61 27 -110t75 -76.5t110 -27.5q60 0 108.5 27.5z" />
    <glyph glyph-name="plusminus" unicode="&#xb1;" horiz-adv-x="920" 
d="M875 720q7 0 11 -4t4 -11v-31q0 -7 -4 -11.5t-11 -4.5h-383v-422q0 -7 -4 -11.5t-11 -4.5h-31q-16 0 -16 16v422h-384q-16 0 -16 16v31q0 7 4.5 11t11.5 4h384v425q0 7 4.5 11t11.5 4h31q7 0 11 -4t4 -11v-425h383zM46 0q-16 0 -16 16v31q0 7 4.5 11t11.5 4h829
q7 0 11 -4t4 -11v-31q0 -7 -4 -11.5t-11 -4.5h-829z" />
    <glyph glyph-name="two.sups" unicode="&#xb2;" horiz-adv-x="546" 
d="M82 700q-16 0 -16 16v70q0 66 28.5 111.5t69 73.5t106.5 63q56 29 88.5 50.5t54 52.5t21.5 75q2 66 -37.5 109t-114.5 43q-78 0 -120.5 -47t-46.5 -139q-1 -16 -16 -16h-21q-8 0 -12 4.5t-3 11.5q5 114 59 173t156 59q99 0 155 -53t57 -145q0 -58 -26 -98.5t-64 -66
t-101 -58.5q-59 -30 -94 -54t-59 -59.5t-24 -85.5v-44h345q7 0 11 -4t4 -11v-15q0 -7 -4 -11.5t-11 -4.5h-385z" />
    <glyph glyph-name="three.sups" unicode="&#xb3;" horiz-adv-x="590" 
d="M126.5 744.5q-57.5 54.5 -65.5 159.5v2q0 14 15 14h29q15 0 16 -15q8 -171 167 -171q87 0 130.5 46.5t43.5 125.5q0 71 -46.5 108.5t-133.5 37.5h-32q-16 0 -16 16v13q0 7 4.5 11t11.5 4h32q81 0 122.5 34.5t41.5 95.5q0 67 -41.5 103.5t-108.5 36.5q-155 0 -167 -164
q-1 -16 -16 -16h-25q-8 0 -12 4.5t-3 11.5q6 100 67 154t158 54q58 0 104.5 -21.5t74 -62.5t27.5 -96q0 -113 -124 -152q67 -13 104.5 -58.5t37.5 -113.5q0 -63 -28.5 -112t-82 -76.5t-125.5 -27.5q-102 0 -159.5 54.5z" />
    <glyph glyph-name="acute" unicode="&#xb4;" horiz-adv-x="644" 
d="M134 1155l-8 -2q-9 0 -13 9l-5 10q-2 3 -2 10t8 11l388 200q3 2 9 2q7 0 12 -9l13 -24q2 -3 2 -9q0 -7 -8 -12z" />
    <glyph glyph-name="uni03BC" unicode="&#xb5;" horiz-adv-x="989" 
d="M184 407q0 -198 72.5 -286t205.5 -88q116 0 198 77t146 223v256l-2 426q0 7 4 11.5t11 4.5h35q16 0 16 -16l-4 -426l4 -573q0 -15 -16 -15h-35q-15 0 -15 15l4 215q-49 -107 -138.5 -181t-215.5 -74q-186 0 -271 141l3 -442q0 -7 -4.5 -11t-11.5 -4h-35q-7 0 -11 4t-4 11
l2 914l-2 426q0 7 4 11.5t11 4.5h35q16 0 16 -16l-2 -426v-182z" />
    <glyph glyph-name="uni03BC" unicode="&#x3bc;" horiz-adv-x="989" 
d="M184 407q0 -198 72.5 -286t205.5 -88q116 0 198 77t146 223v256l-2 426q0 7 4 11.5t11 4.5h35q16 0 16 -16l-4 -426l4 -573q0 -15 -16 -15h-35q-15 0 -15 15l4 215q-49 -107 -138.5 -181t-215.5 -74q-186 0 -271 141l3 -442q0 -7 -4.5 -11t-11.5 -4h-35q-7 0 -11 4t-4 11
l2 914l-2 426q0 7 4 11.5t11 4.5h35q16 0 16 -16l-2 -426v-182z" />
    <glyph glyph-name="paragraph" unicode="&#xb6;" horiz-adv-x="1158" 
d="M1044 338l4 -723q0 -7 -4 -11t-11 -4h-39q-7 0 -11.5 4t-4.5 11l4 723v256h-314l-4 -256l4 -723q0 -7 -4 -11t-11 -4h-39q-7 0 -11.5 4t-4.5 11l4 723v256h-66q-208 0 -332 100.5t-124 307.5q0 129 57.5 218.5t162 134.5t244.5 45h489q7 0 11 -4t4 -11z" />
    <glyph glyph-name="periodcentered" unicode="&#xb7;" horiz-adv-x="228" 
d="M84 540q-16 0 -16 16v85q0 7 4.5 11t11.5 4h61q7 0 11 -4t4 -11v-85q0 -7 -4 -11.5t-11 -4.5h-61z" />
    <glyph glyph-name="periodcentered" unicode="&#x2219;" horiz-adv-x="228" 
d="M84 540q-16 0 -16 16v85q0 7 4.5 11t11.5 4h61q7 0 11 -4t4 -11v-85q0 -7 -4 -11.5t-11 -4.5h-61z" />
    <glyph glyph-name="cedilla" unicode="&#xb8;" horiz-adv-x="362" 
d="M164 -313q-3 -15 -19 -10l-30 10q-14 4 -10 20l109 302q4 9 13 9q5 0 8 -2l14 -7q12 -6 9 -21z" />
    <glyph glyph-name="one.sups" unicode="&#xb9;" horiz-adv-x="382" 
d="M216 700q-16 0 -16 16l2 323v297q-51 -47 -134 -78q-2 -1 -6 -1q-12 0 -12 14v16q0 14 12 18q40 16 74.5 38.5t57.5 48.5q8 8 19 8h32q7 0 11 -4t4 -11l-2 -346l2 -323q0 -7 -4 -11.5t-11 -4.5h-29z" />
    <glyph glyph-name="ordmasculine" unicode="&#xba;" horiz-adv-x="796" 
d="M220 679q-74 49 -112 137.5t-38 207.5t38 208t112 138.5t178 49.5t178 -49.5t112 -138.5t38 -208t-38 -207.5t-112 -137.5t-178 -49t-178 49zM594.5 774.5q67.5 92.5 67.5 249.5q0 158 -67.5 251t-196.5 93q-128 0 -196 -93t-68 -251t68 -250t196 -92q129 0 196.5 92.5z
" />
    <glyph glyph-name="guillemotright" unicode="&#xbb;" horiz-adv-x="653" 
d="M92 268q-7 0 -10.5 3t-3.5 8q0 4 3 8l195 325l-194 295q-3 5 -3 9t4 7t10 3h27q13 0 19 -10l192 -294q3 -6 3 -11t-3 -10l-193 -323q-6 -10 -18 -10h-28zM367 268q-7 0 -10.5 3t-3.5 8q0 4 3 8l195 325l-194 295q-3 5 -3 9t4 7t10 3h27q13 0 19 -10l192 -294q3 -6 3 -11
t-3 -10l-193 -323q-6 -10 -18 -10h-28z" />
    <glyph glyph-name="onequarter" unicode="&#xbc;" horiz-adv-x="1108" 
d="M216 700q-16 0 -16 16l2 323v297q-51 -47 -134 -78q-2 -1 -6 -1q-12 0 -12 14v16q0 14 12 18q40 16 74.5 38.5t57.5 48.5q8 8 19 8h32q7 0 11 -4t4 -11l-2 -346l2 -323q0 -7 -4 -11.5t-11 -4.5h-29zM109 0q-9 0 -12.5 5t0.5 13l719 1371q6 11 19 11h26q9 0 12.5 -5
t-0.5 -13l-719 -1371q-6 -11 -19 -11h-26zM1037 256q7 0 11 -4t4 -11v-15q0 -7 -4 -11.5t-11 -4.5h-57v-194q0 -7 -4 -11.5t-11 -4.5h-27q-16 0 -16 16v194h-316q-16 0 -16 16v20q0 9 6 19l291 426q6 9 19 9h59q7 0 11 -4t4 -11v-429h57zM922 256v300l2 102l-276 -402h274z
" />
    <glyph glyph-name="onehalf" unicode="&#xbd;" horiz-adv-x="1162" 
d="M216 700q-16 0 -16 16l2 323v297q-51 -47 -134 -78q-2 -1 -6 -1q-12 0 -12 14v16q0 14 12 18q40 16 74.5 38.5t57.5 48.5q8 8 19 8h32q7 0 11 -4t4 -11l-2 -346l2 -323q0 -7 -4 -11.5t-11 -4.5h-29zM123 0q-9 0 -12.5 5t0.5 13l719 1371q6 11 19 11h26q9 0 12.5 -5
t-0.5 -13l-719 -1371q-6 -11 -19 -11h-26zM698 0q-16 0 -16 16v70q0 66 28.5 111.5t69 73.5t106.5 63q56 29 88.5 50.5t54 52.5t21.5 75q2 66 -37.5 109t-114.5 43q-78 0 -120.5 -47t-46.5 -139q-1 -16 -16 -16h-21q-8 0 -12 4.5t-3 11.5q5 114 59 173t156 59q99 0 155 -53
t57 -145q0 -58 -26 -98.5t-64 -66t-101 -58.5q-59 -30 -94 -54t-59 -59.5t-24 -85.5v-44h345q7 0 11 -4t4 -11v-15q0 -7 -4 -11.5t-11 -4.5h-385z" />
    <glyph glyph-name="threequarters" unicode="&#xbe;" horiz-adv-x="1313" 
d="M126.5 744.5q-57.5 54.5 -65.5 159.5v2q0 14 15 14h29q15 0 16 -15q8 -171 167 -171q87 0 130.5 46.5t43.5 125.5q0 71 -46.5 108.5t-133.5 37.5h-32q-16 0 -16 16v13q0 7 4.5 11t11.5 4h32q81 0 122.5 34.5t41.5 95.5q0 67 -41.5 103.5t-108.5 36.5q-155 0 -167 -164
q-1 -16 -16 -16h-25q-8 0 -12 4.5t-3 11.5q6 100 67 154t158 54q58 0 104.5 -21.5t74 -62.5t27.5 -96q0 -113 -124 -152q67 -13 104.5 -58.5t37.5 -113.5q0 -63 -28.5 -112t-82 -76.5t-125.5 -27.5q-102 0 -159.5 54.5zM330 0q-9 0 -12.5 5t0.5 13l719 1371q6 11 19 11h26
q9 0 12.5 -5t-0.5 -13l-719 -1371q-6 -11 -19 -11h-26zM1242 256q7 0 11 -4t4 -11v-15q0 -7 -4 -11.5t-11 -4.5h-57v-194q0 -7 -4 -11.5t-11 -4.5h-27q-16 0 -16 16v194h-316q-16 0 -16 16v20q0 9 6 19l291 426q6 9 19 9h59q7 0 11 -4t4 -11v-429h57zM1127 256v300l2 102
l-276 -402h274z" />
    <glyph glyph-name="questiondown" unicode="&#xbf;" horiz-adv-x="910" 
d="M495 1030q7 0 11.5 -4t4.5 -11v-85q0 -16 -16 -16h-61q-7 0 -11 4.5t-4 11.5v85q0 7 4 11t11 4h61zM479 664q16 0 16 -16q-2 -98 -31 -171.5t-68 -124t-104 -117.5q-53 -53 -84.5 -92t-52 -89t-20.5 -112q0 -86 40.5 -147.5t113 -93t166.5 -31.5q170 0 251.5 90t88.5 273
q0 15 15 15h34q8 0 12 -4.5t3 -11.5q-8 -205 -113 -312.5t-293 -107.5q-108 0 -194 39.5t-135 115.5t-49 181q0 72 22.5 128t55 96.5t89.5 97.5q61 62 98 108.5t64 114t29 156.5q0 15 15 15h31z" />
    <glyph glyph-name="Agrave" unicode="&#xc0;" horiz-adv-x="1164" 
d="M1132 18q2 -4 2 -7q0 -5 -4 -8t-10 -3h-41q-13 0 -18 12l-173 480h-617l-174 -480q-3 -12 -17 -12h-36q-8 0 -11.5 5t-0.5 13l507 1370q3 12 17 12h52q14 0 17 -12zM868 548l-288 794l-289 -794h577zM746 1532q-5 -9 -13 -9l-8 2l-395 186q-13 7 -8 21l14 26q4 9 12 9
q6 0 9 -2l388 -200q10 -4 10 -12q0 -4 -3 -9z" />
    <glyph glyph-name="Aacute" unicode="&#xc1;" horiz-adv-x="1164" 
d="M1132 18q2 -4 2 -7q0 -5 -4 -8t-10 -3h-41q-13 0 -18 12l-173 480h-617l-174 -480q-3 -12 -17 -12h-36q-8 0 -11.5 5t-0.5 13l507 1370q3 12 17 12h52q14 0 17 -12zM868 548l-288 794l-289 -794h577zM431 1525l-8 -2q-9 0 -13 9l-5 10q-2 3 -2 10t8 11l388 200q3 2 9 2
q7 0 12 -9l13 -24q2 -3 2 -9q0 -7 -8 -12z" />
    <glyph glyph-name="Acircumflex" unicode="&#xc2;" horiz-adv-x="1164" 
d="M1132 18q2 -4 2 -7q0 -5 -4 -8t-10 -3h-41q-13 0 -18 12l-173 480h-617l-174 -480q-3 -12 -17 -12h-36q-8 0 -11.5 5t-0.5 13l507 1370q3 12 17 12h52q14 0 17 -12zM868 548l-288 794l-289 -794h577zM304 1550l-2 8q0 9 9 13l245 119q8 4 19 4h16q12 0 20 -4l244 -119
q9 -4 9 -13l-2 -8l-6 -12q-5 -10 -13 -10l-8 2l-252 106l-254 -104q-6 -2 -7 -2q-8 0 -13 10z" />
    <glyph glyph-name="Atilde" unicode="&#xc3;" horiz-adv-x="1164" 
d="M1132 18q2 -4 2 -7q0 -5 -4 -8t-10 -3h-41q-13 0 -18 12l-173 480h-617l-174 -480q-3 -12 -17 -12h-36q-8 0 -11.5 5t-0.5 13l507 1370q3 12 17 12h52q14 0 17 -12zM868 548l-288 794l-289 -794h577zM615 1560q-27 24 -57 69q-23 35 -40.5 52t-40.5 17q-39 0 -59 -34.5
t-23 -95.5q0 -16 -15 -16h-21q-16 0 -16 16q3 80 37.5 130t96.5 50q33 0 57 -13.5t39.5 -32.5t34.5 -49q22 -35 38 -51t39 -16q42 0 63 35t23 96q0 15 16 15h21q7 0 11 -5t3 -14q-3 -79 -38 -128t-99 -49q-43 0 -70 24z" />
    <glyph glyph-name="Adieresis" unicode="&#xc4;" horiz-adv-x="1164" 
d="M1132 18q2 -4 2 -7q0 -5 -4 -8t-10 -3h-41q-13 0 -18 12l-173 480h-617l-174 -480q-3 -12 -17 -12h-36q-8 0 -11.5 5t-0.5 13l507 1370q3 12 17 12h52q14 0 17 -12zM868 548l-288 794l-289 -794h577zM451 1550q-16 0 -16 16v83q0 7 4.5 11t11.5 4h51q7 0 11 -4t4 -11v-83
q0 -7 -4 -11.5t-11 -4.5h-51zM665 1550q-16 0 -16 16v83q0 7 4.5 11t11.5 4h51q7 0 11 -4t4 -11v-83q0 -7 -4 -11.5t-11 -4.5h-51z" />
    <glyph glyph-name="Aring" unicode="&#xc5;" horiz-adv-x="1164" 
d="M1132 18q2 -4 2 -7q0 -5 -4 -8t-10 -3h-41q-13 0 -18 12l-173 480h-617l-174 -480q-3 -12 -17 -12h-36q-8 0 -11.5 5t-0.5 13l507 1370q3 12 17 12h52q14 0 17 -12zM868 548l-288 794l-289 -794h577zM493.5 1542.5q-39.5 22.5 -62 62t-22.5 87.5t22.5 87.5t62 62
t87.5 22.5t87.5 -22.5t62 -62t22.5 -87.5t-22.5 -87.5t-62 -62t-87.5 -22.5t-87.5 22.5zM670 1600q35 36 35 92q0 57 -35 92.5t-89 35.5q-55 0 -88.5 -35.5t-33.5 -92.5q0 -56 33.5 -92t88.5 -36q54 0 89 36z" />
    <glyph glyph-name="AE" unicode="&#xc6;" horiz-adv-x="1625" 
d="M1530 56q7 0 11.5 -4t4.5 -11v-25q0 -16 -16 -16h-667q-7 0 -11 4.5t-4 11.5l3 476h-507l-252 -481q-6 -11 -19 -11h-35q-13 0 -13 10q0 2 2 8l723 1371q4 11 18 11h746q7 0 11.5 -4t4.5 -11v-25q0 -16 -16 -16h-596l-4 -560h562q7 0 11.5 -4t4.5 -11v-25q0 -16 -16 -16
h-562l4 -672h612zM848 1344h-58l-417 -796h478l1 202z" />
    <glyph glyph-name="Ccedilla" unicode="&#xc7;" horiz-adv-x="1318" 
d="M1231 506q8 0 12 -4.5t3 -12.5q-13 -158 -84 -272t-188 -174t-269 -63l-92 -293q-3 -15 -19 -10l-30 10q-14 4 -10 20l99 274q-276 12 -424 197.5t-148 531.5q0 218 73 378t211 246t328 86q136 0 248 -48.5t190 -155.5t104 -275v-3q0 -14 -14 -14h-39q-15 0 -17 15
q-33 220 -160 322.5t-314 102.5q-168 0 -290 -81.5t-186 -229.5t-64 -345q0 -225 65 -375t186 -223.5t289 -73.5q136 0 242 52t170 154t73 249q2 15 17 15h38z" />
    <glyph glyph-name="Egrave" unicode="&#xc8;" horiz-adv-x="1006" 
d="M144 0q-16 0 -16 16l4 734l-4 635q0 7 4.5 11t11.5 4h751q7 0 11 -4t4 -11v-25q0 -7 -4 -11.5t-11 -4.5h-697l-4 -560h663q7 0 11 -4t4 -11v-25q0 -7 -4 -11.5t-11 -4.5h-663l4 -672h713q7 0 11 -4t4 -11v-25q0 -7 -4 -11.5t-11 -4.5h-767zM698 1532q-5 -9 -13 -9l-8 2
l-395 186q-13 7 -8 21l14 26q4 9 12 9q6 0 9 -2l388 -200q10 -4 10 -12q0 -4 -3 -9z" />
    <glyph glyph-name="Eacute" unicode="&#xc9;" horiz-adv-x="1006" 
d="M144 0q-16 0 -16 16l4 734l-4 635q0 7 4.5 11t11.5 4h751q7 0 11 -4t4 -11v-25q0 -7 -4 -11.5t-11 -4.5h-697l-4 -560h663q7 0 11 -4t4 -11v-25q0 -7 -4 -11.5t-11 -4.5h-663l4 -672h713q7 0 11 -4t4 -11v-25q0 -7 -4 -11.5t-11 -4.5h-767zM383 1525l-8 -2q-9 0 -13 9
l-5 10q-2 3 -2 10t8 11l388 200q3 2 9 2q7 0 12 -9l13 -24q2 -3 2 -9q0 -7 -8 -12z" />
    <glyph glyph-name="Ecircumflex" unicode="&#xca;" horiz-adv-x="1006" 
d="M144 0q-16 0 -16 16l4 734l-4 635q0 7 4.5 11t11.5 4h751q7 0 11 -4t4 -11v-25q0 -7 -4 -11.5t-11 -4.5h-697l-4 -560h663q7 0 11 -4t4 -11v-25q0 -7 -4 -11.5t-11 -4.5h-663l4 -672h713q7 0 11 -4t4 -11v-25q0 -7 -4 -11.5t-11 -4.5h-767zM256 1550l-2 8q0 9 9 13
l245 119q8 4 19 4h16q12 0 20 -4l244 -119q9 -4 9 -13l-2 -8l-6 -12q-5 -10 -13 -10l-8 2l-252 106l-254 -104q-6 -2 -7 -2q-8 0 -13 10z" />
    <glyph glyph-name="Edieresis" unicode="&#xcb;" horiz-adv-x="1006" 
d="M144 0q-16 0 -16 16l4 734l-4 635q0 7 4.5 11t11.5 4h751q7 0 11 -4t4 -11v-25q0 -7 -4 -11.5t-11 -4.5h-697l-4 -560h663q7 0 11 -4t4 -11v-25q0 -7 -4 -11.5t-11 -4.5h-663l4 -672h713q7 0 11 -4t4 -11v-25q0 -7 -4 -11.5t-11 -4.5h-767zM403 1550q-16 0 -16 16v83
q0 7 4.5 11t11.5 4h51q7 0 11 -4t4 -11v-83q0 -7 -4 -11.5t-11 -4.5h-51zM617 1550q-16 0 -16 16v83q0 7 4.5 11t11.5 4h51q7 0 11 -4t4 -11v-83q0 -7 -4 -11.5t-11 -4.5h-51z" />
    <glyph glyph-name="Igrave" unicode="&#xcc;" horiz-adv-x="347" 
d="M154 0q-7 0 -11 4.5t-4 11.5l4 712l-4 657q0 7 4 11t11 4h39q7 0 11.5 -4t4.5 -11l-4 -657l4 -712q0 -16 -16 -16h-39zM337 1532q-5 -9 -13 -9l-8 2l-395 186q-13 7 -8 21l14 26q4 9 12 9q6 0 9 -2l388 -200q10 -4 10 -12q0 -4 -3 -9z" />
    <glyph glyph-name="Iacute" unicode="&#xcd;" horiz-adv-x="347" 
d="M154 0q-7 0 -11 4.5t-4 11.5l4 712l-4 657q0 7 4 11t11 4h39q7 0 11.5 -4t4.5 -11l-4 -657l4 -712q0 -16 -16 -16h-39zM22 1525l-8 -2q-9 0 -13 9l-5 10q-2 3 -2 10t8 11l388 200q3 2 9 2q7 0 12 -9l13 -24q2 -3 2 -9q0 -7 -8 -12z" />
    <glyph glyph-name="Icircumflex" unicode="&#xce;" horiz-adv-x="347" 
d="M154 0q-7 0 -11 4.5t-4 11.5l4 712l-4 657q0 7 4 11t11 4h39q7 0 11.5 -4t4.5 -11l-4 -657l4 -712q0 -16 -16 -16h-39zM-105 1550l-2 8q0 9 9 13l245 119q8 4 19 4h16q12 0 20 -4l244 -119q9 -4 9 -13l-2 -8l-6 -12q-5 -10 -13 -10l-8 2l-252 106l-254 -104q-6 -2 -7 -2
q-8 0 -13 10z" />
    <glyph glyph-name="Idieresis" unicode="&#xcf;" horiz-adv-x="347" 
d="M154 0q-7 0 -11 4.5t-4 11.5l4 712l-4 657q0 7 4 11t11 4h39q7 0 11.5 -4t4.5 -11l-4 -657l4 -712q0 -16 -16 -16h-39zM42 1550q-16 0 -16 16v83q0 7 4.5 11t11.5 4h51q7 0 11 -4t4 -11v-83q0 -7 -4 -11.5t-11 -4.5h-51zM256 1550q-16 0 -16 16v83q0 7 4.5 11t11.5 4h51
q7 0 11 -4t4 -11v-83q0 -7 -4 -11.5t-11 -4.5h-51z" />
    <glyph glyph-name="Eth" unicode="&#xd0;" horiz-adv-x="1312" 
d="M557 1400q199 0 352 -86t237.5 -242t84.5 -360q0 -221 -91.5 -382.5t-244.5 -245.5t-334 -84h-398q-16 0 -16 16l4 712h-142q-16 0 -16 16v25q0 7 4.5 11t11.5 4h142l-4 601q0 7 4.5 11t11.5 4h394zM577 56q143 0 277 71.5t220.5 219t86.5 363.5q0 202 -80 345
t-214.5 216t-297.5 73h-348l-4 -560h419q7 0 11 -4t4 -11v-25q0 -7 -4 -11.5t-11 -4.5h-419l4 -672h356z" />
    <glyph glyph-name="Ntilde" unicode="&#xd1;" horiz-adv-x="1302" 
d="M144 0q-16 0 -16 16l4 708l-2 661q0 7 4.5 11t11.5 4h36q14 0 19 -9l905 -1289l2 622l-4 661q0 7 4.5 11t11.5 4h39q7 0 11 -4t4 -11l-4 -661l2 -708q0 -7 -4 -11.5t-11 -4.5h-45q-13 0 -19 10l-897 1268l-2 -554l4 -708q0 -7 -4 -11.5t-11 -4.5h-39zM690 1560
q-27 24 -57 69q-23 35 -40.5 52t-40.5 17q-39 0 -59 -34.5t-23 -95.5q0 -16 -15 -16h-21q-16 0 -16 16q3 80 37.5 130t96.5 50q33 0 57 -13.5t39.5 -32.5t34.5 -49q22 -35 38 -51t39 -16q42 0 63 35t23 96q0 15 16 15h21q7 0 11 -5t3 -14q-3 -79 -38 -128t-99 -49
q-43 0 -70 24z" />
    <glyph glyph-name="Ograve" unicode="&#xd2;" horiz-adv-x="1424" 
d="M380.5 67.5q-142.5 87.5 -221 250.5t-78.5 384t78.5 383t221.5 248.5t332 86.5t331.5 -86.5t220.5 -249t78 -384.5t-78.5 -384.5t-221.5 -249t-332 -86.5q-188 0 -330.5 87.5zM1008 115.5q127 79.5 196 229t69 355.5t-69 355.5t-196 229t-297 79.5t-296.5 -80
t-195 -229.5t-68.5 -354.5t69 -354.5t195.5 -229.5t295.5 -80q170 0 297 79.5zM876 1532q-5 -9 -13 -9l-8 2l-395 186q-13 7 -8 21l14 26q4 9 12 9q6 0 9 -2l388 -200q10 -4 10 -12q0 -4 -3 -9z" />
    <glyph glyph-name="Oacute" unicode="&#xd3;" horiz-adv-x="1424" 
d="M380.5 67.5q-142.5 87.5 -221 250.5t-78.5 384t78.5 383t221.5 248.5t332 86.5t331.5 -86.5t220.5 -249t78 -384.5t-78.5 -384.5t-221.5 -249t-332 -86.5q-188 0 -330.5 87.5zM1008 115.5q127 79.5 196 229t69 355.5t-69 355.5t-196 229t-297 79.5t-296.5 -80
t-195 -229.5t-68.5 -354.5t69 -354.5t195.5 -229.5t295.5 -80q170 0 297 79.5zM561 1525l-8 -2q-9 0 -13 9l-5 10q-2 3 -2 10t8 11l388 200q3 2 9 2q7 0 12 -9l13 -24q2 -3 2 -9q0 -7 -8 -12z" />
    <glyph glyph-name="Ocircumflex" unicode="&#xd4;" horiz-adv-x="1424" 
d="M380.5 67.5q-142.5 87.5 -221 250.5t-78.5 384t78.5 383t221.5 248.5t332 86.5t331.5 -86.5t220.5 -249t78 -384.5t-78.5 -384.5t-221.5 -249t-332 -86.5q-188 0 -330.5 87.5zM1008 115.5q127 79.5 196 229t69 355.5t-69 355.5t-196 229t-297 79.5t-296.5 -80
t-195 -229.5t-68.5 -354.5t69 -354.5t195.5 -229.5t295.5 -80q170 0 297 79.5zM434 1550l-2 8q0 9 9 13l245 119q8 4 19 4h16q12 0 20 -4l244 -119q9 -4 9 -13l-2 -8l-6 -12q-5 -10 -13 -10l-8 2l-252 106l-254 -104q-6 -2 -7 -2q-8 0 -13 10z" />
    <glyph glyph-name="Otilde" unicode="&#xd5;" horiz-adv-x="1424" 
d="M380.5 67.5q-142.5 87.5 -221 250.5t-78.5 384t78.5 383t221.5 248.5t332 86.5t331.5 -86.5t220.5 -249t78 -384.5t-78.5 -384.5t-221.5 -249t-332 -86.5q-188 0 -330.5 87.5zM1008 115.5q127 79.5 196 229t69 355.5t-69 355.5t-196 229t-297 79.5t-296.5 -80
t-195 -229.5t-68.5 -354.5t69 -354.5t195.5 -229.5t295.5 -80q170 0 297 79.5zM745 1560q-27 24 -57 69q-23 35 -40.5 52t-40.5 17q-39 0 -59 -34.5t-23 -95.5q0 -16 -15 -16h-21q-16 0 -16 16q3 80 37.5 130t96.5 50q33 0 57 -13.5t39.5 -32.5t34.5 -49q22 -35 38 -51
t39 -16q42 0 63 35t23 96q0 15 16 15h21q7 0 11 -5t3 -14q-3 -79 -38 -128t-99 -49q-43 0 -70 24z" />
    <glyph glyph-name="Odieresis" unicode="&#xd6;" horiz-adv-x="1424" 
d="M380.5 67.5q-142.5 87.5 -221 250.5t-78.5 384t78.5 383t221.5 248.5t332 86.5t331.5 -86.5t220.5 -249t78 -384.5t-78.5 -384.5t-221.5 -249t-332 -86.5q-188 0 -330.5 87.5zM1008 115.5q127 79.5 196 229t69 355.5t-69 355.5t-196 229t-297 79.5t-296.5 -80
t-195 -229.5t-68.5 -354.5t69 -354.5t195.5 -229.5t295.5 -80q170 0 297 79.5zM581 1550q-16 0 -16 16v83q0 7 4.5 11t11.5 4h51q7 0 11 -4t4 -11v-83q0 -7 -4 -11.5t-11 -4.5h-51zM795 1550q-16 0 -16 16v83q0 7 4.5 11t11.5 4h51q7 0 11 -4t4 -11v-83q0 -7 -4 -11.5
t-11 -4.5h-51z" />
    <glyph glyph-name="multiply" unicode="&#xd7;" horiz-adv-x="920" 
d="M503 689l300 -300q5 -4 5 -11q0 -6 -5 -11l-22 -21q-4 -4 -10 -4q-5 0 -12 5l-299 299l-299 -299q-5 -5 -12 -5q-6 0 -10 4l-22 21q-4 5 -4 11q0 7 4 11l300 300l-300 300q-5 7 -5 12q0 6 4 10l21 22q5 5 11 5q7 0 11 -5l301 -301l301 301q5 5 11 5q7 0 11 -5l21 -22
q5 -5 5 -10q0 -6 -6 -12z" />
    <glyph glyph-name="Oslash" unicode="&#xd8;" horiz-adv-x="1424" 
d="M1188 1210q75 -93 115 -222.5t40 -287.5q0 -222 -78.5 -384.5t-221.5 -249t-332 -86.5q-133 0 -244 44t-193 128l-157 -180q-4 -6 -11 -6q-5 0 -11 6l-18 19q-5 5 -5 11q0 7 4 11l159 183q-75 94 -114.5 222.5t-39.5 283.5q0 221 78.5 383t221.5 248.5t332 86.5
q133 0 243 -42.5t192 -124.5l158 181q5 6 11 6q5 0 10 -6l19 -19q5 -5 5 -11t-4 -11zM414.5 1284q-126.5 -80 -195 -229.5t-68.5 -354.5q0 -140 32.5 -255.5t95.5 -200.5l827 960q-73 78 -173 119t-222 41q-170 0 -296.5 -80zM1008 115.5q127 79.5 196 229t69 355.5
q0 142 -33 258t-96 201l-828 -960q73 -79 173.5 -121t221.5 -42q170 0 297 79.5z" />
    <glyph glyph-name="Ugrave" unicode="&#xd9;" horiz-adv-x="1199" 
d="M247.5 127q-117.5 147 -117.5 413v506l-2 339q0 7 4 11t11 4h39q7 0 11.5 -4t4.5 -11l-2 -339v-506q0 -230 97.5 -367t306.5 -137t306.5 137t97.5 367v506l-2 339q0 7 4 11t11 4h39q7 0 11.5 -4t4.5 -11l-2 -339v-506q0 -266 -117.5 -413t-352.5 -147t-352.5 147z
M763 1532q-5 -9 -13 -9l-8 2l-395 186q-13 7 -8 21l14 26q4 9 12 9q6 0 9 -2l388 -200q10 -4 10 -12q0 -4 -3 -9z" />
    <glyph glyph-name="Uacute" unicode="&#xda;" horiz-adv-x="1199" 
d="M247.5 127q-117.5 147 -117.5 413v506l-2 339q0 7 4 11t11 4h39q7 0 11.5 -4t4.5 -11l-2 -339v-506q0 -230 97.5 -367t306.5 -137t306.5 137t97.5 367v506l-2 339q0 7 4 11t11 4h39q7 0 11.5 -4t4.5 -11l-2 -339v-506q0 -266 -117.5 -413t-352.5 -147t-352.5 147z
M448 1525l-8 -2q-9 0 -13 9l-5 10q-2 3 -2 10t8 11l388 200q3 2 9 2q7 0 12 -9l13 -24q2 -3 2 -9q0 -7 -8 -12z" />
    <glyph glyph-name="Ucircumflex" unicode="&#xdb;" horiz-adv-x="1199" 
d="M247.5 127q-117.5 147 -117.5 413v506l-2 339q0 7 4 11t11 4h39q7 0 11.5 -4t4.5 -11l-2 -339v-506q0 -230 97.5 -367t306.5 -137t306.5 137t97.5 367v506l-2 339q0 7 4 11t11 4h39q7 0 11.5 -4t4.5 -11l-2 -339v-506q0 -266 -117.5 -413t-352.5 -147t-352.5 147z
M321 1550l-2 8q0 9 9 13l245 119q8 4 19 4h16q12 0 20 -4l244 -119q9 -4 9 -13l-2 -8l-6 -12q-5 -10 -13 -10l-8 2l-252 106l-254 -104q-6 -2 -7 -2q-8 0 -13 10z" />
    <glyph glyph-name="Udieresis" unicode="&#xdc;" horiz-adv-x="1199" 
d="M247.5 127q-117.5 147 -117.5 413v506l-2 339q0 7 4 11t11 4h39q7 0 11.5 -4t4.5 -11l-2 -339v-506q0 -230 97.5 -367t306.5 -137t306.5 137t97.5 367v506l-2 339q0 7 4 11t11 4h39q7 0 11.5 -4t4.5 -11l-2 -339v-506q0 -266 -117.5 -413t-352.5 -147t-352.5 147z
M468 1550q-16 0 -16 16v83q0 7 4.5 11t11.5 4h51q7 0 11 -4t4 -11v-83q0 -7 -4 -11.5t-11 -4.5h-51zM682 1550q-16 0 -16 16v83q0 7 4.5 11t11.5 4h51q7 0 11 -4t4 -11v-83q0 -7 -4 -11.5t-11 -4.5h-51z" />
    <glyph glyph-name="Yacute" unicode="&#xdd;" horiz-adv-x="1036" 
d="M35 1382q-3 5 -3 8q0 10 14 10h43q14 0 19 -11l413 -810l414 810q6 11 19 11h36q9 0 12.5 -5t-0.5 -13l-455 -878l2 -488q0 -7 -4 -11.5t-11 -4.5h-39q-16 0 -16 16l2 496zM368 1525l-8 -2q-9 0 -13 9l-5 10q-2 3 -2 10t8 11l388 200q3 2 9 2q7 0 12 -9l13 -24q2 -3 2 -9
q0 -7 -8 -12z" />
    <glyph glyph-name="Thorn" unicode="&#xde;" horiz-adv-x="1051" 
d="M532 1110q140 0 244.5 -45t162 -134.5t57.5 -218.5q0 -207 -124 -307.5t-332 -100.5h-344l2 -288q0 -7 -4 -11.5t-11 -4.5h-39q-16 0 -16 16l4 722l-4 647q0 7 4.5 11t11.5 4h39q7 0 11 -4t4 -11l-2 -275h336zM540 360q190 0 288 82.5t98 269.5q0 171 -101.5 256.5
t-292.5 85.5h-336l-2 -316l2 -378h344z" />
    <glyph glyph-name="germandbls" unicode="&#xdf;" horiz-adv-x="1041" 
d="M143 -4q-16 0 -16 16l2 460v552q0 140 52 231t136.5 133t183.5 42q105 0 187.5 -41t130.5 -125.5t48 -209.5q0 -116 -57.5 -193.5t-160.5 -112.5q146 -24 228 -117t82 -232q0 -117 -54 -208t-157.5 -143t-246.5 -52h-66q-16 0 -16 16v29q0 7 4.5 11t11.5 4h66
q131 0 218.5 44.5t129.5 122.5t42 180q0 98 -45.5 168.5t-132 107.5t-206.5 37h-72q-16 0 -16 16v29q0 7 4.5 11t11.5 4h72q141 0 216 73.5t75 204.5q0 165 -81.5 244.5t-215.5 79.5q-87 0 -157 -39t-111.5 -118.5t-41.5 -196.5v-552l2 -460q0 -7 -4 -11.5t-11 -4.5h-35z
" />
    <glyph glyph-name="agrave" unicode="&#xe0;" horiz-adv-x="1012" 
d="M888 538l4 -522q0 -7 -4 -11.5t-11 -4.5h-33q-16 0 -16 16l4 218q-47 -119 -137 -185.5t-217 -66.5q-128 0 -220 69.5t-139 190t-47 272.5q0 150 47.5 272t139 193t219.5 71q126 0 216 -62t138 -182l-4 209q0 7 4.5 11t11.5 4h33q7 0 11 -4t4 -11zM671 88q79 54 122 161
t43 262q0 152 -41.5 261.5t-120 167.5t-186.5 58q-118 0 -197 -63t-117.5 -170.5t-38.5 -240.5q0 -137 38 -247.5t116.5 -176.5t196.5 -66q106 0 185 54zM648 1162q-5 -9 -13 -9l-8 2l-395 186q-13 7 -8 21l14 26q4 9 12 9q6 0 9 -2l388 -200q10 -4 10 -12q0 -4 -3 -9z" />
    <glyph glyph-name="aacute" unicode="&#xe1;" horiz-adv-x="1012" 
d="M888 538l4 -522q0 -7 -4 -11.5t-11 -4.5h-33q-16 0 -16 16l4 218q-47 -119 -137 -185.5t-217 -66.5q-128 0 -220 69.5t-139 190t-47 272.5q0 150 47.5 272t139 193t219.5 71q126 0 216 -62t138 -182l-4 209q0 7 4.5 11t11.5 4h33q7 0 11 -4t4 -11zM671 88q79 54 122 161
t43 262q0 152 -41.5 261.5t-120 167.5t-186.5 58q-118 0 -197 -63t-117.5 -170.5t-38.5 -240.5q0 -137 38 -247.5t116.5 -176.5t196.5 -66q106 0 185 54zM333 1155l-8 -2q-9 0 -13 9l-5 10q-2 3 -2 10t8 11l388 200q3 2 9 2q7 0 12 -9l13 -24q2 -3 2 -9q0 -7 -8 -12z" />
    <glyph glyph-name="acircumflex" unicode="&#xe2;" horiz-adv-x="1012" 
d="M888 538l4 -522q0 -7 -4 -11.5t-11 -4.5h-33q-16 0 -16 16l4 218q-47 -119 -137 -185.5t-217 -66.5q-128 0 -220 69.5t-139 190t-47 272.5q0 150 47.5 272t139 193t219.5 71q126 0 216 -62t138 -182l-4 209q0 7 4.5 11t11.5 4h33q7 0 11 -4t4 -11zM671 88q79 54 122 161
t43 262q0 152 -41.5 261.5t-120 167.5t-186.5 58q-118 0 -197 -63t-117.5 -170.5t-38.5 -240.5q0 -137 38 -247.5t116.5 -176.5t196.5 -66q106 0 185 54zM206 1180l-2 8q0 9 9 13l245 119q8 4 19 4h16q12 0 20 -4l244 -119q9 -4 9 -13l-2 -8l-6 -12q-5 -10 -13 -10l-8 2
l-252 106l-254 -104q-6 -2 -7 -2q-8 0 -13 10z" />
    <glyph glyph-name="atilde" unicode="&#xe3;" horiz-adv-x="1012" 
d="M888 538l4 -522q0 -7 -4 -11.5t-11 -4.5h-33q-16 0 -16 16l4 218q-47 -119 -137 -185.5t-217 -66.5q-128 0 -220 69.5t-139 190t-47 272.5q0 150 47.5 272t139 193t219.5 71q126 0 216 -62t138 -182l-4 209q0 7 4.5 11t11.5 4h33q7 0 11 -4t4 -11zM671 88q79 54 122 161
t43 262q0 152 -41.5 261.5t-120 167.5t-186.5 58q-118 0 -197 -63t-117.5 -170.5t-38.5 -240.5q0 -137 38 -247.5t116.5 -176.5t196.5 -66q106 0 185 54zM517 1190q-27 24 -57 69q-23 35 -40.5 52t-40.5 17q-39 0 -59 -34.5t-23 -95.5q0 -16 -15 -16h-21q-16 0 -16 16
q3 80 37.5 130t96.5 50q33 0 57 -13.5t39.5 -32.5t34.5 -49q22 -35 38 -51t39 -16q42 0 63 35t23 96q0 15 16 15h21q7 0 11 -5t3 -14q-3 -79 -38 -128t-99 -49q-43 0 -70 24z" />
    <glyph glyph-name="adieresis" unicode="&#xe4;" horiz-adv-x="1012" 
d="M888 538l4 -522q0 -7 -4 -11.5t-11 -4.5h-33q-16 0 -16 16l4 218q-47 -119 -137 -185.5t-217 -66.5q-128 0 -220 69.5t-139 190t-47 272.5q0 150 47.5 272t139 193t219.5 71q126 0 216 -62t138 -182l-4 209q0 7 4.5 11t11.5 4h33q7 0 11 -4t4 -11zM671 88q79 54 122 161
t43 262q0 152 -41.5 261.5t-120 167.5t-186.5 58q-118 0 -197 -63t-117.5 -170.5t-38.5 -240.5q0 -137 38 -247.5t116.5 -176.5t196.5 -66q106 0 185 54zM353 1180q-16 0 -16 16v83q0 7 4.5 11t11.5 4h51q7 0 11 -4t4 -11v-83q0 -7 -4 -11.5t-11 -4.5h-51zM567 1180
q-16 0 -16 16v83q0 7 4.5 11t11.5 4h51q7 0 11 -4t4 -11v-83q0 -7 -4 -11.5t-11 -4.5h-51z" />
    <glyph glyph-name="aring" unicode="&#xe5;" horiz-adv-x="1012" 
d="M888 538l4 -522q0 -7 -4 -11.5t-11 -4.5h-33q-16 0 -16 16l4 218q-47 -119 -137 -185.5t-217 -66.5q-128 0 -220 69.5t-139 190t-47 272.5q0 150 47.5 272t139 193t219.5 71q126 0 216 -62t138 -182l-4 209q0 7 4.5 11t11.5 4h33q7 0 11 -4t4 -11zM671 88q79 54 122 161
t43 262q0 152 -41.5 261.5t-120 167.5t-186.5 58q-118 0 -197 -63t-117.5 -170.5t-38.5 -240.5q0 -137 38 -247.5t116.5 -176.5t196.5 -66q106 0 185 54zM395.5 1172.5q-39.5 22.5 -62 62t-22.5 87.5t22.5 87.5t62 62t87.5 22.5t87.5 -22.5t62 -62t22.5 -87.5t-22.5 -87.5
t-62 -62t-87.5 -22.5t-87.5 22.5zM572 1230q35 36 35 92q0 57 -35 92.5t-89 35.5q-55 0 -88.5 -35.5t-33.5 -92.5q0 -56 33.5 -92t88.5 -36q54 0 89 36z" />
    <glyph glyph-name="ae" unicode="&#xe6;" horiz-adv-x="1761" 
d="M258 51.5q-92 69.5 -139 190t-47 272.5q0 150 47.5 272t139 193t219.5 71q126 0 216 -62t138 -181l-4 208q0 7 4 11t11 4h33q7 0 11.5 -4t4.5 -11l-2 -228q52 124 148 193.5t224 69.5q129 0 224 -59t147 -172t55 -271q0 -16 -16 -16h-782q0 -240 95.5 -370t290.5 -130
q149 0 236 84.5t113 237.5q3 14 17 14h28q8 0 12 -4.5t3 -12.5q-30 -180 -132 -275.5t-277 -95.5q-140 0 -237.5 65.5t-147.5 184.5l1 -214q0 -16 -16 -16h-33q-7 0 -11 4.5t-4 11.5l4 219q-47 -120 -137 -186.5t-217 -66.5q-128 0 -220 69.5zM671 88q79 54 122 161t43 262
q0 152 -41.5 261.5t-120 167.5t-186.5 58q-118 0 -197.5 -63t-118 -170t-38.5 -241q0 -137 38 -248t117 -176.5t197 -65.5q106 0 185 54zM1073 945.5q-79 -52.5 -124 -144.5t-56 -213h727q0 117 -41.5 210t-122 146.5t-194.5 53.5q-110 0 -189 -52.5z" />
    <glyph glyph-name="ccedilla" unicode="&#xe7;" horiz-adv-x="987" 
d="M916 376q17 0 15 -14q-9 -108 -55.5 -191.5t-130.5 -133.5t-202 -56l-92 -294q-3 -15 -19 -10l-30 10q-14 4 -10 20l99 273q-136 5 -230 71.5t-141.5 184.5t-47.5 276q0 162 50 283t149 188t241 67q120 0 207.5 -43t137.5 -122t61 -185v-4q0 -12 -14 -12h-28
q-14 0 -16 15q-23 146 -114.5 222.5t-233.5 76.5q-185 0 -279 -130.5t-94 -355.5t93 -352.5t278 -127.5q102 0 180.5 38.5t125.5 112.5t57 178q2 15 15 15h28z" />
    <glyph glyph-name="egrave" unicode="&#xe8;" horiz-adv-x="1013" 
d="M139 532q0 -247 99 -373.5t288 -126.5q149 0 236 84.5t113 237.5q2 14 17 14h29q8 0 12 -4.5t3 -12.5q-31 -180 -133 -275.5t-277 -95.5q-146 0 -248 66t-154 186t-52 280q0 157 52.5 279t152 190.5t235.5 68.5q130 0 225 -59t147 -172t54 -271q0 -16 -15 -16h-784z
M253 888.5q-95 -109.5 -111 -300.5h728q0 117 -41.5 210t-122 146.5t-194.5 53.5q-164 0 -259 -109.5zM675 1162q-5 -9 -13 -9l-8 2l-395 186q-13 7 -8 21l14 26q4 9 12 9q6 0 9 -2l388 -200q10 -4 10 -12q0 -4 -3 -9z" />
    <glyph glyph-name="eacute" unicode="&#xe9;" horiz-adv-x="1013" 
d="M139 532q0 -247 99 -373.5t288 -126.5q149 0 236 84.5t113 237.5q2 14 17 14h29q8 0 12 -4.5t3 -12.5q-31 -180 -133 -275.5t-277 -95.5q-146 0 -248 66t-154 186t-52 280q0 157 52.5 279t152 190.5t235.5 68.5q130 0 225 -59t147 -172t54 -271q0 -16 -15 -16h-784z
M253 888.5q-95 -109.5 -111 -300.5h728q0 117 -41.5 210t-122 146.5t-194.5 53.5q-164 0 -259 -109.5zM360 1155l-8 -2q-9 0 -13 9l-5 10q-2 3 -2 10t8 11l388 200q3 2 9 2q7 0 12 -9l13 -24q2 -3 2 -9q0 -7 -8 -12z" />
    <glyph glyph-name="ecircumflex" unicode="&#xea;" horiz-adv-x="1013" 
d="M139 532q0 -247 99 -373.5t288 -126.5q149 0 236 84.5t113 237.5q2 14 17 14h29q8 0 12 -4.5t3 -12.5q-31 -180 -133 -275.5t-277 -95.5q-146 0 -248 66t-154 186t-52 280q0 157 52.5 279t152 190.5t235.5 68.5q130 0 225 -59t147 -172t54 -271q0 -16 -15 -16h-784z
M253 888.5q-95 -109.5 -111 -300.5h728q0 117 -41.5 210t-122 146.5t-194.5 53.5q-164 0 -259 -109.5zM233 1180l-2 8q0 9 9 13l245 119q8 4 19 4h16q12 0 20 -4l244 -119q9 -4 9 -13l-2 -8l-6 -12q-5 -10 -13 -10l-8 2l-252 106l-254 -104q-6 -2 -7 -2q-8 0 -13 10z" />
    <glyph glyph-name="edieresis" unicode="&#xeb;" horiz-adv-x="1013" 
d="M139 532q0 -247 99 -373.5t288 -126.5q149 0 236 84.5t113 237.5q2 14 17 14h29q8 0 12 -4.5t3 -12.5q-31 -180 -133 -275.5t-277 -95.5q-146 0 -248 66t-154 186t-52 280q0 157 52.5 279t152 190.5t235.5 68.5q130 0 225 -59t147 -172t54 -271q0 -16 -15 -16h-784z
M253 888.5q-95 -109.5 -111 -300.5h728q0 117 -41.5 210t-122 146.5t-194.5 53.5q-164 0 -259 -109.5zM380 1180q-16 0 -16 16v83q0 7 4.5 11t11.5 4h51q7 0 11 -4t4 -11v-83q0 -7 -4 -11.5t-11 -4.5h-51zM594 1180q-16 0 -16 16v83q0 7 4.5 11t11.5 4h51q7 0 11 -4t4 -11
v-83q0 -7 -4 -11.5t-11 -4.5h-51z" />
    <glyph glyph-name="igrave" unicode="&#xec;" horiz-adv-x="325" 
d="M307 1172q-4 -7 -9.5 -9t-11.5 1l-316 147q-13 7 -8 21l14 26q4 9 13 9q5 0 8 -2l309 -160q9 -4 9 -12q0 -3 -2 -9zM145 0q-7 0 -11 4.5t-4 11.5l2 534l-2 465q0 7 4 11t11 4h35q7 0 11.5 -4t4.5 -11l-2 -465l2 -534q0 -16 -16 -16h-35z" />
    <glyph glyph-name="iacute" unicode="&#xed;" horiz-adv-x="325" 
d="M39 1164q-4 -2 -7 -2q-8 0 -13 10l-7 12q-2 6 -2 9q0 8 9 12l309 160q3 2 8 2q9 0 13 -9l13 -26l2 -8q0 -8 -9 -13zM145 0q-7 0 -11 4.5t-4 11.5l2 534l-2 465q0 7 4 11t11 4h35q7 0 11.5 -4t4.5 -11l-2 -465l2 -534q0 -16 -16 -16h-35z" />
    <glyph glyph-name="icircumflex" unicode="&#xee;" horiz-adv-x="325" 
d="M-67 1180q-2 6 -2 8q0 7 9 14l197 117q9 5 19 5h15q12 0 19 -5l197 -117q8 -5 8 -14l-2 -8l-6 -12q-4 -9 -13 -9q-5 0 -8 2l-202 105l-205 -103l-8 -2q-9 0 -13 9zM145 0q-7 0 -11 4.5t-4 11.5l2 534l-2 465q0 7 4 11t11 4h35q7 0 11.5 -4t4.5 -11l-2 -465l2 -534
q0 -16 -16 -16h-35z" />
    <glyph glyph-name="idieresis" unicode="&#xef;" horiz-adv-x="325" 
d="M51 1180q-7 0 -11 4.5t-4 11.5v83q0 7 4 11t11 4h49q7 0 11.5 -4t4.5 -11v-83q0 -16 -16 -16h-49zM227 1180q-7 0 -11 4.5t-4 11.5v83q0 7 4 11t11 4h49q7 0 11.5 -4t4.5 -11v-83q0 -16 -16 -16h-49zM145 0q-7 0 -11 4.5t-4 11.5l2 534l-2 465q0 7 4 11t11 4h35
q7 0 11.5 -4t4.5 -11l-2 -465l2 -534q0 -16 -16 -16h-35z" />
    <glyph glyph-name="eth" unicode="&#xf0;" horiz-adv-x="1040" 
d="M715 1187q114 -117 175 -276t61 -372q0 -162 -51 -288t-152.5 -198.5t-248.5 -72.5q-133 0 -227.5 58t-143.5 162.5t-49 243.5q0 149 53.5 259t149 168.5t219.5 58.5q111 0 194.5 -45t133 -115t64.5 -146q-5 161 -64.5 296.5t-164.5 240.5l-270 -138q-6 -2 -8 -2
q-8 0 -13 8l-11 19q-2 6 -2 9q0 8 8 12l254 131q-120 107 -282 174q-10 4 -10 13l2 8l12 21q3 7 8.5 9t11.5 -1q191 -89 310 -197l249 128q3 2 8 2q9 0 13 -9l11 -20q3 -6 3 -9q0 -7 -9 -12zM710.5 96.5q83.5 58.5 123.5 154.5t40 209q0 118 -46 212.5t-130.5 148
t-196.5 53.5q-113 0 -192.5 -52t-120.5 -149.5t-41 -232.5q0 -123 41 -213.5t120.5 -139.5t194.5 -49q124 0 207.5 58.5z" />
    <glyph glyph-name="ntilde" unicode="&#xf1;" horiz-adv-x="979" 
d="M868 442l2 -426q0 -16 -16 -16h-35q-7 0 -11 4.5t-4 11.5l2 426v182q0 198 -72.5 286t-205.5 88q-116 0 -198 -77t-146 -223v-256l2 -426q0 -16 -16 -16h-35q-7 0 -11 4.5t-4 11.5l4 426l-4 573q0 7 4 11t11 4h35q7 0 11.5 -4t4.5 -11l-4 -215q49 107 138.5 180.5
t215.5 73.5q159 0 245.5 -104t86.5 -316v-192zM528 1190q-27 24 -57 69q-23 35 -40.5 52t-40.5 17q-39 0 -59 -34.5t-23 -95.5q0 -16 -15 -16h-21q-16 0 -16 16q3 80 37.5 130t96.5 50q33 0 57 -13.5t39.5 -32.5t34.5 -49q22 -35 38 -51t39 -16q42 0 63 35t23 96q0 15 16 15
h21q7 0 11 -5t3 -14q-3 -79 -38 -128t-99 -49q-43 0 -70 24z" />
    <glyph glyph-name="ograve" unicode="&#xf2;" horiz-adv-x="1041" 
d="M278 46q-101 66 -153 186.5t-52 281.5t52 282t153 187.5t243 66.5t243 -66.5t153 -187.5t52 -282t-52 -281.5t-153 -186.5t-243 -66t-243 66zM731.5 91.5q85.5 59.5 128 168t42.5 254.5t-43 255t-128.5 169t-209.5 60t-209.5 -60t-128.5 -168.5t-43 -255.5t43 -255
t128.5 -167.5t209.5 -59.5q125 0 210.5 59.5zM684 1162q-5 -9 -13 -9l-8 2l-395 186q-13 7 -8 21l14 26q4 9 12 9q6 0 9 -2l388 -200q10 -4 10 -12q0 -4 -3 -9z" />
    <glyph glyph-name="oacute" unicode="&#xf3;" horiz-adv-x="1041" 
d="M278 46q-101 66 -153 186.5t-52 281.5t52 282t153 187.5t243 66.5t243 -66.5t153 -187.5t52 -282t-52 -281.5t-153 -186.5t-243 -66t-243 66zM731.5 91.5q85.5 59.5 128 168t42.5 254.5t-43 255t-128.5 169t-209.5 60t-209.5 -60t-128.5 -168.5t-43 -255.5t43 -255
t128.5 -167.5t209.5 -59.5q125 0 210.5 59.5zM369 1155l-8 -2q-9 0 -13 9l-5 10q-2 3 -2 10t8 11l388 200q3 2 9 2q7 0 12 -9l13 -24q2 -3 2 -9q0 -7 -8 -12z" />
    <glyph glyph-name="ocircumflex" unicode="&#xf4;" horiz-adv-x="1041" 
d="M278 46q-101 66 -153 186.5t-52 281.5t52 282t153 187.5t243 66.5t243 -66.5t153 -187.5t52 -282t-52 -281.5t-153 -186.5t-243 -66t-243 66zM731.5 91.5q85.5 59.5 128 168t42.5 254.5t-43 255t-128.5 169t-209.5 60t-209.5 -60t-128.5 -168.5t-43 -255.5t43 -255
t128.5 -167.5t209.5 -59.5q125 0 210.5 59.5zM242 1180l-2 8q0 9 9 13l245 119q8 4 19 4h16q12 0 20 -4l244 -119q9 -4 9 -13l-2 -8l-6 -12q-5 -10 -13 -10l-8 2l-252 106l-254 -104q-6 -2 -7 -2q-8 0 -13 10z" />
    <glyph glyph-name="otilde" unicode="&#xf5;" horiz-adv-x="1041" 
d="M278 46q-101 66 -153 186.5t-52 281.5t52 282t153 187.5t243 66.5t243 -66.5t153 -187.5t52 -282t-52 -281.5t-153 -186.5t-243 -66t-243 66zM731.5 91.5q85.5 59.5 128 168t42.5 254.5t-43 255t-128.5 169t-209.5 60t-209.5 -60t-128.5 -168.5t-43 -255.5t43 -255
t128.5 -167.5t209.5 -59.5q125 0 210.5 59.5zM553 1190q-27 24 -57 69q-23 35 -40.5 52t-40.5 17q-39 0 -59 -34.5t-23 -95.5q0 -16 -15 -16h-21q-16 0 -16 16q3 80 37.5 130t96.5 50q33 0 57 -13.5t39.5 -32.5t34.5 -49q22 -35 38 -51t39 -16q42 0 63 35t23 96q0 15 16 15
h21q7 0 11 -5t3 -14q-3 -79 -38 -128t-99 -49q-43 0 -70 24z" />
    <glyph glyph-name="odieresis" unicode="&#xf6;" horiz-adv-x="1041" 
d="M278 46q-101 66 -153 186.5t-52 281.5t52 282t153 187.5t243 66.5t243 -66.5t153 -187.5t52 -282t-52 -281.5t-153 -186.5t-243 -66t-243 66zM731.5 91.5q85.5 59.5 128 168t42.5 254.5t-43 255t-128.5 169t-209.5 60t-209.5 -60t-128.5 -168.5t-43 -255.5t43 -255
t128.5 -167.5t209.5 -59.5q125 0 210.5 59.5zM389 1180q-16 0 -16 16v83q0 7 4.5 11t11.5 4h51q7 0 11 -4t4 -11v-83q0 -7 -4 -11.5t-11 -4.5h-51zM603 1180q-16 0 -16 16v83q0 7 4.5 11t11.5 4h51q7 0 11 -4t4 -11v-83q0 -7 -4 -11.5t-11 -4.5h-51z" />
    <glyph glyph-name="divide" unicode="&#xf7;" horiz-adv-x="920" 
d="M432 1044q-16 0 -16 16v85q0 7 4.5 11t11.5 4h61q7 0 11 -4t4 -11v-85q0 -7 -4 -11.5t-11 -4.5h-61zM46 658q-16 0 -16 16v31q0 7 4.5 11t11.5 4h829q7 0 11 -4t4 -11v-31q0 -7 -4 -11.5t-11 -4.5h-829zM432 220q-16 0 -16 16v85q0 7 4.5 11t11.5 4h61q7 0 11 -4t4 -11
v-85q0 -7 -4 -11.5t-11 -4.5h-61z" />
    <glyph glyph-name="oslash" unicode="&#xf8;" horiz-adv-x="1041" 
d="M865 887q51 -70 77.5 -164.5t26.5 -208.5q0 -161 -52 -281.5t-153 -186.5t-243 -66q-97 0 -175.5 31.5t-135.5 90.5l-110 -134q-5 -7 -11 -7q-4 0 -11 5l-17 16q-5 5 -5 11t4 11l114 141q-50 69 -75.5 162.5t-25.5 206.5q0 161 52 282t153 187.5t243 66.5q97 0 175 -31.5
t135 -90.5l105 130q5 7 12 7q4 0 11 -5l16 -16q6 -6 6 -11t-4 -10zM311.5 938q-85.5 -60 -128.5 -168.5t-43 -255.5q0 -198 75 -321l577 689q-99 116 -271 116q-124 0 -209.5 -60zM731.5 91.5q85.5 59.5 128 168t42.5 254.5q0 200 -78 324l-576 -690q48 -56 117 -86t156 -30
q125 0 210.5 59.5z" />
    <glyph glyph-name="ugrave" unicode="&#xf9;" horiz-adv-x="979" 
d="M198.5 80q-86.5 104 -86.5 316v192l-2 427q0 7 4 11t11 4h35q7 0 11.5 -4t4.5 -11l-2 -427v-182q0 -198 72.5 -286t205.5 -88q116 0 198 77t146 223v256l-2 427q0 7 4 11t11 4h35q7 0 11.5 -4t4.5 -11l-4 -427l4 -572q0 -16 -16 -16h-35q-7 0 -11 4.5t-4 11.5l4 214
q-49 -107 -138.5 -180.5t-215.5 -73.5q-159 0 -245.5 104zM649 1162q-5 -9 -13 -9l-8 2l-395 186q-13 7 -8 21l14 26q4 9 12 9q6 0 9 -2l388 -200q10 -4 10 -12q0 -4 -3 -9z" />
    <glyph glyph-name="uacute" unicode="&#xfa;" horiz-adv-x="979" 
d="M198.5 80q-86.5 104 -86.5 316v192l-2 427q0 7 4 11t11 4h35q7 0 11.5 -4t4.5 -11l-2 -427v-182q0 -198 72.5 -286t205.5 -88q116 0 198 77t146 223v256l-2 427q0 7 4 11t11 4h35q7 0 11.5 -4t4.5 -11l-4 -427l4 -572q0 -16 -16 -16h-35q-7 0 -11 4.5t-4 11.5l4 214
q-49 -107 -138.5 -180.5t-215.5 -73.5q-159 0 -245.5 104zM334 1155l-8 -2q-9 0 -13 9l-5 10q-2 3 -2 10t8 11l388 200q3 2 9 2q7 0 12 -9l13 -24q2 -3 2 -9q0 -7 -8 -12z" />
    <glyph glyph-name="ucircumflex" unicode="&#xfb;" horiz-adv-x="979" 
d="M198.5 80q-86.5 104 -86.5 316v192l-2 427q0 7 4 11t11 4h35q7 0 11.5 -4t4.5 -11l-2 -427v-182q0 -198 72.5 -286t205.5 -88q116 0 198 77t146 223v256l-2 427q0 7 4 11t11 4h35q7 0 11.5 -4t4.5 -11l-4 -427l4 -572q0 -16 -16 -16h-35q-7 0 -11 4.5t-4 11.5l4 214
q-49 -107 -138.5 -180.5t-215.5 -73.5q-159 0 -245.5 104zM207 1180l-2 8q0 9 9 13l245 119q8 4 19 4h16q12 0 20 -4l244 -119q9 -4 9 -13l-2 -8l-6 -12q-5 -10 -13 -10l-8 2l-252 106l-254 -104q-6 -2 -7 -2q-8 0 -13 10z" />
    <glyph glyph-name="udieresis" unicode="&#xfc;" horiz-adv-x="979" 
d="M198.5 80q-86.5 104 -86.5 316v192l-2 427q0 7 4 11t11 4h35q7 0 11.5 -4t4.5 -11l-2 -427v-182q0 -198 72.5 -286t205.5 -88q116 0 198 77t146 223v256l-2 427q0 7 4 11t11 4h35q7 0 11.5 -4t4.5 -11l-4 -427l4 -572q0 -16 -16 -16h-35q-7 0 -11 4.5t-4 11.5l4 214
q-49 -107 -138.5 -180.5t-215.5 -73.5q-159 0 -245.5 104zM354 1180q-16 0 -16 16v83q0 7 4.5 11t11.5 4h51q7 0 11 -4t4 -11v-83q0 -7 -4 -11.5t-11 -4.5h-51zM568 1180q-16 0 -16 16v83q0 7 4.5 11t11.5 4h51q7 0 11 -4t4 -11v-83q0 -7 -4 -11.5t-11 -4.5h-51z" />
    <glyph glyph-name="yacute" unicode="&#xfd;" horiz-adv-x="874" 
d="M774 1017q4 13 18 13h38q8 0 12 -5t1 -13l-472 -1339q-3 -13 -17 -13h-28q-8 0 -11.5 5t-1.5 13l118 326l-399 1008q-1 2 -1 7t3.5 8t9.5 3h40q14 0 18 -12l359 -920zM287 1155l-8 -2q-9 0 -13 9l-5 10q-2 3 -2 10t8 11l388 200q3 2 9 2q7 0 12 -9l13 -24q2 -3 2 -9
q0 -7 -8 -12z" />
    <glyph glyph-name="thorn" unicode="&#xfe;" horiz-adv-x="1012" 
d="M754 982q92 -70 139 -191t47 -273q0 -151 -47.5 -273t-139 -193.5t-219.5 -71.5q-125 0 -214.5 62t-136.5 180l3 -547q0 -7 -4.5 -11t-11.5 -4h-35q-7 0 -11 4t-4 11l4 811l-4 899q0 7 4 11t11 4h33q7 0 11.5 -4t4.5 -11l-5 -589q48 120 139.5 188t215.5 68
q128 0 220 -70zM721.5 95.5q79.5 63.5 118 171t38.5 241.5q0 138 -38 249.5t-117 177t-197 65.5q-106 0 -185 -54.5t-122 -162t-43 -262.5q0 -153 41.5 -263t120 -168t186.5 -58q118 0 197.5 63.5z" />
    <glyph glyph-name="ydieresis" unicode="&#xff;" horiz-adv-x="874" 
d="M774 1017q4 13 18 13h38q8 0 12 -5t1 -13l-472 -1339q-3 -13 -17 -13h-28q-8 0 -11.5 5t-1.5 13l118 326l-399 1008q-1 2 -1 7t3.5 8t9.5 3h40q14 0 18 -12l359 -920zM307 1180q-16 0 -16 16v83q0 7 4.5 11t11.5 4h51q7 0 11 -4t4 -11v-83q0 -7 -4 -11.5t-11 -4.5h-51z
M521 1180q-16 0 -16 16v83q0 7 4.5 11t11.5 4h51q7 0 11 -4t4 -11v-83q0 -7 -4 -11.5t-11 -4.5h-51z" />
    <glyph glyph-name="Amacron" unicode="&#x100;" horiz-adv-x="1164" 
d="M1132 18q2 -4 2 -7q0 -5 -4 -8t-10 -3h-41q-13 0 -18 12l-173 480h-617l-174 -480q-3 -12 -17 -12h-36q-8 0 -11.5 5t-0.5 13l507 1370q3 12 17 12h52q14 0 17 -12zM868 548l-288 794l-289 -794h577zM341 1590q-16 0 -16 16v27q0 7 4.5 11t11.5 4h483q7 0 11 -4t4 -11
v-27q0 -7 -4 -11.5t-11 -4.5h-483z" />
    <glyph glyph-name="amacron" unicode="&#x101;" horiz-adv-x="1012" 
d="M888 538l4 -522q0 -7 -4 -11.5t-11 -4.5h-33q-16 0 -16 16l4 218q-47 -119 -137 -185.5t-217 -66.5q-128 0 -220 69.5t-139 190t-47 272.5q0 150 47.5 272t139 193t219.5 71q126 0 216 -62t138 -182l-4 209q0 7 4.5 11t11.5 4h33q7 0 11 -4t4 -11zM671 88q79 54 122 161
t43 262q0 152 -41.5 261.5t-120 167.5t-186.5 58q-118 0 -197 -63t-117.5 -170.5t-38.5 -240.5q0 -137 38 -247.5t116.5 -176.5t196.5 -66q106 0 185 54zM243 1220q-16 0 -16 16v27q0 7 4.5 11t11.5 4h483q7 0 11 -4t4 -11v-27q0 -7 -4 -11.5t-11 -4.5h-483z" />
    <glyph glyph-name="Abreve" unicode="&#x102;" horiz-adv-x="1164" 
d="M1132 18q2 -4 2 -7q0 -5 -4 -8t-10 -3h-41q-13 0 -18 12l-173 480h-617l-174 -480q-3 -12 -17 -12h-36q-8 0 -11.5 5t-0.5 13l507 1370q3 12 17 12h52q14 0 17 -12zM868 548l-288 794l-289 -794h577zM475.5 1545.5q-46.5 25.5 -73 70t-30.5 101.5v2q0 6 4 9.5t11 3.5h23
q14 0 16 -15q4 -66 44.5 -105.5t112.5 -39.5q69 0 110.5 40t46.5 105q1 15 17 15h23q15 0 14 -15q-3 -57 -29.5 -101.5t-73.5 -70t-108 -25.5t-107.5 25.5z" />
    <glyph glyph-name="abreve" unicode="&#x103;" horiz-adv-x="1012" 
d="M888 538l4 -522q0 -7 -4 -11.5t-11 -4.5h-33q-16 0 -16 16l4 218q-47 -119 -137 -185.5t-217 -66.5q-128 0 -220 69.5t-139 190t-47 272.5q0 150 47.5 272t139 193t219.5 71q126 0 216 -62t138 -182l-4 209q0 7 4.5 11t11.5 4h33q7 0 11 -4t4 -11zM671 88q79 54 122 161
t43 262q0 152 -41.5 261.5t-120 167.5t-186.5 58q-118 0 -197 -63t-117.5 -170.5t-38.5 -240.5q0 -137 38 -247.5t116.5 -176.5t196.5 -66q106 0 185 54zM377.5 1175.5q-46.5 25.5 -73 70t-30.5 101.5v2q0 6 4 9.5t11 3.5h23q14 0 16 -15q4 -66 44.5 -105.5t112.5 -39.5
q69 0 110.5 40t46.5 105q1 15 17 15h23q15 0 14 -15q-3 -57 -29.5 -101.5t-73.5 -70t-108 -25.5t-107.5 25.5z" />
    <glyph glyph-name="Aogonek" unicode="&#x104;" horiz-adv-x="1164" 
d="M1205 -284q7 0 11 -4.5t4 -11.5v-25q0 -7 -4 -11t-11 -4h-77q-56 0 -99.5 19.5t-68 54.5t-24.5 80q0 62 35 111t92 83l-2 4l-173 480h-617l-174 -480q-3 -12 -17 -12h-36q-8 0 -11.5 5t-0.5 13l507 1370q3 12 17 12h52q14 0 17 -12l504 -1362l3 -5q3 -4 3 -9q0 -8 -8 -11
q-51 -24 -91 -69t-40 -104q0 -55 36 -83.5t96 -28.5h77zM580 1342l-289 -794h577z" />
    <glyph glyph-name="aogonek" unicode="&#x105;" horiz-adv-x="1012" 
d="M958 -284q7 0 11 -4.5t4 -11.5v-25q0 -7 -4 -11t-11 -4h-77q-56 0 -99.5 19.5t-68 54.5t-24.5 80q0 66 39 117t100 84v1l4 218q-47 -119 -137 -185.5t-217 -66.5q-128 0 -220 69.5t-139 190t-47 272.5q0 150 47.5 272t139 193t219.5 71q126 0 216 -62t138 -182l-4 209
q0 7 4.5 11t11.5 4h33q7 0 11 -4t4 -11l-4 -477l4 -522q0 -7 -4 -11.5t-10 -4.5q-50 -24 -89.5 -69t-39.5 -103q0 -55 36 -83.5t96 -28.5h77zM671 88q79 54 122 161t43 262q0 152 -41.5 261.5t-120 167.5t-186.5 58q-118 0 -197 -63t-117.5 -170.5t-38.5 -240.5
q0 -137 38 -247.5t116.5 -176.5t196.5 -66q106 0 185 54z" />
    <glyph glyph-name="Cacute" unicode="&#x106;" horiz-adv-x="1318" 
d="M359.5 62.5q-136.5 82.5 -207.5 245.5t-71 402q0 218 73 378t211 246t328 86q136 0 248 -48.5t190 -155.5t104 -275v-3q0 -14 -14 -14h-39q-15 0 -17 15q-33 220 -160 322.5t-314 102.5q-168 0 -290 -81.5t-186 -229.5t-64 -345q0 -225 65 -375t186 -223.5t289 -73.5
q136 0 242 52t170 154t73 249q2 15 17 15h38q8 0 12 -4.5t3 -12.5q-13 -161 -85.5 -275.5t-193 -174t-276.5 -59.5q-195 0 -331.5 82.5zM531 1525l-8 -2q-9 0 -13 9l-5 10q-2 3 -2 10t8 11l388 200q3 2 9 2q7 0 12 -9l13 -24q2 -3 2 -9q0 -7 -8 -12z" />
    <glyph glyph-name="cacute" unicode="&#x107;" horiz-adv-x="987" 
d="M270.5 45.5q-98.5 65.5 -148.5 185.5t-50 281q0 162 50 283t149 188t241 67q120 0 207.5 -43t137.5 -122t61 -185v-4q0 -12 -14 -12h-28q-14 0 -16 15q-23 146 -114.5 222.5t-233.5 76.5q-185 0 -279 -130.5t-94 -355.5t93 -352.5t278 -127.5q102 0 180.5 38.5
t125.5 112.5t57 178q2 15 15 15h28q17 0 15 -14q-10 -113 -60 -199t-141.5 -134.5t-219.5 -48.5q-141 0 -239.5 65.5zM360 1155l-8 -2q-9 0 -13 9l-5 10q-2 3 -2 10t8 11l388 200q3 2 9 2q7 0 12 -9l13 -24q2 -3 2 -9q0 -7 -8 -12z" />
    <glyph glyph-name="Ccircumflex" unicode="&#x108;" horiz-adv-x="1318" 
d="M359.5 62.5q-136.5 82.5 -207.5 245.5t-71 402q0 218 73 378t211 246t328 86q136 0 248 -48.5t190 -155.5t104 -275v-3q0 -14 -14 -14h-39q-15 0 -17 15q-33 220 -160 322.5t-314 102.5q-168 0 -290 -81.5t-186 -229.5t-64 -345q0 -225 65 -375t186 -223.5t289 -73.5
q136 0 242 52t170 154t73 249q2 15 17 15h38q8 0 12 -4.5t3 -12.5q-13 -161 -85.5 -275.5t-193 -174t-276.5 -59.5q-195 0 -331.5 82.5zM404 1550l-2 8q0 9 9 13l245 119q8 4 19 4h16q12 0 20 -4l244 -119q9 -4 9 -13l-2 -8l-6 -12q-5 -10 -13 -10l-8 2l-252 106l-254 -104
q-6 -2 -7 -2q-8 0 -13 10z" />
    <glyph glyph-name="ccircumflex" unicode="&#x109;" horiz-adv-x="987" 
d="M270.5 45.5q-98.5 65.5 -148.5 185.5t-50 281q0 162 50 283t149 188t241 67q120 0 207.5 -43t137.5 -122t61 -185v-4q0 -12 -14 -12h-28q-14 0 -16 15q-23 146 -114.5 222.5t-233.5 76.5q-185 0 -279 -130.5t-94 -355.5t93 -352.5t278 -127.5q102 0 180.5 38.5
t125.5 112.5t57 178q2 15 15 15h28q17 0 15 -14q-10 -113 -60 -199t-141.5 -134.5t-219.5 -48.5q-141 0 -239.5 65.5zM233 1180l-2 8q0 9 9 13l245 119q8 4 19 4h16q12 0 20 -4l244 -119q9 -4 9 -13l-2 -8l-6 -12q-5 -10 -13 -10l-8 2l-252 106l-254 -104q-6 -2 -7 -2
q-8 0 -13 10z" />
    <glyph glyph-name="Cdotaccent" unicode="&#x10a;" horiz-adv-x="1318" 
d="M359.5 62.5q-136.5 82.5 -207.5 245.5t-71 402q0 218 73 378t211 246t328 86q136 0 248 -48.5t190 -155.5t104 -275v-3q0 -14 -14 -14h-39q-15 0 -17 15q-33 220 -160 322.5t-314 102.5q-168 0 -290 -81.5t-186 -229.5t-64 -345q0 -225 65 -375t186 -223.5t289 -73.5
q136 0 242 52t170 154t73 249q2 15 17 15h38q8 0 12 -4.5t3 -12.5q-13 -161 -85.5 -275.5t-193 -174t-276.5 -59.5q-195 0 -331.5 82.5zM667 1550q-16 0 -16 16v83q0 7 4.5 11t11.5 4h35q7 0 11 -4t4 -11v-83q0 -7 -4 -11.5t-11 -4.5h-35z" />
    <glyph glyph-name="cdotaccent" unicode="&#x10b;" horiz-adv-x="987" 
d="M270.5 45.5q-98.5 65.5 -148.5 185.5t-50 281q0 162 50 283t149 188t241 67q120 0 207.5 -43t137.5 -122t61 -185v-4q0 -12 -14 -12h-28q-14 0 -16 15q-23 146 -114.5 222.5t-233.5 76.5q-185 0 -279 -130.5t-94 -355.5t93 -352.5t278 -127.5q102 0 180.5 38.5
t125.5 112.5t57 178q2 15 15 15h28q17 0 15 -14q-10 -113 -60 -199t-141.5 -134.5t-219.5 -48.5q-141 0 -239.5 65.5zM496 1180q-16 0 -16 16v83q0 7 4.5 11t11.5 4h35q7 0 11 -4t4 -11v-83q0 -7 -4 -11.5t-11 -4.5h-35z" />
    <glyph glyph-name="Ccaron" unicode="&#x10c;" horiz-adv-x="1318" 
d="M359.5 62.5q-136.5 82.5 -207.5 245.5t-71 402q0 218 73 378t211 246t328 86q136 0 248 -48.5t190 -155.5t104 -275v-3q0 -14 -14 -14h-39q-15 0 -17 15q-33 220 -160 322.5t-314 102.5q-168 0 -290 -81.5t-186 -229.5t-64 -345q0 -225 65 -375t186 -223.5t289 -73.5
q136 0 242 52t170 154t73 249q2 15 17 15h38q8 0 12 -4.5t3 -12.5q-13 -161 -85.5 -275.5t-193 -174t-276.5 -59.5q-195 0 -331.5 82.5zM411 1639q-9 5 -9 13l2 8l5 10q6 14 20 8l254 -104l252 106q6 2 9 2q8 0 12 -10l6 -12l2 -8q0 -8 -9 -13l-244 -119q-8 -4 -20 -4h-16
q-11 0 -19 4z" />
    <glyph glyph-name="ccaron" unicode="&#x10d;" horiz-adv-x="987" 
d="M270.5 45.5q-98.5 65.5 -148.5 185.5t-50 281q0 162 50 283t149 188t241 67q120 0 207.5 -43t137.5 -122t61 -185v-4q0 -12 -14 -12h-28q-14 0 -16 15q-23 146 -114.5 222.5t-233.5 76.5q-185 0 -279 -130.5t-94 -355.5t93 -352.5t278 -127.5q102 0 180.5 38.5
t125.5 112.5t57 178q2 15 15 15h28q17 0 15 -14q-10 -113 -60 -199t-141.5 -134.5t-219.5 -48.5q-141 0 -239.5 65.5zM240 1269q-9 5 -9 13l2 8l5 10q6 14 20 8l254 -104l252 106q6 2 9 2q8 0 12 -10l6 -12l2 -8q0 -8 -9 -13l-244 -119q-8 -4 -20 -4h-16q-11 0 -19 4z" />
    <glyph glyph-name="Dcaron" unicode="&#x10e;" horiz-adv-x="1294" 
d="M144 0q-7 0 -11 4.5t-4 11.5l4 726l-4 643q0 7 4 11t11 4h395q199 0 352 -86t237.5 -242t84.5 -360q0 -221 -91.5 -382.5t-244.5 -245.5t-334 -84h-399zM199 742l4 -686h356q143 0 277 71.5t220.5 219t86.5 363.5q0 202 -80 345t-214.5 216t-297.5 73h-348zM339 1639
q-9 5 -9 13l2 8l5 10q6 14 20 8l254 -104l252 106q6 2 9 2q8 0 12 -10l6 -12l2 -8q0 -8 -9 -13l-244 -119q-8 -4 -20 -4h-16q-11 0 -19 4z" />
    <glyph glyph-name="dcaron" unicode="&#x10f;" horiz-adv-x="1012" 
d="M888 868l4 -852q0 -7 -4 -11.5t-11 -4.5h-33q-16 0 -16 16l4 214q-48 -118 -138.5 -184t-215.5 -66q-128 0 -220 70t-139 191t-47 273q0 151 47.5 273t139 193.5t219.5 71.5q124 0 213 -60.5t137 -177.5l-2 571q0 7 4.5 11t11.5 4h35q7 0 11 -4t4 -11zM669 86
q79 54 123 161.5t44 263.5q0 152 -41.5 262.5t-120 169.5t-186.5 59q-118 0 -197.5 -64t-117.5 -172t-38 -242q0 -138 37.5 -249t116.5 -177t197 -66q104 0 183 54zM1016 1132q-3 -13 -18 -13h-20q-16 0 -13 17l90 320q3 13 17 13h35q8 0 12 -5t1 -12z" />
    <glyph glyph-name="Dcroat" unicode="&#x110;" horiz-adv-x="1312" 
d="M557 1400q199 0 352 -86t237.5 -242t84.5 -360q0 -221 -91.5 -382.5t-244.5 -245.5t-334 -84h-398q-16 0 -16 16l4 712h-142q-16 0 -16 16v25q0 7 4.5 11t11.5 4h142l-4 601q0 7 4.5 11t11.5 4h394zM577 56q143 0 277 71.5t220.5 219t86.5 363.5q0 202 -80 345
t-214.5 216t-297.5 73h-348l-4 -560h419q7 0 11 -4t4 -11v-25q0 -7 -4 -11.5t-11 -4.5h-419l4 -672h356z" />
    <glyph glyph-name="dcroat" unicode="&#x111;" horiz-adv-x="1012" 
d="M1010 1224q7 0 11.5 -4t4.5 -11v-21q0 -16 -16 -16h-120l-2 -304l4 -852q0 -7 -4 -11.5t-11 -4.5h-33q-16 0 -16 16l4 215q-48 -118 -138.5 -184.5t-215.5 -66.5q-128 0 -220 70t-139 191t-47 273q0 151 47.5 273t139 193.5t219.5 71.5q124 0 213 -60.5t137 -177.5
l-1 358h-333q-16 0 -16 16v21q0 7 4.5 11t11.5 4h332v161q0 7 4.5 11t11.5 4h35q7 0 11 -4t4 -11l-1 -161h119zM668.5 86q78.5 54 123 161.5t44.5 263.5q0 152 -41.5 262.5t-120 169.5t-186.5 59q-118 0 -197.5 -64t-118 -172t-38.5 -242q0 -137 38 -248.5t117 -177.5
t197 -66q104 0 182.5 54z" />
    <glyph glyph-name="Emacron" unicode="&#x112;" horiz-adv-x="1006" 
d="M144 0q-16 0 -16 16l4 734l-4 635q0 7 4.5 11t11.5 4h751q7 0 11 -4t4 -11v-25q0 -7 -4 -11.5t-11 -4.5h-697l-4 -560h663q7 0 11 -4t4 -11v-25q0 -7 -4 -11.5t-11 -4.5h-663l4 -672h713q7 0 11 -4t4 -11v-25q0 -7 -4 -11.5t-11 -4.5h-767zM293 1590q-16 0 -16 16v27
q0 7 4.5 11t11.5 4h483q7 0 11 -4t4 -11v-27q0 -7 -4 -11.5t-11 -4.5h-483z" />
    <glyph glyph-name="emacron" unicode="&#x113;" horiz-adv-x="1013" 
d="M139 532q0 -247 99 -373.5t288 -126.5q149 0 236 84.5t113 237.5q2 14 17 14h29q8 0 12 -4.5t3 -12.5q-31 -180 -133 -275.5t-277 -95.5q-146 0 -248 66t-154 186t-52 280q0 157 52.5 279t152 190.5t235.5 68.5q130 0 225 -59t147 -172t54 -271q0 -16 -15 -16h-784z
M253 888.5q-95 -109.5 -111 -300.5h728q0 117 -41.5 210t-122 146.5t-194.5 53.5q-164 0 -259 -109.5zM270 1220q-16 0 -16 16v27q0 7 4.5 11t11.5 4h483q7 0 11 -4t4 -11v-27q0 -7 -4 -11.5t-11 -4.5h-483z" />
    <glyph glyph-name="Ebreve" unicode="&#x114;" horiz-adv-x="1006" 
d="M144 0q-16 0 -16 16l4 734l-4 635q0 7 4.5 11t11.5 4h751q7 0 11 -4t4 -11v-25q0 -7 -4 -11.5t-11 -4.5h-697l-4 -560h663q7 0 11 -4t4 -11v-25q0 -7 -4 -11.5t-11 -4.5h-663l4 -672h713q7 0 11 -4t4 -11v-25q0 -7 -4 -11.5t-11 -4.5h-767zM427.5 1545.5
q-46.5 25.5 -73 70t-30.5 101.5v2q0 6 4 9.5t11 3.5h23q14 0 16 -15q4 -66 44.5 -105.5t112.5 -39.5q69 0 110.5 40t46.5 105q1 15 17 15h23q15 0 14 -15q-3 -57 -29.5 -101.5t-73.5 -70t-108 -25.5t-107.5 25.5z" />
    <glyph glyph-name="ebreve" unicode="&#x115;" horiz-adv-x="1013" 
d="M139 532q0 -247 99 -373.5t288 -126.5q149 0 236 84.5t113 237.5q2 14 17 14h29q8 0 12 -4.5t3 -12.5q-31 -180 -133 -275.5t-277 -95.5q-146 0 -248 66t-154 186t-52 280q0 157 52.5 279t152 190.5t235.5 68.5q130 0 225 -59t147 -172t54 -271q0 -16 -15 -16h-784z
M253 888.5q-95 -109.5 -111 -300.5h728q0 117 -41.5 210t-122 146.5t-194.5 53.5q-164 0 -259 -109.5zM404.5 1175.5q-46.5 25.5 -73 70t-30.5 101.5v2q0 6 4 9.5t11 3.5h23q14 0 16 -15q4 -66 44.5 -105.5t112.5 -39.5q69 0 110.5 40t46.5 105q1 15 17 15h23q15 0 14 -15
q-3 -57 -29.5 -101.5t-73.5 -70t-108 -25.5t-107.5 25.5z" />
    <glyph glyph-name="Edotaccent" unicode="&#x116;" horiz-adv-x="1006" 
d="M144 0q-16 0 -16 16l4 734l-4 635q0 7 4.5 11t11.5 4h751q7 0 11 -4t4 -11v-25q0 -7 -4 -11.5t-11 -4.5h-697l-4 -560h663q7 0 11 -4t4 -11v-25q0 -7 -4 -11.5t-11 -4.5h-663l4 -672h713q7 0 11 -4t4 -11v-25q0 -7 -4 -11.5t-11 -4.5h-767zM519 1550q-16 0 -16 16v83
q0 7 4.5 11t11.5 4h35q7 0 11 -4t4 -11v-83q0 -7 -4 -11.5t-11 -4.5h-35z" />
    <glyph glyph-name="edotaccent" unicode="&#x117;" horiz-adv-x="1013" 
d="M139 532q0 -247 99 -373.5t288 -126.5q149 0 236 84.5t113 237.5q2 14 17 14h29q8 0 12 -4.5t3 -12.5q-31 -180 -133 -275.5t-277 -95.5q-146 0 -248 66t-154 186t-52 280q0 157 52.5 279t152 190.5t235.5 68.5q130 0 225 -59t147 -172t54 -271q0 -16 -15 -16h-784z
M253 888.5q-95 -109.5 -111 -300.5h728q0 117 -41.5 210t-122 146.5t-194.5 53.5q-164 0 -259 -109.5zM496 1180q-16 0 -16 16v83q0 7 4.5 11t11.5 4h35q7 0 11 -4t4 -11v-83q0 -7 -4 -11.5t-11 -4.5h-35z" />
    <glyph glyph-name="Eogonek" unicode="&#x118;" horiz-adv-x="1006" 
d="M831 0q-51 -25 -90 -69.5t-39 -102.5q0 -55 36 -83.5t96 -28.5h77q7 0 11 -4.5t4 -11.5v-25q0 -7 -4 -11t-11 -4h-77q-56 0 -99.5 19.5t-68 54.5t-24.5 80q0 58 31.5 105t82.5 81h-612q-16 0 -16 16l4 734l-4 635q0 7 4.5 11t11.5 4h751q7 0 11 -4t4 -11v-25
q0 -7 -4 -11.5t-11 -4.5h-697l-4 -560h663q7 0 11 -4t4 -11v-25q0 -7 -4 -11.5t-11 -4.5h-663l4 -672h713q7 0 11 -4t4 -11v-25q0 -7 -4 -11.5t-11 -4.5h-80z" />
    <glyph glyph-name="eogonek" unicode="&#x119;" horiz-adv-x="1013" 
d="M921 368q8 0 12 -4.5t3 -12.5q-27 -156 -106.5 -248.5t-214.5 -115.5q-44 -27 -74.5 -67.5t-30.5 -91.5q0 -55 36 -83.5t96 -28.5h77q7 0 11 -4.5t4 -11.5v-25q0 -7 -4 -11t-11 -4h-77q-56 0 -99.5 19.5t-68 54.5t-24.5 80q0 95 87 166h-11q-146 0 -248 66t-154 186
t-52 280q0 157 52.5 279t152 190.5t235.5 68.5q130 0 225 -59t147 -172t54 -271q0 -16 -15 -16h-784q0 -247 99 -373.5t288 -126.5q149 0 236 84.5t113 237.5q2 14 17 14h29zM253 888.5q-95 -109.5 -111 -300.5h728q0 117 -41.5 210t-122 146.5t-194.5 53.5
q-164 0 -259 -109.5z" />
    <glyph glyph-name="Ecaron" unicode="&#x11a;" horiz-adv-x="1006" 
d="M144 0q-16 0 -16 16l4 734l-4 635q0 7 4.5 11t11.5 4h751q7 0 11 -4t4 -11v-25q0 -7 -4 -11.5t-11 -4.5h-697l-4 -560h663q7 0 11 -4t4 -11v-25q0 -7 -4 -11.5t-11 -4.5h-663l4 -672h713q7 0 11 -4t4 -11v-25q0 -7 -4 -11.5t-11 -4.5h-767zM263 1639q-9 5 -9 13l2 8l5 10
q6 14 20 8l254 -104l252 106q6 2 9 2q8 0 12 -10l6 -12l2 -8q0 -8 -9 -13l-244 -119q-8 -4 -20 -4h-16q-11 0 -19 4z" />
    <glyph glyph-name="ecaron" unicode="&#x11b;" horiz-adv-x="1013" 
d="M139 532q0 -247 99 -373.5t288 -126.5q149 0 236 84.5t113 237.5q2 14 17 14h29q8 0 12 -4.5t3 -12.5q-31 -180 -133 -275.5t-277 -95.5q-146 0 -248 66t-154 186t-52 280q0 157 52.5 279t152 190.5t235.5 68.5q130 0 225 -59t147 -172t54 -271q0 -16 -15 -16h-784z
M253 888.5q-95 -109.5 -111 -300.5h728q0 117 -41.5 210t-122 146.5t-194.5 53.5q-164 0 -259 -109.5zM240 1269q-9 5 -9 13l2 8l5 10q6 14 20 8l254 -104l252 106q6 2 9 2q8 0 12 -10l6 -12l2 -8q0 -8 -9 -13l-244 -119q-8 -4 -20 -4h-16q-11 0 -19 4z" />
    <glyph glyph-name="Gcircumflex" unicode="&#x11c;" horiz-adv-x="1321" 
d="M367.5 67.5q-134.5 87.5 -210.5 251t-76 383.5q0 219 76.5 381.5t210.5 249.5t303 87q213 0 352 -112t183 -329v-4q0 -13 -14 -13h-36q-16 0 -17 14q-35 190 -158 289t-310 99q-149 0 -267 -79t-185.5 -229t-67.5 -356q0 -202 67.5 -352.5t186.5 -231t268 -80.5
q165 0 278.5 74.5t170 209t55.5 314.5h-494q-16 0 -16 16v25q0 7 4.5 11t11.5 4h543q15 0 15 -18q4 -215 -60 -370.5t-192.5 -238.5t-315.5 -83q-171 0 -305.5 87.5zM382 1550l-2 8q0 9 9 13l245 119q8 4 19 4h16q12 0 20 -4l244 -119q9 -4 9 -13l-2 -8l-6 -12
q-5 -10 -13 -10l-8 2l-252 106l-254 -104q-6 -2 -7 -2q-8 0 -13 10z" />
    <glyph glyph-name="gcircumflex" unicode="&#x11d;" horiz-adv-x="1004" 
d="M259.5 68.5q-92.5 64.5 -140 179t-47.5 264.5q0 152 47.5 274t140.5 193t226 71q123 0 211.5 -65t134.5 -188l-4 218q0 7 4.5 11t11.5 4h33q7 0 11 -4t4 -11l-4 -482l2 -413q1 -249 -106 -376.5t-299 -127.5q-164 0 -273 75.5t-123 230.5v2q0 14 15 14h33q14 0 17 -15
q16 -130 105 -191t223 -61q346 0 346 449v118q-46 -113 -134 -173.5t-210 -60.5q-132 0 -224.5 64.5zM672 103.5q76 49.5 119 152t43 255.5q0 152 -41.5 262t-120 168.5t-186.5 58.5q-114 0 -193.5 -62.5t-119.5 -173t-40 -252.5q0 -216 91.5 -337t271.5 -121
q100 0 176 49.5zM206 1180l-2 8q0 9 9 13l245 119q8 4 19 4h16q12 0 20 -4l244 -119q9 -4 9 -13l-2 -8l-6 -12q-5 -10 -13 -10l-8 2l-252 106l-254 -104q-6 -2 -7 -2q-8 0 -13 10z" />
    <glyph glyph-name="Gbreve" unicode="&#x11e;" horiz-adv-x="1321" 
d="M367.5 67.5q-134.5 87.5 -210.5 251t-76 383.5q0 219 76.5 381.5t210.5 249.5t303 87q213 0 352 -112t183 -329v-4q0 -13 -14 -13h-36q-16 0 -17 14q-35 190 -158 289t-310 99q-149 0 -267 -79t-185.5 -229t-67.5 -356q0 -202 67.5 -352.5t186.5 -231t268 -80.5
q165 0 278.5 74.5t170 209t55.5 314.5h-494q-16 0 -16 16v25q0 7 4.5 11t11.5 4h543q15 0 15 -18q4 -215 -60 -370.5t-192.5 -238.5t-315.5 -83q-171 0 -305.5 87.5zM553.5 1545.5q-46.5 25.5 -73 70t-30.5 101.5v2q0 6 4 9.5t11 3.5h23q14 0 16 -15q4 -66 44.5 -105.5
t112.5 -39.5q69 0 110.5 40t46.5 105q1 15 17 15h23q15 0 14 -15q-3 -57 -29.5 -101.5t-73.5 -70t-108 -25.5t-107.5 25.5z" />
    <glyph glyph-name="gbreve" unicode="&#x11f;" horiz-adv-x="1004" 
d="M259.5 68.5q-92.5 64.5 -140 179t-47.5 264.5q0 152 47.5 274t140.5 193t226 71q123 0 211.5 -65t134.5 -188l-4 218q0 7 4.5 11t11.5 4h33q7 0 11 -4t4 -11l-4 -482l2 -413q1 -249 -106 -376.5t-299 -127.5q-164 0 -273 75.5t-123 230.5v2q0 14 15 14h33q14 0 17 -15
q16 -130 105 -191t223 -61q346 0 346 449v118q-46 -113 -134 -173.5t-210 -60.5q-132 0 -224.5 64.5zM672 103.5q76 49.5 119 152t43 255.5q0 152 -41.5 262t-120 168.5t-186.5 58.5q-114 0 -193.5 -62.5t-119.5 -173t-40 -252.5q0 -216 91.5 -337t271.5 -121
q100 0 176 49.5zM377.5 1175.5q-46.5 25.5 -73 70t-30.5 101.5v2q0 6 4 9.5t11 3.5h23q14 0 16 -15q4 -66 44.5 -105.5t112.5 -39.5q69 0 110.5 40t46.5 105q1 15 17 15h23q15 0 14 -15q-3 -57 -29.5 -101.5t-73.5 -70t-108 -25.5t-107.5 25.5z" />
    <glyph glyph-name="Gdotaccent" unicode="&#x120;" horiz-adv-x="1321" 
d="M367.5 67.5q-134.5 87.5 -210.5 251t-76 383.5q0 219 76.5 381.5t210.5 249.5t303 87q213 0 352 -112t183 -329v-4q0 -13 -14 -13h-36q-16 0 -17 14q-35 190 -158 289t-310 99q-149 0 -267 -79t-185.5 -229t-67.5 -356q0 -202 67.5 -352.5t186.5 -231t268 -80.5
q165 0 278.5 74.5t170 209t55.5 314.5h-494q-16 0 -16 16v25q0 7 4.5 11t11.5 4h543q15 0 15 -18q4 -215 -60 -370.5t-192.5 -238.5t-315.5 -83q-171 0 -305.5 87.5zM645 1550q-16 0 -16 16v83q0 7 4.5 11t11.5 4h35q7 0 11 -4t4 -11v-83q0 -7 -4 -11.5t-11 -4.5h-35z" />
    <glyph glyph-name="gdotaccent" unicode="&#x121;" horiz-adv-x="1004" 
d="M259.5 68.5q-92.5 64.5 -140 179t-47.5 264.5q0 152 47.5 274t140.5 193t226 71q123 0 211.5 -65t134.5 -188l-4 218q0 7 4.5 11t11.5 4h33q7 0 11 -4t4 -11l-4 -482l2 -413q1 -249 -106 -376.5t-299 -127.5q-164 0 -273 75.5t-123 230.5v2q0 14 15 14h33q14 0 17 -15
q16 -130 105 -191t223 -61q346 0 346 449v118q-46 -113 -134 -173.5t-210 -60.5q-132 0 -224.5 64.5zM672 103.5q76 49.5 119 152t43 255.5q0 152 -41.5 262t-120 168.5t-186.5 58.5q-114 0 -193.5 -62.5t-119.5 -173t-40 -252.5q0 -216 91.5 -337t271.5 -121
q100 0 176 49.5zM469 1180q-16 0 -16 16v83q0 7 4.5 11t11.5 4h35q7 0 11 -4t4 -11v-83q0 -7 -4 -11.5t-11 -4.5h-35z" />
    <glyph glyph-name="uni0122" unicode="&#x122;" horiz-adv-x="1321" 
d="M367.5 67.5q-134.5 87.5 -210.5 251t-76 383.5q0 219 76.5 381.5t210.5 249.5t303 87q213 0 352 -112t183 -329v-4q0 -13 -14 -13h-36q-16 0 -17 14q-35 190 -158 289t-310 99q-149 0 -267 -79t-185.5 -229t-67.5 -356q0 -202 67.5 -352.5t186.5 -231t268 -80.5
q165 0 278.5 74.5t170 209t55.5 314.5h-494q-16 0 -16 16v25q0 7 4.5 11t11.5 4h543q15 0 15 -18q4 -215 -60 -370.5t-192.5 -238.5t-315.5 -83q-171 0 -305.5 87.5zM619 -400q-14 0 -11 18l37 132v101q0 7 4.5 11t11.5 4h45q7 0 11 -4t4 -11v-90q0 -9 -5 -19l-71 -130
q-7 -12 -18 -12h-8z" />
    <glyph glyph-name="uni0123" unicode="&#x123;" horiz-adv-x="1004" 
d="M259.5 68.5q-92.5 64.5 -140 179t-47.5 264.5q0 152 47.5 274t140.5 193t226 71q123 0 211.5 -65t134.5 -188l-4 218q0 7 4.5 11t11.5 4h33q7 0 11 -4t4 -11l-4 -482l2 -413q1 -249 -106 -376.5t-299 -127.5q-164 0 -273 75.5t-123 230.5v2q0 14 15 14h33q14 0 17 -15
q16 -130 105 -191t223 -61q346 0 346 449v118q-46 -113 -134 -173.5t-210 -60.5q-132 0 -224.5 64.5zM672 103.5q76 49.5 119 152t43 255.5q0 152 -41.5 262t-120 168.5t-186.5 58.5q-114 0 -193.5 -62.5t-119.5 -173t-40 -252.5q0 -216 91.5 -337t271.5 -121
q100 0 176 49.5zM451 1180q-16 0 -16 16v86q0 9 5 19l71 130q6 11 18 11h15q8 0 12 -5.5t1 -12.5l-48 -132v-96q0 -7 -4 -11.5t-11 -4.5h-43z" />
    <glyph glyph-name="Hcircumflex" unicode="&#x124;" horiz-adv-x="1270" 
d="M1138 684l4 -668q0 -7 -4 -11.5t-11 -4.5h-39q-16 0 -16 16l4 668v44h-882v-44l4 -668q0 -7 -4 -11.5t-11 -4.5h-39q-16 0 -16 16l4 668l-4 701q0 7 4.5 11t11.5 4h39q7 0 11 -4t4 -11l-3 -601h880l-3 601q0 7 4.5 11t11.5 4h39q7 0 11 -4t4 -11zM357 1550l-2 8q0 9 9 13
l245 119q8 4 19 4h16q12 0 20 -4l244 -119q9 -4 9 -13l-2 -8l-6 -12q-5 -10 -13 -10l-8 2l-252 106l-254 -104q-6 -2 -7 -2q-8 0 -13 10z" />
    <glyph glyph-name="hcircumflex" unicode="&#x125;" horiz-adv-x="979" 
d="M781.5 950q86.5 -104 86.5 -316v-192l2 -426q0 -7 -4 -11.5t-11 -4.5h-35q-16 0 -16 16l2 426v182q0 378 -278 378q-116 0 -200 -79t-148 -226l4 -681q0 -7 -4 -11.5t-11 -4.5h-35q-16 0 -16 16l4 704l-4 666q0 16 16 16h35q7 0 11 -4.5t4 -11.5l-4 -586q49 106 139 180
t217 74q159 0 245.5 -104zM-127 1552l-2 8q0 9 9 13l245 119q8 4 19 4h16q12 0 20 -4l244 -119q9 -4 9 -13l-2 -8l-6 -12q-5 -10 -13 -10l-8 2l-252 106l-254 -104q-6 -2 -7 -2q-8 0 -13 10z" />
    <glyph glyph-name="Hbar" unicode="&#x126;" horiz-adv-x="1294" 
d="M1299 1084q7 0 11 -4t4 -11v-25q0 -7 -4 -11.5t-11 -4.5h-147l-2 -344l4 -668q0 -7 -4 -11.5t-11 -4.5h-39q-16 0 -16 16l4 668v44h-882v-44l4 -668q0 -7 -4 -11.5t-11 -4.5h-39q-16 0 -16 16l4 668l-2 344h-147q-7 0 -11 4.5t-4 11.5v25q0 7 4 11t11 4h147l-2 301
q0 7 4.5 11t11.5 4h39q7 0 11 -4t4 -11l-2 -301h878l-2 301q0 7 4.5 11t11.5 4h39q7 0 11 -4t4 -11l-2 -301h147zM208 1028l-1 -244h880l-1 244h-878z" />
    <glyph glyph-name="hbar" unicode="&#x127;" horiz-adv-x="979" 
d="M781.5 950q86.5 -104 86.5 -316v-192l2 -426q0 -7 -4 -11.5t-11 -4.5h-35q-16 0 -16 16l2 426v182q0 378 -278 378q-116 0 -200 -79t-148 -226l4 -681q0 -7 -4 -11.5t-11 -4.5h-35q-16 0 -16 16l4 704l-3 452h-119q-16 0 -16 16v21q0 7 4.5 11t11.5 4h119l-1 163
q0 7 4.5 11t11.5 4h35q7 0 11 -4t4 -11l-1 -163h334q7 0 11 -4t4 -11v-21q0 -7 -4 -11.5t-11 -4.5h-334l-3 -372q49 106 139 180t217 74q159 0 245.5 -104z" />
    <glyph glyph-name="Itilde" unicode="&#x128;" horiz-adv-x="347" 
d="M154 0q-7 0 -11 4.5t-4 11.5l4 712l-4 657q0 7 4 11t11 4h39q7 0 11.5 -4t4.5 -11l-4 -657l4 -712q0 -16 -16 -16h-39zM206 1560q-27 24 -57 69q-23 35 -40.5 52t-40.5 17q-39 0 -59 -34.5t-23 -95.5q0 -16 -15 -16h-21q-16 0 -16 16q3 80 37.5 130t96.5 50
q33 0 57 -13.5t39.5 -32.5t34.5 -49q22 -35 38 -51t39 -16q42 0 63 35t23 96q0 15 16 15h21q7 0 11 -5t3 -14q-3 -79 -38 -128t-99 -49q-43 0 -70 24z" />
    <glyph glyph-name="itilde" unicode="&#x129;" horiz-adv-x="325" 
d="M186 1191q-22 25 -46 72q-16 34 -29 50.5t-31 16.5q-52 0 -54 -132q0 -16 -16 -16h-21q-16 0 -16 16q3 86 30 133t79 47q27 0 46.5 -14t32 -33t28.5 -51q17 -34 29 -50t30 -16q51 0 54 132q0 7 4 11.5t11 4.5h21q8 0 12 -6.5t3 -18.5q-4 -81 -30.5 -126t-76.5 -45
q-38 0 -60 25zM145 0q-7 0 -11 4.5t-4 11.5l2 534l-2 465q0 7 4 11t11 4h35q7 0 11.5 -4t4.5 -11l-2 -465l2 -534q0 -16 -16 -16h-35z" />
    <glyph glyph-name="Imacron" unicode="&#x12a;" horiz-adv-x="347" 
d="M154 0q-7 0 -11 4.5t-4 11.5l4 712l-4 657q0 7 4 11t11 4h39q7 0 11.5 -4t4.5 -11l-4 -657l4 -712q0 -16 -16 -16h-39zM-68 1590q-16 0 -16 16v27q0 7 4.5 11t11.5 4h483q7 0 11 -4t4 -11v-27q0 -7 -4 -11.5t-11 -4.5h-483z" />
    <glyph glyph-name="imacron" unicode="&#x12b;" horiz-adv-x="325" 
d="M-29 1220q-16 0 -16 16v27q0 7 4.5 11t11.5 4h383q7 0 11.5 -4t4.5 -11v-27q0 -16 -16 -16h-383zM145 0q-7 0 -11 4.5t-4 11.5l2 534l-2 465q0 7 4 11t11 4h35q7 0 11.5 -4t4.5 -11l-2 -465l2 -534q0 -16 -16 -16h-35z" />
    <glyph glyph-name="Ibreve" unicode="&#x12c;" horiz-adv-x="347" 
d="M154 0q-7 0 -11 4.5t-4 11.5l4 712l-4 657q0 7 4 11t11 4h39q7 0 11.5 -4t4.5 -11l-4 -657l4 -712q0 -16 -16 -16h-39zM66.5 1545.5q-46.5 25.5 -73 70t-30.5 101.5v2q0 6 4 9.5t11 3.5h23q14 0 16 -15q4 -66 44.5 -105.5t112.5 -39.5q69 0 110.5 40t46.5 105q1 15 17 15
h23q15 0 14 -15q-3 -57 -29.5 -101.5t-73.5 -70t-108 -25.5t-107.5 25.5z" />
    <glyph glyph-name="ibreve" unicode="&#x12d;" horiz-adv-x="325" 
d="M29 1205.5q-52 55.5 -57 141.5v2q0 6 4 9.5t11 3.5h23q16 0 16 -15q4 -66 40 -105.5t98 -39.5q60 0 96.5 40t40.5 105q2 15 16 15h23q8 0 12 -4.5t3 -11.5q-5 -86 -57 -141t-134 -55q-83 0 -135 55.5zM145 0q-7 0 -11 4.5t-4 11.5l2 534l-2 465q0 7 4 11t11 4h35
q7 0 11.5 -4t4.5 -11l-2 -465l2 -534q0 -16 -16 -16h-35z" />
    <glyph glyph-name="Iogonek" unicode="&#x12e;" horiz-adv-x="347" 
d="M275 -284q7 0 11 -4.5t4 -11.5v-25q0 -7 -4 -11t-11 -4h-77q-56 0 -99.5 19.5t-68 54.5t-24.5 80q0 64 37 114t96 84v4l4 712l-4 657q0 7 4 11t11 4h39q7 0 11.5 -4t4.5 -11l-4 -657l4 -712q0 -14 -14 -16q-50 -24 -89.5 -69t-39.5 -103q0 -55 36 -83.5t96 -28.5h77z" />
    <glyph glyph-name="iogonek" unicode="&#x12f;" horiz-adv-x="325" 
d="M148 1180q-16 0 -16 16v83q0 7 4.5 11t11.5 4h35q7 0 11 -4t4 -11v-83q0 -7 -4 -11.5t-11 -4.5h-35zM259 -284q7 0 11 -4.5t4 -11.5v-25q0 -7 -4 -11t-11 -4h-77q-56 0 -99.5 19.5t-68 54.5t-24.5 80q0 65 39 116t101 86l2 534l-2 465q0 7 4 11t11 4h35q7 0 11.5 -4
t4.5 -11l-2 -465l2 -534q0 -16 -16 -16h-1q-51 -25 -90 -69.5t-39 -102.5q0 -55 36 -83.5t96 -28.5h77z" />
    <glyph glyph-name="Idotaccent" unicode="&#x130;" horiz-adv-x="347" 
d="M154 0q-7 0 -11 4.5t-4 11.5l4 712l-4 657q0 7 4 11t11 4h39q7 0 11.5 -4t4.5 -11l-4 -657l4 -712q0 -16 -16 -16h-39zM159 1550q-16 0 -16 16v83q0 7 4.5 11t11.5 4h35q7 0 11 -4t4 -11v-83q0 -7 -4 -11.5t-11 -4.5h-35z" />
    <glyph glyph-name="dotlessi" unicode="&#x131;" horiz-adv-x="325" 
d="M145 0q-7 0 -11 4.5t-4 11.5l2 534l-2 465q0 7 4 11t11 4h35q7 0 11.5 -4t4.5 -11l-2 -465l2 -534q0 -16 -16 -16h-35z" />
    <glyph glyph-name="IJ" unicode="&#x132;" horiz-adv-x="1248" 
d="M154 0q-7 0 -11 4.5t-4 11.5l4 712l-4 657q0 7 4 11t11 4h39q7 0 11.5 -4t4.5 -11l-4 -657l4 -712q0 -16 -16 -16h-39zM490.5 102q-87.5 128 -89.5 378q0 7 4 11.5t11 4.5h35q16 0 16 -16q1 -145 28 -243t93.5 -152.5t182.5 -54.5q119 0 186 56.5t92.5 156.5t25.5 249
v478l-2 415q0 7 4 11t11 4h39q7 0 11.5 -4t4.5 -11l-2 -415v-478q0 -256 -87.5 -387t-282.5 -131q-193 0 -280.5 128z" />
    <glyph glyph-name="ij" unicode="&#x133;" horiz-adv-x="650" 
d="M145 0q-7 0 -11 4.5t-4 11.5l2 534l-2 465q0 7 4 11t11 4h35q7 0 11.5 -4t4.5 -11l-2 -465l2 -534q0 -16 -16 -16h-35zM148 1180q-16 0 -16 16v83q0 7 4.5 11t11.5 4h35q7 0 11 -4t4 -11v-83q0 -7 -4 -11.5t-11 -4.5h-35zM470 -340q-7 0 -11 4t-4 11l2 631l-2 709
q0 7 4 11t11 4h35q7 0 11.5 -4t4.5 -11l-2 -709l2 -631q0 -7 -4.5 -11t-11.5 -4h-35zM473 1180q-16 0 -16 16v83q0 7 4.5 11t11.5 4h35q7 0 11 -4t4 -11v-83q0 -7 -4 -11.5t-11 -4.5h-35z" />
    <glyph glyph-name="Jcircumflex" unicode="&#x134;" horiz-adv-x="901" 
d="M143.5 102q-87.5 128 -89.5 378q0 7 4 11.5t11 4.5h35q16 0 16 -16q1 -145 28 -243t93.5 -152.5t182.5 -54.5q119 0 186 56.5t92.5 156.5t25.5 249v478l-2 415q0 7 4 11t11 4h39q7 0 11.5 -4t4.5 -11l-2 -415v-478q0 -256 -87.5 -387t-282.5 -131q-193 0 -280.5 128z
M483 1550l-2 8q0 9 9 13l245 119q8 4 19 4h16q12 0 20 -4l244 -119q9 -4 9 -13l-2 -8l-6 -12q-5 -10 -13 -10l-8 2l-252 106l-254 -104q-6 -2 -7 -2q-8 0 -13 10z" />
    <glyph glyph-name="jcircumflex" unicode="&#x135;" horiz-adv-x="325" 
d="M-67 1180q-2 6 -2 8q0 7 9 14l197 117q9 5 19 5h15q12 0 19 -5l197 -117q8 -5 8 -14l-2 -8l-6 -12q-4 -9 -13 -9q-5 0 -8 2l-202 105l-205 -103l-8 -2q-9 0 -13 9zM145 -340q-7 0 -11 4t-4 11l2 631l-2 709q0 7 4 11t11 4h35q7 0 11.5 -4t4.5 -11l-2 -709l2 -631
q0 -7 -4.5 -11t-11.5 -4h-35z" />
    <glyph glyph-name="uni0136" unicode="&#x136;" horiz-adv-x="1008" 
d="M977 19q3 -4 3 -9q0 -10 -14 -10h-47q-13 0 -19 10l-509 790l-195 -223l3 -561q0 -16 -16 -16h-39q-7 0 -11 4.5t-4 11.5l4 726l-4 643q0 7 4 11t11 4h39q7 0 11.5 -4t4.5 -11l-4 -643v-80l628 730q7 8 19 8h46q6 0 9.5 -2.5t3.5 -6.5q0 -3 -5 -10l-458 -527zM453 -400
q-14 0 -11 18l37 132v101q0 7 4.5 11t11.5 4h45q7 0 11 -4t4 -11v-90q0 -9 -5 -19l-71 -130q-7 -12 -18 -12h-8z" />
    <glyph glyph-name="uni0137" unicode="&#x137;" horiz-adv-x="833" 
d="M782 18q3 -4 3 -9q0 -11 -13 -11h-43q-12 0 -18 11l-371 602l-157 -155l3 -442q0 -16 -16 -16h-35q-7 0 -11 4.5t-4 11.5l4 674l-4 697q0 7 4 11t11 4h35q7 0 11.5 -4t4.5 -11l-4 -697l1 -162l487 496q7 8 19 8h47q14 0 14 -9q0 -4 -6 -10l-358 -354zM360 -400
q-14 0 -11 18l37 132v101q0 7 4.5 11t11.5 4h45q7 0 11 -4t4 -11v-90q0 -9 -5 -19l-71 -130q-7 -12 -18 -12h-8z" />
    <glyph glyph-name="Lacute" unicode="&#x139;" horiz-adv-x="918" 
d="M144 0q-7 0 -11 4.5t-4 11.5l4 756l-4 613q0 7 4 11t11 4h39q7 0 11.5 -4t4.5 -11l-4 -615l4 -714h672q7 0 11.5 -4t4.5 -11v-25q0 -16 -16 -16h-727zM69 1525l-8 -2q-9 0 -13 9l-5 10q-2 3 -2 10t8 11l388 200q3 2 9 2q7 0 12 -9l13 -24q2 -3 2 -9q0 -7 -8 -12z" />
    <glyph glyph-name="lacute" unicode="&#x13a;" horiz-adv-x="325" 
d="M145 0q-7 0 -11 4.5t-4 11.5l4 702l-4 667q0 7 4 11t11 4h35q7 0 11.5 -4t4.5 -11l-4 -663l4 -706q0 -16 -16 -16h-35zM11 1525l-8 -2q-9 0 -13 9l-5 10q-2 3 -2 10t8 11l388 200q3 2 9 2q7 0 12 -9l13 -24q2 -3 2 -9q0 -7 -8 -12z" />
    <glyph glyph-name="uni013B" unicode="&#x13b;" horiz-adv-x="918" 
d="M144 0q-7 0 -11 4.5t-4 11.5l4 756l-4 613q0 7 4 11t11 4h39q7 0 11.5 -4t4.5 -11l-4 -615l4 -714h672q7 0 11.5 -4t4.5 -11v-25q0 -16 -16 -16h-727zM467 -400q-14 0 -11 18l37 132v101q0 7 4.5 11t11.5 4h45q7 0 11 -4t4 -11v-90q0 -9 -5 -19l-71 -130q-7 -12 -18 -12
h-8z" />
    <glyph glyph-name="uni013C" unicode="&#x13c;" horiz-adv-x="325" 
d="M145 0q-7 0 -11 4.5t-4 11.5l4 702l-4 667q0 7 4 11t11 4h35q7 0 11.5 -4t4.5 -11l-4 -663l4 -706q0 -16 -16 -16h-35zM101 -400q-14 0 -11 18l37 132v101q0 7 4.5 11t11.5 4h45q7 0 11 -4t4 -11v-90q0 -9 -5 -19l-71 -130q-7 -12 -18 -12h-8z" />
    <glyph glyph-name="Lcaron" unicode="&#x13d;" horiz-adv-x="918" 
d="M144 0q-7 0 -11 4.5t-4 11.5l4 756l-4 613q0 7 4 11t11 4h39q7 0 11.5 -4t4.5 -11l-4 -615l4 -714h672q7 0 11.5 -4t4.5 -11v-25q0 -16 -16 -16h-727zM401 1063q-3 -13 -18 -13h-20q-16 0 -13 17l90 320q3 13 17 13h35q8 0 12 -5t1 -12z" />
    <glyph glyph-name="lcaron" unicode="&#x13e;" horiz-adv-x="325" 
d="M145 0q-7 0 -11 4.5t-4 11.5l4 702l-4 667q0 7 4 11t11 4h35q7 0 11.5 -4t4.5 -11l-4 -663l4 -706q0 -16 -16 -16h-35zM320 1132q-3 -13 -18 -13h-20q-16 0 -13 17l90 320q3 13 17 13h35q8 0 12 -5t1 -12z" />
    <glyph glyph-name="Ldot" unicode="&#x13f;" horiz-adv-x="918" 
d="M144 0q-7 0 -11 4.5t-4 11.5l4 756l-4 613q0 7 4 11t11 4h39q7 0 11.5 -4t4.5 -11l-4 -615l4 -714h672q7 0 11.5 -4t4.5 -11v-25q0 -16 -16 -16h-727zM590 749q-16 0 -16 16v83q0 7 4.5 11t11.5 4h35q7 0 11 -4t4 -11v-83q0 -7 -4 -11.5t-11 -4.5h-35z" />
    <glyph glyph-name="ldot" unicode="&#x140;" horiz-adv-x="391" 
d="M145 0q-7 0 -11 4.5t-4 11.5l4 702l-4 667q0 7 4 11t11 4h35q7 0 11.5 -4t4.5 -11l-4 -663l4 -706q0 -16 -16 -16h-35zM341 610q-16 0 -16 16v83q0 7 4.5 11t11.5 4h35q7 0 11 -4t4 -11v-83q0 -7 -4 -11.5t-11 -4.5h-35z" />
    <glyph glyph-name="Lslash" unicode="&#x141;" horiz-adv-x="928" 
d="M601 805q2 1 5 1q12 0 12 -14v-30q0 -14 -13 -18l-399 -125l3 -563h672q7 0 11.5 -4t4.5 -11v-25q0 -16 -16 -16h-727q-7 0 -11 4.5t-4 11.5l3 583l-145 -46q-2 -1 -5 -1q-12 0 -12 14v30q0 15 13 18l149 47l-3 724q0 7 4 11t11 4h39q7 0 11.5 -4t4.5 -11l-4 -704z" />
    <glyph glyph-name="lslash" unicode="&#x142;" horiz-adv-x="346" 
d="M335 749q4 3 8 3q5 0 8 -3.5t3 -10.5v-22q0 -10 -11 -18l-140 -82l3 -600q0 -7 -4 -11.5t-11 -4.5h-35q-16 0 -16 16l3 566l-131 -77q-4 -3 -9 -3t-8 4t-3 10v21q0 12 11 18l141 82v81l-4 667q0 7 4.5 11t11.5 4h35q7 0 11 -4t4 -11l-4 -663v-51z" />
    <glyph glyph-name="Nacute" unicode="&#x143;" horiz-adv-x="1302" 
d="M144 0q-16 0 -16 16l4 708l-2 661q0 7 4.5 11t11.5 4h36q14 0 19 -9l905 -1289l2 622l-4 661q0 7 4.5 11t11.5 4h39q7 0 11 -4t4 -11l-4 -661l2 -708q0 -7 -4 -11.5t-11 -4.5h-45q-13 0 -19 10l-897 1268l-2 -554l4 -708q0 -7 -4 -11.5t-11 -4.5h-39zM506 1525l-8 -2
q-9 0 -13 9l-5 10q-2 3 -2 10t8 11l388 200q3 2 9 2q7 0 12 -9l13 -24q2 -3 2 -9q0 -7 -8 -12z" />
    <glyph glyph-name="nacute" unicode="&#x144;" horiz-adv-x="979" 
d="M868 442l2 -426q0 -16 -16 -16h-35q-7 0 -11 4.5t-4 11.5l2 426v182q0 198 -72.5 286t-205.5 88q-116 0 -198 -77t-146 -223v-256l2 -426q0 -16 -16 -16h-35q-7 0 -11 4.5t-4 11.5l4 426l-4 573q0 7 4 11t11 4h35q7 0 11.5 -4t4.5 -11l-4 -215q49 107 138.5 180.5
t215.5 73.5q159 0 245.5 -104t86.5 -316v-192zM344 1155l-8 -2q-9 0 -13 9l-5 10q-2 3 -2 10t8 11l388 200q3 2 9 2q7 0 12 -9l13 -24q2 -3 2 -9q0 -7 -8 -12z" />
    <glyph glyph-name="uni0145" unicode="&#x145;" horiz-adv-x="1302" 
d="M144 0q-16 0 -16 16l4 708l-2 661q0 7 4.5 11t11.5 4h36q14 0 19 -9l905 -1289l2 622l-4 661q0 7 4.5 11t11.5 4h39q7 0 11 -4t4 -11l-4 -661l2 -708q0 -7 -4 -11.5t-11 -4.5h-45q-13 0 -19 10l-897 1268l-2 -554l4 -708q0 -7 -4 -11.5t-11 -4.5h-39zM590 -400
q-14 0 -11 18l37 132v101q0 7 4.5 11t11.5 4h45q7 0 11 -4t4 -11v-90q0 -9 -5 -19l-71 -130q-7 -12 -18 -12h-8z" />
    <glyph glyph-name="uni0146" unicode="&#x146;" horiz-adv-x="979" 
d="M868 442l2 -426q0 -16 -16 -16h-35q-7 0 -11 4.5t-4 11.5l2 426v182q0 198 -72.5 286t-205.5 88q-116 0 -198 -77t-146 -223v-256l2 -426q0 -16 -16 -16h-35q-7 0 -11 4.5t-4 11.5l4 426l-4 573q0 7 4 11t11 4h35q7 0 11.5 -4t4.5 -11l-4 -215q49 107 138.5 180.5
t215.5 73.5q159 0 245.5 -104t86.5 -316v-192zM434 -400q-14 0 -11 18l37 132v101q0 7 4.5 11t11.5 4h45q7 0 11 -4t4 -11v-90q0 -9 -5 -19l-71 -130q-7 -12 -18 -12h-8z" />
    <glyph glyph-name="Ncaron" unicode="&#x147;" horiz-adv-x="1302" 
d="M144 0q-16 0 -16 16l4 708l-2 661q0 7 4.5 11t11.5 4h36q14 0 19 -9l905 -1289l2 622l-4 661q0 7 4.5 11t11.5 4h39q7 0 11 -4t4 -11l-4 -661l2 -708q0 -7 -4 -11.5t-11 -4.5h-45q-13 0 -19 10l-897 1268l-2 -554l4 -708q0 -7 -4 -11.5t-11 -4.5h-39zM386 1639
q-9 5 -9 13l2 8l5 10q6 14 20 8l254 -104l252 106q6 2 9 2q8 0 12 -10l6 -12l2 -8q0 -8 -9 -13l-244 -119q-8 -4 -20 -4h-16q-11 0 -19 4z" />
    <glyph glyph-name="ncaron" unicode="&#x148;" horiz-adv-x="979" 
d="M868 442l2 -426q0 -16 -16 -16h-35q-7 0 -11 4.5t-4 11.5l2 426v182q0 198 -72.5 286t-205.5 88q-116 0 -198 -77t-146 -223v-256l2 -426q0 -16 -16 -16h-35q-7 0 -11 4.5t-4 11.5l4 426l-4 573q0 7 4 11t11 4h35q7 0 11.5 -4t4.5 -11l-4 -215q49 107 138.5 180.5
t215.5 73.5q159 0 245.5 -104t86.5 -316v-192zM224 1269q-9 5 -9 13l2 8l5 10q6 14 20 8l254 -104l252 106q6 2 9 2q8 0 12 -10l6 -12l2 -8q0 -8 -9 -13l-244 -119q-8 -4 -20 -4h-16q-11 0 -19 4z" />
    <glyph glyph-name="Eng" unicode="&#x14a;" horiz-adv-x="1302" 
d="M144 0q-16 0 -16 16l4 708l-2 661q0 7 4.5 11t11.5 4h36q14 0 19 -9l905 -1287l2 620l-4 661q0 7 4.5 11t11.5 4h39q7 0 11 -4t4 -11l-4 -661l2 -798q0 -101 -31 -165t-78.5 -92t-98.5 -29q-51 0 -86 13q-12 4 -12 18v25q0 7 4.5 11t12.5 2q33 -9 73 -9q152 0 152 226v64
l-912 1288l-2 -554l4 -708q0 -7 -4 -11.5t-11 -4.5h-39z" />
    <glyph glyph-name="eng" unicode="&#x14b;" horiz-adv-x="977" 
d="M576 -347q-12 4 -12 18v17q0 16 17 13q33 -9 73 -9q152 0 152 234v698q0 198 -72.5 286t-205.5 88q-116 0 -198 -77t-146 -223v-256l2 -426q0 -16 -16 -16h-35q-7 0 -11 4.5t-4 11.5l4 426l-4 573q0 7 4 11t11 4h35q7 0 11.5 -4t4.5 -11l-4 -215q49 107 138.5 180.5
t215.5 73.5q159 0 245.5 -104t86.5 -316v-708q0 -101 -30.5 -165t-77.5 -92t-98 -29q-51 0 -86 13z" />
    <glyph glyph-name="Omacron" unicode="&#x14c;" horiz-adv-x="1424" 
d="M380.5 67.5q-142.5 87.5 -221 250.5t-78.5 384t78.5 383t221.5 248.5t332 86.5t331.5 -86.5t220.5 -249t78 -384.5t-78.5 -384.5t-221.5 -249t-332 -86.5q-188 0 -330.5 87.5zM1008 115.5q127 79.5 196 229t69 355.5t-69 355.5t-196 229t-297 79.5t-296.5 -80
t-195 -229.5t-68.5 -354.5t69 -354.5t195.5 -229.5t295.5 -80q170 0 297 79.5zM471 1590q-16 0 -16 16v27q0 7 4.5 11t11.5 4h483q7 0 11 -4t4 -11v-27q0 -7 -4 -11.5t-11 -4.5h-483z" />
    <glyph glyph-name="omacron" unicode="&#x14d;" horiz-adv-x="1041" 
d="M278 46q-101 66 -153 186.5t-52 281.5t52 282t153 187.5t243 66.5t243 -66.5t153 -187.5t52 -282t-52 -281.5t-153 -186.5t-243 -66t-243 66zM731.5 91.5q85.5 59.5 128 168t42.5 254.5t-43 255t-128.5 169t-209.5 60t-209.5 -60t-128.5 -168.5t-43 -255.5t43 -255
t128.5 -167.5t209.5 -59.5q125 0 210.5 59.5zM279 1220q-16 0 -16 16v27q0 7 4.5 11t11.5 4h483q7 0 11 -4t4 -11v-27q0 -7 -4 -11.5t-11 -4.5h-483z" />
    <glyph glyph-name="Obreve" unicode="&#x14e;" horiz-adv-x="1424" 
d="M380.5 67.5q-142.5 87.5 -221 250.5t-78.5 384t78.5 383t221.5 248.5t332 86.5t331.5 -86.5t220.5 -249t78 -384.5t-78.5 -384.5t-221.5 -249t-332 -86.5q-188 0 -330.5 87.5zM1008 115.5q127 79.5 196 229t69 355.5t-69 355.5t-196 229t-297 79.5t-296.5 -80
t-195 -229.5t-68.5 -354.5t69 -354.5t195.5 -229.5t295.5 -80q170 0 297 79.5zM605.5 1545.5q-46.5 25.5 -73 70t-30.5 101.5v2q0 6 4 9.5t11 3.5h23q14 0 16 -15q4 -66 44.5 -105.5t112.5 -39.5q69 0 110.5 40t46.5 105q1 15 17 15h23q15 0 14 -15q-3 -57 -29.5 -101.5
t-73.5 -70t-108 -25.5t-107.5 25.5z" />
    <glyph glyph-name="obreve" unicode="&#x14f;" horiz-adv-x="1041" 
d="M278 46q-101 66 -153 186.5t-52 281.5t52 282t153 187.5t243 66.5t243 -66.5t153 -187.5t52 -282t-52 -281.5t-153 -186.5t-243 -66t-243 66zM731.5 91.5q85.5 59.5 128 168t42.5 254.5t-43 255t-128.5 169t-209.5 60t-209.5 -60t-128.5 -168.5t-43 -255.5t43 -255
t128.5 -167.5t209.5 -59.5q125 0 210.5 59.5zM413.5 1175.5q-46.5 25.5 -73 70t-30.5 101.5v2q0 6 4 9.5t11 3.5h23q14 0 16 -15q4 -66 44.5 -105.5t112.5 -39.5q69 0 110.5 40t46.5 105q1 15 17 15h23q15 0 14 -15q-3 -57 -29.5 -101.5t-73.5 -70t-108 -25.5t-107.5 25.5z
" />
    <glyph glyph-name="Ohungarumlaut" unicode="&#x150;" horiz-adv-x="1424" 
d="M380.5 67.5q-142.5 87.5 -221 250.5t-78.5 384t78.5 383t221.5 248.5t332 86.5t331.5 -86.5t220.5 -249t78 -384.5t-78.5 -384.5t-221.5 -249t-332 -86.5q-188 0 -330.5 87.5zM1008 115.5q127 79.5 196 229t69 355.5t-69 355.5t-196 229t-297 79.5t-296.5 -80
t-195 -229.5t-68.5 -354.5t69 -354.5t195.5 -229.5t295.5 -80q170 0 297 79.5zM596 1559q-5 -5 -11 -5q-4 0 -11 5l-7 7q-5 7 -5 11q0 5 5 10l220 261q4 7 10 7q5 0 11 -6l19 -18q5 -7 5 -11t-5 -11zM796 1559q-5 -5 -11 -5q-4 0 -11 5l-7 7q-5 7 -5 11q0 5 5 10l220 261
q4 7 10 7q5 0 11 -6l19 -18q5 -7 5 -11t-5 -11z" />
    <glyph glyph-name="ohungarumlaut" unicode="&#x151;" horiz-adv-x="1041" 
d="M278 46q-101 66 -153 186.5t-52 281.5t52 282t153 187.5t243 66.5t243 -66.5t153 -187.5t52 -282t-52 -281.5t-153 -186.5t-243 -66t-243 66zM731.5 91.5q85.5 59.5 128 168t42.5 254.5t-43 255t-128.5 169t-209.5 60t-209.5 -60t-128.5 -168.5t-43 -255.5t43 -255
t128.5 -167.5t209.5 -59.5q125 0 210.5 59.5zM404 1189q-5 -5 -11 -5q-4 0 -11 5l-7 7q-5 7 -5 11q0 5 5 10l220 261q4 7 10 7q5 0 11 -6l19 -18q5 -7 5 -11t-5 -11zM604 1189q-5 -5 -11 -5q-4 0 -11 5l-7 7q-5 7 -5 11q0 5 5 10l220 261q4 7 10 7q5 0 11 -6l19 -18
q5 -7 5 -11t-5 -11z" />
    <glyph glyph-name="OE" unicode="&#x152;" horiz-adv-x="2010" 
d="M1915 56q7 0 11.5 -4t4.5 -11v-25q0 -16 -16 -16h-1126q-181 0 -334 84t-244.5 245.5t-91.5 382.5q0 204 84.5 360t237.5 242t352 86h1106q7 0 11.5 -4t4.5 -11v-25q0 -16 -16 -16h-696l-4 -560h662q7 0 11.5 -4t4.5 -11v-25q0 -16 -16 -16h-662l4 -672h712zM1129 56
l4 686l-4 602h-348q-163 0 -297.5 -73t-214.5 -216t-80 -345q0 -216 86.5 -363.5t220.5 -219t277 -71.5h356z" />
    <glyph glyph-name="oe" unicode="&#x153;" horiz-adv-x="1841" 
d="M278 46q-101 66 -153 186.5t-52 281.5t52 282t153 187.5t243 66.5q163 0 272.5 -97t142.5 -279q24 115 80 199.5t139 130.5t186 46q129 0 224 -59t147 -172t55 -271q0 -16 -16 -16h-782q0 -247 99 -373.5t287 -126.5q149 0 236 84.5t113 237.5q3 14 17 14h28q8 0 12 -4.5
t3 -12.5q-30 -180 -132 -275.5t-277 -95.5q-173 0 -280.5 96.5t-140.5 270.5q-34 -173 -140.5 -270t-272.5 -97q-142 0 -243 66zM730.5 91.5q85.5 59.5 128 168t42.5 254.5t-42.5 255t-128 169t-209.5 60t-209.5 -60t-128 -168.5t-42.5 -255.5t42.5 -255t128 -167.5
t209.5 -59.5t209.5 59.5zM1155 947.5q-79 -50.5 -125.5 -142.5t-57.5 -217h727q0 117 -41.5 210t-122 146.5t-194.5 53.5q-107 0 -186 -50.5z" />
    <glyph glyph-name="Racute" unicode="&#x154;" horiz-adv-x="1128" 
d="M1046 19q3 -4 3 -9q0 -10 -13 -10h-46q-12 0 -18 10l-90 146l-298 478h-389l3 -618q0 -7 -4 -11.5t-11 -4.5h-39q-16 0 -16 16l4 728l-4 641q0 7 4.5 11t11.5 4h412q145 0 252 -43t165.5 -127.5t58.5 -207.5q0 -176 -100.5 -271.5t-274.5 -112.5zM198 1344l-4 -602v-52
h382q386 0 386 332q0 155 -101.5 238.5t-282.5 83.5h-380zM435 1525l-8 -2q-9 0 -13 9l-5 10q-2 3 -2 10t8 11l388 200q3 2 9 2q7 0 12 -9l13 -24q2 -3 2 -9q0 -7 -8 -12z" />
    <glyph glyph-name="racute" unicode="&#x155;" horiz-adv-x="632" 
d="M135 0q-7 0 -11 4.5t-4 11.5l4 520l-4 479q0 7 4 11t11 4h35q7 0 11.5 -4t4.5 -11l-6 -204q49 110 138 170.5t194 60.5q40 0 77 -8q13 -3 13 -18v-24q0 -8 -4.5 -11.5t-13.5 -1.5q-29 7 -81 7q-70 0 -133.5 -31.5t-113 -98t-74.5 -168.5l4 -672q0 -16 -16 -16h-35z
M210 1155l-8 -2q-9 0 -13 9l-5 10q-2 3 -2 10t8 11l388 200q3 2 9 2q7 0 12 -9l13 -24q2 -3 2 -9q0 -7 -8 -12z" />
    <glyph glyph-name="uni0156" unicode="&#x156;" horiz-adv-x="1128" 
d="M1046 19q3 -4 3 -9q0 -10 -13 -10h-46q-12 0 -18 10l-90 146l-298 478h-389l3 -618q0 -7 -4 -11.5t-11 -4.5h-39q-16 0 -16 16l4 728l-4 641q0 7 4.5 11t11.5 4h412q145 0 252 -43t165.5 -127.5t58.5 -207.5q0 -176 -100.5 -271.5t-274.5 -112.5zM198 1344l-4 -602v-52
h382q386 0 386 332q0 155 -101.5 238.5t-282.5 83.5h-380zM513 -400q-14 0 -11 18l37 132v101q0 7 4.5 11t11.5 4h45q7 0 11 -4t4 -11v-90q0 -9 -5 -19l-71 -130q-7 -12 -18 -12h-8z" />
    <glyph glyph-name="uni0157" unicode="&#x157;" horiz-adv-x="632" 
d="M135 0q-7 0 -11 4.5t-4 11.5l4 520l-4 479q0 7 4 11t11 4h35q7 0 11.5 -4t4.5 -11l-6 -204q49 110 138 170.5t194 60.5q40 0 77 -8q13 -3 13 -18v-24q0 -8 -4.5 -11.5t-13.5 -1.5q-29 7 -81 7q-70 0 -133.5 -31.5t-113 -98t-74.5 -168.5l4 -672q0 -16 -16 -16h-35z
M91 -400q-14 0 -11 18l37 132v101q0 7 4.5 11t11.5 4h45q7 0 11 -4t4 -11v-90q0 -9 -5 -19l-71 -130q-7 -12 -18 -12h-8z" />
    <glyph glyph-name="Rcaron" unicode="&#x158;" horiz-adv-x="1128" 
d="M1046 19q3 -4 3 -9q0 -10 -13 -10h-46q-12 0 -18 10l-90 146l-298 478h-389l3 -618q0 -7 -4 -11.5t-11 -4.5h-39q-16 0 -16 16l4 728l-4 641q0 7 4.5 11t11.5 4h412q145 0 252 -43t165.5 -127.5t58.5 -207.5q0 -176 -100.5 -271.5t-274.5 -112.5zM198 1344l-4 -602v-52
h382q386 0 386 332q0 155 -101.5 238.5t-282.5 83.5h-380zM294 1639q-9 5 -9 13l2 8l5 10q6 14 20 8l254 -104l252 106q6 2 9 2q8 0 12 -10l6 -12l2 -8q0 -8 -9 -13l-244 -119q-8 -4 -20 -4h-16q-11 0 -19 4z" />
    <glyph glyph-name="rcaron" unicode="&#x159;" horiz-adv-x="632" 
d="M135 0q-7 0 -11 4.5t-4 11.5l4 520l-4 479q0 7 4 11t11 4h35q7 0 11.5 -4t4.5 -11l-6 -204q49 110 138 170.5t194 60.5q40 0 77 -8q13 -3 13 -18v-24q0 -8 -4.5 -11.5t-13.5 -1.5q-29 7 -81 7q-70 0 -133.5 -31.5t-113 -98t-74.5 -168.5l4 -672q0 -16 -16 -16h-35z
M89 1269q-9 5 -9 13l2 8l5 10q6 14 20 8l254 -104l252 106q6 2 9 2q8 0 12 -10l6 -12l2 -8q0 -8 -9 -13l-244 -119q-8 -4 -20 -4h-16q-11 0 -19 4z" />
    <glyph glyph-name="Sacute" unicode="&#x15a;" horiz-adv-x="1177" 
d="M223 113.5q-131 129.5 -143 362.5q0 7 4 11.5t11 4.5h37q16 0 16 -15q12 -214 121.5 -324.5t338.5 -110.5q123 0 219.5 36.5t153.5 115t57 198.5q0 109 -61 170.5t-150.5 89t-241.5 54.5q-158 28 -251.5 57.5t-158.5 96.5t-65 186q0 121 60 204.5t164 125.5t236 42
q237 0 365 -107t140 -313v-2q0 -14 -15 -14h-37q-15 0 -16 16q-11 185 -116 273.5t-316 88.5q-188 0 -296.5 -78.5t-108.5 -233.5q0 -96 57 -151t141 -80t229 -51q163 -29 262.5 -61t169 -106t69.5 -207t-65.5 -225t-177.5 -137.5t-251 -45.5q-250 0 -381 129.5zM440 1525
l-8 -2q-9 0 -13 9l-5 10q-2 3 -2 10t8 11l388 200q3 2 9 2q7 0 12 -9l13 -24q2 -3 2 -9q0 -7 -8 -12z" />
    <glyph glyph-name="sacute" unicode="&#x15b;" horiz-adv-x="931" 
d="M179 73.5q-108 93.5 -112 282.5q0 15 15 15h29q16 0 16 -15q9 -324 354 -324q94 0 167.5 28.5t115 83t41.5 130.5q0 83 -47 129.5t-115 67t-185 41.5q-122 21 -195 44t-123.5 75.5t-50.5 146.5q0 87 46.5 148t129 92.5t188.5 31.5q107 0 192.5 -32.5t137.5 -101
t56 -170.5q0 -16 -16 -16h-29q-15 0 -15 16q-6 129 -96 190.5t-230 61.5q-141 0 -221.5 -56.5t-80.5 -163.5q0 -72 43 -112.5t106.5 -59t173.5 -37.5q128 -22 206 -47t132.5 -83.5t54.5 -164.5q0 -90 -51 -156.5t-138.5 -102t-196.5 -35.5q-194 0 -302 93.5zM315 1155l-8 -2
q-9 0 -13 9l-5 10q-2 3 -2 10t8 11l388 200q3 2 9 2q7 0 12 -9l13 -24q2 -3 2 -9q0 -7 -8 -12z" />
    <glyph glyph-name="Scircumflex" unicode="&#x15c;" horiz-adv-x="1177" 
d="M223 113.5q-131 129.5 -143 362.5q0 7 4 11.5t11 4.5h37q16 0 16 -15q12 -214 121.5 -324.5t338.5 -110.5q123 0 219.5 36.5t153.5 115t57 198.5q0 109 -61 170.5t-150.5 89t-241.5 54.5q-158 28 -251.5 57.5t-158.5 96.5t-65 186q0 121 60 204.5t164 125.5t236 42
q237 0 365 -107t140 -313v-2q0 -14 -15 -14h-37q-15 0 -16 16q-11 185 -116 273.5t-316 88.5q-188 0 -296.5 -78.5t-108.5 -233.5q0 -96 57 -151t141 -80t229 -51q163 -29 262.5 -61t169 -106t69.5 -207t-65.5 -225t-177.5 -137.5t-251 -45.5q-250 0 -381 129.5zM313 1550
l-2 8q0 9 9 13l245 119q8 4 19 4h16q12 0 20 -4l244 -119q9 -4 9 -13l-2 -8l-6 -12q-5 -10 -13 -10l-8 2l-252 106l-254 -104q-6 -2 -7 -2q-8 0 -13 10z" />
    <glyph glyph-name="scircumflex" unicode="&#x15d;" horiz-adv-x="931" 
d="M179 73.5q-108 93.5 -112 282.5q0 15 15 15h29q16 0 16 -15q9 -324 354 -324q94 0 167.5 28.5t115 83t41.5 130.5q0 83 -47 129.5t-115 67t-185 41.5q-122 21 -195 44t-123.5 75.5t-50.5 146.5q0 87 46.5 148t129 92.5t188.5 31.5q107 0 192.5 -32.5t137.5 -101
t56 -170.5q0 -16 -16 -16h-29q-15 0 -15 16q-6 129 -96 190.5t-230 61.5q-141 0 -221.5 -56.5t-80.5 -163.5q0 -72 43 -112.5t106.5 -59t173.5 -37.5q128 -22 206 -47t132.5 -83.5t54.5 -164.5q0 -90 -51 -156.5t-138.5 -102t-196.5 -35.5q-194 0 -302 93.5zM188 1180l-2 8
q0 9 9 13l245 119q8 4 19 4h16q12 0 20 -4l244 -119q9 -4 9 -13l-2 -8l-6 -12q-5 -10 -13 -10l-8 2l-252 106l-254 -104q-6 -2 -7 -2q-8 0 -13 10z" />
    <glyph glyph-name="Scedilla" unicode="&#x15e;" horiz-adv-x="1177" 
d="M1037 173.5q-61 -90.5 -166.5 -137t-237.5 -51.5l-93 -298q-3 -15 -19 -10l-30 10q-14 4 -10 20l100 277q-239 7 -364 136t-137 356q0 7 4 11.5t11 4.5h37q16 0 16 -15q12 -214 121.5 -324.5t338.5 -110.5q123 0 219.5 36.5t153.5 115t57 198.5q0 109 -61 170.5
t-150.5 89t-241.5 54.5q-158 28 -251.5 57.5t-158.5 96.5t-65 186q0 121 60 204.5t164 125.5t236 42q237 0 365 -107t140 -313v-2q0 -14 -15 -14h-37q-15 0 -16 16q-11 185 -116 273.5t-316 88.5q-188 0 -296.5 -78.5t-108.5 -233.5q0 -96 57 -151t141 -80t229 -51
q163 -29 262.5 -61t169 -106t69.5 -207q0 -128 -61 -218.5z" />
    <glyph glyph-name="scedilla" unicode="&#x15f;" horiz-adv-x="931" 
d="M817 119q-50 -66 -136.5 -102t-193.5 -37l-92 -293q-3 -15 -19 -10l-30 10q-14 4 -10 20l99 274q-173 11 -268.5 104.5t-99.5 270.5q0 15 15 15h29q16 0 16 -15q9 -324 354 -324q94 0 167.5 28.5t115 83t41.5 130.5q0 83 -47 129.5t-115 67t-185 41.5q-122 21 -195 44
t-123.5 75.5t-50.5 146.5q0 87 46.5 148t129 92.5t188.5 31.5q107 0 192.5 -32.5t137.5 -101t56 -170.5q0 -16 -16 -16h-29q-15 0 -15 16q-6 129 -96 190.5t-230 61.5q-141 0 -221.5 -56.5t-80.5 -163.5q0 -72 43 -112.5t106.5 -59t173.5 -37.5q128 -22 206 -47t132.5 -83.5
t54.5 -164.5q0 -89 -50 -155z" />
    <glyph glyph-name="Scaron" unicode="&#x160;" horiz-adv-x="1177" 
d="M223 113.5q-131 129.5 -143 362.5q0 7 4 11.5t11 4.5h37q16 0 16 -15q12 -214 121.5 -324.5t338.5 -110.5q123 0 219.5 36.5t153.5 115t57 198.5q0 109 -61 170.5t-150.5 89t-241.5 54.5q-158 28 -251.5 57.5t-158.5 96.5t-65 186q0 121 60 204.5t164 125.5t236 42
q237 0 365 -107t140 -313v-2q0 -14 -15 -14h-37q-15 0 -16 16q-11 185 -116 273.5t-316 88.5q-188 0 -296.5 -78.5t-108.5 -233.5q0 -96 57 -151t141 -80t229 -51q163 -29 262.5 -61t169 -106t69.5 -207t-65.5 -225t-177.5 -137.5t-251 -45.5q-250 0 -381 129.5zM320 1639
q-9 5 -9 13l2 8l5 10q6 14 20 8l254 -104l252 106q6 2 9 2q8 0 12 -10l6 -12l2 -8q0 -8 -9 -13l-244 -119q-8 -4 -20 -4h-16q-11 0 -19 4z" />
    <glyph glyph-name="scaron" unicode="&#x161;" horiz-adv-x="931" 
d="M179 73.5q-108 93.5 -112 282.5q0 15 15 15h29q16 0 16 -15q9 -324 354 -324q94 0 167.5 28.5t115 83t41.5 130.5q0 83 -47 129.5t-115 67t-185 41.5q-122 21 -195 44t-123.5 75.5t-50.5 146.5q0 87 46.5 148t129 92.5t188.5 31.5q107 0 192.5 -32.5t137.5 -101
t56 -170.5q0 -16 -16 -16h-29q-15 0 -15 16q-6 129 -96 190.5t-230 61.5q-141 0 -221.5 -56.5t-80.5 -163.5q0 -72 43 -112.5t106.5 -59t173.5 -37.5q128 -22 206 -47t132.5 -83.5t54.5 -164.5q0 -90 -51 -156.5t-138.5 -102t-196.5 -35.5q-194 0 -302 93.5zM195 1269
q-9 5 -9 13l2 8l5 10q6 14 20 8l254 -104l252 106q6 2 9 2q8 0 12 -10l6 -12l2 -8q0 -8 -9 -13l-244 -119q-8 -4 -20 -4h-16q-11 0 -19 4z" />
    <glyph glyph-name="uni0162" unicode="&#x162;" horiz-adv-x="948" 
d="M902 1400q7 0 11 -4t4 -11v-28q0 -7 -4 -11.5t-11 -4.5h-393l-4 -655l4 -670q0 -13 -12 -16l-94 -313q-3 -15 -19 -10l-30 10q-15 3 -10 20l103 295q-8 3 -8 14l4 670l-4 655h-392q-16 0 -16 16v28q0 7 4.5 11t11.5 4h855z" />
    <glyph glyph-name="uni0163" unicode="&#x163;" horiz-adv-x="563" 
d="M255 975v-713q0 -84 14.5 -131t46 -67t87.5 -20q61 0 97 8h4q13 0 13 -13v-24q0 -16 -10 -17q-65 -12 -100 -12h-17l-93 -299q-3 -15 -19 -10l-30 10q-14 4 -10 20l103 286q-71 17 -109.5 80.5t-38.5 188.5v713h-116q-7 0 -11.5 4t-4.5 11v25q0 7 4.5 11t11.5 4h116
l-2 243q0 7 4.5 11t11.5 4h35q7 0 11 -4t4 -11l-2 -243h247q7 0 11 -4t4 -11v-25q0 -7 -4 -11t-11 -4h-247z" />
    <glyph glyph-name="Tcaron" unicode="&#x164;" horiz-adv-x="948" 
d="M455 0q-16 0 -16 16l4 670l-4 655h-392q-16 0 -16 16v28q0 7 4.5 11t11.5 4h855q7 0 11 -4t4 -11v-28q0 -7 -4 -11.5t-11 -4.5h-393l-4 -655l4 -670q0 -7 -4 -11.5t-11 -4.5h-39zM203 1639q-9 5 -9 13l2 8l5 10q6 14 20 8l254 -104l252 106q6 2 9 2q8 0 12 -10l6 -12
l2 -8q0 -8 -9 -13l-244 -119q-8 -4 -20 -4h-16q-11 0 -19 4z" />
    <glyph glyph-name="tcaron" unicode="&#x165;" horiz-adv-x="563" 
d="M248.5 48.5q-55.5 62.5 -55.5 213.5v713h-116q-7 0 -11.5 4t-4.5 11v25q0 7 4.5 11t11.5 4h116l-2 243q0 7 4.5 11t11.5 4h35q7 0 11 -4t4 -11l-2 -243h247q7 0 11 -4t4 -11v-25q0 -7 -4 -11t-11 -4h-247v-713q0 -84 14.5 -131t46 -67t87.5 -20q61 0 97 8h4q13 0 13 -13
v-24q0 -16 -10 -17q-65 -12 -100 -12q-103 0 -158.5 62.5zM396 1132q-3 -13 -18 -13h-20q-16 0 -13 17l90 320q3 13 17 13h35q8 0 12 -5t1 -12z" />
    <glyph glyph-name="Tbar" unicode="&#x166;" horiz-adv-x="948" 
d="M902 1400q7 0 11 -4t4 -11v-28q0 -7 -4 -11.5t-11 -4.5h-393l-4 -659h248q7 0 11 -4t4 -11v-25q0 -7 -4 -11.5t-11 -4.5h-248l4 -610q0 -7 -4 -11.5t-11 -4.5h-39q-16 0 -16 16l4 610h-241q-16 0 -16 16v25q0 7 4.5 11t11.5 4h241l-4 659h-392q-16 0 -16 16v28
q0 7 4.5 11t11.5 4h855z" />
    <glyph glyph-name="tbar" unicode="&#x167;" horiz-adv-x="571" 
d="M255 975v-385h246q7 0 11.5 -4t4.5 -11v-25q0 -7 -4.5 -11t-11.5 -4h-246v-273q0 -84 14.5 -131t46 -67t87.5 -20q61 0 97 8h4q13 0 13 -13v-24q0 -16 -10 -17q-65 -12 -100 -12q-103 0 -158.5 62.5t-55.5 213.5v273h-115q-7 0 -11.5 4t-4.5 11v25q0 7 4.5 11t11.5 4h115
v385h-116q-7 0 -11.5 4t-4.5 11v25q0 7 4.5 11t11.5 4h116l-2 243q0 7 4.5 11t11.5 4h35q7 0 11 -4t4 -11l-2 -243h247q7 0 11 -4t4 -11v-25q0 -7 -4 -11t-11 -4h-247z" />
    <glyph glyph-name="Utilde" unicode="&#x168;" horiz-adv-x="1199" 
d="M247.5 127q-117.5 147 -117.5 413v506l-2 339q0 7 4 11t11 4h39q7 0 11.5 -4t4.5 -11l-2 -339v-506q0 -230 97.5 -367t306.5 -137t306.5 137t97.5 367v506l-2 339q0 7 4 11t11 4h39q7 0 11.5 -4t4.5 -11l-2 -339v-506q0 -266 -117.5 -413t-352.5 -147t-352.5 147z
M632 1560q-27 24 -57 69q-23 35 -40.5 52t-40.5 17q-39 0 -59 -34.5t-23 -95.5q0 -16 -15 -16h-21q-16 0 -16 16q3 80 37.5 130t96.5 50q33 0 57 -13.5t39.5 -32.5t34.5 -49q22 -35 38 -51t39 -16q42 0 63 35t23 96q0 15 16 15h21q7 0 11 -5t3 -14q-3 -79 -38 -128t-99 -49
q-43 0 -70 24z" />
    <glyph glyph-name="utilde" unicode="&#x169;" horiz-adv-x="979" 
d="M198.5 80q-86.5 104 -86.5 316v192l-2 427q0 7 4 11t11 4h35q7 0 11.5 -4t4.5 -11l-2 -427v-182q0 -198 72.5 -286t205.5 -88q116 0 198 77t146 223v256l-2 427q0 7 4 11t11 4h35q7 0 11.5 -4t4.5 -11l-4 -427l4 -572q0 -16 -16 -16h-35q-7 0 -11 4.5t-4 11.5l4 214
q-49 -107 -138.5 -180.5t-215.5 -73.5q-159 0 -245.5 104zM518 1190q-27 24 -57 69q-23 35 -40.5 52t-40.5 17q-39 0 -59 -34.5t-23 -95.5q0 -16 -15 -16h-21q-16 0 -16 16q3 80 37.5 130t96.5 50q33 0 57 -13.5t39.5 -32.5t34.5 -49q22 -35 38 -51t39 -16q42 0 63 35t23 96
q0 15 16 15h21q7 0 11 -5t3 -14q-3 -79 -38 -128t-99 -49q-43 0 -70 24z" />
    <glyph glyph-name="Umacron" unicode="&#x16a;" horiz-adv-x="1199" 
d="M247.5 127q-117.5 147 -117.5 413v506l-2 339q0 7 4 11t11 4h39q7 0 11.5 -4t4.5 -11l-2 -339v-506q0 -230 97.5 -367t306.5 -137t306.5 137t97.5 367v506l-2 339q0 7 4 11t11 4h39q7 0 11.5 -4t4.5 -11l-2 -339v-506q0 -266 -117.5 -413t-352.5 -147t-352.5 147z
M358 1590q-16 0 -16 16v27q0 7 4.5 11t11.5 4h483q7 0 11 -4t4 -11v-27q0 -7 -4 -11.5t-11 -4.5h-483z" />
    <glyph glyph-name="umacron" unicode="&#x16b;" horiz-adv-x="979" 
d="M198.5 80q-86.5 104 -86.5 316v192l-2 427q0 7 4 11t11 4h35q7 0 11.5 -4t4.5 -11l-2 -427v-182q0 -198 72.5 -286t205.5 -88q116 0 198 77t146 223v256l-2 427q0 7 4 11t11 4h35q7 0 11.5 -4t4.5 -11l-4 -427l4 -572q0 -16 -16 -16h-35q-7 0 -11 4.5t-4 11.5l4 214
q-49 -107 -138.5 -180.5t-215.5 -73.5q-159 0 -245.5 104zM244 1220q-16 0 -16 16v27q0 7 4.5 11t11.5 4h483q7 0 11 -4t4 -11v-27q0 -7 -4 -11.5t-11 -4.5h-483z" />
    <glyph glyph-name="Ubreve" unicode="&#x16c;" horiz-adv-x="1199" 
d="M247.5 127q-117.5 147 -117.5 413v506l-2 339q0 7 4 11t11 4h39q7 0 11.5 -4t4.5 -11l-2 -339v-506q0 -230 97.5 -367t306.5 -137t306.5 137t97.5 367v506l-2 339q0 7 4 11t11 4h39q7 0 11.5 -4t4.5 -11l-2 -339v-506q0 -266 -117.5 -413t-352.5 -147t-352.5 147z
M492.5 1545.5q-46.5 25.5 -73 70t-30.5 101.5v2q0 6 4 9.5t11 3.5h23q14 0 16 -15q4 -66 44.5 -105.5t112.5 -39.5q69 0 110.5 40t46.5 105q1 15 17 15h23q15 0 14 -15q-3 -57 -29.5 -101.5t-73.5 -70t-108 -25.5t-107.5 25.5z" />
    <glyph glyph-name="ubreve" unicode="&#x16d;" horiz-adv-x="979" 
d="M198.5 80q-86.5 104 -86.5 316v192l-2 427q0 7 4 11t11 4h35q7 0 11.5 -4t4.5 -11l-2 -427v-182q0 -198 72.5 -286t205.5 -88q116 0 198 77t146 223v256l-2 427q0 7 4 11t11 4h35q7 0 11.5 -4t4.5 -11l-4 -427l4 -572q0 -16 -16 -16h-35q-7 0 -11 4.5t-4 11.5l4 214
q-49 -107 -138.5 -180.5t-215.5 -73.5q-159 0 -245.5 104zM378.5 1175.5q-46.5 25.5 -73 70t-30.5 101.5v2q0 6 4 9.5t11 3.5h23q14 0 16 -15q4 -66 44.5 -105.5t112.5 -39.5q69 0 110.5 40t46.5 105q1 15 17 15h23q15 0 14 -15q-3 -57 -29.5 -101.5t-73.5 -70t-108 -25.5
t-107.5 25.5z" />
    <glyph glyph-name="Uring" unicode="&#x16e;" horiz-adv-x="1199" 
d="M247.5 127q-117.5 147 -117.5 413v506l-2 339q0 7 4 11t11 4h39q7 0 11.5 -4t4.5 -11l-2 -339v-506q0 -230 97.5 -367t306.5 -137t306.5 137t97.5 367v506l-2 339q0 7 4 11t11 4h39q7 0 11.5 -4t4.5 -11l-2 -339v-506q0 -266 -117.5 -413t-352.5 -147t-352.5 147z
M510.5 1542.5q-39.5 22.5 -62 62t-22.5 87.5t22.5 87.5t62 62t87.5 22.5t87.5 -22.5t62 -62t22.5 -87.5t-22.5 -87.5t-62 -62t-87.5 -22.5t-87.5 22.5zM687 1600q35 36 35 92q0 57 -35 92.5t-89 35.5q-55 0 -88.5 -35.5t-33.5 -92.5q0 -56 33.5 -92t88.5 -36q54 0 89 36z
" />
    <glyph glyph-name="uring" unicode="&#x16f;" horiz-adv-x="979" 
d="M198.5 80q-86.5 104 -86.5 316v192l-2 427q0 7 4 11t11 4h35q7 0 11.5 -4t4.5 -11l-2 -427v-182q0 -198 72.5 -286t205.5 -88q116 0 198 77t146 223v256l-2 427q0 7 4 11t11 4h35q7 0 11.5 -4t4.5 -11l-4 -427l4 -572q0 -16 -16 -16h-35q-7 0 -11 4.5t-4 11.5l4 214
q-49 -107 -138.5 -180.5t-215.5 -73.5q-159 0 -245.5 104zM396.5 1172.5q-39.5 22.5 -62 62t-22.5 87.5t22.5 87.5t62 62t87.5 22.5t87.5 -22.5t62 -62t22.5 -87.5t-22.5 -87.5t-62 -62t-87.5 -22.5t-87.5 22.5zM573 1230q35 36 35 92q0 57 -35 92.5t-89 35.5
q-55 0 -88.5 -35.5t-33.5 -92.5q0 -56 33.5 -92t88.5 -36q54 0 89 36z" />
    <glyph glyph-name="Uhungarumlaut" unicode="&#x170;" horiz-adv-x="1199" 
d="M247.5 127q-117.5 147 -117.5 413v506l-2 339q0 7 4 11t11 4h39q7 0 11.5 -4t4.5 -11l-2 -339v-506q0 -230 97.5 -367t306.5 -137t306.5 137t97.5 367v506l-2 339q0 7 4 11t11 4h39q7 0 11.5 -4t4.5 -11l-2 -339v-506q0 -266 -117.5 -413t-352.5 -147t-352.5 147z
M483 1559q-5 -5 -11 -5q-4 0 -11 5l-7 7q-5 7 -5 11q0 5 5 10l220 261q4 7 10 7q5 0 11 -6l19 -18q5 -7 5 -11t-5 -11zM683 1559q-5 -5 -11 -5q-4 0 -11 5l-7 7q-5 7 -5 11q0 5 5 10l220 261q4 7 10 7q5 0 11 -6l19 -18q5 -7 5 -11t-5 -11z" />
    <glyph glyph-name="uhungarumlaut" unicode="&#x171;" horiz-adv-x="979" 
d="M198.5 80q-86.5 104 -86.5 316v192l-2 427q0 7 4 11t11 4h35q7 0 11.5 -4t4.5 -11l-2 -427v-182q0 -198 72.5 -286t205.5 -88q116 0 198 77t146 223v256l-2 427q0 7 4 11t11 4h35q7 0 11.5 -4t4.5 -11l-4 -427l4 -572q0 -16 -16 -16h-35q-7 0 -11 4.5t-4 11.5l4 214
q-49 -107 -138.5 -180.5t-215.5 -73.5q-159 0 -245.5 104zM369 1189q-5 -5 -11 -5q-4 0 -11 5l-7 7q-5 7 -5 11q0 5 5 10l220 261q4 7 10 7q5 0 11 -6l19 -18q5 -7 5 -11t-5 -11zM569 1189q-5 -5 -11 -5q-4 0 -11 5l-7 7q-5 7 -5 11q0 5 5 10l220 261q4 7 10 7q5 0 11 -6
l19 -18q5 -7 5 -11t-5 -11z" />
    <glyph glyph-name="Uogonek" unicode="&#x172;" horiz-adv-x="1199" 
d="M1056 1400q7 0 11.5 -4t4.5 -11l-2 -339v-506q0 -259 -111 -405t-333 -155q-41 -27 -68 -65.5t-27 -86.5q0 -55 36 -83.5t96 -28.5h77q7 0 11 -4.5t4 -11.5v-25q0 -7 -4 -11t-11 -4h-77q-56 0 -99.5 19.5t-68 54.5t-24.5 80q0 50 24 92.5t64 74.5q-214 13 -321.5 159
t-107.5 400v506l-2 339q0 7 4 11t11 4h39q7 0 11.5 -4t4.5 -11l-2 -339v-506q0 -230 97.5 -367t306.5 -137t306.5 137t97.5 367v506l-2 339q0 7 4 11t11 4h39z" />
    <glyph glyph-name="uogonek" unicode="&#x173;" horiz-adv-x="979" 
d="M925 -284q7 0 11 -4.5t4 -11.5v-25q0 -7 -4 -11t-11 -4h-77q-56 0 -99.5 19.5t-68 54.5t-24.5 80q0 65 38.5 115.5t99.5 85.5v1l4 214q-49 -107 -138.5 -180.5t-215.5 -73.5q-159 0 -245.5 104t-86.5 316v192l-2 427q0 7 4 11t11 4h35q7 0 11.5 -4t4.5 -11l-2 -427v-182
q0 -198 72.5 -286t205.5 -88q116 0 198 77t146 223v256l-2 427q0 7 4 11t11 4h35q7 0 11.5 -4t4.5 -11l-4 -427l4 -572q0 -7 -4 -11.5t-11 -4.5q-50 -24 -89.5 -69t-39.5 -103q0 -55 36 -83.5t96 -28.5h77z" />
    <glyph glyph-name="Wcircumflex" unicode="&#x174;" horiz-adv-x="1674" 
d="M40 1383v5q0 12 13 12h36q14 0 18 -13l356 -1293l339 1293q3 13 17 13h44q14 0 18 -13l336 -1293l357 1293q3 13 17 13h30q8 0 11.5 -4.5t1.5 -12.5l-381 -1370q-4 -13 -18 -13h-40q-14 0 -17 13l-341 1293l-340 -1293q-4 -13 -18 -13h-40q-14 0 -17 13zM558 1550l-2 8
q0 9 9 13l245 119q8 4 19 4h16q12 0 20 -4l244 -119q9 -4 9 -13l-2 -8l-6 -12q-5 -10 -13 -10l-8 2l-252 106l-254 -104q-6 -2 -7 -2q-8 0 -13 10z" />
    <glyph glyph-name="wcircumflex" unicode="&#x175;" horiz-adv-x="1364" 
d="M40 1013q-1 2 -1 6q0 11 14 11h34q14 0 18 -13l286 -944l254 944q4 13 17 13h45q14 0 18 -13l274 -941l265 941q4 13 17 13h30q16 0 13 -17l-287 -1000q-4 -13 -18 -13h-44q-14 0 -17 13l-277 959l-250 -959q-4 -13 -18 -13h-42q-15 0 -18 13zM404 1180l-2 8q0 9 9 13
l245 119q8 4 19 4h16q12 0 20 -4l244 -119q9 -4 9 -13l-2 -8l-6 -12q-5 -10 -13 -10l-8 2l-252 106l-254 -104q-6 -2 -7 -2q-8 0 -13 10z" />
    <glyph glyph-name="Ycircumflex" unicode="&#x176;" horiz-adv-x="1036" 
d="M35 1382q-3 5 -3 8q0 10 14 10h43q14 0 19 -11l413 -810l414 810q6 11 19 11h36q9 0 12.5 -5t-0.5 -13l-455 -878l2 -488q0 -7 -4 -11.5t-11 -4.5h-39q-16 0 -16 16l2 496zM241 1550l-2 8q0 9 9 13l245 119q8 4 19 4h16q12 0 20 -4l244 -119q9 -4 9 -13l-2 -8l-6 -12
q-5 -10 -13 -10l-8 2l-252 106l-254 -104q-6 -2 -7 -2q-8 0 -13 10z" />
    <glyph glyph-name="ycircumflex" unicode="&#x177;" horiz-adv-x="874" 
d="M774 1017q4 13 18 13h38q8 0 12 -5t1 -13l-472 -1339q-3 -13 -17 -13h-28q-8 0 -11.5 5t-1.5 13l118 326l-399 1008q-1 2 -1 7t3.5 8t9.5 3h40q14 0 18 -12l359 -920zM160 1180l-2 8q0 9 9 13l245 119q8 4 19 4h16q12 0 20 -4l244 -119q9 -4 9 -13l-2 -8l-6 -12
q-5 -10 -13 -10l-8 2l-252 106l-254 -104q-6 -2 -7 -2q-8 0 -13 10z" />
    <glyph glyph-name="Ydieresis" unicode="&#x178;" horiz-adv-x="1036" 
d="M35 1382q-3 5 -3 8q0 10 14 10h43q14 0 19 -11l413 -810l414 810q6 11 19 11h36q9 0 12.5 -5t-0.5 -13l-455 -878l2 -488q0 -7 -4 -11.5t-11 -4.5h-39q-16 0 -16 16l2 496zM388 1550q-16 0 -16 16v83q0 7 4.5 11t11.5 4h51q7 0 11 -4t4 -11v-83q0 -7 -4 -11.5t-11 -4.5
h-51zM602 1550q-16 0 -16 16v83q0 7 4.5 11t11.5 4h51q7 0 11 -4t4 -11v-83q0 -7 -4 -11.5t-11 -4.5h-51z" />
    <glyph glyph-name="Zacute" unicode="&#x179;" horiz-adv-x="1096" 
d="M87 0q-16 0 -16 16v34q0 9 6 19l852 1275h-790q-16 0 -16 16v25q0 7 4.5 11t11.5 4h851q7 0 11 -4t4 -11v-35q0 -8 -6 -19l-852 -1275h863q7 0 11 -4t4 -11v-25q0 -7 -4 -11.5t-11 -4.5h-923zM397 1525l-8 -2q-9 0 -13 9l-5 10q-2 3 -2 10t8 11l388 200q3 2 9 2
q7 0 12 -9l13 -24q2 -3 2 -9q0 -7 -8 -12z" />
    <glyph glyph-name="zacute" unicode="&#x17a;" horiz-adv-x="862" 
d="M71 0q-16 0 -16 16v31q0 9 6 19l651 909h-597q-7 0 -11.5 4t-4.5 11v25q0 7 4.5 11t11.5 4h657q7 0 11 -4t4 -11v-28q0 -8 -6 -19l-654 -912h665q7 0 11 -4.5t4 -11.5v-24q0 -7 -4 -11.5t-11 -4.5h-721zM280 1155l-8 -2q-9 0 -13 9l-5 10q-2 3 -2 10t8 11l388 200
q3 2 9 2q7 0 12 -9l13 -24q2 -3 2 -9q0 -7 -8 -12z" />
    <glyph glyph-name="Zdotaccent" unicode="&#x17b;" horiz-adv-x="1096" 
d="M87 0q-16 0 -16 16v34q0 9 6 19l852 1275h-790q-16 0 -16 16v25q0 7 4.5 11t11.5 4h851q7 0 11 -4t4 -11v-35q0 -8 -6 -19l-852 -1275h863q7 0 11 -4t4 -11v-25q0 -7 -4 -11.5t-11 -4.5h-923zM533 1550q-16 0 -16 16v83q0 7 4.5 11t11.5 4h35q7 0 11 -4t4 -11v-83
q0 -7 -4 -11.5t-11 -4.5h-35z" />
    <glyph glyph-name="zdotaccent" unicode="&#x17c;" horiz-adv-x="862" 
d="M71 0q-16 0 -16 16v31q0 9 6 19l651 909h-597q-7 0 -11.5 4t-4.5 11v25q0 7 4.5 11t11.5 4h657q7 0 11 -4t4 -11v-28q0 -8 -6 -19l-654 -912h665q7 0 11 -4.5t4 -11.5v-24q0 -7 -4 -11.5t-11 -4.5h-721zM416 1180q-16 0 -16 16v83q0 7 4.5 11t11.5 4h35q7 0 11 -4t4 -11
v-83q0 -7 -4 -11.5t-11 -4.5h-35z" />
    <glyph glyph-name="Zcaron" unicode="&#x17d;" horiz-adv-x="1096" 
d="M87 0q-16 0 -16 16v34q0 9 6 19l852 1275h-790q-16 0 -16 16v25q0 7 4.5 11t11.5 4h851q7 0 11 -4t4 -11v-35q0 -8 -6 -19l-852 -1275h863q7 0 11 -4t4 -11v-25q0 -7 -4 -11.5t-11 -4.5h-923zM301 1639q-9 5 -9 13l2 8l5 10q6 14 20 8l254 -104l252 106q6 2 9 2
q8 0 12 -10l6 -12l2 -8q0 -8 -9 -13l-244 -119q-8 -4 -20 -4h-16q-11 0 -19 4z" />
    <glyph glyph-name="zcaron" unicode="&#x17e;" horiz-adv-x="862" 
d="M71 0q-16 0 -16 16v31q0 9 6 19l651 909h-597q-7 0 -11.5 4t-4.5 11v25q0 7 4.5 11t11.5 4h657q7 0 11 -4t4 -11v-28q0 -8 -6 -19l-654 -912h665q7 0 11 -4.5t4 -11.5v-24q0 -7 -4 -11.5t-11 -4.5h-721zM160 1269q-9 5 -9 13l2 8l5 10q6 14 20 8l254 -104l252 106
q6 2 9 2q8 0 12 -10l6 -12l2 -8q0 -8 -9 -13l-244 -119q-8 -4 -20 -4h-16q-11 0 -19 4z" />
    <glyph glyph-name="florin" unicode="&#x192;" horiz-adv-x="562" 
d="M280 1148v-118h225q7 0 11 -4t4 -11v-21q0 -7 -4 -11.5t-11 -4.5h-225v-1052q0 -101 -30.5 -165t-77.5 -92t-98 -29q-51 0 -86 13q-12 4 -12 18v17q0 7 4.5 11t12.5 2q33 -9 73 -9q152 0 152 234v1052h-152q-16 0 -16 16v21q0 7 4.5 11t11.5 4h152v118q0 101 30.5 165
t77.5 92t98 29q51 0 86 -13q12 -4 12 -18v-17q0 -7 -4.5 -11t-12.5 -2q-33 9 -73 9q-152 0 -152 -234z" />
    <glyph glyph-name="Ohorn" unicode="&#x1a0;" horiz-adv-x="1424" 
d="M1051 1330q139 -88 215.5 -249t76.5 -381q0 -222 -78.5 -384.5t-221.5 -249t-332 -86.5q-188 0 -330.5 87.5t-221 250.5t-78.5 384t78.5 383t221.5 248.5t332 86.5q157 0 284 -61l212 293q4 7 12 7q5 0 9 -3l25 -17q7 -5 7 -12q0 -4 -4 -10zM1008 115.5q127 79.5 196 229
t69 355.5t-69 355.5t-196 229t-297 79.5t-296.5 -80t-195 -229.5t-68.5 -354.5t69 -354.5t195.5 -229.5t295.5 -80q170 0 297 79.5z" />
    <glyph glyph-name="ohorn" unicode="&#x1a1;" horiz-adv-x="1041" 
d="M782 971q91 -67 139 -185t48 -272q0 -161 -52 -281.5t-153 -186.5t-243 -66t-243 66t-153 186.5t-52 281.5t52 282t153 187.5t243 66.5q121 0 213 -49q0 4 4 10l180 270q5 8 11 8q4 0 10 -4l24 -16q7 -6 7 -12q0 -4 -3 -10zM731.5 91.5q85.5 59.5 128 168t42.5 254.5
t-43 255t-128.5 169t-209.5 60t-209.5 -60t-128.5 -168.5t-43 -255.5t43 -255t128.5 -167.5t209.5 -59.5q125 0 210.5 59.5z" />
    <glyph glyph-name="Uhorn" unicode="&#x1af;" horiz-adv-x="1199" 
d="M1211 1639q7 -7 7 -13q0 -4 -3 -9l-146 -223q3 -3 3 -9l-2 -339v-506q0 -266 -117.5 -413t-352.5 -147t-352.5 147t-117.5 413v506l-2 339q0 7 4 11t11 4h39q7 0 11.5 -4t4.5 -11l-2 -339v-506q0 -230 97.5 -367t306.5 -137t306.5 137t97.5 367v506l-2 339q0 2 2 8v3
q0 4 4 14l157 241q5 8 12 8q4 0 10 -4z" />
    <glyph glyph-name="uhorn" unicode="&#x1b0;" horiz-adv-x="979" 
d="M1003 1269q7 -7 7 -13q0 -4 -3 -9l-148 -226q1 -2 1 -6l-4 -427l4 -572q0 -16 -16 -16h-35q-7 0 -11 4.5t-4 11.5l4 214q-49 -107 -138.5 -180.5t-215.5 -73.5q-159 0 -245.5 104t-86.5 316v192l-2 427q0 7 4 11t11 4h35q7 0 11.5 -4t4.5 -11l-2 -427v-182
q0 -198 72.5 -286t205.5 -88q116 0 198 77t146 223v256l-2 427q0 2 2 8v3q0 4 4 14l157 241q5 8 12 8q4 0 10 -4z" />
    <glyph glyph-name="uni0218" unicode="&#x218;" horiz-adv-x="1177" 
d="M223 113.5q-131 129.5 -143 362.5q0 7 4 11.5t11 4.5h37q16 0 16 -15q12 -214 121.5 -324.5t338.5 -110.5q123 0 219.5 36.5t153.5 115t57 198.5q0 109 -61 170.5t-150.5 89t-241.5 54.5q-158 28 -251.5 57.5t-158.5 96.5t-65 186q0 121 60 204.5t164 125.5t236 42
q237 0 365 -107t140 -313v-2q0 -14 -15 -14h-37q-15 0 -16 16q-11 185 -116 273.5t-316 88.5q-188 0 -296.5 -78.5t-108.5 -233.5q0 -96 57 -151t141 -80t229 -51q163 -29 262.5 -61t169 -106t69.5 -207t-65.5 -225t-177.5 -137.5t-251 -45.5q-250 0 -381 129.5zM550 -400
q-14 0 -11 18l37 132v101q0 7 4.5 11t11.5 4h45q7 0 11 -4t4 -11v-90q0 -9 -5 -19l-71 -130q-7 -12 -18 -12h-8z" />
    <glyph glyph-name="uni0219" unicode="&#x219;" horiz-adv-x="931" 
d="M179 73.5q-108 93.5 -112 282.5q0 15 15 15h29q16 0 16 -15q9 -324 354 -324q94 0 167.5 28.5t115 83t41.5 130.5q0 83 -47 129.5t-115 67t-185 41.5q-122 21 -195 44t-123.5 75.5t-50.5 146.5q0 87 46.5 148t129 92.5t188.5 31.5q107 0 192.5 -32.5t137.5 -101
t56 -170.5q0 -16 -16 -16h-29q-15 0 -15 16q-6 129 -96 190.5t-230 61.5q-141 0 -221.5 -56.5t-80.5 -163.5q0 -72 43 -112.5t106.5 -59t173.5 -37.5q128 -22 206 -47t132.5 -83.5t54.5 -164.5q0 -90 -51 -156.5t-138.5 -102t-196.5 -35.5q-194 0 -302 93.5zM405 -400
q-14 0 -11 18l37 132v101q0 7 4.5 11t11.5 4h45q7 0 11 -4t4 -11v-90q0 -9 -5 -19l-71 -130q-7 -12 -18 -12h-8z" />
    <glyph glyph-name="uni021A" unicode="&#x21a;" horiz-adv-x="948" 
d="M455 0q-16 0 -16 16l4 670l-4 655h-392q-16 0 -16 16v28q0 7 4.5 11t11.5 4h855q7 0 11 -4t4 -11v-28q0 -7 -4 -11.5t-11 -4.5h-393l-4 -655l4 -670q0 -7 -4 -11.5t-11 -4.5h-39zM413 -400q-14 0 -11 18l37 132v101q0 7 4.5 11t11.5 4h45q7 0 11 -4t4 -11v-90
q0 -9 -5 -19l-71 -130q-7 -12 -18 -12h-8z" />
    <glyph glyph-name="uni021B" unicode="&#x21b;" horiz-adv-x="563" 
d="M248.5 48.5q-55.5 62.5 -55.5 213.5v713h-116q-7 0 -11.5 4t-4.5 11v25q0 7 4.5 11t11.5 4h116l-2 243q0 7 4.5 11t11.5 4h35q7 0 11 -4t4 -11l-2 -243h247q7 0 11 -4t4 -11v-25q0 -7 -4 -11t-11 -4h-247v-713q0 -84 14.5 -131t46 -67t87.5 -20q61 0 97 8h4q13 0 13 -13
v-24q0 -16 -10 -17q-65 -12 -100 -12q-103 0 -158.5 62.5zM307 -400q-14 0 -11 18l37 132v101q0 7 4.5 11t11.5 4h45q7 0 11 -4t4 -11v-90q0 -9 -5 -19l-71 -130q-7 -12 -18 -12h-8z" />
    <glyph glyph-name="uni0237" unicode="&#x237;" horiz-adv-x="325" 
d="M145 -340q-7 0 -11 4t-4 11l2 631l-2 709q0 7 4 11t11 4h35q7 0 11.5 -4t4.5 -11l-2 -709l2 -631q0 -7 -4.5 -11t-11.5 -4h-35z" />
    <glyph glyph-name="uni0237" unicode="&#xf6be;" horiz-adv-x="325" 
d="M145 -340q-7 0 -11 4t-4 11l2 631l-2 709q0 7 4 11t11 4h35q7 0 11.5 -4t4.5 -11l-2 -709l2 -631q0 -7 -4.5 -11t-11.5 -4h-35z" />
    <glyph glyph-name="uni0259" unicode="&#x259;" horiz-adv-x="1013" 
d="M874 498q0 247 -99 373.5t-288 126.5q-149 0 -236 -84.5t-112 -236.5q-3 -15 -17 -15h-30q-8 0 -11.5 4.5t-2.5 12.5q30 180 132 275.5t277 95.5q146 0 248 -66t154 -186t52 -280q0 -157 -52.5 -279t-152 -190.5t-235.5 -68.5q-130 0 -225 59t-147 172t-54 272
q0 15 16 15h783zM760 141.5q95 109.5 111 300.5h-728q0 -117 41.5 -210t122 -146.5t194.5 -53.5q164 0 259 109.5z" />
    <glyph glyph-name="quoteleft" unicode="&#x2bb;" horiz-adv-x="228" 
d="M176 1400q14 0 11 -17l-37 -133v-100q0 -7 -4 -11.5t-11 -4.5h-45q-16 0 -16 16v90q0 9 5 19l71 130q6 11 18 11h8z" />
    <glyph glyph-name="quoteleft" unicode="&#x2018;" horiz-adv-x="228" 
d="M176 1400q14 0 11 -17l-37 -133v-100q0 -7 -4 -11.5t-11 -4.5h-45q-16 0 -16 16v90q0 9 5 19l71 130q6 11 18 11h8z" />
    <glyph glyph-name="circumflex" unicode="&#x2c6;" horiz-adv-x="772" 
d="M107 1180l-2 8q0 9 9 13l245 119q8 4 19 4h16q12 0 20 -4l244 -119q9 -4 9 -13l-2 -8l-6 -12q-5 -10 -13 -10l-8 2l-252 106l-254 -104q-6 -2 -7 -2q-8 0 -13 10z" />
    <glyph glyph-name="caron" unicode="&#x2c7;" horiz-adv-x="772" 
d="M114 1269q-9 5 -9 13l2 8l5 10q6 14 20 8l254 -104l252 106q6 2 9 2q8 0 12 -10l6 -12l2 -8q0 -8 -9 -13l-244 -119q-8 -4 -20 -4h-16q-11 0 -19 4z" />
    <glyph glyph-name="breve" unicode="&#x2d8;" horiz-adv-x="624" 
d="M204.5 1175.5q-46.5 25.5 -73 70t-30.5 101.5v2q0 6 4 9.5t11 3.5h23q14 0 16 -15q4 -66 44.5 -105.5t112.5 -39.5q69 0 110.5 40t46.5 105q1 15 17 15h23q15 0 14 -15q-3 -57 -29.5 -101.5t-73.5 -70t-108 -25.5t-107.5 25.5z" />
    <glyph glyph-name="dotaccent" unicode="&#x2d9;" horiz-adv-x="266" 
d="M116 1180q-16 0 -16 16v83q0 7 4.5 11t11.5 4h35q7 0 11 -4t4 -11v-83q0 -7 -4 -11.5t-11 -4.5h-35z" />
    <glyph glyph-name="ring" unicode="&#x2da;" horiz-adv-x="544" 
d="M184.5 1172.5q-39.5 22.5 -62 62t-22.5 87.5t22.5 87.5t62 62t87.5 22.5t87.5 -22.5t62 -62t22.5 -87.5t-22.5 -87.5t-62 -62t-87.5 -22.5t-87.5 22.5zM361 1230q35 36 35 92q0 57 -35 92.5t-89 35.5q-55 0 -88.5 -35.5t-33.5 -92.5q0 -56 33.5 -92t88.5 -36q54 0 89 36z
" />
    <glyph glyph-name="ogonek" unicode="&#x2db;" horiz-adv-x="484" 
d="M292 -340q-56 0 -99.5 19.5t-68 54.5t-24.5 80q0 74 49.5 129.5t122.5 88.5l8 2q8 0 13 -8l3 -5q3 -4 3 -9q0 -8 -8 -11q-51 -24 -91 -69t-40 -104q0 -55 36 -83.5t96 -28.5h77q7 0 11 -4.5t4 -11.5v-25q0 -7 -4 -11t-11 -4h-77z" />
    <glyph glyph-name="tilde" unicode="&#x2dc;" horiz-adv-x="680" 
d="M372 1190q-27 24 -57 69q-23 35 -40.5 52t-40.5 17q-39 0 -59 -34.5t-23 -95.5q0 -16 -15 -16h-21q-16 0 -16 16q3 80 37.5 130t96.5 50q33 0 57 -13.5t39.5 -32.5t34.5 -49q22 -35 38 -51t39 -16q42 0 63 35t23 96q0 15 16 15h21q7 0 11 -5t3 -14q-3 -79 -38 -128
t-99 -49q-43 0 -70 24z" />
    <glyph glyph-name="hungarumlaut" unicode="&#x2dd;" horiz-adv-x="680" 
d="M139 1189q-5 -5 -11 -5q-4 0 -11 5l-7 7q-5 7 -5 11q0 5 5 10l220 261q4 7 10 7q5 0 11 -6l19 -18q5 -7 5 -11t-5 -11zM339 1189q-5 -5 -11 -5q-4 0 -11 5l-7 7q-5 7 -5 11q0 5 5 10l220 261q4 7 10 7q5 0 11 -6l19 -18q5 -7 5 -11t-5 -11z" />
    <glyph glyph-name="gravecomb" unicode="&#x300;" 
d="M-113 1162q-5 -9 -13 -9l-8 2l-395 186q-13 7 -8 21l14 26q4 9 12 9q6 0 9 -2l388 -200q10 -4 10 -12q0 -4 -3 -9z" />
    <glyph glyph-name="acutecomb" unicode="&#x301;" 
d="M-510 1155l-8 -2q-9 0 -13 9l-5 10q-2 3 -2 10t8 11l388 200q3 2 9 2q7 0 12 -9l13 -24q2 -3 2 -9q0 -7 -8 -12z" />
    <glyph glyph-name="uni0302" unicode="&#x302;" 
d="M-665 1180l-2 8q0 9 9 13l245 119q8 4 19 4h16q12 0 20 -4l244 -119q9 -4 9 -13l-2 -8l-6 -12q-5 -10 -13 -10l-8 2l-252 106l-254 -104q-6 -2 -7 -2q-8 0 -13 10z" />
    <glyph glyph-name="tildecomb" unicode="&#x303;" 
d="M-308 1190q-27 24 -57 69q-23 35 -40.5 52t-40.5 17q-39 0 -59 -34.5t-23 -95.5q0 -16 -15 -16h-21q-16 0 -16 16q3 80 37.5 130t96.5 50q33 0 57 -13.5t39.5 -32.5t34.5 -49q22 -35 38 -51t39 -16q42 0 63 35t23 96q0 15 16 15h21q7 0 11 -5t3 -14q-3 -79 -38 -128
t-99 -49q-43 0 -70 24z" />
    <glyph glyph-name="uni0304" unicode="&#x304;" 
d="M-598 1220q-16 0 -16 16v27q0 7 4.5 11t11.5 4h483q7 0 11 -4t4 -11v-27q0 -7 -4 -11.5t-11 -4.5h-483z" />
    <glyph glyph-name="uni0306" unicode="&#x306;" 
d="M-419.5 1175.5q-46.5 25.5 -73 70t-30.5 101.5v2q0 6 4 9.5t11 3.5h23q14 0 16 -15q4 -66 44.5 -105.5t112.5 -39.5q69 0 110.5 40t46.5 105q1 15 17 15h23q15 0 14 -15q-3 -57 -29.5 -101.5t-73.5 -70t-108 -25.5t-107.5 25.5z" />
    <glyph glyph-name="uni0307" unicode="&#x307;" 
d="M-150 1180q-16 0 -16 16v83q0 7 4.5 11t11.5 4h35q7 0 11 -4t4 -11v-83q0 -7 -4 -11.5t-11 -4.5h-35z" />
    <glyph glyph-name="uni0308" unicode="&#x308;" 
d="M-380 1180q-16 0 -16 16v83q0 7 4.5 11t11.5 4h51q7 0 11 -4t4 -11v-83q0 -7 -4 -11.5t-11 -4.5h-51zM-166 1180q-16 0 -16 16v83q0 7 4.5 11t11.5 4h51q7 0 11 -4t4 -11v-83q0 -7 -4 -11.5t-11 -4.5h-51z" />
    <glyph glyph-name="hookabovecomb" unicode="&#x309;" 
d="M-272 1180q-8 0 -12 4.5t-2 11.5q4 29 21.5 48.5t49.5 43.5q32 23 47.5 41t15.5 45q0 32 -26.5 52t-73.5 20t-75 -20t-35 -55q-3 -15 -17 -15h-21q-8 0 -11.5 4.5t-2.5 11.5q8 57 50.5 90.5t111.5 33.5t110.5 -34t41.5 -88q0 -41 -20 -65.5t-58 -52.5q-26 -19 -39 -32
t-17 -30q-5 -14 -17 -14h-21z" />
    <glyph glyph-name="uni030A" unicode="&#x30a;" 
d="M-359.5 1172.5q-39.5 22.5 -62 62t-22.5 87.5t22.5 87.5t62 62t87.5 22.5t87.5 -22.5t62 -62t22.5 -87.5t-22.5 -87.5t-62 -62t-87.5 -22.5t-87.5 22.5zM-183 1230q35 36 35 92q0 57 -35 92.5t-89 35.5q-55 0 -88.5 -35.5t-33.5 -92.5q0 -56 33.5 -92t88.5 -36
q54 0 89 36z" />
    <glyph glyph-name="uni030B" unicode="&#x30b;" 
d="M-541 1189q-5 -5 -11 -5q-4 0 -11 5l-7 7q-5 7 -5 11q0 5 5 10l220 261q4 7 10 7q5 0 11 -6l19 -18q5 -7 5 -11t-5 -11zM-341 1189q-5 -5 -11 -5q-4 0 -11 5l-7 7q-5 7 -5 11q0 5 5 10l220 261q4 7 10 7q5 0 11 -6l19 -18q5 -7 5 -11t-5 -11z" />
    <glyph glyph-name="uni030C" unicode="&#x30c;" 
d="M-658 1269q-9 5 -9 13l2 8l5 10q6 14 20 8l254 -104l252 106q6 2 9 2q8 0 12 -10l6 -12l2 -8q0 -8 -9 -13l-244 -119q-8 -4 -20 -4h-16q-11 0 -19 4z" />
    <glyph glyph-name="uni0312" unicode="&#x312;" 
d="M-212 1180q-16 0 -16 16v86q0 9 5 19l71 130q6 11 18 11h15q8 0 12 -5.5t1 -12.5l-48 -132v-96q0 -7 -4 -11.5t-11 -4.5h-43z" />
    <glyph glyph-name="uni031B" unicode="&#x31b;" 
d="M-356 962q-6 -7 -11 -7q-7 0 -10 7l-18 28q-3 5 -3 10q0 6 4 11l180 270q5 8 11 8q4 0 10 -4l24 -16q7 -6 7 -12q0 -4 -3 -10z" />
    <glyph glyph-name="dotbelowcomb" unicode="&#x323;" 
d="M-150 -248q-16 0 -16 16v83q0 7 4.5 11t11.5 4h35q7 0 11 -4t4 -11v-83q0 -7 -4 -11.5t-11 -4.5h-35z" />
    <glyph glyph-name="uni0326" unicode="&#x326;" 
d="M-202 -400q-14 0 -11 18l37 132v101q0 7 4.5 11t11.5 4h45q7 0 11 -4t4 -11v-90q0 -9 -5 -19l-71 -130q-7 -12 -18 -12h-8z" />
    <glyph glyph-name="uni0327" unicode="&#x327;" 
d="M-198 -313q-3 -15 -19 -10l-30 10q-14 4 -10 20l109 302q4 9 13 9q5 0 8 -2l14 -7q12 -6 9 -21z" />
    <glyph glyph-name="uni0328" unicode="&#x328;" 
d="M-192 -340q-56 0 -99.5 19.5t-68 54.5t-24.5 80q0 74 49.5 129.5t122.5 88.5l8 2q8 0 13 -8l3 -5q3 -4 3 -9q0 -8 -8 -11q-51 -24 -91 -69t-40 -104q0 -55 36 -83.5t96 -28.5h77q7 0 11 -4.5t4 -11.5v-25q0 -7 -4 -11t-11 -4h-77z" />
    <glyph glyph-name="uni0394" unicode="&#x394;" horiz-adv-x="1174" 
d="M46 0q-16 0 -16 16v31q0 10 4 19l510 1322q5 12 17 12h52q13 0 17 -12l511 -1322q3 -10 3 -19v-31q0 -7 -4 -11.5t-11 -4.5h-1083zM1070 56l-486 1284l-486 -1284h972z" />
    <glyph glyph-name="uni0394" unicode="&#x2206;" horiz-adv-x="1174" 
d="M46 0q-16 0 -16 16v31q0 10 4 19l510 1322q5 12 17 12h52q13 0 17 -12l511 -1322q3 -10 3 -19v-31q0 -7 -4 -11.5t-11 -4.5h-1083zM1070 56l-486 1284l-486 -1284h972z" />
    <glyph glyph-name="uni03A9" unicode="&#x3a9;" horiz-adv-x="1462" 
d="M1333 60q7 0 11 -4t4 -11v-29q0 -7 -4 -11.5t-11 -4.5h-399q-16 0 -16 16v29q0 10 13 23q113 87 191 178.5t123.5 213.5t45.5 280q0 191 -66.5 330.5t-189 215t-287.5 78.5h-31q-166 -3 -288 -78.5t-188.5 -215t-66.5 -330.5q0 -158 45.5 -280t123 -214t190.5 -178
q13 -10 13 -23v-29q0 -7 -4 -11.5t-11 -4.5h-399q-16 0 -16 16v29q0 7 4.5 11t11.5 4h311q-164 127 -252.5 288.5t-88.5 391.5q0 207 76 359.5t214.5 235t324.5 85.5h31q185 -3 324 -85.5t214.5 -235t75.5 -359.5q0 -230 -88 -391.5t-252 -288.5h311z" />
    <glyph glyph-name="uni03A9" unicode="&#x2126;" horiz-adv-x="1462" 
d="M1333 60q7 0 11 -4t4 -11v-29q0 -7 -4 -11.5t-11 -4.5h-399q-16 0 -16 16v29q0 10 13 23q113 87 191 178.5t123.5 213.5t45.5 280q0 191 -66.5 330.5t-189 215t-287.5 78.5h-31q-166 -3 -288 -78.5t-188.5 -215t-66.5 -330.5q0 -158 45.5 -280t123 -214t190.5 -178
q13 -10 13 -23v-29q0 -7 -4 -11.5t-11 -4.5h-399q-16 0 -16 16v29q0 7 4.5 11t11.5 4h311q-164 127 -252.5 288.5t-88.5 391.5q0 207 76 359.5t214.5 235t324.5 85.5h31q185 -3 324 -85.5t214.5 -235t75.5 -359.5q0 -230 -88 -391.5t-252 -288.5h311z" />
    <glyph glyph-name="pi" unicode="&#x3c0;" horiz-adv-x="983" 
d="M136 0q-16 0 -16 16l4 426l-4 573q0 7 4.5 11t11.5 4h717q7 0 11 -4t4 -11v-573l2 -426q0 -7 -4 -11.5t-11 -4.5h-35q-16 0 -16 16l2 426v532h-622v-532l2 -426q0 -7 -4 -11.5t-11 -4.5h-35z" />
    <glyph glyph-name="Wgrave" unicode="&#x1e80;" horiz-adv-x="1674" 
d="M40 1383v5q0 12 13 12h36q14 0 18 -13l356 -1293l339 1293q3 13 17 13h44q14 0 18 -13l336 -1293l357 1293q3 13 17 13h30q8 0 11.5 -4.5t1.5 -12.5l-381 -1370q-4 -13 -18 -13h-40q-14 0 -17 13l-341 1293l-340 -1293q-4 -13 -18 -13h-40q-14 0 -17 13zM1000 1532
q-5 -9 -13 -9l-8 2l-395 186q-13 7 -8 21l14 26q4 9 12 9q6 0 9 -2l388 -200q10 -4 10 -12q0 -4 -3 -9z" />
    <glyph glyph-name="wgrave" unicode="&#x1e81;" horiz-adv-x="1364" 
d="M40 1013q-1 2 -1 6q0 11 14 11h34q14 0 18 -13l286 -944l254 944q4 13 17 13h45q14 0 18 -13l274 -941l265 941q4 13 17 13h30q16 0 13 -17l-287 -1000q-4 -13 -18 -13h-44q-14 0 -17 13l-277 959l-250 -959q-4 -13 -18 -13h-42q-15 0 -18 13zM846 1162q-5 -9 -13 -9
l-8 2l-395 186q-13 7 -8 21l14 26q4 9 12 9q6 0 9 -2l388 -200q10 -4 10 -12q0 -4 -3 -9z" />
    <glyph glyph-name="Wacute" unicode="&#x1e82;" horiz-adv-x="1674" 
d="M40 1383v5q0 12 13 12h36q14 0 18 -13l356 -1293l339 1293q3 13 17 13h44q14 0 18 -13l336 -1293l357 1293q3 13 17 13h30q8 0 11.5 -4.5t1.5 -12.5l-381 -1370q-4 -13 -18 -13h-40q-14 0 -17 13l-341 1293l-340 -1293q-4 -13 -18 -13h-40q-14 0 -17 13zM685 1525l-8 -2
q-9 0 -13 9l-5 10q-2 3 -2 10t8 11l388 200q3 2 9 2q7 0 12 -9l13 -24q2 -3 2 -9q0 -7 -8 -12z" />
    <glyph glyph-name="wacute" unicode="&#x1e83;" horiz-adv-x="1364" 
d="M40 1013q-1 2 -1 6q0 11 14 11h34q14 0 18 -13l286 -944l254 944q4 13 17 13h45q14 0 18 -13l274 -941l265 941q4 13 17 13h30q16 0 13 -17l-287 -1000q-4 -13 -18 -13h-44q-14 0 -17 13l-277 959l-250 -959q-4 -13 -18 -13h-42q-15 0 -18 13zM531 1155l-8 -2q-9 0 -13 9
l-5 10q-2 3 -2 10t8 11l388 200q3 2 9 2q7 0 12 -9l13 -24q2 -3 2 -9q0 -7 -8 -12z" />
    <glyph glyph-name="Wdieresis" unicode="&#x1e84;" horiz-adv-x="1674" 
d="M40 1383v5q0 12 13 12h36q14 0 18 -13l356 -1293l339 1293q3 13 17 13h44q14 0 18 -13l336 -1293l357 1293q3 13 17 13h30q8 0 11.5 -4.5t1.5 -12.5l-381 -1370q-4 -13 -18 -13h-40q-14 0 -17 13l-341 1293l-340 -1293q-4 -13 -18 -13h-40q-14 0 -17 13zM705 1550
q-16 0 -16 16v83q0 7 4.5 11t11.5 4h51q7 0 11 -4t4 -11v-83q0 -7 -4 -11.5t-11 -4.5h-51zM919 1550q-16 0 -16 16v83q0 7 4.5 11t11.5 4h51q7 0 11 -4t4 -11v-83q0 -7 -4 -11.5t-11 -4.5h-51z" />
    <glyph glyph-name="wdieresis" unicode="&#x1e85;" horiz-adv-x="1364" 
d="M40 1013q-1 2 -1 6q0 11 14 11h34q14 0 18 -13l286 -944l254 944q4 13 17 13h45q14 0 18 -13l274 -941l265 941q4 13 17 13h30q16 0 13 -17l-287 -1000q-4 -13 -18 -13h-44q-14 0 -17 13l-277 959l-250 -959q-4 -13 -18 -13h-42q-15 0 -18 13zM551 1180q-16 0 -16 16v83
q0 7 4.5 11t11.5 4h51q7 0 11 -4t4 -11v-83q0 -7 -4 -11.5t-11 -4.5h-51zM765 1180q-16 0 -16 16v83q0 7 4.5 11t11.5 4h51q7 0 11 -4t4 -11v-83q0 -7 -4 -11.5t-11 -4.5h-51z" />
    <glyph glyph-name="uni1EA0" unicode="&#x1ea0;" horiz-adv-x="1164" 
d="M1132 18q2 -4 2 -7q0 -5 -4 -8t-10 -3h-41q-13 0 -18 12l-173 480h-617l-174 -480q-3 -12 -17 -12h-36q-8 0 -11.5 5t-0.5 13l507 1370q3 12 17 12h52q14 0 17 -12zM868 548l-288 794l-289 -794h577zM562 -248q-16 0 -16 16v83q0 7 4.5 11t11.5 4h35q7 0 11 -4t4 -11v-83
q0 -7 -4 -11.5t-11 -4.5h-35z" />
    <glyph glyph-name="uni1EA1" unicode="&#x1ea1;" horiz-adv-x="1012" 
d="M888 538l4 -522q0 -7 -4 -11.5t-11 -4.5h-33q-16 0 -16 16l4 218q-47 -119 -137 -185.5t-217 -66.5q-128 0 -220 69.5t-139 190t-47 272.5q0 150 47.5 272t139 193t219.5 71q126 0 216 -62t138 -182l-4 209q0 7 4.5 11t11.5 4h33q7 0 11 -4t4 -11zM671 88q79 54 122 161
t43 262q0 152 -41.5 261.5t-120 167.5t-186.5 58q-118 0 -197 -63t-117.5 -170.5t-38.5 -240.5q0 -137 38 -247.5t116.5 -176.5t196.5 -66q106 0 185 54zM489 -248q-16 0 -16 16v83q0 7 4.5 11t11.5 4h35q7 0 11 -4t4 -11v-83q0 -7 -4 -11.5t-11 -4.5h-35z" />
    <glyph glyph-name="uni1EA2" unicode="&#x1ea2;" horiz-adv-x="1164" 
d="M1132 18q2 -4 2 -7q0 -5 -4 -8t-10 -3h-41q-13 0 -18 12l-173 480h-617l-174 -480q-3 -12 -17 -12h-36q-8 0 -11.5 5t-0.5 13l507 1370q3 12 17 12h52q14 0 17 -12zM868 548l-288 794l-289 -794h577zM573 1550q-8 0 -12 4.5t-2 11.5q4 29 21.5 48.5t49.5 43.5
q32 23 47.5 41t15.5 45q0 32 -26.5 52t-73.5 20t-75 -20t-35 -55q-3 -15 -17 -15h-21q-8 0 -11.5 4.5t-2.5 11.5q8 57 50.5 90.5t111.5 33.5t110.5 -34t41.5 -88q0 -41 -20 -65.5t-58 -52.5q-26 -19 -39 -32t-17 -30q-5 -14 -17 -14h-21z" />
    <glyph glyph-name="uni1EA3" unicode="&#x1ea3;" horiz-adv-x="1012" 
d="M888 538l4 -522q0 -7 -4 -11.5t-11 -4.5h-33q-16 0 -16 16l4 218q-47 -119 -137 -185.5t-217 -66.5q-128 0 -220 69.5t-139 190t-47 272.5q0 150 47.5 272t139 193t219.5 71q126 0 216 -62t138 -182l-4 209q0 7 4.5 11t11.5 4h33q7 0 11 -4t4 -11zM671 88q79 54 122 161
t43 262q0 152 -41.5 261.5t-120 167.5t-186.5 58q-118 0 -197 -63t-117.5 -170.5t-38.5 -240.5q0 -137 38 -247.5t116.5 -176.5t196.5 -66q106 0 185 54zM475 1180q-8 0 -12 4.5t-2 11.5q4 29 21.5 48.5t49.5 43.5q32 23 47.5 41t15.5 45q0 32 -26.5 52t-73.5 20t-75 -20
t-35 -55q-3 -15 -17 -15h-21q-8 0 -11.5 4.5t-2.5 11.5q8 57 50.5 90.5t111.5 33.5t110.5 -34t41.5 -88q0 -41 -20 -65.5t-58 -52.5q-26 -19 -39 -32t-17 -30q-5 -14 -17 -14h-21z" />
    <glyph glyph-name="uni1EA4" unicode="&#x1ea4;" horiz-adv-x="1164" 
d="M1132 18q2 -4 2 -7q0 -5 -4 -8t-10 -3h-41q-13 0 -18 12l-173 480h-617l-174 -480q-3 -12 -17 -12h-36q-8 0 -11.5 5t-0.5 13l507 1370q3 12 17 12h52q14 0 17 -12zM868 548l-288 794l-289 -794h577zM781 1673q-5 -6 -12 -6q-6 0 -10 4l-10 8q-6 6 -6 12t4 11l202 242
q4 6 11 6q4 0 11 -5l17 -15q5 -5 5 -11q0 -7 -4 -11zM304 1510l-2 8q0 9 9 13l245 119q8 4 19 4h16q12 0 20 -4l244 -119q9 -4 9 -13l-2 -8l-6 -12q-5 -10 -13 -10l-8 2l-252 106l-254 -104q-6 -2 -7 -2q-8 0 -13 10z" />
    <glyph glyph-name="uni1EA5" unicode="&#x1ea5;" horiz-adv-x="1012" 
d="M888 538l4 -522q0 -7 -4 -11.5t-11 -4.5h-33q-16 0 -16 16l4 218q-47 -119 -137 -185.5t-217 -66.5q-128 0 -220 69.5t-139 190t-47 272.5q0 150 47.5 272t139 193t219.5 71q126 0 216 -62t138 -182l-4 209q0 7 4.5 11t11.5 4h33q7 0 11 -4t4 -11zM671 88q79 54 122 161
t43 262q0 152 -41.5 261.5t-120 167.5t-186.5 58q-118 0 -197 -63t-117.5 -170.5t-38.5 -240.5q0 -137 38 -247.5t116.5 -176.5t196.5 -66q106 0 185 54zM683 1303q-5 -6 -12 -6q-6 0 -10 4l-10 8q-6 6 -6 12t4 11l202 242q4 6 11 6q4 0 11 -5l17 -15q5 -5 5 -11
q0 -7 -4 -11zM206 1140l-2 8q0 9 9 13l245 119q8 4 19 4h16q12 0 20 -4l244 -119q9 -4 9 -13l-2 -8l-6 -12q-5 -10 -13 -10l-8 2l-252 106l-254 -104q-6 -2 -7 -2q-8 0 -13 10z" />
    <glyph glyph-name="uni1EA6" unicode="&#x1ea6;" horiz-adv-x="1164" 
d="M1132 18q2 -4 2 -7q0 -5 -4 -8t-10 -3h-41q-13 0 -18 12l-173 480h-617l-174 -480q-3 -12 -17 -12h-36q-8 0 -11.5 5t-0.5 13l507 1370q3 12 17 12h52q14 0 17 -12zM868 548l-288 794l-289 -794h577zM802 1671q-4 -4 -10 -4q-8 0 -12 6l-208 235q-4 4 -4 11q0 6 5 11
l17 15q7 5 11 5q6 0 11 -6l203 -242q4 -4 4 -10q0 -7 -7 -13zM304 1510l-2 8q0 9 9 13l245 119q8 4 19 4h16q12 0 20 -4l244 -119q9 -4 9 -13l-2 -8l-6 -12q-5 -10 -13 -10l-8 2l-252 106l-254 -104q-6 -2 -7 -2q-8 0 -13 10z" />
    <glyph glyph-name="uni1EA7" unicode="&#x1ea7;" horiz-adv-x="1012" 
d="M888 538l4 -522q0 -7 -4 -11.5t-11 -4.5h-33q-16 0 -16 16l4 218q-47 -119 -137 -185.5t-217 -66.5q-128 0 -220 69.5t-139 190t-47 272.5q0 150 47.5 272t139 193t219.5 71q126 0 216 -62t138 -182l-4 209q0 7 4.5 11t11.5 4h33q7 0 11 -4t4 -11zM671 88q79 54 122 161
t43 262q0 152 -41.5 261.5t-120 167.5t-186.5 58q-118 0 -197 -63t-117.5 -170.5t-38.5 -240.5q0 -137 38 -247.5t116.5 -176.5t196.5 -66q106 0 185 54zM704 1301q-4 -4 -10 -4q-8 0 -12 6l-208 235q-4 4 -4 11q0 6 5 11l17 15q7 5 11 5q6 0 11 -6l203 -242q4 -4 4 -10
q0 -7 -7 -13zM206 1140l-2 8q0 9 9 13l245 119q8 4 19 4h16q12 0 20 -4l244 -119q9 -4 9 -13l-2 -8l-6 -12q-5 -10 -13 -10l-8 2l-252 106l-254 -104q-6 -2 -7 -2q-8 0 -13 10z" />
    <glyph glyph-name="uni1EA8" unicode="&#x1ea8;" horiz-adv-x="1164" 
d="M1132 18q2 -4 2 -7q0 -5 -4 -8t-10 -3h-41q-13 0 -18 12l-173 480h-617l-174 -480q-3 -12 -17 -12h-36q-8 0 -11.5 5t-0.5 13l507 1370q3 12 17 12h52q14 0 17 -12zM868 548l-288 794l-289 -794h577zM304 1510l-2 8q0 9 9 13l245 119q8 4 19 4h16q12 0 20 -4l244 -119
q9 -4 9 -13l-2 -8l-6 -12q-5 -10 -13 -10l-8 2l-252 106l-254 -104q-6 -2 -7 -2q-8 0 -13 10zM751 1674q-8 0 -12 4.5t-2 11.5q4 29 21.5 48.5t49.5 43.5q32 23 47.5 41t15.5 45q0 32 -26.5 52t-73.5 20t-75 -20t-35 -55q-3 -15 -17 -15h-21q-8 0 -11.5 4.5t-2.5 11.5
q8 57 50.5 90.5t111.5 33.5t110.5 -34t41.5 -88q0 -41 -20 -65.5t-58 -52.5q-26 -19 -39 -32t-17 -30q-5 -14 -17 -14h-21z" />
    <glyph glyph-name="uni1EA9" unicode="&#x1ea9;" horiz-adv-x="1012" 
d="M888 538l4 -522q0 -7 -4 -11.5t-11 -4.5h-33q-16 0 -16 16l4 218q-47 -119 -137 -185.5t-217 -66.5q-128 0 -220 69.5t-139 190t-47 272.5q0 150 47.5 272t139 193t219.5 71q126 0 216 -62t138 -182l-4 209q0 7 4.5 11t11.5 4h33q7 0 11 -4t4 -11zM671 88q79 54 122 161
t43 262q0 152 -41.5 261.5t-120 167.5t-186.5 58q-118 0 -197 -63t-117.5 -170.5t-38.5 -240.5q0 -137 38 -247.5t116.5 -176.5t196.5 -66q106 0 185 54zM206 1140l-2 8q0 9 9 13l245 119q8 4 19 4h16q12 0 20 -4l244 -119q9 -4 9 -13l-2 -8l-6 -12q-5 -10 -13 -10l-8 2
l-252 106l-254 -104q-6 -2 -7 -2q-8 0 -13 10zM653 1304q-8 0 -12 4.5t-2 11.5q4 29 21.5 48.5t49.5 43.5q32 23 47.5 41t15.5 45q0 32 -26.5 52t-73.5 20t-75 -20t-35 -55q-3 -15 -17 -15h-21q-8 0 -11.5 4.5t-2.5 11.5q8 57 50.5 90.5t111.5 33.5t110.5 -34t41.5 -88
q0 -41 -20 -65.5t-58 -52.5q-26 -19 -39 -32t-17 -30q-5 -14 -17 -14h-21z" />
    <glyph glyph-name="uni1EAA" unicode="&#x1eaa;" horiz-adv-x="1164" 
d="M1132 18q2 -4 2 -7q0 -5 -4 -8t-10 -3h-41q-13 0 -18 12l-173 480h-617l-174 -480q-3 -12 -17 -12h-36q-8 0 -11.5 5t-0.5 13l507 1370q3 12 17 12h52q14 0 17 -12zM868 548l-288 794l-289 -794h577zM304 1510l-2 8q0 9 9 13l245 119q8 4 19 4h16q12 0 20 -4l244 -119
q9 -4 9 -13l-2 -8l-6 -12q-5 -10 -13 -10l-8 2l-252 106l-254 -104q-6 -2 -7 -2q-8 0 -13 10zM615 1719q-27 24 -57 69q-23 35 -40.5 52t-40.5 17q-39 0 -59 -34.5t-23 -95.5q0 -16 -15 -16h-21q-16 0 -16 16q3 80 37.5 130t96.5 50q33 0 57 -13.5t39.5 -32.5t34.5 -49
q22 -35 38 -51t39 -16q42 0 63 35t23 96q0 15 16 15h21q7 0 11 -5t3 -14q-3 -79 -38 -128t-99 -49q-43 0 -70 24z" />
    <glyph glyph-name="uni1EAB" unicode="&#x1eab;" horiz-adv-x="1012" 
d="M888 538l4 -522q0 -7 -4 -11.5t-11 -4.5h-33q-16 0 -16 16l4 218q-47 -119 -137 -185.5t-217 -66.5q-128 0 -220 69.5t-139 190t-47 272.5q0 150 47.5 272t139 193t219.5 71q126 0 216 -62t138 -182l-4 209q0 7 4.5 11t11.5 4h33q7 0 11 -4t4 -11zM671 88q79 54 122 161
t43 262q0 152 -41.5 261.5t-120 167.5t-186.5 58q-118 0 -197 -63t-117.5 -170.5t-38.5 -240.5q0 -137 38 -247.5t116.5 -176.5t196.5 -66q106 0 185 54zM206 1140l-2 8q0 9 9 13l245 119q8 4 19 4h16q12 0 20 -4l244 -119q9 -4 9 -13l-2 -8l-6 -12q-5 -10 -13 -10l-8 2
l-252 106l-254 -104q-6 -2 -7 -2q-8 0 -13 10zM517 1349q-27 24 -57 69q-23 35 -40.5 52t-40.5 17q-39 0 -59 -34.5t-23 -95.5q0 -16 -15 -16h-21q-16 0 -16 16q3 80 37.5 130t96.5 50q33 0 57 -13.5t39.5 -32.5t34.5 -49q22 -35 38 -51t39 -16q42 0 63 35t23 96q0 15 16 15
h21q7 0 11 -5t3 -14q-3 -79 -38 -128t-99 -49q-43 0 -70 24z" />
    <glyph glyph-name="uni1EAC" unicode="&#x1eac;" horiz-adv-x="1164" 
d="M1132 18q2 -4 2 -7q0 -5 -4 -8t-10 -3h-41q-13 0 -18 12l-173 480h-617l-174 -480q-3 -12 -17 -12h-36q-8 0 -11.5 5t-0.5 13l507 1370q3 12 17 12h52q14 0 17 -12zM868 548l-288 794l-289 -794h577zM562 -248q-16 0 -16 16v83q0 7 4.5 11t11.5 4h35q7 0 11 -4t4 -11v-83
q0 -7 -4 -11.5t-11 -4.5h-35zM304 1550l-2 8q0 9 9 13l245 119q8 4 19 4h16q12 0 20 -4l244 -119q9 -4 9 -13l-2 -8l-6 -12q-5 -10 -13 -10l-8 2l-252 106l-254 -104q-6 -2 -7 -2q-8 0 -13 10z" />
    <glyph glyph-name="uni1EAD" unicode="&#x1ead;" horiz-adv-x="1012" 
d="M888 538l4 -522q0 -7 -4 -11.5t-11 -4.5h-33q-16 0 -16 16l4 218q-47 -119 -137 -185.5t-217 -66.5q-128 0 -220 69.5t-139 190t-47 272.5q0 150 47.5 272t139 193t219.5 71q126 0 216 -62t138 -182l-4 209q0 7 4.5 11t11.5 4h33q7 0 11 -4t4 -11zM671 88q79 54 122 161
t43 262q0 152 -41.5 261.5t-120 167.5t-186.5 58q-118 0 -197 -63t-117.5 -170.5t-38.5 -240.5q0 -137 38 -247.5t116.5 -176.5t196.5 -66q106 0 185 54zM489 -248q-16 0 -16 16v83q0 7 4.5 11t11.5 4h35q7 0 11 -4t4 -11v-83q0 -7 -4 -11.5t-11 -4.5h-35zM206 1180l-2 8
q0 9 9 13l245 119q8 4 19 4h16q12 0 20 -4l244 -119q9 -4 9 -13l-2 -8l-6 -12q-5 -10 -13 -10l-8 2l-252 106l-254 -104q-6 -2 -7 -2q-8 0 -13 10z" />
    <glyph glyph-name="uni1EAE" unicode="&#x1eae;" horiz-adv-x="1164" 
d="M1132 18q2 -4 2 -7q0 -5 -4 -8t-10 -3h-41q-13 0 -18 12l-173 480h-617l-174 -480q-3 -12 -17 -12h-36q-8 0 -11.5 5t-0.5 13l507 1370q3 12 17 12h52q14 0 17 -12zM868 548l-288 794l-289 -794h577zM581 1682q-4 -6 -11 -6q-4 0 -11 5l-10 8q-6 5 -6 11t4 11l202 242
q5 7 11 7q4 0 11 -5l17 -16q5 -5 5 -11t-4 -10zM475.5 1525.5q-46.5 25.5 -73 70t-30.5 101.5v2q0 6 4 9.5t11 3.5h23q14 0 16 -15q4 -66 44.5 -105.5t112.5 -39.5q69 0 110.5 40t46.5 105q1 15 17 15h23q15 0 14 -15q-3 -57 -29.5 -101.5t-73.5 -70t-108 -25.5t-107.5 25.5
z" />
    <glyph glyph-name="uni1EAF" unicode="&#x1eaf;" horiz-adv-x="1012" 
d="M888 538l4 -522q0 -7 -4 -11.5t-11 -4.5h-33q-16 0 -16 16l4 218q-47 -119 -137 -185.5t-217 -66.5q-128 0 -220 69.5t-139 190t-47 272.5q0 150 47.5 272t139 193t219.5 71q126 0 216 -62t138 -182l-4 209q0 7 4.5 11t11.5 4h33q7 0 11 -4t4 -11zM671 88q79 54 122 161
t43 262q0 152 -41.5 261.5t-120 167.5t-186.5 58q-118 0 -197 -63t-117.5 -170.5t-38.5 -240.5q0 -137 38 -247.5t116.5 -176.5t196.5 -66q106 0 185 54zM483 1312q-4 -6 -11 -6q-4 0 -11 5l-10 8q-6 5 -6 11t4 11l202 242q5 7 11 7q4 0 11 -5l17 -16q5 -5 5 -11t-4 -10z
M377.5 1155.5q-46.5 25.5 -73 70t-30.5 101.5v2q0 6 4 9.5t11 3.5h23q14 0 16 -15q4 -66 44.5 -105.5t112.5 -39.5q69 0 110.5 40t46.5 105q1 15 17 15h23q15 0 14 -15q-3 -57 -29.5 -101.5t-73.5 -70t-108 -25.5t-107.5 25.5z" />
    <glyph glyph-name="uni1EB0" unicode="&#x1eb0;" horiz-adv-x="1164" 
d="M1132 18q2 -4 2 -7q0 -5 -4 -8t-10 -3h-41q-13 0 -18 12l-173 480h-617l-174 -480q-3 -12 -17 -12h-36q-8 0 -11.5 5t-0.5 13l507 1370q3 12 17 12h52q14 0 17 -12zM868 548l-288 794l-289 -794h577zM606 1681q-7 -5 -11 -5q-8 0 -12 6l-207 236q-4 4 -4 10t5 11l17 16
q4 4 11 4t11 -6l202 -242q4 -5 4 -10q0 -7 -6 -12zM474.5 1525.5q-46.5 25.5 -73.5 70t-31 101.5q0 7 4 11t11 4h23q16 0 16 -15q5 -66 46 -105.5t112 -39.5q69 0 110.5 40t46.5 105q1 15 16 15h23q16 0 15 -15q-3 -57 -30 -101.5t-73.5 -70t-107.5 -25.5t-107.5 25.5z" />
    <glyph glyph-name="uni1EB1" unicode="&#x1eb1;" horiz-adv-x="1012" 
d="M888 538l4 -522q0 -7 -4 -11.5t-11 -4.5h-33q-16 0 -16 16l4 218q-47 -119 -137 -185.5t-217 -66.5q-128 0 -220 69.5t-139 190t-47 272.5q0 150 47.5 272t139 193t219.5 71q126 0 216 -62t138 -182l-4 209q0 7 4.5 11t11.5 4h33q7 0 11 -4t4 -11zM671 88q79 54 122 161
t43 262q0 152 -41.5 261.5t-120 167.5t-186.5 58q-118 0 -197 -63t-117.5 -170.5t-38.5 -240.5q0 -137 38 -247.5t116.5 -176.5t196.5 -66q106 0 185 54zM508 1311q-7 -5 -11 -5q-8 0 -12 6l-207 236q-4 4 -4 10t5 11l17 16q4 4 11 4t11 -6l202 -242q4 -5 4 -10q0 -7 -6 -12
zM376.5 1155.5q-46.5 25.5 -73.5 70t-31 101.5q0 7 4 11t11 4h23q16 0 16 -15q5 -66 46 -105.5t112 -39.5q69 0 110.5 40t46.5 105q1 15 16 15h23q16 0 15 -15q-3 -57 -30 -101.5t-73.5 -70t-107.5 -25.5t-107.5 25.5z" />
    <glyph glyph-name="uni1EB2" unicode="&#x1eb2;" horiz-adv-x="1164" 
d="M1132 18q2 -4 2 -7q0 -5 -4 -8t-10 -3h-41q-13 0 -18 12l-173 480h-617l-174 -480q-3 -12 -17 -12h-36q-8 0 -11.5 5t-0.5 13l507 1370q3 12 17 12h52q14 0 17 -12zM868 548l-288 794l-289 -794h577zM475.5 1525.5q-46.5 25.5 -73 70t-30.5 101.5v2q0 6 4 9.5t11 3.5h23
q14 0 16 -15q4 -66 44.5 -105.5t112.5 -39.5q69 0 110.5 40t46.5 105q1 15 17 15h23q15 0 14 -15q-3 -57 -29.5 -101.5t-73.5 -70t-108 -25.5t-107.5 25.5zM572 1685q-8 0 -12 4.5t-2 11.5q4 29 21.5 48.5t49.5 43.5q32 23 47.5 41t15.5 45q0 32 -26.5 52t-73.5 20t-75 -20
t-35 -55q-3 -15 -17 -15h-21q-8 0 -11.5 4.5t-2.5 11.5q8 57 50.5 90.5t111.5 33.5t110.5 -34t41.5 -88q0 -41 -20 -65.5t-58 -52.5q-26 -19 -39 -32t-17 -30q-5 -14 -17 -14h-21z" />
    <glyph glyph-name="uni1EB3" unicode="&#x1eb3;" horiz-adv-x="1012" 
d="M888 538l4 -522q0 -7 -4 -11.5t-11 -4.5h-33q-16 0 -16 16l4 218q-47 -119 -137 -185.5t-217 -66.5q-128 0 -220 69.5t-139 190t-47 272.5q0 150 47.5 272t139 193t219.5 71q126 0 216 -62t138 -182l-4 209q0 7 4.5 11t11.5 4h33q7 0 11 -4t4 -11zM671 88q79 54 122 161
t43 262q0 152 -41.5 261.5t-120 167.5t-186.5 58q-118 0 -197 -63t-117.5 -170.5t-38.5 -240.5q0 -137 38 -247.5t116.5 -176.5t196.5 -66q106 0 185 54zM377.5 1155.5q-46.5 25.5 -73 70t-30.5 101.5v2q0 6 4 9.5t11 3.5h23q14 0 16 -15q4 -66 44.5 -105.5t112.5 -39.5
q69 0 110.5 40t46.5 105q1 15 17 15h23q15 0 14 -15q-3 -57 -29.5 -101.5t-73.5 -70t-108 -25.5t-107.5 25.5zM474 1315q-8 0 -12 4.5t-2 11.5q4 29 21.5 48.5t49.5 43.5q32 23 47.5 41t15.5 45q0 32 -26.5 52t-73.5 20t-75 -20t-35 -55q-3 -15 -17 -15h-21q-8 0 -11.5 4.5
t-2.5 11.5q8 57 50.5 90.5t111.5 33.5t110.5 -34t41.5 -88q0 -41 -20 -65.5t-58 -52.5q-26 -19 -39 -32t-17 -30q-5 -14 -17 -14h-21z" />
    <glyph glyph-name="uni1EB4" unicode="&#x1eb4;" horiz-adv-x="1164" 
d="M1132 18q2 -4 2 -7q0 -5 -4 -8t-10 -3h-41q-13 0 -18 12l-173 480h-617l-174 -480q-3 -12 -17 -12h-36q-8 0 -11.5 5t-0.5 13l507 1370q3 12 17 12h52q14 0 17 -12zM868 548l-288 794l-289 -794h577zM610 1773.5q-23 20.5 -48 59.5q-19 29 -33.5 43.5t-35.5 14.5
q-35 0 -51.5 -28t-18.5 -80q0 -16 -15 -16h-21q-16 0 -16 16q3 71 34 114.5t88 43.5q41 0 64 -20.5t46 -58.5q17 -29 32 -44t38 -15q34 0 51 28.5t19 78.5q0 15 16 15h21q7 0 11 -5t3 -14q-3 -68 -34.5 -110.5t-86.5 -42.5q-40 0 -63 20.5zM475.5 1525.5q-46.5 25.5 -73 70
t-30.5 101.5v2q0 6 4 9.5t11 3.5h23q14 0 16 -15q4 -66 44.5 -105.5t112.5 -39.5q69 0 110.5 40t46.5 105q1 15 17 15h23q15 0 14 -15q-3 -57 -29.5 -101.5t-73.5 -70t-108 -25.5t-107.5 25.5z" />
    <glyph glyph-name="uni1EB5" unicode="&#x1eb5;" horiz-adv-x="1012" 
d="M888 538l4 -522q0 -7 -4 -11.5t-11 -4.5h-33q-16 0 -16 16l4 218q-47 -119 -137 -185.5t-217 -66.5q-128 0 -220 69.5t-139 190t-47 272.5q0 150 47.5 272t139 193t219.5 71q126 0 216 -62t138 -182l-4 209q0 7 4.5 11t11.5 4h33q7 0 11 -4t4 -11zM671 88q79 54 122 161
t43 262q0 152 -41.5 261.5t-120 167.5t-186.5 58q-118 0 -197 -63t-117.5 -170.5t-38.5 -240.5q0 -137 38 -247.5t116.5 -176.5t196.5 -66q106 0 185 54zM512 1403.5q-23 20.5 -48 59.5q-19 29 -33.5 43.5t-35.5 14.5q-35 0 -51.5 -28t-18.5 -80q0 -16 -15 -16h-21
q-16 0 -16 16q3 71 34 114.5t88 43.5q41 0 64 -20.5t46 -58.5q17 -29 32 -44t38 -15q34 0 51 28.5t19 78.5q0 15 16 15h21q7 0 11 -5t3 -14q-3 -68 -34.5 -110.5t-86.5 -42.5q-40 0 -63 20.5zM377.5 1155.5q-46.5 25.5 -73 70t-30.5 101.5v2q0 6 4 9.5t11 3.5h23
q14 0 16 -15q4 -66 44.5 -105.5t112.5 -39.5q69 0 110.5 40t46.5 105q1 15 17 15h23q15 0 14 -15q-3 -57 -29.5 -101.5t-73.5 -70t-108 -25.5t-107.5 25.5z" />
    <glyph glyph-name="uni1EB6" unicode="&#x1eb6;" horiz-adv-x="1164" 
d="M1132 18q2 -4 2 -7q0 -5 -4 -8t-10 -3h-41q-13 0 -18 12l-173 480h-617l-174 -480q-3 -12 -17 -12h-36q-8 0 -11.5 5t-0.5 13l507 1370q3 12 17 12h52q14 0 17 -12zM868 548l-288 794l-289 -794h577zM562 -248q-16 0 -16 16v83q0 7 4.5 11t11.5 4h35q7 0 11 -4t4 -11v-83
q0 -7 -4 -11.5t-11 -4.5h-35zM475.5 1545.5q-46.5 25.5 -73 70t-30.5 101.5v2q0 6 4 9.5t11 3.5h23q14 0 16 -15q4 -66 44.5 -105.5t112.5 -39.5q69 0 110.5 40t46.5 105q1 15 17 15h23q15 0 14 -15q-3 -57 -29.5 -101.5t-73.5 -70t-108 -25.5t-107.5 25.5z" />
    <glyph glyph-name="uni1EB7" unicode="&#x1eb7;" horiz-adv-x="1012" 
d="M888 538l4 -522q0 -7 -4 -11.5t-11 -4.5h-33q-16 0 -16 16l4 218q-47 -119 -137 -185.5t-217 -66.5q-128 0 -220 69.5t-139 190t-47 272.5q0 150 47.5 272t139 193t219.5 71q126 0 216 -62t138 -182l-4 209q0 7 4.5 11t11.5 4h33q7 0 11 -4t4 -11zM671 88q79 54 122 161
t43 262q0 152 -41.5 261.5t-120 167.5t-186.5 58q-118 0 -197 -63t-117.5 -170.5t-38.5 -240.5q0 -137 38 -247.5t116.5 -176.5t196.5 -66q106 0 185 54zM489 -248q-16 0 -16 16v83q0 7 4.5 11t11.5 4h35q7 0 11 -4t4 -11v-83q0 -7 -4 -11.5t-11 -4.5h-35zM377.5 1175.5
q-46.5 25.5 -73 70t-30.5 101.5v2q0 6 4 9.5t11 3.5h23q14 0 16 -15q4 -66 44.5 -105.5t112.5 -39.5q69 0 110.5 40t46.5 105q1 15 17 15h23q15 0 14 -15q-3 -57 -29.5 -101.5t-73.5 -70t-108 -25.5t-107.5 25.5z" />
    <glyph glyph-name="uni1EB8" unicode="&#x1eb8;" horiz-adv-x="1006" 
d="M144 0q-16 0 -16 16l4 734l-4 635q0 7 4.5 11t11.5 4h751q7 0 11 -4t4 -11v-25q0 -7 -4 -11.5t-11 -4.5h-697l-4 -560h663q7 0 11 -4t4 -11v-25q0 -7 -4 -11.5t-11 -4.5h-663l4 -672h713q7 0 11 -4t4 -11v-25q0 -7 -4 -11.5t-11 -4.5h-767zM530 -248q-16 0 -16 16v83
q0 7 4.5 11t11.5 4h35q7 0 11 -4t4 -11v-83q0 -7 -4 -11.5t-11 -4.5h-35z" />
    <glyph glyph-name="uni1EB9" unicode="&#x1eb9;" horiz-adv-x="1013" 
d="M139 532q0 -247 99 -373.5t288 -126.5q149 0 236 84.5t113 237.5q2 14 17 14h29q8 0 12 -4.5t3 -12.5q-31 -180 -133 -275.5t-277 -95.5q-146 0 -248 66t-154 186t-52 280q0 157 52.5 279t152 190.5t235.5 68.5q130 0 225 -59t147 -172t54 -271q0 -16 -15 -16h-784z
M253 888.5q-95 -109.5 -111 -300.5h728q0 117 -41.5 210t-122 146.5t-194.5 53.5q-164 0 -259 -109.5zM490 -248q-16 0 -16 16v83q0 7 4.5 11t11.5 4h35q7 0 11 -4t4 -11v-83q0 -7 -4 -11.5t-11 -4.5h-35z" />
    <glyph glyph-name="uni1EBA" unicode="&#x1eba;" horiz-adv-x="1006" 
d="M144 0q-16 0 -16 16l4 734l-4 635q0 7 4.5 11t11.5 4h751q7 0 11 -4t4 -11v-25q0 -7 -4 -11.5t-11 -4.5h-697l-4 -560h663q7 0 11 -4t4 -11v-25q0 -7 -4 -11.5t-11 -4.5h-663l4 -672h713q7 0 11 -4t4 -11v-25q0 -7 -4 -11.5t-11 -4.5h-767zM525 1550q-8 0 -12 4.5
t-2 11.5q4 29 21.5 48.5t49.5 43.5q32 23 47.5 41t15.5 45q0 32 -26.5 52t-73.5 20t-75 -20t-35 -55q-3 -15 -17 -15h-21q-8 0 -11.5 4.5t-2.5 11.5q8 57 50.5 90.5t111.5 33.5t110.5 -34t41.5 -88q0 -41 -20 -65.5t-58 -52.5q-26 -19 -39 -32t-17 -30q-5 -14 -17 -14h-21z
" />
    <glyph glyph-name="uni1EBB" unicode="&#x1ebb;" horiz-adv-x="1013" 
d="M139 532q0 -247 99 -373.5t288 -126.5q149 0 236 84.5t113 237.5q2 14 17 14h29q8 0 12 -4.5t3 -12.5q-31 -180 -133 -275.5t-277 -95.5q-146 0 -248 66t-154 186t-52 280q0 157 52.5 279t152 190.5t235.5 68.5q130 0 225 -59t147 -172t54 -271q0 -16 -15 -16h-784z
M253 888.5q-95 -109.5 -111 -300.5h728q0 117 -41.5 210t-122 146.5t-194.5 53.5q-164 0 -259 -109.5zM502 1180q-8 0 -12 4.5t-2 11.5q4 29 21.5 48.5t49.5 43.5q32 23 47.5 41t15.5 45q0 32 -26.5 52t-73.5 20t-75 -20t-35 -55q-3 -15 -17 -15h-21q-8 0 -11.5 4.5
t-2.5 11.5q8 57 50.5 90.5t111.5 33.5t110.5 -34t41.5 -88q0 -41 -20 -65.5t-58 -52.5q-26 -19 -39 -32t-17 -30q-5 -14 -17 -14h-21z" />
    <glyph glyph-name="uni1EBC" unicode="&#x1ebc;" horiz-adv-x="1006" 
d="M144 0q-16 0 -16 16l4 734l-4 635q0 7 4.5 11t11.5 4h751q7 0 11 -4t4 -11v-25q0 -7 -4 -11.5t-11 -4.5h-697l-4 -560h663q7 0 11 -4t4 -11v-25q0 -7 -4 -11.5t-11 -4.5h-663l4 -672h713q7 0 11 -4t4 -11v-25q0 -7 -4 -11.5t-11 -4.5h-767zM567 1560q-27 24 -57 69
q-23 35 -40.5 52t-40.5 17q-39 0 -59 -34.5t-23 -95.5q0 -16 -15 -16h-21q-16 0 -16 16q3 80 37.5 130t96.5 50q33 0 57 -13.5t39.5 -32.5t34.5 -49q22 -35 38 -51t39 -16q42 0 63 35t23 96q0 15 16 15h21q7 0 11 -5t3 -14q-3 -79 -38 -128t-99 -49q-43 0 -70 24z" />
    <glyph glyph-name="uni1EBD" unicode="&#x1ebd;" horiz-adv-x="1013" 
d="M139 532q0 -247 99 -373.5t288 -126.5q149 0 236 84.5t113 237.5q2 14 17 14h29q8 0 12 -4.5t3 -12.5q-31 -180 -133 -275.5t-277 -95.5q-146 0 -248 66t-154 186t-52 280q0 157 52.5 279t152 190.5t235.5 68.5q130 0 225 -59t147 -172t54 -271q0 -16 -15 -16h-784z
M253 888.5q-95 -109.5 -111 -300.5h728q0 117 -41.5 210t-122 146.5t-194.5 53.5q-164 0 -259 -109.5zM544 1190q-27 24 -57 69q-23 35 -40.5 52t-40.5 17q-39 0 -59 -34.5t-23 -95.5q0 -16 -15 -16h-21q-16 0 -16 16q3 80 37.5 130t96.5 50q33 0 57 -13.5t39.5 -32.5
t34.5 -49q22 -35 38 -51t39 -16q42 0 63 35t23 96q0 15 16 15h21q7 0 11 -5t3 -14q-3 -79 -38 -128t-99 -49q-43 0 -70 24z" />
    <glyph glyph-name="uni1EBE" unicode="&#x1ebe;" horiz-adv-x="1006" 
d="M144 0q-16 0 -16 16l4 734l-4 635q0 7 4.5 11t11.5 4h751q7 0 11 -4t4 -11v-25q0 -7 -4 -11.5t-11 -4.5h-697l-4 -560h663q7 0 11 -4t4 -11v-25q0 -7 -4 -11.5t-11 -4.5h-663l4 -672h713q7 0 11 -4t4 -11v-25q0 -7 -4 -11.5t-11 -4.5h-767zM733 1673q-5 -6 -12 -6
q-6 0 -10 4l-10 8q-6 6 -6 12t4 11l202 242q4 6 11 6q4 0 11 -5l17 -15q5 -5 5 -11q0 -7 -4 -11zM256 1510l-2 8q0 9 9 13l245 119q8 4 19 4h16q12 0 20 -4l244 -119q9 -4 9 -13l-2 -8l-6 -12q-5 -10 -13 -10l-8 2l-252 106l-254 -104q-6 -2 -7 -2q-8 0 -13 10z" />
    <glyph glyph-name="uni1EBF" unicode="&#x1ebf;" horiz-adv-x="1013" 
d="M139 532q0 -247 99 -373.5t288 -126.5q149 0 236 84.5t113 237.5q2 14 17 14h29q8 0 12 -4.5t3 -12.5q-31 -180 -133 -275.5t-277 -95.5q-146 0 -248 66t-154 186t-52 280q0 157 52.5 279t152 190.5t235.5 68.5q130 0 225 -59t147 -172t54 -271q0 -16 -15 -16h-784z
M253 888.5q-95 -109.5 -111 -300.5h728q0 117 -41.5 210t-122 146.5t-194.5 53.5q-164 0 -259 -109.5zM710 1303q-5 -6 -12 -6q-6 0 -10 4l-10 8q-6 6 -6 12t4 11l202 242q4 6 11 6q4 0 11 -5l17 -15q5 -5 5 -11q0 -7 -4 -11zM233 1140l-2 8q0 9 9 13l245 119q8 4 19 4h16
q12 0 20 -4l244 -119q9 -4 9 -13l-2 -8l-6 -12q-5 -10 -13 -10l-8 2l-252 106l-254 -104q-6 -2 -7 -2q-8 0 -13 10z" />
    <glyph glyph-name="uni1EC0" unicode="&#x1ec0;" horiz-adv-x="1006" 
d="M144 0q-16 0 -16 16l4 734l-4 635q0 7 4.5 11t11.5 4h751q7 0 11 -4t4 -11v-25q0 -7 -4 -11.5t-11 -4.5h-697l-4 -560h663q7 0 11 -4t4 -11v-25q0 -7 -4 -11.5t-11 -4.5h-663l4 -672h713q7 0 11 -4t4 -11v-25q0 -7 -4 -11.5t-11 -4.5h-767zM754 1671q-4 -4 -10 -4
q-8 0 -12 6l-208 235q-4 4 -4 11q0 6 5 11l17 15q7 5 11 5q6 0 11 -6l203 -242q4 -4 4 -10q0 -7 -7 -13zM256 1510l-2 8q0 9 9 13l245 119q8 4 19 4h16q12 0 20 -4l244 -119q9 -4 9 -13l-2 -8l-6 -12q-5 -10 -13 -10l-8 2l-252 106l-254 -104q-6 -2 -7 -2q-8 0 -13 10z" />
    <glyph glyph-name="uni1EC1" unicode="&#x1ec1;" horiz-adv-x="1013" 
d="M139 532q0 -247 99 -373.5t288 -126.5q149 0 236 84.5t113 237.5q2 14 17 14h29q8 0 12 -4.5t3 -12.5q-31 -180 -133 -275.5t-277 -95.5q-146 0 -248 66t-154 186t-52 280q0 157 52.5 279t152 190.5t235.5 68.5q130 0 225 -59t147 -172t54 -271q0 -16 -15 -16h-784z
M253 888.5q-95 -109.5 -111 -300.5h728q0 117 -41.5 210t-122 146.5t-194.5 53.5q-164 0 -259 -109.5zM731 1301q-4 -4 -10 -4q-8 0 -12 6l-208 235q-4 4 -4 11q0 6 5 11l17 15q7 5 11 5q6 0 11 -6l203 -242q4 -4 4 -10q0 -7 -7 -13zM233 1140l-2 8q0 9 9 13l245 119
q8 4 19 4h16q12 0 20 -4l244 -119q9 -4 9 -13l-2 -8l-6 -12q-5 -10 -13 -10l-8 2l-252 106l-254 -104q-6 -2 -7 -2q-8 0 -13 10z" />
    <glyph glyph-name="uni1EC2" unicode="&#x1ec2;" horiz-adv-x="1006" 
d="M144 0q-16 0 -16 16l4 734l-4 635q0 7 4.5 11t11.5 4h751q7 0 11 -4t4 -11v-25q0 -7 -4 -11.5t-11 -4.5h-697l-4 -560h663q7 0 11 -4t4 -11v-25q0 -7 -4 -11.5t-11 -4.5h-663l4 -672h713q7 0 11 -4t4 -11v-25q0 -7 -4 -11.5t-11 -4.5h-767zM256 1510l-2 8q0 9 9 13
l245 119q8 4 19 4h16q12 0 20 -4l244 -119q9 -4 9 -13l-2 -8l-6 -12q-5 -10 -13 -10l-8 2l-252 106l-254 -104q-6 -2 -7 -2q-8 0 -13 10zM703 1674q-8 0 -12 4.5t-2 11.5q4 29 21.5 48.5t49.5 43.5q32 23 47.5 41t15.5 45q0 32 -26.5 52t-73.5 20t-75 -20t-35 -55
q-3 -15 -17 -15h-21q-8 0 -11.5 4.5t-2.5 11.5q8 57 50.5 90.5t111.5 33.5t110.5 -34t41.5 -88q0 -41 -20 -65.5t-58 -52.5q-26 -19 -39 -32t-17 -30q-5 -14 -17 -14h-21z" />
    <glyph glyph-name="uni1EC3" unicode="&#x1ec3;" horiz-adv-x="1013" 
d="M139 532q0 -247 99 -373.5t288 -126.5q149 0 236 84.5t113 237.5q2 14 17 14h29q8 0 12 -4.5t3 -12.5q-31 -180 -133 -275.5t-277 -95.5q-146 0 -248 66t-154 186t-52 280q0 157 52.5 279t152 190.5t235.5 68.5q130 0 225 -59t147 -172t54 -271q0 -16 -15 -16h-784z
M253 888.5q-95 -109.5 -111 -300.5h728q0 117 -41.5 210t-122 146.5t-194.5 53.5q-164 0 -259 -109.5zM233 1140l-2 8q0 9 9 13l245 119q8 4 19 4h16q12 0 20 -4l244 -119q9 -4 9 -13l-2 -8l-6 -12q-5 -10 -13 -10l-8 2l-252 106l-254 -104q-6 -2 -7 -2q-8 0 -13 10z
M680 1304q-8 0 -12 4.5t-2 11.5q4 29 21.5 48.5t49.5 43.5q32 23 47.5 41t15.5 45q0 32 -26.5 52t-73.5 20t-75 -20t-35 -55q-3 -15 -17 -15h-21q-8 0 -11.5 4.5t-2.5 11.5q8 57 50.5 90.5t111.5 33.5t110.5 -34t41.5 -88q0 -41 -20 -65.5t-58 -52.5q-26 -19 -39 -32
t-17 -30q-5 -14 -17 -14h-21z" />
    <glyph glyph-name="uni1EC4" unicode="&#x1ec4;" horiz-adv-x="1006" 
d="M144 0q-16 0 -16 16l4 734l-4 635q0 7 4.5 11t11.5 4h751q7 0 11 -4t4 -11v-25q0 -7 -4 -11.5t-11 -4.5h-697l-4 -560h663q7 0 11 -4t4 -11v-25q0 -7 -4 -11.5t-11 -4.5h-663l4 -672h713q7 0 11 -4t4 -11v-25q0 -7 -4 -11.5t-11 -4.5h-767zM256 1510l-2 8q0 9 9 13
l245 119q8 4 19 4h16q12 0 20 -4l244 -119q9 -4 9 -13l-2 -8l-6 -12q-5 -10 -13 -10l-8 2l-252 106l-254 -104q-6 -2 -7 -2q-8 0 -13 10zM567 1719q-27 24 -57 69q-23 35 -40.5 52t-40.5 17q-39 0 -59 -34.5t-23 -95.5q0 -16 -15 -16h-21q-16 0 -16 16q3 80 37.5 130
t96.5 50q33 0 57 -13.5t39.5 -32.5t34.5 -49q22 -35 38 -51t39 -16q42 0 63 35t23 96q0 15 16 15h21q7 0 11 -5t3 -14q-3 -79 -38 -128t-99 -49q-43 0 -70 24z" />
    <glyph glyph-name="uni1EC5" unicode="&#x1ec5;" horiz-adv-x="1013" 
d="M139 532q0 -247 99 -373.5t288 -126.5q149 0 236 84.5t113 237.5q2 14 17 14h29q8 0 12 -4.5t3 -12.5q-31 -180 -133 -275.5t-277 -95.5q-146 0 -248 66t-154 186t-52 280q0 157 52.5 279t152 190.5t235.5 68.5q130 0 225 -59t147 -172t54 -271q0 -16 -15 -16h-784z
M253 888.5q-95 -109.5 -111 -300.5h728q0 117 -41.5 210t-122 146.5t-194.5 53.5q-164 0 -259 -109.5zM233 1140l-2 8q0 9 9 13l245 119q8 4 19 4h16q12 0 20 -4l244 -119q9 -4 9 -13l-2 -8l-6 -12q-5 -10 -13 -10l-8 2l-252 106l-254 -104q-6 -2 -7 -2q-8 0 -13 10z
M544 1349q-27 24 -57 69q-23 35 -40.5 52t-40.5 17q-39 0 -59 -34.5t-23 -95.5q0 -16 -15 -16h-21q-16 0 -16 16q3 80 37.5 130t96.5 50q33 0 57 -13.5t39.5 -32.5t34.5 -49q22 -35 38 -51t39 -16q42 0 63 35t23 96q0 15 16 15h21q7 0 11 -5t3 -14q-3 -79 -38 -128t-99 -49
q-43 0 -70 24z" />
    <glyph glyph-name="uni1EC6" unicode="&#x1ec6;" horiz-adv-x="1006" 
d="M144 0q-16 0 -16 16l4 734l-4 635q0 7 4.5 11t11.5 4h751q7 0 11 -4t4 -11v-25q0 -7 -4 -11.5t-11 -4.5h-697l-4 -560h663q7 0 11 -4t4 -11v-25q0 -7 -4 -11.5t-11 -4.5h-663l4 -672h713q7 0 11 -4t4 -11v-25q0 -7 -4 -11.5t-11 -4.5h-767zM530 -248q-16 0 -16 16v83
q0 7 4.5 11t11.5 4h35q7 0 11 -4t4 -11v-83q0 -7 -4 -11.5t-11 -4.5h-35zM256 1550l-2 8q0 9 9 13l245 119q8 4 19 4h16q12 0 20 -4l244 -119q9 -4 9 -13l-2 -8l-6 -12q-5 -10 -13 -10l-8 2l-252 106l-254 -104q-6 -2 -7 -2q-8 0 -13 10z" />
    <glyph glyph-name="uni1EC7" unicode="&#x1ec7;" horiz-adv-x="1013" 
d="M139 532q0 -247 99 -373.5t288 -126.5q149 0 236 84.5t113 237.5q2 14 17 14h29q8 0 12 -4.5t3 -12.5q-31 -180 -133 -275.5t-277 -95.5q-146 0 -248 66t-154 186t-52 280q0 157 52.5 279t152 190.5t235.5 68.5q130 0 225 -59t147 -172t54 -271q0 -16 -15 -16h-784z
M253 888.5q-95 -109.5 -111 -300.5h728q0 117 -41.5 210t-122 146.5t-194.5 53.5q-164 0 -259 -109.5zM490 -248q-16 0 -16 16v83q0 7 4.5 11t11.5 4h35q7 0 11 -4t4 -11v-83q0 -7 -4 -11.5t-11 -4.5h-35zM233 1180l-2 8q0 9 9 13l245 119q8 4 19 4h16q12 0 20 -4l244 -119
q9 -4 9 -13l-2 -8l-6 -12q-5 -10 -13 -10l-8 2l-252 106l-254 -104q-6 -2 -7 -2q-8 0 -13 10z" />
    <glyph glyph-name="uni1EC8" unicode="&#x1ec8;" horiz-adv-x="347" 
d="M154 0q-7 0 -11 4.5t-4 11.5l4 712l-4 657q0 7 4 11t11 4h39q7 0 11.5 -4t4.5 -11l-4 -657l4 -712q0 -16 -16 -16h-39zM164 1550q-8 0 -12 4.5t-2 11.5q4 29 21.5 48.5t49.5 43.5q32 23 47.5 41t15.5 45q0 32 -26.5 52t-73.5 20t-75 -20t-35 -55q-3 -15 -17 -15h-21
q-8 0 -11.5 4.5t-2.5 11.5q8 57 50.5 90.5t111.5 33.5t110.5 -34t41.5 -88q0 -41 -20 -65.5t-58 -52.5q-26 -19 -39 -32t-17 -30q-5 -14 -17 -14h-21z" />
    <glyph glyph-name="uni1EC9" unicode="&#x1ec9;" horiz-adv-x="325" 
d="M154 1180q-8 0 -12 4.5t-3 11.5q4 29 22 49t50 43t47.5 41t15.5 45q0 32 -26.5 52t-73.5 20q-48 0 -76 -20t-35 -55q-1 -15 -16 -15h-21q-8 0 -12 4.5t-3 11.5q8 57 50.5 90.5t112.5 33.5q69 0 110.5 -34t41.5 -88q0 -41 -20.5 -66t-58.5 -52q-24 -18 -37.5 -31.5
t-18.5 -30.5q-3 -14 -16 -14h-21zM145 0q-7 0 -11 4.5t-4 11.5l2 534l-2 465q0 7 4 11t11 4h35q7 0 11.5 -4t4.5 -11l-2 -465l2 -534q0 -16 -16 -16h-35z" />
    <glyph glyph-name="uni1ECA" unicode="&#x1eca;" horiz-adv-x="347" 
d="M154 0q-7 0 -11 4.5t-4 11.5l4 712l-4 657q0 7 4 11t11 4h39q7 0 11.5 -4t4.5 -11l-4 -657l4 -712q0 -16 -16 -16h-39zM157 -248q-16 0 -16 16v83q0 7 4.5 11t11.5 4h35q7 0 11 -4t4 -11v-83q0 -7 -4 -11.5t-11 -4.5h-35z" />
    <glyph glyph-name="uni1ECB" unicode="&#x1ecb;" horiz-adv-x="325" 
d="M145 0q-7 0 -11 4.5t-4 11.5l2 534l-2 465q0 7 4 11t11 4h35q7 0 11.5 -4t4.5 -11l-2 -465l2 -534q0 -16 -16 -16h-35zM148 1180q-16 0 -16 16v83q0 7 4.5 11t11.5 4h35q7 0 11 -4t4 -11v-83q0 -7 -4 -11.5t-11 -4.5h-35zM146 -248q-16 0 -16 16v83q0 7 4.5 11t11.5 4h35
q7 0 11 -4t4 -11v-83q0 -7 -4 -11.5t-11 -4.5h-35z" />
    <glyph glyph-name="uni1ECC" unicode="&#x1ecc;" horiz-adv-x="1424" 
d="M380.5 67.5q-142.5 87.5 -221 250.5t-78.5 384t78.5 383t221.5 248.5t332 86.5t331.5 -86.5t220.5 -249t78 -384.5t-78.5 -384.5t-221.5 -249t-332 -86.5q-188 0 -330.5 87.5zM1008 115.5q127 79.5 196 229t69 355.5t-69 355.5t-196 229t-297 79.5t-296.5 -80
t-195 -229.5t-68.5 -354.5t69 -354.5t195.5 -229.5t295.5 -80q170 0 297 79.5zM695 -248q-16 0 -16 16v83q0 7 4.5 11t11.5 4h35q7 0 11 -4t4 -11v-83q0 -7 -4 -11.5t-11 -4.5h-35z" />
    <glyph glyph-name="uni1ECD" unicode="&#x1ecd;" horiz-adv-x="1041" 
d="M278 46q-101 66 -153 186.5t-52 281.5t52 282t153 187.5t243 66.5t243 -66.5t153 -187.5t52 -282t-52 -281.5t-153 -186.5t-243 -66t-243 66zM731.5 91.5q85.5 59.5 128 168t42.5 254.5t-43 255t-128.5 169t-209.5 60t-209.5 -60t-128.5 -168.5t-43 -255.5t43 -255
t128.5 -167.5t209.5 -59.5q125 0 210.5 59.5zM503 -248q-16 0 -16 16v83q0 7 4.5 11t11.5 4h35q7 0 11 -4t4 -11v-83q0 -7 -4 -11.5t-11 -4.5h-35z" />
    <glyph glyph-name="uni1ECE" unicode="&#x1ece;" horiz-adv-x="1424" 
d="M380.5 67.5q-142.5 87.5 -221 250.5t-78.5 384t78.5 383t221.5 248.5t332 86.5t331.5 -86.5t220.5 -249t78 -384.5t-78.5 -384.5t-221.5 -249t-332 -86.5q-188 0 -330.5 87.5zM1008 115.5q127 79.5 196 229t69 355.5t-69 355.5t-196 229t-297 79.5t-296.5 -80
t-195 -229.5t-68.5 -354.5t69 -354.5t195.5 -229.5t295.5 -80q170 0 297 79.5zM703 1550q-8 0 -12 4.5t-2 11.5q4 29 21.5 48.5t49.5 43.5q32 23 47.5 41t15.5 45q0 32 -26.5 52t-73.5 20t-75 -20t-35 -55q-3 -15 -17 -15h-21q-8 0 -11.5 4.5t-2.5 11.5q8 57 50.5 90.5
t111.5 33.5t110.5 -34t41.5 -88q0 -41 -20 -65.5t-58 -52.5q-26 -19 -39 -32t-17 -30q-5 -14 -17 -14h-21z" />
    <glyph glyph-name="uni1ECF" unicode="&#x1ecf;" horiz-adv-x="1041" 
d="M278 46q-101 66 -153 186.5t-52 281.5t52 282t153 187.5t243 66.5t243 -66.5t153 -187.5t52 -282t-52 -281.5t-153 -186.5t-243 -66t-243 66zM731.5 91.5q85.5 59.5 128 168t42.5 254.5t-43 255t-128.5 169t-209.5 60t-209.5 -60t-128.5 -168.5t-43 -255.5t43 -255
t128.5 -167.5t209.5 -59.5q125 0 210.5 59.5zM511 1180q-8 0 -12 4.5t-2 11.5q4 29 21.5 48.5t49.5 43.5q32 23 47.5 41t15.5 45q0 32 -26.5 52t-73.5 20t-75 -20t-35 -55q-3 -15 -17 -15h-21q-8 0 -11.5 4.5t-2.5 11.5q8 57 50.5 90.5t111.5 33.5t110.5 -34t41.5 -88
q0 -41 -20 -65.5t-58 -52.5q-26 -19 -39 -32t-17 -30q-5 -14 -17 -14h-21z" />
    <glyph glyph-name="uni1ED0" unicode="&#x1ed0;" horiz-adv-x="1424" 
d="M380.5 67.5q-142.5 87.5 -221 250.5t-78.5 384t78.5 383t221.5 248.5t332 86.5t331.5 -86.5t220.5 -249t78 -384.5t-78.5 -384.5t-221.5 -249t-332 -86.5q-188 0 -330.5 87.5zM1008 115.5q127 79.5 196 229t69 355.5t-69 355.5t-196 229t-297 79.5t-296.5 -80
t-195 -229.5t-68.5 -354.5t69 -354.5t195.5 -229.5t295.5 -80q170 0 297 79.5zM911 1673q-5 -6 -12 -6q-6 0 -10 4l-10 8q-6 6 -6 12t4 11l202 242q4 6 11 6q4 0 11 -5l17 -15q5 -5 5 -11q0 -7 -4 -11zM434 1510l-2 8q0 9 9 13l245 119q8 4 19 4h16q12 0 20 -4l244 -119
q9 -4 9 -13l-2 -8l-6 -12q-5 -10 -13 -10l-8 2l-252 106l-254 -104q-6 -2 -7 -2q-8 0 -13 10z" />
    <glyph glyph-name="uni1ED1" unicode="&#x1ed1;" horiz-adv-x="1041" 
d="M278 46q-101 66 -153 186.5t-52 281.5t52 282t153 187.5t243 66.5t243 -66.5t153 -187.5t52 -282t-52 -281.5t-153 -186.5t-243 -66t-243 66zM731.5 91.5q85.5 59.5 128 168t42.5 254.5t-43 255t-128.5 169t-209.5 60t-209.5 -60t-128.5 -168.5t-43 -255.5t43 -255
t128.5 -167.5t209.5 -59.5q125 0 210.5 59.5zM719 1303q-5 -6 -12 -6q-6 0 -10 4l-10 8q-6 6 -6 12t4 11l202 242q4 6 11 6q4 0 11 -5l17 -15q5 -5 5 -11q0 -7 -4 -11zM242 1140l-2 8q0 9 9 13l245 119q8 4 19 4h16q12 0 20 -4l244 -119q9 -4 9 -13l-2 -8l-6 -12
q-5 -10 -13 -10l-8 2l-252 106l-254 -104q-6 -2 -7 -2q-8 0 -13 10z" />
    <glyph glyph-name="uni1ED2" unicode="&#x1ed2;" horiz-adv-x="1424" 
d="M380.5 67.5q-142.5 87.5 -221 250.5t-78.5 384t78.5 383t221.5 248.5t332 86.5t331.5 -86.5t220.5 -249t78 -384.5t-78.5 -384.5t-221.5 -249t-332 -86.5q-188 0 -330.5 87.5zM1008 115.5q127 79.5 196 229t69 355.5t-69 355.5t-196 229t-297 79.5t-296.5 -80
t-195 -229.5t-68.5 -354.5t69 -354.5t195.5 -229.5t295.5 -80q170 0 297 79.5zM932 1671q-4 -4 -10 -4q-8 0 -12 6l-208 235q-4 4 -4 11q0 6 5 11l17 15q7 5 11 5q6 0 11 -6l203 -242q4 -4 4 -10q0 -7 -7 -13zM434 1510l-2 8q0 9 9 13l245 119q8 4 19 4h16q12 0 20 -4
l244 -119q9 -4 9 -13l-2 -8l-6 -12q-5 -10 -13 -10l-8 2l-252 106l-254 -104q-6 -2 -7 -2q-8 0 -13 10z" />
    <glyph glyph-name="uni1ED3" unicode="&#x1ed3;" horiz-adv-x="1041" 
d="M278 46q-101 66 -153 186.5t-52 281.5t52 282t153 187.5t243 66.5t243 -66.5t153 -187.5t52 -282t-52 -281.5t-153 -186.5t-243 -66t-243 66zM731.5 91.5q85.5 59.5 128 168t42.5 254.5t-43 255t-128.5 169t-209.5 60t-209.5 -60t-128.5 -168.5t-43 -255.5t43 -255
t128.5 -167.5t209.5 -59.5q125 0 210.5 59.5zM740 1301q-4 -4 -10 -4q-8 0 -12 6l-208 235q-4 4 -4 11q0 6 5 11l17 15q7 5 11 5q6 0 11 -6l203 -242q4 -4 4 -10q0 -7 -7 -13zM242 1140l-2 8q0 9 9 13l245 119q8 4 19 4h16q12 0 20 -4l244 -119q9 -4 9 -13l-2 -8l-6 -12
q-5 -10 -13 -10l-8 2l-252 106l-254 -104q-6 -2 -7 -2q-8 0 -13 10z" />
    <glyph glyph-name="uni1ED4" unicode="&#x1ed4;" horiz-adv-x="1424" 
d="M380.5 67.5q-142.5 87.5 -221 250.5t-78.5 384t78.5 383t221.5 248.5t332 86.5t331.5 -86.5t220.5 -249t78 -384.5t-78.5 -384.5t-221.5 -249t-332 -86.5q-188 0 -330.5 87.5zM1008 115.5q127 79.5 196 229t69 355.5t-69 355.5t-196 229t-297 79.5t-296.5 -80
t-195 -229.5t-68.5 -354.5t69 -354.5t195.5 -229.5t295.5 -80q170 0 297 79.5zM434 1510l-2 8q0 9 9 13l245 119q8 4 19 4h16q12 0 20 -4l244 -119q9 -4 9 -13l-2 -8l-6 -12q-5 -10 -13 -10l-8 2l-252 106l-254 -104q-6 -2 -7 -2q-8 0 -13 10zM881 1674q-8 0 -12 4.5
t-2 11.5q4 29 21.5 48.5t49.5 43.5q32 23 47.5 41t15.5 45q0 32 -26.5 52t-73.5 20t-75 -20t-35 -55q-3 -15 -17 -15h-21q-8 0 -11.5 4.5t-2.5 11.5q8 57 50.5 90.5t111.5 33.5t110.5 -34t41.5 -88q0 -41 -20 -65.5t-58 -52.5q-26 -19 -39 -32t-17 -30q-5 -14 -17 -14h-21z
" />
    <glyph glyph-name="uni1ED5" unicode="&#x1ed5;" horiz-adv-x="1041" 
d="M278 46q-101 66 -153 186.5t-52 281.5t52 282t153 187.5t243 66.5t243 -66.5t153 -187.5t52 -282t-52 -281.5t-153 -186.5t-243 -66t-243 66zM731.5 91.5q85.5 59.5 128 168t42.5 254.5t-43 255t-128.5 169t-209.5 60t-209.5 -60t-128.5 -168.5t-43 -255.5t43 -255
t128.5 -167.5t209.5 -59.5q125 0 210.5 59.5zM242 1140l-2 8q0 9 9 13l245 119q8 4 19 4h16q12 0 20 -4l244 -119q9 -4 9 -13l-2 -8l-6 -12q-5 -10 -13 -10l-8 2l-252 106l-254 -104q-6 -2 -7 -2q-8 0 -13 10zM689 1304q-8 0 -12 4.5t-2 11.5q4 29 21.5 48.5t49.5 43.5
q32 23 47.5 41t15.5 45q0 32 -26.5 52t-73.5 20t-75 -20t-35 -55q-3 -15 -17 -15h-21q-8 0 -11.5 4.5t-2.5 11.5q8 57 50.5 90.5t111.5 33.5t110.5 -34t41.5 -88q0 -41 -20 -65.5t-58 -52.5q-26 -19 -39 -32t-17 -30q-5 -14 -17 -14h-21z" />
    <glyph glyph-name="uni1ED6" unicode="&#x1ed6;" horiz-adv-x="1424" 
d="M380.5 67.5q-142.5 87.5 -221 250.5t-78.5 384t78.5 383t221.5 248.5t332 86.5t331.5 -86.5t220.5 -249t78 -384.5t-78.5 -384.5t-221.5 -249t-332 -86.5q-188 0 -330.5 87.5zM1008 115.5q127 79.5 196 229t69 355.5t-69 355.5t-196 229t-297 79.5t-296.5 -80
t-195 -229.5t-68.5 -354.5t69 -354.5t195.5 -229.5t295.5 -80q170 0 297 79.5zM434 1510l-2 8q0 9 9 13l245 119q8 4 19 4h16q12 0 20 -4l244 -119q9 -4 9 -13l-2 -8l-6 -12q-5 -10 -13 -10l-8 2l-252 106l-254 -104q-6 -2 -7 -2q-8 0 -13 10zM745 1719q-27 24 -57 69
q-23 35 -40.5 52t-40.5 17q-39 0 -59 -34.5t-23 -95.5q0 -16 -15 -16h-21q-16 0 -16 16q3 80 37.5 130t96.5 50q33 0 57 -13.5t39.5 -32.5t34.5 -49q22 -35 38 -51t39 -16q42 0 63 35t23 96q0 15 16 15h21q7 0 11 -5t3 -14q-3 -79 -38 -128t-99 -49q-43 0 -70 24z" />
    <glyph glyph-name="uni1ED7" unicode="&#x1ed7;" horiz-adv-x="1041" 
d="M278 46q-101 66 -153 186.5t-52 281.5t52 282t153 187.5t243 66.5t243 -66.5t153 -187.5t52 -282t-52 -281.5t-153 -186.5t-243 -66t-243 66zM731.5 91.5q85.5 59.5 128 168t42.5 254.5t-43 255t-128.5 169t-209.5 60t-209.5 -60t-128.5 -168.5t-43 -255.5t43 -255
t128.5 -167.5t209.5 -59.5q125 0 210.5 59.5zM242 1140l-2 8q0 9 9 13l245 119q8 4 19 4h16q12 0 20 -4l244 -119q9 -4 9 -13l-2 -8l-6 -12q-5 -10 -13 -10l-8 2l-252 106l-254 -104q-6 -2 -7 -2q-8 0 -13 10zM553 1349q-27 24 -57 69q-23 35 -40.5 52t-40.5 17
q-39 0 -59 -34.5t-23 -95.5q0 -16 -15 -16h-21q-16 0 -16 16q3 80 37.5 130t96.5 50q33 0 57 -13.5t39.5 -32.5t34.5 -49q22 -35 38 -51t39 -16q42 0 63 35t23 96q0 15 16 15h21q7 0 11 -5t3 -14q-3 -79 -38 -128t-99 -49q-43 0 -70 24z" />
    <glyph glyph-name="uni1ED8" unicode="&#x1ed8;" horiz-adv-x="1424" 
d="M380.5 67.5q-142.5 87.5 -221 250.5t-78.5 384t78.5 383t221.5 248.5t332 86.5t331.5 -86.5t220.5 -249t78 -384.5t-78.5 -384.5t-221.5 -249t-332 -86.5q-188 0 -330.5 87.5zM1008 115.5q127 79.5 196 229t69 355.5t-69 355.5t-196 229t-297 79.5t-296.5 -80
t-195 -229.5t-68.5 -354.5t69 -354.5t195.5 -229.5t295.5 -80q170 0 297 79.5zM695 -248q-16 0 -16 16v83q0 7 4.5 11t11.5 4h35q7 0 11 -4t4 -11v-83q0 -7 -4 -11.5t-11 -4.5h-35zM434 1550l-2 8q0 9 9 13l245 119q8 4 19 4h16q12 0 20 -4l244 -119q9 -4 9 -13l-2 -8
l-6 -12q-5 -10 -13 -10l-8 2l-252 106l-254 -104q-6 -2 -7 -2q-8 0 -13 10z" />
    <glyph glyph-name="uni1ED9" unicode="&#x1ed9;" horiz-adv-x="1041" 
d="M278 46q-101 66 -153 186.5t-52 281.5t52 282t153 187.5t243 66.5t243 -66.5t153 -187.5t52 -282t-52 -281.5t-153 -186.5t-243 -66t-243 66zM731.5 91.5q85.5 59.5 128 168t42.5 254.5t-43 255t-128.5 169t-209.5 60t-209.5 -60t-128.5 -168.5t-43 -255.5t43 -255
t128.5 -167.5t209.5 -59.5q125 0 210.5 59.5zM503 -248q-16 0 -16 16v83q0 7 4.5 11t11.5 4h35q7 0 11 -4t4 -11v-83q0 -7 -4 -11.5t-11 -4.5h-35zM242 1180l-2 8q0 9 9 13l245 119q8 4 19 4h16q12 0 20 -4l244 -119q9 -4 9 -13l-2 -8l-6 -12q-5 -10 -13 -10l-8 2l-252 106
l-254 -104q-6 -2 -7 -2q-8 0 -13 10z" />
    <glyph glyph-name="uni1EDA" unicode="&#x1eda;" horiz-adv-x="1424" 
d="M1051 1330q139 -88 215.5 -249t76.5 -381q0 -222 -78.5 -384.5t-221.5 -249t-332 -86.5q-188 0 -330.5 87.5t-221 250.5t-78.5 384t78.5 383t221.5 248.5t332 86.5q157 0 284 -61l212 293q4 7 12 7q5 0 9 -3l25 -17q7 -5 7 -12q0 -4 -4 -10zM1008 115.5q127 79.5 196 229
t69 355.5t-69 355.5t-196 229t-297 79.5t-296.5 -80t-195 -229.5t-68.5 -354.5t69 -354.5t195.5 -229.5t295.5 -80q170 0 297 79.5zM561 1525l-8 -2q-9 0 -13 9l-5 10q-2 3 -2 10t8 11l388 200q3 2 9 2q7 0 12 -9l13 -24q2 -3 2 -9q0 -7 -8 -12z" />
    <glyph glyph-name="uni1EDB" unicode="&#x1edb;" horiz-adv-x="1041" 
d="M782 971q91 -67 139 -185t48 -272q0 -161 -52 -281.5t-153 -186.5t-243 -66t-243 66t-153 186.5t-52 281.5t52 282t153 187.5t243 66.5q121 0 213 -49q0 4 4 10l180 270q5 8 11 8q4 0 10 -4l24 -16q7 -6 7 -12q0 -4 -3 -10zM731.5 91.5q85.5 59.5 128 168t42.5 254.5
t-43 255t-128.5 169t-209.5 60t-209.5 -60t-128.5 -168.5t-43 -255.5t43 -255t128.5 -167.5t209.5 -59.5q125 0 210.5 59.5zM369 1155l-8 -2q-9 0 -13 9l-5 10q-2 3 -2 10t8 11l388 200q3 2 9 2q7 0 12 -9l13 -24q2 -3 2 -9q0 -7 -8 -12z" />
    <glyph glyph-name="uni1EDC" unicode="&#x1edc;" horiz-adv-x="1424" 
d="M1051 1330q139 -88 215.5 -249t76.5 -381q0 -222 -78.5 -384.5t-221.5 -249t-332 -86.5q-188 0 -330.5 87.5t-221 250.5t-78.5 384t78.5 383t221.5 248.5t332 86.5q157 0 284 -61l212 293q4 7 12 7q5 0 9 -3l25 -17q7 -5 7 -12q0 -4 -4 -10zM1008 115.5q127 79.5 196 229
t69 355.5t-69 355.5t-196 229t-297 79.5t-296.5 -80t-195 -229.5t-68.5 -354.5t69 -354.5t195.5 -229.5t295.5 -80q170 0 297 79.5zM876 1532q-5 -9 -13 -9l-8 2l-395 186q-13 7 -8 21l14 26q4 9 12 9q6 0 9 -2l388 -200q10 -4 10 -12q0 -4 -3 -9z" />
    <glyph glyph-name="uni1EDD" unicode="&#x1edd;" horiz-adv-x="1041" 
d="M782 971q91 -67 139 -185t48 -272q0 -161 -52 -281.5t-153 -186.5t-243 -66t-243 66t-153 186.5t-52 281.5t52 282t153 187.5t243 66.5q121 0 213 -49q0 4 4 10l180 270q5 8 11 8q4 0 10 -4l24 -16q7 -6 7 -12q0 -4 -3 -10zM731.5 91.5q85.5 59.5 128 168t42.5 254.5
t-43 255t-128.5 169t-209.5 60t-209.5 -60t-128.5 -168.5t-43 -255.5t43 -255t128.5 -167.5t209.5 -59.5q125 0 210.5 59.5zM684 1162q-5 -9 -13 -9l-8 2l-395 186q-13 7 -8 21l14 26q4 9 12 9q6 0 9 -2l388 -200q10 -4 10 -12q0 -4 -3 -9z" />
    <glyph glyph-name="uni1EDE" unicode="&#x1ede;" horiz-adv-x="1424" 
d="M1051 1330q139 -88 215.5 -249t76.5 -381q0 -222 -78.5 -384.5t-221.5 -249t-332 -86.5q-188 0 -330.5 87.5t-221 250.5t-78.5 384t78.5 383t221.5 248.5t332 86.5q157 0 284 -61l212 293q4 7 12 7q5 0 9 -3l25 -17q7 -5 7 -12q0 -4 -4 -10zM1008 115.5q127 79.5 196 229
t69 355.5t-69 355.5t-196 229t-297 79.5t-296.5 -80t-195 -229.5t-68.5 -354.5t69 -354.5t195.5 -229.5t295.5 -80q170 0 297 79.5zM703 1550q-8 0 -12 4.5t-2 11.5q4 29 21.5 48.5t49.5 43.5q32 23 47.5 41t15.5 45q0 32 -26.5 52t-73.5 20t-75 -20t-35 -55q-3 -15 -17 -15
h-21q-8 0 -11.5 4.5t-2.5 11.5q8 57 50.5 90.5t111.5 33.5t110.5 -34t41.5 -88q0 -41 -20 -65.5t-58 -52.5q-26 -19 -39 -32t-17 -30q-5 -14 -17 -14h-21z" />
    <glyph glyph-name="uni1EDF" unicode="&#x1edf;" horiz-adv-x="1041" 
d="M782 971q91 -67 139 -185t48 -272q0 -161 -52 -281.5t-153 -186.5t-243 -66t-243 66t-153 186.5t-52 281.5t52 282t153 187.5t243 66.5q121 0 213 -49q0 4 4 10l180 270q5 8 11 8q4 0 10 -4l24 -16q7 -6 7 -12q0 -4 -3 -10zM731.5 91.5q85.5 59.5 128 168t42.5 254.5
t-43 255t-128.5 169t-209.5 60t-209.5 -60t-128.5 -168.5t-43 -255.5t43 -255t128.5 -167.5t209.5 -59.5q125 0 210.5 59.5zM511 1180q-8 0 -12 4.5t-2 11.5q4 29 21.5 48.5t49.5 43.5q32 23 47.5 41t15.5 45q0 32 -26.5 52t-73.5 20t-75 -20t-35 -55q-3 -15 -17 -15h-21
q-8 0 -11.5 4.5t-2.5 11.5q8 57 50.5 90.5t111.5 33.5t110.5 -34t41.5 -88q0 -41 -20 -65.5t-58 -52.5q-26 -19 -39 -32t-17 -30q-5 -14 -17 -14h-21z" />
    <glyph glyph-name="uni1EE0" unicode="&#x1ee0;" horiz-adv-x="1424" 
d="M1051 1330q139 -88 215.5 -249t76.5 -381q0 -222 -78.5 -384.5t-221.5 -249t-332 -86.5q-188 0 -330.5 87.5t-221 250.5t-78.5 384t78.5 383t221.5 248.5t332 86.5q157 0 284 -61l212 293q4 7 12 7q5 0 9 -3l25 -17q7 -5 7 -12q0 -4 -4 -10zM1008 115.5q127 79.5 196 229
t69 355.5t-69 355.5t-196 229t-297 79.5t-296.5 -80t-195 -229.5t-68.5 -354.5t69 -354.5t195.5 -229.5t295.5 -80q170 0 297 79.5zM745 1560q-27 24 -57 69q-23 35 -40.5 52t-40.5 17q-39 0 -59 -34.5t-23 -95.5q0 -16 -15 -16h-21q-16 0 -16 16q3 80 37.5 130t96.5 50
q33 0 57 -13.5t39.5 -32.5t34.5 -49q22 -35 38 -51t39 -16q42 0 63 35t23 96q0 15 16 15h21q7 0 11 -5t3 -14q-3 -79 -38 -128t-99 -49q-43 0 -70 24z" />
    <glyph glyph-name="uni1EE1" unicode="&#x1ee1;" horiz-adv-x="1041" 
d="M782 971q91 -67 139 -185t48 -272q0 -161 -52 -281.5t-153 -186.5t-243 -66t-243 66t-153 186.5t-52 281.5t52 282t153 187.5t243 66.5q121 0 213 -49q0 4 4 10l180 270q5 8 11 8q4 0 10 -4l24 -16q7 -6 7 -12q0 -4 -3 -10zM731.5 91.5q85.5 59.5 128 168t42.5 254.5
t-43 255t-128.5 169t-209.5 60t-209.5 -60t-128.5 -168.5t-43 -255.5t43 -255t128.5 -167.5t209.5 -59.5q125 0 210.5 59.5zM538 1190q-27 24 -57 69q-23 35 -40.5 52t-40.5 17q-39 0 -59 -34.5t-23 -95.5q0 -16 -15 -16h-21q-16 0 -16 16q3 80 37.5 130t96.5 50
q33 0 57 -13.5t39.5 -32.5t34.5 -49q22 -35 38 -51t39 -16q42 0 63 35t23 96q0 15 16 15h21q7 0 11 -5t3 -14q-3 -79 -38 -128t-99 -49q-43 0 -70 24z" />
    </font>
</defs>
</svg>
