<?xml version="1.0" standalone="no"?>
<!DOCTYPE svg PUBLIC "-//W3C//DTD SVG 1.1//EN" "http://www.w3.org/Graphics/SVG/1.1/DTD/svg11.dtd" >
<svg xmlns="http://www.w3.org/2000/svg" xmlns:xlink="http://www.w3.org/1999/xlink" version="1.1">
<metadata>
Created by FontForge 20170731 at Wed May 12 04:41:43 2021
 By Aleksey,,,
(c) Copyright David Jonathan Ross, 2016, 2021. All rights reserved.
</metadata>
<defs>
<font id="FormaDJRText-ExtraLightItalic" horiz-adv-x="0" >
  <font-face 
    font-family="Forma DJR Text Extra Light"
    font-weight="200"
    font-style="italic"
    font-stretch="normal"
    units-per-em="2000"
    panose-1="0 0 0 0 0 0 0 9 0 0"
    ascent="1500"
    descent="-500"
    x-height="1030"
    cap-height="1400"
    bbox="-600 -406 2071.22 2001"
    underline-thickness="50"
    underline-position="-150"
    slope="-13"
    unicode-range="U+0020-FB02"
  />
<missing-glyph horiz-adv-x="1200" 
d="M248 1388q2 5 6 8.5t9 3.5h1076q5 0 7.5 -3.5t1.5 -8.5l-396 -1716q-2 -5 -6 -8.5t-9 -3.5h-1076q-5 0 -7.5 3.5t-1.5 8.5zM293 1345l-376 -1630h990l376 1630h-990z" />
    <glyph glyph-name=".notdef" horiz-adv-x="1200" 
d="M248 1388q2 5 6 8.5t9 3.5h1076q5 0 7.5 -3.5t1.5 -8.5l-396 -1716q-2 -5 -6 -8.5t-9 -3.5h-1076q-5 0 -7.5 3.5t-1.5 8.5zM293 1345l-376 -1630h990l376 1630h-990z" />
    <glyph glyph-name=".null" 
 />
    <glyph glyph-name="nonmarkingreturn" horiz-adv-x="666" 
 />
    <glyph glyph-name="space" unicode=" " horiz-adv-x="350" 
 />
    <glyph glyph-name="space" unicode="&#xa0;" horiz-adv-x="350" 
 />
    <glyph glyph-name="exclam" unicode="!" horiz-adv-x="351" 
d="M126 366q-16 0 -13 17l233 1003q1 14 17 14h35q16 0 13 -17l-232 -1003q-3 -14 -18 -14h-35zM28 0q-8 0 -11.5 4.5t-1.5 12.5l19 85q1 14 17 14h61q8 0 11.5 -4.5t2.5 -12.5l-19 -85q-3 -14 -18 -14h-61z" />
    <glyph glyph-name="quotedbl" unicode="&#x22;" horiz-adv-x="476" 
d="M279 1134q-8 0 -11.5 4.5t-2.5 12.5l44 235q3 14 16 14h45q16 0 13 -17l-66 -236q-3 -13 -17 -13h-21zM464 1134q-8 0 -11.5 4.5t-2.5 12.5l44 235q3 14 16 14h45q16 0 13 -17l-66 -236q-3 -13 -17 -13h-21z" />
    <glyph glyph-name="numbersign" unicode="#" horiz-adv-x="1315" 
d="M1415 1044q8 0 11.5 -5t0.5 -13l-10 -26q-6 -12 -18 -12h-351l-213 -568h346q8 0 11.5 -5t0.5 -13l-10 -26q-6 -12 -18 -12h-351l-132 -352q-4 -12 -17 -12h-28q-9 0 -12.5 5t-0.5 13l130 346h-360l-132 -352q-4 -12 -17 -12h-28q-9 0 -12.5 5t-0.5 13l130 346h-346
q-8 0 -11.5 5t-0.5 13l10 26q6 12 19 12h350l213 568h-347q-9 0 -12.5 5t0.5 13l10 26q5 12 18 12h352l128 344q6 12 18 12h28q8 0 11.5 -5t0.5 -13l-126 -338h360l128 344q6 12 18 12h28q8 0 11.5 -5t0.5 -13l-126 -338h346zM628 988l-213 -568h360l213 568h-360z" />
    <glyph glyph-name="dollar" unicode="$" horiz-adv-x="1073" 
d="M781 1404q133 -32 212.5 -134.5t78.5 -271.5q0 -16 -16 -16h-35q-15 0 -15 18q0 126 -47 207t-125.5 118t-177.5 37q-104 0 -187 -38t-131 -110t-48 -170q0 -93 43 -150.5t106 -89t170 -67.5q115 -40 183.5 -75t116 -102.5t47.5 -177.5q0 -114 -54 -204.5t-154.5 -142
t-235.5 -51.5q-30 0 -59 3l-38 -173q-1 -7 -6 -10.5t-11 -3.5h-31q-8 0 -11.5 4.5t-1.5 12.5l40 178q-153 31 -243 136.5t-90 271.5q0 31 5 74q2 15 16 15h35q8 0 11.5 -4.5t2.5 -11.5q-5 -40 -5 -70q0 -111 48.5 -193.5t137 -127.5t206.5 -45q115 0 200.5 42.5t130.5 117.5
t45 170q0 94 -43.5 153t-107.5 92t-173 71q-113 40 -180.5 75t-114.5 100.5t-47 170.5q0 117 58 204.5t157 134.5t219 47q30 0 60 -3l30 131q3 14 17 14h31q18 0 13 -17z" />
    <glyph glyph-name="percent" unicode="%" horiz-adv-x="1482" 
d="M270 844.5q-58 64.5 -58 171.5q0 92 35.5 186t106 156t168.5 62q100 0 158 -64.5t58 -171.5q0 -92 -36 -186t-106.5 -156t-167.5 -62q-100 0 -158 64.5zM193 0q-6 0 -10 2.5t-4 6.5q0 5 5 10l1124 1372q6 9 19 9h34q14 0 14 -10q0 -5 -4 -9l-1125 -1372q-6 -9 -19 -9h-34
zM564.5 887.5q54.5 57.5 81 138.5t26.5 152q0 86 -39.5 139t-112.5 53q-80 0 -134.5 -57.5t-81 -138.5t-26.5 -152q0 -86 39.5 -139t112.5 -53q80 0 134.5 57.5zM886 44.5q-58 64.5 -58 171.5q0 92 35.5 186t106 156t168.5 62q100 0 158 -64.5t58 -171.5q0 -92 -36 -186
t-106.5 -156t-167.5 -62q-100 0 -158 64.5zM1180.5 87.5q54.5 57.5 81 138.5t26.5 152q0 86 -39.5 139t-112.5 53q-80 0 -134.5 -57.5t-81 -138.5t-26.5 -152q0 -86 39.5 -139t112.5 -53q80 0 134.5 57.5z" />
    <glyph glyph-name="ampersand" unicode="&#x26;" horiz-adv-x="1257" 
d="M231 13.5q-86 33.5 -140.5 105.5t-54.5 181q0 121 59.5 211t152 151t226.5 124q-46 76 -72 148t-26 144q0 94 43.5 174t122.5 128t182 48q79 0 143.5 -29.5t102.5 -86t38 -134.5q0 -98 -60 -170.5t-145.5 -121t-239.5 -119.5q41 -63 125 -177l212 -294q138 176 196 432
q4 14 17 14h27q13 0 13 -15q0 -6 -1 -9q-30 -139 -86 -257t-132 -211l166 -231q4 -4 4 -9q0 -10 -14 -10h-42q-13 0 -19 10l-139 191q-101 -107 -224 -164t-252 -57q-97 0 -183 33.5zM465.5 952q23.5 -65 67.5 -139q144 66 223 110t133.5 106.5t54.5 146.5q0 63 -30.5 107
t-82 66.5t-113.5 22.5q-88 0 -150.5 -42.5t-94 -109.5t-31.5 -140q0 -63 23.5 -128zM653 90.5q113 54.5 205 155.5l-248 344l-30 41q-13 19 -36.5 51.5t-39.5 57.5q-125 -59 -209.5 -115t-138.5 -134.5t-54 -182.5q0 -95 44 -156t115 -88.5t157 -27.5q122 0 235 54.5z" />
    <glyph glyph-name="quotesingle" unicode="'" horiz-adv-x="291" 
d="M279 1134q-8 0 -11.5 4.5t-2.5 12.5l44 235q3 14 16 14h45q16 0 13 -17l-66 -236q-3 -13 -17 -13h-21z" />
    <glyph glyph-name="parenleft" unicode="(" horiz-adv-x="429" 
d="M118 -280q-14 0 -17 13q-61 222 -61 445q0 332 120 660t337 613q6 9 19 9h22q12 0 12 -9q0 -4 -3 -10q-207 -305 -320 -637.5t-113 -669.5q0 -209 43 -397v-3q0 -14 -14 -14h-25z" />
    <glyph glyph-name="parenright" unicode=")" horiz-adv-x="429" 
d="M345 1460q14 0 18 -13q60 -224 60 -445q0 -332 -120 -660t-337 -613q-6 -9 -19 -9h-22q-12 0 -12 9q0 4 3 10q207 306 320 638t113 669q0 207 -42 397v4q0 13 13 13h25z" />
    <glyph glyph-name="asterisk" unicode="*" horiz-adv-x="659" 
d="M429 906q-8 0 -11.5 4.5t-2.5 12.5l45 241l-229 -130q-4 -3 -8 -3q-8 0 -13 9l-11 18q-3 6 -3 9q0 8 9 12l243 123l-193 108q-8 5 -8 13q0 5 3 9l13 21q5 8 12 8q4 0 10 -3l185 -124l36 252q3 14 16 14h22q17 0 14 -17l-46 -247l236 136q5 3 8 3q9 0 13 -9l10 -20l2 -8
q0 -8 -9 -13l-246 -125l187 -110q8 -5 8 -13q0 -4 -3 -9l-13 -20q-5 -8 -11 -8q-5 0 -9 3l-185 125l-33 -247q-1 -15 -16 -15h-22z" />
    <glyph glyph-name="plus" unicode="+" horiz-adv-x="920" 
d="M920 720q8 0 12 -4.5t2 -12.5l-7 -31q-1 -7 -6 -10.5t-11 -3.5h-384l-99 -424q-1 -7 -6 -10.5t-11 -3.5h-31q-8 0 -11.5 4.5t-1.5 12.5l97 421h-382q-8 0 -11.5 4.5t-2.5 12.5l7 31q1 7 6 10.5t11 3.5h387l98 426q3 14 17 14h31q18 0 13 -17l-97 -423h380z" />
    <glyph glyph-name="comma" unicode="," horiz-adv-x="222" 
d="M-100 -150q-9 0 -9 9q0 5 2 9l66 132l23 102q1 7 6 10.5t11 3.5h45q8 0 12 -4.5t2 -12.5l-20 -89q-3 -12 -8 -18l-104 -133q-8 -9 -19 -9h-7z" />
    <glyph glyph-name="hyphen" unicode="-" horiz-adv-x="501" 
d="M80 560q-8 0 -11.5 4.5t-2.5 12.5l7 31q1 7 6 10.5t11 3.5h362q8 0 12 -4.5t2 -12.5l-7 -31q-1 -7 -6 -10.5t-11 -3.5h-362z" />
    <glyph glyph-name="hyphen" unicode="&#x2011;" horiz-adv-x="501" 
d="M80 560q-8 0 -11.5 4.5t-2.5 12.5l7 31q1 7 6 10.5t11 3.5h362q8 0 12 -4.5t2 -12.5l-7 -31q-1 -7 -6 -10.5t-11 -3.5h-362z" />
    <glyph glyph-name="hyphen" unicode="&#x2010;" horiz-adv-x="501" 
d="M80 560q-8 0 -11.5 4.5t-2.5 12.5l7 31q1 7 6 10.5t11 3.5h362q8 0 12 -4.5t2 -12.5l-7 -31q-1 -7 -6 -10.5t-11 -3.5h-362z" />
    <glyph glyph-name="hyphen" unicode="&#xad;" horiz-adv-x="501" 
d="M80 560q-8 0 -11.5 4.5t-2.5 12.5l7 31q1 7 6 10.5t11 3.5h362q8 0 12 -4.5t2 -12.5l-7 -31q-1 -7 -6 -10.5t-11 -3.5h-362z" />
    <glyph glyph-name="period" unicode="." horiz-adv-x="228" 
d="M-33 0q-8 0 -12 4.5t-2 12.5l19 85q3 14 17 14h61q8 0 12 -4.5t2 -12.5l-19 -85q-1 -7 -6 -10.5t-11 -3.5h-61z" />
    <glyph glyph-name="slash" unicode="/" horiz-adv-x="566" 
d="M-228 -340q-14 0 -14 10q0 4 3 9l988 1711q6 10 18 10h31q14 0 14 -10q0 -4 -3 -9l-988 -1711q-6 -10 -18 -10h-31z" />
    <glyph glyph-name="zero" unicode="0" horiz-adv-x="1080" 
d="M259 43q-80 63 -119 172t-39 247q0 191 68 415.5t204.5 383.5t331.5 159q120 0 200 -63t119 -171.5t39 -245.5q0 -191 -68 -416t-204.5 -384.5t-331.5 -159.5q-120 0 -200 63zM750 188q121 152 182 365t61 387q0 198 -73.5 311t-214.5 113q-170 0 -291 -151.5t-182 -364
t-61 -386.5q0 -199 73.5 -312.5t214.5 -113.5q170 0 291 152z" />
    <glyph glyph-name="one" unicode="1" horiz-adv-x="610" 
d="M237 0q-16 0 -13 17l168 711l134 594q-126 -97 -317 -161q-2 -1 -7 -1t-7.5 4.5t-1.5 11.5l7 26q1 11 13 16q84 31 171 78.5t154 96.5q8 7 19 7h40q16 0 13 -17l-156 -655l-160 -714q-3 -14 -18 -14h-39z" />
    <glyph glyph-name="two" unicode="2" horiz-adv-x="957" 
d="M-18 0q-16 0 -13 17l36 153q33 142 116 237.5t180.5 151.5t251.5 123q139 60 218 104.5t131.5 116.5t52.5 179q0 99 -43.5 162t-114 91.5t-156.5 28.5q-338 0 -409 -427q-3 -15 -17 -15h-33q-17 0 -14 17q36 237 161.5 359t321.5 122q101 0 185.5 -35t135.5 -110.5
t51 -190.5q0 -123 -58.5 -205.5t-145.5 -133.5t-236 -116q-149 -66 -242 -118.5t-169 -138.5t-103 -212l-22 -100h711q16 0 13 -17l-6 -29q-3 -14 -18 -14h-765z" />
    <glyph glyph-name="three" unicode="3" horiz-adv-x="1061" 
d="M241.5 23.5q-92.5 43.5 -142.5 127.5t-50 203q0 38 4 71q2 15 17 15h37q16 0 14 -16q-5 -42 -5 -72q0 -149 90.5 -232.5t260.5 -83.5q144 0 238 58t137 145.5t43 178.5q0 87 -39.5 156t-115.5 108.5t-181 39.5h-89q-8 0 -11.5 4.5t-1.5 12.5l5 25q1 7 5.5 10.5t11.5 3.5
h92q75 0 165 16.5t172.5 85t82.5 206.5q0 140 -88 209t-228 69q-155 0 -256 -95.5t-143 -286.5q-3 -14 -17 -14h-33q-8 0 -11.5 4.5t-2.5 12.5q25 143 90.5 240.5t164 146t220.5 48.5q104 0 189.5 -37.5t136 -111t50.5 -175.5q0 -90 -41.5 -163.5t-117 -122t-177.5 -66.5
q112 -33 176 -121t64 -205q0 -109 -55.5 -209.5t-168 -164.5t-272.5 -64q-127 0 -219.5 43.5z" />
    <glyph glyph-name="four" unicode="4" horiz-adv-x="992" 
d="M975 1400q16 0 13 -17l-204 -883h127q8 0 11.5 -4.5t2.5 -12.5l-5 -25q-3 -14 -18 -14h-131l-99 -430q-3 -14 -18 -14h-37q-16 0 -13 17l99 427h-656q-8 0 -11.5 4.5t-1.5 12.5l6 27q1 9 9 18l831 886q8 8 19 8h76zM870 1168l40 170l-788 -838h594z" />
    <glyph glyph-name="five" unicode="5" horiz-adv-x="1008" 
d="M217.5 25q-83.5 45 -127 127.5t-43.5 192.5q0 14 2 42q0 15 16 15h39q16 0 14 -16q-2 -30 -2 -45q0 -91 36.5 -160t104.5 -107t161 -38q151 0 255.5 94.5t155.5 232t51 263.5q0 103 -36 176.5t-102.5 111.5t-155.5 38q-126 0 -218 -72t-147 -206q-5 -12 -18 -12h-39
q-18 0 -13 17l210 708q3 13 17 13h641q16 0 13 -17l-6 -29q-3 -14 -18 -14h-606l-150 -506q68 86 150.5 130t185.5 44q109 0 190 -45t125.5 -131.5t44.5 -205.5q0 -144 -58.5 -293.5t-179 -251t-294.5 -101.5q-115 0 -198.5 45z" />
    <glyph glyph-name="six" unicode="6" horiz-adv-x="1041" 
d="M262.5 31.5q-84.5 51.5 -129 149t-44.5 233.5q0 137 44 322q79 332 228.5 507t365.5 175q100 0 173.5 -38.5t113 -111.5t39.5 -176q0 -16 -15 -16h-37q-16 0 -16 16q0 78 -29 139t-88 96t-145 35q-181 0 -314.5 -162t-207.5 -468q66 98 165.5 148t216.5 50
q115 0 202.5 -46.5t135.5 -134t48 -207.5q0 -139 -62 -269t-177.5 -211.5t-266.5 -81.5q-116 0 -200.5 51.5zM698 110q98 74 150.5 189t52.5 235q0 112 -44.5 188.5t-119.5 114t-166 37.5q-96 0 -178 -40.5t-139.5 -117t-82.5 -180.5q-16 -67 -16 -142q0 -107 37.5 -188
t109 -125.5t169.5 -44.5q129 0 227 74z" />
    <glyph glyph-name="seven" unicode="7" horiz-adv-x="858" 
d="M195 0q-8 0 -12 5t0 13q295 716 747 1322h-677q-8 0 -11.5 4.5t-1.5 12.5l6 29q1 7 6 10.5t11 3.5h731q8 0 11.5 -4.5t1.5 -12.5l-7 -29q-2 -10 -8 -18q-466 -646 -731 -1324q-6 -12 -18 -12h-48z" />
    <glyph glyph-name="eight" unicode="8" horiz-adv-x="1061" 
d="M258.5 27q-97.5 47 -153 131t-55.5 190q0 105 52.5 196.5t141.5 150.5t194 71q-82 38 -126 111t-44 163q0 106 58.5 193t156 137t207.5 50q103 0 185.5 -41.5t129.5 -115t47 -167.5q0 -81 -37 -157t-111 -132t-178 -75q110 -35 170 -121t60 -197q0 -119 -64 -218.5
t-173.5 -157.5t-240.5 -58q-122 0 -219.5 47zM825.5 823.5q77.5 45.5 117 118t39.5 152.5t-39.5 141.5t-107 95t-149.5 33.5q-92 0 -172.5 -41t-129 -114.5t-48.5 -164.5q0 -79 37.5 -139.5t106.5 -93.5t160 -33q108 0 185.5 45.5zM690.5 85.5q92.5 49.5 144 134t51.5 186.5
q0 93 -43.5 165t-123.5 112.5t-185 40.5q-120 0 -214.5 -51.5t-147 -137.5t-52.5 -185q0 -93 46 -164.5t128 -110.5t186 -39q118 0 210.5 49.5z" />
    <glyph glyph-name="nine" unicode="9" horiz-adv-x="1040" 
d="M219.5 18.5q-73.5 38.5 -113 112t-39.5 176.5q0 15 16 15h37q15 0 15 -15q0 -78 29 -139t88 -96.5t145 -35.5q181 0 314.5 161.5t207.5 468.5q-66 -98 -165.5 -148t-216.5 -50q-115 0 -202.5 46.5t-135.5 134t-48 207.5q0 139 62 269t177.5 211.5t266.5 81.5
q116 0 200.5 -51.5t129 -149t44.5 -233.5q0 -137 -44 -322q-79 -332 -228.5 -507t-365.5 -175q-100 0 -173.5 38.5zM727 564.5q82 40.5 139.5 117t82.5 180.5q16 67 16 142q0 107 -37.5 188t-109 125.5t-169.5 44.5q-129 0 -227 -74t-150.5 -189t-52.5 -235
q0 -112 44.5 -188.5t119.5 -114t166 -37.5q96 0 178 40.5z" />
    <glyph glyph-name="colon" unicode=":" horiz-adv-x="229" 
d="M179 914q-8 0 -12 4.5t-2 12.5l19 85q3 14 17 14h61q8 0 12 -4.5t2 -12.5l-19 -85q-1 -7 -6 -10.5t-11 -3.5h-61zM-33 0q-8 0 -12 4.5t-2 12.5l19 85q3 14 17 14h61q8 0 12 -4.5t2 -12.5l-19 -85q-1 -7 -6 -10.5t-11 -3.5h-61z" />
    <glyph glyph-name="semicolon" unicode=";" horiz-adv-x="229" 
d="M179 914q-8 0 -12 4.5t-2 12.5l19 85q3 14 17 14h61q8 0 12 -4.5t2 -12.5l-19 -85q-1 -7 -6 -10.5t-11 -3.5h-61zM-100 -150q-9 0 -9 9q0 5 2 9l66 132l23 102q1 7 6 10.5t11 3.5h45q8 0 12 -4.5t2 -12.5l-20 -89q-3 -12 -8 -18l-104 -133q-8 -9 -19 -9h-7z" />
    <glyph glyph-name="less" unicode="&#x3c;" horiz-adv-x="920" 
d="M76 652q-12 6 -9 20l8 36q3 12 14 16l919 387q6 2 7 2q5 0 7.5 -4t1.5 -11l-8 -35q-3 -11 -14 -15l-868 -364l698 -364q12 -7 9 -20l-5 -25q-3 -10 -11 -10q-6 0 -9 2z" />
    <glyph glyph-name="equal" unicode="=" horiz-adv-x="920" 
d="M127 858q-8 0 -11.5 4.5t-2.5 12.5l7 31q1 7 6 10.5t11 3.5h829q8 0 12 -4.5t2 -12.5l-7 -31q-1 -7 -6 -10.5t-11 -3.5h-829zM35 458q-8 0 -11.5 4.5t-2.5 12.5l7 31q1 7 6 10.5t11 3.5h829q8 0 12 -4.5t2 -12.5l-7 -31q-1 -7 -6 -10.5t-11 -3.5h-829z" />
    <glyph glyph-name="greater" unicode="&#x3e;" horiz-adv-x="920" 
d="M-7 267q-6 -2 -7 -2q-5 0 -7.5 4.5t-1.5 11.5l8 34q1 6 4.5 9.5t9.5 5.5l869 366l-698 362q-13 7 -10 20l5 25q2 8 7.5 10.5t12.5 -1.5l741 -386q11 -6 8 -20l-8 -36q-3 -12 -14 -16z" />
    <glyph glyph-name="question" unicode="?" horiz-adv-x="910" 
d="M397 366q-8 0 -12 5t-2 12q24 91 70.5 164t99 124t134.5 120q76 63 120 106.5t73 99.5t29 125q0 117 -82.5 178.5t-217.5 61.5q-159 0 -249 -89t-132 -275q-3 -14 -17 -14h-33q-8 0 -11.5 5t-1.5 12q50 213 160.5 316t291.5 103q100 0 179 -33t125 -99.5t46 -165.5
q0 -79 -31 -141t-77 -108t-127 -113q-79 -65 -129 -113.5t-93.5 -115.5t-65.5 -151q-3 -14 -17 -14h-30zM296 0q-8 0 -11.5 4.5t-2.5 12.5l19 85q3 14 17 14h61q8 0 12 -4.5t2 -12.5l-19 -85q-1 -7 -6 -10.5t-11 -3.5h-61z" />
    <glyph glyph-name="at" unicode="@" horiz-adv-x="1720" 
d="M1324.5 1297q155.5 -83 242 -239.5t86.5 -369.5q0 -148 -40.5 -298t-125 -250t-210.5 -100q-93 0 -143.5 53.5t-50.5 153.5q-60 -101 -146 -160t-196 -59q-94 0 -161.5 45t-103 127.5t-35.5 191.5q0 128 50 270.5t154.5 242t257.5 99.5q117 0 189.5 -61t95.5 -177l44 210
q3 14 16 14h35q18 0 13 -17l-139 -609q-5 -21 -11.5 -57.5t-6.5 -70.5q0 -69 37 -106.5t105 -37.5q107 0 177 95.5t101.5 234t31.5 270.5q0 196 -77.5 339.5t-218 220t-326.5 76.5q-272 0 -460.5 -153t-281 -381t-92.5 -452q0 -205 78 -351.5t219.5 -222.5t328.5 -76
q285 0 493 180q9 8 20 5l27 -6q12 -3 12 -10q0 -5 -4 -8q-106 -101 -244.5 -157t-303.5 -56q-203 0 -358.5 83.5t-242.5 242.5t-87 380q0 239 101 478.5t303.5 397.5t489.5 158q202 0 357.5 -83zM962 169q92 89 140.5 221.5t48.5 259.5q0 150 -66 226t-184 76
q-139 0 -228.5 -93t-129.5 -223.5t-40 -245.5q0 -142 64 -226t180 -84q123 0 215 89z" />
    <glyph glyph-name="A" unicode="A" horiz-adv-x="1164" 
d="M1017 17v-4q0 -13 -14 -13h-35q-14 0 -16 15l-63 477h-614l-288 -482q-7 -10 -18 -10h-42q-13 0 -13 10q0 5 3 9l825 1371q6 10 18 10h51q14 0 16 -14zM882 548l-104 790l-470 -790h574z" />
    <glyph glyph-name="B" unicode="B" horiz-adv-x="1195" 
d="M27 0q-8 0 -11.5 4.5t-1.5 12.5l170 719l146 650q1 7 6 10.5t11 3.5h449q133 0 224 -37.5t135.5 -104.5t44.5 -156t-45 -162.5t-129.5 -122.5t-199.5 -67q131 -31 198.5 -112.5t67.5 -205.5t-65.5 -222.5t-189.5 -154t-291 -55.5h-519zM686 780q142 0 242 41.5t151 114
t51 164.5q0 113 -82 178.5t-256 65.5h-402l-134 -564h430zM550 56q151 0 257.5 49.5t160.5 134.5t54 192q0 90 -42 156t-121 101t-187 35h-430l-150 -668h458z" />
    <glyph glyph-name="C" unicode="C" horiz-adv-x="1323" 
d="M368.5 48q-122.5 68 -189 199.5t-66.5 318.5q0 197 77.5 394.5t235 328.5t383.5 131q148 0 263 -60t179 -168t64 -248q0 -20 -16 -20h-35q-15 0 -15 16q-3 133 -57 228.5t-152 145.5t-231 50q-208 0 -349 -124.5t-209 -309.5t-68 -364q0 -172 57 -291t163.5 -179
t253.5 -60q405 0 540 456q4 14 17 14h37q13 0 13 -14q0 -2 -2 -10q-79 -259 -234 -380.5t-371 -121.5q-166 0 -288.5 68z" />
    <glyph glyph-name="D" unicode="D" horiz-adv-x="1289" 
d="M27 0q-8 0 -11.5 4.5t-1.5 12.5l172 725l144 644q1 7 6 10.5t11 3.5h339q175 0 306.5 -66t203.5 -192.5t72 -301.5q0 -197 -84.5 -391t-255.5 -321.5t-416 -127.5h-485zM512 56q226 0 381 121t230 302t75 361q0 160 -62 273.5t-177.5 172t-272.5 58.5h-292l-142 -602
l-156 -686h416z" />
    <glyph glyph-name="E" unicode="E" horiz-adv-x="1007" 
d="M27 0q-8 0 -11.5 4.5t-1.5 12.5l174 733l142 636q1 7 6 10.5t11 3.5h751q8 0 11.5 -4.5t1.5 -12.5l-6 -25q-1 -7 -6 -10.5t-11 -3.5h-698l-132 -560h660q8 0 11.5 -4.5t1.5 -12.5l-6 -25q-1 -7 -6 -10.5t-11 -3.5h-664l-152 -672h710q8 0 12 -4.5t2 -12.5l-5 -25
q-1 -7 -6 -10.5t-11 -3.5h-767z" />
    <glyph glyph-name="F" unicode="F" horiz-adv-x="960" 
d="M27 0q-8 0 -11.5 4.5t-1.5 12.5l162 681l154 688q1 7 6 10.5t11 3.5h731q8 0 11.5 -4.5t1.5 -12.5l-6 -25q-1 -7 -6 -10.5t-11 -3.5h-678l-148 -622h640q8 0 12 -4.5t2 -12.5l-5 -25q-1 -7 -6 -10.5t-11 -3.5h-644l-147 -652q-1 -7 -6 -10.5t-11 -3.5h-39z" />
    <glyph glyph-name="G" unicode="G" horiz-adv-x="1321" 
d="M336 54q-115 74 -172.5 205t-57.5 303q0 216 84 413.5t243 321t371 123.5q139 0 250.5 -56t177.5 -156t73 -230v-2q0 -7 -4 -10.5t-10 -3.5h-36q-14 0 -16 15q-10 119 -65 206t-149 134t-217 47q-197 0 -340 -115t-217.5 -299t-74.5 -386q0 -166 52 -284.5t151.5 -181
t238.5 -62.5q153 0 276 74.5t203.5 209.5t110.5 314h-496q-8 0 -11.5 4.5t-2.5 12.5l7 25q3 14 17 14h549q8 0 11.5 -5.5t2.5 -15.5q-37 -215 -129 -370t-229 -237t-309 -82q-167 0 -282 74z" />
    <glyph glyph-name="H" unicode="H" horiz-adv-x="1271" 
d="M1330 1400q18 0 13 -17l-165 -699l-151 -670q-1 -7 -6 -10.5t-11 -3.5h-39q-8 0 -11.5 4.5t-1.5 12.5l158 667l10 44h-882l-10 -44l-151 -670q-1 -7 -6 -10.5t-11 -3.5h-39q-8 0 -11.5 4.5t-1.5 12.5l158 667l158 702q1 7 6 10.5t11 3.5h39q18 0 13 -17l-141 -599h881
l135 602q1 7 6 10.5t11 3.5h39z" />
    <glyph glyph-name="I" unicode="I" horiz-adv-x="349" 
d="M39 0q-8 0 -11.5 4.5t-1.5 12.5l168 711l148 658q1 7 6 10.5t11 3.5h39q18 0 13 -17l-155 -655l-161 -714q-1 -7 -6 -10.5t-11 -3.5h-39z" />
    <glyph glyph-name="J" unicode="J" horiz-adv-x="901" 
d="M114 65q-82 91 -82 264q0 71 13 149q3 14 17 14h34q8 0 12 -4.5t3 -12.5q-11 -69 -11 -138q0 -151 64.5 -229t191.5 -78q86 0 152 42t118 139t90 261l116 498l94 416q3 14 17 14h39q18 0 13 -17l-97 -413l-116 -498q-43 -184 -103.5 -293.5t-140.5 -157t-186 -47.5
q-156 0 -238 91z" />
    <glyph glyph-name="K" unicode="K" horiz-adv-x="1010" 
d="M330 1386q1 7 6 10.5t11 3.5h39q18 0 13 -17l-151 -641l-16 -70l788 720q8 8 19 8h50q14 0 14 -9q0 -4 -6 -10l-581 -527l346 -836q1 -2 1 -7t-3.5 -8t-9.5 -3h-41q-13 0 -19 12l-328 792l-252 -228l-127 -562q-1 -7 -6 -10.5t-11 -3.5h-39q-8 0 -11.5 4.5t-1.5 12.5
l172 725z" />
    <glyph glyph-name="L" unicode="L" horiz-adv-x="919" 
d="M27 0q-8 0 -11.5 4.5t-1.5 12.5l178 755l138 614q1 7 6 10.5t11 3.5h39q18 0 13 -17l-145 -613l-162 -714h670q8 0 12 -4.5t2 -12.5l-5 -25q-1 -7 -6 -10.5t-11 -3.5h-727z" />
    <glyph glyph-name="M" unicode="M" horiz-adv-x="1495" 
d="M27 0q-8 0 -11.5 4.5t-1.5 12.5l156 655l162 714q3 14 17 14h62q14 0 17 -14l220 -1296l817 1300q5 10 19 10h70q18 0 13 -17l-165 -711l-149 -658q-1 -7 -6 -10.5t-11 -3.5h-39q-8 0 -11.5 4.5t-1.5 12.5l156 655l80 360l70 286l-824 -1308q-6 -10 -18 -10h-34
q-14 0 -17 14l-221 1290l-60 -274l-84 -358l-149 -658q-1 -7 -6 -10.5t-11 -3.5h-39z" />
    <glyph glyph-name="N" unicode="N" horiz-adv-x="1303" 
d="M27 0q-8 0 -11.5 4.5t-1.5 12.5l168 707l150 662q3 14 17 14h28q13 0 18 -11l617 -1287l146 622l148 662q1 7 6 10.5t11 3.5h39q18 0 13 -17l-155 -659l-163 -710q-1 -7 -6 -10.5t-11 -3.5h-35q-13 0 -19 11l-612 1271l-130 -558l-161 -710q-1 -7 -6 -10.5t-11 -3.5h-39z
" />
    <glyph glyph-name="O" unicode="O" horiz-adv-x="1426" 
d="M376 49q-127 69 -198 201t-71 314q0 199 83 397t250 328.5t403 130.5q166 0 293 -69t198 -200t71 -311q0 -200 -83.5 -399t-250 -330t-402.5 -131q-166 0 -293 69zM1036.5 160q150.5 124 224.5 310.5t74 369.5q0 165 -61 283t-172 179.5t-259 61.5q-217 0 -367.5 -124
t-224.5 -310.5t-74 -369.5q0 -165 61 -283t172 -179.5t259 -61.5q217 0 367.5 124z" />
    <glyph glyph-name="P" unicode="P" horiz-adv-x="1046" 
d="M708 1400q135 0 226.5 -44.5t136.5 -124.5t45 -185q0 -132 -66 -234.5t-188.5 -160t-287.5 -57.5h-360l-131 -580q-1 -7 -6 -10.5t-11 -3.5h-39q-8 0 -11.5 4.5t-1.5 12.5l170 719l146 650q1 7 6 10.5t11 3.5h361zM578 650q150 0 255.5 50.5t159 138.5t53.5 201
q0 139 -83 221.5t-259 82.5h-314l-146 -614l-18 -80h352z" />
    <glyph glyph-name="Q" unicode="Q" horiz-adv-x="1435" 
d="M1237 56q8 0 12 -4.5t2 -12.5l-5 -25q-1 -7 -6 -10.5t-11 -3.5h-391q-80 -20 -169 -20q-166 0 -293 69t-198 201t-71 314q0 199 83 397t250 328.5t403 130.5q166 0 293 -69t198 -200t71 -311q0 -149 -48 -303.5t-144 -283.5t-234 -200l54 3h204zM238 277
q61 -118 172 -179.5t259 -61.5q217 0 367.5 124t224.5 310.5t74 369.5q0 165 -61 283t-172 179.5t-259 61.5q-217 0 -367.5 -124t-224.5 -310.5t-74 -369.5q0 -165 61 -283z" />
    <glyph glyph-name="R" unicode="R" horiz-adv-x="1129" 
d="M1102 854.5q-56 -92.5 -161.5 -149t-248.5 -68.5l241 -619q1 -2 1 -7t-3.5 -8t-9.5 -3h-38q-12 0 -18 12l-55 144l-187 478h-416l-124 -620q-1 -7 -6 -10.5t-11 -3.5h-39q-8 0 -11.5 4.5t-1.5 12.5l170 719l146 650q1 7 6 10.5t11 3.5h403q135 0 226.5 -42.5t136.5 -118
t45 -175.5q0 -117 -56 -209.5zM1005 1266.5q-83 77.5 -259 77.5h-356l-146 -614l-9 -40h391q148 0 252 47.5t157 130.5t53 190q0 131 -83 208.5z" />
    <glyph glyph-name="S" unicode="S" horiz-adv-x="1177" 
d="M304 34q-114 50 -178 146t-64 229q0 36 4 68q2 15 16 15h35q8 0 11.5 -4.5t2.5 -11.5q-4 -28 -4 -62q0 -113 54.5 -197.5t154 -130.5t232.5 -46t230 42.5t148.5 118.5t51.5 175q0 91 -49.5 148t-122 88.5t-196.5 68.5q-133 39 -212.5 74.5t-134.5 102.5t-55 176
q0 113 65 200.5t176.5 135.5t246.5 48q129 0 233.5 -45.5t166.5 -140t60 -234.5q0 -16 -16 -16h-35q-7 0 -11 4.5t-4 11.5q2 126 -51.5 207.5t-145 119t-205.5 37.5q-120 0 -214.5 -38t-149 -111t-54.5 -175q0 -90 49 -146t121 -86.5t195 -67.5q134 -40 214 -75t135.5 -103
t55.5 -178q0 -114 -60 -204.5t-172.5 -142t-263.5 -51.5q-146 0 -260 50z" />
    <glyph glyph-name="T" unicode="T" horiz-adv-x="948" 
d="M336 0q-16 0 -13 17l158 669l148 658h-390q-8 0 -11.5 4.5t-2.5 12.5l7 25q3 14 17 14h854q8 0 11.5 -4.5t2.5 -12.5l-6 -25q-5 -14 -18 -14h-394l-156 -658l-150 -672q-3 -14 -18 -14h-39z" />
    <glyph glyph-name="U" unicode="U" horiz-adv-x="1201" 
d="M296 32q-92 52 -137.5 142.5t-45.5 205.5q0 70 19 152l122 514l76 340q1 7 6 10.5t11 3.5h39q18 0 13 -17l-79 -337l-120 -518q-17 -76 -17 -144q0 -101 37 -179t114 -123.5t192 -45.5q177 0 298 120t176 352l128 538l76 340q1 7 6 10.5t11 3.5h39q18 0 13 -17l-79 -337
l-126 -536q-61 -261 -201 -395.5t-347 -134.5q-132 0 -224 52z" />
    <glyph glyph-name="V" unicode="V" horiz-adv-x="1164" 
d="M233 1384v4q0 12 14 12h35q14 0 16 -14l175 -1324l790 1328q6 10 18 10h42q13 0 13 -10q0 -4 -3 -9l-824 -1371q-7 -10 -18 -10h-52q-14 0 -16 15z" />
    <glyph glyph-name="W" unicode="W" horiz-adv-x="1674" 
d="M321 0q-16 0 -17 16l-64 1369v2q0 6 4 9.5t11 3.5h31q7 0 11.5 -4t4.5 -11l57 -1295l641 1299q4 11 18 11h44q7 0 11.5 -4t4.5 -11l37 -1287l654 1291q6 11 19 11h34q9 0 12.5 -5t-0.5 -13l-699 -1371q-5 -11 -19 -11h-39q-8 0 -12.5 4.5t-4.5 11.5l-41 1290l-641 -1295
q-5 -11 -18 -11h-39z" />
    <glyph glyph-name="X" unicode="X" horiz-adv-x="1120" 
d="M-50 0q-6 0 -9.5 2.5t-3.5 6.5q0 3 5 10l630 733l-265 630q-1 2 -1 7t3.5 8t9.5 3h36q13 0 18 -12l249 -590l510 594q7 8 19 8h42q6 0 9.5 -2.5t3.5 -6.5q0 -3 -5 -10l-553 -647l300 -716q1 -2 1 -7t-3.5 -8t-9.5 -3h-33q-14 0 -19 12l-284 680l-587 -683q-7 -9 -19 -9
h-44z" />
    <glyph glyph-name="Y" unicode="Y" horiz-adv-x="1036" 
d="M234 1383v5q0 12 13 12h36q14 0 18 -13l224 -811l605 815q6 9 19 9h43q13 0 13 -9q0 -5 -4 -10l-656 -877l-112 -490q-3 -14 -18 -14h-39q-16 0 -13 17l116 495z" />
    <glyph glyph-name="Z" unicode="Z" horiz-adv-x="1096" 
d="M-32 0q-16 0 -13 17l7 33q2 9 10 18l1143 1276h-784q-8 0 -11.5 4.5t-2.5 12.5l7 25q3 14 17 14h851q16 0 13 -17l-7 -33q-1 -5 -10 -18l-1143 -1276h855q8 0 11.5 -4.5t2.5 -12.5l-5 -25q-3 -14 -18 -14h-923z" />
    <glyph glyph-name="bracketleft" unicode="[" horiz-adv-x="428" 
d="M-39 -280q-18 0 -13 17l394 1709q3 14 17 14h205q8 0 11.5 -4.5t1.5 -12.5l-6 -25q-1 -7 -6 -10.5t-11 -3.5h-156l-376 -1628h152q8 0 12 -4.5t2 -12.5l-5 -25q-1 -7 -6 -10.5t-11 -3.5h-205z" />
    <glyph glyph-name="backslash" unicode="\" horiz-adv-x="484" 
d="M255 -340q-15 0 -16 15l-82 1709v2q0 14 15 14h25q15 0 16 -15l82 -1709v-2q0 -14 -15 -14h-25z" />
    <glyph glyph-name="bracketright" unicode="]" horiz-adv-x="430" 
d="M-100 -280q-8 0 -12 4.5t-2 12.5l5 25q1 7 6 10.5t11 3.5h157l376 1628h-152q-8 0 -12 4.5t-2 12.5l6 25q4 14 17 14h205q18 0 13 -17l-394 -1709q-3 -14 -17 -14h-205z" />
    <glyph glyph-name="asciicircum" unicode="^" horiz-adv-x="905" 
d="M122 670q-13 0 -13 10q0 5 3 9l520 702q6 9 19 9h10q14 0 17 -13l192 -700v-5q0 -12 -13 -12h-29q-13 0 -17 13l-170 637l-469 -640q-8 -10 -19 -10h-31z" />
    <glyph glyph-name="underscore" unicode="_" horiz-adv-x="768" 
d="M-127 -340q-8 0 -11.5 4.5t-2.5 12.5l7 31q3 14 18 14h627q8 0 11.5 -4.5t2.5 -12.5l-7 -31q-3 -14 -18 -14h-627z" />
    <glyph glyph-name="grave" unicode="`" horiz-adv-x="639" 
d="M679 1161q-5 -8 -13 -8l-8 2l-371 186q-9 5 -9 12q0 5 3 9l19 31q6 8 13 8q3 0 8 -3l360 -202q9 -4 9 -13q0 -4 -3 -9z" />
    <glyph glyph-name="a" unicode="a" horiz-adv-x="1009" 
d="M990 1030q18 0 13 -17l-113 -475l-117 -524q-1 -7 -6 -10.5t-11 -3.5h-32q-8 0 -12 4.5t-2 12.5l47 189q-66 -101 -157.5 -159.5t-207.5 -58.5q-105 0 -181.5 49t-116.5 138t-40 207q0 140 55.5 294t171.5 261t287 107q135 0 217.5 -72t102.5 -207l53 251q3 14 16 14h33z
M639 135q103 97 157 242.5t54 284.5q0 164 -75 247t-209 83q-156 0 -257.5 -101.5t-147 -243.5t-45.5 -267q0 -103 33 -180.5t96.5 -119.5t152.5 -42q138 0 241 97z" />
    <glyph glyph-name="b" unicode="b" horiz-adv-x="1004" 
d="M794.5 995q76.5 -49 116.5 -138t40 -207q0 -140 -55.5 -294t-171.5 -261t-287 -107q-132 0 -213.5 69t-104.5 198l-52 -239q-3 -14 -17 -14h-33q-16 0 -13 17l126 532l191 835q1 7 5.5 10.5t11.5 3.5h35q16 0 13 -17l-128 -541q66 94 155 148t200 54q105 0 181.5 -49z
M696.5 141.5q101.5 101.5 147 243.5t45.5 267q0 103 -33 180.5t-96.5 119.5t-152.5 42q-138 0 -241 -97t-157 -242.5t-54 -284.5q0 -164 75 -247t209 -83q156 0 257.5 101.5z" />
    <glyph glyph-name="c" unicode="c" horiz-adv-x="991" 
d="M250 32q-91 50 -140.5 147t-49.5 235q0 147 57.5 293.5t175 243.5t285.5 97q109 0 194 -44t132.5 -124t47.5 -184q0 -16 -16 -16h-29q-15 0 -15 16q-4 142 -88 221t-226 79q-151 0 -254 -91t-152.5 -225.5t-49.5 -265.5q0 -184 91 -282t251 -98q291 0 387 322q6 14 18 14
h31q13 0 13 -14q0 -2 -2 -10q-116 -364 -447 -364q-123 0 -214 50z" />
    <glyph glyph-name="d" unicode="d" horiz-adv-x="1009" 
d="M1074 1400q18 0 13 -17l-197 -845l-117 -524q-1 -7 -6 -10.5t-11 -3.5h-32q-8 0 -12 4.5t-2 12.5l47 189q-66 -101 -157.5 -159.5t-207.5 -58.5q-105 0 -181.5 49t-116.5 138t-40 207q0 140 55.5 294t171.5 261t287 107q135 0 217.5 -72t102.5 -208l135 622q3 14 16 14
h35zM639 135q103 97 157 242.5t54 284.5q0 164 -75 247t-209 83q-156 0 -257.5 -101.5t-147 -243.5t-45.5 -267q0 -103 33 -180.5t96.5 -119.5t152.5 -42q138 0 241 97z" />
    <glyph glyph-name="e" unicode="e" horiz-adv-x="1015" 
d="M777.5 1002.5q85.5 -45.5 133 -132t47.5 -204.5q0 -57 -12 -120q-1 -14 -16 -14h-798q-10 -60 -10 -122q0 -182 91 -279t251 -97q291 0 387 322q6 14 18 14h31q13 0 13 -14q0 -2 -2 -10q-116 -364 -447 -364q-123 0 -214 50t-140.5 146.5t-49.5 233.5q0 149 57.5 296
t175.5 243.5t287 96.5q112 0 197.5 -45.5zM890 586q9 48 9 91q0 94 -38.5 166.5t-110.5 112.5t-170 40q-119 0 -208.5 -57t-146 -150t-82.5 -203h747z" />
    <glyph glyph-name="f" unicode="f" horiz-adv-x="549" 
d="M714 1402l-4 -18q-3 -16 -19 -11q-36 9 -70 9q-74 0 -127 -57t-79 -177l-28 -118h222q8 0 12 -4.5t2 -12.5l-5 -23q-1 -7 -6 -10.5t-11 -3.5h-227l-115 -500l-105 -462q-1 -7 -6 -10.5t-11 -3.5h-35q-8 0 -11.5 4.5t-1.5 12.5l108 459l115 500h-150q-8 0 -11.5 4.5
t-2.5 12.5l5 23q3 14 17 14h155l28 118q34 152 106 219t166 67q47 0 79 -12q13 -4 10 -20z" />
    <glyph glyph-name="g" unicode="g" horiz-adv-x="1001" 
d="M989 1030q8 0 11.5 -4.5t2.5 -12.5l-122 -517l-86 -376q-40 -173 -104 -284t-160 -165.5t-230 -54.5q-96 0 -178 36t-129.5 105t-43.5 165q0 16 16 16h33q15 0 15 -16q-1 -80 36 -136t103.5 -85t151.5 -29q118 0 200 47.5t137 145.5t91 255l18 78q-66 -98 -156.5 -154
t-203.5 -56q-105 0 -181.5 49t-116.5 138t-40 207q0 140 55.5 294t171.5 261t287 107q134 0 216 -70.5t103 -203.5l54 246q1 7 5.5 10.5t11.5 3.5h32zM638 135q103 97 157 242.5t54 284.5q0 164 -75 247t-209 83q-156 0 -257.5 -101.5t-147 -243.5t-45.5 -267
q0 -103 33 -180.5t96.5 -119.5t152.5 -42q138 0 241 97z" />
    <glyph glyph-name="h" unicode="h" horiz-adv-x="981" 
d="M19 0q-16 0 -13 17l102 425l212 944q3 14 18 14h35q16 0 13 -17l-138 -583q36 69 94.5 127t132.5 92.5t155 34.5q82 0 145.5 -34t99.5 -100t36 -159q0 -64 -15 -127l-44 -192l-97 -428q-1 -7 -5.5 -10.5t-11.5 -3.5h-35q-16 0 -13 17l100 425l42 182q17 71 17 135
q0 119 -62 179t-167 60q-224 0 -392 -300l-60 -256l-97 -428q-1 -7 -5.5 -10.5t-11.5 -3.5h-35z" />
    <glyph glyph-name="i" unicode="i" horiz-adv-x="326" 
d="M27 0q-16 0 -13 17l124 533l107 466q1 14 17 14h35q16 0 13 -17l-108 -461l-122 -538q-3 -14 -18 -14h-35zM302 1189q-8 0 -12 4.5t-2 12.5l20 83q1 7 5.5 10.5t11.5 3.5h31q8 0 11.5 -4.5t2.5 -12.5l-20 -83q-1 -7 -6 -10.5t-11 -3.5h-31z" />
    <glyph glyph-name="j" unicode="j" horiz-adv-x="325" 
d="M-51 -340q-18 0 -13 17l146 629l162 710q3 14 17 14h35q18 0 13 -17l-165 -707l-143 -632q-1 -7 -6 -10.5t-11 -3.5h-35zM304 1189q-8 0 -12 4.5t-2 12.5l20 83q1 7 5.5 10.5t11.5 3.5h31q8 0 11.5 -4.5t2.5 -12.5l-20 -83q-1 -7 -6 -10.5t-11 -3.5h-31z" />
    <glyph glyph-name="k" unicode="k" horiz-adv-x="833" 
d="M853 1030q6 0 10 -2.5t4 -5.5q0 -4 -7 -11l-442 -354l247 -639q1 -2 1 -7t-3.5 -8t-9.5 -3h-38q-13 0 -18 12l-37 96l-193 507l-199 -159l-99 -444q-1 -7 -6 -10.5t-11 -3.5h-35q-8 0 -11.5 4.5t-1.5 12.5l158 673l158 698q1 7 6 10.5t11 3.5h35q18 0 13 -17l-165 -695
l-34 -152l589 487q11 7 20 7h58z" />
    <glyph glyph-name="l" unicode="l" horiz-adv-x="326" 
d="M27 0q-16 0 -13 17l166 701l151 668q1 7 5.5 10.5t11.5 3.5h35q16 0 13 -17l-158 -661l-158 -708q-3 -14 -18 -14h-35z" />
    <glyph glyph-name="m" unicode="m" horiz-adv-x="1583" 
d="M1384.5 1020.5q60.5 -33.5 95 -99t34.5 -157.5q0 -62 -16 -130l-44 -192l-97 -428q-1 -7 -6 -10.5t-11 -3.5h-35q-8 0 -11.5 4.5t-1.5 12.5l100 425l42 182q17 72 17 137q0 117 -58.5 177t-156.5 60q-105 0 -192 -69.5t-165 -198.5q-6 -56 -15 -96l-44 -192l-97 -428
q-1 -7 -6 -10.5t-11 -3.5h-35q-8 0 -11.5 4.5t-1.5 12.5l100 425l42 182q17 72 17 137q0 117 -58.5 177t-156.5 60q-111 0 -202.5 -78t-173.5 -222l-60 -256l-97 -428q-1 -7 -6 -10.5t-11 -3.5h-35q-8 0 -11.5 4.5t-1.5 12.5l102 425l128 574q1 7 6 10.5t11 3.5h35
q8 0 11.5 -4.5t1.5 -12.5l-53 -213q57 108 154.5 181t211.5 73q111 0 183.5 -66t82.5 -187q60 108 157 180.5t211 72.5q78 0 138.5 -33.5z" />
    <glyph glyph-name="n" unicode="n" horiz-adv-x="979" 
d="M17 0q-8 0 -11.5 4.5t-1.5 12.5l102 425l128 574q1 7 6 10.5t11 3.5h35q8 0 11.5 -4.5t1.5 -12.5l-53 -213q36 69 94.5 127t132.5 92.5t155 34.5q82 0 145.5 -34t99.5 -100t36 -159q0 -64 -15 -127l-44 -192l-97 -428q-1 -7 -6 -10.5t-11 -3.5h-35q-8 0 -11.5 4.5
t-1.5 12.5l100 425l42 182q17 71 17 135q0 119 -62 179t-167 60q-224 0 -392 -300l-60 -256l-97 -428q-1 -7 -6 -10.5t-11 -3.5h-35z" />
    <glyph glyph-name="o" unicode="o" horiz-adv-x="1045" 
d="M251.5 33q-90.5 51 -141 148.5t-50.5 232.5q0 147 59.5 294t179.5 243.5t289 96.5q117 0 207.5 -50.5t140.5 -147.5t50 -230q0 -149 -59.5 -296.5t-178.5 -244.5t-288 -97q-118 0 -208.5 51zM715 124.5q105 90.5 157 226.5t52 269q0 118 -42 202.5t-118 129t-176 44.5
q-152 0 -257.5 -90.5t-157 -226t-51.5 -269.5q0 -118 42 -202.5t118.5 -129t177.5 -44.5q150 0 255 90.5z" />
    <glyph glyph-name="p" unicode="p" horiz-adv-x="1003" 
d="M793.5 995q76.5 -49 116.5 -138t40 -207q0 -140 -55.5 -294t-171.5 -261t-287 -107q-130 0 -211 66.5t-105 191.5l-129 -572q-1 -7 -6 -10.5t-11 -3.5h-35q-18 0 -13 17l190 809l118 530q1 7 6 10.5t11 3.5h33q8 0 11.5 -4.5t1.5 -12.5l-46 -181q65 98 156 155t205 57
q105 0 181.5 -49zM695.5 141.5q101.5 101.5 147 243.5t45.5 267q0 103 -33 180.5t-96.5 119.5t-152.5 42q-138 0 -241 -97t-157 -242.5t-54 -284.5q0 -164 75 -247t209 -83q156 0 257.5 101.5z" />
    <glyph glyph-name="q" unicode="q" horiz-adv-x="1009" 
d="M990 1030q16 0 13 -17l-130 -543l-178 -796q-3 -14 -18 -14h-35q-16 0 -13 17l124 525q-66 -99 -157 -156.5t-205 -57.5q-105 0 -181.5 49t-116.5 138t-40 207q0 140 55.5 294t171.5 261t287 107q135 0 217.5 -72t102.5 -207l53 251q3 14 17 14h33zM638 135
q103 97 157 242.5t54 284.5q0 164 -75 247t-209 83q-156 0 -257.5 -101.5t-147 -243.5t-45.5 -267q0 -103 33 -180.5t96.5 -119.5t152.5 -42q138 0 241 97z" />
    <glyph glyph-name="r" unicode="r" horiz-adv-x="632" 
d="M17 0q-8 0 -11.5 4.5t-1.5 12.5l124 519l106 480q1 7 6 10.5t11 3.5h35q8 0 11.5 -4.5t1.5 -12.5l-53 -207q76 114 174 175t202 61q46 0 73 -8q15 -3 11 -18l-6 -26q-4 -15 -19 -12q-28 8 -67 8q-111 0 -210 -71.5t-180 -216.5l-155 -684q-1 -7 -6 -10.5t-11 -3.5h-35z
" />
    <glyph glyph-name="s" unicode="s" horiz-adv-x="931" 
d="M215 24q-93 44 -141 128t-42 203q0 15 16 15h29q15 0 15 -16q-4 -97 35.5 -169.5t119.5 -112.5t194 -40q89 0 160.5 31t112.5 85.5t41 123.5q0 66 -39 107.5t-96.5 64.5t-154.5 50q-108 30 -172 57t-109 78.5t-45 134.5q0 84 52 149t139 101t189 36q101 0 183.5 -33.5
t134 -103t57.5 -173.5v-2q0 -7 -4 -10.5t-10 -3.5h-29q-16 0 -17 16q-9 132 -97.5 195t-221.5 63q-85 0 -156 -27t-112.5 -79.5t-41.5 -125.5q0 -64 38 -104.5t93.5 -63t153.5 -49.5q108 -30 173 -56.5t110.5 -79t45.5 -137.5q0 -84 -49.5 -151.5t-137 -106t-195.5 -38.5
q-129 0 -222 44z" />
    <glyph glyph-name="t" unicode="t" horiz-adv-x="563" 
d="M618 1030q8 0 11.5 -4.5t2.5 -12.5l-5 -23q-3 -14 -18 -14h-248l-166 -714q-14 -61 -14 -100q0 -60 29 -89t91 -29q49 0 89 8h4q14 0 11 -15l-5 -24q-3 -14 -11 -15q-54 -10 -106 -10q-72 0 -118 40t-46 129q0 49 14 105l166 714h-115q-8 0 -11.5 4.5t-1.5 12.5l5 23
q1 14 17 14h118l55 244q1 7 5.5 10.5t11.5 3.5h35q16 0 13 -17l-57 -241h244z" />
    <glyph glyph-name="u" unicode="u" horiz-adv-x="979" 
d="M961 1030q16 0 13 -17l-102 -425l-128 -574q-3 -14 -18 -14h-34q-8 0 -11.5 4.5t-2.5 12.5l54 213q-36 -69 -94.5 -127t-132.5 -92.5t-155 -34.5q-82 0 -145.5 34t-99.5 100t-36 159q0 64 15 127l44 192l97 428q1 7 5.5 10.5t11.5 3.5h35q16 0 13 -17l-100 -425l-42 -182
q-17 -71 -17 -135q0 -119 62 -179t167 -60q224 0 392 300l60 256l97 428q1 7 5.5 10.5t11.5 3.5h35z" />
    <glyph glyph-name="v" unicode="v" horiz-adv-x="914" 
d="M149 1014v4q0 12 14 12h37q13 0 16 -14l140 -942l568 946q6 10 18 10h39q13 0 13 -10q0 -4 -3 -9l-607 -1003q-6 -10 -18 -10h-43q-15 0 -17 14z" />
    <glyph glyph-name="w" unicode="w" horiz-adv-x="1364" 
d="M252 0q-14 0 -16 15l-81 999v2q0 14 14 14h31q15 0 16 -15l69 -939l470 943q6 11 19 11h46q15 0 16 -15l57 -939l484 943q6 11 19 11h30q9 0 12.5 -5t-0.5 -13l-519 -1001q-5 -11 -19 -11h-44q-14 0 -16 15l-55 957l-473 -961q-5 -11 -18 -11h-42z" />
    <glyph glyph-name="x" unicode="x" horiz-adv-x="890" 
d="M-64 0q-13 0 -13 10q0 5 4 9l487 533l-217 460q-2 6 -2 7q0 11 13 11h37q14 0 18 -11l197 -419l380 422q8 8 19 8h43q6 0 9.5 -2.5t3.5 -6.5q0 -6 -4 -10l-423 -469l244 -524q2 -6 2 -7q0 -11 -14 -11h-35q-14 0 -18 11l-227 485l-440 -487q-9 -9 -19 -9h-45z" />
    <glyph glyph-name="y" unicode="y" horiz-adv-x="877" 
d="M130 -340q-7 0 -10.5 3t-3.5 8q0 3 3 8l191 323l-167 1012v4q0 12 14 12h35q14 0 17 -14l149 -932l542 936q6 10 18 10h35q13 0 13 -10q0 -4 -3 -9l-781 -1341q-6 -10 -18 -10h-34z" />
    <glyph glyph-name="z" unicode="z" horiz-adv-x="862" 
d="M-47 0q-8 0 -11.5 4.5t-2.5 12.5l7 31q3 9 10 18l855 908h-590q-8 0 -11.5 4.5t-2.5 12.5l7 25q3 14 17 14h657q8 0 11.5 -4.5t2.5 -12.5l-6 -27q-3 -9 -10 -18l-859 -912h655q8 0 11.5 -4.5t2.5 -12.5l-5 -25q-3 -14 -18 -14h-720z" />
    <glyph glyph-name="braceleft" unicode="{" horiz-adv-x="440" 
d="M89 -280q-70 0 -105 24t-35 79q0 73 62 207l180 384q18 39 26 61.5t8 38.5q0 23 -19.5 34.5t-66.5 11.5h-27q-16 0 -13 17l7 29q1 7 5.5 10.5t11.5 3.5h30q56 0 82 17t31.5 45.5t4.5 83.5l-2 410q-1 149 55.5 216.5t166.5 67.5h34q8 0 11.5 -4.5t2.5 -12.5l-6 -25
q-5 -14 -18 -14h-36q-57 0 -88 -21t-44 -69.5t-12 -137.5l2 -410q2 -78 -26 -120.5t-96 -55.5q37 -8 54 -25.5t17 -47.5q0 -39 -29 -103l-180 -386q-33 -72 -48.5 -118t-15.5 -74q0 -33 22 -46.5t68 -13.5h33q8 0 11.5 -4.5t2.5 -12.5l-5 -25q-3 -14 -18 -14h-38z" />
    <glyph glyph-name="bar" unicode="|" horiz-adv-x="162" 
d="M-117 -280q-16 0 -13 17l395 1709q1 14 17 14h31q16 0 13 -17l-395 -1709q-1 -14 -17 -14h-31z" />
    <glyph glyph-name="braceright" unicode="}" horiz-adv-x="442" 
d="M-50 -280q-8 0 -11.5 4.5t-2.5 12.5l5 25q3 14 18 14h36q58 0 87.5 21.5t42 75t12.5 155.5v386q0 78 27.5 120.5t94.5 55.5q-37 8 -54.5 26t-17.5 48q0 39 30 102l194 410q54 114 54 164q0 34 -23 49t-71 15h-32q-8 0 -11.5 4.5t-2.5 12.5l7 25q3 14 17 14h38
q142 0 142 -109q0 -65 -52 -175l-194 -410q-17 -36 -25.5 -59t-8.5 -40q0 -23 20.5 -35t67.5 -12h27q16 0 13 -17l-6 -29q-3 -14 -18 -14h-30q-57 0 -83 -16.5t-32 -45.5t-5 -84v-384q0 -116 -23 -184t-70.5 -97t-124.5 -29h-35z" />
    <glyph glyph-name="asciitilde" unicode="~" horiz-adv-x="920" 
d="M99 612q-7 0 -11 4.5t-2 12.5q81 339 262 339q47 0 82.5 -24t59.5 -58.5t57 -92.5q27 -48 46 -76t43.5 -46.5t55.5 -18.5q78 0 126 74.5t81 211.5q3 14 17 14h27q7 0 11 -4.5t2 -12.5q-38 -159 -101 -249t-165 -90q-46 0 -81 23.5t-58.5 58t-53.5 89.5q-29 50 -48 78
t-45 47.5t-60 19.5q-75 0 -121.5 -73.5t-78.5 -212.5q-4 -14 -18 -14h-27z" />
    <glyph glyph-name="exclamdown" unicode="&#xa1;" horiz-adv-x="351" 
d="M323 1030q8 0 11.5 -4.5t2.5 -12.5l-19 -85q-3 -14 -18 -14h-61q-8 0 -11.5 4.5t-1.5 12.5l19 85q1 14 17 14h61zM225 664q16 0 13 -17l-232 -1003q-3 -14 -18 -14h-35q-16 0 -13 17l233 1003q1 14 17 14h35z" />
    <glyph glyph-name="cent" unicode="&#xa2;" horiz-adv-x="988" 
d="M714 1239q85 -16 149 -63t99 -119t35 -161q0 -16 -15 -16h-29q-16 0 -16 16q-4 142 -88 221t-226 79q-151 0 -254 -91t-152.5 -225.5t-49.5 -265.5q0 -184 91 -282t251 -98q292 0 388 322q4 14 18 14h30q13 0 13 -13q0 -3 -2 -11q-115 -364 -447 -364q-27 0 -40 1
l-38 -169q-3 -14 -18 -14h-31q-16 0 -13 17l40 174q-143 28 -223.5 137t-80.5 286q0 147 57.5 293.5t175 243.5t285.5 97q20 0 30 -1l37 159q1 14 17 14h31q16 0 13 -17z" />
    <glyph glyph-name="sterling" unicode="&#xa3;" horiz-adv-x="1041" 
d="M879.5 1371q81.5 -45 124 -129t42.5 -199q0 -15 -2 -45q0 -16 -16 -16h-35q-16 0 -14 16q1 13 1 39q0 152 -79 238.5t-222 86.5q-120 0 -206.5 -61t-131 -170.5t-44.5 -252.5q0 -50 10 -178h354q8 0 11.5 -4.5t2.5 -12.5l-6 -25q-5 -14 -18 -14h-340q8 -112 8 -164
q0 -115 -27 -195t-88 -136t-165 -93l432 -20q16 -1 45 -1q113 0 185 32.5t117 106t71 200.5q1 14 16 14h35q8 0 11 -6.5t2 -17.5q-30 -151 -93 -235.5t-151.5 -117t-209.5 -32.5l-40 1l-537 19q-8 0 -11.5 4.5t-2.5 13.5l4 17q3 12 14 16l53 20q84 32 138 67t95 118t41 227
q0 46 -8 162h-190q-8 0 -11.5 4.5t-2.5 12.5l7 25q3 14 17 14h176q-8 120 -8 170q0 166 53 289t154.5 190t242.5 67q115 0 196.5 -45z" />
    <glyph glyph-name="currency" unicode="&#xa4;" horiz-adv-x="902" 
d="M940 1048q4 -5 4 -10t-6 -11l-170 -146q28 -66 28 -145q0 -77 -27.5 -156.5t-80.5 -138.5l93 -148q3 -4 3 -9q0 -6 -8 -12l-21 -13q-8 -4 -11 -4q-6 0 -11 8l-87 138q-83 -67 -194 -67q-74 0 -127.5 29t-87.5 80l-165 -141q-4 -4 -10 -4q-8 0 -12 7l-15 19q-4 5 -4 11
q0 5 6 11l174 147q-27 66 -27 143t27.5 156t78.5 138l-94 149q-3 6 -3 10q0 6 8 12l22 13q4 3 9 3q7 0 12 -8l88 -138q83 67 194 67q72 0 125.5 -28t88.5 -78l164 138q4 4 9 4q8 0 12 -7zM612.5 436.5q63.5 54.5 94.5 136.5t31 163q0 67 -22.5 124.5t-71 93.5t-122.5 36
q-92 0 -155.5 -54.5t-94 -136.5t-30.5 -163q0 -68 23 -125.5t71.5 -93t121.5 -35.5q91 0 154.5 54.5z" />
    <glyph glyph-name="yen" unicode="&#xa5;" horiz-adv-x="1035" 
d="M559 564l-24 -104h383q8 0 11.5 -4.5t2.5 -12.5l-7 -31q-1 -7 -6 -10.5t-11 -3.5h-387l-32 -138h383q8 0 11.5 -4.5t2.5 -12.5l-7 -31q-1 -7 -6 -10.5t-11 -3.5h-387l-42 -184q-1 -7 -6 -10.5t-11 -3.5h-39q-18 0 -13 17l42 181h-373q-8 0 -12 4.5t-2 12.5l7 31
q1 7 6 10.5t11 3.5h377l33 138h-374q-8 0 -12 4.5t-2 12.5l7 31q1 7 6 10.5t11 3.5h378l26 112l-258 811q-1 2 -1 5q0 12 14 12h38q14 0 18 -13l235 -749l593 753q8 9 19 9h40q13 0 13 -9q0 -4 -3 -10z" />
    <glyph glyph-name="brokenbar" unicode="&#xa6;" horiz-adv-x="163" 
d="M114 720q-16 0 -13 17l165 709q1 14 17 14h31q16 0 13 -17l-164 -709q-3 -14 -18 -14h-31zM-116 -280q-16 0 -13 17l163 709q1 14 17 14h31q16 0 13 -17l-163 -709q-1 -14 -17 -14h-31z" />
    <glyph glyph-name="section" unicode="&#xa7;" horiz-adv-x="1156" 
d="M937 1350.5q94 -41.5 142.5 -122.5t44.5 -196q0 -16 -16 -16h-29q-7 0 -11 4.5t-4 11.5q4 150 -88.5 229t-264.5 79q-115 0 -199 -34.5t-128 -95t-44 -136.5q0 -78 44 -126t109 -74.5t176 -57.5q119 -34 190.5 -64t121 -87.5t49.5 -150.5q0 -80 -39 -150t-114.5 -118.5
t-181.5 -67.5q87 -38 135 -94.5t48 -147.5q0 -94 -52.5 -172t-153 -124t-237.5 -46q-144 0 -246.5 51t-153.5 144t-46 218q0 15 16 15h29q15 0 15 -16q-4 -110 39 -191t130 -125t213 -44q123 0 209.5 38.5t130 102.5t43.5 141q0 78 -44.5 127t-110 76t-175.5 57
q-118 33 -189 62.5t-120 86.5t-49 149q0 85 42.5 155t123 116t191.5 60q-98 37 -152.5 94.5t-54.5 154.5q0 95 53.5 169t152.5 115.5t231 41.5q130 0 224 -41.5zM919.5 638q-46.5 50 -112.5 76t-185 59q-16 1 -46 1q-121 0 -208.5 -36t-132.5 -99t-45 -141q0 -79 45 -128
t110 -76t178 -59l64 -18q122 2 207.5 42t128.5 104.5t43 142.5q0 82 -46.5 132z" />
    <glyph glyph-name="dieresis" unicode="&#xa8;" horiz-adv-x="506" 
d="M274 1189q-8 0 -12 4.5t-2 12.5l20 83q1 7 6 10.5t11 3.5h51q8 0 11.5 -4.5t1.5 -12.5l-20 -83q-1 -7 -6 -10.5t-11 -3.5h-50zM494 1189q-8 0 -12 4.5t-2 12.5l20 83q1 7 6 10.5t11 3.5h51q8 0 11.5 -4.5t1.5 -12.5l-20 -83q-1 -7 -6 -10.5t-11 -3.5h-50z" />
    <glyph glyph-name="copyright" unicode="&#xa9;" horiz-adv-x="1442" 
d="M431.5 67.5q-142.5 87.5 -221 250.5t-78.5 384t78.5 383t221.5 248.5t332 86.5t331.5 -86.5t220.5 -249t78 -384.5t-78.5 -384.5t-221.5 -249t-332 -86.5q-188 0 -330.5 87.5zM1064.5 115.5q129.5 79.5 199.5 229t70 355.5t-70 355.5t-199.5 229t-302.5 79.5
q-177 0 -305.5 -79.5t-196.5 -229t-68 -355.5q0 -205 70 -354.5t199 -229.5t301 -80q173 0 302.5 79.5zM481.5 357.5q-101.5 119.5 -101.5 350.5q0 140 47 242.5t135.5 158t211.5 55.5q134 0 227.5 -72.5t120.5 -228.5v-2q0 -15 -15 -15h-30q-15 0 -17 15q-21 129 -98.5 189
t-189.5 60q-106 0 -180 -50t-112 -140.5t-38 -211.5q0 -208 86.5 -312t243.5 -104q125 0 205 69.5t90 199.5q2 15 16 15h31q8 0 12 -4.5t3 -12.5q-9 -101 -56 -173.5t-124 -110t-177 -37.5q-189 0 -290.5 119.5z" />
    <glyph glyph-name="ordfeminine" unicode="&#xaa;" horiz-adv-x="826" 
d="M925 1410q16 0 13 -17l-84 -351l-88 -386q-3 -14 -18 -14h-28q-8 0 -11.5 4.5t-2.5 12.5l30 121q-53 -70 -124 -110t-160 -40q-85 0 -146 37t-93.5 104t-32.5 155q0 104 43.5 218.5t136.5 195t232 80.5q100 0 164.5 -45t87.5 -130l32 151q2 14 16 14h33zM643.5 752.5
q78.5 70.5 119.5 176.5t41 207q0 114 -57.5 173t-158.5 59q-119 0 -196 -73t-111.5 -176t-34.5 -195q0 -112 55.5 -177t158.5 -65q105 0 183.5 70.5z" />
    <glyph glyph-name="guillemotleft" unicode="&#xab;" horiz-adv-x="653" 
d="M201 268q-14 0 -17 12l-118 320q-1 3 -1 7q0 7 5 15l254 296q7 8 19 8h34q6 0 9.5 -2.5t3.5 -6.5q0 -6 -4 -10l-262 -303l119 -318q2 -4 2 -7q0 -5 -4 -8t-10 -3h-30zM476 268q-14 0 -17 12l-118 320q-1 3 -1 7q0 7 5 15l254 296q7 8 19 8h34q6 0 9.5 -2.5t3.5 -6.5
q0 -6 -4 -10l-262 -303l119 -318q2 -4 2 -7q0 -5 -4 -8t-10 -3h-30z" />
    <glyph glyph-name="logicalnot" unicode="&#xac;" horiz-adv-x="920" 
d="M935 703l-108 -469q-1 -7 -6 -10.5t-11 -3.5h-31q-8 0 -11.5 4.5t-1.5 12.5l97 421h-782q-8 0 -11.5 4.5t-2.5 12.5l7 31q1 7 6 10.5t11 3.5h831q18 0 13 -17z" />
    <glyph glyph-name="registered" unicode="&#xae;" horiz-adv-x="678" 
d="M331.5 853q-63.5 37 -99 105.5t-35.5 161.5q0 94 35 162.5t99 105t148 36.5q85 0 148 -36.5t97.5 -105t34.5 -162.5q0 -93 -34.5 -161.5t-97.5 -105.5t-148 -37q-84 0 -147.5 37zM656.5 921.5q64.5 71.5 64.5 198.5t-64.5 199.5t-177.5 72.5q-74 0 -129 -33t-85 -94.5
t-30 -144.5q0 -84 30 -145t85 -93t129 -32q113 0 177.5 71.5zM366 924q-7 0 -11 4.5t-4 11.5v361q0 7 4 11t11 4h113q68 0 108 -29t40 -83q0 -47 -27 -74.5t-75 -35.5l96 -151q3 -4 3 -9q0 -10 -12 -10h-15q-13 0 -19 10l-99 156h-90l4 -150q0 -16 -16 -16h-11zM483 1126
q51 0 76.5 18t25.5 58t-26 61t-76 21h-90l-4 -158h94z" />
    <glyph glyph-name="macron" unicode="&#xaf;" horiz-adv-x="719" 
d="M286 1220q-8 0 -12 4.5t-2 12.5l6 27q3 14 17 14h488q8 0 11.5 -4.5t1.5 -12.5l-6 -27q-1 -7 -6 -10.5t-11 -3.5h-487z" />
    <glyph glyph-name="macron" unicode="&#x2c9;" horiz-adv-x="719" 
d="M286 1220q-8 0 -12 4.5t-2 12.5l6 27q3 14 17 14h488q8 0 11.5 -4.5t1.5 -12.5l-6 -27q-1 -7 -6 -10.5t-11 -3.5h-487z" />
    <glyph glyph-name="degree" unicode="&#xb0;" horiz-adv-x="644" 
d="M326.5 929.5q-55.5 29.5 -87.5 82t-32 118.5q0 74 38.5 142t106.5 110t153 42q68 0 123 -29t87 -81.5t32 -119.5q0 -73 -38.5 -141t-106.5 -110.5t-153 -42.5q-67 0 -122.5 29.5zM579 982.5q55 34.5 85.5 91t30.5 120.5q0 54 -25.5 95.5t-70.5 64t-102 22.5
q-73 0 -127 -36t-82.5 -93t-28.5 -117q0 -54 25 -95.5t69.5 -64t101.5 -22.5q69 0 124 34.5z" />
    <glyph glyph-name="plusminus" unicode="&#xb1;" horiz-adv-x="920" 
d="M920 720q8 0 12 -4.5t2 -12.5l-7 -31q-1 -7 -6 -10.5t-11 -3.5h-384l-99 -424q-1 -7 -6 -10.5t-11 -3.5h-31q-8 0 -11.5 4.5t-1.5 12.5l97 421h-382q-8 0 -11.5 4.5t-2.5 12.5l7 31q1 7 6 10.5t11 3.5h387l98 426q3 14 17 14h31q18 0 13 -17l-97 -423h380zM-71 0
q-8 0 -11.5 4.5t-2.5 12.5l7 31q1 7 6 10.5t11 3.5h829q8 0 12 -4.5t2 -12.5l-7 -31q-1 -7 -6 -10.5t-11 -3.5h-829z" />
    <glyph glyph-name="two.sups" unicode="&#xb2;" horiz-adv-x="507" 
d="M107 700q-8 0 -11.5 4.5t-1.5 12.5l18 77q17 72 59 120.5t91.5 76.5t125.5 61q67 29 104.5 50t62.5 54t25 82q0 64 -40 97t-104 33q-71 0 -119.5 -45t-66.5 -140q-3 -15 -17 -15h-22q-8 0 -12 4.5t-3 12.5q21 112 84 169.5t160 57.5q86 0 140 -44t54 -126
q0 -62 -30 -104.5t-74 -69t-119 -61.5q-70 -32 -113 -56.5t-78 -62.5t-48 -92l-12 -50h338q8 0 11.5 -4.5t1.5 -12.5l-4 -16q-3 -13 -17 -13h-383z" />
    <glyph glyph-name="three.sups" unicode="&#xb3;" horiz-adv-x="549" 
d="M190.5 740q-57.5 52 -57.5 142q0 16 1 25q2 15 16 15h25q8 0 12 -4.5t3 -11.5q-1 -8 -1 -23q0 -68 42 -108.5t119 -40.5q63 0 106.5 26.5t64.5 67t21 84.5q0 61 -39 100.5t-107 39.5h-45q-8 0 -11.5 4.5t-1.5 12.5l2 11q1 7 6 10.5t11 3.5h49q39 0 81.5 12.5t73.5 45
t31 86.5q0 61 -40.5 94.5t-105.5 33.5q-68 0 -114.5 -40.5t-64.5 -117.5q-4 -14 -17 -14h-25q-8 0 -11.5 4.5t-2.5 12.5q22 99 86 150t155 51q55 0 100.5 -20t71.5 -57.5t26 -88.5q0 -67 -45.5 -115.5t-122.5 -60.5q56 -15 87 -59t31 -101t-29.5 -108t-87 -82.5
t-135.5 -31.5q-100 0 -157.5 52z" />
    <glyph glyph-name="acute" unicode="&#xb4;" horiz-adv-x="646" 
d="M317 1154q-4 -2 -7 -2q-9 0 -14 11l-6 13q-1 3 -1 7q0 10 9 14l408 198q6 2 7 2q9 0 13 -10l14 -31q2 -4 2 -7q0 -8 -10 -13z" />
    <glyph glyph-name="uni03BC" unicode="&#xb5;" horiz-adv-x="990" 
d="M237 1023q4 9 11 9h50q4 0 6 -2.5t1 -6.5l-144 -615q-17 -71 -17 -135q0 -119 62 -179t167 -60q224 0 392 300l60 256l98 435q2 7 9 7h50q4 0 6 -2.5t1 -6.5l-104 -433l-130 -581q-2 -7 -9 -7h-50q-4 0 -6 2.5t-1 6.5l56 221q-36 -69 -94.5 -127t-132.5 -92.5t-155 -34.5
q-95 0 -164.5 45t-98.5 129l-109 -485q-2 -7 -9 -7h-50q-4 0 -6 2.5t-1 6.5l192 817z" />
    <glyph glyph-name="uni03BC" unicode="&#x3bc;" horiz-adv-x="990" 
d="M237 1023q4 9 11 9h50q4 0 6 -2.5t1 -6.5l-144 -615q-17 -71 -17 -135q0 -119 62 -179t167 -60q224 0 392 300l60 256l98 435q2 7 9 7h50q4 0 6 -2.5t1 -6.5l-104 -433l-130 -581q-2 -7 -9 -7h-50q-4 0 -6 2.5t-1 6.5l56 221q-36 -69 -94.5 -127t-132.5 -92.5t-155 -34.5
q-95 0 -164.5 45t-98.5 129l-109 -485q-2 -7 -9 -7h-50q-4 0 -6 2.5t-1 6.5l192 817z" />
    <glyph glyph-name="paragraph" unicode="&#xb6;" horiz-adv-x="1158" 
d="M1235 1400q16 0 13 -17l-246 -1045l-162 -724q-3 -14 -18 -14h-39q-16 0 -13 17l170 721l60 256h-314l-64 -256l-162 -724q-3 -14 -18 -14h-39q-16 0 -13 17l170 721l60 256h-34q-135 0 -226.5 44.5t-136.5 124.5t-45 185q0 132 66 234.5t188.5 160t287.5 57.5h515z" />
    <glyph glyph-name="periodcentered" unicode="&#xb7;" horiz-adv-x="228" 
d="M92 540q-8 0 -12 4.5t-2 12.5l19 85q3 14 17 14h61q8 0 12 -4.5t2 -12.5l-19 -85q-1 -7 -6 -10.5t-11 -3.5h-61z" />
    <glyph glyph-name="periodcentered" unicode="&#x2219;" horiz-adv-x="228" 
d="M92 540q-8 0 -12 4.5t-2 12.5l19 85q3 14 17 14h61q8 0 12 -4.5t2 -12.5l-19 -85q-1 -7 -6 -10.5t-11 -3.5h-61z" />
    <glyph glyph-name="cedilla" unicode="&#xb8;" horiz-adv-x="370" 
d="M-29 -319q-3 -6 -8.5 -8.5t-11.5 0.5l-26 9q-11 3 -11 12q0 4 3 9l192 319q4 9 12 9q4 0 9 -3l10 -6q12 -8 6 -21z" />
    <glyph glyph-name="one.sups" unicode="&#xb9;" horiz-adv-x="339" 
d="M241 700q-8 0 -11.5 4.5t-1.5 12.5l78 325l66 292q-72 -51 -154 -78q-2 -1 -6 -1q-13 0 -10 15l3 14q3 12 14 16q93 32 162 93q8 7 20 7h27q18 0 13 -17l-81 -345l-73 -324q-1 -7 -6 -10.5t-11 -3.5h-29z" />
    <glyph glyph-name="ordmasculine" unicode="&#xba;" horiz-adv-x="820" 
d="M328 668q-67 38 -104.5 110.5t-37.5 173.5q0 109 44 217t132.5 179.5t213.5 71.5q86 0 153.5 -37.5t105 -109t37.5 -169.5q0 -110 -44.5 -219.5t-133 -182t-212.5 -72.5q-87 0 -154 38zM661 747.5q74 65.5 110.5 163t36.5 193.5q0 125 -63 194.5t-169 69.5
q-107 0 -180.5 -65t-109.5 -162t-36 -193q0 -83 28.5 -143t81 -91.5t122.5 -31.5q105 0 179 65.5z" />
    <glyph glyph-name="guillemotright" unicode="&#xbb;" horiz-adv-x="653" 
d="M36 268q-12 0 -12 9q0 5 4 10l270 333l-126 288q-1 3 -1 7q0 11 13 11h29q14 0 18 -12l124 -291q2 -6 2 -9q0 -6 -5 -11l-263 -325q-7 -10 -19 -10h-34zM311 268q-12 0 -12 9q0 5 4 10l270 333l-126 288q-1 3 -1 7q0 11 13 11h29q14 0 18 -12l124 -291q2 -6 2 -9
q0 -6 -5 -11l-263 -325q-7 -10 -19 -10h-34z" />
    <glyph glyph-name="onequarter" unicode="&#xbc;" horiz-adv-x="1080" 
d="M241 700q-8 0 -11.5 4.5t-1.5 12.5l78 325l66 292q-72 -51 -154 -78q-2 -1 -6 -1q-13 0 -10 15l3 14q3 12 14 16q93 32 162 93q8 7 20 7h27q18 0 13 -17l-81 -345l-73 -324q-1 -7 -6 -10.5t-11 -3.5h-29zM-11 0q-13 0 -13 10q0 5 3 9l1037 1372q8 9 19 9h24q13 0 13 -9
q0 -4 -3 -10l-1037 -1371q-8 -10 -19 -10h-24zM997 700q18 0 13 -17l-99 -431h58q18 0 13 -17l-3 -13q-2 -14 -16 -14h-62l-45 -194q-1 -7 -6 -10.5t-11 -3.5h-27q-8 0 -11.5 4.5t-1.5 12.5l44 191h-312q-8 0 -12 4.5t-2 12.5l5 21q3 9 10 18l395 428q7 8 19 8h51zM921 546
l26 104l-370 -398h276z" />
    <glyph glyph-name="onehalf" unicode="&#xbd;" horiz-adv-x="1095" 
d="M533 0q-8 0 -11.5 4.5t-1.5 12.5l18 77q17 72 59 120.5t91.5 76.5t125.5 61q67 29 104.5 50t62.5 54t25 82q0 64 -40 97t-104 33q-71 0 -119.5 -45t-66.5 -140q-3 -15 -17 -15h-22q-8 0 -12 4.5t-3 12.5q21 112 84 169.5t160 57.5q86 0 140 -44t54 -126q0 -62 -30 -104.5
t-74 -69t-119 -61.5q-70 -32 -113 -56.5t-78 -62.5t-48 -92l-12 -50h338q8 0 11.5 -4.5t1.5 -12.5l-4 -16q-3 -13 -17 -13h-383zM241 700q-8 0 -11.5 4.5t-1.5 12.5l78 325l66 292q-72 -51 -154 -78q-2 -1 -6 -1q-13 0 -10 15l3 14q3 12 14 16q93 32 162 93q8 7 20 7h27
q18 0 13 -17l-81 -345l-73 -324q-1 -7 -6 -10.5t-11 -3.5h-29zM-11 0q-13 0 -13 10q0 5 3 9l1037 1372q8 9 19 9h24q13 0 13 -9q0 -4 -3 -10l-1037 -1371q-8 -10 -19 -10h-24z" />
    <glyph glyph-name="threequarters" unicode="&#xbe;" horiz-adv-x="1268" 
d="M190.5 740q-57.5 52 -57.5 142q0 16 1 25q2 15 16 15h25q8 0 12 -4.5t3 -11.5q-1 -8 -1 -23q0 -68 42 -108.5t119 -40.5q63 0 106.5 26.5t64.5 67t21 84.5q0 61 -39 100.5t-107 39.5h-45q-8 0 -11.5 4.5t-1.5 12.5l2 11q1 7 6 10.5t11 3.5h49q39 0 81.5 12.5t73.5 45
t31 86.5q0 61 -40.5 94.5t-105.5 33.5q-68 0 -114.5 -40.5t-64.5 -117.5q-4 -14 -17 -14h-25q-8 0 -11.5 4.5t-2.5 12.5q22 99 86 150t155 51q55 0 100.5 -20t71.5 -57.5t26 -88.5q0 -67 -45.5 -115.5t-122.5 -60.5q56 -15 87 -59t31 -101t-29.5 -108t-87 -82.5
t-135.5 -31.5q-100 0 -157.5 52zM197 0q-13 0 -13 10q0 5 3 9l1037 1372q8 9 19 9h24q13 0 13 -9q0 -4 -3 -10l-1037 -1371q-8 -10 -19 -10h-24zM1185 700q18 0 13 -17l-99 -431h58q18 0 13 -17l-3 -13q-2 -14 -16 -14h-62l-45 -194q-1 -7 -6 -10.5t-11 -3.5h-27
q-8 0 -11.5 4.5t-1.5 12.5l44 191h-312q-8 0 -12 4.5t-2 12.5l5 21q3 9 10 18l395 428q7 8 19 8h51zM1109 546l26 104l-370 -398h276z" />
    <glyph glyph-name="questiondown" unicode="&#xbf;" horiz-adv-x="910" 
d="M614 1030q8 0 12 -4.5t2 -12.5l-19 -85q-1 -7 -6 -10.5t-11 -3.5h-61q-8 0 -11.5 4.5t-2.5 12.5l19 85q3 14 17 14h61zM514 664q8 0 11.5 -5t1.5 -12q-24 -92 -70.5 -164.5t-99.5 -124t-134 -119.5q-76 -63 -119.5 -106.5t-72.5 -99.5t-29 -125q0 -117 82.5 -178.5
t217.5 -61.5q158 0 248 89t132 275q4 14 17 14h33q8 0 11.5 -4.5t1.5 -12.5q-49 -213 -159.5 -316t-291.5 -103q-100 0 -179.5 33t-125.5 100t-46 165q0 79 31 141t77 108t127 113q79 65 129 113.5t93.5 115.5t65.5 151q4 14 17 14h31z" />
    <glyph glyph-name="Agrave" unicode="&#xc0;" horiz-adv-x="1164" 
d="M1017 17v-4q0 -13 -14 -13h-35q-14 0 -16 15l-63 477h-614l-288 -482q-7 -10 -18 -10h-42q-13 0 -13 10q0 5 3 9l825 1371q6 10 18 10h51q14 0 16 -14zM882 548l-104 790l-470 -790h574zM993 1531q-5 -8 -13 -8l-8 2l-371 186q-9 5 -9 12q0 5 3 9l19 31q6 8 13 8
q3 0 8 -3l360 -202q9 -4 9 -13q0 -4 -3 -9z" />
    <glyph glyph-name="Aacute" unicode="&#xc1;" horiz-adv-x="1164" 
d="M1017 17v-4q0 -13 -14 -13h-35q-14 0 -16 15l-63 477h-614l-288 -482q-7 -10 -18 -10h-42q-13 0 -13 10q0 5 3 9l825 1371q6 10 18 10h51q14 0 16 -14zM882 548l-104 790l-470 -790h574zM681 1524q-4 -2 -7 -2q-9 0 -14 11l-6 13q-1 3 -1 7q0 10 9 14l408 198q6 2 7 2
q9 0 13 -10l14 -31q2 -4 2 -7q0 -8 -10 -13z" />
    <glyph glyph-name="Acircumflex" unicode="&#xc2;" horiz-adv-x="1164" 
d="M1017 17v-4q0 -13 -14 -13h-35q-14 0 -16 15l-63 477h-614l-288 -482q-7 -10 -18 -10h-42q-13 0 -13 10q0 5 3 9l825 1371q6 10 18 10h51q14 0 16 -14zM882 548l-104 790l-470 -790h574zM535 1552q-1 2 -1 6q0 11 10 14l274 118q8 4 19 4h16q12 0 19 -5l220 -116
q9 -4 9 -12l-2 -9l-6 -12q-5 -10 -13 -10l-8 2l-233 98l-278 -101q-2 -1 -6 -1q-10 0 -14 10z" />
    <glyph glyph-name="Atilde" unicode="&#xc3;" horiz-adv-x="1164" 
d="M1017 17v-4q0 -13 -14 -13h-35q-14 0 -16 15l-63 477h-614l-288 -482q-7 -10 -18 -10h-42q-13 0 -13 10q0 5 3 9l825 1371q6 10 18 10h51q14 0 16 -14zM882 548l-104 790l-470 -790h574zM877 1560q-28 24 -58 68q-24 35 -43 52.5t-45 17.5q-37 0 -57 -32.5t-35 -99.5
q-4 -14 -18 -14h-20q-8 0 -11.5 5t-2.5 12q22 86 55.5 132.5t92.5 46.5q45 0 73 -24t61 -70q24 -34 42 -51t42 -17q41 0 61 32t37 100q3 14 17 14h20q8 0 11.5 -5.5t1.5 -15.5q-22 -85 -56 -130t-96 -45q-44 0 -72 24z" />
    <glyph glyph-name="Adieresis" unicode="&#xc4;" horiz-adv-x="1164" 
d="M1017 17v-4q0 -13 -14 -13h-35q-14 0 -16 15l-63 477h-614l-288 -482q-7 -10 -18 -10h-42q-13 0 -13 10q0 5 3 9l825 1371q6 10 18 10h51q14 0 16 -14zM882 548l-104 790l-470 -790h574zM693 1559q-8 0 -12 4.5t-2 12.5l20 83q1 7 6 10.5t11 3.5h51q8 0 11.5 -4.5
t1.5 -12.5l-20 -83q-1 -7 -6 -10.5t-11 -3.5h-50zM913 1559q-8 0 -12 4.5t-2 12.5l20 83q1 7 6 10.5t11 3.5h51q8 0 11.5 -4.5t1.5 -12.5l-20 -83q-1 -7 -6 -10.5t-11 -3.5h-50z" />
    <glyph glyph-name="Aring" unicode="&#xc5;" horiz-adv-x="1164" 
d="M1017 17v-4q0 -13 -14 -13h-35q-14 0 -16 15l-63 477h-614l-288 -482q-7 -10 -18 -10h-42q-13 0 -13 10q0 5 3 9l825 1371q6 10 18 10h51q14 0 16 -14zM882 548l-104 790l-470 -790h574zM723 1563q-46 43 -46 111q0 52 24.5 95.5t67.5 69t98 25.5q70 0 116 -43t46 -111
q0 -52 -24.5 -95.5t-67.5 -69t-98 -25.5q-70 0 -116 43zM941 1603q40 41 40 103q0 54 -32.5 85t-83.5 31q-60 0 -100 -41t-40 -103q0 -54 32.5 -85t83.5 -31q60 0 100 41z" />
    <glyph glyph-name="AE" unicode="&#xc6;" horiz-adv-x="1633" 
d="M1724 1400q8 0 11.5 -4.5t1.5 -12.5l-6 -25q-1 -7 -6 -10.5t-11 -3.5h-598l-132 -560h560q8 0 11.5 -4.5t1.5 -12.5l-6 -25q-1 -7 -6 -10.5t-11 -3.5h-564l-152 -672h610q8 0 12 -4.5t2 -12.5l-5 -25q-1 -7 -6 -10.5t-11 -3.5h-667q-8 0 -11.5 4.5t-1.5 12.5l113 475
h-497l-366 -482q-8 -10 -19 -10h-42q-13 0 -13 10q0 5 4 9l1041 1372q8 9 19 9h744zM398 548h468l48 202l133 594h-47z" />
    <glyph glyph-name="Ccedilla" unicode="&#xc7;" horiz-adv-x="1323" 
d="M1072 1360q115 -60 179 -168t64 -248q0 -20 -16 -20h-35q-15 0 -15 16q-3 133 -57 228.5t-152 145.5t-231 50q-208 0 -349 -124.5t-209 -309.5t-68 -364q0 -172 57 -291t163.5 -179t253.5 -60q405 0 540 456q4 14 17 14h37q13 0 13 -14q0 -2 -2 -10q-79 -259 -234 -380.5
t-371 -121.5q-21 0 -59 2l-164 -301q-4 -6 -9.5 -8.5t-11.5 0.5l-26 9q-10 3 -10 12q0 6 2 9l171 285q-135 20 -233 93t-151 196t-53 289q0 197 77.5 394.5t235 328.5t383.5 131q148 0 263 -60z" />
    <glyph glyph-name="Egrave" unicode="&#xc8;" horiz-adv-x="1007" 
d="M27 0q-8 0 -11.5 4.5t-1.5 12.5l174 733l142 636q1 7 6 10.5t11 3.5h751q8 0 11.5 -4.5t1.5 -12.5l-6 -25q-1 -7 -6 -10.5t-11 -3.5h-698l-132 -560h660q8 0 11.5 -4.5t1.5 -12.5l-6 -25q-1 -7 -6 -10.5t-11 -3.5h-664l-152 -672h710q8 0 12 -4.5t2 -12.5l-5 -25
q-1 -7 -6 -10.5t-11 -3.5h-767zM931 1531q-5 -8 -13 -8l-8 2l-371 186q-9 5 -9 12q0 5 3 9l19 31q6 8 13 8q3 0 8 -3l360 -202q9 -4 9 -13q0 -4 -3 -9z" />
    <glyph glyph-name="Eacute" unicode="&#xc9;" horiz-adv-x="1007" 
d="M27 0q-8 0 -11.5 4.5t-1.5 12.5l174 733l142 636q1 7 6 10.5t11 3.5h751q8 0 11.5 -4.5t1.5 -12.5l-6 -25q-1 -7 -6 -10.5t-11 -3.5h-698l-132 -560h660q8 0 11.5 -4.5t1.5 -12.5l-6 -25q-1 -7 -6 -10.5t-11 -3.5h-664l-152 -672h710q8 0 12 -4.5t2 -12.5l-5 -25
q-1 -7 -6 -10.5t-11 -3.5h-767zM619 1524q-4 -2 -7 -2q-9 0 -14 11l-6 13q-1 3 -1 7q0 10 9 14l408 198q6 2 7 2q9 0 13 -10l14 -31q2 -4 2 -7q0 -8 -10 -13z" />
    <glyph glyph-name="Ecircumflex" unicode="&#xca;" horiz-adv-x="1007" 
d="M27 0q-8 0 -11.5 4.5t-1.5 12.5l174 733l142 636q1 7 6 10.5t11 3.5h751q8 0 11.5 -4.5t1.5 -12.5l-6 -25q-1 -7 -6 -10.5t-11 -3.5h-698l-132 -560h660q8 0 11.5 -4.5t1.5 -12.5l-6 -25q-1 -7 -6 -10.5t-11 -3.5h-664l-152 -672h710q8 0 12 -4.5t2 -12.5l-5 -25
q-1 -7 -6 -10.5t-11 -3.5h-767zM473 1552q-1 2 -1 6q0 11 10 14l274 118q8 4 19 4h16q12 0 19 -5l220 -116q9 -4 9 -12l-2 -9l-6 -12q-5 -10 -13 -10l-8 2l-233 98l-278 -101q-2 -1 -6 -1q-10 0 -14 10z" />
    <glyph glyph-name="Edieresis" unicode="&#xcb;" horiz-adv-x="1007" 
d="M27 0q-8 0 -11.5 4.5t-1.5 12.5l174 733l142 636q1 7 6 10.5t11 3.5h751q8 0 11.5 -4.5t1.5 -12.5l-6 -25q-1 -7 -6 -10.5t-11 -3.5h-698l-132 -560h660q8 0 11.5 -4.5t1.5 -12.5l-6 -25q-1 -7 -6 -10.5t-11 -3.5h-664l-152 -672h710q8 0 12 -4.5t2 -12.5l-5 -25
q-1 -7 -6 -10.5t-11 -3.5h-767zM631 1559q-8 0 -12 4.5t-2 12.5l20 83q1 7 6 10.5t11 3.5h51q8 0 11.5 -4.5t1.5 -12.5l-20 -83q-1 -7 -6 -10.5t-11 -3.5h-50zM851 1559q-8 0 -12 4.5t-2 12.5l20 83q1 7 6 10.5t11 3.5h51q8 0 11.5 -4.5t1.5 -12.5l-20 -83q-1 -7 -6 -10.5
t-11 -3.5h-50z" />
    <glyph glyph-name="Igrave" unicode="&#xcc;" horiz-adv-x="349" 
d="M39 0q-8 0 -11.5 4.5t-1.5 12.5l168 711l148 658q1 7 6 10.5t11 3.5h39q18 0 13 -17l-155 -655l-161 -714q-1 -7 -6 -10.5t-11 -3.5h-39zM584 1531q-5 -8 -13 -8l-8 2l-371 186q-9 5 -9 12q0 5 3 9l19 31q6 8 13 8q3 0 8 -3l360 -202q9 -4 9 -13q0 -4 -3 -9z" />
    <glyph glyph-name="Iacute" unicode="&#xcd;" horiz-adv-x="349" 
d="M39 0q-8 0 -11.5 4.5t-1.5 12.5l168 711l148 658q1 7 6 10.5t11 3.5h39q18 0 13 -17l-155 -655l-161 -714q-1 -7 -6 -10.5t-11 -3.5h-39zM272 1524q-4 -2 -7 -2q-9 0 -14 11l-6 13q-1 3 -1 7q0 10 9 14l408 198q6 2 7 2q9 0 13 -10l14 -31q2 -4 2 -7q0 -8 -10 -13z" />
    <glyph glyph-name="Icircumflex" unicode="&#xce;" horiz-adv-x="349" 
d="M39 0q-8 0 -11.5 4.5t-1.5 12.5l168 711l148 658q1 7 6 10.5t11 3.5h39q18 0 13 -17l-155 -655l-161 -714q-1 -7 -6 -10.5t-11 -3.5h-39zM127 1552q-1 2 -1 6q0 11 10 14l274 118q8 4 19 4h16q12 0 19 -5l220 -116q9 -4 9 -12l-2 -9l-6 -12q-5 -10 -13 -10l-8 2l-233 98
l-278 -101q-2 -1 -6 -1q-10 0 -14 10z" />
    <glyph glyph-name="Idieresis" unicode="&#xcf;" horiz-adv-x="349" 
d="M39 0q-8 0 -11.5 4.5t-1.5 12.5l168 711l148 658q1 7 6 10.5t11 3.5h39q18 0 13 -17l-155 -655l-161 -714q-1 -7 -6 -10.5t-11 -3.5h-39zM285 1559q-8 0 -12 4.5t-2 12.5l20 83q1 7 6 10.5t11 3.5h51q8 0 11.5 -4.5t1.5 -12.5l-20 -83q-1 -7 -6 -10.5t-11 -3.5h-50z
M505 1559q-8 0 -12 4.5t-2 12.5l20 83q1 7 6 10.5t11 3.5h51q8 0 11.5 -4.5t1.5 -12.5l-20 -83q-1 -7 -6 -10.5t-11 -3.5h-50z" />
    <glyph glyph-name="Eth" unicode="&#xd0;" horiz-adv-x="1297" 
d="M694 1400q175 0 306.5 -66t203.5 -192.5t72 -301.5q0 -197 -84.5 -391t-255.5 -321.5t-416 -127.5h-485q-16 0 -13 17l169 711h-140q-8 0 -12 4.5t-2 12.5l6 25q4 14 17 14h143l136 602q1 7 5.5 10.5t11.5 3.5h338zM520 56q226 0 381 121t230 302t75 361q0 160 -62 273.5
t-177.5 172t-272.5 58.5h-292l-132 -560h416q8 0 11.5 -4.5t2.5 -12.5l-6 -25q-5 -14 -18 -14h-419l-153 -672h416z" />
    <glyph glyph-name="Ntilde" unicode="&#xd1;" horiz-adv-x="1303" 
d="M27 0q-8 0 -11.5 4.5t-1.5 12.5l168 707l150 662q3 14 17 14h28q13 0 18 -11l617 -1287l146 622l148 662q1 7 6 10.5t11 3.5h39q18 0 13 -17l-155 -659l-163 -710q-1 -7 -6 -10.5t-11 -3.5h-35q-13 0 -19 11l-612 1271l-130 -558l-161 -710q-1 -7 -6 -10.5t-11 -3.5h-39z
M939 1560q-28 24 -58 68q-24 35 -43 52.5t-45 17.5q-37 0 -57 -32.5t-35 -99.5q-4 -14 -18 -14h-20q-8 0 -11.5 5t-2.5 12q22 86 55.5 132.5t92.5 46.5q45 0 73 -24t61 -70q24 -34 42 -51t42 -17q41 0 61 32t37 100q3 14 17 14h20q8 0 11.5 -5.5t1.5 -15.5q-22 -85 -56 -130
t-96 -45q-44 0 -72 24z" />
    <glyph glyph-name="Ograve" unicode="&#xd2;" horiz-adv-x="1426" 
d="M376 49q-127 69 -198 201t-71 314q0 199 83 397t250 328.5t403 130.5q166 0 293 -69t198 -200t71 -311q0 -200 -83.5 -399t-250 -330t-402.5 -131q-166 0 -293 69zM1036.5 160q150.5 124 224.5 310.5t74 369.5q0 165 -61 283t-172 179.5t-259 61.5q-217 0 -367.5 -124
t-224.5 -310.5t-74 -369.5q0 -165 61 -283t172 -179.5t259 -61.5q217 0 367.5 124zM1104 1531q-5 -8 -13 -8l-8 2l-371 186q-9 5 -9 12q0 5 3 9l19 31q6 8 13 8q3 0 8 -3l360 -202q9 -4 9 -13q0 -4 -3 -9z" />
    <glyph glyph-name="Oacute" unicode="&#xd3;" horiz-adv-x="1426" 
d="M376 49q-127 69 -198 201t-71 314q0 199 83 397t250 328.5t403 130.5q166 0 293 -69t198 -200t71 -311q0 -200 -83.5 -399t-250 -330t-402.5 -131q-166 0 -293 69zM1036.5 160q150.5 124 224.5 310.5t74 369.5q0 165 -61 283t-172 179.5t-259 61.5q-217 0 -367.5 -124
t-224.5 -310.5t-74 -369.5q0 -165 61 -283t172 -179.5t259 -61.5q217 0 367.5 124zM792 1524q-4 -2 -7 -2q-9 0 -14 11l-6 13q-1 3 -1 7q0 10 9 14l408 198q6 2 7 2q9 0 13 -10l14 -31q2 -4 2 -7q0 -8 -10 -13z" />
    <glyph glyph-name="Ocircumflex" unicode="&#xd4;" horiz-adv-x="1426" 
d="M376 49q-127 69 -198 201t-71 314q0 199 83 397t250 328.5t403 130.5q166 0 293 -69t198 -200t71 -311q0 -200 -83.5 -399t-250 -330t-402.5 -131q-166 0 -293 69zM1036.5 160q150.5 124 224.5 310.5t74 369.5q0 165 -61 283t-172 179.5t-259 61.5q-217 0 -367.5 -124
t-224.5 -310.5t-74 -369.5q0 -165 61 -283t172 -179.5t259 -61.5q217 0 367.5 124zM647 1552q-1 2 -1 6q0 11 10 14l274 118q8 4 19 4h16q12 0 19 -5l220 -116q9 -4 9 -12l-2 -9l-6 -12q-5 -10 -13 -10l-8 2l-233 98l-278 -101q-2 -1 -6 -1q-10 0 -14 10z" />
    <glyph glyph-name="Otilde" unicode="&#xd5;" horiz-adv-x="1426" 
d="M376 49q-127 69 -198 201t-71 314q0 199 83 397t250 328.5t403 130.5q166 0 293 -69t198 -200t71 -311q0 -200 -83.5 -399t-250 -330t-402.5 -131q-166 0 -293 69zM1036.5 160q150.5 124 224.5 310.5t74 369.5q0 165 -61 283t-172 179.5t-259 61.5q-217 0 -367.5 -124
t-224.5 -310.5t-74 -369.5q0 -165 61 -283t172 -179.5t259 -61.5q217 0 367.5 124zM989 1560q-28 24 -58 68q-24 35 -43 52.5t-45 17.5q-37 0 -57 -32.5t-35 -99.5q-4 -14 -18 -14h-20q-8 0 -11.5 5t-2.5 12q22 86 55.5 132.5t92.5 46.5q45 0 73 -24t61 -70q24 -34 42 -51
t42 -17q41 0 61 32t37 100q3 14 17 14h20q8 0 11.5 -5.5t1.5 -15.5q-22 -85 -56 -130t-96 -45q-44 0 -72 24z" />
    <glyph glyph-name="Odieresis" unicode="&#xd6;" horiz-adv-x="1426" 
d="M376 49q-127 69 -198 201t-71 314q0 199 83 397t250 328.5t403 130.5q166 0 293 -69t198 -200t71 -311q0 -200 -83.5 -399t-250 -330t-402.5 -131q-166 0 -293 69zM1036.5 160q150.5 124 224.5 310.5t74 369.5q0 165 -61 283t-172 179.5t-259 61.5q-217 0 -367.5 -124
t-224.5 -310.5t-74 -369.5q0 -165 61 -283t172 -179.5t259 -61.5q217 0 367.5 124zM805 1559q-8 0 -12 4.5t-2 12.5l20 83q1 7 6 10.5t11 3.5h51q8 0 11.5 -4.5t1.5 -12.5l-20 -83q-1 -7 -6 -10.5t-11 -3.5h-50zM1025 1559q-8 0 -12 4.5t-2 12.5l20 83q1 7 6 10.5t11 3.5h51
q8 0 11.5 -4.5t1.5 -12.5l-20 -83q-1 -7 -6 -10.5t-11 -3.5h-50z" />
    <glyph glyph-name="multiply" unicode="&#xd7;" horiz-adv-x="920" 
d="M921 1006q4 -4 4 -10q0 -7 -7 -11l-376 -301l231 -294q3 -4 3 -9q0 -6 -7 -12l-23 -17q-5 -4 -10 -4q-7 0 -11 6l-230 292l-375 -300q-7 -5 -10 -5q-6 0 -11 7l-19 24q-4 5 -4 11q0 5 6 11l375 299l-231 295q-4 5 -4 11q0 5 6 11l24 19q5 4 11 4q7 0 11 -7l231 -295
l377 302q5 4 10 4q6 0 12 -8z" />
    <glyph glyph-name="Oslash" unicode="&#xd8;" horiz-adv-x="1426" 
d="M1562 1410q4 -5 4 -10q0 -6 -6 -12l-238 -215q83 -139 83 -333q0 -200 -83.5 -399t-250 -330t-402.5 -131q-144 0 -259.5 52.5t-189.5 151.5l-235 -212q-5 -4 -11 -4q-7 0 -11 6l-13 16q-4 5 -4 10q0 6 6 12l239 215q-84 140 -84 337q0 199 83 397t250 328.5t403 130.5
q144 0 259.5 -52.5t190.5 -151.5l234 212q5 4 11 4t11 -6zM475.5 1240q-150.5 -124 -224.5 -310.5t-74 -369.5q0 -166 64 -289l1003 902q-64 93 -167 142t-234 49q-217 0 -367.5 -124zM1036.5 160q150.5 124 224.5 310.5t74 369.5q0 166 -64 288l-1003 -901q64 -93 167 -142
t234 -49q217 0 367.5 124z" />
    <glyph glyph-name="Ugrave" unicode="&#xd9;" horiz-adv-x="1201" 
d="M296 32q-92 52 -137.5 142.5t-45.5 205.5q0 70 19 152l122 514l76 340q1 7 6 10.5t11 3.5h39q18 0 13 -17l-79 -337l-120 -518q-17 -76 -17 -144q0 -101 37 -179t114 -123.5t192 -45.5q177 0 298 120t176 352l128 538l76 340q1 7 6 10.5t11 3.5h39q18 0 13 -17l-79 -337
l-126 -536q-61 -261 -201 -395.5t-347 -134.5q-132 0 -224 52zM1011 1531q-5 -8 -13 -8l-8 2l-371 186q-9 5 -9 12q0 5 3 9l19 31q6 8 13 8q3 0 8 -3l360 -202q9 -4 9 -13q0 -4 -3 -9z" />
    <glyph glyph-name="Uacute" unicode="&#xda;" horiz-adv-x="1201" 
d="M296 32q-92 52 -137.5 142.5t-45.5 205.5q0 70 19 152l122 514l76 340q1 7 6 10.5t11 3.5h39q18 0 13 -17l-79 -337l-120 -518q-17 -76 -17 -144q0 -101 37 -179t114 -123.5t192 -45.5q177 0 298 120t176 352l128 538l76 340q1 7 6 10.5t11 3.5h39q18 0 13 -17l-79 -337
l-126 -536q-61 -261 -201 -395.5t-347 -134.5q-132 0 -224 52zM699 1524q-4 -2 -7 -2q-9 0 -14 11l-6 13q-1 3 -1 7q0 10 9 14l408 198q6 2 7 2q9 0 13 -10l14 -31q2 -4 2 -7q0 -8 -10 -13z" />
    <glyph glyph-name="Ucircumflex" unicode="&#xdb;" horiz-adv-x="1201" 
d="M296 32q-92 52 -137.5 142.5t-45.5 205.5q0 70 19 152l122 514l76 340q1 7 6 10.5t11 3.5h39q18 0 13 -17l-79 -337l-120 -518q-17 -76 -17 -144q0 -101 37 -179t114 -123.5t192 -45.5q177 0 298 120t176 352l128 538l76 340q1 7 6 10.5t11 3.5h39q18 0 13 -17l-79 -337
l-126 -536q-61 -261 -201 -395.5t-347 -134.5q-132 0 -224 52zM553 1552q-1 2 -1 6q0 11 10 14l274 118q8 4 19 4h16q12 0 19 -5l220 -116q9 -4 9 -12l-2 -9l-6 -12q-5 -10 -13 -10l-8 2l-233 98l-278 -101q-2 -1 -6 -1q-10 0 -14 10z" />
    <glyph glyph-name="Udieresis" unicode="&#xdc;" horiz-adv-x="1201" 
d="M296 32q-92 52 -137.5 142.5t-45.5 205.5q0 70 19 152l122 514l76 340q1 7 6 10.5t11 3.5h39q18 0 13 -17l-79 -337l-120 -518q-17 -76 -17 -144q0 -101 37 -179t114 -123.5t192 -45.5q177 0 298 120t176 352l128 538l76 340q1 7 6 10.5t11 3.5h39q18 0 13 -17l-79 -337
l-126 -536q-61 -261 -201 -395.5t-347 -134.5q-132 0 -224 52zM711 1559q-8 0 -12 4.5t-2 12.5l20 83q1 7 6 10.5t11 3.5h51q8 0 11.5 -4.5t1.5 -12.5l-20 -83q-1 -7 -6 -10.5t-11 -3.5h-50zM931 1559q-8 0 -12 4.5t-2 12.5l20 83q1 7 6 10.5t11 3.5h51q8 0 11.5 -4.5
t1.5 -12.5l-20 -83q-1 -7 -6 -10.5t-11 -3.5h-50z" />
    <glyph glyph-name="Yacute" unicode="&#xdd;" horiz-adv-x="1036" 
d="M234 1383v5q0 12 13 12h36q14 0 18 -13l224 -811l605 815q6 9 19 9h43q13 0 13 -9q0 -5 -4 -10l-656 -877l-112 -490q-3 -14 -18 -14h-39q-16 0 -13 17l116 495zM610 1524q-4 -2 -7 -2q-9 0 -14 11l-6 13q-1 3 -1 7q0 10 9 14l408 198q6 2 7 2q9 0 13 -10l14 -31
q2 -4 2 -7q0 -8 -10 -13z" />
    <glyph glyph-name="Thorn" unicode="&#xde;" horiz-adv-x="1051" 
d="M640 1110q135 0 226.5 -44.5t136.5 -124.5t45 -185q0 -132 -66 -234.5t-188.5 -160t-287.5 -57.5h-357l-66 -290q-1 -7 -6 -10.5t-11 -3.5h-39q-8 0 -11.5 4.5t-1.5 12.5l170 721l146 648q1 7 6 10.5t11 3.5h39q18 0 13 -17l-64 -273h305zM510 360q150 0 255.5 50.5
t159 138.5t53.5 201q0 139 -83 221.5t-259 82.5h-315l-75 -316l-85 -378h349z" />
    <glyph glyph-name="germandbls" unicode="&#xdf;" horiz-adv-x="991" 
d="M17 -1q-8 0 -11.5 4.5t-1.5 12.5l106 456l128 552q49 209 161.5 306.5t266.5 97.5q101 0 176 -40t115.5 -111t40.5 -162q0 -92 -40 -168t-115.5 -127.5t-178.5 -69.5q131 -31 198.5 -112.5t67.5 -205.5t-65.5 -222.5t-189.5 -154t-291 -55.5h-76q-8 0 -12 4.5t-2 12.5
l6 25q4 14 17 14h71q151 0 257.5 49.5t160.5 134.5t54 192q0 90 -42 156t-121 101t-187 35h-32q-8 0 -12 4.5t-2 12.5l6 25q4 14 17 14h37q123 0 214.5 41t140.5 115.5t49 173.5q0 79 -31.5 138.5t-91.5 92.5t-145 33q-134 0 -226.5 -87t-133.5 -263l-128 -552l-103 -459
q-1 -7 -6 -10.5t-11 -3.5h-35z" />
    <glyph glyph-name="agrave" unicode="&#xe0;" horiz-adv-x="1009" 
d="M990 1030q18 0 13 -17l-113 -475l-117 -524q-1 -7 -6 -10.5t-11 -3.5h-32q-8 0 -12 4.5t-2 12.5l47 189q-66 -101 -157.5 -159.5t-207.5 -58.5q-105 0 -181.5 49t-116.5 138t-40 207q0 140 55.5 294t171.5 261t287 107q135 0 217.5 -72t102.5 -207l53 251q3 14 16 14h33z
M639 135q103 97 157 242.5t54 284.5q0 164 -75 247t-209 83q-156 0 -257.5 -101.5t-147 -243.5t-45.5 -267q0 -103 33 -180.5t96.5 -119.5t152.5 -42q138 0 241 97zM801 1161q-5 -8 -13 -8l-8 2l-371 186q-9 5 -9 12q0 5 3 9l19 31q6 8 13 8q3 0 8 -3l360 -202q9 -4 9 -13
q0 -4 -3 -9z" />
    <glyph glyph-name="aacute" unicode="&#xe1;" horiz-adv-x="1009" 
d="M990 1030q18 0 13 -17l-113 -475l-117 -524q-1 -7 -6 -10.5t-11 -3.5h-32q-8 0 -12 4.5t-2 12.5l47 189q-66 -101 -157.5 -159.5t-207.5 -58.5q-105 0 -181.5 49t-116.5 138t-40 207q0 140 55.5 294t171.5 261t287 107q135 0 217.5 -72t102.5 -207l53 251q3 14 16 14h33z
M639 135q103 97 157 242.5t54 284.5q0 164 -75 247t-209 83q-156 0 -257.5 -101.5t-147 -243.5t-45.5 -267q0 -103 33 -180.5t96.5 -119.5t152.5 -42q138 0 241 97zM489 1154q-4 -2 -7 -2q-9 0 -14 11l-6 13q-1 3 -1 7q0 10 9 14l408 198q6 2 7 2q9 0 13 -10l14 -31
q2 -4 2 -7q0 -8 -10 -13z" />
    <glyph glyph-name="acircumflex" unicode="&#xe2;" horiz-adv-x="1009" 
d="M990 1030q18 0 13 -17l-113 -475l-117 -524q-1 -7 -6 -10.5t-11 -3.5h-32q-8 0 -12 4.5t-2 12.5l47 189q-66 -101 -157.5 -159.5t-207.5 -58.5q-105 0 -181.5 49t-116.5 138t-40 207q0 140 55.5 294t171.5 261t287 107q135 0 217.5 -72t102.5 -207l53 251q3 14 16 14h33z
M639 135q103 97 157 242.5t54 284.5q0 164 -75 247t-209 83q-156 0 -257.5 -101.5t-147 -243.5t-45.5 -267q0 -103 33 -180.5t96.5 -119.5t152.5 -42q138 0 241 97zM343 1182q-1 2 -1 6q0 11 10 14l274 118q8 4 19 4h16q12 0 19 -5l220 -116q9 -4 9 -12l-2 -9l-6 -12
q-5 -10 -13 -10l-8 2l-233 98l-278 -101q-2 -1 -6 -1q-10 0 -14 10z" />
    <glyph glyph-name="atilde" unicode="&#xe3;" horiz-adv-x="1009" 
d="M990 1030q18 0 13 -17l-113 -475l-117 -524q-1 -7 -6 -10.5t-11 -3.5h-32q-8 0 -12 4.5t-2 12.5l47 189q-66 -101 -157.5 -159.5t-207.5 -58.5q-105 0 -181.5 49t-116.5 138t-40 207q0 140 55.5 294t171.5 261t287 107q135 0 217.5 -72t102.5 -207l53 251q3 14 16 14h33z
M639 135q103 97 157 242.5t54 284.5q0 164 -75 247t-209 83q-156 0 -257.5 -101.5t-147 -243.5t-45.5 -267q0 -103 33 -180.5t96.5 -119.5t152.5 -42q138 0 241 97zM685 1190q-28 24 -58 68q-24 35 -43 52.5t-45 17.5q-37 0 -57 -32.5t-35 -99.5q-4 -14 -18 -14h-20
q-8 0 -11.5 5t-2.5 12q22 86 55.5 132.5t92.5 46.5q45 0 73 -24t61 -70q24 -34 42 -51t42 -17q41 0 61 32t37 100q3 14 17 14h20q8 0 11.5 -5.5t1.5 -15.5q-22 -85 -56 -130t-96 -45q-44 0 -72 24z" />
    <glyph glyph-name="adieresis" unicode="&#xe4;" horiz-adv-x="1009" 
d="M990 1030q18 0 13 -17l-113 -475l-117 -524q-1 -7 -6 -10.5t-11 -3.5h-32q-8 0 -12 4.5t-2 12.5l47 189q-66 -101 -157.5 -159.5t-207.5 -58.5q-105 0 -181.5 49t-116.5 138t-40 207q0 140 55.5 294t171.5 261t287 107q135 0 217.5 -72t102.5 -207l53 251q3 14 16 14h33z
M639 135q103 97 157 242.5t54 284.5q0 164 -75 247t-209 83q-156 0 -257.5 -101.5t-147 -243.5t-45.5 -267q0 -103 33 -180.5t96.5 -119.5t152.5 -42q138 0 241 97zM501 1189q-8 0 -12 4.5t-2 12.5l20 83q1 7 6 10.5t11 3.5h51q8 0 11.5 -4.5t1.5 -12.5l-20 -83
q-1 -7 -6 -10.5t-11 -3.5h-50zM721 1189q-8 0 -12 4.5t-2 12.5l20 83q1 7 6 10.5t11 3.5h51q8 0 11.5 -4.5t1.5 -12.5l-20 -83q-1 -7 -6 -10.5t-11 -3.5h-50z" />
    <glyph glyph-name="aring" unicode="&#xe5;" horiz-adv-x="1009" 
d="M990 1030q18 0 13 -17l-113 -475l-117 -524q-1 -7 -6 -10.5t-11 -3.5h-32q-8 0 -12 4.5t-2 12.5l47 189q-66 -101 -157.5 -159.5t-207.5 -58.5q-105 0 -181.5 49t-116.5 138t-40 207q0 140 55.5 294t171.5 261t287 107q135 0 217.5 -72t102.5 -207l53 251q3 14 16 14h33z
M639 135q103 97 157 242.5t54 284.5q0 164 -75 247t-209 83q-156 0 -257.5 -101.5t-147 -243.5t-45.5 -267q0 -103 33 -180.5t96.5 -119.5t152.5 -42q138 0 241 97zM531 1193q-46 43 -46 111q0 52 24.5 95.5t67.5 69t98 25.5q70 0 116 -43t46 -111q0 -52 -24.5 -95.5
t-67.5 -69t-98 -25.5q-70 0 -116 43zM749 1233q40 41 40 103q0 54 -32.5 85t-83.5 31q-60 0 -100 -41t-40 -103q0 -54 32.5 -85t83.5 -31q60 0 100 41z" />
    <glyph glyph-name="ae" unicode="&#xe6;" horiz-adv-x="1781" 
d="M1543.5 1002.5q85.5 -45.5 133 -132t47.5 -204.5q0 -57 -12 -120q-1 -14 -16 -14h-798q-10 -60 -10 -122q0 -182 91 -279t251 -97q291 0 387 322q6 14 18 14h31q13 0 13 -14q0 -2 -2 -10q-116 -364 -447 -364q-152 0 -253.5 77.5t-134.5 222.5l-60 -268q-1 -7 -5.5 -10.5
t-10.5 -3.5h-32q-8 0 -12 4.5t-2 12.5l56 219q-68 -114 -164 -181t-220 -67q-105 0 -181.5 49t-116.5 138t-40 207q0 140 55.5 294t171.5 261t287 107q130 0 211 -69t105 -197l49 238q3 14 16 14h33q8 0 11.5 -4.5t1.5 -12.5l-51 -211q70 120 168.5 183t233.5 63
q112 0 197.5 -45.5zM1656 586q9 48 9 91q0 94 -38.5 166.5t-110.5 112.5t-170 40q-119 0 -208.5 -57t-146 -150t-82.5 -203h747zM639 135q103 97 157 242.5t54 284.5q-1 164 -76 247t-208 83q-156 0 -257.5 -101.5t-147 -243.5t-45.5 -267q0 -103 33 -180.5t96.5 -119.5
t152.5 -42q138 0 241 97z" />
    <glyph glyph-name="ccedilla" unicode="&#xe7;" horiz-adv-x="991" 
d="M772 1004q85 -44 132.5 -124t47.5 -184q0 -16 -16 -16h-29q-15 0 -15 16q-4 142 -88 221t-226 79q-151 0 -254 -91t-152.5 -225.5t-49.5 -265.5q0 -184 91 -282t251 -98q291 0 387 322q6 14 18 14h31q13 0 13 -14q0 -2 -2 -10q-116 -364 -447 -364q-26 0 -39 1l-164 -302
q-4 -6 -9.5 -8.5t-11.5 0.5l-26 9q-10 3 -10 12q0 6 2 9l172 286q-150 24 -234 133.5t-84 291.5q0 147 57.5 293.5t175 243.5t285.5 97q109 0 194 -44z" />
    <glyph glyph-name="egrave" unicode="&#xe8;" horiz-adv-x="1015" 
d="M777.5 1002.5q85.5 -45.5 133 -132t47.5 -204.5q0 -57 -12 -120q-1 -14 -16 -14h-798q-10 -60 -10 -122q0 -182 91 -279t251 -97q291 0 387 322q6 14 18 14h31q13 0 13 -14q0 -2 -2 -10q-116 -364 -447 -364q-123 0 -214 50t-140.5 146.5t-49.5 233.5q0 149 57.5 296
t175.5 243.5t287 96.5q112 0 197.5 -45.5zM890 586q9 48 9 91q0 94 -38.5 166.5t-110.5 112.5t-170 40q-119 0 -208.5 -57t-146 -150t-82.5 -203h747zM819 1161q-5 -8 -13 -8l-8 2l-371 186q-9 5 -9 12q0 5 3 9l19 31q6 8 13 8q3 0 8 -3l360 -202q9 -4 9 -13q0 -4 -3 -9z
" />
    <glyph glyph-name="eacute" unicode="&#xe9;" horiz-adv-x="1015" 
d="M777.5 1002.5q85.5 -45.5 133 -132t47.5 -204.5q0 -57 -12 -120q-1 -14 -16 -14h-798q-10 -60 -10 -122q0 -182 91 -279t251 -97q291 0 387 322q6 14 18 14h31q13 0 13 -14q0 -2 -2 -10q-116 -364 -447 -364q-123 0 -214 50t-140.5 146.5t-49.5 233.5q0 149 57.5 296
t175.5 243.5t287 96.5q112 0 197.5 -45.5zM890 586q9 48 9 91q0 94 -38.5 166.5t-110.5 112.5t-170 40q-119 0 -208.5 -57t-146 -150t-82.5 -203h747zM507 1154q-4 -2 -7 -2q-9 0 -14 11l-6 13q-1 3 -1 7q0 10 9 14l408 198q6 2 7 2q9 0 13 -10l14 -31q2 -4 2 -7
q0 -8 -10 -13z" />
    <glyph glyph-name="ecircumflex" unicode="&#xea;" horiz-adv-x="1015" 
d="M777.5 1002.5q85.5 -45.5 133 -132t47.5 -204.5q0 -57 -12 -120q-1 -14 -16 -14h-798q-10 -60 -10 -122q0 -182 91 -279t251 -97q291 0 387 322q6 14 18 14h31q13 0 13 -14q0 -2 -2 -10q-116 -364 -447 -364q-123 0 -214 50t-140.5 146.5t-49.5 233.5q0 149 57.5 296
t175.5 243.5t287 96.5q112 0 197.5 -45.5zM890 586q9 48 9 91q0 94 -38.5 166.5t-110.5 112.5t-170 40q-119 0 -208.5 -57t-146 -150t-82.5 -203h747zM361 1182q-1 2 -1 6q0 11 10 14l274 118q8 4 19 4h16q12 0 19 -5l220 -116q9 -4 9 -12l-2 -9l-6 -12q-5 -10 -13 -10l-8 2
l-233 98l-278 -101q-2 -1 -6 -1q-10 0 -14 10z" />
    <glyph glyph-name="edieresis" unicode="&#xeb;" horiz-adv-x="1015" 
d="M777.5 1002.5q85.5 -45.5 133 -132t47.5 -204.5q0 -57 -12 -120q-1 -14 -16 -14h-798q-10 -60 -10 -122q0 -182 91 -279t251 -97q291 0 387 322q6 14 18 14h31q13 0 13 -14q0 -2 -2 -10q-116 -364 -447 -364q-123 0 -214 50t-140.5 146.5t-49.5 233.5q0 149 57.5 296
t175.5 243.5t287 96.5q112 0 197.5 -45.5zM890 586q9 48 9 91q0 94 -38.5 166.5t-110.5 112.5t-170 40q-119 0 -208.5 -57t-146 -150t-82.5 -203h747zM519 1189q-8 0 -12 4.5t-2 12.5l20 83q1 7 6 10.5t11 3.5h51q8 0 11.5 -4.5t1.5 -12.5l-20 -83q-1 -7 -6 -10.5t-11 -3.5
h-50zM739 1189q-8 0 -12 4.5t-2 12.5l20 83q1 7 6 10.5t11 3.5h51q8 0 11.5 -4.5t1.5 -12.5l-20 -83q-1 -7 -6 -10.5t-11 -3.5h-50z" />
    <glyph glyph-name="igrave" unicode="&#xec;" horiz-adv-x="326" 
d="M447 1171q-8 -12 -20 -6l-281 143q-9 6 -9 13q0 5 3 9l20 31q4 8 12 8q5 0 9 -3l269 -160q8 -5 8 -13q0 -5 -2 -8zM27 0q-16 0 -13 17l124 533l107 466q1 14 17 14h35q16 0 13 -17l-108 -461l-122 -538q-3 -14 -18 -14h-35z" />
    <glyph glyph-name="iacute" unicode="&#xed;" horiz-adv-x="326" 
d="M191 1156q-4 -2 -7 -2q-9 0 -14 11l-6 13q-1 3 -1 7q0 10 9 14l342 166q3 2 8 2q9 0 12 -10l12 -29q2 -6 2 -7q0 -8 -10 -13zM27 0q-16 0 -13 17l124 533l107 466q1 14 17 14h35q16 0 13 -17l-108 -461l-122 -538q-3 -14 -18 -14h-35z" />
    <glyph glyph-name="icircumflex" unicode="&#xee;" horiz-adv-x="326" 
d="M84 1182q-3 5 -3 9q0 8 10 12l222 117q8 4 19 4h15q10 0 19 -6l175 -113q7 -6 7 -12q0 -4 -3 -10l-8 -12q-5 -8 -12 -8q-5 0 -8 2l-183 97l-225 -100q-4 -2 -7 -2q-7 0 -12 10zM27 0q-16 0 -13 17l124 533l107 466q1 14 17 14h35q16 0 13 -17l-108 -461l-122 -538
q-3 -14 -18 -14h-35z" />
    <glyph glyph-name="idieresis" unicode="&#xef;" horiz-adv-x="326" 
d="M208 1189q-16 0 -13 17l19 83q1 7 5.5 10.5t11.5 3.5h49q16 0 13 -17l-18 -83q-3 -14 -18 -14h-49zM384 1189q-16 0 -13 17l19 83q1 7 5.5 10.5t11.5 3.5h49q16 0 13 -17l-18 -83q-3 -14 -18 -14h-49zM27 0q-16 0 -13 17l124 533l107 466q1 14 17 14h35q16 0 13 -17
l-108 -461l-122 -538q-3 -14 -18 -14h-35z" />
    <glyph glyph-name="eth" unicode="&#xf0;" horiz-adv-x="1044" 
d="M1123 1279q2 1 6 1q10 0 13 -11l5 -20q1 -2 1 -6q0 -10 -11 -13l-257 -84q116 -174 116 -400q0 -205 -63 -379t-186.5 -279.5t-296.5 -105.5q-116 0 -207 49.5t-142 141.5t-51 217q0 139 62 261.5t173.5 196.5t252.5 74q101 0 186 -39.5t140 -114t70 -174.5q6 70 6 152
q0 214 -114 382l-310 -101l-6 -1q-10 0 -14 11l-5 18q-1 3 -1 7q0 10 10 13l294 96q-95 118 -250 211q-8 5 -8 11t4 10l18 22q7 7 12 7q4 0 10 -4q171 -114 269 -239zM685.5 104.5q98.5 70.5 150.5 182t52 231.5q0 109 -44.5 189t-123.5 121.5t-180 41.5q-134 0 -231 -70
t-147 -180.5t-50 -229.5q0 -111 43.5 -191.5t121 -122.5t177.5 -42q133 0 231.5 70.5z" />
    <glyph glyph-name="ntilde" unicode="&#xf1;" horiz-adv-x="979" 
d="M17 0q-8 0 -11.5 4.5t-1.5 12.5l102 425l128 574q1 7 6 10.5t11 3.5h35q8 0 11.5 -4.5t1.5 -12.5l-53 -213q36 69 94.5 127t132.5 92.5t155 34.5q82 0 145.5 -34t99.5 -100t36 -159q0 -64 -15 -127l-44 -192l-97 -428q-1 -7 -6 -10.5t-11 -3.5h-35q-8 0 -11.5 4.5
t-1.5 12.5l100 425l42 182q17 71 17 135q0 119 -62 179t-167 60q-224 0 -392 -300l-60 -256l-97 -428q-1 -7 -6 -10.5t-11 -3.5h-35zM699 1190q-28 24 -58 68q-24 35 -43 52.5t-45 17.5q-37 0 -57 -32.5t-35 -99.5q-4 -14 -18 -14h-20q-8 0 -11.5 5t-2.5 12
q22 86 55.5 132.5t92.5 46.5q45 0 73 -24t61 -70q24 -34 42 -51t42 -17q41 0 61 32t37 100q3 14 17 14h20q8 0 11.5 -5.5t1.5 -15.5q-22 -85 -56 -130t-96 -45q-44 0 -72 24z" />
    <glyph glyph-name="ograve" unicode="&#xf2;" horiz-adv-x="1045" 
d="M251.5 33q-90.5 51 -141 148.5t-50.5 232.5q0 147 59.5 294t179.5 243.5t289 96.5q117 0 207.5 -50.5t140.5 -147.5t50 -230q0 -149 -59.5 -296.5t-178.5 -244.5t-288 -97q-118 0 -208.5 51zM715 124.5q105 90.5 157 226.5t52 269q0 118 -42 202.5t-118 129t-176 44.5
q-152 0 -257.5 -90.5t-157 -226t-51.5 -269.5q0 -118 42 -202.5t118.5 -129t177.5 -44.5q150 0 255 90.5zM829 1161q-5 -8 -13 -8l-8 2l-371 186q-9 5 -9 12q0 5 3 9l19 31q6 8 13 8q3 0 8 -3l360 -202q9 -4 9 -13q0 -4 -3 -9z" />
    <glyph glyph-name="oacute" unicode="&#xf3;" horiz-adv-x="1045" 
d="M251.5 33q-90.5 51 -141 148.5t-50.5 232.5q0 147 59.5 294t179.5 243.5t289 96.5q117 0 207.5 -50.5t140.5 -147.5t50 -230q0 -149 -59.5 -296.5t-178.5 -244.5t-288 -97q-118 0 -208.5 51zM715 124.5q105 90.5 157 226.5t52 269q0 118 -42 202.5t-118 129t-176 44.5
q-152 0 -257.5 -90.5t-157 -226t-51.5 -269.5q0 -118 42 -202.5t118.5 -129t177.5 -44.5q150 0 255 90.5zM517 1154q-4 -2 -7 -2q-9 0 -14 11l-6 13q-1 3 -1 7q0 10 9 14l408 198q6 2 7 2q9 0 13 -10l14 -31q2 -4 2 -7q0 -8 -10 -13z" />
    <glyph glyph-name="ocircumflex" unicode="&#xf4;" horiz-adv-x="1045" 
d="M251.5 33q-90.5 51 -141 148.5t-50.5 232.5q0 147 59.5 294t179.5 243.5t289 96.5q117 0 207.5 -50.5t140.5 -147.5t50 -230q0 -149 -59.5 -296.5t-178.5 -244.5t-288 -97q-118 0 -208.5 51zM715 124.5q105 90.5 157 226.5t52 269q0 118 -42 202.5t-118 129t-176 44.5
q-152 0 -257.5 -90.5t-157 -226t-51.5 -269.5q0 -118 42 -202.5t118.5 -129t177.5 -44.5q150 0 255 90.5zM371 1182q-1 2 -1 6q0 11 10 14l274 118q8 4 19 4h16q12 0 19 -5l220 -116q9 -4 9 -12l-2 -9l-6 -12q-5 -10 -13 -10l-8 2l-233 98l-278 -101q-2 -1 -6 -1
q-10 0 -14 10z" />
    <glyph glyph-name="otilde" unicode="&#xf5;" horiz-adv-x="1045" 
d="M251.5 33q-90.5 51 -141 148.5t-50.5 232.5q0 147 59.5 294t179.5 243.5t289 96.5q117 0 207.5 -50.5t140.5 -147.5t50 -230q0 -149 -59.5 -296.5t-178.5 -244.5t-288 -97q-118 0 -208.5 51zM715 124.5q105 90.5 157 226.5t52 269q0 118 -42 202.5t-118 129t-176 44.5
q-152 0 -257.5 -90.5t-157 -226t-51.5 -269.5q0 -118 42 -202.5t118.5 -129t177.5 -44.5q150 0 255 90.5zM713 1190q-28 24 -58 68q-24 35 -43 52.5t-45 17.5q-37 0 -57 -32.5t-35 -99.5q-4 -14 -18 -14h-20q-8 0 -11.5 5t-2.5 12q22 86 55.5 132.5t92.5 46.5q45 0 73 -24
t61 -70q24 -34 42 -51t42 -17q41 0 61 32t37 100q3 14 17 14h20q8 0 11.5 -5.5t1.5 -15.5q-22 -85 -56 -130t-96 -45q-44 0 -72 24z" />
    <glyph glyph-name="odieresis" unicode="&#xf6;" horiz-adv-x="1045" 
d="M251.5 33q-90.5 51 -141 148.5t-50.5 232.5q0 147 59.5 294t179.5 243.5t289 96.5q117 0 207.5 -50.5t140.5 -147.5t50 -230q0 -149 -59.5 -296.5t-178.5 -244.5t-288 -97q-118 0 -208.5 51zM715 124.5q105 90.5 157 226.5t52 269q0 118 -42 202.5t-118 129t-176 44.5
q-152 0 -257.5 -90.5t-157 -226t-51.5 -269.5q0 -118 42 -202.5t118.5 -129t177.5 -44.5q150 0 255 90.5zM529 1189q-8 0 -12 4.5t-2 12.5l20 83q1 7 6 10.5t11 3.5h51q8 0 11.5 -4.5t1.5 -12.5l-20 -83q-1 -7 -6 -10.5t-11 -3.5h-50zM749 1189q-8 0 -12 4.5t-2 12.5l20 83
q1 7 6 10.5t11 3.5h51q8 0 11.5 -4.5t1.5 -12.5l-20 -83q-1 -7 -6 -10.5t-11 -3.5h-50z" />
    <glyph glyph-name="divide" unicode="&#xf7;" horiz-adv-x="920" 
d="M555 1044q-8 0 -12 4.5t-2 12.5l19 85q3 14 17 14h61q8 0 12 -4.5t2 -12.5l-19 -85q-1 -7 -6 -10.5t-11 -3.5h-61zM81 658q-8 0 -11.5 4.5t-2.5 12.5l7 31q1 7 6 10.5t11 3.5h829q8 0 12 -4.5t2 -12.5l-7 -31q-1 -7 -6 -10.5t-11 -3.5h-829zM363 220q-8 0 -12 4.5
t-2 12.5l19 85q3 14 17 14h61q8 0 12 -4.5t2 -12.5l-19 -85q-1 -7 -6 -10.5t-11 -3.5h-61z" />
    <glyph glyph-name="oslash" unicode="&#xf8;" horiz-adv-x="1044" 
d="M280.5 18.5q-80.5 36.5 -133.5 105.5l-166 -155q-5 -5 -11 -5t-10 6l-15 17q-4 4 -4 10q0 7 6 11l171 161q-58 102 -58 245q0 147 59.5 294t179.5 243.5t289 96.5q98 0 177.5 -35.5t132.5 -103.5l163 152q5 5 11 5t10 -6l15 -17q4 -4 4 -9q0 -6 -6 -12l-167 -157
q58 -103 58 -245q0 -149 -59.5 -296.5t-178.5 -244.5t-288 -97q-99 0 -179.5 36.5zM330.5 905.5q-105.5 -90.5 -157 -226t-51.5 -269.5q0 -114 40 -199l693 657q-44 62 -112.5 95t-154.5 33q-152 0 -257.5 -90.5zM715 124.5q105 90.5 157 226.5t52 269q0 114 -41 201
l-694 -657q44 -63 113.5 -96.5t157.5 -33.5q150 0 255 90.5z" />
    <glyph glyph-name="ugrave" unicode="&#xf9;" horiz-adv-x="979" 
d="M961 1030q16 0 13 -17l-102 -425l-128 -574q-3 -14 -18 -14h-34q-8 0 -11.5 4.5t-2.5 12.5l54 213q-36 -69 -94.5 -127t-132.5 -92.5t-155 -34.5q-82 0 -145.5 34t-99.5 100t-36 159q0 64 15 127l44 192l97 428q1 7 5.5 10.5t11.5 3.5h35q16 0 13 -17l-100 -425l-42 -182
q-17 -71 -17 -135q0 -119 62 -179t167 -60q224 0 392 300l60 256l97 428q1 7 5.5 10.5t11.5 3.5h35zM809 1161q-5 -8 -13 -8l-8 2l-371 186q-9 5 -9 12q0 5 3 9l19 31q6 8 13 8q3 0 8 -3l360 -202q9 -4 9 -13q0 -4 -3 -9z" />
    <glyph glyph-name="uacute" unicode="&#xfa;" horiz-adv-x="979" 
d="M961 1030q16 0 13 -17l-102 -425l-128 -574q-3 -14 -18 -14h-34q-8 0 -11.5 4.5t-2.5 12.5l54 213q-36 -69 -94.5 -127t-132.5 -92.5t-155 -34.5q-82 0 -145.5 34t-99.5 100t-36 159q0 64 15 127l44 192l97 428q1 7 5.5 10.5t11.5 3.5h35q16 0 13 -17l-100 -425l-42 -182
q-17 -71 -17 -135q0 -119 62 -179t167 -60q224 0 392 300l60 256l97 428q1 7 5.5 10.5t11.5 3.5h35zM497 1154q-4 -2 -7 -2q-9 0 -14 11l-6 13q-1 3 -1 7q0 10 9 14l408 198q6 2 7 2q9 0 13 -10l14 -31q2 -4 2 -7q0 -8 -10 -13z" />
    <glyph glyph-name="ucircumflex" unicode="&#xfb;" horiz-adv-x="979" 
d="M961 1030q16 0 13 -17l-102 -425l-128 -574q-3 -14 -18 -14h-34q-8 0 -11.5 4.5t-2.5 12.5l54 213q-36 -69 -94.5 -127t-132.5 -92.5t-155 -34.5q-82 0 -145.5 34t-99.5 100t-36 159q0 64 15 127l44 192l97 428q1 7 5.5 10.5t11.5 3.5h35q16 0 13 -17l-100 -425l-42 -182
q-17 -71 -17 -135q0 -119 62 -179t167 -60q224 0 392 300l60 256l97 428q1 7 5.5 10.5t11.5 3.5h35zM352 1182q-1 2 -1 6q0 11 10 14l274 118q8 4 19 4h16q12 0 19 -5l220 -116q9 -4 9 -12l-2 -9l-6 -12q-5 -10 -13 -10l-8 2l-233 98l-278 -101q-2 -1 -6 -1q-10 0 -14 10z
" />
    <glyph glyph-name="udieresis" unicode="&#xfc;" horiz-adv-x="979" 
d="M961 1030q16 0 13 -17l-102 -425l-128 -574q-3 -14 -18 -14h-34q-8 0 -11.5 4.5t-2.5 12.5l54 213q-36 -69 -94.5 -127t-132.5 -92.5t-155 -34.5q-82 0 -145.5 34t-99.5 100t-36 159q0 64 15 127l44 192l97 428q1 7 5.5 10.5t11.5 3.5h35q16 0 13 -17l-100 -425l-42 -182
q-17 -71 -17 -135q0 -119 62 -179t167 -60q224 0 392 300l60 256l97 428q1 7 5.5 10.5t11.5 3.5h35zM510 1189q-8 0 -12 4.5t-2 12.5l20 83q1 7 6 10.5t11 3.5h51q8 0 11.5 -4.5t1.5 -12.5l-20 -83q-1 -7 -6 -10.5t-11 -3.5h-50zM730 1189q-8 0 -12 4.5t-2 12.5l20 83
q1 7 6 10.5t11 3.5h51q8 0 11.5 -4.5t1.5 -12.5l-20 -83q-1 -7 -6 -10.5t-11 -3.5h-50z" />
    <glyph glyph-name="yacute" unicode="&#xfd;" horiz-adv-x="877" 
d="M130 -340q-7 0 -10.5 3t-3.5 8q0 3 3 8l191 323l-167 1012v4q0 12 14 12h35q14 0 17 -14l149 -932l542 936q6 10 18 10h35q13 0 13 -10q0 -4 -3 -9l-781 -1341q-6 -10 -18 -10h-34zM449 1154q-4 -2 -7 -2q-9 0 -14 11l-6 13q-1 3 -1 7q0 10 9 14l408 198q6 2 7 2
q9 0 13 -10l14 -31q2 -4 2 -7q0 -8 -10 -13z" />
    <glyph glyph-name="thorn" unicode="&#xfe;" horiz-adv-x="1003" 
d="M793.5 995q76.5 -49 116.5 -138t40 -207q0 -140 -55.5 -294t-171.5 -261t-287 -107q-130 0 -211 66.5t-105 191.5l-129 -572q-1 -7 -6 -10.5t-11 -3.5h-35q-8 0 -11.5 4.5t-1.5 12.5l190 809l204 900q3 14 18 14h32q8 0 11.5 -4.5t2.5 -12.5l-135 -554q66 99 157 157
t206 58q105 0 181.5 -49zM695.5 141.5q101.5 101.5 147 243.5t45.5 267q0 103 -33 180.5t-96.5 119.5t-152.5 42q-138 0 -241 -97t-157 -242.5t-54 -284.5q0 -164 75 -247t209 -83q156 0 257.5 101.5z" />
    <glyph glyph-name="ydieresis" unicode="&#xff;" horiz-adv-x="877" 
d="M130 -340q-7 0 -10.5 3t-3.5 8q0 3 3 8l191 323l-167 1012v4q0 12 14 12h35q14 0 17 -14l149 -932l542 936q6 10 18 10h35q13 0 13 -10q0 -4 -3 -9l-781 -1341q-6 -10 -18 -10h-34zM462 1189q-8 0 -12 4.5t-2 12.5l20 83q1 7 6 10.5t11 3.5h51q8 0 11.5 -4.5t1.5 -12.5
l-20 -83q-1 -7 -6 -10.5t-11 -3.5h-50zM682 1189q-8 0 -12 4.5t-2 12.5l20 83q1 7 6 10.5t11 3.5h51q8 0 11.5 -4.5t1.5 -12.5l-20 -83q-1 -7 -6 -10.5t-11 -3.5h-50z" />
    <glyph glyph-name="Amacron" unicode="&#x100;" horiz-adv-x="1164" 
d="M1017 17v-4q0 -13 -14 -13h-35q-14 0 -16 15l-63 477h-614l-288 -482q-7 -10 -18 -10h-42q-13 0 -13 10q0 5 3 9l825 1371q6 10 18 10h51q14 0 16 -14zM882 548l-104 790l-470 -790h574zM593 1590q-8 0 -12 4.5t-2 12.5l6 27q3 14 17 14h488q8 0 11.5 -4.5t1.5 -12.5
l-6 -27q-1 -7 -6 -10.5t-11 -3.5h-487z" />
    <glyph glyph-name="amacron" unicode="&#x101;" horiz-adv-x="1009" 
d="M990 1030q18 0 13 -17l-113 -475l-117 -524q-1 -7 -6 -10.5t-11 -3.5h-32q-8 0 -12 4.5t-2 12.5l47 189q-66 -101 -157.5 -159.5t-207.5 -58.5q-105 0 -181.5 49t-116.5 138t-40 207q0 140 55.5 294t171.5 261t287 107q135 0 217.5 -72t102.5 -207l53 251q3 14 16 14h33z
M639 135q103 97 157 242.5t54 284.5q0 164 -75 247t-209 83q-156 0 -257.5 -101.5t-147 -243.5t-45.5 -267q0 -103 33 -180.5t96.5 -119.5t152.5 -42q138 0 241 97zM401 1220q-8 0 -12 4.5t-2 12.5l6 27q3 14 17 14h488q8 0 11.5 -4.5t1.5 -12.5l-6 -27q-1 -7 -6 -10.5
t-11 -3.5h-487z" />
    <glyph glyph-name="Abreve" unicode="&#x102;" horiz-adv-x="1164" 
d="M1017 17v-4q0 -13 -14 -13h-35q-14 0 -16 15l-63 477h-614l-288 -482q-7 -10 -18 -10h-42q-13 0 -13 10q0 5 3 9l825 1371q6 10 18 10h51q14 0 16 -14zM882 548l-104 790l-470 -790h574zM696.5 1568.5q-50.5 48.5 -50.5 125.5q0 16 1 24q2 14 17 14h22q16 0 14 -16
q-1 -7 -1 -20q0 -56 36.5 -90t101.5 -34q70 0 120 40t67 106q3 14 17 14h25q8 0 11.5 -4.5t2.5 -12.5q-21 -87 -87.5 -141t-157.5 -54q-88 0 -138.5 48.5z" />
    <glyph glyph-name="abreve" unicode="&#x103;" horiz-adv-x="1009" 
d="M990 1030q18 0 13 -17l-113 -475l-117 -524q-1 -7 -6 -10.5t-11 -3.5h-32q-8 0 -12 4.5t-2 12.5l47 189q-66 -101 -157.5 -159.5t-207.5 -58.5q-105 0 -181.5 49t-116.5 138t-40 207q0 140 55.5 294t171.5 261t287 107q135 0 217.5 -72t102.5 -207l53 251q3 14 16 14h33z
M639 135q103 97 157 242.5t54 284.5q0 164 -75 247t-209 83q-156 0 -257.5 -101.5t-147 -243.5t-45.5 -267q0 -103 33 -180.5t96.5 -119.5t152.5 -42q138 0 241 97zM504.5 1198.5q-50.5 48.5 -50.5 125.5q0 16 1 24q2 14 17 14h22q16 0 14 -16q-1 -7 -1 -20q0 -56 36.5 -90
t101.5 -34q70 0 120 40t67 106q3 14 17 14h25q8 0 11.5 -4.5t2.5 -12.5q-21 -87 -87.5 -141t-157.5 -54q-88 0 -138.5 48.5z" />
    <glyph glyph-name="Aogonek" unicode="&#x104;" horiz-adv-x="1164" 
d="M1016 -284q8 0 12 -4.5t2 -12.5l-5 -25q-1 -7 -6 -10.5t-11 -3.5h-58q-85 0 -133.5 40.5t-48.5 105.5q0 67 52.5 122.5t131.5 87.5l-63 476h-614l-288 -482q-7 -10 -18 -10h-42q-13 0 -13 10q0 5 3 9l825 1371q6 10 18 10h51q14 0 16 -14l190 -1369v-4q0 -11 -10 -13h-1
q-71 -22 -122.5 -73t-51.5 -113q0 -47 33 -72.5t97 -25.5h54zM778 1338l-470 -790h574z" />
    <glyph glyph-name="aogonek" unicode="&#x105;" horiz-adv-x="1009" 
d="M990 1030q18 0 13 -17l-113 -475l-117 -524q-1 -5 -6 -10q-1 -2 -6 -4q-71 -22 -122.5 -73t-51.5 -113q0 -47 33 -72.5t97 -25.5h54q8 0 12 -4.5t2 -12.5l-5 -25q-1 -7 -6 -10.5t-11 -3.5h-58q-85 0 -133.5 40.5t-48.5 105.5q0 67 53 123t134 89l47 188
q-66 -101 -157.5 -159.5t-207.5 -58.5q-105 0 -181.5 49t-116.5 138t-40 207q0 140 55.5 294t171.5 261t287 107q135 0 217.5 -72t102.5 -207l53 251q3 14 16 14h33zM639 135q103 97 157 242.5t54 284.5q0 164 -75 247t-209 83q-156 0 -257.5 -101.5t-147 -243.5t-45.5 -267
q0 -103 33 -180.5t96.5 -119.5t152.5 -42q138 0 241 97z" />
    <glyph glyph-name="Cacute" unicode="&#x106;" horiz-adv-x="1323" 
d="M368.5 48q-122.5 68 -189 199.5t-66.5 318.5q0 197 77.5 394.5t235 328.5t383.5 131q148 0 263 -60t179 -168t64 -248q0 -20 -16 -20h-35q-15 0 -15 16q-3 133 -57 228.5t-152 145.5t-231 50q-208 0 -349 -124.5t-209 -309.5t-68 -364q0 -172 57 -291t163.5 -179
t253.5 -60q405 0 540 456q4 14 17 14h37q13 0 13 -14q0 -2 -2 -10q-79 -259 -234 -380.5t-371 -121.5q-166 0 -288.5 68zM758 1524q-4 -2 -7 -2q-9 0 -14 11l-6 13q-1 3 -1 7q0 10 9 14l408 198q6 2 7 2q9 0 13 -10l14 -31q2 -4 2 -7q0 -8 -10 -13z" />
    <glyph glyph-name="cacute" unicode="&#x107;" horiz-adv-x="991" 
d="M250 32q-91 50 -140.5 147t-49.5 235q0 147 57.5 293.5t175 243.5t285.5 97q109 0 194 -44t132.5 -124t47.5 -184q0 -16 -16 -16h-29q-15 0 -15 16q-4 142 -88 221t-226 79q-151 0 -254 -91t-152.5 -225.5t-49.5 -265.5q0 -184 91 -282t251 -98q291 0 387 322q6 14 18 14
h31q13 0 13 -14q0 -2 -2 -10q-116 -364 -447 -364q-123 0 -214 50zM507 1154q-4 -2 -7 -2q-9 0 -14 11l-6 13q-1 3 -1 7q0 10 9 14l408 198q6 2 7 2q9 0 13 -10l14 -31q2 -4 2 -7q0 -8 -10 -13z" />
    <glyph glyph-name="Ccircumflex" unicode="&#x108;" horiz-adv-x="1323" 
d="M368.5 48q-122.5 68 -189 199.5t-66.5 318.5q0 197 77.5 394.5t235 328.5t383.5 131q148 0 263 -60t179 -168t64 -248q0 -20 -16 -20h-35q-15 0 -15 16q-3 133 -57 228.5t-152 145.5t-231 50q-208 0 -349 -124.5t-209 -309.5t-68 -364q0 -172 57 -291t163.5 -179
t253.5 -60q405 0 540 456q4 14 17 14h37q13 0 13 -14q0 -2 -2 -10q-79 -259 -234 -380.5t-371 -121.5q-166 0 -288.5 68zM612 1552q-1 2 -1 6q0 11 10 14l274 118q8 4 19 4h16q12 0 19 -5l220 -116q9 -4 9 -12l-2 -9l-6 -12q-5 -10 -13 -10l-8 2l-233 98l-278 -101
q-2 -1 -6 -1q-10 0 -14 10z" />
    <glyph glyph-name="ccircumflex" unicode="&#x109;" horiz-adv-x="991" 
d="M250 32q-91 50 -140.5 147t-49.5 235q0 147 57.5 293.5t175 243.5t285.5 97q109 0 194 -44t132.5 -124t47.5 -184q0 -16 -16 -16h-29q-15 0 -15 16q-4 142 -88 221t-226 79q-151 0 -254 -91t-152.5 -225.5t-49.5 -265.5q0 -184 91 -282t251 -98q291 0 387 322q6 14 18 14
h31q13 0 13 -14q0 -2 -2 -10q-116 -364 -447 -364q-123 0 -214 50zM361 1182q-1 2 -1 6q0 11 10 14l274 118q8 4 19 4h16q12 0 19 -5l220 -116q9 -4 9 -12l-2 -9l-6 -12q-5 -10 -13 -10l-8 2l-233 98l-278 -101q-2 -1 -6 -1q-10 0 -14 10z" />
    <glyph glyph-name="Cdotaccent" unicode="&#x10a;" horiz-adv-x="1323" 
d="M368.5 48q-122.5 68 -189 199.5t-66.5 318.5q0 197 77.5 394.5t235 328.5t383.5 131q148 0 263 -60t179 -168t64 -248q0 -20 -16 -20h-35q-15 0 -15 16q-3 133 -57 228.5t-152 145.5t-231 50q-208 0 -349 -124.5t-209 -309.5t-68 -364q0 -172 57 -291t163.5 -179
t253.5 -60q405 0 540 456q4 14 17 14h37q13 0 13 -14q0 -2 -2 -10q-79 -259 -234 -380.5t-371 -121.5q-166 0 -288.5 68zM887 1559q-8 0 -12 4.5t-2 12.5l20 83q1 7 5.5 10.5t11.5 3.5h31q8 0 11.5 -4.5t2.5 -12.5l-20 -83q-1 -7 -6 -10.5t-11 -3.5h-31z" />
    <glyph glyph-name="cdotaccent" unicode="&#x10b;" horiz-adv-x="991" 
d="M250 32q-91 50 -140.5 147t-49.5 235q0 147 57.5 293.5t175 243.5t285.5 97q109 0 194 -44t132.5 -124t47.5 -184q0 -16 -16 -16h-29q-15 0 -15 16q-4 142 -88 221t-226 79q-151 0 -254 -91t-152.5 -225.5t-49.5 -265.5q0 -184 91 -282t251 -98q291 0 387 322q6 14 18 14
h31q13 0 13 -14q0 -2 -2 -10q-116 -364 -447 -364q-123 0 -214 50zM636 1189q-8 0 -12 4.5t-2 12.5l20 83q1 7 5.5 10.5t11.5 3.5h31q8 0 11.5 -4.5t2.5 -12.5l-20 -83q-1 -7 -6 -10.5t-11 -3.5h-31z" />
    <glyph glyph-name="Ccaron" unicode="&#x10c;" horiz-adv-x="1323" 
d="M368.5 48q-122.5 68 -189 199.5t-66.5 318.5q0 197 77.5 394.5t235 328.5t383.5 131q148 0 263 -60t179 -168t64 -248q0 -20 -16 -20h-35q-15 0 -15 16q-3 133 -57 228.5t-152 145.5t-231 50q-208 0 -349 -124.5t-209 -309.5t-68 -364q0 -172 57 -291t163.5 -179
t253.5 -60q405 0 540 456q4 14 17 14h37q13 0 13 -14q0 -2 -2 -10q-79 -259 -234 -380.5t-371 -121.5q-166 0 -288.5 68zM646 1637q-9 5 -9 12q0 3 2 9l6 12q4 10 13 10q2 0 8 -2l232 -98l278 101q2 1 7 1q10 0 13 -10l6 -13q2 -6 2 -8q0 -8 -10 -13l-274 -118
q-14 -4 -20 -4h-16q-9 0 -19 5z" />
    <glyph glyph-name="ccaron" unicode="&#x10d;" horiz-adv-x="991" 
d="M250 32q-91 50 -140.5 147t-49.5 235q0 147 57.5 293.5t175 243.5t285.5 97q109 0 194 -44t132.5 -124t47.5 -184q0 -16 -16 -16h-29q-15 0 -15 16q-4 142 -88 221t-226 79q-151 0 -254 -91t-152.5 -225.5t-49.5 -265.5q0 -184 91 -282t251 -98q291 0 387 322q6 14 18 14
h31q13 0 13 -14q0 -2 -2 -10q-116 -364 -447 -364q-123 0 -214 50zM395 1267q-9 5 -9 12q0 3 2 9l6 12q4 10 13 10q2 0 8 -2l232 -98l278 101q2 1 7 1q10 0 13 -10l6 -13q2 -6 2 -8q0 -8 -10 -13l-274 -118q-14 -4 -20 -4h-16q-9 0 -19 5z" />
    <glyph glyph-name="Dcaron" unicode="&#x10e;" horiz-adv-x="1289" 
d="M27 0q-8 0 -11.5 4.5t-1.5 12.5l172 725l144 644q1 7 6 10.5t11 3.5h339q175 0 306.5 -66t203.5 -192.5t72 -301.5q0 -197 -84.5 -391t-255.5 -321.5t-416 -127.5h-485zM512 56q226 0 381 121t230 302t75 361q0 160 -62 273.5t-177.5 172t-272.5 58.5h-292l-142 -602
l-156 -686h416zM545 1637q-9 5 -9 12q0 3 2 9l6 12q4 10 13 10q2 0 8 -2l232 -98l278 101q2 1 7 1q10 0 13 -10l6 -13q2 -6 2 -8q0 -8 -10 -13l-274 -118q-14 -4 -20 -4h-16q-9 0 -19 5z" />
    <glyph glyph-name="dcaron" unicode="&#x10f;" horiz-adv-x="1009" 
d="M1074 1400q18 0 13 -17l-197 -845l-117 -524q-1 -7 -6 -10.5t-11 -3.5h-32q-8 0 -12 4.5t-2 12.5l47 189q-66 -101 -157.5 -159.5t-207.5 -58.5q-105 0 -181.5 49t-116.5 138t-40 207q0 140 55.5 294t171.5 261t287 107q135 0 217.5 -72t102.5 -208l135 622q3 14 16 14
h35zM639 135q103 97 157 242.5t54 284.5q0 164 -75 247t-209 83q-156 0 -257.5 -101.5t-147 -243.5t-45.5 -267q0 -103 33 -180.5t96.5 -119.5t152.5 -42q138 0 241 97zM1144 1130q-6 -11 -18 -11h-21q-14 0 -14 10q0 4 3 8l164 321q6 11 19 11h36q14 0 14 -10q0 -4 -3 -9z
" />
    <glyph glyph-name="Dcroat" unicode="&#x110;" horiz-adv-x="1297" 
d="M694 1400q175 0 306.5 -66t203.5 -192.5t72 -301.5q0 -197 -84.5 -391t-255.5 -321.5t-416 -127.5h-485q-16 0 -13 17l169 711h-140q-8 0 -12 4.5t-2 12.5l6 25q4 14 17 14h143l136 602q1 7 5.5 10.5t11.5 3.5h338zM520 56q226 0 381 121t230 302t75 361q0 160 -62 273.5
t-177.5 172t-272.5 58.5h-292l-132 -560h416q8 0 11.5 -4.5t2.5 -12.5l-6 -25q-5 -14 -18 -14h-419l-153 -672h416z" />
    <glyph glyph-name="dcroat" unicode="&#x111;" horiz-adv-x="1015" 
d="M1169 1224q18 0 13 -17l-5 -21q-1 -7 -5.5 -10.5t-10.5 -3.5h-121l-148 -634l-117 -524q-1 -7 -6 -10.5t-11 -3.5h-32q-8 0 -12 4.5t-2 12.5l48 192q-67 -103 -158.5 -162t-207.5 -59q-106 0 -183 48.5t-117 136.5t-40 205q0 141 55.5 296t171 262.5t285.5 107.5
q137 0 220 -74t102 -213l90 415h-335q-8 0 -11.5 4.5t-1.5 12.5l5 21q3 14 16 14h338l36 162q3 14 16 14h35q18 0 13 -17l-36 -159h116zM640 134.5q102 96.5 156 241t54 282.5q0 167 -75 250.5t-211 83.5q-155 0 -256 -102t-146.5 -245.5t-45.5 -268.5q0 -156 74 -247
t210 -91q138 0 240 96.5z" />
    <glyph glyph-name="Emacron" unicode="&#x112;" horiz-adv-x="1007" 
d="M27 0q-8 0 -11.5 4.5t-1.5 12.5l174 733l142 636q1 7 6 10.5t11 3.5h751q8 0 11.5 -4.5t1.5 -12.5l-6 -25q-1 -7 -6 -10.5t-11 -3.5h-698l-132 -560h660q8 0 11.5 -4.5t1.5 -12.5l-6 -25q-1 -7 -6 -10.5t-11 -3.5h-664l-152 -672h710q8 0 12 -4.5t2 -12.5l-5 -25
q-1 -7 -6 -10.5t-11 -3.5h-767zM531 1590q-8 0 -12 4.5t-2 12.5l6 27q3 14 17 14h488q8 0 11.5 -4.5t1.5 -12.5l-6 -27q-1 -7 -6 -10.5t-11 -3.5h-487z" />
    <glyph glyph-name="emacron" unicode="&#x113;" horiz-adv-x="1015" 
d="M777.5 1002.5q85.5 -45.5 133 -132t47.5 -204.5q0 -57 -12 -120q-1 -14 -16 -14h-798q-10 -60 -10 -122q0 -182 91 -279t251 -97q291 0 387 322q6 14 18 14h31q13 0 13 -14q0 -2 -2 -10q-116 -364 -447 -364q-123 0 -214 50t-140.5 146.5t-49.5 233.5q0 149 57.5 296
t175.5 243.5t287 96.5q112 0 197.5 -45.5zM890 586q9 48 9 91q0 94 -38.5 166.5t-110.5 112.5t-170 40q-119 0 -208.5 -57t-146 -150t-82.5 -203h747zM419 1220q-8 0 -12 4.5t-2 12.5l6 27q3 14 17 14h488q8 0 11.5 -4.5t1.5 -12.5l-6 -27q-1 -7 -6 -10.5t-11 -3.5h-487z
" />
    <glyph glyph-name="Ebreve" unicode="&#x114;" horiz-adv-x="1007" 
d="M27 0q-8 0 -11.5 4.5t-1.5 12.5l174 733l142 636q1 7 6 10.5t11 3.5h751q8 0 11.5 -4.5t1.5 -12.5l-6 -25q-1 -7 -6 -10.5t-11 -3.5h-698l-132 -560h660q8 0 11.5 -4.5t1.5 -12.5l-6 -25q-1 -7 -6 -10.5t-11 -3.5h-664l-152 -672h710q8 0 12 -4.5t2 -12.5l-5 -25
q-1 -7 -6 -10.5t-11 -3.5h-767zM634.5 1568.5q-50.5 48.5 -50.5 125.5q0 16 1 24q2 14 17 14h22q16 0 14 -16q-1 -7 -1 -20q0 -56 36.5 -90t101.5 -34q70 0 120 40t67 106q3 14 17 14h25q8 0 11.5 -4.5t2.5 -12.5q-21 -87 -87.5 -141t-157.5 -54q-88 0 -138.5 48.5z" />
    <glyph glyph-name="ebreve" unicode="&#x115;" horiz-adv-x="1015" 
d="M777.5 1002.5q85.5 -45.5 133 -132t47.5 -204.5q0 -57 -12 -120q-1 -14 -16 -14h-798q-10 -60 -10 -122q0 -182 91 -279t251 -97q291 0 387 322q6 14 18 14h31q13 0 13 -14q0 -2 -2 -10q-116 -364 -447 -364q-123 0 -214 50t-140.5 146.5t-49.5 233.5q0 149 57.5 296
t175.5 243.5t287 96.5q112 0 197.5 -45.5zM890 586q9 48 9 91q0 94 -38.5 166.5t-110.5 112.5t-170 40q-119 0 -208.5 -57t-146 -150t-82.5 -203h747zM522.5 1198.5q-50.5 48.5 -50.5 125.5q0 16 1 24q2 14 17 14h22q16 0 14 -16q-1 -7 -1 -20q0 -56 36.5 -90t101.5 -34
q70 0 120 40t67 106q3 14 17 14h25q8 0 11.5 -4.5t2.5 -12.5q-21 -87 -87.5 -141t-157.5 -54q-88 0 -138.5 48.5z" />
    <glyph glyph-name="Edotaccent" unicode="&#x116;" horiz-adv-x="1007" 
d="M27 0q-8 0 -11.5 4.5t-1.5 12.5l174 733l142 636q1 7 6 10.5t11 3.5h751q8 0 11.5 -4.5t1.5 -12.5l-6 -25q-1 -7 -6 -10.5t-11 -3.5h-698l-132 -560h660q8 0 11.5 -4.5t1.5 -12.5l-6 -25q-1 -7 -6 -10.5t-11 -3.5h-664l-152 -672h710q8 0 12 -4.5t2 -12.5l-5 -25
q-1 -7 -6 -10.5t-11 -3.5h-767zM748 1559q-8 0 -12 4.5t-2 12.5l20 83q1 7 5.5 10.5t11.5 3.5h31q8 0 11.5 -4.5t2.5 -12.5l-20 -83q-1 -7 -6 -10.5t-11 -3.5h-31z" />
    <glyph glyph-name="edotaccent" unicode="&#x117;" horiz-adv-x="1015" 
d="M777.5 1002.5q85.5 -45.5 133 -132t47.5 -204.5q0 -57 -12 -120q-1 -14 -16 -14h-798q-10 -60 -10 -122q0 -182 91 -279t251 -97q291 0 387 322q6 14 18 14h31q13 0 13 -14q0 -2 -2 -10q-116 -364 -447 -364q-123 0 -214 50t-140.5 146.5t-49.5 233.5q0 149 57.5 296
t175.5 243.5t287 96.5q112 0 197.5 -45.5zM890 586q9 48 9 91q0 94 -38.5 166.5t-110.5 112.5t-170 40q-119 0 -208.5 -57t-146 -150t-82.5 -203h747zM636 1189q-8 0 -12 4.5t-2 12.5l20 83q1 7 5.5 10.5t11.5 3.5h31q8 0 11.5 -4.5t2.5 -12.5l-20 -83q-1 -7 -6 -10.5
t-11 -3.5h-31z" />
    <glyph glyph-name="Eogonek" unicode="&#x118;" horiz-adv-x="1007" 
d="M1098 1400q8 0 11.5 -4.5t1.5 -12.5l-6 -25q-1 -7 -6 -10.5t-11 -3.5h-698l-132 -560h660q8 0 11.5 -4.5t1.5 -12.5l-6 -25q-1 -7 -6 -10.5t-11 -3.5h-664l-152 -672h710q8 0 12 -4.5t2 -12.5l-5 -25q-1 -7 -6 -10.5t-11 -3.5h-80q-71 -22 -122.5 -73t-51.5 -113
q0 -47 33 -72.5t97 -25.5h54q8 0 12 -4.5t2 -12.5l-5 -25q-1 -7 -6 -10.5t-11 -3.5h-58q-85 0 -133.5 40.5t-48.5 105.5q0 59 41.5 109t107.5 85h-598q-8 0 -11.5 4.5t-1.5 12.5l174 733l142 636q1 7 6 10.5t11 3.5h751z" />
    <glyph glyph-name="eogonek" unicode="&#x119;" horiz-adv-x="1015" 
d="M777.5 1002.5q85.5 -45.5 133 -132t47.5 -204.5q0 -57 -12 -120q-1 -14 -16 -14h-798q-10 -60 -10 -122q0 -182 91 -279t251 -97q291 0 387 322q6 14 18 14h31q13 0 13 -14q0 -2 -2 -10q-100 -312 -358 -357q-62 -26 -103.5 -72.5t-41.5 -102.5q0 -47 33 -72.5t97 -25.5
h54q8 0 12 -4.5t2 -12.5l-5 -25q-1 -7 -6 -10.5t-11 -3.5h-58q-85 0 -133.5 40.5t-48.5 105.5q0 52 32 97t86 79q-123 1 -213.5 51t-139.5 146.5t-49 232.5q0 149 57.5 296t175.5 243.5t287 96.5q112 0 197.5 -45.5zM890 586q9 48 9 91q0 94 -38.5 166.5t-110.5 112.5
t-170 40q-119 0 -208.5 -57t-146 -150t-82.5 -203h747z" />
    <glyph glyph-name="Ecaron" unicode="&#x11a;" horiz-adv-x="1007" 
d="M27 0q-8 0 -11.5 4.5t-1.5 12.5l174 733l142 636q1 7 6 10.5t11 3.5h751q8 0 11.5 -4.5t1.5 -12.5l-6 -25q-1 -7 -6 -10.5t-11 -3.5h-698l-132 -560h660q8 0 11.5 -4.5t1.5 -12.5l-6 -25q-1 -7 -6 -10.5t-11 -3.5h-664l-152 -672h710q8 0 12 -4.5t2 -12.5l-5 -25
q-1 -7 -6 -10.5t-11 -3.5h-767zM507 1637q-9 5 -9 12q0 3 2 9l6 12q4 10 13 10q2 0 8 -2l232 -98l278 101q2 1 7 1q10 0 13 -10l6 -13q2 -6 2 -8q0 -8 -10 -13l-274 -118q-14 -4 -20 -4h-16q-9 0 -19 5z" />
    <glyph glyph-name="ecaron" unicode="&#x11b;" horiz-adv-x="1015" 
d="M777.5 1002.5q85.5 -45.5 133 -132t47.5 -204.5q0 -57 -12 -120q-1 -14 -16 -14h-798q-10 -60 -10 -122q0 -182 91 -279t251 -97q291 0 387 322q6 14 18 14h31q13 0 13 -14q0 -2 -2 -10q-116 -364 -447 -364q-123 0 -214 50t-140.5 146.5t-49.5 233.5q0 149 57.5 296
t175.5 243.5t287 96.5q112 0 197.5 -45.5zM890 586q9 48 9 91q0 94 -38.5 166.5t-110.5 112.5t-170 40q-119 0 -208.5 -57t-146 -150t-82.5 -203h747zM395 1267q-9 5 -9 12q0 3 2 9l6 12q4 10 13 10q2 0 8 -2l232 -98l278 101q2 1 7 1q10 0 13 -10l6 -13q2 -6 2 -8
q0 -8 -10 -13l-274 -118q-14 -4 -20 -4h-16q-9 0 -19 5z" />
    <glyph glyph-name="Gcircumflex" unicode="&#x11c;" horiz-adv-x="1321" 
d="M336 54q-115 74 -172.5 205t-57.5 303q0 216 84 413.5t243 321t371 123.5q139 0 250.5 -56t177.5 -156t73 -230v-2q0 -7 -4 -10.5t-10 -3.5h-36q-14 0 -16 15q-10 119 -65 206t-149 134t-217 47q-197 0 -340 -115t-217.5 -299t-74.5 -386q0 -166 52 -284.5t151.5 -181
t238.5 -62.5q153 0 276 74.5t203.5 209.5t110.5 314h-496q-8 0 -11.5 4.5t-2.5 12.5l7 25q3 14 17 14h549q8 0 11.5 -5.5t2.5 -15.5q-37 -215 -129 -370t-229 -237t-309 -82q-167 0 -282 74zM608 1552q-1 2 -1 6q0 11 10 14l274 118q8 4 19 4h16q12 0 19 -5l220 -116
q9 -4 9 -12l-2 -9l-6 -12q-5 -10 -13 -10l-8 2l-233 98l-278 -101q-2 -1 -6 -1q-10 0 -14 10z" />
    <glyph glyph-name="gcircumflex" unicode="&#x11d;" horiz-adv-x="1001" 
d="M989 1030q8 0 11.5 -4.5t2.5 -12.5l-122 -517l-86 -376q-40 -173 -104 -284t-160 -165.5t-230 -54.5q-96 0 -178 36t-129.5 105t-43.5 165q0 16 16 16h33q15 0 15 -16q-1 -80 36 -136t103.5 -85t151.5 -29q118 0 200 47.5t137 145.5t91 255l18 78q-66 -98 -156.5 -154
t-203.5 -56q-105 0 -181.5 49t-116.5 138t-40 207q0 140 55.5 294t171.5 261t287 107q134 0 216 -70.5t103 -203.5l54 246q1 7 5.5 10.5t11.5 3.5h32zM638 135q103 97 157 242.5t54 284.5q0 164 -75 247t-209 83q-156 0 -257.5 -101.5t-147 -243.5t-45.5 -267
q0 -103 33 -180.5t96.5 -119.5t152.5 -42q138 0 241 97zM345 1182q-1 2 -1 6q0 11 10 14l274 118q8 4 19 4h16q12 0 19 -5l220 -116q9 -4 9 -12l-2 -9l-6 -12q-5 -10 -13 -10l-8 2l-233 98l-278 -101q-2 -1 -6 -1q-10 0 -14 10z" />
    <glyph glyph-name="Gbreve" unicode="&#x11e;" horiz-adv-x="1321" 
d="M336 54q-115 74 -172.5 205t-57.5 303q0 216 84 413.5t243 321t371 123.5q139 0 250.5 -56t177.5 -156t73 -230v-2q0 -7 -4 -10.5t-10 -3.5h-36q-14 0 -16 15q-10 119 -65 206t-149 134t-217 47q-197 0 -340 -115t-217.5 -299t-74.5 -386q0 -166 52 -284.5t151.5 -181
t238.5 -62.5q153 0 276 74.5t203.5 209.5t110.5 314h-496q-8 0 -11.5 4.5t-2.5 12.5l7 25q3 14 17 14h549q8 0 11.5 -5.5t2.5 -15.5q-37 -215 -129 -370t-229 -237t-309 -82q-167 0 -282 74zM769.5 1568.5q-50.5 48.5 -50.5 125.5q0 16 1 24q2 14 17 14h22q16 0 14 -16
q-1 -7 -1 -20q0 -56 36.5 -90t101.5 -34q70 0 120 40t67 106q3 14 17 14h25q8 0 11.5 -4.5t2.5 -12.5q-21 -87 -87.5 -141t-157.5 -54q-88 0 -138.5 48.5z" />
    <glyph glyph-name="gbreve" unicode="&#x11f;" horiz-adv-x="1001" 
d="M989 1030q8 0 11.5 -4.5t2.5 -12.5l-122 -517l-86 -376q-40 -173 -104 -284t-160 -165.5t-230 -54.5q-96 0 -178 36t-129.5 105t-43.5 165q0 16 16 16h33q15 0 15 -16q-1 -80 36 -136t103.5 -85t151.5 -29q118 0 200 47.5t137 145.5t91 255l18 78q-66 -98 -156.5 -154
t-203.5 -56q-105 0 -181.5 49t-116.5 138t-40 207q0 140 55.5 294t171.5 261t287 107q134 0 216 -70.5t103 -203.5l54 246q1 7 5.5 10.5t11.5 3.5h32zM638 135q103 97 157 242.5t54 284.5q0 164 -75 247t-209 83q-156 0 -257.5 -101.5t-147 -243.5t-45.5 -267
q0 -103 33 -180.5t96.5 -119.5t152.5 -42q138 0 241 97zM506.5 1198.5q-50.5 48.5 -50.5 125.5q0 16 1 24q2 14 17 14h22q16 0 14 -16q-1 -7 -1 -20q0 -56 36.5 -90t101.5 -34q70 0 120 40t67 106q3 14 17 14h25q8 0 11.5 -4.5t2.5 -12.5q-21 -87 -87.5 -141t-157.5 -54
q-88 0 -138.5 48.5z" />
    <glyph glyph-name="Gdotaccent" unicode="&#x120;" horiz-adv-x="1321" 
d="M336 54q-115 74 -172.5 205t-57.5 303q0 216 84 413.5t243 321t371 123.5q139 0 250.5 -56t177.5 -156t73 -230v-2q0 -7 -4 -10.5t-10 -3.5h-36q-14 0 -16 15q-10 119 -65 206t-149 134t-217 47q-197 0 -340 -115t-217.5 -299t-74.5 -386q0 -166 52 -284.5t151.5 -181
t238.5 -62.5q153 0 276 74.5t203.5 209.5t110.5 314h-496q-8 0 -11.5 4.5t-2.5 12.5l7 25q3 14 17 14h549q8 0 11.5 -5.5t2.5 -15.5q-37 -215 -129 -370t-229 -237t-309 -82q-167 0 -282 74zM882 1559q-8 0 -12 4.5t-2 12.5l20 83q1 7 5.5 10.5t11.5 3.5h31q8 0 11.5 -4.5
t2.5 -12.5l-20 -83q-1 -7 -6 -10.5t-11 -3.5h-31z" />
    <glyph glyph-name="gdotaccent" unicode="&#x121;" horiz-adv-x="1001" 
d="M989 1030q8 0 11.5 -4.5t2.5 -12.5l-122 -517l-86 -376q-40 -173 -104 -284t-160 -165.5t-230 -54.5q-96 0 -178 36t-129.5 105t-43.5 165q0 16 16 16h33q15 0 15 -16q-1 -80 36 -136t103.5 -85t151.5 -29q118 0 200 47.5t137 145.5t91 255l18 78q-66 -98 -156.5 -154
t-203.5 -56q-105 0 -181.5 49t-116.5 138t-40 207q0 140 55.5 294t171.5 261t287 107q134 0 216 -70.5t103 -203.5l54 246q1 7 5.5 10.5t11.5 3.5h32zM638 135q103 97 157 242.5t54 284.5q0 164 -75 247t-209 83q-156 0 -257.5 -101.5t-147 -243.5t-45.5 -267
q0 -103 33 -180.5t96.5 -119.5t152.5 -42q138 0 241 97zM619 1189q-8 0 -12 4.5t-2 12.5l20 83q1 7 5.5 10.5t11.5 3.5h31q8 0 11.5 -4.5t2.5 -12.5l-20 -83q-1 -7 -6 -10.5t-11 -3.5h-31z" />
    <glyph glyph-name="uni0122" unicode="&#x122;" horiz-adv-x="1321" 
d="M336 54q-115 74 -172.5 205t-57.5 303q0 216 84 413.5t243 321t371 123.5q139 0 250.5 -56t177.5 -156t73 -230v-2q0 -7 -4 -10.5t-10 -3.5h-36q-14 0 -16 15q-10 119 -65 206t-149 134t-217 47q-197 0 -340 -115t-217.5 -299t-74.5 -386q0 -166 52 -284.5t151.5 -181
t238.5 -62.5q153 0 276 74.5t203.5 209.5t110.5 314h-496q-8 0 -11.5 4.5t-2.5 12.5l7 25q3 14 17 14h549q8 0 11.5 -5.5t2.5 -15.5q-37 -215 -129 -370t-229 -237t-309 -82q-167 0 -282 74zM433 -370q-9 0 -9 9q0 5 2 9l67 132l22 102q3 14 18 14h45q8 0 11.5 -4.5
t2.5 -12.5l-20 -90q-3 -9 -9 -17l-103 -133q-8 -9 -19 -9h-8z" />
    <glyph glyph-name="uni0123" unicode="&#x123;" horiz-adv-x="1001" 
d="M989 1030q8 0 11.5 -4.5t2.5 -12.5l-122 -517l-86 -376q-40 -173 -104 -284t-160 -165.5t-230 -54.5q-96 0 -178 36t-129.5 105t-43.5 165q0 16 16 16h33q15 0 15 -16q-1 -80 36 -136t103.5 -85t151.5 -29q118 0 200 47.5t137 145.5t91 255l18 78q-66 -98 -156.5 -154
t-203.5 -56q-105 0 -181.5 49t-116.5 138t-40 207q0 140 55.5 294t171.5 261t287 107q134 0 216 -70.5t103 -203.5l54 246q1 7 5.5 10.5t11.5 3.5h32zM638 135q103 97 157 242.5t54 284.5q0 164 -75 247t-209 83q-156 0 -257.5 -101.5t-147 -243.5t-45.5 -267
q0 -103 33 -180.5t96.5 -119.5t152.5 -42q138 0 241 97zM614 1180q-8 0 -11.5 4.5t-1.5 12.5l20 90q1 9 8 17l104 133q7 9 19 9h13q14 0 14 -10q0 -4 -3 -9l-76 -131l-22 -102q-1 -7 -6.5 -10.5t-12.5 -3.5h-45z" />
    <glyph glyph-name="Hcircumflex" unicode="&#x124;" horiz-adv-x="1271" 
d="M1330 1400q18 0 13 -17l-165 -699l-151 -670q-1 -7 -6 -10.5t-11 -3.5h-39q-8 0 -11.5 4.5t-1.5 12.5l158 667l10 44h-882l-10 -44l-151 -670q-1 -7 -6 -10.5t-11 -3.5h-39q-8 0 -11.5 4.5t-1.5 12.5l158 667l158 702q1 7 6 10.5t11 3.5h39q18 0 13 -17l-141 -599h881
l135 602q1 7 6 10.5t11 3.5h39zM587 1552q-1 2 -1 6q0 11 10 14l274 118q8 4 19 4h16q12 0 19 -5l220 -116q9 -4 9 -12l-2 -9l-6 -12q-5 -10 -13 -10l-8 2l-233 98l-278 -101q-2 -1 -6 -1q-10 0 -14 10z" />
    <glyph glyph-name="hcircumflex" unicode="&#x125;" horiz-adv-x="981" 
d="M19 0q-16 0 -13 17l102 425l212 944q3 14 18 14h35q16 0 13 -17l-138 -583q36 69 94.5 127t132.5 92.5t155 34.5q82 0 145.5 -34t99.5 -100t36 -159q0 -64 -15 -127l-44 -192l-97 -428q-1 -7 -5.5 -10.5t-11.5 -3.5h-35q-16 0 -13 17l100 425l42 182q17 71 17 135
q0 119 -62 179t-167 60q-224 0 -392 -300l-60 -256l-97 -428q-1 -7 -5.5 -10.5t-11.5 -3.5h-35zM105 1552q-1 2 -1 6q0 11 10 14l274 118q8 4 19 4h16q12 0 19 -5l220 -116q9 -4 9 -12l-2 -9l-6 -12q-5 -10 -13 -10l-8 2l-233 98l-278 -101q-2 -1 -6 -1q-10 0 -14 10z" />
    <glyph glyph-name="Hbar" unicode="&#x126;" horiz-adv-x="1294" 
d="M1422 1084q8 0 11.5 -4.5t2.5 -12.5l-5 -25q-3 -14 -18 -14h-143l-82 -344l-150 -670q-3 -14 -18 -14h-39q-16 0 -13 17l158 667l10 44h-882l-10 -44l-150 -670q-3 -14 -18 -14h-39q-16 0 -13 17l158 667l78 344h-140q-8 0 -11.5 4.5t-1.5 12.5l5 25q1 7 5.5 10.5
t11.5 3.5h143l69 302q1 7 5.5 10.5t11.5 3.5h39q16 0 13 -17l-71 -299h877l69 302q1 7 5.5 10.5t11.5 3.5h39q16 0 13 -17l-71 -299h139zM326 1028l-58 -244h881l55 244h-878z" />
    <glyph glyph-name="hbar" unicode="&#x127;" horiz-adv-x="980" 
d="M769.5 1000q63.5 -34 99.5 -100t36 -159q0 -64 -15 -127l-40 -172l-96 -428q-3 -14 -18 -14h-35q-16 0 -13 17l101 430l37 157q17 71 17 134q0 118 -62 179t-167 61q-224 0 -392 -300l-56 -236l-96 -428q-3 -14 -18 -14h-35q-16 0 -13 17l102 425l164 730h-118
q-8 0 -11.5 4.5t-1.5 12.5l5 21q3 14 16 14h122l37 162q1 7 5.5 10.5t11.5 3.5h35q16 0 13 -17l-38 -159h331q16 0 13 -17l-5 -21q-3 -14 -17 -14h-334l-92 -392q36 69 94.5 127t132.5 92.5t155 34.5q82 0 145.5 -34z" />
    <glyph glyph-name="Itilde" unicode="&#x128;" horiz-adv-x="349" 
d="M39 0q-8 0 -11.5 4.5t-1.5 12.5l168 711l148 658q1 7 6 10.5t11 3.5h39q18 0 13 -17l-155 -655l-161 -714q-1 -7 -6 -10.5t-11 -3.5h-39zM469 1560q-28 24 -58 68q-24 35 -43 52.5t-45 17.5q-37 0 -57 -32.5t-35 -99.5q-4 -14 -18 -14h-20q-8 0 -11.5 5t-2.5 12
q22 86 55.5 132.5t92.5 46.5q45 0 73 -24t61 -70q24 -34 42 -51t42 -17q41 0 61 32t37 100q3 14 17 14h20q8 0 11.5 -5.5t1.5 -15.5q-22 -85 -56 -130t-96 -45q-44 0 -72 24z" />
    <glyph glyph-name="itilde" unicode="&#x129;" horiz-adv-x="326" 
d="M352 1190.5q-19 24.5 -35 70.5q-13 35 -24.5 52t-32.5 17q-24 0 -43 -30t-35 -103q-3 -15 -16 -15h-21q-8 0 -11.5 5t-2.5 13q21 94 53.5 136t81.5 42q41 0 60 -24.5t35 -70.5q13 -35 24.5 -52t32.5 -17q23 0 42 30t35 103q3 15 16 15h21q12 0 12 -18q0 -5 -2 -17
q-21 -84 -52.5 -122.5t-77.5 -38.5q-41 0 -60 24.5zM27 0q-16 0 -13 17l124 533l107 466q1 14 17 14h35q16 0 13 -17l-108 -461l-122 -538q-3 -14 -18 -14h-35z" />
    <glyph glyph-name="Imacron" unicode="&#x12a;" horiz-adv-x="349" 
d="M39 0q-8 0 -11.5 4.5t-1.5 12.5l168 711l148 658q1 7 6 10.5t11 3.5h39q18 0 13 -17l-155 -655l-161 -714q-1 -7 -6 -10.5t-11 -3.5h-39zM184 1590q-8 0 -12 4.5t-2 12.5l6 27q3 14 17 14h488q8 0 11.5 -4.5t1.5 -12.5l-6 -27q-1 -7 -6 -10.5t-11 -3.5h-487z" />
    <glyph glyph-name="imacron" unicode="&#x12b;" horiz-adv-x="326" 
d="M136 1220q-8 0 -12 4.5t-2 12.5l6 27q3 14 17 14h383q8 0 11.5 -4.5t1.5 -12.5l-6 -27q-1 -7 -6 -10.5t-11 -3.5h-382zM27 0q-16 0 -13 17l124 533l107 466q1 14 17 14h35q16 0 13 -17l-108 -461l-122 -538q-3 -14 -18 -14h-35z" />
    <glyph glyph-name="Ibreve" unicode="&#x12c;" horiz-adv-x="349" 
d="M39 0q-8 0 -11.5 4.5t-1.5 12.5l168 711l148 658q1 7 6 10.5t11 3.5h39q18 0 13 -17l-155 -655l-161 -714q-1 -7 -6 -10.5t-11 -3.5h-39zM288.5 1568.5q-50.5 48.5 -50.5 125.5q0 16 1 24q2 14 17 14h22q16 0 14 -16q-1 -7 -1 -20q0 -56 36.5 -90t101.5 -34q70 0 120 40
t67 106q3 14 17 14h25q8 0 11.5 -4.5t2.5 -12.5q-21 -87 -87.5 -141t-157.5 -54q-88 0 -138.5 48.5z" />
    <glyph glyph-name="ibreve" unicode="&#x12d;" horiz-adv-x="326" 
d="M206 1197.5q-43 47.5 -43 124.5q0 17 1 26q2 14 16 14h23q16 0 14 -16q-1 -8 -1 -24q0 -54 30 -87t84 -33q60 0 104 40t59 106q3 14 16 14h25q8 0 12 -5t2 -14q-20 -86 -81 -139.5t-141 -53.5q-77 0 -120 47.5zM27 0q-16 0 -13 17l124 533l107 466q1 14 17 14h35
q16 0 13 -17l-108 -461l-122 -538q-3 -14 -18 -14h-35z" />
    <glyph glyph-name="Iogonek" unicode="&#x12e;" horiz-adv-x="349" 
d="M398 1400q18 0 13 -17l-155 -655l-161 -714q-1 -7 -6 -10.5t-11 -3.5q-71 -22 -123 -73t-52 -113q0 -47 33.5 -72.5t97.5 -25.5h54q8 0 12 -4.5t2 -12.5l-5 -25q-1 -7 -6 -10.5t-11 -3.5h-58q-86 0 -134.5 40.5t-48.5 105.5q0 67 53.5 122.5t133.5 88.5l168 711l148 658
q1 7 6 10.5t11 3.5h39z" />
    <glyph glyph-name="iogonek" unicode="&#x12f;" horiz-adv-x="326" 
d="M356 1303q8 0 11.5 -4.5t2.5 -12.5l-20 -83q-1 -7 -6 -10.5t-11 -3.5h-31q-8 0 -12 4.5t-2 12.5l20 83q1 7 5.5 10.5t11.5 3.5h31zM297 1030q16 0 13 -17l-108 -461l-122 -538q-3 -14 -18 -14q-71 -22 -123 -73t-52 -113q0 -47 33.5 -72.5t97.5 -25.5h54q8 0 12 -4.5
t2 -12.5l-5 -25q-1 -7 -6 -10.5t-11 -3.5h-58q-86 0 -134.5 40.5t-48.5 105.5q0 68 54.5 124t136.5 89l124 531l107 466q1 14 17 14h35z" />
    <glyph glyph-name="Idotaccent" unicode="&#x130;" horiz-adv-x="349" 
d="M39 0q-8 0 -11.5 4.5t-1.5 12.5l168 711l148 658q1 7 6 10.5t11 3.5h39q18 0 13 -17l-155 -655l-161 -714q-1 -7 -6 -10.5t-11 -3.5h-39zM402 1559q-8 0 -12 4.5t-2 12.5l20 83q1 7 5.5 10.5t11.5 3.5h31q8 0 11.5 -4.5t2.5 -12.5l-20 -83q-1 -7 -6 -10.5t-11 -3.5h-31z
" />
    <glyph glyph-name="dotlessi" unicode="&#x131;" horiz-adv-x="326" 
d="M27 0q-16 0 -13 17l124 533l107 466q1 14 17 14h35q16 0 13 -17l-108 -461l-122 -538q-3 -14 -18 -14h-35z" />
    <glyph glyph-name="IJ" unicode="&#x132;" horiz-adv-x="1249" 
d="M39 0q-8 0 -11.5 4.5t-1.5 12.5l168 711l148 658q1 7 6 10.5t11 3.5h39q18 0 13 -17l-155 -655l-161 -714q-1 -7 -6 -10.5t-11 -3.5h-39zM463 65q-82 91 -82 264q0 71 13 149q3 14 17 14h34q8 0 12 -4.5t3 -12.5q-11 -69 -11 -138q0 -151 64.5 -229t191.5 -78
q86 0 152 42t118 139t90 261l116 498l94 416q3 14 17 14h39q18 0 13 -17l-97 -413l-116 -498q-43 -184 -103.5 -293.5t-140.5 -157t-186 -47.5q-156 0 -238 91z" />
    <glyph glyph-name="ij" unicode="&#x133;" horiz-adv-x="651" 
d="M27 0q-16 0 -13 17l124 533l107 466q1 14 17 14h35q16 0 13 -17l-108 -461l-122 -538q-3 -14 -18 -14h-35zM302 1189q-8 0 -12 4.5t-2 12.5l20 83q1 7 5.5 10.5t11.5 3.5h31q8 0 11.5 -4.5t2.5 -12.5l-20 -83q-1 -7 -6 -10.5t-11 -3.5h-31zM275 -340q-18 0 -13 17
l146 629l162 710q3 14 17 14h35q18 0 13 -17l-165 -707l-143 -632q-1 -7 -6 -10.5t-11 -3.5h-35zM629 1189q-8 0 -12 4.5t-2 12.5l20 83q1 7 5.5 10.5t11.5 3.5h31q8 0 11.5 -4.5t2.5 -12.5l-20 -83q-1 -7 -6 -10.5t-11 -3.5h-31z" />
    <glyph glyph-name="Jcircumflex" unicode="&#x134;" horiz-adv-x="901" 
d="M114 65q-82 91 -82 264q0 71 13 149q3 14 17 14h34q8 0 12 -4.5t3 -12.5q-11 -69 -11 -138q0 -151 64.5 -229t191.5 -78q86 0 152 42t118 139t90 261l116 498l94 416q3 14 17 14h39q18 0 13 -17l-97 -413l-116 -498q-43 -184 -103.5 -293.5t-140.5 -157t-186 -47.5
q-156 0 -238 91zM713 1552q-1 2 -1 6q0 11 10 14l274 118q8 4 19 4h16q12 0 19 -5l220 -116q9 -4 9 -12l-2 -9l-6 -12q-5 -10 -13 -10l-8 2l-233 98l-278 -101q-2 -1 -6 -1q-10 0 -14 10z" />
    <glyph glyph-name="jcircumflex" unicode="&#x135;" horiz-adv-x="325" 
d="M84 1182q-3 5 -3 9q0 8 10 12l222 117q8 4 19 4h15q10 0 19 -6l175 -113q7 -6 7 -12q0 -4 -3 -10l-8 -12q-5 -8 -12 -8q-5 0 -8 2l-183 97l-225 -100q-4 -2 -7 -2q-7 0 -12 10zM-51 -340q-18 0 -13 17l146 629l162 710q3 14 17 14h35q18 0 13 -17l-165 -707l-143 -632
q-1 -7 -6 -10.5t-11 -3.5h-35z" />
    <glyph glyph-name="uni0136" unicode="&#x136;" horiz-adv-x="1010" 
d="M330 1386q1 7 6 10.5t11 3.5h39q18 0 13 -17l-151 -641l-16 -70l788 720q8 8 19 8h50q14 0 14 -9q0 -4 -6 -10l-581 -527l346 -836q1 -2 1 -7t-3.5 -8t-9.5 -3h-41q-13 0 -19 12l-328 792l-252 -228l-127 -562q-1 -7 -6 -10.5t-11 -3.5h-39q-8 0 -11.5 4.5t-1.5 12.5
l172 725zM288 -370q-9 0 -9 9q0 5 2 9l67 132l22 102q3 14 18 14h45q8 0 11.5 -4.5t2.5 -12.5l-20 -90q-3 -9 -9 -17l-103 -133q-8 -9 -19 -9h-8z" />
    <glyph glyph-name="uni0137" unicode="&#x137;" horiz-adv-x="833" 
d="M853 1030q6 0 10 -2.5t4 -5.5q0 -4 -7 -11l-442 -354l247 -639q1 -2 1 -7t-3.5 -8t-9.5 -3h-38q-13 0 -18 12l-37 96l-193 507l-199 -159l-99 -444q-1 -7 -6 -10.5t-11 -3.5h-35q-8 0 -11.5 4.5t-1.5 12.5l158 673l158 698q1 7 6 10.5t11 3.5h35q18 0 13 -17l-165 -695
l-34 -152l589 487q11 7 20 7h58zM184 -370q-9 0 -9 9q0 5 2 9l67 132l22 102q3 14 18 14h45q8 0 11.5 -4.5t2.5 -12.5l-20 -90q-3 -9 -9 -17l-103 -133q-8 -9 -19 -9h-8z" />
    <glyph glyph-name="Lacute" unicode="&#x139;" horiz-adv-x="919" 
d="M27 0q-8 0 -11.5 4.5t-1.5 12.5l178 755l138 614q1 7 6 10.5t11 3.5h39q18 0 13 -17l-145 -613l-162 -714h670q8 0 12 -4.5t2 -12.5l-5 -25q-1 -7 -6 -10.5t-11 -3.5h-727zM260 1524q-4 -2 -7 -2q-9 0 -14 11l-6 13q-1 3 -1 7q0 10 9 14l408 198q6 2 7 2q9 0 13 -10
l14 -31q2 -4 2 -7q0 -8 -10 -13z" />
    <glyph glyph-name="lacute" unicode="&#x13a;" horiz-adv-x="326" 
d="M27 0q-16 0 -13 17l166 701l151 668q1 7 5.5 10.5t11.5 3.5h35q16 0 13 -17l-158 -661l-158 -708q-3 -14 -18 -14h-35zM259 1524q-4 -2 -7 -2q-9 0 -14 11l-6 13q-1 3 -1 7q0 10 9 14l408 198q6 2 7 2q9 0 13 -10l14 -31q2 -4 2 -7q0 -8 -10 -13z" />
    <glyph glyph-name="uni013B" unicode="&#x13b;" horiz-adv-x="919" 
d="M27 0q-8 0 -11.5 4.5t-1.5 12.5l178 755l138 614q1 7 6 10.5t11 3.5h39q18 0 13 -17l-145 -613l-162 -714h670q8 0 12 -4.5t2 -12.5l-5 -25q-1 -7 -6 -10.5t-11 -3.5h-727zM240 -370q-9 0 -9 9q0 5 2 9l67 132l22 102q3 14 18 14h45q8 0 11.5 -4.5t2.5 -12.5l-20 -90
q-3 -9 -9 -17l-103 -133q-8 -9 -19 -9h-8z" />
    <glyph glyph-name="uni013C" unicode="&#x13c;" horiz-adv-x="326" 
d="M27 0q-16 0 -13 17l166 701l151 668q1 7 5.5 10.5t11.5 3.5h35q16 0 13 -17l-158 -661l-158 -708q-3 -14 -18 -14h-35zM-108 -370q-9 0 -9 9q0 5 2 9l67 132l22 102q3 14 18 14h45q8 0 11.5 -4.5t2.5 -12.5l-20 -90q-3 -9 -9 -17l-103 -133q-8 -9 -19 -9h-8z" />
    <glyph glyph-name="Lcaron" unicode="&#x13d;" horiz-adv-x="919" 
d="M27 0q-8 0 -11.5 4.5t-1.5 12.5l178 755l138 614q1 7 6 10.5t11 3.5h39q18 0 13 -17l-145 -613l-162 -714h670q8 0 12 -4.5t2 -12.5l-5 -25q-1 -7 -6 -10.5t-11 -3.5h-727zM528 1061q-6 -11 -18 -11h-21q-14 0 -14 10q0 4 3 8l164 321q6 11 19 11h36q14 0 14 -10
q0 -4 -3 -9z" />
    <glyph glyph-name="lcaron" unicode="&#x13e;" horiz-adv-x="326" 
d="M27 0q-16 0 -13 17l166 701l151 668q1 7 5.5 10.5t11.5 3.5h35q16 0 13 -17l-158 -661l-158 -708q-3 -14 -18 -14h-35zM454 1130q-6 -11 -18 -11h-21q-14 0 -14 10q0 4 3 8l164 321q6 11 19 11h36q14 0 14 -10q0 -4 -3 -9z" />
    <glyph glyph-name="Ldot" unicode="&#x13f;" horiz-adv-x="919" 
d="M27 0q-8 0 -11.5 4.5t-1.5 12.5l178 755l138 614q1 7 6 10.5t11 3.5h39q18 0 13 -17l-145 -613l-162 -714h670q8 0 12 -4.5t2 -12.5l-5 -25q-1 -7 -6 -10.5t-11 -3.5h-727zM658 721q-8 0 -12 4.5t-2 12.5l20 83q1 7 5.5 10.5t11.5 3.5h31q8 0 11.5 -4.5t2.5 -12.5
l-20 -83q-1 -7 -6 -10.5t-11 -3.5h-31z" />
    <glyph glyph-name="ldot" unicode="&#x140;" horiz-adv-x="318" 
d="M27 0q-16 0 -13 17l166 701l151 668q1 7 5.5 10.5t11.5 3.5h35q16 0 13 -17l-158 -661l-158 -708q-3 -14 -18 -14h-35zM333 632q-16 0 -13 17l19 81q1 14 17 14h31q16 0 13 -17l-18 -81q-3 -14 -18 -14h-31z" />
    <glyph glyph-name="Lslash" unicode="&#x141;" horiz-adv-x="924" 
d="M767 56q8 0 12 -4.5t2 -12.5l-5 -25q-1 -7 -6 -10.5t-11 -3.5h-727q-8 0 -11.5 4.5t-1.5 12.5l136 579l-143 -42q-2 -1 -6 -1q-6 0 -9 4.5t-2 11.5l8 29q1 11 14 16l153 44l165 728q1 7 6 10.5t11 3.5h39q18 0 13 -17l-166 -705l432 126q2 1 7 1t7.5 -4.5t1.5 -11.5
l-7 -29q-3 -12 -16 -15l-439 -129l-127 -560h670z" />
    <glyph glyph-name="lslash" unicode="&#x142;" horiz-adv-x="356" 
d="M405 753q5 3 9 3q10 0 8 -14l-4 -19q-3 -12 -13 -16l-174 -88l-136 -605q-1 -7 -6 -10.5t-11 -3.5h-35q-8 0 -11.5 4.5t-1.5 12.5l135 569l-164 -83q-3 -2 -8 -2q-11 0 -9 14l4 18q3 12 13 16l176 89l19 80l150 668q1 7 6 10.5t11 3.5h35q18 0 13 -17l-157 -661l-11 -51z
" />
    <glyph glyph-name="Nacute" unicode="&#x143;" horiz-adv-x="1303" 
d="M27 0q-8 0 -11.5 4.5t-1.5 12.5l168 707l150 662q3 14 17 14h28q13 0 18 -11l617 -1287l146 622l148 662q1 7 6 10.5t11 3.5h39q18 0 13 -17l-155 -659l-163 -710q-1 -7 -6 -10.5t-11 -3.5h-35q-13 0 -19 11l-612 1271l-130 -558l-161 -710q-1 -7 -6 -10.5t-11 -3.5h-39z
M743 1524q-4 -2 -7 -2q-9 0 -14 11l-6 13q-1 3 -1 7q0 10 9 14l408 198q6 2 7 2q9 0 13 -10l14 -31q2 -4 2 -7q0 -8 -10 -13z" />
    <glyph glyph-name="nacute" unicode="&#x144;" horiz-adv-x="979" 
d="M17 0q-8 0 -11.5 4.5t-1.5 12.5l102 425l128 574q1 7 6 10.5t11 3.5h35q8 0 11.5 -4.5t1.5 -12.5l-53 -213q36 69 94.5 127t132.5 92.5t155 34.5q82 0 145.5 -34t99.5 -100t36 -159q0 -64 -15 -127l-44 -192l-97 -428q-1 -7 -6 -10.5t-11 -3.5h-35q-8 0 -11.5 4.5
t-1.5 12.5l100 425l42 182q17 71 17 135q0 119 -62 179t-167 60q-224 0 -392 -300l-60 -256l-97 -428q-1 -7 -6 -10.5t-11 -3.5h-35zM503 1154q-4 -2 -7 -2q-9 0 -14 11l-6 13q-1 3 -1 7q0 10 9 14l408 198q6 2 7 2q9 0 13 -10l14 -31q2 -4 2 -7q0 -8 -10 -13z" />
    <glyph glyph-name="uni0145" unicode="&#x145;" horiz-adv-x="1303" 
d="M27 0q-8 0 -11.5 4.5t-1.5 12.5l168 707l150 662q3 14 17 14h28q13 0 18 -11l617 -1287l146 622l148 662q1 7 6 10.5t11 3.5h39q18 0 13 -17l-155 -659l-163 -710q-1 -7 -6 -10.5t-11 -3.5h-35q-13 0 -19 11l-612 1271l-130 -558l-161 -710q-1 -7 -6 -10.5t-11 -3.5h-39z
M386 -370q-9 0 -9 9q0 5 2 9l67 132l22 102q3 14 18 14h45q8 0 11.5 -4.5t2.5 -12.5l-20 -90q-3 -9 -9 -17l-103 -133q-8 -9 -19 -9h-8z" />
    <glyph glyph-name="uni0146" unicode="&#x146;" horiz-adv-x="979" 
d="M17 0q-8 0 -11.5 4.5t-1.5 12.5l102 425l128 574q1 7 6 10.5t11 3.5h35q8 0 11.5 -4.5t1.5 -12.5l-53 -213q36 69 94.5 127t132.5 92.5t155 34.5q82 0 145.5 -34t99.5 -100t36 -159q0 -64 -15 -127l-44 -192l-97 -428q-1 -7 -6 -10.5t-11 -3.5h-35q-8 0 -11.5 4.5
t-1.5 12.5l100 425l42 182q17 71 17 135q0 119 -62 179t-167 60q-224 0 -392 -300l-60 -256l-97 -428q-1 -7 -6 -10.5t-11 -3.5h-35zM226 -370q-9 0 -9 9q0 5 2 9l67 132l22 102q3 14 18 14h45q8 0 11.5 -4.5t2.5 -12.5l-20 -90q-3 -9 -9 -17l-103 -133q-8 -9 -19 -9h-8z
" />
    <glyph glyph-name="Ncaron" unicode="&#x147;" horiz-adv-x="1303" 
d="M27 0q-8 0 -11.5 4.5t-1.5 12.5l168 707l150 662q3 14 17 14h28q13 0 18 -11l617 -1287l146 622l148 662q1 7 6 10.5t11 3.5h39q18 0 13 -17l-155 -659l-163 -710q-1 -7 -6 -10.5t-11 -3.5h-35q-13 0 -19 11l-612 1271l-130 -558l-161 -710q-1 -7 -6 -10.5t-11 -3.5h-39z
M631 1637q-9 5 -9 12q0 3 2 9l6 12q4 10 13 10q2 0 8 -2l232 -98l278 101q2 1 7 1q10 0 13 -10l6 -13q2 -6 2 -8q0 -8 -10 -13l-274 -118q-14 -4 -20 -4h-16q-9 0 -19 5z" />
    <glyph glyph-name="ncaron" unicode="&#x148;" horiz-adv-x="979" 
d="M17 0q-8 0 -11.5 4.5t-1.5 12.5l102 425l128 574q1 7 6 10.5t11 3.5h35q8 0 11.5 -4.5t1.5 -12.5l-53 -213q36 69 94.5 127t132.5 92.5t155 34.5q82 0 145.5 -34t99.5 -100t36 -159q0 -64 -15 -127l-44 -192l-97 -428q-1 -7 -6 -10.5t-11 -3.5h-35q-8 0 -11.5 4.5
t-1.5 12.5l100 425l42 182q17 71 17 135q0 119 -62 179t-167 60q-224 0 -392 -300l-60 -256l-97 -428q-1 -7 -6 -10.5t-11 -3.5h-35zM391 1267q-9 5 -9 12q0 3 2 9l6 12q4 10 13 10q2 0 8 -2l232 -98l278 101q2 1 7 1q10 0 13 -10l6 -13q2 -6 2 -8q0 -8 -10 -13l-274 -118
q-14 -4 -20 -4h-16q-9 0 -19 5z" />
    <glyph glyph-name="Eng" unicode="&#x14a;" horiz-adv-x="1303" 
d="M27 0q-8 0 -11.5 4.5t-1.5 12.5l168 707l150 662q3 14 17 14h34q13 0 18 -11l611 -1289l146 624l148 662q1 7 6 10.5t11 3.5h39q18 0 13 -17l-155 -659l-184 -798q-34 -151 -107.5 -218.5t-166.5 -67.5q-43 0 -79 13q-13 4 -11 19l6 26q5 15 19 11q36 -9 71 -9
q74 0 126.5 55.5t77.5 170.5l16 68l-614 1290l-130 -560l-161 -710q-1 -7 -6 -10.5t-11 -3.5h-39z" />
    <glyph glyph-name="eng" unicode="&#x14b;" horiz-adv-x="977" 
d="M398 -352q-13 4 -10 20l4 18q3 16 19 11q36 -9 71 -9q64 0 108.5 51.5t71.5 162.5l168 722q17 71 17 135q0 119 -62 179t-167 60q-224 0 -392 -300l-60 -256l-97 -428q-1 -7 -6 -10.5t-11 -3.5h-35q-8 0 -11.5 4.5t-1.5 12.5l102 425l128 574q1 7 6 10.5t11 3.5h35
q8 0 11.5 -4.5t1.5 -12.5l-53 -213q36 69 94.5 127t132.5 92.5t155 34.5q82 0 145.5 -34t99.5 -100t36 -159q0 -64 -15 -127l-170 -732q-34 -142 -97 -203t-149 -63q-48 0 -80 12z" />
    <glyph glyph-name="Omacron" unicode="&#x14c;" horiz-adv-x="1426" 
d="M376 49q-127 69 -198 201t-71 314q0 199 83 397t250 328.5t403 130.5q166 0 293 -69t198 -200t71 -311q0 -200 -83.5 -399t-250 -330t-402.5 -131q-166 0 -293 69zM1036.5 160q150.5 124 224.5 310.5t74 369.5q0 165 -61 283t-172 179.5t-259 61.5q-217 0 -367.5 -124
t-224.5 -310.5t-74 -369.5q0 -165 61 -283t172 -179.5t259 -61.5q217 0 367.5 124zM704 1590q-8 0 -12 4.5t-2 12.5l6 27q3 14 17 14h488q8 0 11.5 -4.5t1.5 -12.5l-6 -27q-1 -7 -6 -10.5t-11 -3.5h-487z" />
    <glyph glyph-name="omacron" unicode="&#x14d;" horiz-adv-x="1045" 
d="M251.5 33q-90.5 51 -141 148.5t-50.5 232.5q0 147 59.5 294t179.5 243.5t289 96.5q117 0 207.5 -50.5t140.5 -147.5t50 -230q0 -149 -59.5 -296.5t-178.5 -244.5t-288 -97q-118 0 -208.5 51zM715 124.5q105 90.5 157 226.5t52 269q0 118 -42 202.5t-118 129t-176 44.5
q-152 0 -257.5 -90.5t-157 -226t-51.5 -269.5q0 -118 42 -202.5t118.5 -129t177.5 -44.5q150 0 255 90.5zM429 1220q-8 0 -12 4.5t-2 12.5l6 27q3 14 17 14h488q8 0 11.5 -4.5t1.5 -12.5l-6 -27q-1 -7 -6 -10.5t-11 -3.5h-487z" />
    <glyph glyph-name="Obreve" unicode="&#x14e;" horiz-adv-x="1426" 
d="M376 49q-127 69 -198 201t-71 314q0 199 83 397t250 328.5t403 130.5q166 0 293 -69t198 -200t71 -311q0 -200 -83.5 -399t-250 -330t-402.5 -131q-166 0 -293 69zM1036.5 160q150.5 124 224.5 310.5t74 369.5q0 165 -61 283t-172 179.5t-259 61.5q-217 0 -367.5 -124
t-224.5 -310.5t-74 -369.5q0 -165 61 -283t172 -179.5t259 -61.5q217 0 367.5 124zM808.5 1568.5q-50.5 48.5 -50.5 125.5q0 16 1 24q2 14 17 14h22q16 0 14 -16q-1 -7 -1 -20q0 -56 36.5 -90t101.5 -34q70 0 120 40t67 106q3 14 17 14h25q8 0 11.5 -4.5t2.5 -12.5
q-21 -87 -87.5 -141t-157.5 -54q-88 0 -138.5 48.5z" />
    <glyph glyph-name="obreve" unicode="&#x14f;" horiz-adv-x="1045" 
d="M251.5 33q-90.5 51 -141 148.5t-50.5 232.5q0 147 59.5 294t179.5 243.5t289 96.5q117 0 207.5 -50.5t140.5 -147.5t50 -230q0 -149 -59.5 -296.5t-178.5 -244.5t-288 -97q-118 0 -208.5 51zM715 124.5q105 90.5 157 226.5t52 269q0 118 -42 202.5t-118 129t-176 44.5
q-152 0 -257.5 -90.5t-157 -226t-51.5 -269.5q0 -118 42 -202.5t118.5 -129t177.5 -44.5q150 0 255 90.5zM532.5 1198.5q-50.5 48.5 -50.5 125.5q0 16 1 24q2 14 17 14h22q16 0 14 -16q-1 -7 -1 -20q0 -56 36.5 -90t101.5 -34q70 0 120 40t67 106q3 14 17 14h25
q8 0 11.5 -4.5t2.5 -12.5q-21 -87 -87.5 -141t-157.5 -54q-88 0 -138.5 48.5z" />
    <glyph glyph-name="Ohungarumlaut" unicode="&#x150;" horiz-adv-x="1426" 
d="M376 49q-127 69 -198 201t-71 314q0 199 83 397t250 328.5t403 130.5q166 0 293 -69t198 -200t71 -311q0 -200 -83.5 -399t-250 -330t-402.5 -131q-166 0 -293 69zM1036.5 160q150.5 124 224.5 310.5t74 369.5q0 165 -61 283t-172 179.5t-259 61.5q-217 0 -367.5 -124
t-224.5 -310.5t-74 -369.5q0 -165 61 -283t172 -179.5t259 -61.5q217 0 367.5 124zM783 1558q-5 -4 -11 -4q-7 0 -11 6l-6 8q-4 5 -4 11t5 11l283 263q7 5 11 5q7 0 11 -7l15 -19q4 -5 4 -10t-6 -11zM1033 1558q-5 -4 -11 -4t-11 6l-6 8q-4 5 -4 11t5 11l284 263q7 5 11 5
q7 0 11 -7l15 -19q4 -5 4 -10t-6 -11z" />
    <glyph glyph-name="ohungarumlaut" unicode="&#x151;" horiz-adv-x="1045" 
d="M251.5 33q-90.5 51 -141 148.5t-50.5 232.5q0 147 59.5 294t179.5 243.5t289 96.5q117 0 207.5 -50.5t140.5 -147.5t50 -230q0 -149 -59.5 -296.5t-178.5 -244.5t-288 -97q-118 0 -208.5 51zM715 124.5q105 90.5 157 226.5t52 269q0 118 -42 202.5t-118 129t-176 44.5
q-152 0 -257.5 -90.5t-157 -226t-51.5 -269.5q0 -118 42 -202.5t118.5 -129t177.5 -44.5q150 0 255 90.5zM507 1188q-5 -4 -11 -4q-7 0 -11 6l-6 8q-4 5 -4 11t5 11l283 263q7 5 11 5q7 0 11 -7l15 -19q4 -5 4 -10t-6 -11zM757 1188q-5 -4 -11 -4t-11 6l-6 8q-4 5 -4 11
t5 11l284 263q7 5 11 5q7 0 11 -7l15 -19q4 -5 4 -10t-6 -11z" />
    <glyph glyph-name="OE" unicode="&#x152;" horiz-adv-x="1967" 
d="M687 0q-175 0 -306.5 66t-203.5 192.5t-72 301.5q0 197 84.5 391t255.5 321.5t416 127.5h1196q8 0 11.5 -4.5t2.5 -12.5l-6 -25q-5 -14 -18 -14h-698l-132 -560h660q8 0 11.5 -4.5t2.5 -12.5l-6 -25q-5 -14 -18 -14h-663l-152 -672h710q8 0 11.5 -4.5t2.5 -12.5l-5 -25
q-3 -14 -18 -14h-1066zM237 286.5q62 -113.5 177.5 -172t272.5 -58.5h292l142 602l156 686h-416q-226 0 -381 -121t-230 -302t-75 -361q0 -160 62 -273.5z" />
    <glyph glyph-name="oe" unicode="&#x153;" horiz-adv-x="1833" 
d="M1608 1000.5q85 -45.5 132.5 -132t47.5 -203.5q0 -56 -12 -119q-1 -14 -16 -14h-781q-7 -49 -7 -104q0 -180 78.5 -286t237.5 -106q149 0 246.5 83.5t137.5 234.5q4 14 17 14h29q8 0 11.5 -5t0.5 -12q-105 -367 -442 -367q-159 0 -254.5 93.5t-117.5 252.5
q-42 -101 -110.5 -179.5t-160 -123.5t-197.5 -45q-120 0 -207.5 54t-134 152t-46.5 228q0 163 68 308.5t190.5 234.5t277.5 89q153 0 250 -91t120 -249q62 151 178 244.5t268 93.5q111 0 196 -45.5zM692.5 116q104.5 82 161 215.5t56.5 282.5q0 176 -80.5 279t-235.5 103
q-141 0 -248.5 -82t-165.5 -215.5t-58 -282.5q0 -176 83.5 -279t244.5 -103q138 0 242.5 82zM1720 586q9 47 9 90q0 93 -39 165.5t-112 112.5t-172 40q-109 0 -195 -55t-142 -147.5t-80 -205.5h731z" />
    <glyph glyph-name="Racute" unicode="&#x154;" horiz-adv-x="1129" 
d="M1102 854.5q-56 -92.5 -161.5 -149t-248.5 -68.5l241 -619q1 -2 1 -7t-3.5 -8t-9.5 -3h-38q-12 0 -18 12l-55 144l-187 478h-416l-124 -620q-1 -7 -6 -10.5t-11 -3.5h-39q-8 0 -11.5 4.5t-1.5 12.5l170 719l146 650q1 7 6 10.5t11 3.5h403q135 0 226.5 -42.5t136.5 -118
t45 -175.5q0 -117 -56 -209.5zM1005 1266.5q-83 77.5 -259 77.5h-356l-146 -614l-9 -40h391q148 0 252 47.5t157 130.5t53 190q0 131 -83 208.5zM629 1524q-4 -2 -7 -2q-9 0 -14 11l-6 13q-1 3 -1 7q0 10 9 14l408 198q6 2 7 2q9 0 13 -10l14 -31q2 -4 2 -7q0 -8 -10 -13z
" />
    <glyph glyph-name="racute" unicode="&#x155;" horiz-adv-x="632" 
d="M17 0q-8 0 -11.5 4.5t-1.5 12.5l124 519l106 480q1 7 6 10.5t11 3.5h35q8 0 11.5 -4.5t1.5 -12.5l-53 -207q76 114 174 175t202 61q46 0 73 -8q15 -3 11 -18l-6 -26q-4 -15 -19 -12q-28 8 -67 8q-111 0 -210 -71.5t-180 -216.5l-155 -684q-1 -7 -6 -10.5t-11 -3.5h-35z
M361 1154q-4 -2 -7 -2q-9 0 -14 11l-6 13q-1 3 -1 7q0 10 9 14l408 198q6 2 7 2q9 0 13 -10l14 -31q2 -4 2 -7q0 -8 -10 -13z" />
    <glyph glyph-name="uni0156" unicode="&#x156;" horiz-adv-x="1129" 
d="M1102 854.5q-56 -92.5 -161.5 -149t-248.5 -68.5l241 -619q1 -2 1 -7t-3.5 -8t-9.5 -3h-38q-12 0 -18 12l-55 144l-187 478h-416l-124 -620q-1 -7 -6 -10.5t-11 -3.5h-39q-8 0 -11.5 4.5t-1.5 12.5l170 719l146 650q1 7 6 10.5t11 3.5h403q135 0 226.5 -42.5t136.5 -118
t45 -175.5q0 -117 -56 -209.5zM1005 1266.5q-83 77.5 -259 77.5h-356l-146 -614l-9 -40h391q148 0 252 47.5t157 130.5t53 190q0 131 -83 208.5zM326 -370q-9 0 -9 9q0 5 2 9l67 132l22 102q3 14 18 14h45q8 0 11.5 -4.5t2.5 -12.5l-20 -90q-3 -9 -9 -17l-103 -133
q-8 -9 -19 -9h-8z" />
    <glyph glyph-name="uni0157" unicode="&#x157;" horiz-adv-x="632" 
d="M17 0q-8 0 -11.5 4.5t-1.5 12.5l124 519l106 480q1 7 6 10.5t11 3.5h35q8 0 11.5 -4.5t1.5 -12.5l-53 -207q76 114 174 175t202 61q46 0 73 -8q15 -3 11 -18l-6 -26q-4 -15 -19 -12q-28 8 -67 8q-111 0 -210 -71.5t-180 -216.5l-155 -684q-1 -7 -6 -10.5t-11 -3.5h-35z
M-118 -370q-9 0 -9 9q0 5 2 9l67 132l22 102q3 14 18 14h45q8 0 11.5 -4.5t2.5 -12.5l-20 -90q-3 -9 -9 -17l-103 -133q-8 -9 -19 -9h-8z" />
    <glyph glyph-name="Rcaron" unicode="&#x158;" horiz-adv-x="1129" 
d="M1102 854.5q-56 -92.5 -161.5 -149t-248.5 -68.5l241 -619q1 -2 1 -7t-3.5 -8t-9.5 -3h-38q-12 0 -18 12l-55 144l-187 478h-416l-124 -620q-1 -7 -6 -10.5t-11 -3.5h-39q-8 0 -11.5 4.5t-1.5 12.5l170 719l146 650q1 7 6 10.5t11 3.5h403q135 0 226.5 -42.5t136.5 -118
t45 -175.5q0 -117 -56 -209.5zM1005 1266.5q-83 77.5 -259 77.5h-356l-146 -614l-9 -40h391q148 0 252 47.5t157 130.5t53 190q0 131 -83 208.5zM517 1637q-9 5 -9 12q0 3 2 9l6 12q4 10 13 10q2 0 8 -2l232 -98l278 101q2 1 7 1q10 0 13 -10l6 -13q2 -6 2 -8q0 -8 -10 -13
l-274 -118q-14 -4 -20 -4h-16q-9 0 -19 5z" />
    <glyph glyph-name="rcaron" unicode="&#x159;" horiz-adv-x="632" 
d="M17 0q-8 0 -11.5 4.5t-1.5 12.5l124 519l106 480q1 7 6 10.5t11 3.5h35q8 0 11.5 -4.5t1.5 -12.5l-53 -207q76 114 174 175t202 61q46 0 73 -8q15 -3 11 -18l-6 -26q-4 -15 -19 -12q-28 8 -67 8q-111 0 -210 -71.5t-180 -216.5l-155 -684q-1 -7 -6 -10.5t-11 -3.5h-35z
M249 1267q-9 5 -9 12q0 3 2 9l6 12q4 10 13 10q2 0 8 -2l232 -98l278 101q2 1 7 1q10 0 13 -10l6 -13q2 -6 2 -8q0 -8 -10 -13l-274 -118q-14 -4 -20 -4h-16q-9 0 -19 5z" />
    <glyph glyph-name="Sacute" unicode="&#x15a;" horiz-adv-x="1177" 
d="M304 34q-114 50 -178 146t-64 229q0 36 4 68q2 15 16 15h35q8 0 11.5 -4.5t2.5 -11.5q-4 -28 -4 -62q0 -113 54.5 -197.5t154 -130.5t232.5 -46t230 42.5t148.5 118.5t51.5 175q0 91 -49.5 148t-122 88.5t-196.5 68.5q-133 39 -212.5 74.5t-134.5 102.5t-55 176
q0 113 65 200.5t176.5 135.5t246.5 48q129 0 233.5 -45.5t166.5 -140t60 -234.5q0 -16 -16 -16h-35q-7 0 -11 4.5t-4 11.5q2 126 -51.5 207.5t-145 119t-205.5 37.5q-120 0 -214.5 -38t-149 -111t-54.5 -175q0 -90 49 -146t121 -86.5t195 -67.5q134 -40 214 -75t135.5 -103
t55.5 -178q0 -114 -60 -204.5t-172.5 -142t-263.5 -51.5q-146 0 -260 50zM697 1524q-4 -2 -7 -2q-9 0 -14 11l-6 13q-1 3 -1 7q0 10 9 14l408 198q6 2 7 2q9 0 13 -10l14 -31q2 -4 2 -7q0 -8 -10 -13z" />
    <glyph glyph-name="sacute" unicode="&#x15b;" horiz-adv-x="931" 
d="M215 24q-93 44 -141 128t-42 203q0 15 16 15h29q15 0 15 -16q-4 -97 35.5 -169.5t119.5 -112.5t194 -40q89 0 160.5 31t112.5 85.5t41 123.5q0 66 -39 107.5t-96.5 64.5t-154.5 50q-108 30 -172 57t-109 78.5t-45 134.5q0 84 52 149t139 101t189 36q101 0 183.5 -33.5
t134 -103t57.5 -173.5v-2q0 -7 -4 -10.5t-10 -3.5h-29q-16 0 -17 16q-9 132 -97.5 195t-221.5 63q-85 0 -156 -27t-112.5 -79.5t-41.5 -125.5q0 -64 38 -104.5t93.5 -63t153.5 -49.5q108 -30 173 -56.5t110.5 -79t45.5 -137.5q0 -84 -49.5 -151.5t-137 -106t-195.5 -38.5
q-129 0 -222 44zM476 1154q-4 -2 -7 -2q-9 0 -14 11l-6 13q-1 3 -1 7q0 10 9 14l408 198q6 2 7 2q9 0 13 -10l14 -31q2 -4 2 -7q0 -8 -10 -13z" />
    <glyph glyph-name="Scircumflex" unicode="&#x15c;" horiz-adv-x="1177" 
d="M304 34q-114 50 -178 146t-64 229q0 36 4 68q2 15 16 15h35q8 0 11.5 -4.5t2.5 -11.5q-4 -28 -4 -62q0 -113 54.5 -197.5t154 -130.5t232.5 -46t230 42.5t148.5 118.5t51.5 175q0 91 -49.5 148t-122 88.5t-196.5 68.5q-133 39 -212.5 74.5t-134.5 102.5t-55 176
q0 113 65 200.5t176.5 135.5t246.5 48q129 0 233.5 -45.5t166.5 -140t60 -234.5q0 -16 -16 -16h-35q-7 0 -11 4.5t-4 11.5q2 126 -51.5 207.5t-145 119t-205.5 37.5q-120 0 -214.5 -38t-149 -111t-54.5 -175q0 -90 49 -146t121 -86.5t195 -67.5q134 -40 214 -75t135.5 -103
t55.5 -178q0 -114 -60 -204.5t-172.5 -142t-263.5 -51.5q-146 0 -260 50zM551 1552q-1 2 -1 6q0 11 10 14l274 118q8 4 19 4h16q12 0 19 -5l220 -116q9 -4 9 -12l-2 -9l-6 -12q-5 -10 -13 -10l-8 2l-233 98l-278 -101q-2 -1 -6 -1q-10 0 -14 10z" />
    <glyph glyph-name="scircumflex" unicode="&#x15d;" horiz-adv-x="931" 
d="M215 24q-93 44 -141 128t-42 203q0 15 16 15h29q15 0 15 -16q-4 -97 35.5 -169.5t119.5 -112.5t194 -40q89 0 160.5 31t112.5 85.5t41 123.5q0 66 -39 107.5t-96.5 64.5t-154.5 50q-108 30 -172 57t-109 78.5t-45 134.5q0 84 52 149t139 101t189 36q101 0 183.5 -33.5
t134 -103t57.5 -173.5v-2q0 -7 -4 -10.5t-10 -3.5h-29q-16 0 -17 16q-9 132 -97.5 195t-221.5 63q-85 0 -156 -27t-112.5 -79.5t-41.5 -125.5q0 -64 38 -104.5t93.5 -63t153.5 -49.5q108 -30 173 -56.5t110.5 -79t45.5 -137.5q0 -84 -49.5 -151.5t-137 -106t-195.5 -38.5
q-129 0 -222 44zM331 1182q-1 2 -1 6q0 11 10 14l274 118q8 4 19 4h16q12 0 19 -5l220 -116q9 -4 9 -12l-2 -9l-6 -12q-5 -10 -13 -10l-8 2l-233 98l-278 -101q-2 -1 -6 -1q-10 0 -14 10z" />
    <glyph glyph-name="Scedilla" unicode="&#x15e;" horiz-adv-x="1177" 
d="M949.5 1372.5q104.5 -45.5 166.5 -140t60 -234.5q0 -16 -16 -16h-35q-7 0 -11 4.5t-4 11.5q2 126 -51.5 207.5t-145 119t-205.5 37.5q-120 0 -214.5 -38t-149 -111t-54.5 -175q0 -90 49 -146t121 -86.5t195 -67.5q134 -40 214 -75t135.5 -103t55.5 -178
q0 -114 -60 -204.5t-172.5 -142t-263.5 -51.5q-21 0 -61 2l-166 -305q-4 -6 -9.5 -8.5t-11.5 0.5l-26 9q-10 3 -10 12q0 6 2 9l174 289q-118 17 -207 70.5t-138 141.5t-49 205q0 37 4 68q2 15 16 15h35q8 0 11.5 -4.5t2.5 -11.5q-4 -28 -4 -62q0 -113 54.5 -197.5
t154 -130.5t232.5 -46t230 42.5t148.5 118.5t51.5 175q0 91 -49.5 148t-122 88.5t-196.5 68.5q-133 39 -212.5 74.5t-134.5 102.5t-55 176q0 113 65 200.5t176.5 135.5t246.5 48q129 0 233.5 -45.5z" />
    <glyph glyph-name="scedilla" unicode="&#x15f;" horiz-adv-x="931" 
d="M894 738q0 -7 -4 -10.5t-10 -3.5h-29q-16 0 -17 16q-9 132 -97.5 195t-221.5 63q-85 0 -156 -27t-112.5 -79.5t-41.5 -125.5q0 -64 38 -104.5t93.5 -63t153.5 -49.5q108 -30 173 -56.5t110.5 -79t45.5 -137.5q0 -84 -49.5 -151.5t-137 -106t-195.5 -38.5q-18 0 -52 2
l-164 -301q-4 -6 -9.5 -8.5t-11.5 0.5l-26 9q-10 3 -10 12q0 6 2 9l171 284q-151 24 -231.5 119t-73.5 249q0 15 16 15h29q15 0 15 -16q-4 -97 35.5 -169.5t119.5 -112.5t194 -40q89 0 160.5 31t112.5 85.5t41 123.5q0 66 -39 107.5t-96.5 64.5t-154.5 50q-108 30 -172 57
t-109 78.5t-45 134.5q0 84 52 149t139 101t189 36q101 0 183.5 -33.5t134 -103t57.5 -173.5v-2z" />
    <glyph glyph-name="Scaron" unicode="&#x160;" horiz-adv-x="1177" 
d="M304 34q-114 50 -178 146t-64 229q0 36 4 68q2 15 16 15h35q8 0 11.5 -4.5t2.5 -11.5q-4 -28 -4 -62q0 -113 54.5 -197.5t154 -130.5t232.5 -46t230 42.5t148.5 118.5t51.5 175q0 91 -49.5 148t-122 88.5t-196.5 68.5q-133 39 -212.5 74.5t-134.5 102.5t-55 176
q0 113 65 200.5t176.5 135.5t246.5 48q129 0 233.5 -45.5t166.5 -140t60 -234.5q0 -16 -16 -16h-35q-7 0 -11 4.5t-4 11.5q2 126 -51.5 207.5t-145 119t-205.5 37.5q-120 0 -214.5 -38t-149 -111t-54.5 -175q0 -90 49 -146t121 -86.5t195 -67.5q134 -40 214 -75t135.5 -103
t55.5 -178q0 -114 -60 -204.5t-172.5 -142t-263.5 -51.5q-146 0 -260 50zM585 1637q-9 5 -9 12q0 3 2 9l6 12q4 10 13 10q2 0 8 -2l232 -98l278 101q2 1 7 1q10 0 13 -10l6 -13q2 -6 2 -8q0 -8 -10 -13l-274 -118q-14 -4 -20 -4h-16q-9 0 -19 5z" />
    <glyph glyph-name="scaron" unicode="&#x161;" horiz-adv-x="931" 
d="M215 24q-93 44 -141 128t-42 203q0 15 16 15h29q15 0 15 -16q-4 -97 35.5 -169.5t119.5 -112.5t194 -40q89 0 160.5 31t112.5 85.5t41 123.5q0 66 -39 107.5t-96.5 64.5t-154.5 50q-108 30 -172 57t-109 78.5t-45 134.5q0 84 52 149t139 101t189 36q101 0 183.5 -33.5
t134 -103t57.5 -173.5v-2q0 -7 -4 -10.5t-10 -3.5h-29q-16 0 -17 16q-9 132 -97.5 195t-221.5 63q-85 0 -156 -27t-112.5 -79.5t-41.5 -125.5q0 -64 38 -104.5t93.5 -63t153.5 -49.5q108 -30 173 -56.5t110.5 -79t45.5 -137.5q0 -84 -49.5 -151.5t-137 -106t-195.5 -38.5
q-129 0 -222 44zM365 1267q-9 5 -9 12q0 3 2 9l6 12q4 10 13 10q2 0 8 -2l232 -98l278 101q2 1 7 1q10 0 13 -10l6 -13q2 -6 2 -8q0 -8 -10 -13l-274 -118q-14 -4 -20 -4h-16q-9 0 -19 5z" />
    <glyph glyph-name="uni0162" unicode="&#x162;" horiz-adv-x="948" 
d="M1103 1400q8 0 11.5 -4.5t2.5 -12.5l-6 -25q-5 -14 -18 -14h-394l-156 -658l-150 -672q-3 -11 -13 -14l-174 -319q-3 -6 -8.5 -8.5t-12.5 0.5l-26 9q-10 3 -10 11q0 5 3 10l178 298q-10 3 -7 16l158 669l148 658h-390q-8 0 -11.5 4.5t-2.5 12.5l7 25q3 14 17 14h854z" />
    <glyph glyph-name="uni0163" unicode="&#x163;" horiz-adv-x="563" 
d="M618 1030q8 0 11.5 -4.5t2.5 -12.5l-5 -23q-3 -14 -18 -14h-248l-166 -714q-14 -61 -14 -100q0 -60 29 -89t91 -29q49 0 89 8h4q14 0 11 -15l-5 -24q-3 -14 -11 -15q-54 -10 -106 -10q-10 0 -28 2l-168 -309q-3 -6 -8.5 -8.5t-12.5 0.5l-26 9q-10 3 -10 11q0 5 3 10
l178 297q-42 15 -67 54t-25 103q0 49 14 105l166 714h-115q-8 0 -11.5 4.5t-1.5 12.5l5 23q1 14 17 14h118l55 244q1 7 5.5 10.5t11.5 3.5h35q16 0 13 -17l-57 -241h244z" />
    <glyph glyph-name="Tcaron" unicode="&#x164;" horiz-adv-x="948" 
d="M336 0q-16 0 -13 17l158 669l148 658h-390q-8 0 -11.5 4.5t-2.5 12.5l7 25q3 14 17 14h854q8 0 11.5 -4.5t2.5 -12.5l-6 -25q-5 -14 -18 -14h-394l-156 -658l-150 -672q-3 -14 -18 -14h-39zM461 1637q-9 5 -9 12q0 3 2 9l6 12q4 10 13 10q2 0 8 -2l232 -98l278 101
q2 1 7 1q10 0 13 -10l6 -13q2 -6 2 -8q0 -8 -10 -13l-274 -118q-14 -4 -20 -4h-16q-9 0 -19 5z" />
    <glyph glyph-name="tcaron" unicode="&#x165;" horiz-adv-x="563" 
d="M618 1030q8 0 11.5 -4.5t2.5 -12.5l-5 -23q-3 -14 -18 -14h-248l-166 -714q-14 -61 -14 -100q0 -60 29 -89t91 -29q49 0 89 8h4q14 0 11 -15l-5 -24q-3 -14 -11 -15q-54 -10 -106 -10q-72 0 -118 40t-46 129q0 49 14 105l166 714h-115q-8 0 -11.5 4.5t-1.5 12.5l5 23
q1 14 17 14h118l55 244q1 7 5.5 10.5t11.5 3.5h35q16 0 13 -17l-57 -241h244zM534 1130q-6 -11 -18 -11h-21q-14 0 -14 10q0 4 3 8l164 321q6 11 19 11h36q14 0 14 -10q0 -4 -3 -9z" />
    <glyph glyph-name="Tbar" unicode="&#x166;" horiz-adv-x="948" 
d="M1103 1400q8 0 11.5 -4.5t2.5 -12.5l-6 -25q-5 -14 -18 -14h-394l-156 -660h246q16 0 13 -17l-6 -29q-3 -14 -18 -14h-249l-136 -610q-3 -14 -18 -14h-39q-16 0 -13 17l143 607h-239q-16 0 -13 17l7 29q1 7 5.5 10.5t11.5 3.5h243l148 660h-390q-8 0 -11.5 4.5t-2.5 12.5
l7 25q3 14 17 14h854z" />
    <glyph glyph-name="tbar" unicode="&#x167;" horiz-adv-x="564" 
d="M618 1030q8 0 11.5 -4.5t2.5 -12.5l-5 -23q-3 -14 -18 -14h-248l-90 -386h245q8 0 12 -4.5t2 -12.5l-5 -23q-1 -7 -6 -10.5t-11 -3.5h-249l-64 -274q-14 -61 -14 -100q0 -60 29 -89t91 -29q49 0 89 8h4q14 0 11 -15l-5 -24q-3 -14 -11 -15q-54 -10 -106 -10
q-72 0 -118 40t-46 129q0 49 14 105l64 274h-113q-8 0 -11.5 4.5t-1.5 12.5l5 23q1 14 17 14h116l90 386h-115q-8 0 -11.5 4.5t-1.5 12.5l5 23q1 14 17 14h118l55 244q1 7 5.5 10.5t11.5 3.5h35q16 0 13 -17l-57 -241h244z" />
    <glyph glyph-name="Utilde" unicode="&#x168;" horiz-adv-x="1201" 
d="M296 32q-92 52 -137.5 142.5t-45.5 205.5q0 70 19 152l122 514l76 340q1 7 6 10.5t11 3.5h39q18 0 13 -17l-79 -337l-120 -518q-17 -76 -17 -144q0 -101 37 -179t114 -123.5t192 -45.5q177 0 298 120t176 352l128 538l76 340q1 7 6 10.5t11 3.5h39q18 0 13 -17l-79 -337
l-126 -536q-61 -261 -201 -395.5t-347 -134.5q-132 0 -224 52zM895 1560q-28 24 -58 68q-24 35 -43 52.5t-45 17.5q-37 0 -57 -32.5t-35 -99.5q-4 -14 -18 -14h-20q-8 0 -11.5 5t-2.5 12q22 86 55.5 132.5t92.5 46.5q45 0 73 -24t61 -70q24 -34 42 -51t42 -17q41 0 61 32
t37 100q3 14 17 14h20q8 0 11.5 -5.5t1.5 -15.5q-22 -85 -56 -130t-96 -45q-44 0 -72 24z" />
    <glyph glyph-name="utilde" unicode="&#x169;" horiz-adv-x="979" 
d="M961 1030q16 0 13 -17l-102 -425l-128 -574q-3 -14 -18 -14h-34q-8 0 -11.5 4.5t-2.5 12.5l54 213q-36 -69 -94.5 -127t-132.5 -92.5t-155 -34.5q-82 0 -145.5 34t-99.5 100t-36 159q0 64 15 127l44 192l97 428q1 7 5.5 10.5t11.5 3.5h35q16 0 13 -17l-100 -425l-42 -182
q-17 -71 -17 -135q0 -119 62 -179t167 -60q224 0 392 300l60 256l97 428q1 7 5.5 10.5t11.5 3.5h35zM694 1190q-28 24 -58 68q-24 35 -43 52.5t-45 17.5q-37 0 -57 -32.5t-35 -99.5q-4 -14 -18 -14h-20q-8 0 -11.5 5t-2.5 12q22 86 55.5 132.5t92.5 46.5q45 0 73 -24t61 -70
q24 -34 42 -51t42 -17q41 0 61 32t37 100q3 14 17 14h20q8 0 11.5 -5.5t1.5 -15.5q-22 -85 -56 -130t-96 -45q-44 0 -72 24z" />
    <glyph glyph-name="Umacron" unicode="&#x16a;" horiz-adv-x="1201" 
d="M296 32q-92 52 -137.5 142.5t-45.5 205.5q0 70 19 152l122 514l76 340q1 7 6 10.5t11 3.5h39q18 0 13 -17l-79 -337l-120 -518q-17 -76 -17 -144q0 -101 37 -179t114 -123.5t192 -45.5q177 0 298 120t176 352l128 538l76 340q1 7 6 10.5t11 3.5h39q18 0 13 -17l-79 -337
l-126 -536q-61 -261 -201 -395.5t-347 -134.5q-132 0 -224 52zM611 1590q-8 0 -12 4.5t-2 12.5l6 27q3 14 17 14h488q8 0 11.5 -4.5t1.5 -12.5l-6 -27q-1 -7 -6 -10.5t-11 -3.5h-487z" />
    <glyph glyph-name="umacron" unicode="&#x16b;" horiz-adv-x="979" 
d="M961 1030q16 0 13 -17l-102 -425l-128 -574q-3 -14 -18 -14h-34q-8 0 -11.5 4.5t-2.5 12.5l54 213q-36 -69 -94.5 -127t-132.5 -92.5t-155 -34.5q-82 0 -145.5 34t-99.5 100t-36 159q0 64 15 127l44 192l97 428q1 7 5.5 10.5t11.5 3.5h35q16 0 13 -17l-100 -425l-42 -182
q-17 -71 -17 -135q0 -119 62 -179t167 -60q224 0 392 300l60 256l97 428q1 7 5.5 10.5t11.5 3.5h35zM409 1220q-8 0 -12 4.5t-2 12.5l6 27q3 14 17 14h488q8 0 11.5 -4.5t1.5 -12.5l-6 -27q-1 -7 -6 -10.5t-11 -3.5h-487z" />
    <glyph glyph-name="Ubreve" unicode="&#x16c;" horiz-adv-x="1201" 
d="M296 32q-92 52 -137.5 142.5t-45.5 205.5q0 70 19 152l122 514l76 340q1 7 6 10.5t11 3.5h39q18 0 13 -17l-79 -337l-120 -518q-17 -76 -17 -144q0 -101 37 -179t114 -123.5t192 -45.5q177 0 298 120t176 352l128 538l76 340q1 7 6 10.5t11 3.5h39q18 0 13 -17l-79 -337
l-126 -536q-61 -261 -201 -395.5t-347 -134.5q-132 0 -224 52zM714.5 1568.5q-50.5 48.5 -50.5 125.5q0 16 1 24q2 14 17 14h22q16 0 14 -16q-1 -7 -1 -20q0 -56 36.5 -90t101.5 -34q70 0 120 40t67 106q3 14 17 14h25q8 0 11.5 -4.5t2.5 -12.5q-21 -87 -87.5 -141
t-157.5 -54q-88 0 -138.5 48.5z" />
    <glyph glyph-name="ubreve" unicode="&#x16d;" horiz-adv-x="979" 
d="M961 1030q16 0 13 -17l-102 -425l-128 -574q-3 -14 -18 -14h-34q-8 0 -11.5 4.5t-2.5 12.5l54 213q-36 -69 -94.5 -127t-132.5 -92.5t-155 -34.5q-82 0 -145.5 34t-99.5 100t-36 159q0 64 15 127l44 192l97 428q1 7 5.5 10.5t11.5 3.5h35q16 0 13 -17l-100 -425l-42 -182
q-17 -71 -17 -135q0 -119 62 -179t167 -60q224 0 392 300l60 256l97 428q1 7 5.5 10.5t11.5 3.5h35zM513.5 1198.5q-50.5 48.5 -50.5 125.5q0 16 1 24q2 14 17 14h22q16 0 14 -16q-1 -7 -1 -20q0 -56 36.5 -90t101.5 -34q70 0 120 40t67 106q3 14 17 14h25q8 0 11.5 -4.5
t2.5 -12.5q-21 -87 -87.5 -141t-157.5 -54q-88 0 -138.5 48.5z" />
    <glyph glyph-name="Uring" unicode="&#x16e;" horiz-adv-x="1201" 
d="M296 32q-92 52 -137.5 142.5t-45.5 205.5q0 70 19 152l122 514l76 340q1 7 6 10.5t11 3.5h39q18 0 13 -17l-79 -337l-120 -518q-17 -76 -17 -144q0 -101 37 -179t114 -123.5t192 -45.5q177 0 298 120t176 352l128 538l76 340q1 7 6 10.5t11 3.5h39q18 0 13 -17l-79 -337
l-126 -536q-61 -261 -201 -395.5t-347 -134.5q-132 0 -224 52zM741 1563q-46 43 -46 111q0 52 24.5 95.5t67.5 69t98 25.5q70 0 116 -43t46 -111q0 -52 -24.5 -95.5t-67.5 -69t-98 -25.5q-70 0 -116 43zM959 1603q40 41 40 103q0 54 -32.5 85t-83.5 31q-60 0 -100 -41
t-40 -103q0 -54 32.5 -85t83.5 -31q60 0 100 41z" />
    <glyph glyph-name="uring" unicode="&#x16f;" horiz-adv-x="979" 
d="M961 1030q16 0 13 -17l-102 -425l-128 -574q-3 -14 -18 -14h-34q-8 0 -11.5 4.5t-2.5 12.5l54 213q-36 -69 -94.5 -127t-132.5 -92.5t-155 -34.5q-82 0 -145.5 34t-99.5 100t-36 159q0 64 15 127l44 192l97 428q1 7 5.5 10.5t11.5 3.5h35q16 0 13 -17l-100 -425l-42 -182
q-17 -71 -17 -135q0 -119 62 -179t167 -60q224 0 392 300l60 256l97 428q1 7 5.5 10.5t11.5 3.5h35zM540 1193q-46 43 -46 111q0 52 24.5 95.5t67.5 69t98 25.5q70 0 116 -43t46 -111q0 -52 -24.5 -95.5t-67.5 -69t-98 -25.5q-70 0 -116 43zM758 1233q40 41 40 103
q0 54 -32.5 85t-83.5 31q-60 0 -100 -41t-40 -103q0 -54 32.5 -85t83.5 -31q60 0 100 41z" />
    <glyph glyph-name="Uhungarumlaut" unicode="&#x170;" horiz-adv-x="1201" 
d="M296 32q-92 52 -137.5 142.5t-45.5 205.5q0 70 19 152l122 514l76 340q1 7 6 10.5t11 3.5h39q18 0 13 -17l-79 -337l-120 -518q-17 -76 -17 -144q0 -101 37 -179t114 -123.5t192 -45.5q177 0 298 120t176 352l128 538l76 340q1 7 6 10.5t11 3.5h39q18 0 13 -17l-79 -337
l-126 -536q-61 -261 -201 -395.5t-347 -134.5q-132 0 -224 52zM689 1558q-5 -4 -11 -4q-7 0 -11 6l-6 8q-4 5 -4 11t5 11l283 263q7 5 11 5q7 0 11 -7l15 -19q4 -5 4 -10t-6 -11zM939 1558q-5 -4 -11 -4t-11 6l-6 8q-4 5 -4 11t5 11l284 263q7 5 11 5q7 0 11 -7l15 -19
q4 -5 4 -10t-6 -11z" />
    <glyph glyph-name="uhungarumlaut" unicode="&#x171;" horiz-adv-x="979" 
d="M961 1030q16 0 13 -17l-102 -425l-128 -574q-3 -14 -18 -14h-34q-8 0 -11.5 4.5t-2.5 12.5l54 213q-36 -69 -94.5 -127t-132.5 -92.5t-155 -34.5q-82 0 -145.5 34t-99.5 100t-36 159q0 64 15 127l44 192l97 428q1 7 5.5 10.5t11.5 3.5h35q16 0 13 -17l-100 -425l-42 -182
q-17 -71 -17 -135q0 -119 62 -179t167 -60q224 0 392 300l60 256l97 428q1 7 5.5 10.5t11.5 3.5h35zM488 1188q-5 -4 -11 -4q-7 0 -11 6l-6 8q-4 5 -4 11t5 11l283 263q7 5 11 5q7 0 11 -7l15 -19q4 -5 4 -10t-6 -11zM738 1188q-5 -4 -11 -4t-11 6l-6 8q-4 5 -4 11t5 11
l284 263q7 5 11 5q7 0 11 -7l15 -19q4 -5 4 -10t-6 -11z" />
    <glyph glyph-name="Uogonek" unicode="&#x172;" horiz-adv-x="1201" 
d="M1260 1400q18 0 13 -17l-79 -337l-126 -536q-61 -261 -201 -395.5t-347 -134.5q-22 0 -33 1q-56 -28 -91.5 -72t-35.5 -95q0 -47 33 -72.5t97 -25.5h54q8 0 12 -4.5t2 -12.5l-5 -25q-1 -7 -6 -10.5t-11 -3.5h-58q-85 0 -133.5 40.5t-48.5 105.5q0 54 35 101t93 81
q-101 18 -171 73t-105 137t-35 182q0 76 19 152l122 514l76 340q1 7 6 10.5t11 3.5h39q18 0 13 -17l-79 -337l-120 -518q-17 -76 -17 -144q0 -101 37 -179t114 -123.5t192 -45.5q177 0 298 120t176 352l128 538l76 340q1 7 6 10.5t11 3.5h39z" />
    <glyph glyph-name="uogonek" unicode="&#x173;" horiz-adv-x="979" 
d="M961 1030q16 0 13 -17l-102 -425l-128 -574q-3 -14 -17 -14q-71 -22 -122.5 -73t-51.5 -113q0 -47 33 -72.5t97 -25.5h54q8 0 12 -4.5t2 -12.5l-5 -25q-1 -7 -6 -10.5t-11 -3.5h-58q-85 0 -133.5 40.5t-48.5 105.5q0 68 54 124t135 88l54 212q-36 -69 -94.5 -127
t-132.5 -92.5t-155 -34.5q-82 0 -145.5 34t-99.5 100t-36 159q0 64 15 127l44 192l97 428q1 7 5.5 10.5t11.5 3.5h35q16 0 13 -17l-100 -425l-42 -182q-17 -71 -17 -135q0 -119 62 -179t167 -60q224 0 392 300l60 256l97 428q1 7 5.5 10.5t11.5 3.5h35z" />
    <glyph glyph-name="Wcircumflex" unicode="&#x174;" horiz-adv-x="1674" 
d="M321 0q-16 0 -17 16l-64 1369v2q0 6 4 9.5t11 3.5h31q7 0 11.5 -4t4.5 -11l57 -1295l641 1299q4 11 18 11h44q7 0 11.5 -4t4.5 -11l37 -1287l654 1291q6 11 19 11h34q9 0 12.5 -5t-0.5 -13l-699 -1371q-5 -11 -19 -11h-39q-8 0 -12.5 4.5t-4.5 11.5l-41 1290l-641 -1295
q-5 -11 -18 -11h-39zM789 1552q-1 2 -1 6q0 11 10 14l274 118q8 4 19 4h16q12 0 19 -5l220 -116q9 -4 9 -12l-2 -9l-6 -12q-5 -10 -13 -10l-8 2l-233 98l-278 -101q-2 -1 -6 -1q-10 0 -14 10z" />
    <glyph glyph-name="wcircumflex" unicode="&#x175;" horiz-adv-x="1364" 
d="M252 0q-14 0 -16 15l-81 999v2q0 14 14 14h31q15 0 16 -15l69 -939l470 943q6 11 19 11h46q15 0 16 -15l57 -939l484 943q6 11 19 11h30q9 0 12.5 -5t-0.5 -13l-519 -1001q-5 -11 -19 -11h-44q-14 0 -16 15l-55 957l-473 -961q-5 -11 -18 -11h-42zM547 1182q-1 2 -1 6
q0 11 10 14l274 118q8 4 19 4h16q12 0 19 -5l220 -116q9 -4 9 -12l-2 -9l-6 -12q-5 -10 -13 -10l-8 2l-233 98l-278 -101q-2 -1 -6 -1q-10 0 -14 10z" />
    <glyph glyph-name="Ycircumflex" unicode="&#x176;" horiz-adv-x="1036" 
d="M234 1383v5q0 12 13 12h36q14 0 18 -13l224 -811l605 815q6 9 19 9h43q13 0 13 -9q0 -5 -4 -10l-656 -877l-112 -490q-3 -14 -18 -14h-39q-16 0 -13 17l116 495zM465 1552q-1 2 -1 6q0 11 10 14l274 118q8 4 19 4h16q12 0 19 -5l220 -116q9 -4 9 -12l-2 -9l-6 -12
q-5 -10 -13 -10l-8 2l-233 98l-278 -101q-2 -1 -6 -1q-10 0 -14 10z" />
    <glyph glyph-name="ycircumflex" unicode="&#x177;" horiz-adv-x="877" 
d="M130 -340q-7 0 -10.5 3t-3.5 8q0 3 3 8l191 323l-167 1012v4q0 12 14 12h35q14 0 17 -14l149 -932l542 936q6 10 18 10h35q13 0 13 -10q0 -4 -3 -9l-781 -1341q-6 -10 -18 -10h-34zM304 1182q-1 2 -1 6q0 11 10 14l274 118q8 4 19 4h16q12 0 19 -5l220 -116q9 -4 9 -12
l-2 -9l-6 -12q-5 -10 -13 -10l-8 2l-233 98l-278 -101q-2 -1 -6 -1q-10 0 -14 10z" />
    <glyph glyph-name="Ydieresis" unicode="&#x178;" horiz-adv-x="1036" 
d="M234 1383v5q0 12 13 12h36q14 0 18 -13l224 -811l605 815q6 9 19 9h43q13 0 13 -9q0 -5 -4 -10l-656 -877l-112 -490q-3 -14 -18 -14h-39q-16 0 -13 17l116 495zM623 1559q-8 0 -12 4.5t-2 12.5l20 83q1 7 6 10.5t11 3.5h51q8 0 11.5 -4.5t1.5 -12.5l-20 -83
q-1 -7 -6 -10.5t-11 -3.5h-50zM843 1559q-8 0 -12 4.5t-2 12.5l20 83q1 7 6 10.5t11 3.5h51q8 0 11.5 -4.5t1.5 -12.5l-20 -83q-1 -7 -6 -10.5t-11 -3.5h-50z" />
    <glyph glyph-name="Zacute" unicode="&#x179;" horiz-adv-x="1096" 
d="M-32 0q-16 0 -13 17l7 33q2 9 10 18l1143 1276h-784q-8 0 -11.5 4.5t-2.5 12.5l7 25q3 14 17 14h851q16 0 13 -17l-7 -33q-1 -5 -10 -18l-1143 -1276h855q8 0 11.5 -4.5t2.5 -12.5l-5 -25q-3 -14 -18 -14h-923zM650 1524q-4 -2 -7 -2q-9 0 -14 11l-6 13q-1 3 -1 7
q0 10 9 14l408 198q6 2 7 2q9 0 13 -10l14 -31q2 -4 2 -7q0 -8 -10 -13z" />
    <glyph glyph-name="zacute" unicode="&#x17a;" horiz-adv-x="862" 
d="M-47 0q-8 0 -11.5 4.5t-2.5 12.5l7 31q3 9 10 18l855 908h-590q-8 0 -11.5 4.5t-2.5 12.5l7 25q3 14 17 14h657q8 0 11.5 -4.5t2.5 -12.5l-6 -27q-3 -9 -10 -18l-859 -912h655q8 0 11.5 -4.5t2.5 -12.5l-5 -25q-3 -14 -18 -14h-720zM444 1154q-4 -2 -7 -2q-9 0 -14 11
l-6 13q-1 3 -1 7q0 10 9 14l408 198q6 2 7 2q9 0 13 -10l14 -31q2 -4 2 -7q0 -8 -10 -13z" />
    <glyph glyph-name="Zdotaccent" unicode="&#x17b;" horiz-adv-x="1096" 
d="M-32 0q-16 0 -13 17l7 33q2 9 10 18l1143 1276h-784q-8 0 -11.5 4.5t-2.5 12.5l7 25q3 14 17 14h851q16 0 13 -17l-7 -33q-1 -5 -10 -18l-1143 -1276h855q8 0 11.5 -4.5t2.5 -12.5l-5 -25q-3 -14 -18 -14h-923zM779 1559q-8 0 -12 4.5t-2 12.5l20 83q1 7 5.5 10.5
t11.5 3.5h31q8 0 11.5 -4.5t2.5 -12.5l-20 -83q-1 -7 -6 -10.5t-11 -3.5h-31z" />
    <glyph glyph-name="zdotaccent" unicode="&#x17c;" horiz-adv-x="862" 
d="M-47 0q-8 0 -11.5 4.5t-2.5 12.5l7 31q3 9 10 18l855 908h-590q-8 0 -11.5 4.5t-2.5 12.5l7 25q3 14 17 14h657q8 0 11.5 -4.5t2.5 -12.5l-6 -27q-3 -9 -10 -18l-859 -912h655q8 0 11.5 -4.5t2.5 -12.5l-5 -25q-3 -14 -18 -14h-720zM573 1189q-8 0 -12 4.5t-2 12.5l20 83
q1 7 5.5 10.5t11.5 3.5h31q8 0 11.5 -4.5t2.5 -12.5l-20 -83q-1 -7 -6 -10.5t-11 -3.5h-31z" />
    <glyph glyph-name="Zcaron" unicode="&#x17d;" horiz-adv-x="1096" 
d="M-32 0q-16 0 -13 17l7 33q2 9 10 18l1143 1276h-784q-8 0 -11.5 4.5t-2.5 12.5l7 25q3 14 17 14h851q16 0 13 -17l-7 -33q-1 -5 -10 -18l-1143 -1276h855q8 0 11.5 -4.5t2.5 -12.5l-5 -25q-3 -14 -18 -14h-923zM539 1637q-9 5 -9 12q0 3 2 9l6 12q4 10 13 10q2 0 8 -2
l232 -98l278 101q2 1 7 1q10 0 13 -10l6 -13q2 -6 2 -8q0 -8 -10 -13l-274 -118q-14 -4 -20 -4h-16q-9 0 -19 5z" />
    <glyph glyph-name="zcaron" unicode="&#x17e;" horiz-adv-x="862" 
d="M-47 0q-8 0 -11.5 4.5t-2.5 12.5l7 31q3 9 10 18l855 908h-590q-8 0 -11.5 4.5t-2.5 12.5l7 25q3 14 17 14h657q8 0 11.5 -4.5t2.5 -12.5l-6 -27q-3 -9 -10 -18l-859 -912h655q8 0 11.5 -4.5t2.5 -12.5l-5 -25q-3 -14 -18 -14h-720zM333 1267q-9 5 -9 12q0 3 2 9l6 12
q4 10 13 10q2 0 8 -2l232 -98l278 101q2 1 7 1q10 0 13 -10l6 -13q2 -6 2 -8q0 -8 -10 -13l-274 -118q-14 -4 -20 -4h-16q-9 0 -19 5z" />
    <glyph glyph-name="florin" unicode="&#x192;" horiz-adv-x="569" 
d="M726 1402l-4 -18q-3 -16 -19 -11q-36 9 -71 9q-152 0 -206 -234l-27 -118h229q16 0 13 -17l-5 -21q-3 -14 -17 -14h-233l-88 -380l-156 -672q-34 -152 -106 -219t-166 -67q-49 0 -79 12q-13 4 -11 20l4 18q3 16 19 11q36 -9 71 -9q74 0 127 57t79 177l156 672l88 380
h-144q-16 0 -13 17l5 21q3 14 17 14h148l27 118q35 152 106.5 219t165.5 67q49 0 79 -12q13 -4 11 -20z" />
    <glyph glyph-name="Ohorn" unicode="&#x1a0;" horiz-adv-x="1426" 
d="M1450 1572q6 -4 6 -11t-4 -11l-234 -255q90 -76 138.5 -191.5t48.5 -263.5q0 -200 -83.5 -399t-250 -330t-402.5 -131q-166 0 -293 69t-198 201t-71 314q0 199 83 397t250 328.5t403 130.5q194 0 330 -91l235 260q5 5 11 5t10 -4zM1274 1123q-61 118 -172 179.5
t-259 61.5q-217 0 -367.5 -124t-224.5 -310.5t-74 -369.5q0 -165 61 -283t172 -179.5t259 -61.5q217 0 367.5 124t224.5 310.5t74 369.5q0 165 -61 283z" />
    <glyph glyph-name="ohorn" unicode="&#x1a1;" horiz-adv-x="1045" 
d="M1072 1202q7 -5 7 -12q0 -5 -5 -10l-212 -232q60 -56 92 -139t32 -189q0 -149 -59.5 -296.5t-178.5 -244.5t-288 -97q-118 0 -208.5 51t-141 148.5t-50.5 232.5q0 147 59.5 294t179.5 243.5t289 96.5q134 0 231 -65l211 236q5 5 11 5t10 -4zM882 822.5q-42 84.5 -118 129
t-176 44.5q-152 0 -257.5 -90.5t-157 -226t-51.5 -269.5q0 -118 42 -202.5t118.5 -129t177.5 -44.5q150 0 255 90.5t157 226.5t52 269q0 118 -42 202.5z" />
    <glyph glyph-name="Uhorn" unicode="&#x1af;" horiz-adv-x="1201" 
d="M1410 1572q7 -5 7 -12q0 -5 -5 -10l-139 -156q2 -5 0 -11l-79 -337l-126 -536q-61 -261 -201 -395.5t-347 -134.5q-132 0 -224 52t-137.5 142.5t-45.5 205.5q0 70 19 152l122 514l76 340q1 7 6 10.5t11 3.5h39q18 0 13 -17l-79 -337l-120 -518q-17 -76 -17 -144
q0 -101 37 -179t114 -123.5t192 -45.5q177 0 298 120t176 352l128 538l76 340q2 6 4 8q1 6 7 14l153 180q5 6 11 6t11 -4z" />
    <glyph glyph-name="uhorn" unicode="&#x1b0;" horiz-adv-x="979" 
d="M1114 1202q7 -5 7 -12q0 -5 -5 -10l-142 -160q1 -3 0 -7l-102 -425l-128 -574q-3 -14 -18 -14h-34q-8 0 -11.5 4.5t-2.5 12.5l54 213q-36 -69 -94.5 -127t-132.5 -92.5t-155 -34.5q-82 0 -145.5 34t-99.5 100t-36 159q0 64 15 127l44 192l97 428q1 7 5.5 10.5t11.5 3.5
h35q16 0 13 -17l-100 -425l-42 -182q-17 -71 -17 -135q0 -119 62 -179t167 -60q224 0 392 300l60 256l97 428q0 4 3 7q1 7 7 15l153 180q5 6 11 6t11 -4z" />
    <glyph glyph-name="uni0218" unicode="&#x218;" horiz-adv-x="1177" 
d="M304 34q-114 50 -178 146t-64 229q0 36 4 68q2 15 16 15h35q8 0 11.5 -4.5t2.5 -11.5q-4 -28 -4 -62q0 -113 54.5 -197.5t154 -130.5t232.5 -46t230 42.5t148.5 118.5t51.5 175q0 91 -49.5 148t-122 88.5t-196.5 68.5q-133 39 -212.5 74.5t-134.5 102.5t-55 176
q0 113 65 200.5t176.5 135.5t246.5 48q129 0 233.5 -45.5t166.5 -140t60 -234.5q0 -16 -16 -16h-35q-7 0 -11 4.5t-4 11.5q2 126 -51.5 207.5t-145 119t-205.5 37.5q-120 0 -214.5 -38t-149 -111t-54.5 -175q0 -90 49 -146t121 -86.5t195 -67.5q134 -40 214 -75t135.5 -103
t55.5 -178q0 -114 -60 -204.5t-172.5 -142t-263.5 -51.5q-146 0 -260 50zM340 -370q-9 0 -9 9q0 5 2 9l67 132l22 102q3 14 18 14h45q8 0 11.5 -4.5t2.5 -12.5l-20 -90q-3 -9 -9 -17l-103 -133q-8 -9 -19 -9h-8z" />
    <glyph glyph-name="uni0219" unicode="&#x219;" horiz-adv-x="931" 
d="M215 24q-93 44 -141 128t-42 203q0 15 16 15h29q15 0 15 -16q-4 -97 35.5 -169.5t119.5 -112.5t194 -40q89 0 160.5 31t112.5 85.5t41 123.5q0 66 -39 107.5t-96.5 64.5t-154.5 50q-108 30 -172 57t-109 78.5t-45 134.5q0 84 52 149t139 101t189 36q101 0 183.5 -33.5
t134 -103t57.5 -173.5v-2q0 -7 -4 -10.5t-10 -3.5h-29q-16 0 -17 16q-9 132 -97.5 195t-221.5 63q-85 0 -156 -27t-112.5 -79.5t-41.5 -125.5q0 -64 38 -104.5t93.5 -63t153.5 -49.5q108 -30 173 -56.5t110.5 -79t45.5 -137.5q0 -84 -49.5 -151.5t-137 -106t-195.5 -38.5
q-129 0 -222 44zM224 -370q-9 0 -9 9q0 5 2 9l67 132l22 102q3 14 18 14h45q8 0 11.5 -4.5t2.5 -12.5l-20 -90q-3 -9 -9 -17l-103 -133q-8 -9 -19 -9h-8z" />
    <glyph glyph-name="uni021A" unicode="&#x21a;" horiz-adv-x="948" 
d="M336 0q-16 0 -13 17l158 669l148 658h-390q-8 0 -11.5 4.5t-2.5 12.5l7 25q3 14 17 14h854q8 0 11.5 -4.5t2.5 -12.5l-6 -25q-5 -14 -18 -14h-394l-156 -658l-150 -672q-3 -14 -18 -14h-39zM206 -370q-9 0 -9 9q0 5 2 9l67 132l22 102q3 14 18 14h45q8 0 11.5 -4.5
t2.5 -12.5l-20 -90q-3 -9 -9 -17l-103 -133q-8 -9 -19 -9h-8z" />
    <glyph glyph-name="uni021B" unicode="&#x21b;" horiz-adv-x="563" 
d="M618 1030q8 0 11.5 -4.5t2.5 -12.5l-5 -23q-3 -14 -18 -14h-248l-166 -714q-14 -61 -14 -100q0 -60 29 -89t91 -29q49 0 89 8h4q14 0 11 -15l-5 -24q-3 -14 -11 -15q-54 -10 -106 -10q-72 0 -118 40t-46 129q0 49 14 105l166 714h-115q-8 0 -11.5 4.5t-1.5 12.5l5 23
q1 14 17 14h118l55 244q1 7 5.5 10.5t11.5 3.5h35q16 0 13 -17l-57 -241h244zM100 -370q-9 0 -9 9q0 5 2 9l67 132l22 102q3 14 18 14h45q8 0 11.5 -4.5t2.5 -12.5l-20 -90q-3 -9 -9 -17l-103 -133q-8 -9 -19 -9h-8z" />
    <glyph glyph-name="uni0237" unicode="&#x237;" horiz-adv-x="325" 
d="M-51 -340q-18 0 -13 17l146 629l162 710q3 14 17 14h35q18 0 13 -17l-165 -707l-143 -632q-1 -7 -6 -10.5t-11 -3.5h-35z" />
    <glyph glyph-name="uni0259" unicode="&#x259;" horiz-adv-x="1015" 
d="M237.5 27.5q-85.5 45.5 -133 132t-47.5 204.5q0 57 12 120q3 14 16 14h799q10 60 10 122q0 182 -91 279t-251 97q-139 0 -238 -75.5t-150 -246.5q-4 -14 -18 -14h-30q-13 0 -13 14q0 2 2 10q115 364 447 364q123 0 214 -50t140.5 -146.5t49.5 -233.5q0 -149 -57.5 -296
t-175.5 -243.5t-287 -96.5q-113 0 -198.5 45.5zM126 444q-9 -48 -9 -91q0 -94 38.5 -166.5t110.5 -112.5t170 -40q119 0 208.5 57t146 150t82.5 203h-747z" />
    <glyph glyph-name="quoteleft" unicode="&#x2bb;" horiz-adv-x="228" 
d="M371 1400q9 0 9 -9q0 -5 -2 -9l-67 -132l-22 -102q-3 -14 -18 -14h-45q-8 0 -11.5 4.5t-1.5 12.5l20 90q1 9 8 17l103 133q8 9 19 9h8z" />
    <glyph glyph-name="quoteleft" unicode="&#x2018;" horiz-adv-x="228" 
d="M371 1400q9 0 9 -9q0 -5 -2 -9l-67 -132l-22 -102q-3 -14 -18 -14h-45q-8 0 -11.5 4.5t-1.5 12.5l20 90q1 9 8 17l103 133q8 9 19 9h8z" />
    <glyph glyph-name="quoteright" unicode="&#x2bc;" horiz-adv-x="228" 
d="M202 1134q-9 0 -9 9q0 5 2 9l67 132l22 102q1 7 6 10.5t11 3.5h45q8 0 12 -4.5t2 -12.5l-20 -89q-2 -10 -8 -18l-103 -132q-8 -10 -19 -10h-8z" />
    <glyph glyph-name="quoteright" unicode="&#x2019;" horiz-adv-x="228" 
d="M202 1134q-9 0 -9 9q0 5 2 9l67 132l22 102q1 7 6 10.5t11 3.5h45q8 0 12 -4.5t2 -12.5l-20 -89q-2 -10 -8 -18l-103 -132q-8 -10 -19 -10h-8z" />
    <glyph glyph-name="circumflex" unicode="&#x2c6;" horiz-adv-x="772" 
d="M262 1182q-1 2 -1 6q0 11 10 14l274 118q8 4 19 4h16q12 0 19 -5l220 -116q9 -4 9 -12l-2 -9l-6 -12q-5 -10 -13 -10l-8 2l-233 98l-278 -101q-2 -1 -6 -1q-10 0 -14 10z" />
    <glyph glyph-name="caron" unicode="&#x2c7;" horiz-adv-x="776" 
d="M288 1267q-9 5 -9 12q0 3 2 9l6 12q4 10 13 10q2 0 8 -2l232 -98l278 101q2 1 7 1q10 0 13 -10l6 -13q2 -6 2 -8q0 -8 -10 -13l-274 -118q-14 -4 -20 -4h-16q-9 0 -19 5z" />
    <glyph glyph-name="breve" unicode="&#x2d8;" horiz-adv-x="624" 
d="M319.5 1198.5q-50.5 48.5 -50.5 125.5q0 16 1 24q2 14 17 14h22q16 0 14 -16q-1 -7 -1 -20q0 -56 36.5 -90t101.5 -34q70 0 120 40t67 106q3 14 17 14h25q8 0 11.5 -4.5t2.5 -12.5q-21 -87 -87.5 -141t-157.5 -54q-88 0 -138.5 48.5z" />
    <glyph glyph-name="dotaccent" unicode="&#x2d9;" horiz-adv-x="262" 
d="M272 1189q-8 0 -12 4.5t-2 12.5l20 83q1 7 5.5 10.5t11.5 3.5h31q8 0 11.5 -4.5t2.5 -12.5l-20 -83q-1 -7 -6 -10.5t-11 -3.5h-31z" />
    <glyph glyph-name="ring" unicode="&#x2da;" horiz-adv-x="558" 
d="M334 1193q-46 43 -46 111q0 52 24.5 95.5t67.5 69t98 25.5q70 0 116 -43t46 -111q0 -52 -24.5 -95.5t-67.5 -69t-98 -25.5q-70 0 -116 43zM552 1233q40 41 40 103q0 54 -32.5 85t-83.5 31q-60 0 -100 -41t-40 -103q0 -54 32.5 -85t83.5 -31q60 0 100 41z" />
    <glyph glyph-name="ogonek" unicode="&#x2db;" horiz-adv-x="484" 
d="M113 -340q-86 0 -134.5 40.5t-48.5 105.5q0 75 65.5 135t157.5 89q3 1 7 1q8 0 13 -8l2 -4q3 -4 3 -8q0 -8 -9 -11q-71 -22 -123 -73t-52 -113q0 -47 33.5 -72.5t97.5 -25.5h54q8 0 12 -4.5t2 -12.5l-5 -25q-1 -7 -6 -10.5t-11 -3.5h-58z" />
    <glyph glyph-name="tilde" unicode="&#x2dc;" horiz-adv-x="681" 
d="M548 1190q-28 24 -58 68q-24 35 -43 52.5t-45 17.5q-37 0 -57 -32.5t-35 -99.5q-4 -14 -18 -14h-20q-8 0 -11.5 5t-2.5 12q22 86 55.5 132.5t92.5 46.5q45 0 73 -24t61 -70q24 -34 42 -51t42 -17q41 0 61 32t37 100q3 14 17 14h20q8 0 11.5 -5.5t1.5 -15.5
q-22 -85 -56 -130t-96 -45q-44 0 -72 24z" />
    <glyph glyph-name="hungarumlaut" unicode="&#x2dd;" horiz-adv-x="735" 
d="M298 1188q-5 -4 -11 -4q-7 0 -11 6l-6 8q-4 5 -4 11t5 11l283 263q7 5 11 5q7 0 11 -7l15 -19q4 -5 4 -10t-6 -11zM548 1188q-5 -4 -11 -4t-11 6l-6 8q-4 5 -4 11t5 11l284 263q7 5 11 5q7 0 11 -7l15 -19q4 -5 4 -10t-6 -11z" />
    <glyph glyph-name="gravecomb" unicode="&#x300;" 
d="M40 1161q-5 -8 -13 -8l-8 2l-371 186q-9 5 -9 12q0 5 3 9l19 31q6 8 13 8q3 0 8 -3l360 -202q9 -4 9 -13q0 -4 -3 -9z" />
    <glyph glyph-name="acutecomb" unicode="&#x301;" 
d="M-329 1154q-4 -2 -7 -2q-9 0 -14 11l-6 13q-1 3 -1 7q0 10 9 14l408 198q6 2 7 2q9 0 13 -10l14 -31q2 -4 2 -7q0 -8 -10 -13z" />
    <glyph glyph-name="uni0302" unicode="&#x302;" 
d="M-510 1182q-1 2 -1 6q0 11 10 14l274 118q8 4 19 4h16q12 0 19 -5l220 -116q9 -4 9 -12l-2 -9l-6 -12q-5 -10 -13 -10l-8 2l-233 98l-278 -101q-2 -1 -6 -1q-10 0 -14 10z" />
    <glyph glyph-name="tildecomb" unicode="&#x303;" 
d="M-133 1190q-28 24 -58 68q-24 35 -43 52.5t-45 17.5q-37 0 -57 -32.5t-35 -99.5q-4 -14 -18 -14h-20q-8 0 -11.5 5t-2.5 12q22 86 55.5 132.5t92.5 46.5q45 0 73 -24t61 -70q24 -34 42 -51t42 -17q41 0 61 32t37 100q3 14 17 14h20q8 0 11.5 -5.5t1.5 -15.5
q-22 -85 -56 -130t-96 -45q-44 0 -72 24z" />
    <glyph glyph-name="uni0304" unicode="&#x304;" 
d="M-433 1220q-8 0 -12 4.5t-2 12.5l6 27q3 14 17 14h488q8 0 11.5 -4.5t1.5 -12.5l-6 -27q-1 -7 -6 -10.5t-11 -3.5h-487z" />
    <glyph glyph-name="uni0306" unicode="&#x306;" 
d="M-304.5 1198.5q-50.5 48.5 -50.5 125.5q0 16 1 24q2 14 17 14h22q16 0 14 -16q-1 -7 -1 -20q0 -56 36.5 -90t101.5 -34q70 0 120 40t67 106q3 14 17 14h25q8 0 11.5 -4.5t2.5 -12.5q-21 -87 -87.5 -141t-157.5 -54q-88 0 -138.5 48.5z" />
    <glyph glyph-name="uni0307" unicode="&#x307;" 
d="M10 1189q-8 0 -12 4.5t-2 12.5l20 83q1 7 5.5 10.5t11.5 3.5h31q8 0 11.5 -4.5t2.5 -12.5l-20 -83q-1 -7 -6 -10.5t-11 -3.5h-31z" />
    <glyph glyph-name="uni0308" unicode="&#x308;" 
d="M-232 1189q-8 0 -12 4.5t-2 12.5l20 83q1 7 6 10.5t11 3.5h51q8 0 11.5 -4.5t1.5 -12.5l-20 -83q-1 -7 -6 -10.5t-11 -3.5h-50zM-12 1189q-8 0 -12 4.5t-2 12.5l20 83q1 7 6 10.5t11 3.5h51q8 0 11.5 -4.5t1.5 -12.5l-20 -83q-1 -7 -6 -10.5t-11 -3.5h-50z" />
    <glyph glyph-name="hookabovecomb" unicode="&#x309;" 
d="M-125 1150q-8 0 -12 5t0 13q12 32 35 51.5t64 44.5q39 22 58 40.5t19 48.5q0 29 -24.5 46t-69.5 17q-88 0 -118 -77q-4 -13 -18 -13h-22q-8 0 -12 5t0 13q21 59 66.5 90.5t107.5 31.5q45 0 79 -16t51.5 -44.5t13.5 -63.5q-5 -39 -30 -62.5t-69 -48.5q-35 -20 -52.5 -34
t-26.5 -34q-6 -13 -18 -13h-22z" />
    <glyph glyph-name="uni030A" unicode="&#x30a;" 
d="M-224 1193q-46 43 -46 111q0 52 24.5 95.5t67.5 69t98 25.5q70 0 116 -43t46 -111q0 -52 -24.5 -95.5t-67.5 -69t-98 -25.5q-70 0 -116 43zM-6 1233q40 41 40 103q0 54 -32.5 85t-83.5 31q-60 0 -100 -41t-40 -103q0 -54 32.5 -85t83.5 -31q60 0 100 41z" />
    <glyph glyph-name="uni030B" unicode="&#x30b;" 
d="M-437 1188q-5 -4 -11 -4q-7 0 -11 6l-6 8q-4 5 -4 11t5 11l283 263q7 5 11 5q7 0 11 -7l15 -19q4 -5 4 -10t-6 -11zM-187 1188q-5 -4 -11 -4t-11 6l-6 8q-4 5 -4 11t5 11l284 263q7 5 11 5q7 0 11 -7l15 -19q4 -5 4 -10t-6 -11z" />
    <glyph glyph-name="uni030C" unicode="&#x30c;" 
d="M-488 1267q-9 5 -9 12q0 3 2 9l6 12q4 10 13 10q2 0 8 -2l232 -98l278 101q2 1 7 1q10 0 13 -10l6 -13q2 -6 2 -8q0 -8 -10 -13l-274 -118q-14 -4 -20 -4h-16q-9 0 -19 5z" />
    <glyph glyph-name="uni0312" unicode="&#x312;" 
d="M-56 1180q-8 0 -11.5 4.5t-1.5 12.5l20 90q1 9 8 17l104 133q7 9 19 9h13q14 0 14 -10q0 -4 -3 -9l-76 -131l-22 -102q-1 -7 -6.5 -10.5t-12.5 -3.5h-45z" />
    <glyph glyph-name="uni031B" unicode="&#x31b;" 
d="M-180 933q-4 -5 -10 -5q-7 0 -11 7l-15 22q-3 5 -3 10q0 6 5 11l216 241q5 5 11 5t10 -4l21 -18q7 -5 7 -12q0 -5 -5 -10z" />
    <glyph glyph-name="dotbelowcomb" unicode="&#x323;" 
d="M-330 -258q-8 0 -11.5 4.5t-1.5 12.5l20 83q1 7 6 10.5t11 3.5h34q8 0 12 -4.5t2 -12.5l-20 -83q-1 -7 -6 -10.5t-11 -3.5h-35z" />
    <glyph glyph-name="uni0326" unicode="&#x326;" 
d="M-407 -370q-9 0 -9 9q0 5 2 9l67 132l22 102q3 14 18 14h45q8 0 11.5 -4.5t2.5 -12.5l-20 -90q-3 -9 -9 -17l-103 -133q-8 -9 -19 -9h-8z" />
    <glyph glyph-name="uni0327" unicode="&#x327;" 
d="M-399 -319q-3 -6 -8.5 -8.5t-11.5 0.5l-26 9q-11 3 -11 12q0 4 3 9l192 319q4 9 12 9q4 0 9 -3l10 -6q12 -8 6 -21z" />
    <glyph glyph-name="uni0328" unicode="&#x328;" 
d="M-371 -340q-86 0 -134.5 40.5t-48.5 105.5q0 75 65.5 135t157.5 89q3 1 7 1q8 0 13 -8l2 -4q3 -4 3 -8q0 -8 -9 -11q-71 -22 -123 -73t-52 -113q0 -47 33.5 -72.5t97.5 -25.5h54q8 0 12 -4.5t2 -12.5l-5 -25q-1 -7 -6 -10.5t-11 -3.5h-58z" />
    <glyph glyph-name="uni0394" unicode="&#x394;" horiz-adv-x="1174" 
d="M-72 0q-8 0 -12 4.5t-2 12.5l7 30q2 10 7 18l819 1325q5 10 18 10h51q14 0 17 -14l202 -1320q2 -13 0 -19l-7 -33q-1 -7 -6 -10.5t-11 -3.5h-1083zM781 1340l-785 -1284h973z" />
    <glyph glyph-name="uni0394" unicode="&#x2206;" horiz-adv-x="1174" 
d="M-72 0q-8 0 -12 4.5t-2 12.5l7 30q2 10 7 18l819 1325q5 10 18 10h51q14 0 17 -14l202 -1320q2 -13 0 -19l-7 -33q-1 -7 -6 -10.5t-11 -3.5h-1083zM781 1340l-785 -1284h973z" />
    <glyph glyph-name="uni03A9" unicode="&#x3a9;" horiz-adv-x="1456" 
d="M1218 60q18 0 13 -17l-6 -29q-1 -7 -6 -10.5t-11 -3.5h-399q-8 0 -11.5 4.5t-1.5 12.5l6 29q2 12 17 21q253 131 393 330t140 447q0 168 -64 285t-178 176t-264 59q-214 0 -359.5 -112.5t-215 -283.5t-69.5 -348q0 -164 57.5 -293.5t163.5 -254.5q7 -7 7 -19q0 -6 -1 -10
l-6 -29q-1 -7 -6 -10.5t-11 -3.5h-399q-18 0 -13 17l6 29q1 7 6 10.5t11 3.5h333q-106 121 -163 254.5t-57 301.5q0 197 78.5 381t240 302.5t395.5 118.5q171 0 302 -67t204.5 -196t73.5 -309q0 -159 -57.5 -305.5t-169 -269t-269.5 -211.5h290z" />
    <glyph glyph-name="uni03A9" unicode="&#x2126;" horiz-adv-x="1456" 
d="M1218 60q18 0 13 -17l-6 -29q-1 -7 -6 -10.5t-11 -3.5h-399q-8 0 -11.5 4.5t-1.5 12.5l6 29q2 12 17 21q253 131 393 330t140 447q0 168 -64 285t-178 176t-264 59q-214 0 -359.5 -112.5t-215 -283.5t-69.5 -348q0 -164 57.5 -293.5t163.5 -254.5q7 -7 7 -19q0 -6 -1 -10
l-6 -29q-1 -7 -6 -10.5t-11 -3.5h-399q-18 0 -13 17l6 29q1 7 6 10.5t11 3.5h333q-106 121 -163 254.5t-57 301.5q0 197 78.5 381t240 302.5t395.5 118.5q171 0 302 -67t204.5 -196t73.5 -309q0 -159 -57.5 -305.5t-169 -269t-269.5 -211.5h290z" />
    <glyph glyph-name="pi" unicode="&#x3c0;" horiz-adv-x="981" 
d="M17 0q-8 0 -11.5 4.5t-1.5 12.5l102 425l128 574q1 7 6 10.5t11 3.5h717q18 0 13 -17l-131 -571l-97 -428q-1 -7 -6 -10.5t-11 -3.5h-35q-8 0 -11.5 4.5t-1.5 12.5l100 425l124 534h-624l-122 -534l-97 -428q-1 -7 -6 -10.5t-11 -3.5h-35z" />
    <glyph glyph-name="Wgrave" unicode="&#x1e80;" horiz-adv-x="1674" 
d="M321 0q-16 0 -17 16l-64 1369v2q0 6 4 9.5t11 3.5h31q7 0 11.5 -4t4.5 -11l57 -1295l641 1299q4 11 18 11h44q7 0 11.5 -4t4.5 -11l37 -1287l654 1291q6 11 19 11h34q9 0 12.5 -5t-0.5 -13l-699 -1371q-5 -11 -19 -11h-39q-8 0 -12.5 4.5t-4.5 11.5l-41 1290l-641 -1295
q-5 -11 -18 -11h-39zM1246 1531q-5 -8 -13 -8l-8 2l-371 186q-9 5 -9 12q0 5 3 9l19 31q6 8 13 8q3 0 8 -3l360 -202q9 -4 9 -13q0 -4 -3 -9z" />
    <glyph glyph-name="wgrave" unicode="&#x1e81;" horiz-adv-x="1364" 
d="M252 0q-14 0 -16 15l-81 999v2q0 14 14 14h31q15 0 16 -15l69 -939l470 943q6 11 19 11h46q15 0 16 -15l57 -939l484 943q6 11 19 11h30q9 0 12.5 -5t-0.5 -13l-519 -1001q-5 -11 -19 -11h-44q-14 0 -16 15l-55 957l-473 -961q-5 -11 -18 -11h-42zM1004 1161
q-5 -8 -13 -8l-8 2l-371 186q-9 5 -9 12q0 5 3 9l19 31q6 8 13 8q3 0 8 -3l360 -202q9 -4 9 -13q0 -4 -3 -9z" />
    <glyph glyph-name="Wacute" unicode="&#x1e82;" horiz-adv-x="1674" 
d="M321 0q-16 0 -17 16l-64 1369v2q0 6 4 9.5t11 3.5h31q7 0 11.5 -4t4.5 -11l57 -1295l641 1299q4 11 18 11h44q7 0 11.5 -4t4.5 -11l37 -1287l654 1291q6 11 19 11h34q9 0 12.5 -5t-0.5 -13l-699 -1371q-5 -11 -19 -11h-39q-8 0 -12.5 4.5t-4.5 11.5l-41 1290l-641 -1295
q-5 -11 -18 -11h-39zM934 1524q-4 -2 -7 -2q-9 0 -14 11l-6 13q-1 3 -1 7q0 10 9 14l408 198q6 2 7 2q9 0 13 -10l14 -31q2 -4 2 -7q0 -8 -10 -13z" />
    <glyph glyph-name="wacute" unicode="&#x1e83;" horiz-adv-x="1364" 
d="M252 0q-14 0 -16 15l-81 999v2q0 14 14 14h31q15 0 16 -15l69 -939l470 943q6 11 19 11h46q15 0 16 -15l57 -939l484 943q6 11 19 11h30q9 0 12.5 -5t-0.5 -13l-519 -1001q-5 -11 -19 -11h-44q-14 0 -16 15l-55 957l-473 -961q-5 -11 -18 -11h-42zM692 1154q-4 -2 -7 -2
q-9 0 -14 11l-6 13q-1 3 -1 7q0 10 9 14l408 198q6 2 7 2q9 0 13 -10l14 -31q2 -4 2 -7q0 -8 -10 -13z" />
    <glyph glyph-name="Wdieresis" unicode="&#x1e84;" horiz-adv-x="1674" 
d="M321 0q-16 0 -17 16l-64 1369v2q0 6 4 9.5t11 3.5h31q7 0 11.5 -4t4.5 -11l57 -1295l641 1299q4 11 18 11h44q7 0 11.5 -4t4.5 -11l37 -1287l654 1291q6 11 19 11h34q9 0 12.5 -5t-0.5 -13l-699 -1371q-5 -11 -19 -11h-39q-8 0 -12.5 4.5t-4.5 11.5l-41 1290l-641 -1295
q-5 -11 -18 -11h-39zM947 1559q-8 0 -12 4.5t-2 12.5l20 83q1 7 6 10.5t11 3.5h51q8 0 11.5 -4.5t1.5 -12.5l-20 -83q-1 -7 -6 -10.5t-11 -3.5h-50zM1167 1559q-8 0 -12 4.5t-2 12.5l20 83q1 7 6 10.5t11 3.5h51q8 0 11.5 -4.5t1.5 -12.5l-20 -83q-1 -7 -6 -10.5t-11 -3.5
h-50z" />
    <glyph glyph-name="wdieresis" unicode="&#x1e85;" horiz-adv-x="1364" 
d="M252 0q-14 0 -16 15l-81 999v2q0 14 14 14h31q15 0 16 -15l69 -939l470 943q6 11 19 11h46q15 0 16 -15l57 -939l484 943q6 11 19 11h30q9 0 12.5 -5t-0.5 -13l-519 -1001q-5 -11 -19 -11h-44q-14 0 -16 15l-55 957l-473 -961q-5 -11 -18 -11h-42zM705 1189q-8 0 -12 4.5
t-2 12.5l20 83q1 7 6 10.5t11 3.5h51q8 0 11.5 -4.5t1.5 -12.5l-20 -83q-1 -7 -6 -10.5t-11 -3.5h-50zM925 1189q-8 0 -12 4.5t-2 12.5l20 83q1 7 6 10.5t11 3.5h51q8 0 11.5 -4.5t1.5 -12.5l-20 -83q-1 -7 -6 -10.5t-11 -3.5h-50z" />
    <glyph glyph-name="uni1EA0" unicode="&#x1ea0;" horiz-adv-x="1164" 
d="M1017 17v-4q0 -13 -14 -13h-35q-14 0 -16 15l-63 477h-614l-288 -482q-7 -10 -18 -10h-42q-13 0 -13 10q0 5 3 9l825 1371q6 10 18 10h51q14 0 16 -14zM882 548l-104 790l-470 -790h574zM390 -258q-8 0 -11.5 4.5t-1.5 12.5l20 83q1 7 6 10.5t11 3.5h34q8 0 12 -4.5
t2 -12.5l-20 -83q-1 -7 -6 -10.5t-11 -3.5h-35z" />
    <glyph glyph-name="uni1EA1" unicode="&#x1ea1;" horiz-adv-x="1009" 
d="M990 1030q18 0 13 -17l-113 -475l-117 -524q-1 -7 -6 -10.5t-11 -3.5h-32q-8 0 -12 4.5t-2 12.5l47 189q-66 -101 -157.5 -159.5t-207.5 -58.5q-105 0 -181.5 49t-116.5 138t-40 207q0 140 55.5 294t171.5 261t287 107q135 0 217.5 -72t102.5 -207l53 251q3 14 16 14h33z
M639 135q103 97 157 242.5t54 284.5q0 164 -75 247t-209 83q-156 0 -257.5 -101.5t-147 -243.5t-45.5 -267q0 -103 33 -180.5t96.5 -119.5t152.5 -42q138 0 241 97zM354 -278q-8 0 -11.5 4.5t-1.5 12.5l20 83q1 7 6 10.5t11 3.5h34q8 0 12 -4.5t2 -12.5l-20 -83
q-1 -7 -6 -10.5t-11 -3.5h-35z" />
    <glyph glyph-name="uni1EA2" unicode="&#x1ea2;" horiz-adv-x="1164" 
d="M1017 17v-4q0 -13 -14 -13h-35q-14 0 -16 15l-63 477h-614l-288 -482q-7 -10 -18 -10h-42q-13 0 -13 10q0 5 3 9l825 1371q6 10 18 10h51q14 0 16 -14zM882 548l-104 790l-470 -790h574zM806 1520q-8 0 -12 5t0 13q12 32 35 51.5t64 44.5q39 22 58 40.5t19 48.5
q0 29 -24.5 46t-69.5 17q-88 0 -118 -77q-4 -13 -18 -13h-22q-8 0 -12 5t0 13q21 59 66.5 90.5t107.5 31.5q45 0 79 -16t51.5 -44.5t13.5 -63.5q-5 -39 -30 -62.5t-69 -48.5q-35 -20 -52.5 -34t-26.5 -34q-6 -13 -18 -13h-22z" />
    <glyph glyph-name="uni1EA3" unicode="&#x1ea3;" horiz-adv-x="1009" 
d="M990 1030q18 0 13 -17l-113 -475l-117 -524q-1 -7 -6 -10.5t-11 -3.5h-32q-8 0 -12 4.5t-2 12.5l47 189q-66 -101 -157.5 -159.5t-207.5 -58.5q-105 0 -181.5 49t-116.5 138t-40 207q0 140 55.5 294t171.5 261t287 107q135 0 217.5 -72t102.5 -207l53 251q3 14 16 14h33z
M639 135q103 97 157 242.5t54 284.5q0 164 -75 247t-209 83q-156 0 -257.5 -101.5t-147 -243.5t-45.5 -267q0 -103 33 -180.5t96.5 -119.5t152.5 -42q138 0 241 97zM614 1150q-8 0 -12 5t0 13q12 32 35 51.5t64 44.5q39 22 58 40.5t19 48.5q0 29 -24.5 46t-69.5 17
q-88 0 -118 -77q-4 -13 -18 -13h-22q-8 0 -12 5t0 13q21 59 66.5 90.5t107.5 31.5q45 0 79 -16t51.5 -44.5t13.5 -63.5q-5 -39 -30 -62.5t-69 -48.5q-35 -20 -52.5 -34t-26.5 -34q-6 -13 -18 -13h-22z" />
    <glyph glyph-name="uni1EA4" unicode="&#x1ea4;" horiz-adv-x="1164" 
d="M1017 17v-4q0 -13 -14 -13h-35q-14 0 -16 15l-63 477h-614l-288 -482q-7 -10 -18 -10h-42q-13 0 -13 10q0 5 3 9l825 1371q6 10 18 10h51q14 0 16 -14zM882 548l-104 790l-470 -790h574zM1018 1664q-4 -4 -10 -4q-5 0 -11 6l-10 11q-4 4 -4 10t5 11l250 235q5 5 11 5
q5 0 10 -6l15 -16q4 -5 4 -10q0 -7 -6 -12zM528 1516q-2 4 -2 7q0 4 3 8t7 5l274 118q8 4 20 4h15q11 0 19 -5l220 -116q9 -4 9 -12q0 -3 -2 -9l-7 -12q-6 -14 -20 -8l-232 98l-279 -101q-2 -1 -6 -1q-10 0 -13 10z" />
    <glyph glyph-name="uni1EA5" unicode="&#x1ea5;" horiz-adv-x="1009" 
d="M990 1030q18 0 13 -17l-113 -475l-117 -524q-1 -7 -6 -10.5t-11 -3.5h-32q-8 0 -12 4.5t-2 12.5l47 189q-66 -101 -157.5 -159.5t-207.5 -58.5q-105 0 -181.5 49t-116.5 138t-40 207q0 140 55.5 294t171.5 261t287 107q135 0 217.5 -72t102.5 -207l53 251q3 14 16 14h33z
M639 135q103 97 157 242.5t54 284.5q0 164 -75 247t-209 83q-156 0 -257.5 -101.5t-147 -243.5t-45.5 -267q0 -103 33 -180.5t96.5 -119.5t152.5 -42q138 0 241 97zM826 1294q-4 -4 -10 -4q-5 0 -11 6l-10 11q-4 4 -4 10t5 11l250 235q5 5 11 5q5 0 10 -6l15 -16q4 -5 4 -10
q0 -7 -6 -12zM336 1146q-2 4 -2 7q0 4 3 8t7 5l274 118q8 4 20 4h15q11 0 19 -5l220 -116q9 -4 9 -12q0 -3 -2 -9l-7 -12q-6 -14 -20 -8l-232 98l-279 -101q-2 -1 -6 -1q-10 0 -13 10z" />
    <glyph glyph-name="uni1EA6" unicode="&#x1ea6;" horiz-adv-x="1164" 
d="M1017 17v-4q0 -13 -14 -13h-35q-14 0 -16 15l-63 477h-614l-288 -482q-7 -10 -18 -10h-42q-13 0 -13 10q0 5 3 9l825 1371q6 10 18 10h51q14 0 16 -14zM882 548l-104 790l-470 -790h574zM1046 1664q-5 -3 -9 -3q-8 0 -12 7l-163 243q-3 6 -3 10q0 6 7 12l18 12q4 3 9 3
q8 0 13 -8l157 -248q3 -4 3 -9q0 -8 -9 -13zM528 1516q-2 4 -2 7q0 4 3 8t7 5l274 118q8 4 20 4h15q11 0 19 -5l220 -116q9 -4 9 -12q0 -3 -2 -9l-7 -12q-6 -14 -20 -8l-232 98l-279 -101q-2 -1 -6 -1q-10 0 -13 10z" />
    <glyph glyph-name="uni1EA7" unicode="&#x1ea7;" horiz-adv-x="1009" 
d="M990 1030q18 0 13 -17l-113 -475l-117 -524q-1 -7 -6 -10.5t-11 -3.5h-32q-8 0 -12 4.5t-2 12.5l47 189q-66 -101 -157.5 -159.5t-207.5 -58.5q-105 0 -181.5 49t-116.5 138t-40 207q0 140 55.5 294t171.5 261t287 107q135 0 217.5 -72t102.5 -207l53 251q3 14 16 14h33z
M639 135q103 97 157 242.5t54 284.5q0 164 -75 247t-209 83q-156 0 -257.5 -101.5t-147 -243.5t-45.5 -267q0 -103 33 -180.5t96.5 -119.5t152.5 -42q138 0 241 97zM854 1294q-5 -3 -9 -3q-8 0 -12 7l-163 243q-3 6 -3 10q0 6 7 12l18 12q4 3 9 3q8 0 13 -8l157 -248
q3 -4 3 -9q0 -8 -9 -13zM336 1146q-2 4 -2 7q0 4 3 8t7 5l274 118q8 4 20 4h15q11 0 19 -5l220 -116q9 -4 9 -12q0 -3 -2 -9l-7 -12q-6 -14 -20 -8l-232 98l-279 -101q-2 -1 -6 -1q-10 0 -13 10z" />
    <glyph glyph-name="uni1EA8" unicode="&#x1ea8;" horiz-adv-x="1164" 
d="M1017 17v-4q0 -13 -14 -13h-35q-14 0 -16 15l-63 477h-614l-288 -482q-7 -10 -18 -10h-42q-13 0 -13 10q0 5 3 9l825 1371q6 10 18 10h51q14 0 16 -14zM882 548l-104 790l-470 -790h574zM526 1516q-1 2 -1 6q0 11 10 14l274 118q8 4 19 4h16q12 0 19 -5l220 -116
q9 -4 9 -12l-2 -9l-6 -12q-5 -10 -13 -10l-8 2l-233 98l-278 -101q-2 -1 -6 -1q-10 0 -14 10zM995 1666q-8 0 -12 5t0 13q12 32 35 51.5t64 44.5q39 22 58 40.5t19 48.5q0 29 -24.5 46t-69.5 17q-88 0 -118 -77q-4 -13 -18 -13h-22q-8 0 -12 5t0 13q21 59 66.5 90.5
t107.5 31.5q45 0 79 -16t51.5 -44.5t13.5 -63.5q-5 -39 -30 -62.5t-69 -48.5q-35 -20 -52.5 -34t-26.5 -34q-6 -13 -18 -13h-22z" />
    <glyph glyph-name="uni1EA9" unicode="&#x1ea9;" horiz-adv-x="1009" 
d="M990 1030q18 0 13 -17l-113 -475l-117 -524q-1 -7 -6 -10.5t-11 -3.5h-32q-8 0 -12 4.5t-2 12.5l47 189q-66 -101 -157.5 -159.5t-207.5 -58.5q-105 0 -181.5 49t-116.5 138t-40 207q0 140 55.5 294t171.5 261t287 107q135 0 217.5 -72t102.5 -207l53 251q3 14 16 14h33z
M639 135q103 97 157 242.5t54 284.5q0 164 -75 247t-209 83q-156 0 -257.5 -101.5t-147 -243.5t-45.5 -267q0 -103 33 -180.5t96.5 -119.5t152.5 -42q138 0 241 97zM334 1146q-1 2 -1 6q0 11 10 14l274 118q8 4 19 4h16q12 0 19 -5l220 -116q9 -4 9 -12l-2 -9l-6 -12
q-5 -10 -13 -10l-8 2l-233 98l-278 -101q-2 -1 -6 -1q-10 0 -14 10zM803 1296q-8 0 -12 5t0 13q12 32 35 51.5t64 44.5q39 22 58 40.5t19 48.5q0 29 -24.5 46t-69.5 17q-88 0 -118 -77q-4 -13 -18 -13h-22q-8 0 -12 5t0 13q21 59 66.5 90.5t107.5 31.5q45 0 79 -16
t51.5 -44.5t13.5 -63.5q-5 -39 -30 -62.5t-69 -48.5q-35 -20 -52.5 -34t-26.5 -34q-6 -13 -18 -13h-22z" />
    <glyph glyph-name="uni1EAA" unicode="&#x1eaa;" horiz-adv-x="1164" 
d="M1017 17v-4q0 -13 -14 -13h-35q-14 0 -16 15l-63 477h-614l-288 -482q-7 -10 -18 -10h-42q-13 0 -13 10q0 5 3 9l825 1371q6 10 18 10h51q14 0 16 -14zM882 548l-104 790l-470 -790h574zM526 1516q-1 2 -1 6q0 11 10 14l274 118q8 4 19 4h16q12 0 19 -5l220 -116
q9 -4 9 -12l-2 -9l-6 -12q-5 -10 -13 -10l-8 2l-233 98l-278 -101q-2 -1 -6 -1q-10 0 -14 10zM914 1709q-28 24 -58 68q-24 35 -43 52.5t-45 17.5q-37 0 -57 -32.5t-35 -99.5q-4 -14 -18 -14h-20q-8 0 -11.5 5t-2.5 12q22 86 55.5 132.5t92.5 46.5q45 0 73 -24t61 -70
q24 -34 42 -51t42 -17q41 0 61 32t37 100q3 14 17 14h20q8 0 11.5 -5.5t1.5 -15.5q-22 -85 -56 -130t-96 -45q-44 0 -72 24z" />
    <glyph glyph-name="uni1EAB" unicode="&#x1eab;" horiz-adv-x="1009" 
d="M990 1030q18 0 13 -17l-113 -475l-117 -524q-1 -7 -6 -10.5t-11 -3.5h-32q-8 0 -12 4.5t-2 12.5l47 189q-66 -101 -157.5 -159.5t-207.5 -58.5q-105 0 -181.5 49t-116.5 138t-40 207q0 140 55.5 294t171.5 261t287 107q135 0 217.5 -72t102.5 -207l53 251q3 14 16 14h33z
M639 135q103 97 157 242.5t54 284.5q0 164 -75 247t-209 83q-156 0 -257.5 -101.5t-147 -243.5t-45.5 -267q0 -103 33 -180.5t96.5 -119.5t152.5 -42q138 0 241 97zM334 1146q-1 2 -1 6q0 11 10 14l274 118q8 4 19 4h16q12 0 19 -5l220 -116q9 -4 9 -12l-2 -9l-6 -12
q-5 -10 -13 -10l-8 2l-233 98l-278 -101q-2 -1 -6 -1q-10 0 -14 10zM722 1339q-28 24 -58 68q-24 35 -43 52.5t-45 17.5q-37 0 -57 -32.5t-35 -99.5q-4 -14 -18 -14h-20q-8 0 -11.5 5t-2.5 12q22 86 55.5 132.5t92.5 46.5q45 0 73 -24t61 -70q24 -34 42 -51t42 -17
q41 0 61 32t37 100q3 14 17 14h20q8 0 11.5 -5.5t1.5 -15.5q-22 -85 -56 -130t-96 -45q-44 0 -72 24z" />
    <glyph glyph-name="uni1EAC" unicode="&#x1eac;" horiz-adv-x="1164" 
d="M1017 17v-4q0 -13 -14 -13h-35q-14 0 -16 15l-63 477h-614l-288 -482q-7 -10 -18 -10h-42q-13 0 -13 10q0 5 3 9l825 1371q6 10 18 10h51q14 0 16 -14zM882 548l-104 790l-470 -790h574zM390 -258q-8 0 -11.5 4.5t-1.5 12.5l20 83q1 7 6 10.5t11 3.5h34q8 0 12 -4.5
t2 -12.5l-20 -83q-1 -7 -6 -10.5t-11 -3.5h-35zM535 1552q-1 2 -1 6q0 11 10 14l274 118q8 4 19 4h16q12 0 19 -5l220 -116q9 -4 9 -12l-2 -9l-6 -12q-5 -10 -13 -10l-8 2l-233 98l-278 -101q-2 -1 -6 -1q-10 0 -14 10z" />
    <glyph glyph-name="uni1EAD" unicode="&#x1ead;" horiz-adv-x="1009" 
d="M990 1030q18 0 13 -17l-113 -475l-117 -524q-1 -7 -6 -10.5t-11 -3.5h-32q-8 0 -12 4.5t-2 12.5l47 189q-66 -101 -157.5 -159.5t-207.5 -58.5q-105 0 -181.5 49t-116.5 138t-40 207q0 140 55.5 294t171.5 261t287 107q135 0 217.5 -72t102.5 -207l53 251q3 14 16 14h33z
M639 135q103 97 157 242.5t54 284.5q0 164 -75 247t-209 83q-156 0 -257.5 -101.5t-147 -243.5t-45.5 -267q0 -103 33 -180.5t96.5 -119.5t152.5 -42q138 0 241 97zM354 -278q-8 0 -11.5 4.5t-1.5 12.5l20 83q1 7 6 10.5t11 3.5h34q8 0 12 -4.5t2 -12.5l-20 -83
q-1 -7 -6 -10.5t-11 -3.5h-35zM343 1182q-1 2 -1 6q0 11 10 14l274 118q8 4 19 4h16q12 0 19 -5l220 -116q9 -4 9 -12l-2 -9l-6 -12q-5 -10 -13 -10l-8 2l-233 98l-278 -101q-2 -1 -6 -1q-10 0 -14 10z" />
    <glyph glyph-name="uni1EAE" unicode="&#x1eae;" horiz-adv-x="1164" 
d="M1017 17v-4q0 -13 -14 -13h-35q-14 0 -16 15l-63 477h-614l-288 -482q-7 -10 -18 -10h-42q-13 0 -13 10q0 5 3 9l825 1371q6 10 18 10h51q14 0 16 -14zM882 548l-104 790l-470 -790h574zM847 1684q-4 -4 -10 -4t-12 6l-9 11q-4 4 -4 10q0 7 5 11l248 235q5 5 10 5
q6 0 12 -6l15 -17q5 -5 5 -10t-6 -11zM691.5 1548.5q-50.5 48.5 -50.5 125.5q0 16 1 24q2 14 17 14h22q16 0 14 -16q-1 -7 -1 -20q0 -56 36.5 -90t101.5 -34q70 0 120 40t68 106q3 14 17 14h25q8 0 11.5 -4.5t2.5 -12.5q-21 -87 -88 -141t-158 -54q-88 0 -138.5 48.5z" />
    <glyph glyph-name="uni1EAF" unicode="&#x1eaf;" horiz-adv-x="1009" 
d="M990 1030q18 0 13 -17l-113 -475l-117 -524q-1 -7 -6 -10.5t-11 -3.5h-32q-8 0 -12 4.5t-2 12.5l47 189q-66 -101 -157.5 -159.5t-207.5 -58.5q-105 0 -181.5 49t-116.5 138t-40 207q0 140 55.5 294t171.5 261t287 107q135 0 217.5 -72t102.5 -207l53 251q3 14 16 14h33z
M639 135q103 97 157 242.5t54 284.5q0 164 -75 247t-209 83q-156 0 -257.5 -101.5t-147 -243.5t-45.5 -267q0 -103 33 -180.5t96.5 -119.5t152.5 -42q138 0 241 97zM655 1314q-4 -4 -10 -4t-12 6l-9 11q-4 4 -4 10q0 7 5 11l248 235q5 5 10 5q6 0 12 -6l15 -17q5 -5 5 -10
t-6 -11zM499.5 1178.5q-50.5 48.5 -50.5 125.5q0 16 1 24q2 14 17 14h22q16 0 14 -16q-1 -7 -1 -20q0 -56 36.5 -90t101.5 -34q70 0 120 40t68 106q3 14 17 14h25q8 0 11.5 -4.5t2.5 -12.5q-21 -87 -88 -141t-158 -54q-88 0 -138.5 48.5z" />
    <glyph glyph-name="uni1EB0" unicode="&#x1eb0;" horiz-adv-x="1164" 
d="M1017 17v-4q0 -13 -14 -13h-35q-14 0 -16 15l-63 477h-614l-288 -482q-7 -10 -18 -10h-42q-13 0 -13 10q0 5 3 9l825 1371q6 10 18 10h51q14 0 16 -14zM882 548l-104 790l-470 -790h574zM870 1682q-5 -3 -9 -3q-7 0 -12 8l-163 242q-4 5 -4 11q0 7 7 11l19 14q4 3 9 3
q8 0 13 -8l157 -249q3 -6 3 -9q0 -6 -8 -12zM691.5 1548.5q-50.5 48.5 -50.5 125.5q0 16 1 24q2 14 16 14h22q17 0 15 -16q-1 -7 -1 -22q0 -55 36.5 -88.5t101.5 -33.5q69 0 119.5 40t67.5 106q4 14 17 14h25q8 0 12 -4.5t2 -12.5q-21 -87 -87.5 -141t-157.5 -54
q-88 0 -138.5 48.5z" />
    <glyph glyph-name="uni1EB1" unicode="&#x1eb1;" horiz-adv-x="1009" 
d="M990 1030q18 0 13 -17l-113 -475l-117 -524q-1 -7 -6 -10.5t-11 -3.5h-32q-8 0 -12 4.5t-2 12.5l47 189q-66 -101 -157.5 -159.5t-207.5 -58.5q-105 0 -181.5 49t-116.5 138t-40 207q0 140 55.5 294t171.5 261t287 107q135 0 217.5 -72t102.5 -207l53 251q3 14 16 14h33z
M639 135q103 97 157 242.5t54 284.5q0 164 -75 247t-209 83q-156 0 -257.5 -101.5t-147 -243.5t-45.5 -267q0 -103 33 -180.5t96.5 -119.5t152.5 -42q138 0 241 97zM678 1312q-5 -3 -9 -3q-7 0 -12 8l-163 242q-4 5 -4 11q0 7 7 11l19 14q4 3 9 3q8 0 13 -8l157 -249
q3 -6 3 -9q0 -6 -8 -12zM499.5 1178.5q-50.5 48.5 -50.5 125.5q0 16 1 24q2 14 16 14h22q17 0 15 -16q-1 -7 -1 -22q0 -55 36.5 -88.5t101.5 -33.5q69 0 119.5 40t67.5 106q4 14 17 14h25q8 0 12 -4.5t2 -12.5q-21 -87 -87.5 -141t-157.5 -54q-88 0 -138.5 48.5z" />
    <glyph glyph-name="uni1EB2" unicode="&#x1eb2;" horiz-adv-x="1164" 
d="M1017 17v-4q0 -13 -14 -13h-35q-14 0 -16 15l-63 477h-614l-288 -482q-7 -10 -18 -10h-42q-13 0 -13 10q0 5 3 9l825 1371q6 10 18 10h51q14 0 16 -14zM882 548l-104 790l-470 -790h574zM693.5 1548.5q-50.5 48.5 -50.5 125.5q0 16 1 24q2 14 17 14h22q16 0 14 -16
q-1 -7 -1 -20q0 -56 36.5 -90t101.5 -34q70 0 120 40t67 106q3 14 17 14h25q8 0 11.5 -4.5t2.5 -12.5q-21 -87 -87.5 -141t-157.5 -54q-88 0 -138.5 48.5zM841 1685q-8 0 -12 5t0 13q12 32 35 51.5t64 44.5q39 22 58 40.5t19 48.5q0 29 -24.5 46t-69.5 17q-88 0 -118 -77
q-4 -13 -18 -13h-22q-8 0 -12 5t0 13q21 59 66.5 90.5t107.5 31.5q45 0 79 -16t51.5 -44.5t13.5 -63.5q-5 -39 -30 -62.5t-69 -48.5q-35 -20 -52.5 -34t-26.5 -34q-6 -13 -18 -13h-22z" />
    <glyph glyph-name="uni1EB3" unicode="&#x1eb3;" horiz-adv-x="1009" 
d="M990 1030q18 0 13 -17l-113 -475l-117 -524q-1 -7 -6 -10.5t-11 -3.5h-32q-8 0 -12 4.5t-2 12.5l47 189q-66 -101 -157.5 -159.5t-207.5 -58.5q-105 0 -181.5 49t-116.5 138t-40 207q0 140 55.5 294t171.5 261t287 107q135 0 217.5 -72t102.5 -207l53 251q3 14 16 14h33z
M639 135q103 97 157 242.5t54 284.5q0 164 -75 247t-209 83q-156 0 -257.5 -101.5t-147 -243.5t-45.5 -267q0 -103 33 -180.5t96.5 -119.5t152.5 -42q138 0 241 97zM501.5 1178.5q-50.5 48.5 -50.5 125.5q0 16 1 24q2 14 17 14h22q16 0 14 -16q-1 -7 -1 -20q0 -56 36.5 -90
t101.5 -34q70 0 120 40t67 106q3 14 17 14h25q8 0 11.5 -4.5t2.5 -12.5q-21 -87 -87.5 -141t-157.5 -54q-88 0 -138.5 48.5zM649 1315q-8 0 -12 5t0 13q12 32 35 51.5t64 44.5q39 22 58 40.5t19 48.5q0 29 -24.5 46t-69.5 17q-88 0 -118 -77q-4 -13 -18 -13h-22q-8 0 -12 5
t0 13q21 59 66.5 90.5t107.5 31.5q45 0 79 -16t51.5 -44.5t13.5 -63.5q-5 -39 -30 -62.5t-69 -48.5q-35 -20 -52.5 -34t-26.5 -34q-6 -13 -18 -13h-22z" />
    <glyph glyph-name="uni1EB4" unicode="&#x1eb4;" horiz-adv-x="1164" 
d="M1017 17v-4q0 -13 -14 -13h-35q-14 0 -16 15l-63 477h-614l-288 -482q-7 -10 -18 -10h-42q-13 0 -13 10q0 5 3 9l825 1371q6 10 18 10h51q14 0 16 -14zM882 548l-104 790l-470 -790h574zM911.5 1773q-23.5 20 -50.5 58q-23 32 -38.5 46t-38.5 14q-31 0 -47.5 -27
t-29.5 -83q-3 -14 -17 -14h-20q-8 0 -12 5t-2 12q20 75 50 115t82 40q39 0 63 -20.5t53 -59.5q21 -29 36.5 -43.5t35.5 -14.5q34 0 51 27t30 83q4 14 17 14h21q8 0 11.5 -6t0.5 -15q-20 -73 -50 -112t-85 -39q-37 0 -60.5 20zM692.5 1548.5q-50.5 48.5 -50.5 125.5
q0 16 1 24q2 14 17 14h22q16 0 14 -16q-1 -7 -1 -20q0 -56 36.5 -90t101.5 -34q70 0 120 40t68 106q3 14 17 14h25q8 0 11.5 -4.5t2.5 -12.5q-21 -87 -88 -141t-158 -54q-88 0 -138.5 48.5z" />
    <glyph glyph-name="uni1EB5" unicode="&#x1eb5;" horiz-adv-x="1009" 
d="M990 1030q18 0 13 -17l-113 -475l-117 -524q-1 -7 -6 -10.5t-11 -3.5h-32q-8 0 -12 4.5t-2 12.5l47 189q-66 -101 -157.5 -159.5t-207.5 -58.5q-105 0 -181.5 49t-116.5 138t-40 207q0 140 55.5 294t171.5 261t287 107q135 0 217.5 -72t102.5 -207l53 251q3 14 16 14h33z
M639 135q103 97 157 242.5t54 284.5q0 164 -75 247t-209 83q-156 0 -257.5 -101.5t-147 -243.5t-45.5 -267q0 -103 33 -180.5t96.5 -119.5t152.5 -42q138 0 241 97zM719.5 1403q-23.5 20 -50.5 58q-23 32 -38.5 46t-38.5 14q-31 0 -47.5 -27t-29.5 -83q-3 -14 -17 -14h-20
q-8 0 -12 5t-2 12q20 75 50 115t82 40q39 0 63 -20.5t53 -59.5q21 -29 36.5 -43.5t35.5 -14.5q34 0 51 27t30 83q4 14 17 14h21q8 0 11.5 -6t0.5 -15q-20 -73 -50 -112t-85 -39q-37 0 -60.5 20zM500.5 1178.5q-50.5 48.5 -50.5 125.5q0 16 1 24q2 14 17 14h22q16 0 14 -16
q-1 -7 -1 -20q0 -56 36.5 -90t101.5 -34q70 0 120 40t68 106q3 14 17 14h25q8 0 11.5 -4.5t2.5 -12.5q-21 -87 -88 -141t-158 -54q-88 0 -138.5 48.5z" />
    <glyph glyph-name="uni1EB6" unicode="&#x1eb6;" horiz-adv-x="1164" 
d="M1017 17v-4q0 -13 -14 -13h-35q-14 0 -16 15l-63 477h-614l-288 -482q-7 -10 -18 -10h-42q-13 0 -13 10q0 5 3 9l825 1371q6 10 18 10h51q14 0 16 -14zM882 548l-104 790l-470 -790h574zM390 -258q-8 0 -11.5 4.5t-1.5 12.5l20 83q1 7 6 10.5t11 3.5h34q8 0 12 -4.5
t2 -12.5l-20 -83q-1 -7 -6 -10.5t-11 -3.5h-35zM696.5 1568.5q-50.5 48.5 -50.5 125.5q0 16 1 24q2 14 17 14h22q16 0 14 -16q-1 -7 -1 -20q0 -56 36.5 -90t101.5 -34q70 0 120 40t67 106q3 14 17 14h25q8 0 11.5 -4.5t2.5 -12.5q-21 -87 -87.5 -141t-157.5 -54
q-88 0 -138.5 48.5z" />
    <glyph glyph-name="uni1EB7" unicode="&#x1eb7;" horiz-adv-x="1009" 
d="M990 1030q18 0 13 -17l-113 -475l-117 -524q-1 -7 -6 -10.5t-11 -3.5h-32q-8 0 -12 4.5t-2 12.5l47 189q-66 -101 -157.5 -159.5t-207.5 -58.5q-105 0 -181.5 49t-116.5 138t-40 207q0 140 55.5 294t171.5 261t287 107q135 0 217.5 -72t102.5 -207l53 251q3 14 16 14h33z
M639 135q103 97 157 242.5t54 284.5q0 164 -75 247t-209 83q-156 0 -257.5 -101.5t-147 -243.5t-45.5 -267q0 -103 33 -180.5t96.5 -119.5t152.5 -42q138 0 241 97zM354 -278q-8 0 -11.5 4.5t-1.5 12.5l20 83q1 7 6 10.5t11 3.5h34q8 0 12 -4.5t2 -12.5l-20 -83
q-1 -7 -6 -10.5t-11 -3.5h-35zM504.5 1198.5q-50.5 48.5 -50.5 125.5q0 16 1 24q2 14 17 14h22q16 0 14 -16q-1 -7 -1 -20q0 -56 36.5 -90t101.5 -34q70 0 120 40t67 106q3 14 17 14h25q8 0 11.5 -4.5t2.5 -12.5q-21 -87 -87.5 -141t-157.5 -54q-88 0 -138.5 48.5z" />
    <glyph glyph-name="uni1EB8" unicode="&#x1eb8;" horiz-adv-x="1007" 
d="M27 0q-8 0 -11.5 4.5t-1.5 12.5l174 733l142 636q1 7 6 10.5t11 3.5h751q8 0 11.5 -4.5t1.5 -12.5l-6 -25q-1 -7 -6 -10.5t-11 -3.5h-698l-132 -560h660q8 0 11.5 -4.5t1.5 -12.5l-6 -25q-1 -7 -6 -10.5t-11 -3.5h-664l-152 -672h710q8 0 12 -4.5t2 -12.5l-5 -25
q-1 -7 -6 -10.5t-11 -3.5h-767zM334 -258q-8 0 -11.5 4.5t-1.5 12.5l20 83q1 7 6 10.5t11 3.5h34q8 0 12 -4.5t2 -12.5l-20 -83q-1 -7 -6 -10.5t-11 -3.5h-35z" />
    <glyph glyph-name="uni1EB9" unicode="&#x1eb9;" horiz-adv-x="1015" 
d="M777.5 1002.5q85.5 -45.5 133 -132t47.5 -204.5q0 -57 -12 -120q-1 -14 -16 -14h-798q-10 -60 -10 -122q0 -182 91 -279t251 -97q291 0 387 322q6 14 18 14h31q13 0 13 -14q0 -2 -2 -10q-116 -364 -447 -364q-123 0 -214 50t-140.5 146.5t-49.5 233.5q0 149 57.5 296
t175.5 243.5t287 96.5q112 0 197.5 -45.5zM890 586q9 48 9 91q0 94 -38.5 166.5t-110.5 112.5t-170 40q-119 0 -208.5 -57t-146 -150t-82.5 -203h747zM338 -258q-8 0 -11.5 4.5t-1.5 12.5l20 83q1 7 6 10.5t11 3.5h34q8 0 12 -4.5t2 -12.5l-20 -83q-1 -7 -6 -10.5t-11 -3.5
h-35z" />
    <glyph glyph-name="uni1EBA" unicode="&#x1eba;" horiz-adv-x="1007" 
d="M27 0q-8 0 -11.5 4.5t-1.5 12.5l174 733l142 636q1 7 6 10.5t11 3.5h751q8 0 11.5 -4.5t1.5 -12.5l-6 -25q-1 -7 -6 -10.5t-11 -3.5h-698l-132 -560h660q8 0 11.5 -4.5t1.5 -12.5l-6 -25q-1 -7 -6 -10.5t-11 -3.5h-664l-152 -672h710q8 0 12 -4.5t2 -12.5l-5 -25
q-1 -7 -6 -10.5t-11 -3.5h-767zM744 1520q-8 0 -12 5t0 13q12 32 35 51.5t64 44.5q39 22 58 40.5t19 48.5q0 29 -24.5 46t-69.5 17q-88 0 -118 -77q-4 -13 -18 -13h-22q-8 0 -12 5t0 13q21 59 66.5 90.5t107.5 31.5q45 0 79 -16t51.5 -44.5t13.5 -63.5q-5 -39 -30 -62.5
t-69 -48.5q-35 -20 -52.5 -34t-26.5 -34q-6 -13 -18 -13h-22z" />
    <glyph glyph-name="uni1EBB" unicode="&#x1ebb;" horiz-adv-x="1015" 
d="M777.5 1002.5q85.5 -45.5 133 -132t47.5 -204.5q0 -57 -12 -120q-1 -14 -16 -14h-798q-10 -60 -10 -122q0 -182 91 -279t251 -97q291 0 387 322q6 14 18 14h31q13 0 13 -14q0 -2 -2 -10q-116 -364 -447 -364q-123 0 -214 50t-140.5 146.5t-49.5 233.5q0 149 57.5 296
t175.5 243.5t287 96.5q112 0 197.5 -45.5zM890 586q9 48 9 91q0 94 -38.5 166.5t-110.5 112.5t-170 40q-119 0 -208.5 -57t-146 -150t-82.5 -203h747zM632 1150q-8 0 -12 5t0 13q12 32 35 51.5t64 44.5q39 22 58 40.5t19 48.5q0 29 -24.5 46t-69.5 17q-88 0 -118 -77
q-4 -13 -18 -13h-22q-8 0 -12 5t0 13q21 59 66.5 90.5t107.5 31.5q45 0 79 -16t51.5 -44.5t13.5 -63.5q-5 -39 -30 -62.5t-69 -48.5q-35 -20 -52.5 -34t-26.5 -34q-6 -13 -18 -13h-22z" />
    <glyph glyph-name="uni1EBC" unicode="&#x1ebc;" horiz-adv-x="1007" 
d="M27 0q-8 0 -11.5 4.5t-1.5 12.5l174 733l142 636q1 7 6 10.5t11 3.5h751q8 0 11.5 -4.5t1.5 -12.5l-6 -25q-1 -7 -6 -10.5t-11 -3.5h-698l-132 -560h660q8 0 11.5 -4.5t1.5 -12.5l-6 -25q-1 -7 -6 -10.5t-11 -3.5h-664l-152 -672h710q8 0 12 -4.5t2 -12.5l-5 -25
q-1 -7 -6 -10.5t-11 -3.5h-767zM815 1560q-28 24 -58 68q-24 35 -43 52.5t-45 17.5q-37 0 -57 -32.5t-35 -99.5q-4 -14 -18 -14h-20q-8 0 -11.5 5t-2.5 12q22 86 55.5 132.5t92.5 46.5q45 0 73 -24t61 -70q24 -34 42 -51t42 -17q41 0 61 32t37 100q3 14 17 14h20
q8 0 11.5 -5.5t1.5 -15.5q-22 -85 -56 -130t-96 -45q-44 0 -72 24z" />
    <glyph glyph-name="uni1EBD" unicode="&#x1ebd;" horiz-adv-x="1015" 
d="M777.5 1002.5q85.5 -45.5 133 -132t47.5 -204.5q0 -57 -12 -120q-1 -14 -16 -14h-798q-10 -60 -10 -122q0 -182 91 -279t251 -97q291 0 387 322q6 14 18 14h31q13 0 13 -14q0 -2 -2 -10q-116 -364 -447 -364q-123 0 -214 50t-140.5 146.5t-49.5 233.5q0 149 57.5 296
t175.5 243.5t287 96.5q112 0 197.5 -45.5zM890 586q9 48 9 91q0 94 -38.5 166.5t-110.5 112.5t-170 40q-119 0 -208.5 -57t-146 -150t-82.5 -203h747zM703 1190q-28 24 -58 68q-24 35 -43 52.5t-45 17.5q-37 0 -57 -32.5t-35 -99.5q-4 -14 -18 -14h-20q-8 0 -11.5 5t-2.5 12
q22 86 55.5 132.5t92.5 46.5q45 0 73 -24t61 -70q24 -34 42 -51t42 -17q41 0 61 32t37 100q3 14 17 14h20q8 0 11.5 -5.5t1.5 -15.5q-22 -85 -56 -130t-96 -45q-44 0 -72 24z" />
    <glyph glyph-name="uni1EBE" unicode="&#x1ebe;" horiz-adv-x="1007" 
d="M27 0q-8 0 -11.5 4.5t-1.5 12.5l174 733l142 636q1 7 6 10.5t11 3.5h751q8 0 11.5 -4.5t1.5 -12.5l-6 -25q-1 -7 -6 -10.5t-11 -3.5h-698l-132 -560h660q8 0 11.5 -4.5t1.5 -12.5l-6 -25q-1 -7 -6 -10.5t-11 -3.5h-664l-152 -672h710q8 0 12 -4.5t2 -12.5l-5 -25
q-1 -7 -6 -10.5t-11 -3.5h-767zM956 1664q-4 -4 -10 -4q-5 0 -11 6l-10 11q-4 4 -4 10t5 11l250 235q5 5 11 5q5 0 10 -6l15 -16q4 -5 4 -10q0 -7 -6 -12zM466 1516q-2 4 -2 7q0 4 3 8t7 5l274 118q8 4 20 4h15q11 0 19 -5l220 -116q9 -4 9 -12q0 -3 -2 -9l-7 -12
q-6 -14 -20 -8l-232 98l-279 -101q-2 -1 -6 -1q-10 0 -13 10z" />
    <glyph glyph-name="uni1EBF" unicode="&#x1ebf;" horiz-adv-x="1015" 
d="M777.5 1002.5q85.5 -45.5 133 -132t47.5 -204.5q0 -57 -12 -120q-1 -14 -16 -14h-798q-10 -60 -10 -122q0 -182 91 -279t251 -97q291 0 387 322q6 14 18 14h31q13 0 13 -14q0 -2 -2 -10q-116 -364 -447 -364q-123 0 -214 50t-140.5 146.5t-49.5 233.5q0 149 57.5 296
t175.5 243.5t287 96.5q112 0 197.5 -45.5zM890 586q9 48 9 91q0 94 -38.5 166.5t-110.5 112.5t-170 40q-119 0 -208.5 -57t-146 -150t-82.5 -203h747zM844 1294q-4 -4 -10 -4q-5 0 -11 6l-10 11q-4 4 -4 10t5 11l250 235q5 5 11 5q5 0 10 -6l15 -16q4 -5 4 -10q0 -7 -6 -12z
M354 1146q-2 4 -2 7q0 4 3 8t7 5l274 118q8 4 20 4h15q11 0 19 -5l220 -116q9 -4 9 -12q0 -3 -2 -9l-7 -12q-6 -14 -20 -8l-232 98l-279 -101q-2 -1 -6 -1q-10 0 -13 10z" />
    <glyph glyph-name="uni1EC0" unicode="&#x1ec0;" horiz-adv-x="1007" 
d="M27 0q-8 0 -11.5 4.5t-1.5 12.5l174 733l142 636q1 7 6 10.5t11 3.5h751q8 0 11.5 -4.5t1.5 -12.5l-6 -25q-1 -7 -6 -10.5t-11 -3.5h-698l-132 -560h660q8 0 11.5 -4.5t1.5 -12.5l-6 -25q-1 -7 -6 -10.5t-11 -3.5h-664l-152 -672h710q8 0 12 -4.5t2 -12.5l-5 -25
q-1 -7 -6 -10.5t-11 -3.5h-767zM984 1664q-5 -3 -9 -3q-8 0 -12 7l-163 243q-3 6 -3 10q0 6 7 12l18 12q4 3 9 3q8 0 13 -8l157 -248q3 -4 3 -9q0 -8 -9 -13zM466 1516q-2 4 -2 7q0 4 3 8t7 5l274 118q8 4 20 4h15q11 0 19 -5l220 -116q9 -4 9 -12q0 -3 -2 -9l-7 -12
q-6 -14 -20 -8l-232 98l-279 -101q-2 -1 -6 -1q-10 0 -13 10z" />
    <glyph glyph-name="uni1EC1" unicode="&#x1ec1;" horiz-adv-x="1015" 
d="M777.5 1002.5q85.5 -45.5 133 -132t47.5 -204.5q0 -57 -12 -120q-1 -14 -16 -14h-798q-10 -60 -10 -122q0 -182 91 -279t251 -97q291 0 387 322q6 14 18 14h31q13 0 13 -14q0 -2 -2 -10q-116 -364 -447 -364q-123 0 -214 50t-140.5 146.5t-49.5 233.5q0 149 57.5 296
t175.5 243.5t287 96.5q112 0 197.5 -45.5zM890 586q9 48 9 91q0 94 -38.5 166.5t-110.5 112.5t-170 40q-119 0 -208.5 -57t-146 -150t-82.5 -203h747zM872 1294q-5 -3 -9 -3q-8 0 -12 7l-163 243q-3 6 -3 10q0 6 7 12l18 12q4 3 9 3q8 0 13 -8l157 -248q3 -4 3 -9
q0 -8 -9 -13zM354 1146q-2 4 -2 7q0 4 3 8t7 5l274 118q8 4 20 4h15q11 0 19 -5l220 -116q9 -4 9 -12q0 -3 -2 -9l-7 -12q-6 -14 -20 -8l-232 98l-279 -101q-2 -1 -6 -1q-10 0 -13 10z" />
    <glyph glyph-name="uni1EC2" unicode="&#x1ec2;" horiz-adv-x="1007" 
d="M27 0q-8 0 -11.5 4.5t-1.5 12.5l174 733l142 636q1 7 6 10.5t11 3.5h751q8 0 11.5 -4.5t1.5 -12.5l-6 -25q-1 -7 -6 -10.5t-11 -3.5h-698l-132 -560h660q8 0 11.5 -4.5t1.5 -12.5l-6 -25q-1 -7 -6 -10.5t-11 -3.5h-664l-152 -672h710q8 0 12 -4.5t2 -12.5l-5 -25
q-1 -7 -6 -10.5t-11 -3.5h-767zM464 1516q-1 2 -1 6q0 11 10 14l274 118q8 4 19 4h16q12 0 19 -5l220 -116q9 -4 9 -12l-2 -9l-6 -12q-5 -10 -13 -10l-8 2l-233 98l-278 -101q-2 -1 -6 -1q-10 0 -14 10zM933 1666q-8 0 -12 5t0 13q12 32 35 51.5t64 44.5q39 22 58 40.5
t19 48.5q0 29 -24.5 46t-69.5 17q-88 0 -118 -77q-4 -13 -18 -13h-22q-8 0 -12 5t0 13q21 59 66.5 90.5t107.5 31.5q45 0 79 -16t51.5 -44.5t13.5 -63.5q-5 -39 -30 -62.5t-69 -48.5q-35 -20 -52.5 -34t-26.5 -34q-6 -13 -18 -13h-22z" />
    <glyph glyph-name="uni1EC3" unicode="&#x1ec3;" horiz-adv-x="1015" 
d="M777.5 1002.5q85.5 -45.5 133 -132t47.5 -204.5q0 -57 -12 -120q-1 -14 -16 -14h-798q-10 -60 -10 -122q0 -182 91 -279t251 -97q291 0 387 322q6 14 18 14h31q13 0 13 -14q0 -2 -2 -10q-116 -364 -447 -364q-123 0 -214 50t-140.5 146.5t-49.5 233.5q0 149 57.5 296
t175.5 243.5t287 96.5q112 0 197.5 -45.5zM890 586q9 48 9 91q0 94 -38.5 166.5t-110.5 112.5t-170 40q-119 0 -208.5 -57t-146 -150t-82.5 -203h747zM352 1146q-1 2 -1 6q0 11 10 14l274 118q8 4 19 4h16q12 0 19 -5l220 -116q9 -4 9 -12l-2 -9l-6 -12q-5 -10 -13 -10l-8 2
l-233 98l-278 -101q-2 -1 -6 -1q-10 0 -14 10zM821 1296q-8 0 -12 5t0 13q12 32 35 51.5t64 44.5q39 22 58 40.5t19 48.5q0 29 -24.5 46t-69.5 17q-88 0 -118 -77q-4 -13 -18 -13h-22q-8 0 -12 5t0 13q21 59 66.5 90.5t107.5 31.5q45 0 79 -16t51.5 -44.5t13.5 -63.5
q-5 -39 -30 -62.5t-69 -48.5q-35 -20 -52.5 -34t-26.5 -34q-6 -13 -18 -13h-22z" />
    <glyph glyph-name="uni1EC4" unicode="&#x1ec4;" horiz-adv-x="1007" 
d="M27 0q-8 0 -11.5 4.5t-1.5 12.5l174 733l142 636q1 7 6 10.5t11 3.5h751q8 0 11.5 -4.5t1.5 -12.5l-6 -25q-1 -7 -6 -10.5t-11 -3.5h-698l-132 -560h660q8 0 11.5 -4.5t1.5 -12.5l-6 -25q-1 -7 -6 -10.5t-11 -3.5h-664l-152 -672h710q8 0 12 -4.5t2 -12.5l-5 -25
q-1 -7 -6 -10.5t-11 -3.5h-767zM464 1516q-1 2 -1 6q0 11 10 14l274 118q8 4 19 4h16q12 0 19 -5l220 -116q9 -4 9 -12l-2 -9l-6 -12q-5 -10 -13 -10l-8 2l-233 98l-278 -101q-2 -1 -6 -1q-10 0 -14 10zM852 1709q-28 24 -58 68q-24 35 -43 52.5t-45 17.5q-37 0 -57 -32.5
t-35 -99.5q-4 -14 -18 -14h-20q-8 0 -11.5 5t-2.5 12q22 86 55.5 132.5t92.5 46.5q45 0 73 -24t61 -70q24 -34 42 -51t42 -17q41 0 61 32t37 100q3 14 17 14h20q8 0 11.5 -5.5t1.5 -15.5q-22 -85 -56 -130t-96 -45q-44 0 -72 24z" />
    <glyph glyph-name="uni1EC5" unicode="&#x1ec5;" horiz-adv-x="1015" 
d="M777.5 1002.5q85.5 -45.5 133 -132t47.5 -204.5q0 -57 -12 -120q-1 -14 -16 -14h-798q-10 -60 -10 -122q0 -182 91 -279t251 -97q291 0 387 322q6 14 18 14h31q13 0 13 -14q0 -2 -2 -10q-116 -364 -447 -364q-123 0 -214 50t-140.5 146.5t-49.5 233.5q0 149 57.5 296
t175.5 243.5t287 96.5q112 0 197.5 -45.5zM890 586q9 48 9 91q0 94 -38.5 166.5t-110.5 112.5t-170 40q-119 0 -208.5 -57t-146 -150t-82.5 -203h747zM352 1146q-1 2 -1 6q0 11 10 14l274 118q8 4 19 4h16q12 0 19 -5l220 -116q9 -4 9 -12l-2 -9l-6 -12q-5 -10 -13 -10l-8 2
l-233 98l-278 -101q-2 -1 -6 -1q-10 0 -14 10zM740 1339q-28 24 -58 68q-24 35 -43 52.5t-45 17.5q-37 0 -57 -32.5t-35 -99.5q-4 -14 -18 -14h-20q-8 0 -11.5 5t-2.5 12q22 86 55.5 132.5t92.5 46.5q45 0 73 -24t61 -70q24 -34 42 -51t42 -17q41 0 61 32t37 100q3 14 17 14
h20q8 0 11.5 -5.5t1.5 -15.5q-22 -85 -56 -130t-96 -45q-44 0 -72 24z" />
    <glyph glyph-name="uni1EC6" unicode="&#x1ec6;" horiz-adv-x="1007" 
d="M27 0q-8 0 -11.5 4.5t-1.5 12.5l174 733l142 636q1 7 6 10.5t11 3.5h751q8 0 11.5 -4.5t1.5 -12.5l-6 -25q-1 -7 -6 -10.5t-11 -3.5h-698l-132 -560h660q8 0 11.5 -4.5t1.5 -12.5l-6 -25q-1 -7 -6 -10.5t-11 -3.5h-664l-152 -672h710q8 0 12 -4.5t2 -12.5l-5 -25
q-1 -7 -6 -10.5t-11 -3.5h-767zM334 -258q-8 0 -11.5 4.5t-1.5 12.5l20 83q1 7 6 10.5t11 3.5h34q8 0 12 -4.5t2 -12.5l-20 -83q-1 -7 -6 -10.5t-11 -3.5h-35zM473 1552q-1 2 -1 6q0 11 10 14l274 118q8 4 19 4h16q12 0 19 -5l220 -116q9 -4 9 -12l-2 -9l-6 -12
q-5 -10 -13 -10l-8 2l-233 98l-278 -101q-2 -1 -6 -1q-10 0 -14 10z" />
    <glyph glyph-name="uni1EC7" unicode="&#x1ec7;" horiz-adv-x="1015" 
d="M777.5 1002.5q85.5 -45.5 133 -132t47.5 -204.5q0 -57 -12 -120q-1 -14 -16 -14h-798q-10 -60 -10 -122q0 -182 91 -279t251 -97q291 0 387 322q6 14 18 14h31q13 0 13 -14q0 -2 -2 -10q-116 -364 -447 -364q-123 0 -214 50t-140.5 146.5t-49.5 233.5q0 149 57.5 296
t175.5 243.5t287 96.5q112 0 197.5 -45.5zM890 586q9 48 9 91q0 94 -38.5 166.5t-110.5 112.5t-170 40q-119 0 -208.5 -57t-146 -150t-82.5 -203h747zM338 -258q-8 0 -11.5 4.5t-1.5 12.5l20 83q1 7 6 10.5t11 3.5h34q8 0 12 -4.5t2 -12.5l-20 -83q-1 -7 -6 -10.5t-11 -3.5
h-35zM361 1182q-1 2 -1 6q0 11 10 14l274 118q8 4 19 4h16q12 0 19 -5l220 -116q9 -4 9 -12l-2 -9l-6 -12q-5 -10 -13 -10l-8 2l-233 98l-278 -101q-2 -1 -6 -1q-10 0 -14 10z" />
    <glyph glyph-name="uni1EC8" unicode="&#x1ec8;" horiz-adv-x="349" 
d="M39 0q-8 0 -11.5 4.5t-1.5 12.5l168 711l148 658q1 7 6 10.5t11 3.5h39q18 0 13 -17l-155 -655l-161 -714q-1 -7 -6 -10.5t-11 -3.5h-39zM398 1520q-8 0 -12 5t0 13q12 32 35 51.5t64 44.5q39 22 58 40.5t19 48.5q0 29 -24.5 46t-69.5 17q-88 0 -118 -77q-4 -13 -18 -13
h-22q-8 0 -12 5t0 13q21 59 66.5 90.5t107.5 31.5q45 0 79 -16t51.5 -44.5t13.5 -63.5q-5 -39 -30 -62.5t-69 -48.5q-35 -20 -52.5 -34t-26.5 -34q-6 -13 -18 -13h-22z" />
    <glyph glyph-name="uni1EC9" unicode="&#x1ec9;" horiz-adv-x="326" 
d="M299 1150q-8 0 -12 5t-1 13q13 32 36.5 52t62.5 43q40 23 58.5 41.5t18.5 48.5q0 29 -24.5 46t-69.5 17q-88 0 -118 -77q-4 -13 -18 -13h-21q-8 0 -12 5t-1 13q22 59 67 90.5t107 31.5q64 0 104.5 -31.5t40.5 -80.5q0 -31 -14 -53.5t-33.5 -37t-52.5 -33.5t-51.5 -33
t-27.5 -34q-4 -13 -18 -13h-21zM27 0q-16 0 -13 17l124 533l107 466q1 14 17 14h35q16 0 13 -17l-108 -461l-122 -538q-3 -14 -18 -14h-35z" />
    <glyph glyph-name="uni1ECA" unicode="&#x1eca;" horiz-adv-x="349" 
d="M39 0q-8 0 -11.5 4.5t-1.5 12.5l168 711l148 658q1 7 6 10.5t11 3.5h39q18 0 13 -17l-155 -655l-161 -714q-1 -7 -6 -10.5t-11 -3.5h-39zM-16 -258q-8 0 -11.5 4.5t-1.5 12.5l20 83q1 7 6 10.5t11 3.5h34q8 0 12 -4.5t2 -12.5l-20 -83q-1 -7 -6 -10.5t-11 -3.5h-35z" />
    <glyph glyph-name="uni1ECB" unicode="&#x1ecb;" horiz-adv-x="326" 
d="M27 0q-16 0 -13 17l124 533l107 466q1 14 17 14h35q16 0 13 -17l-108 -461l-122 -538q-3 -14 -18 -14h-35zM302 1189q-8 0 -12 4.5t-2 12.5l20 83q1 7 5.5 10.5t11.5 3.5h31q8 0 11.5 -4.5t2.5 -12.5l-20 -83q-1 -7 -6 -10.5t-11 -3.5h-31zM-30 -258q-8 0 -11.5 4.5
t-1.5 12.5l20 83q1 7 6 10.5t11 3.5h34q8 0 12 -4.5t2 -12.5l-20 -83q-1 -7 -6 -10.5t-11 -3.5h-35z" />
    <glyph glyph-name="uni1ECC" unicode="&#x1ecc;" horiz-adv-x="1426" 
d="M376 49q-127 69 -198 201t-71 314q0 199 83 397t250 328.5t403 130.5q166 0 293 -69t198 -200t71 -311q0 -200 -83.5 -399t-250 -330t-402.5 -131q-166 0 -293 69zM1036.5 160q150.5 124 224.5 310.5t74 369.5q0 165 -61 283t-172 179.5t-259 61.5q-217 0 -367.5 -124
t-224.5 -310.5t-74 -369.5q0 -165 61 -283t172 -179.5t259 -61.5q217 0 367.5 124zM557 -258q-8 0 -11.5 4.5t-1.5 12.5l20 83q1 7 6 10.5t11 3.5h34q8 0 12 -4.5t2 -12.5l-20 -83q-1 -7 -6 -10.5t-11 -3.5h-35z" />
    <glyph glyph-name="uni1ECD" unicode="&#x1ecd;" horiz-adv-x="1045" 
d="M251.5 33q-90.5 51 -141 148.5t-50.5 232.5q0 147 59.5 294t179.5 243.5t289 96.5q117 0 207.5 -50.5t140.5 -147.5t50 -230q0 -149 -59.5 -296.5t-178.5 -244.5t-288 -97q-118 0 -208.5 51zM715 124.5q105 90.5 157 226.5t52 269q0 118 -42 202.5t-118 129t-176 44.5
q-152 0 -257.5 -90.5t-157 -226t-51.5 -269.5q0 -118 42 -202.5t118.5 -129t177.5 -44.5q150 0 255 90.5zM378 -258q-8 0 -11.5 4.5t-1.5 12.5l20 83q1 7 6 10.5t11 3.5h34q8 0 12 -4.5t2 -12.5l-20 -83q-1 -7 -6 -10.5t-11 -3.5h-35z" />
    </font>
</defs>
</svg>
