<?xml version="1.0" standalone="no"?>
<!DOCTYPE svg PUBLIC "-//W3C//DTD SVG 1.1//EN" "http://www.w3.org/Graphics/SVG/1.1/DTD/svg11.dtd" >
<svg xmlns="http://www.w3.org/2000/svg" xmlns:xlink="http://www.w3.org/1999/xlink" version="1.1">
<metadata>
Created by FontForge 20170731 at Wed May 12 04:41:43 2021
 By Aleksey,,,
(c) Copyright David Jonathan Ross, 2016, 2021. All rights reserved.
</metadata>
<defs>
<font id="FormaDJRText-Italic" horiz-adv-x="1072" >
  <font-face 
    font-family="Forma DJR Text"
    font-weight="400"
    font-style="italic"
    font-stretch="normal"
    units-per-em="2000"
    panose-1="0 0 0 0 0 0 0 9 0 0"
    ascent="1500"
    descent="-500"
    x-height="1030"
    cap-height="1400"
    bbox="-721 -435 2223 2116"
    underline-thickness="50"
    underline-position="-150"
    slope="-13"
    unicode-range="U+0020-FB02"
  />
<missing-glyph horiz-adv-x="1200" 
d="M248 1388q2 5 6 8.5t9 3.5h1076q5 0 7.5 -3.5t1.5 -8.5l-396 -1716q-2 -5 -6 -8.5t-9 -3.5h-1076q-5 0 -7.5 3.5t-1.5 8.5zM393 1244l-329 -1428h743l329 1428h-743z" />
    <glyph glyph-name=".notdef" horiz-adv-x="1200" 
d="M248 1388q2 5 6 8.5t9 3.5h1076q5 0 7.5 -3.5t1.5 -8.5l-396 -1716q-2 -5 -6 -8.5t-9 -3.5h-1076q-5 0 -7.5 3.5t-1.5 8.5zM393 1244l-329 -1428h743l329 1428h-743z" />
    <glyph glyph-name=".null" horiz-adv-x="0" 
 />
    <glyph glyph-name="nonmarkingreturn" horiz-adv-x="666" 
 />
    <glyph glyph-name="space" unicode=" " horiz-adv-x="362" 
 />
    <glyph glyph-name="space" unicode="&#xa0;" horiz-adv-x="362" 
 />
    <glyph glyph-name="exclam" unicode="!" horiz-adv-x="405" 
d="M104 386q-10 0 -14 6t-2 16l225 975q3 17 22 17h143q22 0 17 -22l-226 -975q-3 -17 -21 -17h-144zM8 0q-10 0 -14.5 6t-2.5 16l37 163q5 18 22 18h157q10 0 14 -6t2 -16l-37 -164q-3 -17 -21 -17h-157z" />
    <glyph glyph-name="quotedbl" unicode="&#x22;" horiz-adv-x="641" 
d="M252 1006q-10 0 -14.5 5.5t-2.5 15.5l59 355q3 18 21 18h140q10 0 14.5 -6t1.5 -16l-104 -356q-6 -16 -23 -16h-92zM528 1006q-10 0 -14.5 5.5t-2.5 15.5l59 355q3 18 21 18h140q10 0 14.5 -6t1.5 -16l-104 -356q-6 -16 -23 -16h-92z" />
    <glyph glyph-name="numbersign" unicode="#" horiz-adv-x="1334" 
d="M1436 1084q17 0 17 -13q0 -3 -2 -9l-36 -99q-6 -15 -23 -15h-279l-182 -488h272q17 0 17 -14l-2 -8l-40 -99q-6 -15 -23 -15h-276l-115 -308q-6 -16 -22 -16h-130q-18 0 -18 14q0 3 2 9l112 301h-279l-115 -308q-6 -16 -22 -16h-131q-17 0 -17 14l2 9l112 301h-273
q-17 0 -17 13q0 3 2 9l40 99q6 15 22 15h277l183 488h-271q-8 0 -13 4t-5 10q0 2 2 8l37 99q6 15 22 15h279l112 300q6 16 23 16h130q8 0 13 -4t5 -11l-2 -8l-110 -293h280l112 300q6 16 22 16h130q18 0 18 -14q0 -3 -2 -9l-109 -293h271zM663 948l-183 -488h280l182 488
h-279z" />
    <glyph glyph-name="dollar" unicode="$" horiz-adv-x="1131" 
d="M850 1402q136 -38 216.5 -139.5t81.5 -258.5q0 -10 -5.5 -15t-14.5 -5h-155q-19 0 -19 20q-2 140 -80 208.5t-203 68.5q-81 0 -147.5 -28t-105.5 -83t-39 -132q0 -72 38.5 -118t95 -72.5t157.5 -60.5q120 -40 195 -77.5t127.5 -110.5t52.5 -192q0 -128 -64 -225.5
t-179 -151t-263 -53.5h-4l-37 -160q-3 -17 -21 -17h-145q-22 0 -17 22l41 179q-148 41 -235.5 148t-87.5 265q0 14 2 46q0 9 5.5 14t14.5 5h153q9 0 14 -5.5t4 -15.5q-2 -28 -2 -40q0 -90 39 -157.5t112.5 -104.5t174.5 -37q90 0 159.5 32t107.5 90.5t38 135.5
q0 76 -39.5 124t-97.5 75t-159 61q-119 40 -192 76.5t-124 108t-51 186.5q0 125 65 218.5t174.5 144t239.5 53.5l28 119q3 17 21 17h145q10 0 14.5 -6t2.5 -16z" />
    <glyph glyph-name="percent" unicode="%" horiz-adv-x="1635" 
d="M327.5 770.5q-62.5 31.5 -98 92.5t-35.5 146q0 99 40.5 193.5t121.5 156t196 61.5q81 0 143 -32t96.5 -93.5t34.5 -146.5q0 -98 -40 -192.5t-120.5 -155.5t-194.5 -61q-81 0 -143.5 31.5zM202 0q-7 0 -12 3.5t-5 8.5t6 12l1171 1365q10 11 24 11h126q7 0 12 -3.5t5 -8.5
q0 -4 -6 -12l-1172 -1365q-8 -11 -24 -11h-125zM589 902q45 50 65.5 118.5t20.5 125.5q0 75 -34 118t-94 43q-70 0 -115.5 -50t-66 -118.5t-20.5 -125.5q0 -75 34.5 -118t94.5 -43q70 0 115 50zM1026.5 11.5q-62.5 31.5 -98 92t-35.5 146.5q0 98 40.5 193t121.5 156.5
t195 61.5q82 0 144 -32t96.5 -93.5t34.5 -146.5q0 -99 -39.5 -193t-120 -155t-194.5 -61q-82 0 -144.5 31.5zM1288 143q45 50 65.5 118.5t20.5 125.5q0 75 -34 118t-94 43q-70 0 -115 -50t-65.5 -119t-20.5 -125q0 -75 34 -118t94 -43q70 0 115 50z" />
    <glyph glyph-name="ampersand" unicode="&#x26;" horiz-adv-x="1324" 
d="M248 12.5q-96 35.5 -156.5 113.5t-60.5 197q0 122 59 211.5t151 150t223 118.5q-82 148 -82 269q0 102 51 184.5t140.5 129.5t201.5 47q92 0 168 -32.5t120.5 -94t44.5 -146.5q0 -96 -56 -166.5t-139.5 -118.5t-220.5 -109q23 -36 77 -112l179 -267q98 137 144 320
q4 17 22 17h126q8 0 13 -4.5t5 -11.5q0 -4 -2 -10q-33 -127 -91 -238t-136 -201l156 -235q4 -5 4 -12q0 -5 -4.5 -8.5t-11.5 -3.5h-164q-15 0 -24 13l-90 131q-98 -81 -211 -124t-231 -43q-109 0 -205 35.5zM575 987.5q19 -54.5 55 -118.5q105 47 171 85.5t107.5 89.5
t41.5 117q0 75 -51 116t-127 41q-70 0 -119 -33.5t-73 -85.5t-24 -108q0 -49 19 -103.5zM664 147q87 37 161 106l-229 342q-8 12 -13 18q-10 14 -26.5 38.5t-28.5 43.5q-97 -48 -163.5 -96t-107.5 -112.5t-41 -147.5q0 -118 76.5 -173.5t191.5 -55.5q93 0 180 37z" />
    <glyph glyph-name="quotesingle" unicode="'" horiz-adv-x="366" 
d="M252 1006q-10 0 -14.5 5.5t-2.5 15.5l59 355q3 18 21 18h140q10 0 14.5 -6t1.5 -16l-104 -356q-6 -16 -23 -16h-92z" />
    <glyph glyph-name="parenleft" unicode="(" horiz-adv-x="486" 
d="M108 -280q-16 0 -22 17q-59 225 -59 441q0 331 119.5 658.5t335.5 611.5q8 12 24 12h103q8 0 12.5 -3.5t4.5 -8.5q0 -7 -4 -12q-206 -304 -318 -635t-112 -667q0 -202 41 -392l1 -6q0 -7 -5 -11.5t-13 -4.5h-108z" />
    <glyph glyph-name="parenright" unicode=")" horiz-adv-x="486" 
d="M412 1460q16 0 22 -17q59 -225 59 -441q0 -331 -119.5 -658.5t-335.5 -611.5q-8 -12 -24 -12h-103q-8 0 -12.5 3.5t-4.5 8.5q0 7 4 12q206 304 318 635t112 667q0 202 -41 392l-1 6q0 7 5 11.5t13 4.5h108z" />
    <glyph glyph-name="asterisk" unicode="*" horiz-adv-x="684" 
d="M406 866q-10 0 -14.5 5.5t-2.5 15.5l37 207l-199 -113q-6 -3 -11 -3q-10 0 -16 12l-25 62q-2 6 -2 9q0 10 12 16l203 101l-159 90q-10 6 -10 16q0 7 4 12l53 72q6 9 15 9q7 0 12 -4l158 -108l26 216q1 19 20 19h77q10 0 14.5 -5.5t2.5 -15.5l-38 -213l208 119q8 4 11 4
q10 0 15 -13l22 -64q2 -6 2 -9q0 -11 -12 -17l-209 -104l156 -90q10 -6 10 -15q0 -7 -4 -12l-51 -73q-6 -9 -14 -9q-7 0 -12 4l-156 107l-24 -210q-1 -18 -21 -18h-78z" />
    <glyph glyph-name="plus" unicode="+" horiz-adv-x="1010" 
d="M990 760q11 0 15.5 -5.5t2.5 -15.5l-24 -104q-3 -17 -21 -17h-359l-93 -401q-3 -17 -21 -17h-108q-10 0 -14 6t-2 16l91 396h-356q-10 0 -14.5 5.5t-2.5 15.5l24 104q3 17 21 17h362l93 403q3 17 21 17h107q22 0 17 -22l-92 -398h353z" />
    <glyph glyph-name="comma" unicode="," horiz-adv-x="324" 
d="M-115 -192q-15 0 -15 12q0 5 3 11l88 173l41 180q3 18 21 18h142q10 0 14.5 -6t2.5 -16l-38 -163q-3 -13 -11 -21l-160 -177q-8 -11 -24 -11h-64z" />
    <glyph glyph-name="hyphen" unicode="-" horiz-adv-x="513" 
d="M61 526q-22 0 -17 22l22 96q3 17 21 17h398q10 0 14.5 -5.5t2.5 -15.5l-22 -97q-5 -17 -22 -17h-397z" />
    <glyph glyph-name="hyphen" unicode="&#x2011;" horiz-adv-x="513" 
d="M61 526q-22 0 -17 22l22 96q3 17 21 17h398q10 0 14.5 -5.5t2.5 -15.5l-22 -97q-5 -17 -22 -17h-397z" />
    <glyph glyph-name="hyphen" unicode="&#x2010;" horiz-adv-x="513" 
d="M61 526q-22 0 -17 22l22 96q3 17 21 17h398q10 0 14.5 -5.5t2.5 -15.5l-22 -97q-5 -17 -22 -17h-397z" />
    <glyph glyph-name="hyphen" unicode="&#xad;" horiz-adv-x="513" 
d="M61 526q-22 0 -17 22l22 96q3 17 21 17h398q10 0 14.5 -5.5t2.5 -15.5l-22 -97q-5 -17 -22 -17h-397z" />
    <glyph glyph-name="period" unicode="." horiz-adv-x="335" 
d="M-30 0q-10 0 -14.5 6t-2.5 16l38 162q3 18 21 18h164q10 0 14.5 -6t2.5 -16l-38 -163q-3 -17 -21 -17h-164z" />
    <glyph glyph-name="slash" unicode="/" horiz-adv-x="650" 
d="M-177 -340q-17 0 -17 13q0 4 3 10l895 1703q7 14 23 14h106q16 0 16 -13q0 -6 -2 -10l-895 -1703q-7 -14 -23 -14h-106z" />
    <glyph glyph-name="zero" unicode="0" horiz-adv-x="1146" 
d="M273 41q-94 66 -141 183t-47 268q0 194 71 411.5t216 369.5t354 152q136 0 230.5 -66t142 -182.5t47.5 -267.5q0 -193 -71 -411.5t-216 -370.5t-356 -152q-136 0 -230 66zM758 259q101 138 150.5 328t49.5 339q0 166 -60 260t-177 94q-146 0 -247.5 -137.5t-151 -327.5
t-49.5 -339q0 -168 60.5 -261.5t176.5 -93.5q147 0 248 138z" />
    <glyph glyph-name="one" unicode="1" horiz-adv-x="705" 
d="M250 0q-10 0 -14.5 6t-2.5 16l170 692l104 478q-125 -97 -315 -156q-3 -1 -8 -1q-16 0 -11 19l24 106q3 14 18 20q97 33 185 87.5t153 121.5q10 11 24 11h145q11 0 15.5 -6t1.5 -16l-163 -664l-151 -697q-5 -17 -22 -17h-153z" />
    <glyph glyph-name="two" unicode="2" horiz-adv-x="1023" 
d="M-29 0q-10 0 -14 6t-2 16l41 179q36 153 121.5 253.5t185.5 156.5t253 119q124 51 193.5 88.5t115 96.5t45.5 146q0 114 -71 169t-177 55q-269 0 -326 -344q-3 -19 -21 -19h-131q-9 0 -14 5.5t-4 15.5q32 238 165 360t344 122q116 0 208.5 -37.5t147.5 -117t55 -200.5
q0 -128 -61.5 -214.5t-151 -139.5t-241.5 -121q-132 -58 -213 -103t-144.5 -113.5t-84.5 -163.5l-16 -71h672q10 0 14.5 -6t2.5 -16l-24 -105q-3 -17 -21 -17h-847z" />
    <glyph glyph-name="three" unicode="3" horiz-adv-x="1086" 
d="M248.5 21q-101.5 46 -156.5 135t-55 213q0 29 3 59q1 19 20 19h141q20 0 18 -20q-3 -24 -3 -48q0 -122 72 -192t208 -70q113 0 187 46t108.5 117t34.5 149q0 72 -32 128.5t-93.5 88.5t-146.5 32h-101q-10 0 -15 5.5t-2 15.5l21 92q5 17 22 17h105q116 0 228.5 50
t112.5 203q0 111 -69 166.5t-180 55.5q-122 0 -201 -73t-112 -220q-4 -18 -21 -18h-136q-10 0 -14.5 6t-3.5 16q41 213 173.5 322t327.5 109q118 0 213 -40.5t150 -117.5t55 -182q0 -86 -37.5 -158t-108 -121.5t-167.5 -69.5q104 -39 161.5 -122.5t57.5 -194.5
q0 -118 -62 -219.5t-181 -163t-282 -61.5q-138 0 -239.5 46z" />
    <glyph glyph-name="four" unicode="4" horiz-adv-x="1078" 
d="M1066 1400q10 0 14 -6t2 -16l-197 -856h127q10 0 14.5 -6t2.5 -16l-24 -102q-2 -8 -7.5 -13t-13.5 -5h-132l-84 -364q-5 -17 -22 -17h-148q-10 0 -14 6t-2 16l83 359h-628q-10 0 -14.5 6t-2.5 16l28 123q3 12 11 22l765 842q8 11 24 11h218zM814 1031l53 208l-648 -717
h478z" />
    <glyph glyph-name="five" unicode="5" horiz-adv-x="1077" 
d="M238.5 20q-95.5 45 -148 130t-52.5 200q0 21 1 32q2 19 20 19h142q19 0 19 -21q-1 -9 -1 -26q0 -71 29.5 -125.5t84.5 -85t129 -30.5q122 0 206 76t124.5 187t40.5 215q0 129 -64.5 199t-176.5 70q-99 0 -173 -54t-121 -159q-7 -14 -23 -14h-129q-10 0 -14.5 6t-1.5 16
l219 729q4 16 22 16h735q10 0 14.5 -6t2.5 -16l-24 -104q-3 -18 -21 -18h-602l-117 -389q61 64 132 97.5t158 33.5q110 0 195.5 -46t134 -136t48.5 -216q0 -149 -64 -293t-192 -238t-311 -94q-126 0 -221.5 45z" />
    <glyph glyph-name="six" unicode="6" horiz-adv-x="1110" 
d="M281.5 32.5q-97.5 57.5 -149 168t-51.5 266.5q0 141 40 308q72 305 224.5 477t392.5 172q117 0 204 -42t136 -122t51 -190q0 -9 -5.5 -14t-14.5 -5h-141q-18 0 -20 19q-2 95 -58.5 155.5t-160.5 60.5q-151 0 -255.5 -132.5t-158.5 -373.5q62 74 148.5 111.5t186.5 37.5
q116 0 208 -47.5t144.5 -137.5t52.5 -213q0 -138 -63.5 -266t-186 -209t-289.5 -81q-137 0 -234.5 57.5zM703 176q78 59 119 151.5t41 189.5q0 91 -35.5 153.5t-95.5 93.5t-135 31q-120 0 -206 -73t-115 -199q-13 -58 -13 -115q0 -89 31 -154.5t89 -101t137 -35.5
q105 0 183 59z" />
    <glyph glyph-name="seven" unicode="7" horiz-adv-x="915" 
d="M174 -1q-17 0 -17 13q0 6 2 10q135 339 310 653.5t380 580.5h-621q-10 0 -14 6t-2 16l23 105q5 17 22 17h804q10 0 14.5 -6t2.5 -16l-26 -111q-2 -10 -11 -22q-453 -623 -687 -1230q-6 -16 -22 -16h-158z" />
    <glyph glyph-name="eight" unicode="8" horiz-adv-x="1113" 
d="M259.5 23q-108.5 48 -169 135.5t-60.5 199.5q0 101 48.5 189t132.5 146.5t186 74.5q-77 37 -118.5 107t-41.5 155q0 102 57.5 192.5t164 146.5t245.5 56q119 0 215 -42.5t150.5 -121t54.5 -180.5q0 -77 -34.5 -149.5t-104 -126.5t-169.5 -77q105 -41 159.5 -123.5
t54.5 -187.5q0 -125 -68 -226t-187.5 -158.5t-267.5 -57.5q-139 0 -247.5 48zM812.5 843q62.5 38 94 98.5t31.5 127.5q0 66 -31 116.5t-85.5 77.5t-121.5 27q-77 0 -141.5 -35.5t-102 -97t-37.5 -133.5q0 -66 30 -115.5t85.5 -76.5t128.5 -27q87 0 149.5 38zM684.5 154.5
q74.5 41.5 114.5 111.5t40 151q0 77 -36 135t-101 89.5t-148 31.5q-100 0 -175.5 -43.5t-116 -114t-40.5 -150.5q0 -78 38 -135t103.5 -87t148.5 -30q98 0 172.5 41.5z" />
    <glyph glyph-name="nine" unicode="9" horiz-adv-x="1109" 
d="M250.5 17q-87.5 42 -136 122t-50.5 190q0 19 20 19h140q9 0 14.5 -5t5.5 -14q3 -96 59.5 -156t160.5 -60q150 0 255 132.5t159 373.5q-62 -74 -148.5 -111.5t-186.5 -37.5q-116 0 -208 47.5t-144.5 137.5t-52.5 213q0 138 63.5 266t185.5 209t289 81q137 0 235 -57.5
t149.5 -168t51.5 -266.5q0 -141 -40 -308q-72 -305 -224.5 -477t-392.5 -172q-117 0 -204.5 42zM801.5 677.5q86.5 73.5 115.5 198.5q13 58 13 115q0 89 -31 154.5t-89 101t-138 35.5q-105 0 -182.5 -59t-118.5 -151.5t-41 -189.5q0 -91 35.5 -153.5t95.5 -93.5t134 -31
q120 0 206.5 73.5z" />
    <glyph glyph-name="colon" unicode=":" horiz-adv-x="338" 
d="M164 828q-10 0 -14.5 6t-2.5 16l38 162q3 18 21 18h164q10 0 14.5 -6t2.5 -16l-38 -163q-3 -17 -21 -17h-164zM-30 0q-10 0 -14.5 6t-2.5 16l38 162q3 18 21 18h164q10 0 14.5 -6t2.5 -16l-38 -163q-3 -17 -21 -17h-164z" />
    <glyph glyph-name="semicolon" unicode=";" horiz-adv-x="338" 
d="M162 828q-10 0 -14.5 6t-2.5 16l38 162q3 18 21 18h164q10 0 14.5 -6t2.5 -16l-38 -163q-3 -17 -21 -17h-164zM-115 -192q-15 0 -15 12q0 5 3 11l88 173l41 180q3 18 21 18h142q10 0 14.5 -6t2.5 -16l-38 -163q-3 -13 -11 -21l-160 -177q-8 -11 -24 -11h-64z" />
    <glyph glyph-name="less" unicode="&#x3c;" horiz-adv-x="1010" 
d="M95 610q-15 7 -12 25l25 110q4 15 18 21l954 393q6 3 10 3q7 0 9.5 -5.5t0.5 -14.5l-27 -116q-3 -14 -18 -20l-814 -327l659 -327q17 -8 12 -25l-22 -98q-3 -14 -15 -14q-4 0 -10 3z" />
    <glyph glyph-name="equal" unicode="=" horiz-adv-x="1010" 
d="M154 848q-10 0 -14.5 6t-2.5 16l24 103q2 8 7.5 13t13.5 5h861q10 0 15 -6t3 -16l-24 -104q-3 -17 -21 -17h-862zM48 387q-10 0 -14.5 6t-2.5 16l24 104q3 17 21 17h861q11 0 15.5 -6t2.5 -16l-24 -103q-2 -8 -7.5 -13t-13.5 -5h-862z" />
    <glyph glyph-name="greater" unicode="&#x3e;" horiz-adv-x="1010" 
d="M11 218q-6 -2 -9 -2q-7 0 -10 5.5t-1 14.5l26 114q3 14 17 20l815 329l-660 326q-15 8 -11 25l24 99q3 14 14 14q4 0 10 -3l771 -392q14 -7 11 -25l-25 -110q-3 -15 -17 -21z" />
    <glyph glyph-name="question" unicode="?" horiz-adv-x="974" 
d="M381 386q-10 0 -14.5 6t-2.5 16q24 95 71.5 168.5t100 124t132.5 113.5q68 54 107 90.5t64 83t25 102.5q0 93 -66.5 142.5t-173.5 49.5q-126 0 -198 -69.5t-103 -211.5q-4 -18 -22 -18h-136q-10 0 -14.5 5.5t-3.5 15.5q89 421 488 421q116 0 208.5 -36.5t146 -110
t53.5 -181.5q0 -81 -31.5 -144t-78 -109t-126.5 -109q-73 -58 -118.5 -100.5t-85 -100.5t-58.5 -131q-5 -17 -21 -17h-143zM283 0q-10 0 -14.5 6t-2.5 16l37 163q5 18 22 18h162q10 0 14.5 -6t2.5 -16l-37 -164q-3 -17 -21 -17h-163z" />
    <glyph glyph-name="at" unicode="@" horiz-adv-x="1698" 
d="M1317.5 1296.5q158.5 -83.5 247.5 -240.5t89 -370q0 -152 -44 -301t-132 -246.5t-213 -97.5q-95 0 -158 48t-73 135q-59 -87 -140.5 -137.5t-183.5 -50.5q-97 0 -168.5 46.5t-109.5 131t-38 196.5q0 130 52.5 269t159 233.5t259.5 94.5q106 0 177 -48.5t101 -140.5
l33 156q3 17 21 17h131q10 0 14.5 -6t2.5 -16l-141 -614q-15 -60 -15 -100q0 -55 28.5 -84.5t81.5 -29.5q78 0 134 88.5t84.5 217.5t28.5 246q0 182 -75 315.5t-209.5 204t-310.5 70.5q-251 0 -429.5 -137.5t-268.5 -349t-90 -429.5q0 -196 73.5 -338t208.5 -217t316 -75
q257 0 453 160q10 9 25 7l80 -10q16 -3 16 -13q0 -5 -5 -10q-112 -110 -257 -170.5t-318 -60.5q-207 0 -366.5 86.5t-248 250t-88.5 386.5q0 246 107 481t312 385.5t485 150.5q203 0 361.5 -83.5zM944.5 227q76.5 78 115.5 193t39 220q0 125 -55.5 189.5t-153.5 64.5
q-115 0 -189.5 -80t-108 -192t-33.5 -210q0 -120 53 -191.5t151 -71.5q105 0 181.5 78z" />
    <glyph glyph-name="A" unicode="A" horiz-adv-x="1258" 
d="M1130 21v-4q0 -17 -18 -17h-143q-19 0 -20 19l-46 404h-570l-234 -410q-8 -13 -23 -13h-161q-16 0 -16 13q0 5 3 11l805 1363q7 13 23 13h211q18 0 21 -19zM888 573l-78 693l-395 -693h473z" />
    <glyph glyph-name="B" unicode="B" horiz-adv-x="1237" 
d="M10 0q-10 0 -14.5 6t-1.5 16l170 696l144 665q5 17 22 17h517q216 0 318 -85.5t102 -224.5q0 -134 -89.5 -227t-250.5 -124q233 -68 233 -297q0 -126 -67.5 -226.5t-198 -158t-311.5 -57.5h-573zM742 808q108 0 183.5 34t113 93t37.5 134q0 91 -60 143.5t-190 52.5h-352
l-114 -457h382zM604 135q119 0 202 39.5t124.5 109t41.5 158.5q0 108 -69 170t-202 62h-373l-116 -539h392z" />
    <glyph glyph-name="C" unicode="C" horiz-adv-x="1365" 
d="M371.5 45.5q-132.5 70.5 -205.5 206.5t-73 327q0 204 86 399t254 321t401 126q159 0 280 -61t190 -172t73 -259q0 -20 -20 -20h-142q-18 0 -20 19q-8 166 -106 256.5t-263 90.5q-182 0 -303.5 -111t-179 -274t-57.5 -319q0 -150 49 -251.5t139 -152t214 -50.5
q160 0 274 89t173 278q6 17 22 17h146q17 0 17 -16q0 -6 -1 -9q-74 -248 -239 -376.5t-401 -128.5q-175 0 -307.5 70.5z" />
    <glyph glyph-name="D" unicode="D" horiz-adv-x="1339" 
d="M10 0q-10 0 -14.5 6t-1.5 16l171 699l143 662q5 17 22 17h395q181 0 319.5 -68t215.5 -197.5t77 -308.5q0 -200 -91 -391t-268 -313t-421 -122h-547zM563 142q194 0 325.5 107.5t193.5 266.5t62 314q0 138 -52 234t-148 145t-225 49h-244l-133 -534l-126 -582h347z" />
    <glyph glyph-name="E" unicode="E" 
d="M10 0q-10 0 -14.5 6t-1.5 16l172 703l142 658q5 17 22 17h843q10 0 14.5 -6t2.5 -16l-24 -102q-3 -18 -21 -18h-673l-110 -440h628q22 0 17 -22l-24 -102q-3 -17 -21 -17h-633l-115 -535h684q10 0 14.5 -6t2.5 -16l-24 -103q-3 -17 -21 -17h-860z" />
    <glyph glyph-name="F" unicode="F" horiz-adv-x="1017" 
d="M10 0q-10 0 -14.5 6t-1.5 16l166 677l148 684q5 17 22 17h818q10 0 14.5 -6t2.5 -16l-24 -102q-3 -18 -21 -18h-647l-126 -502h619q10 0 14.5 -6t2.5 -16l-24 -102q-3 -17 -21 -17h-623l-129 -598q-1 -8 -7.5 -12.5t-14.5 -4.5h-154z" />
    <glyph glyph-name="G" unicode="G" horiz-adv-x="1388" 
d="M351 50q-128 75 -194.5 211t-66.5 316q0 216 90 411t259.5 316t396.5 121q151 0 270.5 -56t190.5 -158.5t81 -236.5v-2q0 -9 -5 -13.5t-14 -4.5h-145q-18 0 -20 18q-19 146 -115.5 227t-249.5 81q-176 0 -299.5 -105t-185 -267.5t-61.5 -332.5q0 -147 46.5 -249t133 -154
t205.5 -52q126 0 226 57.5t166.5 162t95.5 244.5h-427q-10 0 -14.5 5.5t-2.5 15.5l24 103q3 17 21 17h596q10 0 14.5 -6.5t2.5 -19.5q-37 -230 -133.5 -392.5t-243.5 -247t-334 -84.5q-180 0 -308 75z" />
    <glyph glyph-name="H" unicode="H" horiz-adv-x="1335" 
d="M1411 1400q10 0 14.5 -6t1.5 -16l-169 -686l-145 -675q-5 -17 -22 -17h-155q-10 0 -14.5 6t-2.5 16l156 637l5 22h-748l-4 -22l-141 -642q-1 -8 -7.5 -12.5t-14.5 -4.5h-155q-10 0 -14.5 6t-1.5 16l164 670l150 691q5 17 22 17h155q10 0 14.5 -6t2.5 -16l-135 -556h745
l122 561q1 8 7.5 12.5t14.5 4.5h155z" />
    <glyph glyph-name="I" unicode="I" horiz-adv-x="427" 
d="M21 0q-10 0 -14.5 6t-1.5 16l169 692l145 669q5 17 22 17h153q10 0 14.5 -6t2.5 -16l-164 -664l-151 -697q-1 -8 -7.5 -12.5t-14.5 -4.5h-153z" />
    <glyph glyph-name="J" unicode="J" horiz-adv-x="986" 
d="M117.5 70.5q-96.5 98.5 -96.5 278.5q0 67 11 130q3 18 21 18h143q10 0 14.5 -6t3.5 -16q-10 -70 -10 -115q0 -119 50 -179.5t150 -60.5q70 0 123.5 34t95.5 114t75 216l98 412l105 487q4 17 22 17h158q10 0 14.5 -6t2.5 -16l-119 -482l-95 -413q-42 -184 -109.5 -296.5
t-161.5 -163.5t-220 -51q-179 0 -275.5 98.5z" />
    <glyph glyph-name="K" unicode="K" horiz-adv-x="1138" 
d="M308 1383q5 17 22 17h153q10 0 14.5 -6t2.5 -16l-142 -586l-8 -35l653 633q9 10 24 10h192q7 0 11.5 -3t4.5 -8q0 -6 -7 -13l-579 -538l357 -815q2 -6 2 -9q0 -6 -4.5 -10t-12.5 -4h-170q-15 0 -23 15l-291 688l-214 -199l-108 -487q-1 -8 -7.5 -12.5t-14.5 -4.5h-153
q-10 0 -14.5 6t-1.5 16l170 699z" />
    <glyph glyph-name="L" unicode="L" horiz-adv-x="955" 
d="M10 0q-10 0 -14.5 6t-1.5 16l174 714l140 647q5 17 22 17h154q10 0 14.5 -6t2.5 -16l-156 -634l-131 -602h614q10 0 14 -6t2 -16l-23 -103q-3 -17 -21 -17h-790z" />
    <glyph glyph-name="M" unicode="M" horiz-adv-x="1600" 
d="M10 0q-10 0 -14.5 6t-1.5 16l162 664l153 697q4 17 22 17h200q19 0 20 -18l179 -1148l702 1153q7 13 23 13h221q10 0 14.5 -6t2.5 -16l-167 -692l-147 -669q-1 -8 -7.5 -12.5t-14.5 -4.5h-150q-22 0 -17 22l126 534l100 421l42 172l-693 -1136q-7 -13 -23 -13h-117
q-18 0 -21 18l-181 1149l-41 -193l-92 -418l-123 -539q-3 -17 -21 -17h-136z" />
    <glyph glyph-name="N" unicode="N" horiz-adv-x="1347" 
d="M10 0q-10 0 -14.5 6t-1.5 16l168 690l147 671q4 17 22 17h170q17 0 23 -15l481 -1139l123 549l133 588q5 17 22 17h140q22 0 17 -22l-162 -666l-153 -695q-4 -17 -22 -17h-180q-17 0 -23 15l-476 1128l-120 -548l-132 -578q-3 -17 -21 -17h-141z" />
    <glyph glyph-name="O" unicode="O" horiz-adv-x="1467" 
d="M380 46q-137 71 -213.5 207t-76.5 323q0 205 90.5 401t265.5 322t415 126q176 0 312.5 -71t213 -206.5t76.5 -321.5q0 -206 -90.5 -402.5t-265 -322.5t-414.5 -126q-176 0 -313 71zM1018 232q129 111 190.5 275t61.5 323q0 144 -52 245t-145.5 152.5t-217.5 51.5
q-190 0 -319.5 -111t-191 -275t-61.5 -323q0 -144 51.5 -245t145.5 -152.5t219 -51.5q190 0 319 111z" />
    <glyph glyph-name="P" unicode="P" horiz-adv-x="1128" 
d="M746 1400q153 0 254 -47.5t149 -132.5t48 -198q0 -141 -70 -250.5t-202 -170.5t-312 -61h-313l-114 -523q-1 -8 -7.5 -12.5t-14.5 -4.5h-154q-10 0 -14.5 6t-1.5 16l169 696l145 665q5 17 22 17h416zM627 679q126 0 212 42.5t129 117.5t43 171q0 115 -66 182.5t-212 67.5
h-262l-131 -541l-9 -40h296z" />
    <glyph glyph-name="Q" unicode="Q" horiz-adv-x="1476" 
d="M1323 146q10 0 14.5 -6t2.5 -16l-25 -107q-3 -17 -21 -17h-404q-95 -25 -197 -25q-176 0 -313 71t-213.5 207t-76.5 323q0 205 90.5 401t265.5 322t415 126q176 0 312.5 -71t213 -206.5t76.5 -321.5q0 -127 -36 -255.5t-108 -240.5t-175 -187l47 3h132zM334.5 325
q51.5 -101 145.5 -152.5t219 -51.5q190 0 319 111t190.5 275t61.5 323q0 144 -52 245t-145.5 152.5t-217.5 51.5q-190 0 -319.5 -111t-191 -275t-61.5 -323q0 -144 51.5 -245z" />
    <glyph glyph-name="R" unicode="R" horiz-adv-x="1207" 
d="M1187.5 829.5q-50.5 -93.5 -147 -155t-230.5 -83.5l228 -568q2 -4 2 -10q0 -13 -17 -13h-172q-16 0 -22 16l-83 219l-137 342h-309l-114 -560q-1 -8 -7.5 -12.5t-14.5 -4.5h-154q-10 0 -14.5 6t-1.5 16l169 696l145 665q5 17 22 17h469q149 0 247 -45.5t145 -126.5
t47 -189q0 -116 -50.5 -209.5zM988 1197q-64 63 -205 63h-312l-127 -524l-5 -20h343q121 0 204.5 40t124.5 110t41 160q0 108 -64 171z" />
    <glyph glyph-name="S" unicode="S" horiz-adv-x="1235" 
d="M310.5 27.5q-127.5 51.5 -201 152t-73.5 241.5q0 14 2 42q1 9 6.5 14t14.5 5h154q21 0 19 -20q-5 -104 37 -181t128 -119t208 -42q116 0 195.5 35.5t118.5 94.5t39 129q0 73 -45 119.5t-112 73.5t-183 60q-140 40 -224.5 76.5t-144 107t-59.5 185.5q0 119 66.5 215
t190.5 152t291 56q144 0 259 -44t183.5 -138t68.5 -236q0 -22 -20 -22h-155q-18 0 -20 20q-3 139 -91.5 207.5t-238.5 68.5q-100 0 -177.5 -29.5t-121.5 -85t-44 -131.5q0 -70 44.5 -115t111 -71.5t181.5 -59.5q140 -40 226.5 -77t147 -108.5t60.5 -186.5q0 -121 -65 -221
t-190.5 -159.5t-298.5 -59.5q-160 0 -287.5 51.5z" />
    <glyph glyph-name="T" unicode="T" horiz-adv-x="1052" 
d="M330 0q-10 0 -14.5 6t-2.5 16l166 671l122 565h-383q-10 0 -14.5 6t-2.5 16l24 103q5 17 21 17h965q10 0 14.5 -6t2.5 -16l-24 -102q-4 -18 -22 -18h-387l-140 -565l-145 -676q-3 -17 -21 -17h-159z" />
    <glyph glyph-name="U" unicode="U" horiz-adv-x="1241" 
d="M299 27.5q-103 52.5 -155.5 146.5t-52.5 218q0 76 19 155l100 425l90 411q3 17 21 17h156q10 0 14.5 -6t2.5 -16l-99 -402l-100 -433q-16 -67 -16 -133q0 -130 72 -207.5t215 -77.5q150 0 249.5 96t144.5 289l109 463l88 410q1 8 7.5 12.5t14.5 4.5h145q22 0 17 -22
l-99 -406l-108 -462q-62 -266 -207 -400.5t-379 -134.5q-146 0 -249 52.5z" />
    <glyph glyph-name="V" unicode="V" horiz-adv-x="1226" 
d="M215 1379v4q0 17 18 17h154q18 0 20 -19l119 -1241l692 1246q8 14 23 14h157q8 0 12.5 -3.5t4.5 -9.5q0 -3 -4 -11l-787 -1363q-7 -13 -23 -13h-205q-19 0 -20 19z" />
    <glyph glyph-name="W" unicode="W" horiz-adv-x="1760" 
d="M277 0q-18 0 -20 20l-34 1360q0 20 20 20h140q19 0 19 -20l8 -1204l554 1209q6 15 22 15h178q20 0 20 -20l-4 -1212l569 1217q8 15 23 15h148q17 0 17 -13q0 -6 -2 -10l-669 -1363q-6 -14 -23 -14h-183q-9 0 -14.5 5t-5.5 15l-22 1121l-529 -1126q-7 -15 -23 -15h-189z
" />
    <glyph glyph-name="X" unicode="X" horiz-adv-x="1193" 
d="M-70 0q-8 0 -12.5 3t-4.5 8q0 6 6 13l623 723l-268 630q-2 4 -2 10q0 13 17 13h167q16 0 22 -15l205 -501l415 504q9 12 24 12h177q16 0 16 -11q0 -5 -6 -13l-559 -650l296 -703q2 -4 2 -10q0 -13 -17 -13h-165q-16 0 -22 16l-232 579l-481 -583q-9 -12 -23 -12h-178z
" />
    <glyph glyph-name="Y" unicode="Y" horiz-adv-x="1134" 
d="M217 1378q-1 2 -1 6q0 16 18 16h157q18 0 22 -17l185 -717l516 722q9 12 24 12h165q8 0 12.5 -3.5t4.5 -8.5t-5 -12l-665 -884l-103 -475q-5 -17 -22 -17h-155q-10 0 -14.5 6t-2.5 16l118 474z" />
    <glyph glyph-name="Z" unicode="Z" horiz-adv-x="1139" 
d="M-43 0q-10 0 -14.5 6t-2.5 16l28 120q2 10 12 22l1041 1094h-720q-10 0 -14.5 6t-2.5 16l24 103q3 17 21 17h928q10 0 14.5 -6t2.5 -16l-29 -124q-2 -10 -12 -22l-1036 -1090h780q10 0 14.5 -6t2.5 -16l-24 -103q-3 -17 -21 -17h-992z" />
    <glyph glyph-name="bracketleft" unicode="[" horiz-adv-x="505" 
d="M-69 -280q-10 0 -14 6t-2 16l392 1701q5 17 22 17h309q10 0 14.5 -6t2.5 -16l-25 -102q-4 -18 -21 -18h-168l-336 -1456h164q10 0 14.5 -6t2.5 -16l-24 -103q-3 -17 -21 -17h-310z" />
    <glyph glyph-name="backslash" unicode="\" horiz-adv-x="535" 
d="M239 -340q-18 0 -20 19l-52 1701q0 20 20 20h93q18 0 20 -19l52 -1701q0 -20 -20 -20h-93z" />
    <glyph glyph-name="bracketright" unicode="]" horiz-adv-x="507" 
d="M-98 -280q-10 0 -14.5 6t-2.5 16l23 102q4 18 22 18h168l335 1456h-162q-11 0 -15.5 6t-2.5 16l25 103q4 17 22 17h309q22 0 17 -22l-393 -1701q-3 -17 -21 -17h-310z" />
    <glyph glyph-name="asciicircum" unicode="^" horiz-adv-x="1013" 
d="M87 564q-17 0 -17 13q0 6 4 11l565 800q9 12 23 12h98q17 0 21 -17l192 -797q1 -2 1 -6q0 -16 -18 -16h-98q-17 0 -22 17l-151 662l-461 -666q-7 -13 -23 -13h-114z" />
    <glyph glyph-name="underscore" unicode="_" horiz-adv-x="807" 
d="M-132 -340q-22 0 -17 22l22 96q2 8 7.5 13t13.5 5h681q10 0 14.5 -6t2.5 -16l-23 -97q-3 -17 -21 -17h-680z" />
    <glyph glyph-name="grave" unicode="`" horiz-adv-x="723" 
d="M732 1149q-8 -17 -25 -11l-421 163q-13 4 -13 16l2 9l41 103q5 12 15 12q5 0 11 -3l404 -202q12 -6 12 -17q0 -3 -2 -9z" />
    <glyph glyph-name="a" unicode="a" horiz-adv-x="1080" 
d="M1082 1030q10 0 14.5 -6t2.5 -16l-118 -485l-111 -506q-1 -8 -7.5 -12.5t-14.5 -4.5h-140q-10 0 -14.5 6t-2.5 16l31 121q-61 -74 -142 -116t-179 -42q-111 0 -191.5 51t-123 143.5t-42.5 214.5q0 144 57.5 295t175.5 254t289 103q119 0 198.5 -55t111.5 -158l38 180
q5 17 21 17h147zM657.5 195q83.5 85 126.5 210t43 240q0 136 -61 205.5t-172 69.5q-127 0 -209.5 -86.5t-119.5 -208t-37 -227.5q0 -132 59.5 -210t170.5 -78q116 0 199.5 85z" />
    <glyph glyph-name="b" unicode="b" horiz-adv-x="1081" 
d="M872 995q81 -51 123.5 -143t42.5 -215q0 -144 -57.5 -295t-175.5 -254t-289 -103q-120 0 -200 54.5t-113 157.5l-37 -179q-5 -17 -21 -17h-147q-10 0 -14.5 6t-2.5 16l147 609l168 751q3 17 21 17h148q10 0 14.5 -6t2.5 -16l-114 -480q60 70 138.5 109t173.5 39
q111 0 192 -51zM697.5 197.5q82.5 86.5 119.5 208t37 227.5q0 132 -60 210t-171 78q-116 0 -199.5 -85t-126 -210t-42.5 -240q0 -136 61 -205.5t171 -69.5q128 0 210.5 86.5z" />
    <glyph glyph-name="c" unicode="c" horiz-adv-x="1042" 
d="M258.5 30q-99.5 52 -154 152.5t-54.5 243.5q0 152 64 296.5t190 236.5t301 92q120 0 211.5 -45t143 -127.5t53.5 -192.5q0 -19 -19 -19h-135q-19 0 -19 19q-5 113 -70.5 175t-174.5 62q-119 0 -201 -78t-121 -194.5t-39 -230.5q0 -155 69 -234.5t192 -79.5
q109 0 188 62.5t117 193.5q6 17 23 17h135q10 0 14.5 -6.5t1.5 -17.5q-54 -185 -179 -281t-304 -96q-133 0 -232.5 52z" />
    <glyph glyph-name="d" unicode="d" horiz-adv-x="1085" 
d="M1165 1400q10 0 14.5 -6t2.5 -16l-187 -789l-127 -572q-3 -17 -21 -17h-138q-10 0 -15 6t-2 16l31 122q-62 -74 -142.5 -116.5t-179.5 -42.5q-111 0 -192 51t-123.5 143t-42.5 215q0 143 58 294.5t176 254.5t288 103q119 0 198.5 -55t111.5 -158l121 550q3 17 21 17h148z
M657.5 195q83.5 85 126 210t42.5 240q0 136 -60.5 205.5t-170.5 69.5q-128 0 -211 -86.5t-120 -208t-37 -227.5q0 -132 60 -210t171 -78q116 0 199.5 85z" />
    <glyph glyph-name="e" unicode="e" 
d="M827.5 1000.5q95.5 -50.5 147.5 -143.5t52 -217q0 -58 -14 -130q-3 -17 -21 -17h-758q-5 -32 -5 -76q0 -153 72 -232.5t201 -79.5q227 0 303 241q6 17 23 17h134q10 0 14.5 -6.5t1.5 -17.5q-53 -178 -176.5 -269t-302.5 -91q-134 0 -235.5 51.5t-157.5 152t-56 242.5
q0 154 64.5 298t190 236t300.5 92q127 0 222.5 -50.5zM843 615q5 35 5 60q0 74 -30 131t-87 88.5t-135 31.5q-134 0 -220 -87t-122 -224h589z" />
    <glyph glyph-name="f" unicode="f" horiz-adv-x="671" 
d="M826.5 1404.5q3.5 -6.5 1.5 -15.5l-21 -91q-2 -9 -8.5 -12.5t-15.5 -1.5q-39 9 -89 9q-132 0 -174 -184l-18 -79h220q10 0 14.5 -6t2.5 -16l-22 -94q-3 -18 -21 -18h-225l-100 -431l-97 -448q-3 -17 -21 -17h-154q-10 0 -14.5 6t-2.5 16l109 443l100 431h-140
q-10 0 -14.5 6t-2.5 16l22 95q5 17 22 17h144l22 93q36 158 129.5 231t212.5 73q67 0 128 -14q9 -2 12.5 -8.5z" />
    <glyph glyph-name="g" unicode="g" horiz-adv-x="1081" 
d="M1085 1030q10 0 14.5 -6t2.5 -16l-122 -510l-94 -424q-54 -237 -182.5 -351.5t-340.5 -114.5q-119 0 -214 40t-148.5 114t-53.5 172q0 19 20 19h144q19 0 19 -20q1 -94 68 -146t174 -52q138 0 216.5 81.5t119.5 259.5l18 75q-132 -154 -319 -154q-111 0 -192.5 50
t-124.5 141.5t-43 211.5q0 142 57.5 292t175.5 252t288 102q120 0 200 -54.5t113 -156.5l38 178q3 17 21 17h145zM662 206.5q83 84.5 125.5 208t42.5 236.5q0 133 -61 201t-173 68q-127 0 -209 -85.5t-119 -205.5t-37 -225q0 -129 60.5 -205.5t172.5 -76.5q115 0 198 84.5z
" />
    <glyph glyph-name="h" unicode="h" horiz-adv-x="1052" 
d="M-1 0q-10 0 -14.5 6t-2.5 16l110 446l204 915q3 17 21 17h145q10 0 14.5 -6t2.5 -16l-128 -529q59 89 154 147t205 58q85 0 151 -34t103.5 -100.5t37.5 -160.5q0 -57 -15 -125l-44 -194l-93 -423q-5 -17 -22 -17h-147q-11 0 -15.5 6t-1.5 16l98 401l43 197q13 55 13 104
q0 94 -48 142.5t-132 48.5q-110 0 -194.5 -86t-142.5 -224l-43 -184l-87 -404q-5 -17 -22 -17h-150z" />
    <glyph glyph-name="i" unicode="i" horiz-adv-x="398" 
d="M7 0q-10 0 -14.5 6t-1.5 16l122 510l106 481q4 17 22 17h149q10 0 14.5 -6t2.5 -16l-116 -475l-113 -516q-3 -17 -21 -17h-150zM277 1159q-10 0 -14.5 6t-2.5 16l37 154q3 17 21 17h145q10 0 14.5 -6t2.5 -16l-37 -153q-3 -18 -21 -18h-145z" />
    <glyph glyph-name="j" unicode="j" horiz-adv-x="397" 
d="M-71 -340q-10 0 -14.5 6t-2.5 16l155 648l152 683q3 17 21 17h150q10 0 14.5 -6t2.5 -16l-163 -678l-144 -653q-1 -8 -7.5 -12.5t-14.5 -4.5h-149zM277 1159q-10 0 -14.5 6t-2.5 16l37 154q3 17 21 17h145q10 0 14.5 -6t2.5 -16l-37 -153q-3 -18 -21 -18h-145z" />
    <glyph glyph-name="k" unicode="k" horiz-adv-x="934" 
d="M968 1030q16 0 16 -10q0 -7 -8 -14l-412 -348l233 -635q1 -3 1 -8q0 -15 -17 -15h-149q-17 0 -23 16l-46 146l-140 381l-178 -155l-81 -372q-1 -8 -7.5 -12.5t-14.5 -4.5h-145q-10 0 -14.5 6t-2.5 16l163 673l152 689q3 17 21 17h146q10 0 14.5 -6t2.5 -16l-167 -683
l-18 -82l464 408q12 9 25 9h185z" />
    <glyph glyph-name="l" unicode="l" horiz-adv-x="395" 
d="M8 0q-10 0 -14.5 6t-2.5 16l167 687l148 674q3 17 21 17h146q10 0 14.5 -6t2.5 -16l-163 -667l-152 -694q-1 -8 -7.5 -12.5t-14.5 -4.5h-145z" />
    <glyph glyph-name="m" unicode="m" horiz-adv-x="1631" 
d="M1445.5 1021q64.5 -33 101 -98.5t36.5 -159.5q0 -61 -16 -129l-45 -194l-93 -423q-1 -8 -7.5 -12.5t-14.5 -4.5h-148q-10 0 -14.5 6t-2.5 16l99 401l43 197q14 59 14 112q0 92 -44 137.5t-117 45.5q-95 0 -168.5 -75.5t-131.5 -205.5q-7 -46 -11 -65l-30 -129l-93 -423
q-3 -17 -21 -17h-148q-22 0 -17 22l98 401l44 197q14 65 14 111q0 92 -44 138t-118 46q-184 0 -312 -310l-43 -184l-87 -404q-1 -8 -7.5 -12.5t-14.5 -4.5h-150q-10 0 -14.5 6t-2.5 16l110 446l121 545q3 17 21 17h140q10 0 14.5 -6t2.5 -16l-40 -159q58 89 146.5 147
t191.5 58q100 0 169.5 -53.5t89.5 -152.5q64 90 156 148t198 58q81 0 145.5 -33z" />
    <glyph glyph-name="n" unicode="n" horiz-adv-x="1050" 
d="M-3 0q-10 0 -14.5 6t-2.5 16l110 446l121 545q3 17 21 17h140q10 0 14.5 -6t2.5 -16l-40 -159q59 89 154 147t205 58q85 0 151.5 -34t104 -101t37.5 -161q0 -56 -15 -124l-45 -194l-93 -423q-1 -8 -7.5 -12.5t-14.5 -4.5h-148q-10 0 -14.5 6t-2.5 16l99 401l43 197
q13 55 13 104q0 94 -48 142.5t-132 48.5q-110 0 -194.5 -86t-142.5 -224l-43 -184l-87 -404q-1 -8 -7.5 -12.5t-14.5 -4.5h-150z" />
    <glyph glyph-name="o" unicode="o" horiz-adv-x="1100" 
d="M261.5 31.5q-99.5 52.5 -155.5 153.5t-56 241q0 153 66 297t193.5 236t302.5 92q128 0 227.5 -52.5t155 -153t55.5 -239.5q0 -154 -65.5 -298.5t-193 -236.5t-302.5 -92q-128 0 -227.5 52.5zM700.5 184q83.5 79 124.5 197t41 232q0 100 -32 170t-90.5 106t-137.5 36
q-123 0 -207 -79t-124.5 -197t-40.5 -232q0 -100 32 -170t91 -106t138 -36q122 0 205.5 79z" />
    <glyph glyph-name="p" unicode="p" horiz-adv-x="1076" 
d="M866.5 995q80.5 -51 123 -143.5t42.5 -214.5q0 -144 -57.5 -295t-175.5 -254t-289 -103q-116 0 -194.5 52t-113.5 149l-113 -509q-3 -17 -21 -17h-150q-10 0 -14.5 6t-2.5 16l185 770l122 561q3 17 21 17h140q10 0 14.5 -6t2.5 -16l-31 -118q62 73 142 114.5t178 41.5
q111 0 191.5 -51zM691.5 197.5q82.5 86.5 119.5 208t37 227.5q0 132 -59.5 210t-170.5 78q-116 0 -199.5 -85t-126.5 -210t-43 -240q0 -136 61 -205.5t172 -69.5q127 0 209.5 86.5z" />
    <glyph glyph-name="q" unicode="q" horiz-adv-x="1082" 
d="M1084 1030q10 0 14.5 -6t2.5 -16l-144 -599l-163 -733q-1 -8 -7.5 -12.5t-14.5 -4.5l-147 1q-10 0 -14.5 6t-2.5 16l110 457q-132 -154 -317 -154q-111 0 -192 51t-123.5 143t-42.5 215q0 143 58 294.5t176 254.5t288 103q120 0 199.5 -55t111.5 -158l38 180q3 17 21 17
h149zM657.5 195q83.5 85 126 210t42.5 240q0 136 -61 205.5t-171 69.5q-128 0 -210.5 -86.5t-119.5 -208t-37 -227.5q0 -132 60 -210t171 -78q116 0 199.5 85z" />
    <glyph glyph-name="r" unicode="r" horiz-adv-x="713" 
d="M-2 0q-22 0 -17 22l123 504l106 487q3 17 21 17h144q10 0 14.5 -6t2.5 -16l-47 -177q77 102 177 155.5t206 53.5q32 0 56 -6q9 -2 13 -8t2 -15l-24 -102q-5 -18 -23 -15q-21 4 -50 4q-83 0 -162.5 -38t-144 -110.5t-103.5 -172.5l-126 -560q-5 -17 -22 -17h-146z" />
    <glyph glyph-name="s" unicode="s" horiz-adv-x="1002" 
d="M225.5 22q-101.5 44 -155 125.5t-51.5 191.5v2q0 9 5 13.5t14 4.5h138q18 0 20 -20q-1 -113 71.5 -177t208.5 -64q76 0 132 23t85 63t29 89q0 50 -33.5 83t-83.5 52.5t-137 44.5q-109 31 -176.5 60t-115.5 84.5t-48 144.5q0 91 55 161.5t152 109.5t218 39
q120 0 211.5 -36.5t145.5 -107t61 -171.5v-2q0 -9 -5 -13.5t-14 -4.5h-133q-18 0 -20 19q-9 99 -76.5 148.5t-172.5 49.5q-69 0 -122.5 -21t-84 -59.5t-30.5 -90.5q0 -51 33.5 -83.5t83.5 -51t137 -42.5q109 -30 175.5 -57.5t114 -81.5t47.5 -142q0 -93 -54 -167.5
t-153.5 -117t-230.5 -42.5q-139 0 -240.5 44z" />
    <glyph glyph-name="t" unicode="t" horiz-adv-x="651" 
d="M708 1030q10 0 15 -6t2 -16l-22 -94q-3 -18 -21 -18h-237l-141 -610q-9 -40 -9 -70q0 -50 25.5 -73t77.5 -23q50 0 100 10q3 1 7 1q15 0 12 -19l-20 -87q-3 -14 -17 -19q-81 -22 -150 -22q-97 0 -159 48.5t-62 152.5q0 43 12 97l144 614h-112q-10 0 -14.5 6t-2.5 16
l22 95q5 17 22 17h115l52 241q5 17 22 17h148q10 0 14.5 -6t2.5 -16l-57 -236h231z" />
    <glyph glyph-name="u" unicode="u" horiz-adv-x="1050" 
d="M1051 1030q10 0 14.5 -6t2.5 -16l-110 -446l-121 -545q-3 -17 -21 -17h-140q-10 0 -14.5 6t-2.5 16l40 159q-59 -89 -154 -147t-205 -58q-85 0 -151.5 34t-104.5 100.5t-38 160.5q0 60 16 125l45 194l93 423q5 17 22 17h148q10 0 14.5 -6t2.5 -16l-99 -401l-42 -197
q-13 -56 -13 -105q0 -93 47.5 -141.5t131.5 -48.5q110 0 194 86t142 224l44 184l87 404q5 17 22 17h150z" />
    <glyph glyph-name="v" unicode="v" horiz-adv-x="978" 
d="M126 1009v4q0 17 18 17h142q18 0 21 -19l92 -842l492 848q9 13 24 13h150q8 0 12.5 -3.5t4.5 -9.5q0 -3 -4 -11l-594 -994q-9 -13 -23 -13h-178q-18 0 -21 18z" />
    <glyph glyph-name="w" unicode="w" horiz-adv-x="1405" 
d="M186 0q-19 0 -20 19l-35 991q0 20 19 20h129q19 0 19 -20l3 -854l394 859q8 15 23 15h184q19 0 19 -20l10 -845l388 850q6 15 23 15h146q16 0 16 -13q0 -6 -2 -10l-481 -992q-5 -15 -23 -15h-179q-18 0 -19 19l-20 860l-395 -864q-6 -15 -22 -15h-177z" />
    <glyph glyph-name="x" unicode="x" horiz-adv-x="935" 
d="M-84 0q-7 0 -12 3.5t-5 8.5t6 12l465 538l-210 445q-2 3 -2 9t4.5 10t12.5 4h150q16 0 23 -15l159 -352l295 355q8 12 24 12h158q7 0 12 -3.5t5 -8.5q0 -4 -6 -12l-416 -486l222 -497q2 -4 2 -10q0 -13 -16 -13h-151q-18 0 -23 15l-172 395l-338 -398q-9 -12 -24 -12
h-163z" />
    <glyph glyph-name="y" unicode="y" horiz-adv-x="950" 
d="M116 -340q-8 0 -12.5 3.5t-4.5 9.5q0 3 4 11l189 326l-168 999l-1 6q0 7 5 11t13 4h149q18 0 21 -18l112 -784l436 788q7 14 23 14h160q8 0 12.5 -3.5t4.5 -9.5q0 -3 -4 -11l-770 -1333q-9 -13 -23 -13h-146z" />
    <glyph glyph-name="z" unicode="z" horiz-adv-x="933" 
d="M-36 0q-10 0 -14.5 6t-2.5 16l23 101q2 11 12 22l728 750h-497q-10 0 -14.5 6t-2.5 16l23 96q5 17 21 17h705q10 0 14.5 -6t2.5 -16l-24 -101q-3 -13 -12 -22l-733 -750h569q10 0 14.5 -6t2.5 -16l-21 -96q-5 -17 -22 -17h-772z" />
    <glyph glyph-name="braceleft" unicode="{" horiz-adv-x="512" 
d="M167 -280q-110 0 -164.5 42.5t-54.5 122.5q0 92 74 231l131 258q35 67 35 99q0 23 -16.5 35t-53.5 12h-30q-10 0 -14.5 5.5t-2.5 15.5l24 102q3 17 21 17h35q58 0 80 29t22 82q0 23 -1 35l-12 284q-2 26 -2 39q0 102 41.5 177t116.5 114.5t173 39.5h53q11 0 15.5 -6
t2.5 -16l-25 -102q-4 -18 -22 -18h-57q-69 0 -102 -42t-33 -137q0 -15 2 -49l12 -284q1 -7 1 -21q0 -71 -37 -122t-116 -74q84 -29 84 -106q0 -48 -32 -109l-130 -260q-68 -130 -68 -188q0 -34 21 -49t63 -15h52q10 0 14.5 -6t2.5 -16l-23 -103q-3 -17 -21 -17h-59z" />
    <glyph glyph-name="bar" unicode="|" horiz-adv-x="281" 
d="M-91 -280q-22 0 -17 22l393 1701q3 17 21 17h103q10 0 14 -6t2 -16l-392 -1701q-5 -17 -22 -17h-102z" />
    <glyph glyph-name="braceright" unicode="}" horiz-adv-x="513" 
d="M-75 -280q-22 0 -17 22l23 102q3 18 21 18h57q69 0 101.5 44t32.5 152q0 16 -2 56l-9 260q-5 75 31 132.5t119 82.5q-85 28 -85 104q0 50 34 113l144 284q57 110 57 162q0 34 -22 50t-65 16h-52q-10 0 -14.5 6t-2.5 16l25 103q4 17 21 17h59q104 0 161 -44.5t57 -127.5
t-61 -198l-144 -284q-35 -66 -35 -99q0 -23 16.5 -35t53.5 -12h30q10 0 14.5 -5.5t2.5 -15.5l-24 -102q-5 -17 -22 -17h-34q-58 0 -80 -29t-22 -82q0 -23 1 -35l9 -258q2 -34 2 -49q0 -164 -82.5 -255.5t-244.5 -91.5h-54z" />
    <glyph glyph-name="asciitilde" unicode="~" horiz-adv-x="1010" 
d="M92 582q-10 0 -14.5 5.5t-2.5 15.5q37 180 119 287.5t207 107.5q60 0 102.5 -25t69 -60.5t58.5 -91.5q34 -58 58 -85t59 -27q130 0 177 255q3 18 21 18h96q22 0 17 -22q-37 -180 -117 -282t-206 -102q-57 0 -98.5 24t-67.5 58t-58 88q-24 41 -41 64.5t-39 39t-51 15.5
q-124 0 -172 -265q-3 -18 -21 -18h-96z" />
    <glyph glyph-name="exclamdown" unicode="&#xa1;" horiz-adv-x="405" 
d="M397 1030q10 0 14.5 -6t2.5 -16l-37 -163q-4 -18 -22 -18h-156q-10 0 -14.5 6t-2.5 16l37 164q3 17 21 17h157zM301 644q10 0 14.5 -6t2.5 -16l-226 -975q-3 -17 -21 -17h-144q-10 0 -14.5 6t-2.5 16l226 975q3 17 21 17h144z" />
    <glyph glyph-name="cent" unicode="&#xa2;" horiz-adv-x="1058" 
d="M807 1229q118 -36 186 -126t70 -217q0 -19 -19 -19h-135q-19 0 -19 19q-5 113 -70.5 175t-174.5 62q-119 0 -201 -78t-121.5 -194.5t-39.5 -230.5q0 -154 69.5 -234t192.5 -80q109 0 188 62.5t117 193.5q6 17 22 17h136q17 0 17 -15q0 -3 -2 -9q-52 -179 -170 -274.5
t-289 -102.5l-37 -161q-3 -17 -21 -17h-145q-10 0 -14.5 6t-2.5 16l41 177q-135 40 -210.5 149.5t-75.5 277.5q0 148 61 289.5t181 234.5t287 100l33 143q3 17 21 17h145q22 0 17 -22z" />
    <glyph glyph-name="sterling" unicode="&#xa3;" horiz-adv-x="1134" 
d="M962 1372.5q96 -50.5 144.5 -146.5t45.5 -230q0 -9 -5.5 -14t-14.5 -5h-143q-19 0 -19 20q4 132 -59.5 207t-184.5 75q-97 0 -166.5 -48.5t-106.5 -139t-37 -215.5q0 -49 3 -105h312q10 0 14.5 -6t2.5 -16l-21 -93q-5 -17 -22 -17h-278q2 -27 2 -78q-1 -168 -60.5 -271
t-203.5 -148l372 -15q13 -1 37 -1q94 0 154 28t98 92t62 175q3 17 21 17h144q22 0 17 -29q-34 -167 -106 -261t-173 -130t-239 -36h-34l-585 17q-10 0 -14.5 6t-2.5 16l22 95q3 16 19 20l47 15q109 30 173.5 124.5t64.5 282.5q0 23 -2 81h-184q-10 0 -14.5 6t-2.5 16l22 92
q5 18 22 18h149q-3 56 -3 104q0 167 57 290t169.5 190.5t274.5 67.5q136 0 232 -50.5z" />
    <glyph glyph-name="currency" unicode="&#xa4;" horiz-adv-x="1038" 
d="M1078 1044q5 -8 5 -13q0 -8 -8 -14l-179 -145q29 -69 29 -147q0 -77 -27.5 -151t-78.5 -131l106 -155q4 -5 4 -11q0 -9 -10 -16l-72 -50q-7 -5 -12 -5q-9 0 -15 10l-99 146q-89 -51 -196 -51q-73 0 -133 23.5t-103 65.5l-173 -141q-5 -5 -13 -5q-9 0 -14 8l-52 66
q-6 8 -6 13q0 8 9 14l180 147q-28 68 -28 145q0 76 27 150t77 131l-106 156q-4 5 -4 12q0 9 9 15l73 51q5 4 11 4q9 0 16 -10l100 -146q88 51 195 51q72 0 132 -23t104 -65l172 140q5 5 13 5q9 0 14 -8zM349.5 529.5q24.5 -52.5 72 -82.5t112.5 -30q81 0 139.5 45.5t88 116
t29.5 144.5q0 65 -24 117.5t-71 83.5t-114 31q-83 0 -141 -46t-87 -116.5t-29 -144.5q0 -66 24.5 -118.5z" />
    <glyph glyph-name="yen" unicode="&#xa5;" horiz-adv-x="1130" 
d="M1299 1400q8 0 12.5 -3.5t4.5 -8.5t-5 -12l-624 -775h327q10 0 14.5 -6t2.5 -16l-21 -93q-5 -17 -22 -17h-344l-29 -133h338q10 0 14.5 -6t2.5 -16l-22 -94q-3 -17 -21 -17h-340l-41 -186q-1 -8 -7.5 -12.5t-14.5 -4.5h-155q-10 0 -14.5 6t-2.5 16l45 181h-331
q-10 0 -14.5 6t-2.5 16l21 93q5 18 22 18h338l32 133h-335q-10 0 -14.5 5.5t-2.5 15.5l21 94q5 17 22 17h330l-265 777l-2 8q0 14 17 14h152q17 0 23 -16l199 -660l506 664q8 12 24 12h162z" />
    <glyph glyph-name="brokenbar" unicode="&#xa6;" horiz-adv-x="282" 
d="M140 720q-22 0 -17 22l163 701q3 17 21 17h103q10 0 14 -6t2 -16l-163 -701q-3 -17 -21 -17h-102zM-90 -280q-10 0 -14.5 6t-2.5 16l161 701q3 17 21 17h103q10 0 14 -6t2 -16l-161 -701q-3 -17 -21 -17h-102z" />
    <glyph glyph-name="section" unicode="&#xa7;" horiz-adv-x="1213" 
d="M981 1355q106 -43 163.5 -125t56.5 -195q0 -10 -5.5 -15t-14.5 -5h-131q-18 0 -20 20q0 116 -80.5 177t-224.5 61q-94 0 -164.5 -26t-109 -73.5t-38.5 -109.5q0 -60 40.5 -99t101.5 -62t165 -50q129 -35 207.5 -66.5t134 -93.5t55.5 -163q0 -116 -79 -205t-220 -126
q73 -39 113.5 -94.5t40.5 -140.5q0 -108 -63.5 -193t-178 -132.5t-263.5 -47.5q-153 0 -268 50.5t-177 143t-60 216.5q0 9 6 14.5t15 5.5h124q18 0 20 -20q0 -87 39.5 -152t117.5 -100.5t189 -35.5q100 0 173 29.5t111.5 81t38.5 116.5q0 64 -41 104t-102 62t-168 50
q-127 33 -204.5 64t-132 92t-54.5 161q0 120 84 206.5t231 118.5q-82 38 -127 95t-45 147q0 107 64.5 188.5t178 125.5t255.5 44q140 0 246 -43zM899 610.5q-41 41.5 -102 64t-167 50.5q-112 4 -193.5 -23.5t-124.5 -79t-43 -119.5q0 -64 40.5 -104.5t101.5 -63.5t165 -50
l50 -14q94 1 165 32t110 83t39 117q0 66 -41 107.5z" />
    <glyph glyph-name="dieresis" unicode="&#xa8;" horiz-adv-x="685" 
d="M271 1159q-10 0 -14.5 6t-2.5 16l37 154q3 17 21 17h124q10 0 14.5 -6t2.5 -16l-37 -153q-3 -18 -21 -18h-124zM590 1159q-10 0 -15 6t-2 16l36 154q5 17 22 17h124q10 0 14.5 -6t2.5 -16l-37 -153q-4 -18 -21 -18h-124z" />
    <glyph glyph-name="copyright" unicode="&#xa9;" horiz-adv-x="1474" 
d="M428 64.5q-151 89.5 -234 253.5t-83 381q0 221 82.5 385t234 252.5t352.5 88.5t352 -88t234 -252t83 -387q0 -217 -83.5 -381t-235 -253t-351.5 -89t-351 89.5zM1086.5 136.5q128.5 76.5 197 220t68.5 341.5t-68.5 342.5t-197.5 222t-307 77.5q-181 0 -309 -77t-195 -221
t-67 -344q0 -197 68.5 -340.5t197.5 -220.5t306 -77q178 0 306.5 76.5zM568.5 295.5q-93.5 55.5 -143 159.5t-49.5 248q0 140 50.5 244t144.5 160.5t221 56.5q142 0 239.5 -71.5t130.5 -228.5l1 -6q0 -16 -19 -16h-86q-16 0 -21 18q-20 102 -85 152.5t-162 50.5
q-137 0 -210.5 -96t-73.5 -263q0 -178 74 -271t209 -93q107 0 173 57.5t81 166.5q3 18 21 18h88q10 0 14.5 -6.5t2.5 -17.5q-26 -159 -124.5 -238.5t-252.5 -79.5q-130 0 -223.5 55.5z" />
    <glyph glyph-name="ordfeminine" unicode="&#xaa;" horiz-adv-x="873" 
d="M981 1405q22 0 17 -22l-83 -352l-83 -368q-4 -17 -22 -17h-111q-10 0 -14.5 6t-1.5 16l20 81q-50 -56 -115 -87.5t-143 -31.5q-84 0 -146.5 38t-96 107t-33.5 161q0 106 45.5 218.5t139.5 189t232 76.5q85 0 143.5 -33t87.5 -96l20 96q3 18 20 18h124zM649 798
q62 62 93.5 152.5t31.5 172.5q0 94 -44.5 142.5t-123.5 48.5q-95 0 -156 -62t-88 -149.5t-27 -163.5q0 -94 42.5 -148.5t124.5 -54.5q85 0 147 62z" />
    <glyph glyph-name="guillemotleft" unicode="&#xab;" horiz-adv-x="869" 
d="M241 200q-17 0 -23 15l-164 335q-3 6 -3 11q0 9 7 16l310 333q10 10 24 10h123q17 0 17 -11q0 -4 -7 -13l-323 -342l167 -331q3 -6 3 -10q0 -13 -17 -13h-114zM607 200q-17 0 -23 15l-164 335q-3 6 -3 11q0 9 7 16l310 333q10 10 24 10h123q17 0 17 -11q0 -4 -7 -13
l-323 -342l167 -331q3 -6 3 -10q0 -13 -17 -13h-114z" />
    <glyph glyph-name="logicalnot" unicode="&#xac;" horiz-adv-x="1030" 
d="M1015.5 754.5q4.5 -5.5 2.5 -15.5l-120 -522q-3 -17 -21 -17h-108q-10 0 -14 6t-2 16l90 396h-731q-11 0 -15.5 5.5t-2.5 15.5l24 104q3 17 21 17h862q10 0 14.5 -5.5z" />
    <glyph glyph-name="registered" unicode="&#xae;" horiz-adv-x="732" 
d="M335 803q-71 41 -110.5 116t-39.5 173q0 101 39 176t110 115.5t166 40.5q94 0 165 -40t109.5 -115t38.5 -177q0 -99 -38.5 -173.5t-109.5 -115.5t-165 -41t-165 41zM687 888.5q67 73.5 67 203.5q0 131 -67 205.5t-187 74.5q-121 0 -188.5 -74.5t-67.5 -205.5
q0 -130 68 -203.5t188 -73.5t187 73.5zM371 898q-20 0 -20 19v353q0 10 5.5 15t14.5 5h126q75 0 117 -30t42 -87q0 -44 -25 -72t-70 -39l90 -141q4 -5 4 -11q0 -5 -4.5 -8.5t-11.5 -3.5h-41q-16 0 -23 13l-91 143h-63l2 -137q0 -19 -19 -19h-33zM501 1107q40 0 62 15.5
t22 48.5q0 67 -85 67h-77l-2 -131h80z" />
    <glyph glyph-name="macron" unicode="&#xaf;" horiz-adv-x="788" 
d="M281 1190q-10 0 -14.5 6t-2.5 16l22 90q3 17 21 17h547q10 0 14.5 -5.5t2.5 -15.5l-22 -91q-4 -17 -21 -17h-547z" />
    <glyph glyph-name="macron" unicode="&#x2c9;" horiz-adv-x="788" 
d="M281 1190q-10 0 -14.5 6t-2.5 16l22 90q3 17 21 17h547q10 0 14.5 -5.5t2.5 -15.5l-22 -91q-4 -17 -21 -17h-547z" />
    <glyph glyph-name="degree" unicode="&#xb0;" horiz-adv-x="690" 
d="M320 875.5q-64 32.5 -101 90.5t-37 133q0 81 43 155.5t120 120.5t173 46q78 0 142 -32.5t101 -91t37 -132.5q0 -80 -43 -154.5t-120 -121t-173 -46.5q-78 0 -142 32.5zM572.5 980q45.5 31 70.5 81t25 104q0 68 -44 108.5t-114 40.5q-62 0 -107 -32.5t-68 -82.5t-23 -100
q0 -68 43.5 -109t113.5 -41q58 0 103.5 31z" />
    <glyph glyph-name="plusminus" unicode="&#xb1;" horiz-adv-x="1010" 
d="M999 800q11 0 15.5 -5.5t2.5 -15.5l-24 -104q-3 -17 -21 -17h-359l-93 -401q-3 -17 -21 -17h-108q-10 0 -14 6t-2 16l91 396h-356q-10 0 -14.5 5.5t-2.5 15.5l24 104q3 17 21 17h362l93 403q3 17 21 17h107q22 0 17 -22l-92 -398h353zM-42 0q-10 0 -14.5 5.5t-2.5 15.5
l24 104q3 17 21 17h861q11 0 15.5 -5.5t2.5 -15.5l-24 -104q-3 -17 -21 -17h-862z" />
    <glyph glyph-name="two.sups" unicode="&#xb2;" horiz-adv-x="549" 
d="M90 667q-10 0 -14.5 6t-1.5 16l21 92q19 82 64.5 135t98 82.5t132.5 61.5q61 24 95 42.5t56.5 46.5t22.5 69q0 51 -31.5 78.5t-82.5 27.5q-57 0 -96 -36.5t-54 -113.5q-3 -18 -21 -18h-73q-10 0 -15 5.5t-4 15.5q19 118 89.5 177.5t180.5 59.5q100 0 162 -48.5t62 -140.5
q0 -68 -33.5 -115t-81.5 -75.5t-127 -64.5q-63 -27 -102.5 -49t-69 -53t-37.5 -73l-8 -36h328q10 0 14.5 -6t2.5 -16l-12 -53q-4 -17 -21 -17h-444z" />
    <glyph glyph-name="three.sups" unicode="&#xb3;" horiz-adv-x="594" 
d="M234 680q-57 28 -85.5 80t-23.5 124q2 19 20 19h79q21 0 19 -21q-4 -61 30 -99t101 -38q50 0 85 21.5t52 55.5t17 72q0 52 -32.5 85t-90.5 33h-49q-10 0 -14.5 5.5t-2.5 15.5l11 45q3 17 21 17h54q59 0 107.5 29t48.5 93q0 50 -32 77t-84 27q-54 0 -91 -31t-52 -90
q-5 -17 -21 -17h-78q-10 0 -14.5 6t-2.5 16q26 104 95.5 156.5t169.5 52.5q65 0 117 -22.5t82 -63.5t30 -96q0 -67 -43 -117t-118 -65q53 -20 82 -63.5t29 -99.5q0 -64 -34 -117.5t-97.5 -85.5t-148.5 -32q-79 0 -136 28z" />
    <glyph glyph-name="acute" unicode="&#xb4;" horiz-adv-x="729" 
d="M330 1143q-3 -1 -7 -1q-6 0 -11 3.5t-6 9.5l-19 63q-2 6 -2 8q0 11 13 17l450 194q5 3 10 3q10 0 15 -14l31 -106q1 -2 1 -6q0 -13 -14 -18z" />
    <glyph glyph-name="uni03BC" unicode="&#xb5;" horiz-adv-x="1060" 
d="M212 1019q3 12 14 12h161q6 0 9 -4t2 -10l-142 -606q-14 -61 -14 -106q0 -93 48 -141t132 -48q110 0 194.5 86t141.5 224l43 184l91 410q3 11 13 11h163q6 0 9 -4t2 -10l-109 -454l-126 -551q-1 -11 -13 -11h-154q-6 0 -9 4t-1 10l42 167q-59 -89 -154 -147t-205 -58
q-59 0 -104.5 23.5t-69.5 67.5l-89 -397q-3 -11 -13 -11h-162q-6 0 -9 4t-2 10l190 806z" />
    <glyph glyph-name="uni03BC" unicode="&#x3bc;" horiz-adv-x="1060" 
d="M212 1019q3 12 14 12h161q6 0 9 -4t2 -10l-142 -606q-14 -61 -14 -106q0 -93 48 -141t132 -48q110 0 194.5 86t141.5 224l43 184l91 410q3 11 13 11h163q6 0 9 -4t2 -10l-109 -454l-126 -551q-1 -11 -13 -11h-154q-6 0 -9 4t-1 10l42 167q-59 -89 -154 -147t-205 -58
q-59 0 -104.5 23.5t-69.5 67.5l-89 -397q-3 -11 -13 -11h-162q-6 0 -9 4t-2 10l190 806z" />
    <glyph glyph-name="paragraph" unicode="&#xb6;" horiz-adv-x="1286" 
d="M1374 1400q10 0 14.5 -6t2.5 -16l-225 -928l-175 -802q-1 -9 -7 -13.5t-15 -4.5h-155q-10 0 -14.5 6t-2.5 16l155 648l58 240h-230l-56 -241l-143 -651q-1 -9 -7 -13.5t-15 -4.5h-155q-10 0 -14.5 6t-2.5 16l155 645l58 244h-18q-141 0 -235.5 48.5t-141 133.5t-46.5 195
q0 141 70 250.5t202 170.5t312 61h631z" />
    <glyph glyph-name="periodcentered" unicode="&#xb7;" horiz-adv-x="335" 
d="M85 500q-10 0 -14.5 6t-2.5 16l38 162q3 18 21 18h164q10 0 14.5 -6t2.5 -16l-38 -163q-3 -17 -21 -17h-164z" />
    <glyph glyph-name="periodcentered" unicode="&#x2219;" horiz-adv-x="335" 
d="M85 500q-10 0 -14.5 6t-2.5 16l38 162q3 18 21 18h164q10 0 14.5 -6t2.5 -16l-38 -163q-3 -17 -21 -17h-164z" />
    <glyph glyph-name="cedilla" unicode="&#xb8;" horiz-adv-x="475" 
d="M80 -332q-9 -15 -25 -11l-124 22q-14 3 -14 14q0 5 3 11l189 319q9 15 25 10l104 -12q14 -3 14 -15q0 -5 -3 -10z" />
    <glyph glyph-name="one.sups" unicode="&#xb9;" horiz-adv-x="405" 
d="M247 667q-11 0 -15.5 6t-1.5 16l85 339l50 234q-70 -50 -154 -78q-3 -1 -8 -1q-15 0 -12 19l12 54q3 14 18 20q105 35 173 112q10 11 24 11h84q10 0 14.5 -6t1.5 -16l-92 -371l-67 -322q-1 -8 -7.5 -12.5t-14.5 -4.5h-90z" />
    <glyph glyph-name="ordmasculine" unicode="&#xba;" horiz-adv-x="877" 
d="M336.5 666q-76.5 39 -119.5 114t-43 179q0 113 50 220t147.5 175.5t231.5 68.5q98 0 174.5 -39t120 -113t43.5 -177q0 -113 -51 -221t-148.5 -177t-230.5 -69q-98 0 -174.5 39zM659 790q59 57 87.5 141.5t28.5 166.5q0 105 -48 162t-129 57q-85 0 -143.5 -56.5t-87 -141
t-28.5 -168.5q0 -104 47 -161t129 -57q85 0 144 57z" />
    <glyph glyph-name="guillemotright" unicode="&#xbb;" horiz-adv-x="869" 
d="M9 200q-7 0 -11.5 3t-4.5 8q0 7 6 13l326 352l-169 321q-3 6 -3 11t4.5 8.5t12.5 3.5h113q17 0 24 -14l166 -327q3 -6 3 -12t-6 -14l-314 -342q-10 -11 -24 -11h-123zM375 200q-7 0 -11.5 3t-4.5 8q0 7 6 13l326 352l-169 321q-3 6 -3 11t4.5 8.5t12.5 3.5h113
q17 0 24 -14l166 -327q3 -6 3 -12t-6 -14l-314 -342q-10 -11 -24 -11h-123z" />
    <glyph glyph-name="onequarter" unicode="&#xbc;" horiz-adv-x="1329" 
d="M247 667q-11 0 -15.5 6t-1.5 16l85 339l50 234q-70 -50 -154 -78q-3 -1 -8 -1q-15 0 -12 19l12 54q3 14 18 20q105 35 173 112q10 11 24 11h84q10 0 14.5 -6t1.5 -16l-92 -371l-67 -322q-1 -8 -7.5 -12.5t-14.5 -4.5h-90zM118 0q-8 0 -12.5 3.5t-4.5 8.5t5 12l1004 1364
q9 12 24 12h91q16 0 16 -12q0 -7 -4 -12l-1004 -1364q-11 -12 -24 -12h-91zM1247 732q10 0 14.5 -6t2.5 -16l-100 -434h59q10 0 14.5 -6t2.5 -16l-13 -53q-4 -17 -21 -17h-64l-38 -168q-3 -17 -21 -17h-85q-10 0 -14 6t-2 16l37 163h-311q-11 0 -15.5 5.5t-2.5 15.5l16 70
q4 13 12 23l378 423q8 11 24 11h127zM1092 502l33 125l-312 -351h227z" />
    <glyph glyph-name="onehalf" unicode="&#xbd;" horiz-adv-x="1360" 
d="M747 0q-10 0 -14.5 6t-1.5 16l21 92q19 82 64.5 135t98 82.5t132.5 61.5q61 24 95 42.5t56.5 46.5t22.5 69q0 51 -31.5 78.5t-82.5 27.5q-57 0 -96 -36.5t-54 -113.5q-3 -18 -21 -18h-73q-10 0 -15 5.5t-4 15.5q19 118 89.5 177.5t180.5 59.5q100 0 162 -48.5t62 -140.5
q0 -68 -33.5 -115t-81.5 -75.5t-127 -64.5q-63 -27 -102.5 -49t-69 -53t-37.5 -73l-8 -36h328q10 0 14.5 -6t2.5 -16l-12 -53q-4 -17 -21 -17h-444zM247 667q-11 0 -15.5 6t-1.5 16l85 339l50 234q-70 -50 -154 -78q-3 -1 -8 -1q-15 0 -12 19l12 54q3 14 18 20
q105 35 173 112q10 11 24 11h84q10 0 14.5 -6t1.5 -16l-92 -371l-67 -322q-1 -8 -7.5 -12.5t-14.5 -4.5h-90zM114 0q-8 0 -12.5 3.5t-4.5 8.5t5 12l1004 1364q9 12 24 12h91q16 0 16 -12q0 -7 -4 -12l-1004 -1364q-11 -12 -24 -12h-91z" />
    <glyph glyph-name="threequarters" unicode="&#xbe;" horiz-adv-x="1485" 
d="M234 680q-57 28 -85.5 80t-23.5 124q2 19 20 19h79q21 0 19 -21q-4 -61 30 -99t101 -38q50 0 85 21.5t52 55.5t17 72q0 52 -32.5 85t-90.5 33h-49q-10 0 -14.5 5.5t-2.5 15.5l11 45q3 17 21 17h54q59 0 107.5 29t48.5 93q0 50 -32 77t-84 27q-54 0 -91 -31t-52 -90
q-5 -17 -21 -17h-78q-10 0 -14.5 6t-2.5 16q26 104 95.5 156.5t169.5 52.5q65 0 117 -22.5t82 -63.5t30 -96q0 -67 -43 -117t-118 -65q53 -20 82 -63.5t29 -99.5q0 -64 -34 -117.5t-97.5 -85.5t-148.5 -32q-79 0 -136 28zM285 0q-8 0 -12.5 3.5t-4.5 8.5t5 12l1004 1364
q9 12 24 12h91q16 0 16 -12q0 -7 -4 -12l-1004 -1364q-11 -12 -24 -12h-91zM1404 732q10 0 14.5 -6t2.5 -16l-100 -434h59q10 0 14.5 -6t2.5 -16l-13 -53q-4 -17 -21 -17h-64l-38 -168q-3 -17 -21 -17h-85q-10 0 -14 6t-2 16l37 163h-311q-11 0 -15.5 5.5t-2.5 15.5l16 70
q4 13 12 23l378 423q8 11 24 11h127zM1249 502l33 125l-312 -351h227z" />
    <glyph glyph-name="questiondown" unicode="&#xbf;" horiz-adv-x="974" 
d="M691 1030q10 0 14.5 -6t2.5 -16l-37 -163q-4 -18 -22 -18h-163q-10 0 -14.5 6t-2.5 16l38 164q3 17 21 17h163zM593 644q10 0 14.5 -6t1.5 -16q-24 -95 -71 -168.5t-99.5 -123.5t-133.5 -115q-68 -54 -106.5 -90.5t-63.5 -82.5t-25 -102q0 -93 66.5 -142.5t172.5 -49.5
q127 0 199 69.5t103 211.5q5 18 22 18h136q10 0 14.5 -5.5t2.5 -15.5q-88 -421 -488 -421q-116 0 -208 36.5t-145.5 110t-53.5 181.5q0 81 31.5 144t78 109t126.5 109q73 58 118.5 100.5t85 100.5t58.5 131q5 17 21 17h143z" />
    <glyph glyph-name="Agrave" unicode="&#xc0;" horiz-adv-x="1258" 
d="M1130 21v-4q0 -17 -18 -17h-143q-19 0 -20 19l-46 404h-570l-234 -410q-8 -13 -23 -13h-161q-16 0 -16 13q0 5 3 11l805 1363q7 13 23 13h211q18 0 21 -19zM888 573l-78 693l-395 -693h473zM1058 1519q-8 -17 -25 -11l-421 163q-13 4 -13 16l2 9l41 103q5 12 15 12
q5 0 11 -3l404 -202q12 -6 12 -17q0 -3 -2 -9z" />
    <glyph glyph-name="Aacute" unicode="&#xc1;" horiz-adv-x="1258" 
d="M1130 21v-4q0 -17 -18 -17h-143q-19 0 -20 19l-46 404h-570l-234 -410q-8 -13 -23 -13h-161q-16 0 -16 13q0 5 3 11l805 1363q7 13 23 13h211q18 0 21 -19zM888 573l-78 693l-395 -693h473zM715 1513q-3 -1 -7 -1q-6 0 -11 3.5t-6 9.5l-19 63q-2 6 -2 8q0 11 13 17
l450 194q5 3 10 3q10 0 15 -14l31 -106q1 -2 1 -6q0 -13 -14 -18z" />
    <glyph glyph-name="Acircumflex" unicode="&#xc2;" horiz-adv-x="1258" 
d="M1130 21v-4q0 -17 -18 -17h-143q-19 0 -20 19l-46 404h-570l-234 -410q-8 -13 -23 -13h-161q-16 0 -16 13q0 5 3 11l805 1363q7 13 23 13h211q18 0 21 -19zM888 573l-78 693l-395 -693h473zM553 1585q-2 6 -2 9q0 11 12 17l299 159q10 7 24 7h53q15 0 24 -8l236 -158
q9 -7 9 -16q0 -5 -3 -11l-33 -56q-6 -11 -16 -11q-5 0 -11 3l-249 119l-291 -120q-3 -2 -10 -2q-12 0 -16 12z" />
    <glyph glyph-name="Atilde" unicode="&#xc3;" horiz-adv-x="1258" 
d="M1130 21v-4q0 -17 -18 -17h-143q-19 0 -20 19l-46 404h-570l-234 -410q-8 -13 -23 -13h-161q-16 0 -16 13q0 5 3 11l805 1363q7 13 23 13h211q18 0 21 -19zM888 573l-78 693l-395 -693h473zM927 1553.5q-30 20.5 -64 58.5q-26 28 -43 41.5t-38 13.5q-34 0 -52 -27.5
t-31 -81.5q-5 -17 -22 -17h-63q-9 0 -14 6t-3 15q21 102 69.5 161.5t126.5 59.5q44 0 74 -20.5t66 -59.5q25 -27 42 -40t36 -13q36 0 54.5 27t30.5 80q4 17 22 17h63q17 0 17 -18q0 -6 -1 -9q-45 -214 -194 -214q-46 0 -76 20.5z" />
    <glyph glyph-name="Adieresis" unicode="&#xc4;" horiz-adv-x="1258" 
d="M1130 21v-4q0 -17 -18 -17h-143q-19 0 -20 19l-46 404h-570l-234 -410q-8 -13 -23 -13h-161q-16 0 -16 13q0 5 3 11l805 1363q7 13 23 13h211q18 0 21 -19zM888 573l-78 693l-395 -693h473zM649 1529q-10 0 -14.5 6t-2.5 16l37 154q3 17 21 17h124q10 0 14.5 -6t2.5 -16
l-37 -153q-3 -18 -21 -18h-124zM968 1529q-10 0 -15 6t-2 16l36 154q5 17 22 17h124q10 0 14.5 -6t2.5 -16l-37 -153q-4 -18 -21 -18h-124z" />
    <glyph glyph-name="Aring" unicode="&#xc5;" horiz-adv-x="1258" 
d="M1130 21v-4q0 -17 -18 -17h-143q-19 0 -20 19l-46 404h-570l-234 -410q-8 -13 -23 -13h-161q-16 0 -16 13q0 5 3 11l805 1363q7 13 23 13h211q18 0 21 -19zM888 573l-78 693l-395 -693h473zM789 1540.5q-47 23.5 -74.5 66t-27.5 98.5q0 60 30 111t83.5 81.5t120.5 30.5
q59 0 106.5 -24t74.5 -67t27 -98q0 -60 -30.5 -111t-84 -81t-120.5 -30q-58 0 -105 23.5zM989 1632.5q37 41.5 37 103.5q0 55 -30 86t-77 31q-58 0 -94 -43t-36 -103q0 -55 30.5 -85.5t77.5 -30.5q55 0 92 41.5z" />
    <glyph glyph-name="AE" unicode="&#xc6;" horiz-adv-x="1738" 
d="M1839 1400q10 0 14.5 -6t2.5 -16l-24 -102q-3 -18 -21 -18h-572l-110 -440h527q22 0 17 -22l-24 -102q-3 -17 -21 -17h-532l-116 -535h584q10 0 14.5 -6t2.5 -16l-23 -103q-5 -17 -22 -17h-759q-10 0 -15 6t-2 16l98 401h-460l-298 -411q-9 -12 -24 -12h-160
q-8 0 -12.5 3.5t-4.5 8.5t5 12l999 1364q9 12 24 12h912zM501 573h394l37 152l118 543h-45z" />
    <glyph glyph-name="Ccedilla" unicode="&#xc7;" horiz-adv-x="1365" 
d="M1114 1364q121 -61 190 -172t73 -259q0 -20 -20 -20h-142q-18 0 -20 19q-8 166 -106 256.5t-263 90.5q-182 0 -303.5 -111t-179 -274t-57.5 -319q0 -150 49 -251.5t139 -152t214 -50.5q160 0 274 89t173 278q6 17 22 17h146q17 0 17 -16q0 -6 -1 -9
q-73 -246 -235.5 -374.5t-395.5 -130.5l-158 -307q-9 -15 -25 -11l-124 22q-14 3 -14 14q0 5 3 11l168 284q-136 26 -236 102t-154.5 200t-54.5 289q0 204 86 399t254 321t401 126q159 0 280 -61z" />
    <glyph glyph-name="Egrave" unicode="&#xc8;" 
d="M10 0q-10 0 -14.5 6t-1.5 16l172 703l142 658q5 17 22 17h843q10 0 14.5 -6t2.5 -16l-24 -102q-3 -18 -21 -18h-673l-110 -440h628q22 0 17 -22l-24 -102q-3 -17 -21 -17h-633l-115 -535h684q10 0 14.5 -6t2.5 -16l-24 -103q-3 -17 -21 -17h-860zM997 1519
q-8 -17 -25 -11l-421 163q-13 4 -13 16l2 9l41 103q5 12 15 12q5 0 11 -3l404 -202q12 -6 12 -17q0 -3 -2 -9z" />
    <glyph glyph-name="Eacute" unicode="&#xc9;" 
d="M10 0q-10 0 -14.5 6t-1.5 16l172 703l142 658q5 17 22 17h843q10 0 14.5 -6t2.5 -16l-24 -102q-3 -18 -21 -18h-673l-110 -440h628q22 0 17 -22l-24 -102q-3 -17 -21 -17h-633l-115 -535h684q10 0 14.5 -6t2.5 -16l-24 -103q-3 -17 -21 -17h-860zM655 1513q-3 -1 -7 -1
q-6 0 -11 3.5t-6 9.5l-19 63q-2 6 -2 8q0 11 13 17l450 194q5 3 10 3q10 0 15 -14l31 -106q1 -2 1 -6q0 -13 -14 -18z" />
    <glyph glyph-name="Ecircumflex" unicode="&#xca;" 
d="M10 0q-10 0 -14.5 6t-1.5 16l172 703l142 658q5 17 22 17h843q10 0 14.5 -6t2.5 -16l-24 -102q-3 -18 -21 -18h-673l-110 -440h628q22 0 17 -22l-24 -102q-3 -17 -21 -17h-633l-115 -535h684q10 0 14.5 -6t2.5 -16l-24 -103q-3 -17 -21 -17h-860zM492 1585q-2 6 -2 9
q0 11 12 17l299 159q10 7 24 7h53q15 0 24 -8l236 -158q9 -7 9 -16q0 -5 -3 -11l-33 -56q-6 -11 -16 -11q-5 0 -11 3l-249 119l-291 -120q-3 -2 -10 -2q-12 0 -16 12z" />
    <glyph glyph-name="Edieresis" unicode="&#xcb;" 
d="M10 0q-10 0 -14.5 6t-1.5 16l172 703l142 658q5 17 22 17h843q10 0 14.5 -6t2.5 -16l-24 -102q-3 -18 -21 -18h-673l-110 -440h628q22 0 17 -22l-24 -102q-3 -17 -21 -17h-633l-115 -535h684q10 0 14.5 -6t2.5 -16l-24 -103q-3 -17 -21 -17h-860zM588 1529q-10 0 -14.5 6
t-2.5 16l37 154q3 17 21 17h124q10 0 14.5 -6t2.5 -16l-37 -153q-3 -18 -21 -18h-124zM907 1529q-10 0 -15 6t-2 16l36 154q5 17 22 17h124q10 0 14.5 -6t2.5 -16l-37 -153q-4 -18 -21 -18h-124z" />
    <glyph glyph-name="Igrave" unicode="&#xcc;" horiz-adv-x="427" 
d="M21 0q-10 0 -14.5 6t-1.5 16l169 692l145 669q5 17 22 17h153q10 0 14.5 -6t2.5 -16l-164 -664l-151 -697q-1 -8 -7.5 -12.5t-14.5 -4.5h-153zM639 1519q-8 -17 -25 -11l-421 163q-13 4 -13 16l2 9l41 103q5 12 15 12q5 0 11 -3l404 -202q12 -6 12 -17q0 -3 -2 -9z" />
    <glyph glyph-name="Iacute" unicode="&#xcd;" horiz-adv-x="427" 
d="M21 0q-10 0 -14.5 6t-1.5 16l169 692l145 669q5 17 22 17h153q10 0 14.5 -6t2.5 -16l-164 -664l-151 -697q-1 -8 -7.5 -12.5t-14.5 -4.5h-153zM297 1513q-3 -1 -7 -1q-6 0 -11 3.5t-6 9.5l-19 63q-2 6 -2 8q0 11 13 17l450 194q5 3 10 3q10 0 15 -14l31 -106q1 -2 1 -6
q0 -13 -14 -18z" />
    <glyph glyph-name="Icircumflex" unicode="&#xce;" horiz-adv-x="427" 
d="M21 0q-10 0 -14.5 6t-1.5 16l169 692l145 669q5 17 22 17h153q10 0 14.5 -6t2.5 -16l-164 -664l-151 -697q-1 -8 -7.5 -12.5t-14.5 -4.5h-153zM134 1585q-2 6 -2 9q0 11 12 17l299 159q10 7 24 7h53q15 0 24 -8l236 -158q9 -7 9 -16q0 -5 -3 -11l-33 -56q-6 -11 -16 -11
q-5 0 -11 3l-249 119l-291 -120q-3 -2 -10 -2q-12 0 -16 12z" />
    <glyph glyph-name="Idieresis" unicode="&#xcf;" horiz-adv-x="427" 
d="M21 0q-10 0 -14.5 6t-1.5 16l169 692l145 669q5 17 22 17h153q10 0 14.5 -6t2.5 -16l-164 -664l-151 -697q-1 -8 -7.5 -12.5t-14.5 -4.5h-153zM230 1529q-10 0 -14.5 6t-2.5 16l37 154q3 17 21 17h124q10 0 14.5 -6t2.5 -16l-37 -153q-3 -18 -21 -18h-124zM549 1529
q-10 0 -15 6t-2 16l36 154q5 17 22 17h124q10 0 14.5 -6t2.5 -16l-37 -153q-4 -18 -21 -18h-124z" />
    <glyph glyph-name="Eth" unicode="&#xd0;" horiz-adv-x="1353" 
d="M739 1400q181 0 319.5 -68t215.5 -197.5t77 -308.5q0 -200 -91 -391t-268 -313t-421 -122h-546q-11 0 -15.5 6t-1.5 16l161 659h-125q-10 0 -14.5 5.5t-2.5 15.5l24 103q4 17 22 17h127l122 561q5 17 22 17h395zM577 142q194 0 325.5 107.5t193.5 266.5t62 314
q0 138 -52 234t-148 145t-225 49h-244l-107 -436h372q10 0 14.5 -5.5t2.5 -15.5l-24 -103q-3 -17 -21 -17h-378l-118 -539h347z" />
    <glyph glyph-name="Ntilde" unicode="&#xd1;" horiz-adv-x="1347" 
d="M10 0q-10 0 -14.5 6t-1.5 16l168 690l147 671q4 17 22 17h170q17 0 23 -15l481 -1139l123 549l133 588q5 17 22 17h140q22 0 17 -22l-162 -666l-153 -695q-4 -17 -22 -17h-180q-17 0 -23 15l-476 1128l-120 -548l-132 -578q-3 -17 -21 -17h-141zM965 1553.5
q-30 20.5 -64 58.5q-26 28 -43 41.5t-38 13.5q-34 0 -52 -27.5t-31 -81.5q-5 -17 -22 -17h-63q-9 0 -14 6t-3 15q21 102 69.5 161.5t126.5 59.5q44 0 74 -20.5t66 -59.5q25 -27 42 -40t36 -13q36 0 54.5 27t30.5 80q4 17 22 17h63q17 0 17 -18q0 -6 -1 -9
q-45 -214 -194 -214q-46 0 -76 20.5z" />
    <glyph glyph-name="Ograve" unicode="&#xd2;" horiz-adv-x="1467" 
d="M380 46q-137 71 -213.5 207t-76.5 323q0 205 90.5 401t265.5 322t415 126q176 0 312.5 -71t213 -206.5t76.5 -321.5q0 -206 -90.5 -402.5t-265 -322.5t-414.5 -126q-176 0 -313 71zM1018 232q129 111 190.5 275t61.5 323q0 144 -52 245t-145.5 152.5t-217.5 51.5
q-190 0 -319.5 -111t-191 -275t-61.5 -323q0 -144 51.5 -245t145.5 -152.5t219 -51.5q190 0 319 111zM1126 1519q-8 -17 -25 -11l-421 163q-13 4 -13 16l2 9l41 103q5 12 15 12q5 0 11 -3l404 -202q12 -6 12 -17q0 -3 -2 -9z" />
    <glyph glyph-name="Oacute" unicode="&#xd3;" horiz-adv-x="1467" 
d="M380 46q-137 71 -213.5 207t-76.5 323q0 205 90.5 401t265.5 322t415 126q176 0 312.5 -71t213 -206.5t76.5 -321.5q0 -206 -90.5 -402.5t-265 -322.5t-414.5 -126q-176 0 -313 71zM1018 232q129 111 190.5 275t61.5 323q0 144 -52 245t-145.5 152.5t-217.5 51.5
q-190 0 -319.5 -111t-191 -275t-61.5 -323q0 -144 51.5 -245t145.5 -152.5t219 -51.5q190 0 319 111zM783 1513q-3 -1 -7 -1q-6 0 -11 3.5t-6 9.5l-19 63q-2 6 -2 8q0 11 13 17l450 194q5 3 10 3q10 0 15 -14l31 -106q1 -2 1 -6q0 -13 -14 -18z" />
    <glyph glyph-name="Ocircumflex" unicode="&#xd4;" horiz-adv-x="1467" 
d="M380 46q-137 71 -213.5 207t-76.5 323q0 205 90.5 401t265.5 322t415 126q176 0 312.5 -71t213 -206.5t76.5 -321.5q0 -206 -90.5 -402.5t-265 -322.5t-414.5 -126q-176 0 -313 71zM1018 232q129 111 190.5 275t61.5 323q0 144 -52 245t-145.5 152.5t-217.5 51.5
q-190 0 -319.5 -111t-191 -275t-61.5 -323q0 -144 51.5 -245t145.5 -152.5t219 -51.5q190 0 319 111zM621 1585q-2 6 -2 9q0 11 12 17l299 159q10 7 24 7h53q15 0 24 -8l236 -158q9 -7 9 -16q0 -5 -3 -11l-33 -56q-6 -11 -16 -11q-5 0 -11 3l-249 119l-291 -120
q-3 -2 -10 -2q-12 0 -16 12z" />
    <glyph glyph-name="Otilde" unicode="&#xd5;" horiz-adv-x="1467" 
d="M380 46q-137 71 -213.5 207t-76.5 323q0 205 90.5 401t265.5 322t415 126q176 0 312.5 -71t213 -206.5t76.5 -321.5q0 -206 -90.5 -402.5t-265 -322.5t-414.5 -126q-176 0 -313 71zM1018 232q129 111 190.5 275t61.5 323q0 144 -52 245t-145.5 152.5t-217.5 51.5
q-190 0 -319.5 -111t-191 -275t-61.5 -323q0 -144 51.5 -245t145.5 -152.5t219 -51.5q190 0 319 111zM995 1553.5q-30 20.5 -64 58.5q-26 28 -43 41.5t-38 13.5q-34 0 -52 -27.5t-31 -81.5q-5 -17 -22 -17h-63q-9 0 -14 6t-3 15q21 102 69.5 161.5t126.5 59.5q44 0 74 -20.5
t66 -59.5q25 -27 42 -40t36 -13q36 0 54.5 27t30.5 80q4 17 22 17h63q17 0 17 -18q0 -6 -1 -9q-45 -214 -194 -214q-46 0 -76 20.5z" />
    <glyph glyph-name="Odieresis" unicode="&#xd6;" horiz-adv-x="1467" 
d="M380 46q-137 71 -213.5 207t-76.5 323q0 205 90.5 401t265.5 322t415 126q176 0 312.5 -71t213 -206.5t76.5 -321.5q0 -206 -90.5 -402.5t-265 -322.5t-414.5 -126q-176 0 -313 71zM1018 232q129 111 190.5 275t61.5 323q0 144 -52 245t-145.5 152.5t-217.5 51.5
q-190 0 -319.5 -111t-191 -275t-61.5 -323q0 -144 51.5 -245t145.5 -152.5t219 -51.5q190 0 319 111zM717 1529q-10 0 -14.5 6t-2.5 16l37 154q3 17 21 17h124q10 0 14.5 -6t2.5 -16l-37 -153q-3 -18 -21 -18h-124zM1036 1529q-10 0 -15 6t-2 16l36 154q5 17 22 17h124
q10 0 14.5 -6t2.5 -16l-37 -153q-4 -18 -21 -18h-124z" />
    <glyph glyph-name="multiply" unicode="&#xd7;" horiz-adv-x="1010" 
d="M1001 998q5 -5 5 -13q0 -9 -8 -14l-352 -284l216 -279q5 -7 5 -12q0 -7 -8 -15l-81 -72q-6 -6 -13 -6q-8 0 -14 9l-220 282l-358 -289q-6 -5 -13 -5q-8 0 -14 7l-64 74q-5 6 -5 13q0 8 7 15l363 292l-210 270q-5 7 -5 13q0 8 8 14l82 72q8 6 14 6q7 0 13 -8l213 -274
l347 279q6 6 12 6q7 0 15 -9z" />
    <glyph glyph-name="Oslash" unicode="&#xd8;" horiz-adv-x="1466" 
d="M1598 1380q5 -7 5 -12q0 -7 -8 -15l-214 -197q82 -138 82 -330q0 -206 -90.5 -402.5t-265 -322.5t-414.5 -126q-132 0 -241 40.5t-187 119.5l-216 -196q-6 -6 -13 -6q-8 0 -14 8l-67 79q-5 5 -5 12q0 6 7 15l215 196q-82 141 -82 333q0 205 90.5 401t265.5 322t415 126
q130 0 239.5 -41t187.5 -119l215 196q8 6 14 6q8 0 14 -8zM535.5 1168q-129.5 -111 -191 -275t-61.5 -323q0 -116 37 -202l851 775q-53 67 -134 101.5t-182 34.5q-190 0 -319.5 -111zM1018 232q129 111 190.5 275t61.5 323q0 116 -37 202l-852 -775q55 -67 136 -101.5
t182 -34.5q190 0 319 111z" />
    <glyph glyph-name="Ugrave" unicode="&#xd9;" horiz-adv-x="1241" 
d="M299 27.5q-103 52.5 -155.5 146.5t-52.5 218q0 76 19 155l100 425l90 411q3 17 21 17h156q10 0 14.5 -6t2.5 -16l-99 -402l-100 -433q-16 -67 -16 -133q0 -130 72 -207.5t215 -77.5q150 0 249.5 96t144.5 289l109 463l88 410q1 8 7.5 12.5t14.5 4.5h145q22 0 17 -22
l-99 -406l-108 -462q-62 -266 -207 -400.5t-379 -134.5q-146 0 -249 52.5zM1052 1519q-8 -17 -25 -11l-421 163q-13 4 -13 16l2 9l41 103q5 12 15 12q5 0 11 -3l404 -202q12 -6 12 -17q0 -3 -2 -9z" />
    <glyph glyph-name="Uacute" unicode="&#xda;" horiz-adv-x="1241" 
d="M299 27.5q-103 52.5 -155.5 146.5t-52.5 218q0 76 19 155l100 425l90 411q3 17 21 17h156q10 0 14.5 -6t2.5 -16l-99 -402l-100 -433q-16 -67 -16 -133q0 -130 72 -207.5t215 -77.5q150 0 249.5 96t144.5 289l109 463l88 410q1 8 7.5 12.5t14.5 4.5h145q22 0 17 -22
l-99 -406l-108 -462q-62 -266 -207 -400.5t-379 -134.5q-146 0 -249 52.5zM710 1513q-3 -1 -7 -1q-6 0 -11 3.5t-6 9.5l-19 63q-2 6 -2 8q0 11 13 17l450 194q5 3 10 3q10 0 15 -14l31 -106q1 -2 1 -6q0 -13 -14 -18z" />
    <glyph glyph-name="Ucircumflex" unicode="&#xdb;" horiz-adv-x="1241" 
d="M299 27.5q-103 52.5 -155.5 146.5t-52.5 218q0 76 19 155l100 425l90 411q3 17 21 17h156q10 0 14.5 -6t2.5 -16l-99 -402l-100 -433q-16 -67 -16 -133q0 -130 72 -207.5t215 -77.5q150 0 249.5 96t144.5 289l109 463l88 410q1 8 7.5 12.5t14.5 4.5h145q22 0 17 -22
l-99 -406l-108 -462q-62 -266 -207 -400.5t-379 -134.5q-146 0 -249 52.5zM547 1585q-2 6 -2 9q0 11 12 17l299 159q10 7 24 7h53q15 0 24 -8l236 -158q9 -7 9 -16q0 -5 -3 -11l-33 -56q-6 -11 -16 -11q-5 0 -11 3l-249 119l-291 -120q-3 -2 -10 -2q-12 0 -16 12z" />
    <glyph glyph-name="Udieresis" unicode="&#xdc;" horiz-adv-x="1241" 
d="M299 27.5q-103 52.5 -155.5 146.5t-52.5 218q0 76 19 155l100 425l90 411q3 17 21 17h156q10 0 14.5 -6t2.5 -16l-99 -402l-100 -433q-16 -67 -16 -133q0 -130 72 -207.5t215 -77.5q150 0 249.5 96t144.5 289l109 463l88 410q1 8 7.5 12.5t14.5 4.5h145q22 0 17 -22
l-99 -406l-108 -462q-62 -266 -207 -400.5t-379 -134.5q-146 0 -249 52.5zM643 1529q-10 0 -14.5 6t-2.5 16l37 154q3 17 21 17h124q10 0 14.5 -6t2.5 -16l-37 -153q-3 -18 -21 -18h-124zM962 1529q-10 0 -15 6t-2 16l36 154q5 17 22 17h124q10 0 14.5 -6t2.5 -16l-37 -153
q-4 -18 -21 -18h-124z" />
    <glyph glyph-name="Yacute" unicode="&#xdd;" horiz-adv-x="1134" 
d="M217 1378q-1 2 -1 6q0 16 18 16h157q18 0 22 -17l185 -717l516 722q9 12 24 12h165q8 0 12.5 -3.5t4.5 -8.5t-5 -12l-665 -884l-103 -475q-5 -17 -22 -17h-155q-10 0 -14.5 6t-2.5 16l118 474zM644 1513q-3 -1 -7 -1q-6 0 -11 3.5t-6 9.5l-19 63q-2 6 -2 8q0 11 13 17
l450 194q5 3 10 3q10 0 15 -14l31 -106q1 -2 1 -6q0 -13 -14 -18z" />
    <glyph glyph-name="Thorn" unicode="&#xde;" horiz-adv-x="1132" 
d="M687 1135q153 0 254 -47.5t149 -132.5t48 -198q0 -141 -70 -250.5t-202 -170.5t-312 -61h-309l-56 -258q-5 -17 -22 -17h-154q-10 0 -14.5 6t-2.5 16l170 697l145 664q1 8 7.5 12.5t14.5 4.5h153q11 0 15.5 -6t1.5 -16l-59 -243h243zM568 414q126 0 212 42.5t129 117.5
t43 171q0 116 -66.5 183.5t-211.5 67.5h-265l-70 -290l-64 -292h293z" />
    <glyph glyph-name="germandbls" unicode="&#xdf;" horiz-adv-x="1086" 
d="M0 -1q-10 0 -14.5 6t-2.5 16l106 442l126 544q97 417 489 417q123 0 209 -41.5t129.5 -114.5t43.5 -165q0 -131 -83.5 -224t-233.5 -124q129 -33 192.5 -112.5t63.5 -199.5q0 -127 -66.5 -227.5t-196.5 -158t-313 -57.5h-77q-10 0 -14.5 6t-2.5 16l23 95q5 18 22 18h57
q124 0 209 40.5t127.5 111t42.5 160.5q0 112 -71.5 175.5t-203.5 63.5h-28q-10 0 -14.5 5.5t-2.5 15.5l20 86q3 17 21 17h25q101 0 173.5 33.5t110 94t37.5 139.5q0 97 -56 154t-161 57q-226 0 -293 -282l-126 -543l-96 -446q-1 -9 -7 -13.5t-15 -4.5h-149z" />
    <glyph glyph-name="agrave" unicode="&#xe0;" horiz-adv-x="1080" 
d="M1082 1030q10 0 14.5 -6t2.5 -16l-118 -485l-111 -506q-1 -8 -7.5 -12.5t-14.5 -4.5h-140q-10 0 -14.5 6t-2.5 16l31 121q-61 -74 -142 -116t-179 -42q-111 0 -191.5 51t-123 143.5t-42.5 214.5q0 144 57.5 295t175.5 254t289 103q119 0 198.5 -55t111.5 -158l38 180
q5 17 21 17h147zM657.5 195q83.5 85 126.5 210t43 240q0 136 -61 205.5t-172 69.5q-127 0 -209.5 -86.5t-119.5 -208t-37 -227.5q0 -132 59.5 -210t170.5 -78q116 0 199.5 85zM867 1149q-8 -17 -25 -11l-421 163q-13 4 -13 16l2 9l41 103q5 12 15 12q5 0 11 -3l404 -202
q12 -6 12 -17q0 -3 -2 -9z" />
    <glyph glyph-name="aacute" unicode="&#xe1;" horiz-adv-x="1080" 
d="M1082 1030q10 0 14.5 -6t2.5 -16l-118 -485l-111 -506q-1 -8 -7.5 -12.5t-14.5 -4.5h-140q-10 0 -14.5 6t-2.5 16l31 121q-61 -74 -142 -116t-179 -42q-111 0 -191.5 51t-123 143.5t-42.5 214.5q0 144 57.5 295t175.5 254t289 103q119 0 198.5 -55t111.5 -158l38 180
q5 17 21 17h147zM657.5 195q83.5 85 126.5 210t43 240q0 136 -61 205.5t-172 69.5q-127 0 -209.5 -86.5t-119.5 -208t-37 -227.5q0 -132 59.5 -210t170.5 -78q116 0 199.5 85zM525 1143q-3 -1 -7 -1q-6 0 -11 3.5t-6 9.5l-19 63q-2 6 -2 8q0 11 13 17l450 194q5 3 10 3
q10 0 15 -14l31 -106q1 -2 1 -6q0 -13 -14 -18z" />
    <glyph glyph-name="acircumflex" unicode="&#xe2;" horiz-adv-x="1080" 
d="M1082 1030q10 0 14.5 -6t2.5 -16l-118 -485l-111 -506q-1 -8 -7.5 -12.5t-14.5 -4.5h-140q-10 0 -14.5 6t-2.5 16l31 121q-61 -74 -142 -116t-179 -42q-111 0 -191.5 51t-123 143.5t-42.5 214.5q0 144 57.5 295t175.5 254t289 103q119 0 198.5 -55t111.5 -158l38 180
q5 17 21 17h147zM657.5 195q83.5 85 126.5 210t43 240q0 136 -61 205.5t-172 69.5q-127 0 -209.5 -86.5t-119.5 -208t-37 -227.5q0 -132 59.5 -210t170.5 -78q116 0 199.5 85zM362 1215q-2 6 -2 9q0 11 12 17l299 159q10 7 24 7h53q15 0 24 -8l236 -158q9 -7 9 -16
q0 -5 -3 -11l-33 -56q-6 -11 -16 -11q-5 0 -11 3l-249 119l-291 -120q-3 -2 -10 -2q-12 0 -16 12z" />
    <glyph glyph-name="atilde" unicode="&#xe3;" horiz-adv-x="1080" 
d="M1082 1030q10 0 14.5 -6t2.5 -16l-118 -485l-111 -506q-1 -8 -7.5 -12.5t-14.5 -4.5h-140q-10 0 -14.5 6t-2.5 16l31 121q-61 -74 -142 -116t-179 -42q-111 0 -191.5 51t-123 143.5t-42.5 214.5q0 144 57.5 295t175.5 254t289 103q119 0 198.5 -55t111.5 -158l38 180
q5 17 21 17h147zM657.5 195q83.5 85 126.5 210t43 240q0 136 -61 205.5t-172 69.5q-127 0 -209.5 -86.5t-119.5 -208t-37 -227.5q0 -132 59.5 -210t170.5 -78q116 0 199.5 85zM737 1183.5q-30 20.5 -64 58.5q-26 28 -43 41.5t-38 13.5q-34 0 -52 -27.5t-31 -81.5
q-5 -17 -22 -17h-63q-9 0 -14 6t-3 15q21 102 69.5 161.5t126.5 59.5q44 0 74 -20.5t66 -59.5q25 -27 42 -40t36 -13q36 0 54.5 27t30.5 80q4 17 22 17h63q17 0 17 -18q0 -6 -1 -9q-45 -214 -194 -214q-46 0 -76 20.5z" />
    <glyph glyph-name="adieresis" unicode="&#xe4;" horiz-adv-x="1080" 
d="M1082 1030q10 0 14.5 -6t2.5 -16l-118 -485l-111 -506q-1 -8 -7.5 -12.5t-14.5 -4.5h-140q-10 0 -14.5 6t-2.5 16l31 121q-61 -74 -142 -116t-179 -42q-111 0 -191.5 51t-123 143.5t-42.5 214.5q0 144 57.5 295t175.5 254t289 103q119 0 198.5 -55t111.5 -158l38 180
q5 17 21 17h147zM657.5 195q83.5 85 126.5 210t43 240q0 136 -61 205.5t-172 69.5q-127 0 -209.5 -86.5t-119.5 -208t-37 -227.5q0 -132 59.5 -210t170.5 -78q116 0 199.5 85zM458 1159q-10 0 -14.5 6t-2.5 16l37 154q3 17 21 17h124q10 0 14.5 -6t2.5 -16l-37 -153
q-3 -18 -21 -18h-124zM777 1159q-10 0 -15 6t-2 16l36 154q5 17 22 17h124q10 0 14.5 -6t2.5 -16l-37 -153q-4 -18 -21 -18h-124z" />
    <glyph glyph-name="aring" unicode="&#xe5;" horiz-adv-x="1080" 
d="M1082 1030q10 0 14.5 -6t2.5 -16l-118 -485l-111 -506q-1 -8 -7.5 -12.5t-14.5 -4.5h-140q-10 0 -14.5 6t-2.5 16l31 121q-61 -74 -142 -116t-179 -42q-111 0 -191.5 51t-123 143.5t-42.5 214.5q0 144 57.5 295t175.5 254t289 103q119 0 198.5 -55t111.5 -158l38 180
q5 17 21 17h147zM657.5 195q83.5 85 126.5 210t43 240q0 136 -61 205.5t-172 69.5q-127 0 -209.5 -86.5t-119.5 -208t-37 -227.5q0 -132 59.5 -210t170.5 -78q116 0 199.5 85zM599 1170.5q-47 23.5 -74.5 66t-27.5 98.5q0 60 30 111t83.5 81.5t120.5 30.5q59 0 106.5 -24
t74.5 -67t27 -98q0 -60 -30.5 -111t-84 -81t-120.5 -30q-58 0 -105 23.5zM799 1262.5q37 41.5 37 103.5q0 55 -30 86t-77 31q-58 0 -94 -43t-36 -103q0 -55 30.5 -85.5t77.5 -30.5q55 0 92 41.5z" />
    <glyph glyph-name="ae" unicode="&#xe6;" horiz-adv-x="1831" 
d="M1595 1001q92 -50 142 -142t50 -215q0 -68 -14 -134q-4 -17 -21 -17h-759q-5 -38 -5 -65q0 -163 72 -243t201 -80q228 0 304 241q6 17 22 17h134q11 0 15.5 -6.5t1.5 -17.5q-52 -176 -174 -268t-296 -92q-127 0 -219.5 53.5t-138.5 153.5l-37 -169q-3 -17 -21 -17h-138
q-10 0 -15 6t-2 16l34 136q-62 -81 -145 -127t-185 -46q-111 0 -192 51t-123.5 143t-42.5 215q0 143 58 294.5t176 254.5t288 103q109 0 183.5 -48t110.5 -138l33 153q3 17 20 17h139q10 0 14.5 -6t2.5 -16l-31 -125q132 168 344 168q122 0 214 -50zM1603 615q5 33 5 60
q0 74 -30 130.5t-87 88t-135 31.5q-133 0 -220 -87.5t-123 -222.5h590zM657.5 195q83.5 85 126 210t42.5 240q-1 136 -61.5 205.5t-170.5 69.5q-128 0 -210.5 -86.5t-119.5 -208t-37 -227.5q0 -132 60 -210t171 -78q116 0 199.5 85z" />
    <glyph glyph-name="ccedilla" unicode="&#xe7;" horiz-adv-x="1042" 
d="M816.5 1006q91.5 -45 143 -127.5t53.5 -192.5q0 -19 -19 -19h-135q-19 0 -19 19q-5 113 -70.5 175t-174.5 62q-119 0 -201 -78t-121 -194.5t-39 -230.5q0 -155 69 -234.5t192 -79.5q109 0 188 62.5t117 193.5q6 17 23 17h135q10 0 14.5 -6.5t1.5 -17.5
q-53 -183 -175 -278.5t-298 -98.5l-160 -310q-9 -15 -25 -11l-124 22q-14 3 -14 14q0 5 3 11l172 290q-143 36 -223 147t-80 285q0 152 64 296.5t190 236.5t301 92q120 0 211.5 -45z" />
    <glyph glyph-name="egrave" unicode="&#xe8;" 
d="M827.5 1000.5q95.5 -50.5 147.5 -143.5t52 -217q0 -58 -14 -130q-3 -17 -21 -17h-758q-5 -32 -5 -76q0 -153 72 -232.5t201 -79.5q227 0 303 241q6 17 23 17h134q10 0 14.5 -6.5t1.5 -17.5q-53 -178 -176.5 -269t-302.5 -91q-134 0 -235.5 51.5t-157.5 152t-56 242.5
q0 154 64.5 298t190 236t300.5 92q127 0 222.5 -50.5zM843 615q5 35 5 60q0 74 -30 131t-87 88.5t-135 31.5q-134 0 -220 -87t-122 -224h589zM869 1149q-8 -17 -25 -11l-421 163q-13 4 -13 16l2 9l41 103q5 12 15 12q5 0 11 -3l404 -202q12 -6 12 -17q0 -3 -2 -9z" />
    <glyph glyph-name="eacute" unicode="&#xe9;" 
d="M827.5 1000.5q95.5 -50.5 147.5 -143.5t52 -217q0 -58 -14 -130q-3 -17 -21 -17h-758q-5 -32 -5 -76q0 -153 72 -232.5t201 -79.5q227 0 303 241q6 17 23 17h134q10 0 14.5 -6.5t1.5 -17.5q-53 -178 -176.5 -269t-302.5 -91q-134 0 -235.5 51.5t-157.5 152t-56 242.5
q0 154 64.5 298t190 236t300.5 92q127 0 222.5 -50.5zM843 615q5 35 5 60q0 74 -30 131t-87 88.5t-135 31.5q-134 0 -220 -87t-122 -224h589zM527 1143q-3 -1 -7 -1q-6 0 -11 3.5t-6 9.5l-19 63q-2 6 -2 8q0 11 13 17l450 194q5 3 10 3q10 0 15 -14l31 -106q1 -2 1 -6
q0 -13 -14 -18z" />
    <glyph glyph-name="ecircumflex" unicode="&#xea;" 
d="M827.5 1000.5q95.5 -50.5 147.5 -143.5t52 -217q0 -58 -14 -130q-3 -17 -21 -17h-758q-5 -32 -5 -76q0 -153 72 -232.5t201 -79.5q227 0 303 241q6 17 23 17h134q10 0 14.5 -6.5t1.5 -17.5q-53 -178 -176.5 -269t-302.5 -91q-134 0 -235.5 51.5t-157.5 152t-56 242.5
q0 154 64.5 298t190 236t300.5 92q127 0 222.5 -50.5zM843 615q5 35 5 60q0 74 -30 131t-87 88.5t-135 31.5q-134 0 -220 -87t-122 -224h589zM364 1215q-2 6 -2 9q0 11 12 17l299 159q10 7 24 7h53q15 0 24 -8l236 -158q9 -7 9 -16q0 -5 -3 -11l-33 -56q-6 -11 -16 -11
q-5 0 -11 3l-249 119l-291 -120q-3 -2 -10 -2q-12 0 -16 12z" />
    <glyph glyph-name="edieresis" unicode="&#xeb;" 
d="M827.5 1000.5q95.5 -50.5 147.5 -143.5t52 -217q0 -58 -14 -130q-3 -17 -21 -17h-758q-5 -32 -5 -76q0 -153 72 -232.5t201 -79.5q227 0 303 241q6 17 23 17h134q10 0 14.5 -6.5t1.5 -17.5q-53 -178 -176.5 -269t-302.5 -91q-134 0 -235.5 51.5t-157.5 152t-56 242.5
q0 154 64.5 298t190 236t300.5 92q127 0 222.5 -50.5zM843 615q5 35 5 60q0 74 -30 131t-87 88.5t-135 31.5q-134 0 -220 -87t-122 -224h589zM460 1159q-10 0 -14.5 6t-2.5 16l37 154q3 17 21 17h124q10 0 14.5 -6t2.5 -16l-37 -153q-3 -18 -21 -18h-124zM779 1159
q-10 0 -15 6t-2 16l36 154q5 17 22 17h124q10 0 14.5 -6t2.5 -16l-37 -153q-4 -18 -21 -18h-124z" />
    <glyph glyph-name="igrave" unicode="&#xec;" horiz-adv-x="399" 
d="M514 1155q-6 -12 -17 -12q-3 0 -9 2l-343 128q-13 5 -13 16q0 4 3 10l47 103q4 12 16 12q4 0 10 -3l323 -169q12 -4 12 -15q0 -5 -3 -10zM7 0q-10 0 -14.5 6t-1.5 16l122 510l106 481q4 17 22 17h149q10 0 14.5 -6t2.5 -16l-116 -475l-113 -516q-3 -17 -21 -17h-150z" />
    <glyph glyph-name="iacute" unicode="&#xed;" horiz-adv-x="399" 
d="M201 1141q-3 -1 -8 -1q-12 0 -17 14l-19 62q-1 3 -1 8q0 11 12 17l395 171q6 2 9 2q11 0 16 -14l29 -105q1 -3 1 -7q0 -12 -14 -17zM7 0q-10 0 -14.5 6t-1.5 16l122 510l106 481q4 17 22 17h149q10 0 14.5 -6t2.5 -16l-116 -475l-113 -516q-3 -17 -21 -17h-150z" />
    <glyph glyph-name="icircumflex" unicode="&#xee;" horiz-adv-x="399" 
d="M88 1217q-2 6 -2 10q0 9 10 16l246 157q10 7 24 7h52q14 0 24 -9l188 -155q8 -6 8 -14q0 -6 -5 -13l-38 -56q-6 -10 -15 -10q-6 0 -11 4l-194 117l-237 -118q-4 -3 -10 -3q-10 0 -16 12zM7 0q-10 0 -14.5 6t-1.5 16l122 510l106 481q4 17 22 17h149q10 0 14.5 -6t2.5 -16
l-116 -475l-113 -516q-3 -17 -21 -17h-150z" />
    <glyph glyph-name="idieresis" unicode="&#xef;" horiz-adv-x="399" 
d="M168 1159q-10 0 -14 6t-2 16l35 154q3 17 21 17h115q10 0 14 -6t2 -16l-35 -153q-3 -18 -21 -18h-115zM422 1159q-10 0 -14 6t-2 16l34 154q5 17 22 17h113q10 0 14.5 -6t2.5 -16l-35 -153q-3 -18 -21 -18h-114zM7 0q-10 0 -14.5 6t-1.5 16l122 510l106 481q4 17 22 17
h149q10 0 14.5 -6t2.5 -16l-116 -475l-113 -516q-3 -17 -21 -17h-150z" />
    <glyph glyph-name="eth" unicode="&#xf0;" horiz-adv-x="1112" 
d="M1170 1301q3 1 8 1q13 0 16 -14l16 -69q1 -2 1 -6q0 -13 -14 -18l-226 -70q105 -169 105 -396q0 -199 -65 -370t-198 -276t-327 -105q-129 0 -230.5 48.5t-159 142t-57.5 221.5q0 139 65.5 258.5t180.5 191t258 71.5q91 0 166 -31t126 -88.5t71 -134.5q5 57 5 122
q0 166 -89 300l-285 -89q-3 -1 -8 -1q-12 0 -17 14l-17 68q-1 3 -1 7q0 12 14 17l237 74q-86 92 -213 160q-12 6 -12 15q0 6 6 12l71 78q8 8 16 8q5 0 11 -3q177 -104 278 -222zM677 163q78 58 118.5 149.5t40.5 189.5q0 86 -34 149t-94.5 96.5t-139.5 33.5q-107 0 -184 -58
t-116 -148.5t-39 -187.5q0 -88 33 -151.5t92.5 -97t138.5 -33.5q106 0 184 58z" />
    <glyph glyph-name="ntilde" unicode="&#xf1;" horiz-adv-x="1050" 
d="M-3 0q-10 0 -14.5 6t-2.5 16l110 446l121 545q3 17 21 17h140q10 0 14.5 -6t2.5 -16l-40 -159q59 89 154 147t205 58q85 0 151.5 -34t104 -101t37.5 -161q0 -56 -15 -124l-45 -194l-93 -423q-1 -8 -7.5 -12.5t-14.5 -4.5h-148q-10 0 -14.5 6t-2.5 16l99 401l43 197
q13 55 13 104q0 94 -48 142.5t-132 48.5q-110 0 -194.5 -86t-142.5 -224l-43 -184l-87 -404q-1 -8 -7.5 -12.5t-14.5 -4.5h-150zM740 1183.5q-30 20.5 -64 58.5q-26 28 -43 41.5t-38 13.5q-34 0 -52 -27.5t-31 -81.5q-5 -17 -22 -17h-63q-9 0 -14 6t-3 15q21 102 69.5 161.5
t126.5 59.5q44 0 74 -20.5t66 -59.5q25 -27 42 -40t36 -13q36 0 54.5 27t30.5 80q4 17 22 17h63q17 0 17 -18q0 -6 -1 -9q-45 -214 -194 -214q-46 0 -76 20.5z" />
    <glyph glyph-name="ograve" unicode="&#xf2;" horiz-adv-x="1100" 
d="M261.5 31.5q-99.5 52.5 -155.5 153.5t-56 241q0 153 66 297t193.5 236t302.5 92q128 0 227.5 -52.5t155 -153t55.5 -239.5q0 -154 -65.5 -298.5t-193 -236.5t-302.5 -92q-128 0 -227.5 52.5zM700.5 184q83.5 79 124.5 197t41 232q0 100 -32 170t-90.5 106t-137.5 36
q-123 0 -207 -79t-124.5 -197t-40.5 -232q0 -100 32 -170t91 -106t138 -36q122 0 205.5 79zM881 1149q-8 -17 -25 -11l-421 163q-13 4 -13 16l2 9l41 103q5 12 15 12q5 0 11 -3l404 -202q12 -6 12 -17q0 -3 -2 -9z" />
    <glyph glyph-name="oacute" unicode="&#xf3;" horiz-adv-x="1100" 
d="M261.5 31.5q-99.5 52.5 -155.5 153.5t-56 241q0 153 66 297t193.5 236t302.5 92q128 0 227.5 -52.5t155 -153t55.5 -239.5q0 -154 -65.5 -298.5t-193 -236.5t-302.5 -92q-128 0 -227.5 52.5zM700.5 184q83.5 79 124.5 197t41 232q0 100 -32 170t-90.5 106t-137.5 36
q-123 0 -207 -79t-124.5 -197t-40.5 -232q0 -100 32 -170t91 -106t138 -36q122 0 205.5 79zM539 1143q-3 -1 -7 -1q-6 0 -11 3.5t-6 9.5l-19 63q-2 6 -2 8q0 11 13 17l450 194q5 3 10 3q10 0 15 -14l31 -106q1 -2 1 -6q0 -13 -14 -18z" />
    <glyph glyph-name="ocircumflex" unicode="&#xf4;" horiz-adv-x="1100" 
d="M261.5 31.5q-99.5 52.5 -155.5 153.5t-56 241q0 153 66 297t193.5 236t302.5 92q128 0 227.5 -52.5t155 -153t55.5 -239.5q0 -154 -65.5 -298.5t-193 -236.5t-302.5 -92q-128 0 -227.5 52.5zM700.5 184q83.5 79 124.5 197t41 232q0 100 -32 170t-90.5 106t-137.5 36
q-123 0 -207 -79t-124.5 -197t-40.5 -232q0 -100 32 -170t91 -106t138 -36q122 0 205.5 79zM376 1215q-2 6 -2 9q0 11 12 17l299 159q10 7 24 7h53q15 0 24 -8l236 -158q9 -7 9 -16q0 -5 -3 -11l-33 -56q-6 -11 -16 -11q-5 0 -11 3l-249 119l-291 -120q-3 -2 -10 -2
q-12 0 -16 12z" />
    <glyph glyph-name="otilde" unicode="&#xf5;" horiz-adv-x="1100" 
d="M261.5 31.5q-99.5 52.5 -155.5 153.5t-56 241q0 153 66 297t193.5 236t302.5 92q128 0 227.5 -52.5t155 -153t55.5 -239.5q0 -154 -65.5 -298.5t-193 -236.5t-302.5 -92q-128 0 -227.5 52.5zM700.5 184q83.5 79 124.5 197t41 232q0 100 -32 170t-90.5 106t-137.5 36
q-123 0 -207 -79t-124.5 -197t-40.5 -232q0 -100 32 -170t91 -106t138 -36q122 0 205.5 79zM750 1183.5q-30 20.5 -64 58.5q-26 28 -43 41.5t-38 13.5q-34 0 -52 -27.5t-31 -81.5q-5 -17 -22 -17h-63q-9 0 -14 6t-3 15q21 102 69.5 161.5t126.5 59.5q44 0 74 -20.5t66 -59.5
q25 -27 42 -40t36 -13q36 0 54.5 27t30.5 80q4 17 22 17h63q17 0 17 -18q0 -6 -1 -9q-45 -214 -194 -214q-46 0 -76 20.5z" />
    <glyph glyph-name="odieresis" unicode="&#xf6;" horiz-adv-x="1100" 
d="M261.5 31.5q-99.5 52.5 -155.5 153.5t-56 241q0 153 66 297t193.5 236t302.5 92q128 0 227.5 -52.5t155 -153t55.5 -239.5q0 -154 -65.5 -298.5t-193 -236.5t-302.5 -92q-128 0 -227.5 52.5zM700.5 184q83.5 79 124.5 197t41 232q0 100 -32 170t-90.5 106t-137.5 36
q-123 0 -207 -79t-124.5 -197t-40.5 -232q0 -100 32 -170t91 -106t138 -36q122 0 205.5 79zM472 1159q-10 0 -14.5 6t-2.5 16l37 154q3 17 21 17h124q10 0 14.5 -6t2.5 -16l-37 -153q-3 -18 -21 -18h-124zM791 1159q-10 0 -15 6t-2 16l36 154q5 17 22 17h124q10 0 14.5 -6
t2.5 -16l-37 -153q-4 -18 -21 -18h-124z" />
    <glyph glyph-name="divide" unicode="&#xf7;" horiz-adv-x="1010" 
d="M540 1007q-10 0 -14.5 6t-2.5 16l38 162q3 18 21 18h164q10 0 14.5 -6t2.5 -16l-38 -163q-3 -17 -21 -17h-164zM101 618q-10 0 -14.5 5.5t-2.5 15.5l24 104q3 17 21 17h861q11 0 15.5 -5.5t2.5 -15.5l-24 -104q-3 -17 -21 -17h-862zM347 173q-10 0 -14.5 6t-2.5 16
l38 162q3 18 21 18h164q10 0 14.5 -6t2.5 -16l-38 -163q-3 -17 -21 -17h-164z" />
    <glyph glyph-name="oslash" unicode="&#xf8;" horiz-adv-x="1099" 
d="M323.5 6q-75.5 27 -130.5 80l-152 -143q-7 -7 -14 -7t-13 8l-49 59q-5 7 -5 13q0 7 7 14l148 140q-65 105 -65 256q0 153 66 297t193.5 236t302.5 92q89 0 163.5 -26.5t129.5 -77.5l150 140q7 7 14 7q8 0 14 -8l48 -59q6 -6 6 -13q0 -5 -7 -14l-145 -137q65 -109 65 -257
q0 -154 -65.5 -298.5t-193 -236.5t-302.5 -92q-90 0 -165.5 27zM399 846q-84 -79 -124.5 -197t-40.5 -232q0 -69 21 -120l548 538q-34 44 -84.5 67t-112.5 23q-123 0 -207 -79zM700.5 184q83.5 79 124.5 197t41 232q0 72 -21 123l-549 -539q33 -45 84 -68.5t115 -23.5
q122 0 205.5 79z" />
    <glyph glyph-name="ugrave" unicode="&#xf9;" horiz-adv-x="1050" 
d="M1051 1030q10 0 14.5 -6t2.5 -16l-110 -446l-121 -545q-3 -17 -21 -17h-140q-10 0 -14.5 6t-2.5 16l40 159q-59 -89 -154 -147t-205 -58q-85 0 -151.5 34t-104.5 100.5t-38 160.5q0 60 16 125l45 194l93 423q5 17 22 17h148q10 0 14.5 -6t2.5 -16l-99 -401l-42 -197
q-13 -56 -13 -105q0 -93 47.5 -141.5t131.5 -48.5q110 0 194 86t142 224l44 184l87 404q5 17 22 17h150zM858 1149q-8 -17 -25 -11l-421 163q-13 4 -13 16l2 9l41 103q5 12 15 12q5 0 11 -3l404 -202q12 -6 12 -17q0 -3 -2 -9z" />
    <glyph glyph-name="uacute" unicode="&#xfa;" horiz-adv-x="1050" 
d="M1051 1030q10 0 14.5 -6t2.5 -16l-110 -446l-121 -545q-3 -17 -21 -17h-140q-10 0 -14.5 6t-2.5 16l40 159q-59 -89 -154 -147t-205 -58q-85 0 -151.5 34t-104.5 100.5t-38 160.5q0 60 16 125l45 194l93 423q5 17 22 17h148q10 0 14.5 -6t2.5 -16l-99 -401l-42 -197
q-13 -56 -13 -105q0 -93 47.5 -141.5t131.5 -48.5q110 0 194 86t142 224l44 184l87 404q5 17 22 17h150zM516 1143q-3 -1 -7 -1q-6 0 -11 3.5t-6 9.5l-19 63q-2 6 -2 8q0 11 13 17l450 194q5 3 10 3q10 0 15 -14l31 -106q1 -2 1 -6q0 -13 -14 -18z" />
    <glyph glyph-name="ucircumflex" unicode="&#xfb;" horiz-adv-x="1050" 
d="M1051 1030q10 0 14.5 -6t2.5 -16l-110 -446l-121 -545q-3 -17 -21 -17h-140q-10 0 -14.5 6t-2.5 16l40 159q-59 -89 -154 -147t-205 -58q-85 0 -151.5 34t-104.5 100.5t-38 160.5q0 60 16 125l45 194l93 423q5 17 22 17h148q10 0 14.5 -6t2.5 -16l-99 -401l-42 -197
q-13 -56 -13 -105q0 -93 47.5 -141.5t131.5 -48.5q110 0 194 86t142 224l44 184l87 404q5 17 22 17h150zM353 1215q-2 6 -2 9q0 11 12 17l299 159q10 7 24 7h53q15 0 24 -8l236 -158q9 -7 9 -16q0 -5 -3 -11l-33 -56q-6 -11 -16 -11q-5 0 -11 3l-249 119l-291 -120
q-3 -2 -10 -2q-12 0 -16 12z" />
    <glyph glyph-name="udieresis" unicode="&#xfc;" horiz-adv-x="1050" 
d="M1051 1030q10 0 14.5 -6t2.5 -16l-110 -446l-121 -545q-3 -17 -21 -17h-140q-10 0 -14.5 6t-2.5 16l40 159q-59 -89 -154 -147t-205 -58q-85 0 -151.5 34t-104.5 100.5t-38 160.5q0 60 16 125l45 194l93 423q5 17 22 17h148q10 0 14.5 -6t2.5 -16l-99 -401l-42 -197
q-13 -56 -13 -105q0 -93 47.5 -141.5t131.5 -48.5q110 0 194 86t142 224l44 184l87 404q5 17 22 17h150zM449 1159q-10 0 -14.5 6t-2.5 16l37 154q3 17 21 17h124q10 0 14.5 -6t2.5 -16l-37 -153q-3 -18 -21 -18h-124zM768 1159q-10 0 -15 6t-2 16l36 154q5 17 22 17h124
q10 0 14.5 -6t2.5 -16l-37 -153q-4 -18 -21 -18h-124z" />
    <glyph glyph-name="yacute" unicode="&#xfd;" horiz-adv-x="950" 
d="M116 -340q-8 0 -12.5 3.5t-4.5 9.5q0 3 4 11l189 326l-168 999l-1 6q0 7 5 11t13 4h149q18 0 21 -18l112 -784l436 788q7 14 23 14h160q8 0 12.5 -3.5t4.5 -9.5q0 -3 -4 -11l-770 -1333q-9 -13 -23 -13h-146zM465 1143q-3 -1 -7 -1q-6 0 -11 3.5t-6 9.5l-19 63q-2 6 -2 8
q0 11 13 17l450 194q5 3 10 3q10 0 15 -14l31 -106q1 -2 1 -6q0 -13 -14 -18z" />
    <glyph glyph-name="thorn" unicode="&#xfe;" horiz-adv-x="1078" 
d="M869 995q81 -51 123.5 -143t42.5 -215q0 -143 -58 -294.5t-176 -254.5t-288 -103q-116 0 -194.5 52t-113.5 149l-114 -509q-3 -17 -21 -17h-150q-10 0 -14.5 6t-2.5 16l203 856l189 845q3 17 21 17h145q10 0 14.5 -6t2.5 -16l-119 -488q61 73 141 114.5t177 41.5
q111 0 192 -51zM694 195q83 87 120 209t37 229q0 133 -59.5 212t-170.5 79q-116 0 -200 -85.5t-126.5 -211.5t-42.5 -241q0 -138 60.5 -208t170.5 -70q128 0 211 87z" />
    <glyph glyph-name="ydieresis" unicode="&#xff;" horiz-adv-x="950" 
d="M116 -340q-8 0 -12.5 3.5t-4.5 9.5q0 3 4 11l189 326l-168 999l-1 6q0 7 5 11t13 4h149q18 0 21 -18l112 -784l436 788q7 14 23 14h160q8 0 12.5 -3.5t4.5 -9.5q0 -3 -4 -11l-770 -1333q-9 -13 -23 -13h-146zM398 1159q-10 0 -14.5 6t-2.5 16l37 154q3 17 21 17h124
q10 0 14.5 -6t2.5 -16l-37 -153q-3 -18 -21 -18h-124zM717 1159q-10 0 -15 6t-2 16l36 154q5 17 22 17h124q10 0 14.5 -6t2.5 -16l-37 -153q-4 -18 -21 -18h-124z" />
    <glyph glyph-name="Amacron" unicode="&#x100;" horiz-adv-x="1258" 
d="M1130 21v-4q0 -17 -18 -17h-143q-19 0 -20 19l-46 404h-570l-234 -410q-8 -13 -23 -13h-161q-16 0 -16 13q0 5 3 11l805 1363q7 13 23 13h211q18 0 21 -19zM888 573l-78 693l-395 -693h473zM605 1560q-10 0 -14.5 6t-2.5 16l22 90q3 17 21 17h547q10 0 14.5 -5.5
t2.5 -15.5l-22 -91q-4 -17 -21 -17h-547z" />
    <glyph glyph-name="amacron" unicode="&#x101;" horiz-adv-x="1080" 
d="M1082 1030q10 0 14.5 -6t2.5 -16l-118 -485l-111 -506q-1 -8 -7.5 -12.5t-14.5 -4.5h-140q-10 0 -14.5 6t-2.5 16l31 121q-61 -74 -142 -116t-179 -42q-111 0 -191.5 51t-123 143.5t-42.5 214.5q0 144 57.5 295t175.5 254t289 103q119 0 198.5 -55t111.5 -158l38 180
q5 17 21 17h147zM657.5 195q83.5 85 126.5 210t43 240q0 136 -61 205.5t-172 69.5q-127 0 -209.5 -86.5t-119.5 -208t-37 -227.5q0 -132 59.5 -210t170.5 -78q116 0 199.5 85zM414 1190q-10 0 -14.5 6t-2.5 16l22 90q3 17 21 17h547q10 0 14.5 -5.5t2.5 -15.5l-22 -91
q-4 -17 -21 -17h-547z" />
    <glyph glyph-name="Abreve" unicode="&#x102;" horiz-adv-x="1258" 
d="M1130 21v-4q0 -17 -18 -17h-143q-19 0 -20 19l-46 404h-570l-234 -410q-8 -13 -23 -13h-161q-16 0 -16 13q0 5 3 11l805 1363q7 13 23 13h211q18 0 21 -19zM888 573l-78 693l-395 -693h473zM755.5 1549.5q-56.5 29.5 -86.5 82t-30 118.5q0 16 1 24q3 19 21 19h85
q10 0 15 -5.5t4 -15.5q-5 -58 30 -93.5t101 -35.5q65 0 111 36t63 97q5 17 21 17h88q10 0 15 -5.5t3 -15.5q-16 -73 -58.5 -130.5t-107 -89.5t-143.5 -32q-76 0 -132.5 29.5z" />
    <glyph glyph-name="abreve" unicode="&#x103;" horiz-adv-x="1080" 
d="M1082 1030q10 0 14.5 -6t2.5 -16l-118 -485l-111 -506q-1 -8 -7.5 -12.5t-14.5 -4.5h-140q-10 0 -14.5 6t-2.5 16l31 121q-61 -74 -142 -116t-179 -42q-111 0 -191.5 51t-123 143.5t-42.5 214.5q0 144 57.5 295t175.5 254t289 103q119 0 198.5 -55t111.5 -158l38 180
q5 17 21 17h147zM657.5 195q83.5 85 126.5 210t43 240q0 136 -61 205.5t-172 69.5q-127 0 -209.5 -86.5t-119.5 -208t-37 -227.5q0 -132 59.5 -210t170.5 -78q116 0 199.5 85zM564.5 1179.5q-56.5 29.5 -86.5 82t-30 118.5q0 16 1 24q3 19 21 19h85q10 0 15 -5.5t4 -15.5
q-5 -58 30 -93.5t101 -35.5q65 0 111 36t63 97q5 17 21 17h88q10 0 15 -5.5t3 -15.5q-16 -73 -58.5 -130.5t-107 -89.5t-143.5 -32q-76 0 -132.5 29.5z" />
    <glyph glyph-name="Aogonek" unicode="&#x104;" horiz-adv-x="1258" 
d="M1130 21v-4q0 -17 -18 -17h-81q-53 -23 -93 -70.5t-40 -99.5q0 -41 29 -62.5t87 -21.5h64q10 0 14.5 -6t2.5 -16l-20 -87q-3 -17 -21 -17h-82q-109 0 -168.5 48t-59.5 126q0 76 57 136t147 94l-45 399h-570l-234 -410q-8 -13 -23 -13h-161q-16 0 -16 13q0 5 3 11
l805 1363q7 13 23 13h211q18 0 21 -19zM810 1266l-395 -693h473z" />
    <glyph glyph-name="aogonek" unicode="&#x105;" horiz-adv-x="1080" 
d="M1082 1030q10 0 14.5 -6t2.5 -16l-118 -485l-111 -506q-1 -8 -7.5 -12.5t-14.5 -4.5h-43q-53 -23 -93 -70.5t-40 -99.5q0 -41 29 -62.5t87 -21.5h64q10 0 14.5 -6t2.5 -16l-20 -87q-3 -17 -21 -17h-82q-109 0 -168.5 48t-59.5 126q0 69 47.5 125t125.5 92q-2 5 0 11
l31 121q-61 -74 -142 -116t-179 -42q-111 0 -191.5 51t-123 143.5t-42.5 214.5q0 144 57.5 295t175.5 254t289 103q119 0 198.5 -55t111.5 -158l38 180q5 17 21 17h147zM657.5 195q83.5 85 126.5 210t43 240q0 136 -61 205.5t-172 69.5q-127 0 -209.5 -86.5t-119.5 -208
t-37 -227.5q0 -132 59.5 -210t170.5 -78q116 0 199.5 85z" />
    <glyph glyph-name="Cacute" unicode="&#x106;" horiz-adv-x="1365" 
d="M371.5 45.5q-132.5 70.5 -205.5 206.5t-73 327q0 204 86 399t254 321t401 126q159 0 280 -61t190 -172t73 -259q0 -20 -20 -20h-142q-18 0 -20 19q-8 166 -106 256.5t-263 90.5q-182 0 -303.5 -111t-179 -274t-57.5 -319q0 -150 49 -251.5t139 -152t214 -50.5
q160 0 274 89t173 278q6 17 22 17h146q17 0 17 -16q0 -6 -1 -9q-74 -248 -239 -376.5t-401 -128.5q-175 0 -307.5 70.5zM741 1513q-3 -1 -7 -1q-6 0 -11 3.5t-6 9.5l-19 63q-2 6 -2 8q0 11 13 17l450 194q5 3 10 3q10 0 15 -14l31 -106q1 -2 1 -6q0 -13 -14 -18z" />
    <glyph glyph-name="cacute" unicode="&#x107;" horiz-adv-x="1042" 
d="M258.5 30q-99.5 52 -154 152.5t-54.5 243.5q0 152 64 296.5t190 236.5t301 92q120 0 211.5 -45t143 -127.5t53.5 -192.5q0 -19 -19 -19h-135q-19 0 -19 19q-5 113 -70.5 175t-174.5 62q-119 0 -201 -78t-121 -194.5t-39 -230.5q0 -155 69 -234.5t192 -79.5
q109 0 188 62.5t117 193.5q6 17 23 17h135q10 0 14.5 -6.5t1.5 -17.5q-54 -185 -179 -281t-304 -96q-133 0 -232.5 52zM518 1143q-3 -1 -7 -1q-6 0 -11 3.5t-6 9.5l-19 63q-2 6 -2 8q0 11 13 17l450 194q5 3 10 3q10 0 15 -14l31 -106q1 -2 1 -6q0 -13 -14 -18z" />
    <glyph glyph-name="Ccircumflex" unicode="&#x108;" horiz-adv-x="1365" 
d="M371.5 45.5q-132.5 70.5 -205.5 206.5t-73 327q0 204 86 399t254 321t401 126q159 0 280 -61t190 -172t73 -259q0 -20 -20 -20h-142q-18 0 -20 19q-8 166 -106 256.5t-263 90.5q-182 0 -303.5 -111t-179 -274t-57.5 -319q0 -150 49 -251.5t139 -152t214 -50.5
q160 0 274 89t173 278q6 17 22 17h146q17 0 17 -16q0 -6 -1 -9q-74 -248 -239 -376.5t-401 -128.5q-175 0 -307.5 70.5zM578 1585q-2 6 -2 9q0 11 12 17l299 159q10 7 24 7h53q15 0 24 -8l236 -158q9 -7 9 -16q0 -5 -3 -11l-33 -56q-6 -11 -16 -11q-5 0 -11 3l-249 119
l-291 -120q-3 -2 -10 -2q-12 0 -16 12z" />
    <glyph glyph-name="ccircumflex" unicode="&#x109;" horiz-adv-x="1042" 
d="M258.5 30q-99.5 52 -154 152.5t-54.5 243.5q0 152 64 296.5t190 236.5t301 92q120 0 211.5 -45t143 -127.5t53.5 -192.5q0 -19 -19 -19h-135q-19 0 -19 19q-5 113 -70.5 175t-174.5 62q-119 0 -201 -78t-121 -194.5t-39 -230.5q0 -155 69 -234.5t192 -79.5
q109 0 188 62.5t117 193.5q6 17 23 17h135q10 0 14.5 -6.5t1.5 -17.5q-54 -185 -179 -281t-304 -96q-133 0 -232.5 52zM356 1215q-2 6 -2 9q0 11 12 17l299 159q10 7 24 7h53q15 0 24 -8l236 -158q9 -7 9 -16q0 -5 -3 -11l-33 -56q-6 -11 -16 -11q-5 0 -11 3l-249 119
l-291 -120q-3 -2 -10 -2q-12 0 -16 12z" />
    <glyph glyph-name="Cdotaccent" unicode="&#x10a;" horiz-adv-x="1365" 
d="M371.5 45.5q-132.5 70.5 -205.5 206.5t-73 327q0 204 86 399t254 321t401 126q159 0 280 -61t190 -172t73 -259q0 -20 -20 -20h-142q-18 0 -20 19q-8 166 -106 256.5t-263 90.5q-182 0 -303.5 -111t-179 -274t-57.5 -319q0 -150 49 -251.5t139 -152t214 -50.5
q160 0 274 89t173 278q6 17 22 17h146q17 0 17 -16q0 -6 -1 -9q-74 -248 -239 -376.5t-401 -128.5q-175 0 -307.5 70.5zM823 1529q-10 0 -14.5 6t-2.5 16l37 154q3 17 21 17h145q10 0 14.5 -6t2.5 -16l-37 -153q-3 -18 -21 -18h-145z" />
    <glyph glyph-name="cdotaccent" unicode="&#x10b;" horiz-adv-x="1042" 
d="M258.5 30q-99.5 52 -154 152.5t-54.5 243.5q0 152 64 296.5t190 236.5t301 92q120 0 211.5 -45t143 -127.5t53.5 -192.5q0 -19 -19 -19h-135q-19 0 -19 19q-5 113 -70.5 175t-174.5 62q-119 0 -201 -78t-121 -194.5t-39 -230.5q0 -155 69 -234.5t192 -79.5
q109 0 188 62.5t117 193.5q6 17 23 17h135q10 0 14.5 -6.5t1.5 -17.5q-54 -185 -179 -281t-304 -96q-133 0 -232.5 52zM600 1159q-10 0 -14.5 6t-2.5 16l37 154q3 17 21 17h145q10 0 14.5 -6t2.5 -16l-37 -153q-3 -18 -21 -18h-145z" />
    <glyph glyph-name="Ccaron" unicode="&#x10c;" horiz-adv-x="1365" 
d="M371.5 45.5q-132.5 70.5 -205.5 206.5t-73 327q0 204 86 399t254 321t401 126q159 0 280 -61t190 -172t73 -259q0 -20 -20 -20h-142q-18 0 -20 19q-8 166 -106 256.5t-263 90.5q-182 0 -303.5 -111t-179 -274t-57.5 -319q0 -150 49 -251.5t139 -152t214 -50.5
q160 0 274 89t173 278q6 17 22 17h146q17 0 17 -16q0 -6 -1 -9q-74 -248 -239 -376.5t-401 -128.5q-175 0 -307.5 70.5zM604 1681q-9 6 -9 15q0 6 3 12l34 55q6 11 16 11q4 0 10 -3l249 -118l292 120q3 2 10 2q11 0 15 -12l26 -56q2 -6 2 -9q0 -12 -11 -18l-299 -159
q-12 -6 -25 -6h-53q-13 0 -24 8z" />
    <glyph glyph-name="ccaron" unicode="&#x10d;" horiz-adv-x="1042" 
d="M258.5 30q-99.5 52 -154 152.5t-54.5 243.5q0 152 64 296.5t190 236.5t301 92q120 0 211.5 -45t143 -127.5t53.5 -192.5q0 -19 -19 -19h-135q-19 0 -19 19q-5 113 -70.5 175t-174.5 62q-119 0 -201 -78t-121 -194.5t-39 -230.5q0 -155 69 -234.5t192 -79.5
q109 0 188 62.5t117 193.5q6 17 23 17h135q10 0 14.5 -6.5t1.5 -17.5q-54 -185 -179 -281t-304 -96q-133 0 -232.5 52zM381 1311q-9 6 -9 15q0 6 3 12l34 55q6 11 16 11q4 0 10 -3l249 -118l292 120q3 2 10 2q11 0 15 -12l26 -56q2 -6 2 -9q0 -12 -11 -18l-299 -159
q-12 -6 -25 -6h-53q-13 0 -24 8z" />
    <glyph glyph-name="Dcaron" unicode="&#x10e;" horiz-adv-x="1339" 
d="M10 0q-10 0 -14.5 6t-1.5 16l171 699l143 662q5 17 22 17h395q181 0 319.5 -68t215.5 -197.5t77 -308.5q0 -200 -91 -391t-268 -313t-421 -122h-547zM563 142q194 0 325.5 107.5t193.5 266.5t62 314q0 138 -52 234t-148 145t-225 49h-244l-133 -534l-126 -582h347z
M553 1681q-9 6 -9 15q0 6 3 12l34 55q6 11 16 11q4 0 10 -3l249 -118l292 120q3 2 10 2q11 0 15 -12l26 -56q2 -6 2 -9q0 -12 -11 -18l-299 -159q-12 -6 -25 -6h-53q-13 0 -24 8z" />
    <glyph glyph-name="dcaron" unicode="&#x10f;" horiz-adv-x="1085" 
d="M1165 1400q10 0 14.5 -6t2.5 -16l-187 -789l-127 -572q-3 -17 -21 -17h-138q-10 0 -15 6t-2 16l31 122q-62 -74 -142.5 -116.5t-179.5 -42.5q-111 0 -192 51t-123.5 143t-42.5 215q0 143 58 294.5t176 254.5t288 103q119 0 198.5 -55t111.5 -158l121 550q3 17 21 17h148z
M657.5 195q83.5 85 126 210t42.5 240q0 136 -60.5 205.5t-170.5 69.5q-128 0 -211 -86.5t-120 -208t-37 -227.5q0 -132 60 -210t171 -78q116 0 199.5 85zM1306 1122q-8 -15 -22 -15h-83q-17 0 -17 14q0 3 2 9l158 373q6 15 23 15h116q17 0 17 -13q0 -5 -3 -11z" />
    <glyph glyph-name="Dcroat" unicode="&#x110;" horiz-adv-x="1353" 
d="M739 1400q181 0 319.5 -68t215.5 -197.5t77 -308.5q0 -200 -91 -391t-268 -313t-421 -122h-546q-11 0 -15.5 6t-1.5 16l161 659h-125q-10 0 -14.5 5.5t-2.5 15.5l24 103q4 17 22 17h127l122 561q5 17 22 17h395zM577 142q194 0 325.5 107.5t193.5 266.5t62 314
q0 138 -52 234t-148 145t-225 49h-244l-107 -436h372q10 0 14.5 -5.5t2.5 -15.5l-24 -103q-3 -17 -21 -17h-378l-118 -539h347z" />
    <glyph glyph-name="dcroat" unicode="&#x111;" horiz-adv-x="1089" 
d="M1244 1267q10 0 14 -5.5t2 -15.5l-21 -92q-3 -17 -21 -17h-93l-129 -548l-127 -572q-3 -17 -21 -17h-138q-10 0 -15 6t-2 16l31 124q-62 -76 -142.5 -118.5t-179.5 -42.5q-112 0 -193 50.5t-123.5 142.5t-42.5 214q0 144 58 296t175.5 255t287.5 103q121 0 200 -55.5
t111 -160.5l68 307h-301q-10 0 -14.5 5.5t-2.5 15.5l22 92q3 17 21 17h303l26 116q3 17 21 17h148q10 0 14.5 -6t2.5 -16l-26 -111h87zM657.5 194q83.5 85 126 210t42.5 239q0 138 -61 208t-171 70q-128 0 -210.5 -87.5t-119.5 -209.5t-37 -228q0 -131 60 -209t172 -78
q115 0 198.5 85z" />
    <glyph glyph-name="Emacron" unicode="&#x112;" 
d="M10 0q-10 0 -14.5 6t-1.5 16l172 703l142 658q5 17 22 17h843q10 0 14.5 -6t2.5 -16l-24 -102q-3 -18 -21 -18h-673l-110 -440h628q22 0 17 -22l-24 -102q-3 -17 -21 -17h-633l-115 -535h684q10 0 14.5 -6t2.5 -16l-24 -103q-3 -17 -21 -17h-860zM544 1560q-10 0 -14.5 6
t-2.5 16l22 90q3 17 21 17h547q10 0 14.5 -5.5t2.5 -15.5l-22 -91q-4 -17 -21 -17h-547z" />
    <glyph glyph-name="emacron" unicode="&#x113;" 
d="M827.5 1000.5q95.5 -50.5 147.5 -143.5t52 -217q0 -58 -14 -130q-3 -17 -21 -17h-758q-5 -32 -5 -76q0 -153 72 -232.5t201 -79.5q227 0 303 241q6 17 23 17h134q10 0 14.5 -6.5t1.5 -17.5q-53 -178 -176.5 -269t-302.5 -91q-134 0 -235.5 51.5t-157.5 152t-56 242.5
q0 154 64.5 298t190 236t300.5 92q127 0 222.5 -50.5zM843 615q5 35 5 60q0 74 -30 131t-87 88.5t-135 31.5q-134 0 -220 -87t-122 -224h589zM416 1190q-10 0 -14.5 6t-2.5 16l22 90q3 17 21 17h547q10 0 14.5 -5.5t2.5 -15.5l-22 -91q-4 -17 -21 -17h-547z" />
    <glyph glyph-name="Ebreve" unicode="&#x114;" 
d="M10 0q-10 0 -14.5 6t-1.5 16l172 703l142 658q5 17 22 17h843q10 0 14.5 -6t2.5 -16l-24 -102q-3 -18 -21 -18h-673l-110 -440h628q22 0 17 -22l-24 -102q-3 -17 -21 -17h-633l-115 -535h684q10 0 14.5 -6t2.5 -16l-24 -103q-3 -17 -21 -17h-860zM694.5 1549.5
q-56.5 29.5 -86.5 82t-30 118.5q0 16 1 24q3 19 21 19h85q10 0 15 -5.5t4 -15.5q-5 -58 30 -93.5t101 -35.5q65 0 111 36t63 97q5 17 21 17h88q10 0 15 -5.5t3 -15.5q-16 -73 -58.5 -130.5t-107 -89.5t-143.5 -32q-76 0 -132.5 29.5z" />
    <glyph glyph-name="ebreve" unicode="&#x115;" 
d="M827.5 1000.5q95.5 -50.5 147.5 -143.5t52 -217q0 -58 -14 -130q-3 -17 -21 -17h-758q-5 -32 -5 -76q0 -153 72 -232.5t201 -79.5q227 0 303 241q6 17 23 17h134q10 0 14.5 -6.5t1.5 -17.5q-53 -178 -176.5 -269t-302.5 -91q-134 0 -235.5 51.5t-157.5 152t-56 242.5
q0 154 64.5 298t190 236t300.5 92q127 0 222.5 -50.5zM843 615q5 35 5 60q0 74 -30 131t-87 88.5t-135 31.5q-134 0 -220 -87t-122 -224h589zM566.5 1179.5q-56.5 29.5 -86.5 82t-30 118.5q0 16 1 24q3 19 21 19h85q10 0 15 -5.5t4 -15.5q-5 -58 30 -93.5t101 -35.5
q65 0 111 36t63 97q5 17 21 17h88q10 0 15 -5.5t3 -15.5q-16 -73 -58.5 -130.5t-107 -89.5t-143.5 -32q-76 0 -132.5 29.5z" />
    <glyph glyph-name="Edotaccent" unicode="&#x116;" 
d="M10 0q-10 0 -14.5 6t-1.5 16l172 703l142 658q5 17 22 17h843q10 0 14.5 -6t2.5 -16l-24 -102q-3 -18 -21 -18h-673l-110 -440h628q22 0 17 -22l-24 -102q-3 -17 -21 -17h-633l-115 -535h684q10 0 14.5 -6t2.5 -16l-24 -103q-3 -17 -21 -17h-860zM736 1529q-10 0 -14.5 6
t-2.5 16l37 154q3 17 21 17h145q10 0 14.5 -6t2.5 -16l-37 -153q-3 -18 -21 -18h-145z" />
    <glyph glyph-name="edotaccent" unicode="&#x117;" 
d="M827.5 1000.5q95.5 -50.5 147.5 -143.5t52 -217q0 -58 -14 -130q-3 -17 -21 -17h-758q-5 -32 -5 -76q0 -153 72 -232.5t201 -79.5q227 0 303 241q6 17 23 17h134q10 0 14.5 -6.5t1.5 -17.5q-53 -178 -176.5 -269t-302.5 -91q-134 0 -235.5 51.5t-157.5 152t-56 242.5
q0 154 64.5 298t190 236t300.5 92q127 0 222.5 -50.5zM843 615q5 35 5 60q0 74 -30 131t-87 88.5t-135 31.5q-134 0 -220 -87t-122 -224h589zM608 1159q-10 0 -14.5 6t-2.5 16l37 154q3 17 21 17h145q10 0 14.5 -6t2.5 -16l-37 -153q-3 -18 -21 -18h-145z" />
    <glyph glyph-name="Eogonek" unicode="&#x118;" 
d="M1173 1400q10 0 14.5 -6t2.5 -16l-24 -102q-3 -18 -21 -18h-673l-110 -440h628q22 0 17 -22l-24 -102q-3 -17 -21 -17h-633l-115 -535h684q10 0 14.5 -6t2.5 -16l-24 -103q-3 -17 -21 -17h-111q-53 -23 -93 -70.5t-40 -99.5q0 -41 29 -62.5t87 -21.5h64q10 0 14.5 -6
t2.5 -16l-20 -87q-3 -17 -21 -17h-82q-109 0 -168.5 48t-59.5 126q0 64 41 116.5t109 89.5h-612q-10 0 -14.5 6t-1.5 16l172 703l142 658q5 17 22 17h843z" />
    <glyph glyph-name="eogonek" unicode="&#x119;" 
d="M827.5 1000.5q95.5 -50.5 147.5 -143.5t52 -217q0 -58 -14 -130q-3 -17 -21 -17h-758q-5 -32 -5 -76q0 -153 72 -232.5t201 -79.5q227 0 303 241q6 17 23 17h134q10 0 14.5 -6.5t1.5 -17.5q-47 -159 -151.5 -249t-255.5 -107q-43 -27 -72 -68.5t-29 -84.5q0 -41 29 -62.5
t87 -21.5h64q10 0 14.5 -6t2.5 -16l-20 -87q-3 -17 -21 -17h-82q-109 0 -168.5 48t-59.5 126q0 56 32 104t88 84q-117 12 -204 66.5t-134.5 150t-47.5 226.5q0 154 64.5 298t190 236t300.5 92q127 0 222.5 -50.5zM843 615q5 35 5 60q0 74 -30 131t-87 88.5t-135 31.5
q-134 0 -220 -87t-122 -224h589z" />
    <glyph glyph-name="Ecaron" unicode="&#x11a;" 
d="M10 0q-10 0 -14.5 6t-1.5 16l172 703l142 658q5 17 22 17h843q10 0 14.5 -6t2.5 -16l-24 -102q-3 -18 -21 -18h-673l-110 -440h628q22 0 17 -22l-24 -102q-3 -17 -21 -17h-633l-115 -535h684q10 0 14.5 -6t2.5 -16l-24 -103q-3 -17 -21 -17h-860zM518 1681q-9 6 -9 15
q0 6 3 12l34 55q6 11 16 11q4 0 10 -3l249 -118l292 120q3 2 10 2q11 0 15 -12l26 -56q2 -6 2 -9q0 -12 -11 -18l-299 -159q-12 -6 -25 -6h-53q-13 0 -24 8z" />
    <glyph glyph-name="ecaron" unicode="&#x11b;" 
d="M827.5 1000.5q95.5 -50.5 147.5 -143.5t52 -217q0 -58 -14 -130q-3 -17 -21 -17h-758q-5 -32 -5 -76q0 -153 72 -232.5t201 -79.5q227 0 303 241q6 17 23 17h134q10 0 14.5 -6.5t1.5 -17.5q-53 -178 -176.5 -269t-302.5 -91q-134 0 -235.5 51.5t-157.5 152t-56 242.5
q0 154 64.5 298t190 236t300.5 92q127 0 222.5 -50.5zM843 615q5 35 5 60q0 74 -30 131t-87 88.5t-135 31.5q-134 0 -220 -87t-122 -224h589zM389 1311q-9 6 -9 15q0 6 3 12l34 55q6 11 16 11q4 0 10 -3l249 -118l292 120q3 2 10 2q11 0 15 -12l26 -56q2 -6 2 -9
q0 -12 -11 -18l-299 -159q-12 -6 -25 -6h-53q-13 0 -24 8z" />
    <glyph glyph-name="Gcircumflex" unicode="&#x11c;" horiz-adv-x="1388" 
d="M351 50q-128 75 -194.5 211t-66.5 316q0 216 90 411t259.5 316t396.5 121q151 0 270.5 -56t190.5 -158.5t81 -236.5v-2q0 -9 -5 -13.5t-14 -4.5h-145q-18 0 -20 18q-19 146 -115.5 227t-249.5 81q-176 0 -299.5 -105t-185 -267.5t-61.5 -332.5q0 -147 46.5 -249t133 -154
t205.5 -52q126 0 226 57.5t166.5 162t95.5 244.5h-427q-10 0 -14.5 5.5t-2.5 15.5l24 103q3 17 21 17h596q10 0 14.5 -6.5t2.5 -19.5q-37 -230 -133.5 -392.5t-243.5 -247t-334 -84.5q-180 0 -308 75zM593 1585q-2 6 -2 9q0 11 12 17l299 159q10 7 24 7h53q15 0 24 -8
l236 -158q9 -7 9 -16q0 -5 -3 -11l-33 -56q-6 -11 -16 -11q-5 0 -11 3l-249 119l-291 -120q-3 -2 -10 -2q-12 0 -16 12z" />
    <glyph glyph-name="gcircumflex" unicode="&#x11d;" horiz-adv-x="1081" 
d="M1085 1030q10 0 14.5 -6t2.5 -16l-122 -510l-94 -424q-54 -237 -182.5 -351.5t-340.5 -114.5q-119 0 -214 40t-148.5 114t-53.5 172q0 19 20 19h144q19 0 19 -20q1 -94 68 -146t174 -52q138 0 216.5 81.5t119.5 259.5l18 75q-132 -154 -319 -154q-111 0 -192.5 50
t-124.5 141.5t-43 211.5q0 142 57.5 292t175.5 252t288 102q120 0 200 -54.5t113 -156.5l38 178q3 17 21 17h145zM662 206.5q83 84.5 125.5 208t42.5 236.5q0 133 -61 201t-173 68q-127 0 -209 -85.5t-119 -205.5t-37 -225q0 -129 60.5 -205.5t172.5 -76.5q115 0 198 84.5z
M362 1215q-2 6 -2 9q0 11 12 17l299 159q10 7 24 7h53q15 0 24 -8l236 -158q9 -7 9 -16q0 -5 -3 -11l-33 -56q-6 -11 -16 -11q-5 0 -11 3l-249 119l-291 -120q-3 -2 -10 -2q-12 0 -16 12z" />
    <glyph glyph-name="Gbreve" unicode="&#x11e;" horiz-adv-x="1388" 
d="M351 50q-128 75 -194.5 211t-66.5 316q0 216 90 411t259.5 316t396.5 121q151 0 270.5 -56t190.5 -158.5t81 -236.5v-2q0 -9 -5 -13.5t-14 -4.5h-145q-18 0 -20 18q-19 146 -115.5 227t-249.5 81q-176 0 -299.5 -105t-185 -267.5t-61.5 -332.5q0 -147 46.5 -249t133 -154
t205.5 -52q126 0 226 57.5t166.5 162t95.5 244.5h-427q-10 0 -14.5 5.5t-2.5 15.5l24 103q3 17 21 17h596q10 0 14.5 -6.5t2.5 -19.5q-37 -230 -133.5 -392.5t-243.5 -247t-334 -84.5q-180 0 -308 75zM796.5 1549.5q-56.5 29.5 -86.5 82t-30 118.5q0 16 1 24q3 19 21 19h85
q10 0 15 -5.5t4 -15.5q-5 -58 30 -93.5t101 -35.5q65 0 111 36t63 97q5 17 21 17h88q10 0 15 -5.5t3 -15.5q-16 -73 -58.5 -130.5t-107 -89.5t-143.5 -32q-76 0 -132.5 29.5z" />
    <glyph glyph-name="gbreve" unicode="&#x11f;" horiz-adv-x="1081" 
d="M1085 1030q10 0 14.5 -6t2.5 -16l-122 -510l-94 -424q-54 -237 -182.5 -351.5t-340.5 -114.5q-119 0 -214 40t-148.5 114t-53.5 172q0 19 20 19h144q19 0 19 -20q1 -94 68 -146t174 -52q138 0 216.5 81.5t119.5 259.5l18 75q-132 -154 -319 -154q-111 0 -192.5 50
t-124.5 141.5t-43 211.5q0 142 57.5 292t175.5 252t288 102q120 0 200 -54.5t113 -156.5l38 178q3 17 21 17h145zM662 206.5q83 84.5 125.5 208t42.5 236.5q0 133 -61 201t-173 68q-127 0 -209 -85.5t-119 -205.5t-37 -225q0 -129 60.5 -205.5t172.5 -76.5q115 0 198 84.5z
M564.5 1179.5q-56.5 29.5 -86.5 82t-30 118.5q0 16 1 24q3 19 21 19h85q10 0 15 -5.5t4 -15.5q-5 -58 30 -93.5t101 -35.5q65 0 111 36t63 97q5 17 21 17h88q10 0 15 -5.5t3 -15.5q-16 -73 -58.5 -130.5t-107 -89.5t-143.5 -32q-76 0 -132.5 29.5z" />
    <glyph glyph-name="Gdotaccent" unicode="&#x120;" horiz-adv-x="1388" 
d="M351 50q-128 75 -194.5 211t-66.5 316q0 216 90 411t259.5 316t396.5 121q151 0 270.5 -56t190.5 -158.5t81 -236.5v-2q0 -9 -5 -13.5t-14 -4.5h-145q-18 0 -20 18q-19 146 -115.5 227t-249.5 81q-176 0 -299.5 -105t-185 -267.5t-61.5 -332.5q0 -147 46.5 -249t133 -154
t205.5 -52q126 0 226 57.5t166.5 162t95.5 244.5h-427q-10 0 -14.5 5.5t-2.5 15.5l24 103q3 17 21 17h596q10 0 14.5 -6.5t2.5 -19.5q-37 -230 -133.5 -392.5t-243.5 -247t-334 -84.5q-180 0 -308 75zM838 1529q-10 0 -14.5 6t-2.5 16l37 154q3 17 21 17h145q10 0 14.5 -6
t2.5 -16l-37 -153q-3 -18 -21 -18h-145z" />
    <glyph glyph-name="gdotaccent" unicode="&#x121;" horiz-adv-x="1081" 
d="M1085 1030q10 0 14.5 -6t2.5 -16l-122 -510l-94 -424q-54 -237 -182.5 -351.5t-340.5 -114.5q-119 0 -214 40t-148.5 114t-53.5 172q0 19 20 19h144q19 0 19 -20q1 -94 68 -146t174 -52q138 0 216.5 81.5t119.5 259.5l18 75q-132 -154 -319 -154q-111 0 -192.5 50
t-124.5 141.5t-43 211.5q0 142 57.5 292t175.5 252t288 102q120 0 200 -54.5t113 -156.5l38 178q3 17 21 17h145zM662 206.5q83 84.5 125.5 208t42.5 236.5q0 133 -61 201t-173 68q-127 0 -209 -85.5t-119 -205.5t-37 -225q0 -129 60.5 -205.5t172.5 -76.5q115 0 198 84.5z
M606 1159q-10 0 -14.5 6t-2.5 16l37 154q3 17 21 17h145q10 0 14.5 -6t2.5 -16l-37 -153q-3 -18 -21 -18h-145z" />
    <glyph glyph-name="uni0122" unicode="&#x122;" horiz-adv-x="1388" 
d="M351 50q-128 75 -194.5 211t-66.5 316q0 216 90 411t259.5 316t396.5 121q151 0 270.5 -56t190.5 -158.5t81 -236.5v-2q0 -9 -5 -13.5t-14 -4.5h-145q-18 0 -20 18q-19 146 -115.5 227t-249.5 81q-176 0 -299.5 -105t-185 -267.5t-61.5 -332.5q0 -147 46.5 -249t133 -154
t205.5 -52q126 0 226 57.5t166.5 162t95.5 244.5h-427q-10 0 -14.5 5.5t-2.5 15.5l24 103q3 17 21 17h596q10 0 14.5 -6.5t2.5 -19.5q-37 -230 -133.5 -392.5t-243.5 -247t-334 -84.5q-180 0 -308 75zM428 -435q-15 0 -15 13q0 5 3 11l72 151l36 153q3 17 21 17h150
q10 0 14.5 -6t2.5 -16l-31 -135q-3 -12 -11 -22l-155 -155q-11 -11 -24 -11h-63z" />
    <glyph glyph-name="uni0123" unicode="&#x123;" horiz-adv-x="1081" 
d="M1085 1030q10 0 14.5 -6t2.5 -16l-122 -510l-94 -424q-54 -237 -182.5 -351.5t-340.5 -114.5q-119 0 -214 40t-148.5 114t-53.5 172q0 19 20 19h144q19 0 19 -20q1 -94 68 -146t174 -52q138 0 216.5 81.5t119.5 259.5l18 75q-132 -154 -319 -154q-111 0 -192.5 50
t-124.5 141.5t-43 211.5q0 142 57.5 292t175.5 252t288 102q120 0 200 -54.5t113 -156.5l38 178q3 17 21 17h145zM662 206.5q83 84.5 125.5 208t42.5 236.5q0 133 -61 201t-173 68q-127 0 -209 -85.5t-119 -205.5t-37 -225q0 -129 60.5 -205.5t172.5 -76.5q115 0 198 84.5z
M608 1170q-10 0 -14.5 6t-2.5 16l31 135q3 13 12 22l154 155q11 11 24 11h66q17 0 17 -13q0 -5 -3 -11l-78 -151l-35 -153q-5 -17 -22 -17h-149z" />
    <glyph glyph-name="Hcircumflex" unicode="&#x124;" horiz-adv-x="1335" 
d="M1411 1400q10 0 14.5 -6t1.5 -16l-169 -686l-145 -675q-5 -17 -22 -17h-155q-10 0 -14.5 6t-2.5 16l156 637l5 22h-748l-4 -22l-141 -642q-1 -8 -7.5 -12.5t-14.5 -4.5h-155q-10 0 -14.5 6t-1.5 16l164 670l150 691q5 17 22 17h155q10 0 14.5 -6t2.5 -16l-135 -556h745
l122 561q1 8 7.5 12.5t14.5 4.5h155zM587 1585q-2 6 -2 9q0 11 12 17l299 159q10 7 24 7h53q15 0 24 -8l236 -158q9 -7 9 -16q0 -5 -3 -11l-33 -56q-6 -11 -16 -11q-5 0 -11 3l-249 119l-291 -120q-3 -2 -10 -2q-12 0 -16 12z" />
    <glyph glyph-name="hcircumflex" unicode="&#x125;" horiz-adv-x="1052" 
d="M-1 0q-10 0 -14.5 6t-2.5 16l110 446l204 915q3 17 21 17h145q10 0 14.5 -6t2.5 -16l-128 -529q59 89 154 147t205 58q85 0 151 -34t103.5 -100.5t37.5 -160.5q0 -57 -15 -125l-44 -194l-93 -423q-5 -17 -22 -17h-147q-11 0 -15.5 6t-1.5 16l98 401l43 197q13 55 13 104
q0 94 -48 142.5t-132 48.5q-110 0 -194.5 -86t-142.5 -224l-43 -184l-87 -404q-5 -17 -22 -17h-150zM108 1585q-2 6 -2 9q0 11 12 17l299 159q10 7 24 7h53q15 0 24 -8l236 -158q9 -7 9 -16q0 -5 -3 -11l-33 -56q-6 -11 -16 -11q-5 0 -11 3l-249 119l-291 -120q-3 -2 -10 -2
q-12 0 -16 12z" />
    <glyph glyph-name="Hbar" unicode="&#x126;" horiz-adv-x="1347" 
d="M1469 1128q10 0 14.5 -5.5t2.5 -15.5l-23 -103q-5 -17 -22 -17h-102l-72 -295l-147 -675q-3 -17 -21 -17h-155q-10 0 -14.5 6t-2.5 16l137 566l5 22h-744l-5 -22l-126 -571q-3 -17 -21 -17h-155q-10 0 -14.5 6t-2.5 16l164 670l65 295h-102q-10 0 -14.5 5.5t-2.5 15.5
l23 103q5 17 22 17h104l56 255q3 17 21 17h155q10 0 14.5 -6t2.5 -16l-61 -250h737l57 255q3 17 21 17h155q10 0 14.5 -6t2.5 -16l-61 -250h95zM414 987l-58 -235h748l51 235h-741z" />
    <glyph glyph-name="hbar" unicode="&#x127;" horiz-adv-x="1069" 
d="M876 1009.5q66 -34.5 103.5 -101t37.5 -159.5q0 -57 -15 -125l-42 -184l-93 -423q-5 -17 -22 -17h-147q-11 0 -15.5 6t-1.5 16l98 403l41 185q13 55 13 104q0 94 -48 142.5t-132 48.5q-110 0 -194.5 -86t-142.5 -224l-41 -174l-87 -404q-5 -17 -22 -17h-150
q-10 0 -14.5 6t-2.5 16l110 446l149 669h-89q-10 0 -14 5.5t-2 15.5l21 92q3 17 21 17h92l26 116q3 17 21 17h145q10 0 14.5 -6t2.5 -16l-26 -111h300q10 0 14.5 -5.5t2.5 -15.5l-22 -92q-3 -17 -21 -17h-307l-71 -298q59 89 154 147t205 58q85 0 151 -34.5z" />
    <glyph glyph-name="Itilde" unicode="&#x128;" horiz-adv-x="427" 
d="M21 0q-10 0 -14.5 6t-1.5 16l169 692l145 669q5 17 22 17h153q10 0 14.5 -6t2.5 -16l-164 -664l-151 -697q-1 -8 -7.5 -12.5t-14.5 -4.5h-153zM508 1553.5q-30 20.5 -64 58.5q-26 28 -43 41.5t-38 13.5q-34 0 -52 -27.5t-31 -81.5q-5 -17 -22 -17h-63q-9 0 -14 6t-3 15
q21 102 69.5 161.5t126.5 59.5q44 0 74 -20.5t66 -59.5q25 -27 42 -40t36 -13q36 0 54.5 27t30.5 80q4 17 22 17h63q17 0 17 -18q0 -6 -1 -9q-45 -214 -194 -214q-46 0 -76 20.5z" />
    <glyph glyph-name="itilde" unicode="&#x129;" horiz-adv-x="399" 
d="M392.5 1185q-23.5 22 -45.5 61q-15 27 -27 39.5t-29 12.5q-46 0 -69 -108q-4 -18 -21 -18h-56q-11 0 -15.5 6t-2.5 16q45 213 172 213q30 0 51 -12t33.5 -28t27.5 -43t26.5 -39.5t28.5 -12.5q46 0 70 108q3 18 21 18h56q15 0 15 -23q0 -12 -2 -19q-46 -193 -168 -193
q-42 0 -65.5 22zM7 0q-10 0 -14.5 6t-1.5 16l122 510l106 481q4 17 22 17h149q10 0 14.5 -6t2.5 -16l-116 -475l-113 -516q-3 -17 -21 -17h-150z" />
    <glyph glyph-name="Imacron" unicode="&#x12a;" horiz-adv-x="427" 
d="M21 0q-10 0 -14.5 6t-1.5 16l169 692l145 669q5 17 22 17h153q10 0 14.5 -6t2.5 -16l-164 -664l-151 -697q-1 -8 -7.5 -12.5t-14.5 -4.5h-153zM186 1560q-10 0 -14.5 6t-2.5 16l22 90q3 17 21 17h547q10 0 14.5 -5.5t2.5 -15.5l-22 -91q-4 -17 -21 -17h-547z" />
    <glyph glyph-name="imacron" unicode="&#x12b;" horiz-adv-x="399" 
d="M136 1190q-10 0 -14.5 6t-2.5 16l21 90q4 17 22 17h442q10 0 14.5 -5.5t2.5 -15.5l-21 -91q-3 -17 -21 -17h-443zM7 0q-10 0 -14.5 6t-1.5 16l122 510l106 481q4 17 22 17h149q10 0 14.5 -6t2.5 -16l-116 -475l-113 -516q-3 -17 -21 -17h-150z" />
    <glyph glyph-name="Ibreve" unicode="&#x12c;" horiz-adv-x="427" 
d="M21 0q-10 0 -14.5 6t-1.5 16l169 692l145 669q5 17 22 17h153q10 0 14.5 -6t2.5 -16l-164 -664l-151 -697q-1 -8 -7.5 -12.5t-14.5 -4.5h-153zM336.5 1549.5q-56.5 29.5 -86.5 82t-30 118.5q0 16 1 24q3 19 21 19h85q10 0 15 -5.5t4 -15.5q-5 -58 30 -93.5t101 -35.5
q65 0 111 36t63 97q5 17 21 17h88q10 0 15 -5.5t3 -15.5q-16 -73 -58.5 -130.5t-107 -89.5t-143.5 -32q-76 0 -132.5 29.5z" />
    <glyph glyph-name="ibreve" unicode="&#x12d;" horiz-adv-x="398" 
d="M253.5 1177.5q-48.5 27.5 -74.5 77.5t-26 115q0 12 2 34q3 19 21 19h81q9 0 13.5 -5.5t3.5 -15.5q-5 -61 23 -97t82 -36q56 0 94.5 36t53.5 100q3 18 21 18h82q10 0 15 -6.5t3 -17.5q-24 -113 -99 -181t-181 -68q-66 0 -114.5 27.5zM7 0q-10 0 -14.5 6t-1.5 16l122 510
l106 481q4 17 22 17h149q10 0 14.5 -6t2.5 -16l-116 -475l-113 -516q-3 -17 -21 -17h-150z" />
    <glyph glyph-name="Iogonek" unicode="&#x12e;" horiz-adv-x="427" 
d="M494 1400q10 0 14.5 -6t2.5 -16l-164 -664l-151 -697q-1 -8 -7.5 -12.5t-14.5 -4.5h-64q-53 -23 -93 -70.5t-40 -99.5q0 -41 29 -62.5t87 -21.5h64q10 0 14.5 -6t2.5 -16l-20 -87q-3 -17 -21 -17h-82q-109 0 -168.5 48t-59.5 126q0 71 50 128t131 93q0 4 1 7l169 692
l145 669q5 17 22 17h153z" />
    <glyph glyph-name="iogonek" unicode="&#x12f;" horiz-adv-x="398" 
d="M463 1352q10 0 14.5 -6t2.5 -16l-37 -153q-3 -18 -21 -18h-145q-10 0 -14.5 6t-2.5 16l37 154q3 17 21 17h145zM390 1030q10 0 14.5 -6t2.5 -16l-116 -475l-113 -516q-3 -17 -21 -17h-54q-53 -23 -93 -70.5t-40 -99.5q0 -41 29 -62.5t87 -21.5h64q10 0 14.5 -6t2.5 -16
l-20 -87q-3 -17 -21 -17h-82q-109 0 -168.5 48t-59.5 126q0 69 48 125.5t126 92.5q0 6 1 10l122 510l106 481q4 17 22 17h149z" />
    <glyph glyph-name="Idotaccent" unicode="&#x130;" horiz-adv-x="427" 
d="M21 0q-10 0 -14.5 6t-1.5 16l169 692l145 669q5 17 22 17h153q10 0 14.5 -6t2.5 -16l-164 -664l-151 -697q-1 -8 -7.5 -12.5t-14.5 -4.5h-153zM378 1529q-10 0 -14.5 6t-2.5 16l37 154q3 17 21 17h145q10 0 14.5 -6t2.5 -16l-37 -153q-3 -18 -21 -18h-145z" />
    <glyph glyph-name="dotlessi" unicode="&#x131;" horiz-adv-x="398" 
d="M7 0q-10 0 -14.5 6t-1.5 16l122 510l106 481q4 17 22 17h149q10 0 14.5 -6t2.5 -16l-116 -475l-113 -516q-3 -17 -21 -17h-150z" />
    <glyph glyph-name="IJ" unicode="&#x132;" horiz-adv-x="1413" 
d="M21 0q-10 0 -14.5 6t-1.5 16l169 692l145 669q5 17 22 17h153q10 0 14.5 -6t2.5 -16l-164 -664l-151 -697q-1 -8 -7.5 -12.5t-14.5 -4.5h-153zM544.5 70.5q-96.5 98.5 -96.5 278.5q0 67 11 130q3 18 21 18h143q10 0 14.5 -6t3.5 -16q-10 -70 -10 -115q0 -119 50 -179.5
t150 -60.5q70 0 123.5 34t95.5 114t75 216l98 412l105 487q4 17 22 17h158q10 0 14.5 -6t2.5 -16l-119 -482l-95 -413q-42 -184 -109.5 -296.5t-161.5 -163.5t-220 -51q-179 0 -275.5 98.5z" />
    <glyph glyph-name="ij" unicode="&#x133;" horiz-adv-x="795" 
d="M7 0q-10 0 -14.5 6t-1.5 16l122 510l106 481q4 17 22 17h149q10 0 14.5 -6t2.5 -16l-116 -475l-113 -516q-3 -17 -21 -17h-150zM277 1159q-10 0 -14.5 6t-2.5 16l37 154q3 17 21 17h145q10 0 14.5 -6t2.5 -16l-37 -153q-3 -18 -21 -18h-145zM327 -340q-10 0 -14.5 6
t-2.5 16l155 648l152 683q3 17 21 17h150q10 0 14.5 -6t2.5 -16l-163 -678l-144 -653q-1 -8 -7.5 -12.5t-14.5 -4.5h-149zM675 1159q-10 0 -14.5 6t-2.5 16l37 154q3 17 21 17h145q10 0 14.5 -6t2.5 -16l-37 -153q-3 -18 -21 -18h-145z" />
    <glyph glyph-name="Jcircumflex" unicode="&#x134;" horiz-adv-x="986" 
d="M117.5 70.5q-96.5 98.5 -96.5 278.5q0 67 11 130q3 18 21 18h143q10 0 14.5 -6t3.5 -16q-10 -70 -10 -115q0 -119 50 -179.5t150 -60.5q70 0 123.5 34t95.5 114t75 216l98 412l105 487q4 17 22 17h158q10 0 14.5 -6t2.5 -16l-119 -482l-95 -413q-42 -184 -109.5 -296.5
t-161.5 -163.5t-220 -51q-179 0 -275.5 98.5zM720 1585q-2 6 -2 9q0 11 12 17l299 159q10 7 24 7h53q15 0 24 -8l236 -158q9 -7 9 -16q0 -5 -3 -11l-33 -56q-6 -11 -16 -11q-5 0 -11 3l-249 119l-291 -120q-3 -2 -10 -2q-12 0 -16 12z" />
    <glyph glyph-name="jcircumflex" unicode="&#x135;" horiz-adv-x="397" 
d="M88 1217q-3 6 -3 10q0 8 11 16l245 157q11 7 24 7h53q12 0 24 -9l187 -155q8 -8 8 -15t-4 -12l-38 -56q-6 -10 -15 -10q-7 0 -12 4l-194 117l-236 -118q-6 -3 -10 -3q-12 0 -16 12zM-71 -340q-10 0 -14.5 6t-2.5 16l155 648l152 683q3 17 21 17h150q10 0 14.5 -6t2.5 -16
l-163 -678l-144 -653q-1 -8 -7.5 -12.5t-14.5 -4.5h-149z" />
    <glyph glyph-name="uni0136" unicode="&#x136;" horiz-adv-x="1138" 
d="M308 1383q5 17 22 17h153q10 0 14.5 -6t2.5 -16l-142 -586l-8 -35l653 633q9 10 24 10h192q7 0 11.5 -3t4.5 -8q0 -6 -7 -13l-579 -538l357 -815q2 -6 2 -9q0 -6 -4.5 -10t-12.5 -4h-170q-15 0 -23 15l-291 688l-214 -199l-108 -487q-1 -8 -7.5 -12.5t-14.5 -4.5h-153
q-10 0 -14.5 6t-1.5 16l170 699zM284 -435q-15 0 -15 13q0 5 3 11l72 151l36 153q3 17 21 17h150q10 0 14.5 -6t2.5 -16l-31 -135q-3 -12 -11 -22l-155 -155q-11 -11 -24 -11h-63z" />
    <glyph glyph-name="uni0137" unicode="&#x137;" horiz-adv-x="934" 
d="M968 1030q16 0 16 -10q0 -7 -8 -14l-412 -348l233 -635q1 -3 1 -8q0 -15 -17 -15h-149q-17 0 -23 16l-46 146l-140 381l-178 -155l-81 -372q-1 -8 -7.5 -12.5t-14.5 -4.5h-145q-10 0 -14.5 6t-2.5 16l163 673l152 689q3 17 21 17h146q10 0 14.5 -6t2.5 -16l-167 -683
l-18 -82l464 408q12 9 25 9h185zM176 -435q-15 0 -15 13q0 5 3 11l72 151l36 153q3 17 21 17h150q10 0 14.5 -6t2.5 -16l-31 -135q-3 -12 -11 -22l-155 -155q-11 -11 -24 -11h-63z" />
    <glyph glyph-name="Lacute" unicode="&#x139;" horiz-adv-x="955" 
d="M10 0q-10 0 -14.5 6t-1.5 16l174 714l140 647q5 17 22 17h154q10 0 14.5 -6t2.5 -16l-156 -634l-131 -602h614q10 0 14 -6t2 -16l-23 -103q-3 -17 -21 -17h-790zM287 1513q-3 -1 -7 -1q-6 0 -11 3.5t-6 9.5l-19 63q-2 6 -2 8q0 11 13 17l450 194q5 3 10 3q10 0 15 -14
l31 -106q1 -2 1 -6q0 -13 -14 -18z" />
    <glyph glyph-name="lacute" unicode="&#x13a;" horiz-adv-x="395" 
d="M8 0q-10 0 -14.5 6t-2.5 16l167 687l148 674q3 17 21 17h146q10 0 14.5 -6t2.5 -16l-163 -667l-152 -694q-1 -8 -7.5 -12.5t-14.5 -4.5h-145zM279 1513q-3 -1 -7 -1q-6 0 -11 3.5t-6 9.5l-19 63q-2 6 -2 8q0 11 13 17l450 194q5 3 10 3q10 0 15 -14l31 -106q1 -2 1 -6
q0 -13 -14 -18z" />
    <glyph glyph-name="uni013B" unicode="&#x13b;" horiz-adv-x="955" 
d="M10 0q-10 0 -14.5 6t-1.5 16l174 714l140 647q5 17 22 17h154q10 0 14.5 -6t2.5 -16l-156 -634l-131 -602h614q10 0 14 -6t2 -16l-23 -103q-3 -17 -21 -17h-790zM194 -435q-15 0 -15 13q0 5 3 11l72 151l36 153q3 17 21 17h150q10 0 14.5 -6t2.5 -16l-31 -135
q-3 -12 -11 -22l-155 -155q-11 -11 -24 -11h-63z" />
    <glyph glyph-name="uni013C" unicode="&#x13c;" horiz-adv-x="395" 
d="M8 0q-10 0 -14.5 6t-2.5 16l167 687l148 674q3 17 21 17h146q10 0 14.5 -6t2.5 -16l-163 -667l-152 -694q-1 -8 -7.5 -12.5t-14.5 -4.5h-145zM-133 -435q-15 0 -15 13q0 5 3 11l72 151l36 153q3 17 21 17h150q10 0 14.5 -6t2.5 -16l-31 -135q-3 -12 -11 -22l-155 -155
q-11 -11 -24 -11h-63z" />
    <glyph glyph-name="Lcaron" unicode="&#x13d;" horiz-adv-x="955" 
d="M10 0q-10 0 -14.5 6t-1.5 16l174 714l140 647q5 17 22 17h154q10 0 14.5 -6t2.5 -16l-156 -634l-131 -602h614q10 0 14 -6t2 -16l-23 -103q-3 -17 -21 -17h-790zM653 1004q-8 -15 -22 -15h-83q-17 0 -17 14q0 3 2 9l158 373q6 15 23 15h116q17 0 17 -13q0 -5 -3 -11z" />
    <glyph glyph-name="lcaron" unicode="&#x13e;" horiz-adv-x="395" 
d="M8 0q-10 0 -14.5 6t-2.5 16l167 687l148 674q3 17 21 17h146q10 0 14.5 -6t2.5 -16l-163 -667l-152 -694q-1 -8 -7.5 -12.5t-14.5 -4.5h-145zM620 1124q-8 -15 -22 -15h-83q-17 0 -17 14q0 3 2 9l158 373q6 15 23 15h116q17 0 17 -13q0 -5 -3 -11z" />
    <glyph glyph-name="Ldot" unicode="&#x13f;" horiz-adv-x="955" 
d="M10 0q-10 0 -14.5 6t-1.5 16l174 714l140 647q5 17 22 17h154q10 0 14.5 -6t2.5 -16l-156 -634l-131 -602h614q10 0 14 -6t2 -16l-23 -103q-3 -17 -21 -17h-790zM641 667q-10 0 -14.5 6t-2.5 16l37 154q3 17 21 17h145q10 0 14.5 -6t2.5 -16l-37 -153q-3 -18 -21 -18
h-145z" />
    <glyph glyph-name="ldot" unicode="&#x140;" horiz-adv-x="509" 
d="M8 0q-10 0 -14.5 6t-2.5 16l167 687l148 674q3 17 21 17h146q10 0 14.5 -6t2.5 -16l-163 -667l-152 -694q-1 -8 -7.5 -12.5t-14.5 -4.5h-145zM395 581q-10 0 -14.5 5.5t-2.5 15.5l36 153q4 17 22 17h144q22 0 17 -22l-36 -152q-3 -17 -21 -17h-145z" />
    <glyph glyph-name="Lslash" unicode="&#x141;" horiz-adv-x="974" 
d="M846 142q10 0 14.5 -6t2.5 -16l-23 -103q-3 -17 -21 -17h-790q-10 0 -14.5 6t-2.5 16l132 538l-120 -36q-3 -1 -7 -1q-16 0 -13 20l24 103q3 15 19 20l132 39l148 678q1 8 7.5 12.5t14.5 4.5h154q10 0 14.5 -6t1.5 -16l-149 -616l344 102q3 1 8 1q7 0 10.5 -5.5
t1.5 -14.5l-25 -103q-5 -15 -19 -20l-354 -104l-103 -476h613z" />
    <glyph glyph-name="lslash" unicode="&#x142;" horiz-adv-x="452" 
d="M356 711l-1 -4l104 51q6 3 10 3q6 0 9 -5t2 -13l-22 -96q-4 -15 -17 -21l-116 -58l-121 -551q-1 -8 -7.5 -12.5t-14.5 -4.5h-145q-10 0 -14.5 6t-2.5 16l109 450l-102 -51q-6 -3 -10 -3q-6 0 -9 5t-2 14l22 96q4 14 17 21l119 58l23 97l148 674q1 8 7.5 12.5t14.5 4.5
h145q10 0 14.5 -6t2.5 -16z" />
    <glyph glyph-name="Nacute" unicode="&#x143;" horiz-adv-x="1347" 
d="M10 0q-10 0 -14.5 6t-1.5 16l168 690l147 671q4 17 22 17h170q17 0 23 -15l481 -1139l123 549l133 588q5 17 22 17h140q22 0 17 -22l-162 -666l-153 -695q-4 -17 -22 -17h-180q-17 0 -23 15l-476 1128l-120 -548l-132 -578q-3 -17 -21 -17h-141zM753 1513q-3 -1 -7 -1
q-6 0 -11 3.5t-6 9.5l-19 63q-2 6 -2 8q0 11 13 17l450 194q5 3 10 3q10 0 15 -14l31 -106q1 -2 1 -6q0 -13 -14 -18z" />
    <glyph glyph-name="nacute" unicode="&#x144;" horiz-adv-x="1050" 
d="M-3 0q-10 0 -14.5 6t-2.5 16l110 446l121 545q3 17 21 17h140q10 0 14.5 -6t2.5 -16l-40 -159q59 89 154 147t205 58q85 0 151.5 -34t104 -101t37.5 -161q0 -56 -15 -124l-45 -194l-93 -423q-1 -8 -7.5 -12.5t-14.5 -4.5h-148q-10 0 -14.5 6t-2.5 16l99 401l43 197
q13 55 13 104q0 94 -48 142.5t-132 48.5q-110 0 -194.5 -86t-142.5 -224l-43 -184l-87 -404q-1 -8 -7.5 -12.5t-14.5 -4.5h-150zM528 1143q-3 -1 -7 -1q-6 0 -11 3.5t-6 9.5l-19 63q-2 6 -2 8q0 11 13 17l450 194q5 3 10 3q10 0 15 -14l31 -106q1 -2 1 -6q0 -13 -14 -18z
" />
    <glyph glyph-name="uni0145" unicode="&#x145;" horiz-adv-x="1347" 
d="M10 0q-10 0 -14.5 6t-1.5 16l168 690l147 671q4 17 22 17h170q17 0 23 -15l481 -1139l123 549l133 588q5 17 22 17h140q22 0 17 -22l-162 -666l-153 -695q-4 -17 -22 -17h-180q-17 0 -23 15l-476 1128l-120 -548l-132 -578q-3 -17 -21 -17h-141zM346 -435q-15 0 -15 13
q0 5 3 11l72 151l36 153q3 17 21 17h150q10 0 14.5 -6t2.5 -16l-31 -135q-3 -12 -11 -22l-155 -155q-11 -11 -24 -11h-63z" />
    <glyph glyph-name="uni0146" unicode="&#x146;" horiz-adv-x="1050" 
d="M-3 0q-10 0 -14.5 6t-2.5 16l110 446l121 545q3 17 21 17h140q10 0 14.5 -6t2.5 -16l-40 -159q59 89 154 147t205 58q85 0 151.5 -34t104 -101t37.5 -161q0 -56 -15 -124l-45 -194l-93 -423q-1 -8 -7.5 -12.5t-14.5 -4.5h-148q-10 0 -14.5 6t-2.5 16l99 401l43 197
q13 55 13 104q0 94 -48 142.5t-132 48.5q-110 0 -194.5 -86t-142.5 -224l-43 -184l-87 -404q-1 -8 -7.5 -12.5t-14.5 -4.5h-150zM200 -435q-15 0 -15 13q0 5 3 11l72 151l36 153q3 17 21 17h150q10 0 14.5 -6t2.5 -16l-31 -135q-3 -12 -11 -22l-155 -155q-11 -11 -24 -11
h-63z" />
    <glyph glyph-name="Ncaron" unicode="&#x147;" horiz-adv-x="1347" 
d="M10 0q-10 0 -14.5 6t-1.5 16l168 690l147 671q4 17 22 17h170q17 0 23 -15l481 -1139l123 549l133 588q5 17 22 17h140q22 0 17 -22l-162 -666l-153 -695q-4 -17 -22 -17h-180q-17 0 -23 15l-476 1128l-120 -548l-132 -578q-3 -17 -21 -17h-141zM616 1681q-9 6 -9 15
q0 6 3 12l34 55q6 11 16 11q4 0 10 -3l249 -118l292 120q3 2 10 2q11 0 15 -12l26 -56q2 -6 2 -9q0 -12 -11 -18l-299 -159q-12 -6 -25 -6h-53q-13 0 -24 8z" />
    <glyph glyph-name="ncaron" unicode="&#x148;" horiz-adv-x="1050" 
d="M-3 0q-10 0 -14.5 6t-2.5 16l110 446l121 545q3 17 21 17h140q10 0 14.5 -6t2.5 -16l-40 -159q59 89 154 147t205 58q85 0 151.5 -34t104 -101t37.5 -161q0 -56 -15 -124l-45 -194l-93 -423q-1 -8 -7.5 -12.5t-14.5 -4.5h-148q-10 0 -14.5 6t-2.5 16l99 401l43 197
q13 55 13 104q0 94 -48 142.5t-132 48.5q-110 0 -194.5 -86t-142.5 -224l-43 -184l-87 -404q-1 -8 -7.5 -12.5t-14.5 -4.5h-150zM391 1311q-9 6 -9 15q0 6 3 12l34 55q6 11 16 11q4 0 10 -3l249 -118l292 120q3 2 10 2q11 0 15 -12l26 -56q2 -6 2 -9q0 -12 -11 -18
l-299 -159q-12 -6 -25 -6h-53q-13 0 -24 8z" />
    <glyph glyph-name="Eng" unicode="&#x14a;" horiz-adv-x="1347" 
d="M10 0q-10 0 -14.5 6t-1.5 16l168 690l148 671q3 17 22 17h181q17 0 23 -15l480 -1092l110 495l135 595q5 17 22 17h140q11 0 15.5 -6t1.5 -16l-158 -651l-179 -784q-35 -157 -128 -230.5t-210 -73.5q-61 0 -127 15q-9 1 -12.5 7.5t-1.5 15.5l21 95q2 9 8.5 12.5t15.5 1.5
q39 -9 89 -9q136 0 173 180l10 42l-511 1166l-104 -469l-154 -679q-3 -17 -21 -17h-141z" />
    <glyph glyph-name="eng" unicode="&#x14b;" horiz-adv-x="1048" 
d="M391 -348q-18 4 -15 24l22 91q5 18 24 14q31 -9 69 -9q58 0 96.5 41t60.5 133l157 678q13 55 13 103q0 92 -48 140t-132 48q-108 0 -195 -85.5t-143 -224.5l-43 -179l-88 -409q-1 -8 -7.5 -12.5t-14.5 -4.5h-150q-10 0 -14.5 6t-2.5 16l110 446l121 545q3 17 21 17h140
q10 0 14.5 -6t2.5 -16l-40 -158q60 89 155 146.5t203 57.5q86 0 152.5 -34.5t104 -101t37.5 -159.5q0 -56 -15 -122l-161 -705q-34 -153 -123 -223t-203 -71q-50 0 -108 14z" />
    <glyph glyph-name="Omacron" unicode="&#x14c;" horiz-adv-x="1467" 
d="M380 46q-137 71 -213.5 207t-76.5 323q0 205 90.5 401t265.5 322t415 126q176 0 312.5 -71t213 -206.5t76.5 -321.5q0 -206 -90.5 -402.5t-265 -322.5t-414.5 -126q-176 0 -313 71zM1018 232q129 111 190.5 275t61.5 323q0 144 -52 245t-145.5 152.5t-217.5 51.5
q-190 0 -319.5 -111t-191 -275t-61.5 -323q0 -144 51.5 -245t145.5 -152.5t219 -51.5q190 0 319 111zM673 1560q-10 0 -14.5 6t-2.5 16l22 90q3 17 21 17h547q10 0 14.5 -5.5t2.5 -15.5l-22 -91q-4 -17 -21 -17h-547z" />
    <glyph glyph-name="omacron" unicode="&#x14d;" horiz-adv-x="1100" 
d="M261.5 31.5q-99.5 52.5 -155.5 153.5t-56 241q0 153 66 297t193.5 236t302.5 92q128 0 227.5 -52.5t155 -153t55.5 -239.5q0 -154 -65.5 -298.5t-193 -236.5t-302.5 -92q-128 0 -227.5 52.5zM700.5 184q83.5 79 124.5 197t41 232q0 100 -32 170t-90.5 106t-137.5 36
q-123 0 -207 -79t-124.5 -197t-40.5 -232q0 -100 32 -170t91 -106t138 -36q122 0 205.5 79zM428 1190q-10 0 -14.5 6t-2.5 16l22 90q3 17 21 17h547q10 0 14.5 -5.5t2.5 -15.5l-22 -91q-4 -17 -21 -17h-547z" />
    <glyph glyph-name="Obreve" unicode="&#x14e;" horiz-adv-x="1467" 
d="M380 46q-137 71 -213.5 207t-76.5 323q0 205 90.5 401t265.5 322t415 126q176 0 312.5 -71t213 -206.5t76.5 -321.5q0 -206 -90.5 -402.5t-265 -322.5t-414.5 -126q-176 0 -313 71zM1018 232q129 111 190.5 275t61.5 323q0 144 -52 245t-145.5 152.5t-217.5 51.5
q-190 0 -319.5 -111t-191 -275t-61.5 -323q0 -144 51.5 -245t145.5 -152.5t219 -51.5q190 0 319 111zM823.5 1549.5q-56.5 29.5 -86.5 82t-30 118.5q0 16 1 24q3 19 21 19h85q10 0 15 -5.5t4 -15.5q-5 -58 30 -93.5t101 -35.5q65 0 111 36t63 97q5 17 21 17h88q10 0 15 -5.5
t3 -15.5q-16 -73 -58.5 -130.5t-107 -89.5t-143.5 -32q-76 0 -132.5 29.5z" />
    <glyph glyph-name="obreve" unicode="&#x14f;" horiz-adv-x="1100" 
d="M261.5 31.5q-99.5 52.5 -155.5 153.5t-56 241q0 153 66 297t193.5 236t302.5 92q128 0 227.5 -52.5t155 -153t55.5 -239.5q0 -154 -65.5 -298.5t-193 -236.5t-302.5 -92q-128 0 -227.5 52.5zM700.5 184q83.5 79 124.5 197t41 232q0 100 -32 170t-90.5 106t-137.5 36
q-123 0 -207 -79t-124.5 -197t-40.5 -232q0 -100 32 -170t91 -106t138 -36q122 0 205.5 79zM578.5 1179.5q-56.5 29.5 -86.5 82t-30 118.5q0 16 1 24q3 19 21 19h85q10 0 15 -5.5t4 -15.5q-5 -58 30 -93.5t101 -35.5q65 0 111 36t63 97q5 17 21 17h88q10 0 15 -5.5t3 -15.5
q-16 -73 -58.5 -130.5t-107 -89.5t-143.5 -32q-76 0 -132.5 29.5z" />
    <glyph glyph-name="Ohungarumlaut" unicode="&#x150;" horiz-adv-x="1467" 
d="M380 46q-137 71 -213.5 207t-76.5 323q0 205 90.5 401t265.5 322t415 126q176 0 312.5 -71t213 -206.5t76.5 -321.5q0 -206 -90.5 -402.5t-265 -322.5t-414.5 -126q-176 0 -313 71zM1018 232q129 111 190.5 275t61.5 323q0 144 -52 245t-145.5 152.5t-217.5 51.5
q-190 0 -319.5 -111t-191 -275t-61.5 -323q0 -144 51.5 -245t145.5 -152.5t219 -51.5q190 0 319 111zM774 1543q-8 -5 -14 -5q-8 0 -14 7l-30 32q-6 8 -6 14q0 7 6 14l297 303q7 7 14 7q9 0 14 -8l53 -66q5 -6 5 -13q0 -8 -7 -14zM1080 1538q-6 -5 -13 -5q-9 0 -15 7l-30 31
q-6 6 -6 14q0 7 7 14l298 303q6 7 14 7q9 0 14 -8l52 -65q6 -7 6 -13q0 -8 -8 -14z" />
    <glyph glyph-name="ohungarumlaut" unicode="&#x151;" horiz-adv-x="1100" 
d="M261.5 31.5q-99.5 52.5 -155.5 153.5t-56 241q0 153 66 297t193.5 236t302.5 92q128 0 227.5 -52.5t155 -153t55.5 -239.5q0 -154 -65.5 -298.5t-193 -236.5t-302.5 -92q-128 0 -227.5 52.5zM700.5 184q83.5 79 124.5 197t41 232q0 100 -32 170t-90.5 106t-137.5 36
q-123 0 -207 -79t-124.5 -197t-40.5 -232q0 -100 32 -170t91 -106t138 -36q122 0 205.5 79zM529 1173q-8 -5 -14 -5q-8 0 -14 7l-30 32q-6 8 -6 14q0 7 6 14l297 303q7 7 14 7q9 0 14 -8l53 -66q5 -6 5 -13q0 -8 -7 -14zM835 1168q-6 -5 -13 -5q-9 0 -15 7l-30 31
q-6 6 -6 14q0 7 7 14l298 303q6 7 14 7q9 0 14 -8l52 -65q6 -7 6 -13q0 -8 -8 -14z" />
    <glyph glyph-name="OE" unicode="&#x152;" horiz-adv-x="2002" 
d="M700 0q-181 0 -319.5 68t-215.5 197.5t-77 308.5q0 200 91 391t268 313t421 122h1236q10 0 14 -6t2 -16l-23 -102q-4 -18 -22 -18h-673l-107 -440h625q22 0 17 -22l-24 -102q-3 -17 -21 -17h-630l-118 -535h684q10 0 14.5 -6t2.5 -16l-23 -103q-5 -17 -22 -17h-1100z
M333.5 336q52.5 -96 148 -145t224.5 -49h246l130 537l128 579h-348q-194 0 -325 -107.5t-193.5 -266.5t-62.5 -314q0 -138 52.5 -234z" />
    <glyph glyph-name="oe" unicode="&#x153;" horiz-adv-x="1866" 
d="M1627.5 999.5q95.5 -50.5 147.5 -143t52 -215.5q0 -67 -14 -131q-3 -17 -20 -17h-750q-4 -31 -4 -67q0 -152 66.5 -236t194.5 -84q114 0 190.5 62t110.5 177q6 17 22 17h133q11 0 15.5 -6t1.5 -16q-50 -172 -171 -266t-305 -94q-140 0 -238 66t-142 182
q-72 -114 -184 -181.5t-250 -67.5q-130 0 -228 54t-152 155t-54 239q0 161 70 304.5t199.5 231.5t297.5 88q133 0 229.5 -64.5t141.5 -178.5q70 110 177.5 176t241.5 66q126 0 221.5 -50.5zM688.5 180q83.5 75 127 191.5t43.5 238.5q0 149 -65 232t-185 83q-117 0 -202 -75
t-129.5 -191.5t-44.5 -238.5q0 -149 66.5 -232t190.5 -83q115 0 198.5 75zM1644 615q5 33 5 59q0 73 -30.5 129.5t-88.5 88.5t-136 32q-126 0 -211.5 -86t-119.5 -223h581z" />
    <glyph glyph-name="Racute" unicode="&#x154;" horiz-adv-x="1207" 
d="M1187.5 829.5q-50.5 -93.5 -147 -155t-230.5 -83.5l228 -568q2 -4 2 -10q0 -13 -17 -13h-172q-16 0 -22 16l-83 219l-137 342h-309l-114 -560q-1 -8 -7.5 -12.5t-14.5 -4.5h-154q-10 0 -14.5 6t-1.5 16l169 696l145 665q5 17 22 17h469q149 0 247 -45.5t145 -126.5
t47 -189q0 -116 -50.5 -209.5zM988 1197q-64 63 -205 63h-312l-127 -524l-5 -20h343q121 0 204.5 40t124.5 110t41 160q0 108 -64 171zM644 1513q-3 -1 -7 -1q-6 0 -11 3.5t-6 9.5l-19 63q-2 6 -2 8q0 11 13 17l450 194q5 3 10 3q10 0 15 -14l31 -106q1 -2 1 -6
q0 -13 -14 -18z" />
    <glyph glyph-name="racute" unicode="&#x155;" horiz-adv-x="713" 
d="M-2 0q-22 0 -17 22l123 504l106 487q3 17 21 17h144q10 0 14.5 -6t2.5 -16l-47 -177q77 102 177 155.5t206 53.5q32 0 56 -6q9 -2 13 -8t2 -15l-24 -102q-5 -18 -23 -15q-21 4 -50 4q-83 0 -162.5 -38t-144 -110.5t-103.5 -172.5l-126 -560q-5 -17 -22 -17h-146z
M376 1143q-3 -1 -7 -1q-6 0 -11 3.5t-6 9.5l-19 63q-2 6 -2 8q0 11 13 17l450 194q5 3 10 3q10 0 15 -14l31 -106q1 -2 1 -6q0 -13 -14 -18z" />
    <glyph glyph-name="uni0156" unicode="&#x156;" horiz-adv-x="1207" 
d="M1187.5 829.5q-50.5 -93.5 -147 -155t-230.5 -83.5l228 -568q2 -4 2 -10q0 -13 -17 -13h-172q-16 0 -22 16l-83 219l-137 342h-309l-114 -560q-1 -8 -7.5 -12.5t-14.5 -4.5h-154q-10 0 -14.5 6t-1.5 16l169 696l145 665q5 17 22 17h469q149 0 247 -45.5t145 -126.5
t47 -189q0 -116 -50.5 -209.5zM988 1197q-64 63 -205 63h-312l-127 -524l-5 -20h343q121 0 204.5 40t124.5 110t41 160q0 108 -64 171zM301 -435q-15 0 -15 13q0 5 3 11l72 151l36 153q3 17 21 17h150q10 0 14.5 -6t2.5 -16l-31 -135q-3 -12 -11 -22l-155 -155
q-11 -11 -24 -11h-63z" />
    <glyph glyph-name="uni0157" unicode="&#x157;" horiz-adv-x="713" 
d="M-2 0q-22 0 -17 22l123 504l106 487q3 17 21 17h144q10 0 14.5 -6t2.5 -16l-47 -177q77 102 177 155.5t206 53.5q32 0 56 -6q9 -2 13 -8t2 -15l-24 -102q-5 -18 -23 -15q-21 4 -50 4q-83 0 -162.5 -38t-144 -110.5t-103.5 -172.5l-126 -560q-5 -17 -22 -17h-146z
M-142 -435q-15 0 -15 13q0 5 3 11l72 151l36 153q3 17 21 17h150q10 0 14.5 -6t2.5 -16l-31 -135q-3 -12 -11 -22l-155 -155q-11 -11 -24 -11h-63z" />
    <glyph glyph-name="Rcaron" unicode="&#x158;" horiz-adv-x="1207" 
d="M1187.5 829.5q-50.5 -93.5 -147 -155t-230.5 -83.5l228 -568q2 -4 2 -10q0 -13 -17 -13h-172q-16 0 -22 16l-83 219l-137 342h-309l-114 -560q-1 -8 -7.5 -12.5t-14.5 -4.5h-154q-10 0 -14.5 6t-1.5 16l169 696l145 665q5 17 22 17h469q149 0 247 -45.5t145 -126.5
t47 -189q0 -116 -50.5 -209.5zM988 1197q-64 63 -205 63h-312l-127 -524l-5 -20h343q121 0 204.5 40t124.5 110t41 160q0 108 -64 171zM506 1681q-9 6 -9 15q0 6 3 12l34 55q6 11 16 11q4 0 10 -3l249 -118l292 120q3 2 10 2q11 0 15 -12l26 -56q2 -6 2 -9q0 -12 -11 -18
l-299 -159q-12 -6 -25 -6h-53q-13 0 -24 8z" />
    <glyph glyph-name="rcaron" unicode="&#x159;" horiz-adv-x="713" 
d="M-2 0q-22 0 -17 22l123 504l106 487q3 17 21 17h144q10 0 14.5 -6t2.5 -16l-47 -177q77 102 177 155.5t206 53.5q32 0 56 -6q9 -2 13 -8t2 -15l-24 -102q-5 -18 -23 -15q-21 4 -50 4q-83 0 -162.5 -38t-144 -110.5t-103.5 -172.5l-126 -560q-5 -17 -22 -17h-146z
M239 1311q-9 6 -9 15q0 6 3 12l34 55q6 11 16 11q4 0 10 -3l249 -118l292 120q3 2 10 2q11 0 15 -12l26 -56q2 -6 2 -9q0 -12 -11 -18l-299 -159q-12 -6 -25 -6h-53q-13 0 -24 8z" />
    <glyph glyph-name="Sacute" unicode="&#x15a;" horiz-adv-x="1235" 
d="M310.5 27.5q-127.5 51.5 -201 152t-73.5 241.5q0 14 2 42q1 9 6.5 14t14.5 5h154q21 0 19 -20q-5 -104 37 -181t128 -119t208 -42q116 0 195.5 35.5t118.5 94.5t39 129q0 73 -45 119.5t-112 73.5t-183 60q-140 40 -224.5 76.5t-144 107t-59.5 185.5q0 119 66.5 215
t190.5 152t291 56q144 0 259 -44t183.5 -138t68.5 -236q0 -22 -20 -22h-155q-18 0 -20 20q-3 139 -91.5 207.5t-238.5 68.5q-100 0 -177.5 -29.5t-121.5 -85t-44 -131.5q0 -70 44.5 -115t111 -71.5t181.5 -59.5q140 -40 226.5 -77t147 -108.5t60.5 -186.5q0 -121 -65 -221
t-190.5 -159.5t-298.5 -59.5q-160 0 -287.5 51.5zM680 1513q-3 -1 -7 -1q-6 0 -11 3.5t-6 9.5l-19 63q-2 6 -2 8q0 11 13 17l450 194q5 3 10 3q10 0 15 -14l31 -106q1 -2 1 -6q0 -13 -14 -18z" />
    <glyph glyph-name="sacute" unicode="&#x15b;" horiz-adv-x="1002" 
d="M225.5 22q-101.5 44 -155 125.5t-51.5 191.5v2q0 9 5 13.5t14 4.5h138q18 0 20 -20q-1 -113 71.5 -177t208.5 -64q76 0 132 23t85 63t29 89q0 50 -33.5 83t-83.5 52.5t-137 44.5q-109 31 -176.5 60t-115.5 84.5t-48 144.5q0 91 55 161.5t152 109.5t218 39
q120 0 211.5 -36.5t145.5 -107t61 -171.5v-2q0 -9 -5 -13.5t-14 -4.5h-133q-18 0 -20 19q-9 99 -76.5 148.5t-172.5 49.5q-69 0 -122.5 -21t-84 -59.5t-30.5 -90.5q0 -51 33.5 -83.5t83.5 -51t137 -42.5q109 -30 175.5 -57.5t114 -81.5t47.5 -142q0 -93 -54 -167.5
t-153.5 -117t-230.5 -42.5q-139 0 -240.5 44zM499 1143q-3 -1 -7 -1q-6 0 -11 3.5t-6 9.5l-19 63q-2 6 -2 8q0 11 13 17l450 194q5 3 10 3q10 0 15 -14l31 -106q1 -2 1 -6q0 -13 -14 -18z" />
    <glyph glyph-name="Scircumflex" unicode="&#x15c;" horiz-adv-x="1235" 
d="M310.5 27.5q-127.5 51.5 -201 152t-73.5 241.5q0 14 2 42q1 9 6.5 14t14.5 5h154q21 0 19 -20q-5 -104 37 -181t128 -119t208 -42q116 0 195.5 35.5t118.5 94.5t39 129q0 73 -45 119.5t-112 73.5t-183 60q-140 40 -224.5 76.5t-144 107t-59.5 185.5q0 119 66.5 215
t190.5 152t291 56q144 0 259 -44t183.5 -138t68.5 -236q0 -22 -20 -22h-155q-18 0 -20 20q-3 139 -91.5 207.5t-238.5 68.5q-100 0 -177.5 -29.5t-121.5 -85t-44 -131.5q0 -70 44.5 -115t111 -71.5t181.5 -59.5q140 -40 226.5 -77t147 -108.5t60.5 -186.5q0 -121 -65 -221
t-190.5 -159.5t-298.5 -59.5q-160 0 -287.5 51.5zM517 1585q-2 6 -2 9q0 11 12 17l299 159q10 7 24 7h53q15 0 24 -8l236 -158q9 -7 9 -16q0 -5 -3 -11l-33 -56q-6 -11 -16 -11q-5 0 -11 3l-249 119l-291 -120q-3 -2 -10 -2q-12 0 -16 12z" />
    <glyph glyph-name="scircumflex" unicode="&#x15d;" horiz-adv-x="1002" 
d="M225.5 22q-101.5 44 -155 125.5t-51.5 191.5v2q0 9 5 13.5t14 4.5h138q18 0 20 -20q-1 -113 71.5 -177t208.5 -64q76 0 132 23t85 63t29 89q0 50 -33.5 83t-83.5 52.5t-137 44.5q-109 31 -176.5 60t-115.5 84.5t-48 144.5q0 91 55 161.5t152 109.5t218 39
q120 0 211.5 -36.5t145.5 -107t61 -171.5v-2q0 -9 -5 -13.5t-14 -4.5h-133q-18 0 -20 19q-9 99 -76.5 148.5t-172.5 49.5q-69 0 -122.5 -21t-84 -59.5t-30.5 -90.5q0 -51 33.5 -83.5t83.5 -51t137 -42.5q109 -30 175.5 -57.5t114 -81.5t47.5 -142q0 -93 -54 -167.5
t-153.5 -117t-230.5 -42.5q-139 0 -240.5 44zM337 1215q-2 6 -2 9q0 11 12 17l299 159q10 7 24 7h53q15 0 24 -8l236 -158q9 -7 9 -16q0 -5 -3 -11l-33 -56q-6 -11 -16 -11q-5 0 -11 3l-249 119l-291 -120q-3 -2 -10 -2q-12 0 -16 12z" />
    <glyph glyph-name="Scedilla" unicode="&#x15e;" horiz-adv-x="1235" 
d="M997 1380q115 -44 183.5 -138t68.5 -236q0 -22 -20 -22h-155q-18 0 -20 20q-3 139 -91.5 207.5t-238.5 68.5q-100 0 -177.5 -29.5t-121.5 -85t-44 -131.5q0 -70 44.5 -115t111 -71.5t181.5 -59.5q140 -40 226.5 -77t147 -108.5t60.5 -186.5q0 -118 -62.5 -217t-183 -159
t-286.5 -64l-159 -308q-9 -15 -25 -11l-124 22q-14 3 -14 14q0 5 3 11l167 281q-127 19 -224.5 75t-152.5 147.5t-55 212.5q0 13 2 43q1 9 6.5 14t14.5 5h154q21 0 19 -20q-5 -104 37 -181t128 -119t208 -42q116 0 195.5 35.5t118.5 94.5t39 129q0 73 -45 119.5t-112 73.5
t-183 60q-140 40 -224.5 76.5t-144 107t-59.5 185.5q0 119 66.5 215t190.5 152t291 56q144 0 259 -44z" />
    <glyph glyph-name="scedilla" unicode="&#x15f;" horiz-adv-x="1002" 
d="M971 735q0 -9 -5 -13.5t-14 -4.5h-133q-18 0 -20 19q-9 99 -76.5 148.5t-172.5 49.5q-69 0 -122.5 -21t-84 -59.5t-30.5 -90.5q0 -51 33.5 -83.5t83.5 -51t137 -42.5q109 -30 175.5 -57.5t114 -81.5t47.5 -142q0 -91 -52.5 -164.5t-149 -117t-223.5 -45.5l-160 -310
q-9 -15 -25 -11l-124 22q-14 3 -14 14q0 5 3 11l170 287q-149 29 -230.5 120.5t-79.5 227.5v2q0 9 5 13.5t14 4.5h138q18 0 20 -20q-1 -113 71.5 -177t208.5 -64q76 0 132 23t85 63t29 89q0 50 -33.5 83t-83.5 52.5t-137 44.5q-109 31 -176.5 60t-115.5 84.5t-48 144.5
q0 91 55 161.5t152 109.5t218 39q120 0 211.5 -36.5t145.5 -107t61 -171.5v-2z" />
    <glyph glyph-name="Scaron" unicode="&#x160;" horiz-adv-x="1235" 
d="M310.5 27.5q-127.5 51.5 -201 152t-73.5 241.5q0 14 2 42q1 9 6.5 14t14.5 5h154q21 0 19 -20q-5 -104 37 -181t128 -119t208 -42q116 0 195.5 35.5t118.5 94.5t39 129q0 73 -45 119.5t-112 73.5t-183 60q-140 40 -224.5 76.5t-144 107t-59.5 185.5q0 119 66.5 215
t190.5 152t291 56q144 0 259 -44t183.5 -138t68.5 -236q0 -22 -20 -22h-155q-18 0 -20 20q-3 139 -91.5 207.5t-238.5 68.5q-100 0 -177.5 -29.5t-121.5 -85t-44 -131.5q0 -70 44.5 -115t111 -71.5t181.5 -59.5q140 -40 226.5 -77t147 -108.5t60.5 -186.5q0 -121 -65 -221
t-190.5 -159.5t-298.5 -59.5q-160 0 -287.5 51.5zM542 1681q-9 6 -9 15q0 6 3 12l34 55q6 11 16 11q4 0 10 -3l249 -118l292 120q3 2 10 2q11 0 15 -12l26 -56q2 -6 2 -9q0 -12 -11 -18l-299 -159q-12 -6 -25 -6h-53q-13 0 -24 8z" />
    <glyph glyph-name="scaron" unicode="&#x161;" horiz-adv-x="1002" 
d="M225.5 22q-101.5 44 -155 125.5t-51.5 191.5v2q0 9 5 13.5t14 4.5h138q18 0 20 -20q-1 -113 71.5 -177t208.5 -64q76 0 132 23t85 63t29 89q0 50 -33.5 83t-83.5 52.5t-137 44.5q-109 31 -176.5 60t-115.5 84.5t-48 144.5q0 91 55 161.5t152 109.5t218 39
q120 0 211.5 -36.5t145.5 -107t61 -171.5v-2q0 -9 -5 -13.5t-14 -4.5h-133q-18 0 -20 19q-9 99 -76.5 148.5t-172.5 49.5q-69 0 -122.5 -21t-84 -59.5t-30.5 -90.5q0 -51 33.5 -83.5t83.5 -51t137 -42.5q109 -30 175.5 -57.5t114 -81.5t47.5 -142q0 -93 -54 -167.5
t-153.5 -117t-230.5 -42.5q-139 0 -240.5 44zM362 1311q-9 6 -9 15q0 6 3 12l34 55q6 11 16 11q4 0 10 -3l249 -118l292 120q3 2 10 2q11 0 15 -12l26 -56q2 -6 2 -9q0 -12 -11 -18l-299 -159q-12 -6 -25 -6h-53q-13 0 -24 8z" />
    <glyph glyph-name="uni0162" unicode="&#x162;" horiz-adv-x="1046" 
d="M1211 1400q10 0 14.5 -6t2.5 -16l-24 -102q-4 -18 -22 -18h-387l-140 -565l-145 -676q-3 -17 -21 -17h-6l-2 -4l-169 -326q-8 -17 -25 -12l-124 26q-14 5 -14 15q0 6 4 11l174 290q-8 1 -12 6.5t-2 15.5l166 671l122 565h-383q-10 0 -14.5 6t-2.5 16l24 103q5 17 21 17
h965z" />
    <glyph glyph-name="uni0163" unicode="&#x163;" horiz-adv-x="651" 
d="M708 1030q10 0 15 -6t2 -16l-22 -94q-3 -18 -21 -18h-237l-141 -610q-9 -40 -9 -70q0 -50 25.5 -73t77.5 -23q50 0 100 10q3 1 7 1q15 0 12 -19l-20 -87q-3 -14 -17 -19q-70 -19 -137 -22l-163 -316q-10 -15 -25 -11l-125 22q-14 3 -14 15q0 4 3 10l183 308
q-93 49 -93 173q0 43 12 97l144 614h-112q-10 0 -14.5 6t-2.5 16l22 95q5 17 22 17h115l52 241q5 17 22 17h148q10 0 14.5 -6t2.5 -16l-57 -236h231z" />
    <glyph glyph-name="Tcaron" unicode="&#x164;" horiz-adv-x="1052" 
d="M330 0q-10 0 -14.5 6t-2.5 16l166 671l122 565h-383q-10 0 -14.5 6t-2.5 16l24 103q5 17 21 17h965q10 0 14.5 -6t2.5 -16l-24 -102q-4 -18 -22 -18h-387l-140 -565l-145 -676q-3 -17 -21 -17h-159zM472 1681q-9 6 -9 15q0 6 3 12l34 55q6 11 16 11q4 0 10 -3l249 -118
l292 120q3 2 10 2q11 0 15 -12l26 -56q2 -6 2 -9q0 -12 -11 -18l-299 -159q-12 -6 -25 -6h-53q-13 0 -24 8z" />
    <glyph glyph-name="tcaron" unicode="&#x165;" horiz-adv-x="651" 
d="M708 1030q10 0 15 -6t2 -16l-22 -94q-3 -18 -21 -18h-237l-141 -610q-9 -40 -9 -70q0 -50 25.5 -73t77.5 -23q50 0 100 10q3 1 7 1q15 0 12 -19l-20 -87q-3 -14 -17 -19q-81 -22 -150 -22q-97 0 -159 48.5t-62 152.5q0 43 12 97l144 614h-112q-10 0 -14.5 6t-2.5 16
l22 95q5 17 22 17h115l52 241q5 17 22 17h148q10 0 14.5 -6t2.5 -16l-57 -236h231zM700 1124q-8 -15 -22 -15h-83q-17 0 -17 14q0 3 2 9l158 373q6 15 23 15h116q17 0 17 -13q0 -5 -3 -11z" />
    <glyph glyph-name="Tbar" unicode="&#x166;" horiz-adv-x="1052" 
d="M1211 1400q10 0 14.5 -6t2.5 -16l-24 -102q-4 -18 -22 -18h-387l-131 -530h231q10 0 14 -5.5t2 -15.5l-24 -105q-3 -17 -21 -17h-234l-122 -568q-3 -17 -21 -17h-159q-10 0 -14.5 6t-2.5 16l139 563h-229q-10 0 -14 5.5t-2 15.5l24 105q3 17 21 17h235l114 530h-383
q-10 0 -14.5 6t-2.5 16l24 103q5 17 21 17h965z" />
    <glyph glyph-name="tbar" unicode="&#x167;" horiz-adv-x="655" 
d="M712 1030q10 0 14.5 -6t2.5 -16l-22 -94q-3 -18 -21 -18h-238l-63 -276h228q11 0 15.5 -6t2.5 -16l-22 -94q-3 -17 -21 -17h-234l-46 -201q-9 -40 -9 -71q0 -50 25.5 -72.5t77.5 -22.5q48 0 100 10q3 1 7 1q16 0 11 -19l-19 -87q-4 -15 -17 -19q-82 -22 -150 -22
q-97 0 -159 48.5t-62 152.5q0 43 12 97l48 205h-113q-11 0 -15.5 5.5t-2.5 15.5l22 95q3 17 21 17h119l64 276h-111q-10 0 -14.5 6t-2.5 16l22 95q3 17 21 17h116l52 241q1 8 7.5 12.5t14.5 4.5h148q10 0 14.5 -6t2.5 -16l-57 -236h231z" />
    <glyph glyph-name="Utilde" unicode="&#x168;" horiz-adv-x="1241" 
d="M299 27.5q-103 52.5 -155.5 146.5t-52.5 218q0 76 19 155l100 425l90 411q3 17 21 17h156q10 0 14.5 -6t2.5 -16l-99 -402l-100 -433q-16 -67 -16 -133q0 -130 72 -207.5t215 -77.5q150 0 249.5 96t144.5 289l109 463l88 410q1 8 7.5 12.5t14.5 4.5h145q22 0 17 -22
l-99 -406l-108 -462q-62 -266 -207 -400.5t-379 -134.5q-146 0 -249 52.5zM922 1553.5q-30 20.5 -64 58.5q-26 28 -43 41.5t-38 13.5q-34 0 -52 -27.5t-31 -81.5q-5 -17 -22 -17h-63q-9 0 -14 6t-3 15q21 102 69.5 161.5t126.5 59.5q44 0 74 -20.5t66 -59.5q25 -27 42 -40
t36 -13q36 0 54.5 27t30.5 80q4 17 22 17h63q17 0 17 -18q0 -6 -1 -9q-45 -214 -194 -214q-46 0 -76 20.5z" />
    <glyph glyph-name="utilde" unicode="&#x169;" horiz-adv-x="1050" 
d="M1051 1030q10 0 14.5 -6t2.5 -16l-110 -446l-121 -545q-3 -17 -21 -17h-140q-10 0 -14.5 6t-2.5 16l40 159q-59 -89 -154 -147t-205 -58q-85 0 -151.5 34t-104.5 100.5t-38 160.5q0 60 16 125l45 194l93 423q5 17 22 17h148q10 0 14.5 -6t2.5 -16l-99 -401l-42 -197
q-13 -56 -13 -105q0 -93 47.5 -141.5t131.5 -48.5q110 0 194 86t142 224l44 184l87 404q5 17 22 17h150zM728 1183.5q-30 20.5 -64 58.5q-26 28 -43 41.5t-38 13.5q-34 0 -52 -27.5t-31 -81.5q-5 -17 -22 -17h-63q-9 0 -14 6t-3 15q21 102 69.5 161.5t126.5 59.5
q44 0 74 -20.5t66 -59.5q25 -27 42 -40t36 -13q36 0 54.5 27t30.5 80q4 17 22 17h63q17 0 17 -18q0 -6 -1 -9q-45 -214 -194 -214q-46 0 -76 20.5z" />
    <glyph glyph-name="Umacron" unicode="&#x16a;" horiz-adv-x="1241" 
d="M299 27.5q-103 52.5 -155.5 146.5t-52.5 218q0 76 19 155l100 425l90 411q3 17 21 17h156q10 0 14.5 -6t2.5 -16l-99 -402l-100 -433q-16 -67 -16 -133q0 -130 72 -207.5t215 -77.5q150 0 249.5 96t144.5 289l109 463l88 410q1 8 7.5 12.5t14.5 4.5h145q22 0 17 -22
l-99 -406l-108 -462q-62 -266 -207 -400.5t-379 -134.5q-146 0 -249 52.5zM599 1560q-10 0 -14.5 6t-2.5 16l22 90q3 17 21 17h547q10 0 14.5 -5.5t2.5 -15.5l-22 -91q-4 -17 -21 -17h-547z" />
    <glyph glyph-name="umacron" unicode="&#x16b;" horiz-adv-x="1050" 
d="M1051 1030q10 0 14.5 -6t2.5 -16l-110 -446l-121 -545q-3 -17 -21 -17h-140q-10 0 -14.5 6t-2.5 16l40 159q-59 -89 -154 -147t-205 -58q-85 0 -151.5 34t-104.5 100.5t-38 160.5q0 60 16 125l45 194l93 423q5 17 22 17h148q10 0 14.5 -6t2.5 -16l-99 -401l-42 -197
q-13 -56 -13 -105q0 -93 47.5 -141.5t131.5 -48.5q110 0 194 86t142 224l44 184l87 404q5 17 22 17h150zM405 1190q-10 0 -14.5 6t-2.5 16l22 90q3 17 21 17h547q10 0 14.5 -5.5t2.5 -15.5l-22 -91q-4 -17 -21 -17h-547z" />
    <glyph glyph-name="Ubreve" unicode="&#x16c;" horiz-adv-x="1241" 
d="M299 27.5q-103 52.5 -155.5 146.5t-52.5 218q0 76 19 155l100 425l90 411q3 17 21 17h156q10 0 14.5 -6t2.5 -16l-99 -402l-100 -433q-16 -67 -16 -133q0 -130 72 -207.5t215 -77.5q150 0 249.5 96t144.5 289l109 463l88 410q1 8 7.5 12.5t14.5 4.5h145q22 0 17 -22
l-99 -406l-108 -462q-62 -266 -207 -400.5t-379 -134.5q-146 0 -249 52.5zM750.5 1549.5q-56.5 29.5 -86.5 82t-30 118.5q0 16 1 24q3 19 21 19h85q10 0 15 -5.5t4 -15.5q-5 -58 30 -93.5t101 -35.5q65 0 111 36t63 97q5 17 21 17h88q10 0 15 -5.5t3 -15.5
q-16 -73 -58.5 -130.5t-107 -89.5t-143.5 -32q-76 0 -132.5 29.5z" />
    <glyph glyph-name="ubreve" unicode="&#x16d;" horiz-adv-x="1050" 
d="M1051 1030q10 0 14.5 -6t2.5 -16l-110 -446l-121 -545q-3 -17 -21 -17h-140q-10 0 -14.5 6t-2.5 16l40 159q-59 -89 -154 -147t-205 -58q-85 0 -151.5 34t-104.5 100.5t-38 160.5q0 60 16 125l45 194l93 423q5 17 22 17h148q10 0 14.5 -6t2.5 -16l-99 -401l-42 -197
q-13 -56 -13 -105q0 -93 47.5 -141.5t131.5 -48.5q110 0 194 86t142 224l44 184l87 404q5 17 22 17h150zM555.5 1179.5q-56.5 29.5 -86.5 82t-30 118.5q0 16 1 24q3 19 21 19h85q10 0 15 -5.5t4 -15.5q-5 -58 30 -93.5t101 -35.5q65 0 111 36t63 97q5 17 21 17h88
q10 0 15 -5.5t3 -15.5q-16 -73 -58.5 -130.5t-107 -89.5t-143.5 -32q-76 0 -132.5 29.5z" />
    <glyph glyph-name="Uring" unicode="&#x16e;" horiz-adv-x="1241" 
d="M299 27.5q-103 52.5 -155.5 146.5t-52.5 218q0 76 19 155l100 425l90 411q3 17 21 17h156q10 0 14.5 -6t2.5 -16l-99 -402l-100 -433q-16 -67 -16 -133q0 -130 72 -207.5t215 -77.5q150 0 249.5 96t144.5 289l109 463l88 410q1 8 7.5 12.5t14.5 4.5h145q22 0 17 -22
l-99 -406l-108 -462q-62 -266 -207 -400.5t-379 -134.5q-146 0 -249 52.5zM784 1540.5q-47 23.5 -74.5 66t-27.5 98.5q0 60 30 111t83.5 81.5t120.5 30.5q59 0 106.5 -24t74.5 -67t27 -98q0 -60 -30.5 -111t-84 -81t-120.5 -30q-58 0 -105 23.5zM984 1632.5
q37 41.5 37 103.5q0 55 -30 86t-77 31q-58 0 -94 -43t-36 -103q0 -55 30.5 -85.5t77.5 -30.5q55 0 92 41.5z" />
    <glyph glyph-name="uring" unicode="&#x16f;" horiz-adv-x="1050" 
d="M1051 1030q10 0 14.5 -6t2.5 -16l-110 -446l-121 -545q-3 -17 -21 -17h-140q-10 0 -14.5 6t-2.5 16l40 159q-59 -89 -154 -147t-205 -58q-85 0 -151.5 34t-104.5 100.5t-38 160.5q0 60 16 125l45 194l93 423q5 17 22 17h148q10 0 14.5 -6t2.5 -16l-99 -401l-42 -197
q-13 -56 -13 -105q0 -93 47.5 -141.5t131.5 -48.5q110 0 194 86t142 224l44 184l87 404q5 17 22 17h150zM590 1170.5q-47 23.5 -74.5 66t-27.5 98.5q0 60 30 111t83.5 81.5t120.5 30.5q59 0 106.5 -24t74.5 -67t27 -98q0 -60 -30.5 -111t-84 -81t-120.5 -30q-58 0 -105 23.5
zM790 1262.5q37 41.5 37 103.5q0 55 -30 86t-77 31q-58 0 -94 -43t-36 -103q0 -55 30.5 -85.5t77.5 -30.5q55 0 92 41.5z" />
    <glyph glyph-name="Uhungarumlaut" unicode="&#x170;" horiz-adv-x="1241" 
d="M299 27.5q-103 52.5 -155.5 146.5t-52.5 218q0 76 19 155l100 425l90 411q3 17 21 17h156q10 0 14.5 -6t2.5 -16l-99 -402l-100 -433q-16 -67 -16 -133q0 -130 72 -207.5t215 -77.5q150 0 249.5 96t144.5 289l109 463l88 410q1 8 7.5 12.5t14.5 4.5h145q22 0 17 -22
l-99 -406l-108 -462q-62 -266 -207 -400.5t-379 -134.5q-146 0 -249 52.5zM701 1543q-8 -5 -14 -5q-8 0 -14 7l-30 32q-6 8 -6 14q0 7 6 14l297 303q7 7 14 7q9 0 14 -8l53 -66q5 -6 5 -13q0 -8 -7 -14zM1007 1538q-6 -5 -13 -5q-9 0 -15 7l-30 31q-6 6 -6 14q0 7 7 14
l298 303q6 7 14 7q9 0 14 -8l52 -65q6 -7 6 -13q0 -8 -8 -14z" />
    <glyph glyph-name="uhungarumlaut" unicode="&#x171;" horiz-adv-x="1050" 
d="M1051 1030q10 0 14.5 -6t2.5 -16l-110 -446l-121 -545q-3 -17 -21 -17h-140q-10 0 -14.5 6t-2.5 16l40 159q-59 -89 -154 -147t-205 -58q-85 0 -151.5 34t-104.5 100.5t-38 160.5q0 60 16 125l45 194l93 423q5 17 22 17h148q10 0 14.5 -6t2.5 -16l-99 -401l-42 -197
q-13 -56 -13 -105q0 -93 47.5 -141.5t131.5 -48.5q110 0 194 86t142 224l44 184l87 404q5 17 22 17h150zM507 1173q-8 -5 -14 -5q-8 0 -14 7l-30 32q-6 8 -6 14q0 7 6 14l297 303q7 7 14 7q9 0 14 -8l53 -66q5 -6 5 -13q0 -8 -7 -14zM813 1168q-6 -5 -13 -5q-9 0 -15 7
l-30 31q-6 6 -6 14q0 7 7 14l298 303q6 7 14 7q9 0 14 -8l52 -65q6 -7 6 -13q0 -8 -8 -14z" />
    <glyph glyph-name="Uogonek" unicode="&#x172;" horiz-adv-x="1241" 
d="M1324 1400q22 0 17 -22l-99 -406l-108 -462q-62 -266 -207 -400.5t-379 -134.5h-25q-39 -27 -64.5 -65.5t-25.5 -79.5t29 -62.5t87 -21.5h64q10 0 14.5 -6t2.5 -16l-20 -87q-3 -17 -21 -17h-82q-109 0 -168.5 48t-59.5 126q0 59 35 109t96 86q-155 34 -237 140.5
t-82 262.5q0 76 19 155l100 425l90 411q3 17 21 17h156q10 0 14.5 -6t2.5 -16l-99 -402l-100 -433q-16 -67 -16 -133q0 -130 72 -207.5t215 -77.5q150 0 249.5 96t144.5 289l109 463l88 410q1 8 7.5 12.5t14.5 4.5h145z" />
    <glyph glyph-name="uogonek" unicode="&#x173;" horiz-adv-x="1050" 
d="M1051 1030q10 0 14.5 -6t2.5 -16l-110 -446l-121 -545q-3 -17 -21 -17h-44q-53 -23 -93 -70.5t-40 -99.5q0 -41 29 -62.5t87 -21.5h64q10 0 14.5 -6t2.5 -16l-20 -87q-3 -17 -21 -17h-82q-109 0 -168.5 48t-59.5 126q0 69 48 125.5t126 91.5q-2 5 0 11l40 159
q-59 -89 -154 -147t-205 -58q-85 0 -151.5 34t-104.5 100.5t-38 160.5q0 60 16 125l45 194l93 423q5 17 22 17h148q10 0 14.5 -6t2.5 -16l-99 -401l-42 -197q-13 -56 -13 -105q0 -93 47.5 -141.5t131.5 -48.5q110 0 194 86t142 224l44 184l87 404q5 17 22 17h150z" />
    <glyph glyph-name="Wcircumflex" unicode="&#x174;" horiz-adv-x="1760" 
d="M277 0q-18 0 -20 20l-34 1360q0 20 20 20h140q19 0 19 -20l8 -1204l554 1209q6 15 22 15h178q20 0 20 -20l-4 -1212l569 1217q8 15 23 15h148q17 0 17 -13q0 -6 -2 -10l-669 -1363q-6 -14 -23 -14h-183q-9 0 -14.5 5t-5.5 15l-22 1121l-529 -1126q-7 -15 -23 -15h-189z
M793 1585q-2 6 -2 9q0 11 12 17l299 159q10 7 24 7h53q15 0 24 -8l236 -158q9 -7 9 -16q0 -5 -3 -11l-33 -56q-6 -11 -16 -11q-5 0 -11 3l-249 119l-291 -120q-3 -2 -10 -2q-12 0 -16 12z" />
    <glyph glyph-name="wcircumflex" unicode="&#x175;" horiz-adv-x="1405" 
d="M186 0q-19 0 -20 19l-35 991q0 20 19 20h129q19 0 19 -20l3 -854l394 859q8 15 23 15h184q19 0 19 -20l10 -845l388 850q6 15 23 15h146q16 0 16 -13q0 -6 -2 -10l-481 -992q-5 -15 -23 -15h-179q-18 0 -19 19l-20 860l-395 -864q-6 -15 -22 -15h-177zM528 1215
q-2 6 -2 9q0 11 12 17l299 159q10 7 24 7h53q15 0 24 -8l236 -158q9 -7 9 -16q0 -5 -3 -11l-33 -56q-6 -11 -16 -11q-5 0 -11 3l-249 119l-291 -120q-3 -2 -10 -2q-12 0 -16 12z" />
    <glyph glyph-name="Ycircumflex" unicode="&#x176;" horiz-adv-x="1134" 
d="M217 1378q-1 2 -1 6q0 16 18 16h157q18 0 22 -17l185 -717l516 722q9 12 24 12h165q8 0 12.5 -3.5t4.5 -8.5t-5 -12l-665 -884l-103 -475q-5 -17 -22 -17h-155q-10 0 -14.5 6t-2.5 16l118 474zM481 1585q-2 6 -2 9q0 11 12 17l299 159q10 7 24 7h53q15 0 24 -8l236 -158
q9 -7 9 -16q0 -5 -3 -11l-33 -56q-6 -11 -16 -11q-5 0 -11 3l-249 119l-291 -120q-3 -2 -10 -2q-12 0 -16 12z" />
    <glyph glyph-name="ycircumflex" unicode="&#x177;" horiz-adv-x="950" 
d="M116 -340q-8 0 -12.5 3.5t-4.5 9.5q0 3 4 11l189 326l-168 999l-1 6q0 7 5 11t13 4h149q18 0 21 -18l112 -784l436 788q7 14 23 14h160q8 0 12.5 -3.5t4.5 -9.5q0 -3 -4 -11l-770 -1333q-9 -13 -23 -13h-146zM302 1215q-2 6 -2 9q0 11 12 17l299 159q10 7 24 7h53
q15 0 24 -8l236 -158q9 -7 9 -16q0 -5 -3 -11l-33 -56q-6 -11 -16 -11q-5 0 -11 3l-249 119l-291 -120q-3 -2 -10 -2q-12 0 -16 12z" />
    <glyph glyph-name="Ydieresis" unicode="&#x178;" horiz-adv-x="1134" 
d="M217 1378q-1 2 -1 6q0 16 18 16h157q18 0 22 -17l185 -717l516 722q9 12 24 12h165q8 0 12.5 -3.5t4.5 -8.5t-5 -12l-665 -884l-103 -475q-5 -17 -22 -17h-155q-10 0 -14.5 6t-2.5 16l118 474zM577 1529q-10 0 -14.5 6t-2.5 16l37 154q3 17 21 17h124q10 0 14.5 -6
t2.5 -16l-37 -153q-3 -18 -21 -18h-124zM896 1529q-10 0 -15 6t-2 16l36 154q5 17 22 17h124q10 0 14.5 -6t2.5 -16l-37 -153q-4 -18 -21 -18h-124z" />
    <glyph glyph-name="Zacute" unicode="&#x179;" horiz-adv-x="1139" 
d="M-43 0q-10 0 -14.5 6t-2.5 16l28 120q2 10 12 22l1041 1094h-720q-10 0 -14.5 6t-2.5 16l24 103q3 17 21 17h928q10 0 14.5 -6t2.5 -16l-29 -124q-2 -10 -12 -22l-1036 -1090h780q10 0 14.5 -6t2.5 -16l-24 -103q-3 -17 -21 -17h-992zM652 1513q-3 -1 -7 -1q-6 0 -11 3.5
t-6 9.5l-19 63q-2 6 -2 8q0 11 13 17l450 194q5 3 10 3q10 0 15 -14l31 -106q1 -2 1 -6q0 -13 -14 -18z" />
    <glyph glyph-name="zacute" unicode="&#x17a;" horiz-adv-x="933" 
d="M-36 0q-10 0 -14.5 6t-2.5 16l23 101q2 11 12 22l728 750h-497q-10 0 -14.5 6t-2.5 16l23 96q5 17 21 17h705q10 0 14.5 -6t2.5 -16l-24 -101q-3 -13 -12 -22l-733 -750h569q10 0 14.5 -6t2.5 -16l-21 -96q-5 -17 -22 -17h-772zM467 1143q-3 -1 -7 -1q-6 0 -11 3.5
t-6 9.5l-19 63q-2 6 -2 8q0 11 13 17l450 194q5 3 10 3q10 0 15 -14l31 -106q1 -2 1 -6q0 -13 -14 -18z" />
    <glyph glyph-name="Zdotaccent" unicode="&#x17b;" horiz-adv-x="1139" 
d="M-43 0q-10 0 -14.5 6t-2.5 16l28 120q2 10 12 22l1041 1094h-720q-10 0 -14.5 6t-2.5 16l24 103q3 17 21 17h928q10 0 14.5 -6t2.5 -16l-29 -124q-2 -10 -12 -22l-1036 -1090h780q10 0 14.5 -6t2.5 -16l-24 -103q-3 -17 -21 -17h-992zM734 1529q-10 0 -14.5 6t-2.5 16
l37 154q3 17 21 17h145q10 0 14.5 -6t2.5 -16l-37 -153q-3 -18 -21 -18h-145z" />
    <glyph glyph-name="zdotaccent" unicode="&#x17c;" horiz-adv-x="933" 
d="M-36 0q-10 0 -14.5 6t-2.5 16l23 101q2 11 12 22l728 750h-497q-10 0 -14.5 6t-2.5 16l23 96q5 17 21 17h705q10 0 14.5 -6t2.5 -16l-24 -101q-3 -13 -12 -22l-733 -750h569q10 0 14.5 -6t2.5 -16l-21 -96q-5 -17 -22 -17h-772zM549 1159q-10 0 -14.5 6t-2.5 16l37 154
q3 17 21 17h145q10 0 14.5 -6t2.5 -16l-37 -153q-3 -18 -21 -18h-145z" />
    <glyph glyph-name="Zcaron" unicode="&#x17d;" horiz-adv-x="1139" 
d="M-43 0q-10 0 -14.5 6t-2.5 16l28 120q2 10 12 22l1041 1094h-720q-10 0 -14.5 6t-2.5 16l24 103q3 17 21 17h928q10 0 14.5 -6t2.5 -16l-29 -124q-2 -10 -12 -22l-1036 -1090h780q10 0 14.5 -6t2.5 -16l-24 -103q-3 -17 -21 -17h-992zM515 1681q-9 6 -9 15q0 6 3 12
l34 55q6 11 16 11q4 0 10 -3l249 -118l292 120q3 2 10 2q11 0 15 -12l26 -56q2 -6 2 -9q0 -12 -11 -18l-299 -159q-12 -6 -25 -6h-53q-13 0 -24 8z" />
    <glyph glyph-name="zcaron" unicode="&#x17e;" horiz-adv-x="933" 
d="M-36 0q-10 0 -14.5 6t-2.5 16l23 101q2 11 12 22l728 750h-497q-10 0 -14.5 6t-2.5 16l23 96q5 17 21 17h705q10 0 14.5 -6t2.5 -16l-24 -101q-3 -13 -12 -22l-733 -750h569q10 0 14.5 -6t2.5 -16l-21 -96q-5 -17 -22 -17h-772zM330 1311q-9 6 -9 15q0 6 3 12l34 55
q6 11 16 11q4 0 10 -3l249 -118l292 120q3 2 10 2q11 0 15 -12l26 -56q2 -6 2 -9q0 -12 -11 -18l-299 -159q-12 -6 -25 -6h-53q-13 0 -24 8z" />
    <glyph glyph-name="florin" unicode="&#x192;" horiz-adv-x="702" 
d="M851 1389l-22 -91q-1 -9 -7.5 -12.5t-16.5 -1.5q-37 9 -89 9q-130 0 -173 -184l-18 -79h223q10 0 14.5 -6t2.5 -16l-22 -93q-3 -18 -21 -18h-228l-67 -287l-154 -666q-36 -158 -129 -231t-213 -73q-67 0 -128 14q-9 2 -12.5 8.5t-1.5 15.5l21 91q2 9 8.5 12.5t15.5 1.5
q39 -9 89 -9q132 0 174 184l152 657l65 282h-137q-10 0 -14.5 6t-2.5 16l23 94q3 17 21 17h141l22 93q36 158 129 231t212 73q68 0 129 -14q17 -4 14 -24z" />
    <glyph glyph-name="Ohorn" unicode="&#x1a0;" horiz-adv-x="1467" 
d="M1526 1547q8 -6 8 -15q0 -7 -6 -13l-234 -251q81 -78 125 -190t44 -252q0 -206 -90.5 -402.5t-265 -322.5t-414.5 -126q-176 0 -313 71t-213.5 207t-76.5 323q0 205 90.5 401t265.5 322t415 126q198 0 342 -88l215 268q6 8 14 8q5 0 13 -5zM1018 232q129 111 190.5 275
t61.5 323q0 144 -52 245t-145.5 152.5t-217.5 51.5q-190 0 -319.5 -111t-191 -275t-61.5 -323q0 -144 51.5 -245t145.5 -152.5t219 -51.5q190 0 319 111z" />
    <glyph glyph-name="ohorn" unicode="&#x1a1;" horiz-adv-x="1100" 
d="M1152 1176q9 -6 9 -14q0 -7 -6 -13l-212 -231q52 -57 79.5 -136t27.5 -176q0 -154 -65.5 -298.5t-193 -236.5t-302.5 -92q-128 0 -227.5 52.5t-155.5 153.5t-56 241q0 153 66 297t193.5 236t302.5 92q141 0 244 -62l1 2l187 243q6 9 15 9q5 0 12 -5zM700.5 184
q83.5 79 124.5 197t41 232q0 100 -32 170t-90.5 106t-137.5 36q-123 0 -207 -79t-124.5 -197t-40.5 -232q0 -100 32 -170t91 -106t138 -36q122 0 205.5 79z" />
    <glyph glyph-name="Uhorn" unicode="&#x1af;" horiz-adv-x="1241" 
d="M1490 1547q8 -6 8 -14q0 -7 -7 -14l-157 -168l-92 -379l-108 -462q-62 -266 -207 -400.5t-379 -134.5q-146 0 -249 52.5t-155.5 146.5t-52.5 218q0 76 19 155l100 425l90 411q3 17 21 17h156q10 0 14.5 -6t2.5 -16l-99 -402l-100 -433q-16 -67 -16 -133q0 -130 72 -207.5
t215 -77.5q150 0 249.5 96t144.5 289l109 463l88 410q1 8 7.5 12.5t14.5 4.5h53l149 204q6 9 15 9q6 0 13 -5z" />
    <glyph glyph-name="uhorn" unicode="&#x1b0;" horiz-adv-x="1050" 
d="M1221 1177q8 -6 8 -14q0 -7 -7 -14l-162 -174l-102 -413l-121 -545q-3 -17 -21 -17h-140q-10 0 -14.5 6t-2.5 16l40 159q-59 -89 -154 -147t-205 -58q-85 0 -151.5 34t-104.5 100.5t-38 160.5q0 60 16 125l45 194l93 423q5 17 22 17h148q10 0 14.5 -6t2.5 -16l-99 -401
l-42 -197q-13 -56 -13 -105q0 -93 47.5 -141.5t131.5 -48.5q110 0 194 86t142 224l44 184l87 404q5 17 22 17h62l149 204q6 9 15 9q6 0 13 -5z" />
    <glyph glyph-name="uni0218" unicode="&#x218;" horiz-adv-x="1235" 
d="M310.5 27.5q-127.5 51.5 -201 152t-73.5 241.5q0 14 2 42q1 9 6.5 14t14.5 5h154q21 0 19 -20q-5 -104 37 -181t128 -119t208 -42q116 0 195.5 35.5t118.5 94.5t39 129q0 73 -45 119.5t-112 73.5t-183 60q-140 40 -224.5 76.5t-144 107t-59.5 185.5q0 119 66.5 215
t190.5 152t291 56q144 0 259 -44t183.5 -138t68.5 -236q0 -22 -20 -22h-155q-18 0 -20 20q-3 139 -91.5 207.5t-238.5 68.5q-100 0 -177.5 -29.5t-121.5 -85t-44 -131.5q0 -70 44.5 -115t111 -71.5t181.5 -59.5q140 -40 226.5 -77t147 -108.5t60.5 -186.5q0 -121 -65 -221
t-190.5 -159.5t-298.5 -59.5q-160 0 -287.5 51.5zM331 -435q-15 0 -15 13q0 5 3 11l72 151l36 153q3 17 21 17h150q10 0 14.5 -6t2.5 -16l-31 -135q-3 -12 -11 -22l-155 -155q-11 -11 -24 -11h-63z" />
    <glyph glyph-name="uni0219" unicode="&#x219;" horiz-adv-x="1002" 
d="M225.5 22q-101.5 44 -155 125.5t-51.5 191.5v2q0 9 5 13.5t14 4.5h138q18 0 20 -20q-1 -113 71.5 -177t208.5 -64q76 0 132 23t85 63t29 89q0 50 -33.5 83t-83.5 52.5t-137 44.5q-109 31 -176.5 60t-115.5 84.5t-48 144.5q0 91 55 161.5t152 109.5t218 39
q120 0 211.5 -36.5t145.5 -107t61 -171.5v-2q0 -9 -5 -13.5t-14 -4.5h-133q-18 0 -20 19q-9 99 -76.5 148.5t-172.5 49.5q-69 0 -122.5 -21t-84 -59.5t-30.5 -90.5q0 -51 33.5 -83.5t83.5 -51t137 -42.5q109 -30 175.5 -57.5t114 -81.5t47.5 -142q0 -93 -54 -167.5
t-153.5 -117t-230.5 -42.5q-139 0 -240.5 44zM189 -435q-15 0 -15 13q0 5 3 11l72 151l36 153q3 17 21 17h150q10 0 14.5 -6t2.5 -16l-31 -135q-3 -12 -11 -22l-155 -155q-11 -11 -24 -11h-63z" />
    <glyph glyph-name="uni021A" unicode="&#x21a;" horiz-adv-x="1052" 
d="M330 0q-10 0 -14.5 6t-2.5 16l166 671l122 565h-383q-10 0 -14.5 6t-2.5 16l24 103q5 17 21 17h965q10 0 14.5 -6t2.5 -16l-24 -102q-4 -18 -22 -18h-387l-140 -565l-145 -676q-3 -17 -21 -17h-159zM197 -435q-15 0 -15 13q0 5 3 11l72 151l36 153q3 17 21 17h150
q10 0 14.5 -6t2.5 -16l-31 -135q-3 -12 -11 -22l-155 -155q-11 -11 -24 -11h-63z" />
    <glyph glyph-name="uni021B" unicode="&#x21b;" horiz-adv-x="651" 
d="M708 1030q10 0 15 -6t2 -16l-22 -94q-3 -18 -21 -18h-237l-141 -610q-9 -40 -9 -70q0 -50 25.5 -73t77.5 -23q50 0 100 10q3 1 7 1q15 0 12 -19l-20 -87q-3 -14 -17 -19q-81 -22 -150 -22q-97 0 -159 48.5t-62 152.5q0 43 12 97l144 614h-112q-10 0 -14.5 6t-2.5 16
l22 95q5 17 22 17h115l52 241q5 17 22 17h148q10 0 14.5 -6t2.5 -16l-57 -236h231zM56 -435q-15 0 -15 13q0 5 3 11l72 151l36 153q3 17 21 17h150q10 0 14.5 -6t2.5 -16l-31 -135q-3 -12 -11 -22l-155 -155q-11 -11 -24 -11h-63z" />
    <glyph glyph-name="uni0237" unicode="&#x237;" horiz-adv-x="397" 
d="M-71 -340q-10 0 -14.5 6t-2.5 16l155 648l152 683q3 17 21 17h150q10 0 14.5 -6t2.5 -16l-163 -678l-144 -653q-1 -8 -7.5 -12.5t-14.5 -4.5h-149z" />
    <glyph glyph-name="uni0259" unicode="&#x259;" 
d="M244.5 29.5q-95.5 50.5 -147.5 143.5t-52 217q0 58 14 130q3 17 21 17h758q5 33 5 76q0 153 -72 232.5t-201 79.5q-227 0 -303 -241q-6 -17 -23 -17h-134q-10 0 -14.5 6.5t-1.5 17.5q53 178 176.5 269t302.5 91q134 0 235.5 -51.5t157.5 -152t56 -242.5
q0 -154 -64.5 -298t-190 -236t-300.5 -92q-127 0 -222.5 50.5zM229 415q-5 -35 -5 -60q0 -74 30 -131t87 -88.5t135 -31.5q134 0 220 87t122 224h-589z" />
    <glyph glyph-name="quoteleft" unicode="&#x2bb;" horiz-adv-x="333" 
d="M476 1400q14 0 14 -12q0 -5 -3 -11l-87 -173l-41 -181q-3 -17 -21 -17h-142q-22 0 -17 22l37 162q3 13 12 22l159 177q10 11 24 11h65z" />
    <glyph glyph-name="quoteleft" unicode="&#x2018;" horiz-adv-x="333" 
d="M476 1400q14 0 14 -12q0 -5 -3 -11l-87 -173l-41 -181q-3 -17 -21 -17h-142q-22 0 -17 22l37 162q3 13 12 22l159 177q10 11 24 11h65z" />
    <glyph glyph-name="quoteright" unicode="&#x2bc;" horiz-adv-x="333" 
d="M175 1006q-14 0 -14 12q0 5 3 11l87 173l41 181q3 17 21 17h142q10 0 14.5 -6t2.5 -16l-37 -162q-2 -12 -12 -22l-159 -177q-10 -11 -24 -11h-65z" />
    <glyph glyph-name="quoteright" unicode="&#x2019;" horiz-adv-x="333" 
d="M175 1006q-14 0 -14 12q0 5 3 11l87 173l41 181q3 17 21 17h142q10 0 14.5 -6t2.5 -16l-37 -162q-2 -12 -12 -22l-159 -177q-10 -11 -24 -11h-65z" />
    <glyph glyph-name="circumflex" unicode="&#x2c6;" horiz-adv-x="873" 
d="M266 1215q-2 6 -2 9q0 11 12 17l299 159q10 7 24 7h53q15 0 24 -8l236 -158q9 -7 9 -16q0 -5 -3 -11l-33 -56q-6 -11 -16 -11q-5 0 -11 3l-249 119l-291 -120q-3 -2 -10 -2q-12 0 -16 12z" />
    <glyph glyph-name="caron" unicode="&#x2c7;" horiz-adv-x="875" 
d="M298 1311q-9 6 -9 15q0 6 3 12l34 55q6 11 16 11q4 0 10 -3l249 -118l292 120q3 2 10 2q11 0 15 -12l26 -56q2 -6 2 -9q0 -12 -11 -18l-299 -159q-12 -6 -25 -6h-53q-13 0 -24 8z" />
    <glyph glyph-name="breve" unicode="&#x2d8;" horiz-adv-x="762" 
d="M404.5 1179.5q-56.5 29.5 -86.5 82t-30 118.5q0 16 1 24q3 19 21 19h85q10 0 15 -5.5t4 -15.5q-5 -58 30 -93.5t101 -35.5q65 0 111 36t63 97q5 17 21 17h88q10 0 15 -5.5t3 -15.5q-16 -73 -58.5 -130.5t-107 -89.5t-143.5 -32q-76 0 -132.5 29.5z" />
    <glyph glyph-name="dotaccent" unicode="&#x2d9;" horiz-adv-x="385" 
d="M270 1159q-10 0 -14.5 6t-2.5 16l37 154q3 17 21 17h145q10 0 14.5 -6t2.5 -16l-37 -153q-3 -18 -21 -18h-145z" />
    <glyph glyph-name="ring" unicode="&#x2da;" horiz-adv-x="642" 
d="M398 1170.5q-47 23.5 -74.5 66t-27.5 98.5q0 60 30 111t83.5 81.5t120.5 30.5q59 0 106.5 -24t74.5 -67t27 -98q0 -60 -30.5 -111t-84 -81t-120.5 -30q-58 0 -105 23.5zM598 1262.5q37 41.5 37 103.5q0 55 -30 86t-77 31q-58 0 -94 -43t-36 -103q0 -55 30.5 -85.5
t77.5 -30.5q55 0 92 41.5z" />
    <glyph glyph-name="ogonek" unicode="&#x2db;" horiz-adv-x="565" 
d="M158 -380q-109 0 -168.5 48t-59.5 126q0 60 36.5 110.5t97 86t132.5 52.5q3 1 8 1q10 0 17 -12l4 -7q2 -4 2 -10q0 -11 -10 -15q-53 -23 -93 -70.5t-40 -99.5q0 -41 29 -62.5t87 -21.5h64q10 0 14.5 -6t2.5 -16l-20 -87q-3 -17 -21 -17h-82z" />
    <glyph glyph-name="tilde" unicode="&#x2dc;" horiz-adv-x="760" 
d="M588 1183.5q-30 20.5 -64 58.5q-26 28 -43 41.5t-38 13.5q-34 0 -52 -27.5t-31 -81.5q-5 -17 -22 -17h-63q-9 0 -14 6t-3 15q21 102 69.5 161.5t126.5 59.5q44 0 74 -20.5t66 -59.5q25 -27 42 -40t36 -13q36 0 54.5 27t30.5 80q4 17 22 17h63q17 0 17 -18q0 -6 -1 -9
q-45 -214 -194 -214q-46 0 -76 20.5z" />
    <glyph glyph-name="hungarumlaut" unicode="&#x2dd;" horiz-adv-x="858" 
d="M334 1173q-8 -5 -14 -5q-8 0 -14 7l-30 32q-6 8 -6 14q0 7 6 14l297 303q7 7 14 7q9 0 14 -8l53 -66q5 -6 5 -13q0 -8 -7 -14zM640 1168q-6 -5 -13 -5q-9 0 -15 7l-30 31q-6 6 -6 14q0 7 7 14l298 303q6 7 14 7q9 0 14 -8l52 -65q6 -7 6 -13q0 -8 -8 -14z" />
    <glyph glyph-name="gravecomb" unicode="&#x300;" horiz-adv-x="0" 
d="M9 1149q-8 -17 -25 -11l-421 163q-13 4 -13 16l2 9l41 103q5 12 15 12q5 0 11 -3l404 -202q12 -6 12 -17q0 -3 -2 -9z" />
    <glyph glyph-name="acutecomb" unicode="&#x301;" horiz-adv-x="0" 
d="M-399 1143q-3 -1 -7 -1q-6 0 -11 3.5t-6 9.5l-19 63q-2 6 -2 8q0 11 13 17l450 194q5 3 10 3q10 0 15 -14l31 -106q1 -2 1 -6q0 -13 -14 -18z" />
    <glyph glyph-name="uni0302" unicode="&#x302;" horiz-adv-x="0" 
d="M-607 1215q-2 6 -2 9q0 11 12 17l299 159q10 7 24 7h53q15 0 24 -8l236 -158q9 -7 9 -16q0 -5 -3 -11l-33 -56q-6 -11 -16 -11q-5 0 -11 3l-249 119l-291 -120q-3 -2 -10 -2q-12 0 -16 12z" />
    <glyph glyph-name="tildecomb" unicode="&#x303;" horiz-adv-x="0" 
d="M-172 1183.5q-30 20.5 -64 58.5q-26 28 -43 41.5t-38 13.5q-34 0 -52 -27.5t-31 -81.5q-5 -17 -22 -17h-63q-9 0 -14 6t-3 15q21 102 69.5 161.5t126.5 59.5q44 0 74 -20.5t66 -59.5q25 -27 42 -40t36 -13q36 0 54.5 27t30.5 80q4 17 22 17h63q17 0 17 -18q0 -6 -1 -9
q-45 -214 -194 -214q-46 0 -76 20.5z" />
    <glyph glyph-name="uni0304" unicode="&#x304;" horiz-adv-x="0" 
d="M-507 1190q-10 0 -14.5 6t-2.5 16l22 90q3 17 21 17h547q10 0 14.5 -5.5t2.5 -15.5l-22 -91q-4 -17 -21 -17h-547z" />
    <glyph glyph-name="uni0306" unicode="&#x306;" horiz-adv-x="0" 
d="M-357.5 1179.5q-56.5 29.5 -86.5 82t-30 118.5q0 16 1 24q3 19 21 19h85q10 0 15 -5.5t4 -15.5q-5 -58 30 -93.5t101 -35.5q65 0 111 36t63 97q5 17 21 17h88q10 0 15 -5.5t3 -15.5q-16 -73 -58.5 -130.5t-107 -89.5t-143.5 -32q-76 0 -132.5 29.5z" />
    <glyph glyph-name="uni0307" unicode="&#x307;" horiz-adv-x="0" 
d="M-115 1159q-10 0 -14.5 6t-2.5 16l37 154q3 17 21 17h145q10 0 14.5 -6t2.5 -16l-37 -153q-3 -18 -21 -18h-145z" />
    <glyph glyph-name="uni0308" unicode="&#x308;" horiz-adv-x="0" 
d="M-414 1159q-10 0 -14.5 6t-2.5 16l37 154q3 17 21 17h124q10 0 14.5 -6t2.5 -16l-37 -153q-3 -18 -21 -18h-124zM-95 1159q-10 0 -15 6t-2 16l36 154q5 17 22 17h124q10 0 14.5 -6t2.5 -16l-37 -153q-4 -18 -21 -18h-124z" />
    <glyph glyph-name="hookabovecomb" unicode="&#x309;" horiz-adv-x="0" 
d="M-219 1153q-10 0 -15 6t-2 16q14 44 45.5 68.5t81.5 46.5q41 19 59.5 34t18.5 40t-23 39.5t-61 14.5q-78 0 -102 -65q-4 -16 -21 -16h-89q-11 0 -15.5 5.5t-1.5 15.5q23 76 83 116t153 40q92 0 151.5 -38t59.5 -104q0 -39 -17 -65.5t-40.5 -42.5t-63.5 -36
q-35 -17 -54 -29.5t-29 -30.5q-8 -15 -22 -15h-96z" />
    <glyph glyph-name="uni030A" unicode="&#x30a;" horiz-adv-x="0" 
d="M-244 1170.5q-47 23.5 -74.5 66t-27.5 98.5q0 60 30 111t83.5 81.5t120.5 30.5q59 0 106.5 -24t74.5 -67t27 -98q0 -60 -30.5 -111t-84 -81t-120.5 -30q-58 0 -105 23.5zM-44 1262.5q37 41.5 37 103.5q0 55 -30 86t-77 31q-58 0 -94 -43t-36 -103q0 -55 30.5 -85.5
t77.5 -30.5q55 0 92 41.5z" />
    <glyph glyph-name="uni030B" unicode="&#x30b;" horiz-adv-x="0" 
d="M-524 1173q-8 -5 -14 -5q-8 0 -14 7l-30 32q-6 8 -6 14q0 7 6 14l297 303q7 7 14 7q9 0 14 -8l53 -66q5 -6 5 -13q0 -8 -7 -14zM-218 1168q-6 -5 -13 -5q-9 0 -15 7l-30 31q-6 6 -6 14q0 7 7 14l298 303q6 7 14 7q9 0 14 -8l52 -65q6 -7 6 -13q0 -8 -8 -14z" />
    <glyph glyph-name="uni030C" unicode="&#x30c;" horiz-adv-x="0" 
d="M-577 1311q-9 6 -9 15q0 6 3 12l34 55q6 11 16 11q4 0 10 -3l249 -118l292 120q3 2 10 2q11 0 15 -12l26 -56q2 -6 2 -9q0 -12 -11 -18l-299 -159q-12 -6 -25 -6h-53q-13 0 -24 8z" />
    <glyph glyph-name="uni0312" unicode="&#x312;" horiz-adv-x="0" 
d="M-165 1170q-10 0 -14.5 6t-2.5 16l31 135q3 13 12 22l154 155q11 11 24 11h66q17 0 17 -13q0 -5 -3 -11l-78 -151l-35 -153q-5 -17 -22 -17h-149z" />
    <glyph glyph-name="uni031B" unicode="&#x31b;" horiz-adv-x="0" 
d="M-191 900q-6 -7 -13 -7q-8 0 -14 9l-44 62q-4 7 -4 13q0 7 5 14l187 243q6 9 15 9q5 0 12 -5l81 -62q9 -6 9 -14q0 -7 -6 -13z" />
    <glyph glyph-name="dotbelowcomb" unicode="&#x323;" horiz-adv-x="0" 
d="M-454 -303q-11 0 -15.5 5.5t-2.5 15.5l37 154q4 17 22 17h146q10 0 14.5 -6t2.5 -16l-37 -153q-3 -17 -21 -17h-146z" />
    <glyph glyph-name="uni0326" unicode="&#x326;" horiz-adv-x="0" 
d="M-530 -435q-15 0 -15 13q0 5 3 11l72 151l36 153q3 17 21 17h150q10 0 14.5 -6t2.5 -16l-31 -135q-3 -12 -11 -22l-155 -155q-11 -11 -24 -11h-63z" />
    <glyph glyph-name="uni0327" unicode="&#x327;" horiz-adv-x="0" 
d="M-395 -332q-9 -15 -25 -11l-124 22q-14 3 -14 14q0 5 3 11l189 319q9 15 25 10l104 -12q14 -3 14 -15q0 -5 -3 -10z" />
    <glyph glyph-name="uni0328" unicode="&#x328;" horiz-adv-x="0" 
d="M-407 -380q-109 0 -168.5 48t-59.5 126q0 60 36.5 110.5t97 86t132.5 52.5q3 1 8 1q10 0 17 -12l4 -7q2 -4 2 -10q0 -11 -10 -15q-53 -23 -93 -70.5t-40 -99.5q0 -41 29 -62.5t87 -21.5h64q10 0 14.5 -6t2.5 -16l-20 -87q-3 -17 -21 -17h-82z" />
    <glyph glyph-name="uni0394" unicode="&#x394;" horiz-adv-x="1304" 
d="M-67 0q-10 0 -14.5 6t-2.5 16l27 116q4 14 9 22l777 1227q7 13 23 13h212q18 0 21 -18l202 -1220q1 -5 1 -14q0 -6 -1 -10l-28 -121q-3 -17 -21 -17h-1205zM839 1274l-686 -1124h859z" />
    <glyph glyph-name="uni0394" unicode="&#x2206;" horiz-adv-x="1304" 
d="M-67 0q-10 0 -14.5 6t-2.5 16l27 116q4 14 9 22l777 1227q7 13 23 13h212q18 0 21 -18l202 -1220q1 -5 1 -14q0 -6 -1 -10l-28 -121q-3 -17 -21 -17h-1205zM839 1274l-686 -1124h859z" />
    <glyph glyph-name="uni03A9" unicode="&#x3a9;" horiz-adv-x="1494" 
d="M1289 144q10 0 14 -6t2 -16l-24 -105q-3 -17 -21 -17h-467q-10 0 -14 6t-2 16l24 104q2 16 22 25q145 65 250 170t161 236.5t56 275.5q0 142 -55 242.5t-152.5 152t-225.5 51.5q-186 0 -310.5 -100.5t-183 -251.5t-58.5 -304q0 -146 52.5 -260t148.5 -208q6 -5 8.5 -14.5
t0.5 -18.5l-24 -105q-3 -17 -21 -17h-457q-10 0 -14.5 6t-2.5 16l24 104q3 18 21 18h266q-194 212 -194 499q0 195 85 374.5t254.5 293t408.5 113.5q183 0 324.5 -69.5t221 -200.5t79.5 -308q0 -140 -49.5 -270.5t-145 -241t-229.5 -190.5h227z" />
    <glyph glyph-name="uni03A9" unicode="&#x2126;" horiz-adv-x="1494" 
d="M1289 144q10 0 14 -6t2 -16l-24 -105q-3 -17 -21 -17h-467q-10 0 -14 6t-2 16l24 104q2 16 22 25q145 65 250 170t161 236.5t56 275.5q0 142 -55 242.5t-152.5 152t-225.5 51.5q-186 0 -310.5 -100.5t-183 -251.5t-58.5 -304q0 -146 52.5 -260t148.5 -208q6 -5 8.5 -14.5
t0.5 -18.5l-24 -105q-3 -17 -21 -17h-457q-10 0 -14.5 6t-2.5 16l24 104q3 18 21 18h266q-194 212 -194 499q0 195 85 374.5t254.5 293t408.5 113.5q183 0 324.5 -69.5t221 -200.5t79.5 -308q0 -140 -49.5 -270.5t-145 -241t-229.5 -190.5h227z" />
    <glyph glyph-name="pi" unicode="&#x3c0;" horiz-adv-x="1047" 
d="M-7 0q-10 0 -14.5 6t-2.5 16l110 446l121 545q3 17 21 17h830q10 0 14.5 -6t2.5 -16l-136 -568l-92 -423q-1 -8 -7.5 -12.5t-14.5 -4.5h-150q-10 0 -14.5 6t-2.5 16l109 446l97 428h-500l-106 -456l-92 -423q-1 -8 -7.5 -12.5t-14.5 -4.5h-151z" />
    <glyph glyph-name="Wgrave" unicode="&#x1e80;" horiz-adv-x="1760" 
d="M277 0q-18 0 -20 20l-34 1360q0 20 20 20h140q19 0 19 -20l8 -1204l554 1209q6 15 22 15h178q20 0 20 -20l-4 -1212l569 1217q8 15 23 15h148q17 0 17 -13q0 -6 -2 -10l-669 -1363q-6 -14 -23 -14h-183q-9 0 -14.5 5t-5.5 15l-22 1121l-529 -1126q-7 -15 -23 -15h-189z
M1297 1519q-8 -17 -25 -11l-421 163q-13 4 -13 16l2 9l41 103q5 12 15 12q5 0 11 -3l404 -202q12 -6 12 -17q0 -3 -2 -9z" />
    <glyph glyph-name="wgrave" unicode="&#x1e81;" horiz-adv-x="1405" 
d="M186 0q-19 0 -20 19l-35 991q0 20 19 20h129q19 0 19 -20l3 -854l394 859q8 15 23 15h184q19 0 19 -20l10 -845l388 850q6 15 23 15h146q16 0 16 -13q0 -6 -2 -10l-481 -992q-5 -15 -23 -15h-179q-18 0 -19 19l-20 860l-395 -864q-6 -15 -22 -15h-177zM1033 1149
q-8 -17 -25 -11l-421 163q-13 4 -13 16l2 9l41 103q5 12 15 12q5 0 11 -3l404 -202q12 -6 12 -17q0 -3 -2 -9z" />
    <glyph glyph-name="Wacute" unicode="&#x1e82;" horiz-adv-x="1760" 
d="M277 0q-18 0 -20 20l-34 1360q0 20 20 20h140q19 0 19 -20l8 -1204l554 1209q6 15 22 15h178q20 0 20 -20l-4 -1212l569 1217q8 15 23 15h148q17 0 17 -13q0 -6 -2 -10l-669 -1363q-6 -14 -23 -14h-183q-9 0 -14.5 5t-5.5 15l-22 1121l-529 -1126q-7 -15 -23 -15h-189z
M955 1513q-3 -1 -7 -1q-6 0 -11 3.5t-6 9.5l-19 63q-2 6 -2 8q0 11 13 17l450 194q5 3 10 3q10 0 15 -14l31 -106q1 -2 1 -6q0 -13 -14 -18z" />
    <glyph glyph-name="wacute" unicode="&#x1e83;" horiz-adv-x="1405" 
d="M186 0q-19 0 -20 19l-35 991q0 20 19 20h129q19 0 19 -20l3 -854l394 859q8 15 23 15h184q19 0 19 -20l10 -845l388 850q6 15 23 15h146q16 0 16 -13q0 -6 -2 -10l-481 -992q-5 -15 -23 -15h-179q-18 0 -19 19l-20 860l-395 -864q-6 -15 -22 -15h-177zM690 1143
q-3 -1 -7 -1q-6 0 -11 3.5t-6 9.5l-19 63q-2 6 -2 8q0 11 13 17l450 194q5 3 10 3q10 0 15 -14l31 -106q1 -2 1 -6q0 -13 -14 -18z" />
    <glyph glyph-name="Wdieresis" unicode="&#x1e84;" horiz-adv-x="1760" 
d="M277 0q-18 0 -20 20l-34 1360q0 20 20 20h140q19 0 19 -20l8 -1204l554 1209q6 15 22 15h178q20 0 20 -20l-4 -1212l569 1217q8 15 23 15h148q17 0 17 -13q0 -6 -2 -10l-669 -1363q-6 -14 -23 -14h-183q-9 0 -14.5 5t-5.5 15l-22 1121l-529 -1126q-7 -15 -23 -15h-189z
M888 1529q-10 0 -14.5 6t-2.5 16l37 154q3 17 21 17h124q10 0 14.5 -6t2.5 -16l-37 -153q-3 -18 -21 -18h-124zM1207 1529q-10 0 -15 6t-2 16l36 154q5 17 22 17h124q10 0 14.5 -6t2.5 -16l-37 -153q-4 -18 -21 -18h-124z" />
    <glyph glyph-name="wdieresis" unicode="&#x1e85;" horiz-adv-x="1405" 
d="M186 0q-19 0 -20 19l-35 991q0 20 19 20h129q19 0 19 -20l3 -854l394 859q8 15 23 15h184q19 0 19 -20l10 -845l388 850q6 15 23 15h146q16 0 16 -13q0 -6 -2 -10l-481 -992q-5 -15 -23 -15h-179q-18 0 -19 19l-20 860l-395 -864q-6 -15 -22 -15h-177zM623 1159
q-10 0 -14.5 6t-2.5 16l37 154q3 17 21 17h124q10 0 14.5 -6t2.5 -16l-37 -153q-3 -18 -21 -18h-124zM942 1159q-10 0 -15 6t-2 16l36 154q5 17 22 17h124q10 0 14.5 -6t2.5 -16l-37 -153q-4 -18 -21 -18h-124z" />
    <glyph glyph-name="uni1EA0" unicode="&#x1ea0;" horiz-adv-x="1258" 
d="M1130 21v-4q0 -17 -18 -17h-143q-19 0 -20 19l-46 404h-570l-234 -410q-8 -13 -23 -13h-161q-16 0 -16 13q0 5 3 11l805 1363q7 13 23 13h211q18 0 21 -19zM888 573l-78 693l-395 -693h473zM383 -303q-11 0 -15.5 5.5t-2.5 15.5l37 154q4 17 22 17h146q10 0 14.5 -6
t2.5 -16l-37 -153q-3 -17 -21 -17h-146z" />
    <glyph glyph-name="uni1EA1" unicode="&#x1ea1;" horiz-adv-x="1080" 
d="M1082 1030q10 0 14.5 -6t2.5 -16l-118 -485l-111 -506q-1 -8 -7.5 -12.5t-14.5 -4.5h-140q-10 0 -14.5 6t-2.5 16l31 121q-61 -74 -142 -116t-179 -42q-111 0 -191.5 51t-123 143.5t-42.5 214.5q0 144 57.5 295t175.5 254t289 103q119 0 198.5 -55t111.5 -158l38 180
q5 17 21 17h147zM657.5 195q83.5 85 126.5 210t43 240q0 136 -61 205.5t-172 69.5q-127 0 -209.5 -86.5t-119.5 -208t-37 -227.5q0 -132 59.5 -210t170.5 -78q116 0 199.5 85zM320 -316q-11 0 -15.5 5.5t-2.5 15.5l37 154q4 17 22 17h146q10 0 14.5 -6t2.5 -16l-37 -153
q-3 -17 -21 -17h-146z" />
    <glyph glyph-name="uni1EA2" unicode="&#x1ea2;" horiz-adv-x="1258" 
d="M1130 21v-4q0 -17 -18 -17h-143q-19 0 -20 19l-46 404h-570l-234 -410q-8 -13 -23 -13h-161q-16 0 -16 13q0 5 3 11l805 1363q7 13 23 13h211q18 0 21 -19zM888 573l-78 693l-395 -693h473zM821 1523q-10 0 -15 6t-2 16q14 44 45.5 68.5t81.5 46.5q41 19 59.5 34t18.5 40
t-23 39.5t-61 14.5q-78 0 -102 -65q-4 -16 -21 -16h-89q-11 0 -15.5 5.5t-1.5 15.5q23 76 83 116t153 40q92 0 151.5 -38t59.5 -104q0 -39 -17 -65.5t-40.5 -42.5t-63.5 -36q-35 -17 -54 -29.5t-29 -30.5q-8 -15 -22 -15h-96z" />
    <glyph glyph-name="uni1EA3" unicode="&#x1ea3;" horiz-adv-x="1080" 
d="M1082 1030q10 0 14.5 -6t2.5 -16l-118 -485l-111 -506q-1 -8 -7.5 -12.5t-14.5 -4.5h-140q-10 0 -14.5 6t-2.5 16l31 121q-61 -74 -142 -116t-179 -42q-111 0 -191.5 51t-123 143.5t-42.5 214.5q0 144 57.5 295t175.5 254t289 103q119 0 198.5 -55t111.5 -158l38 180
q5 17 21 17h147zM657.5 195q83.5 85 126.5 210t43 240q0 136 -61 205.5t-172 69.5q-127 0 -209.5 -86.5t-119.5 -208t-37 -227.5q0 -132 59.5 -210t170.5 -78q116 0 199.5 85zM630 1153q-10 0 -15 6t-2 16q14 44 45.5 68.5t81.5 46.5q41 19 59.5 34t18.5 40t-23 39.5
t-61 14.5q-78 0 -102 -65q-4 -16 -21 -16h-89q-11 0 -15.5 5.5t-1.5 15.5q23 76 83 116t153 40q92 0 151.5 -38t59.5 -104q0 -39 -17 -65.5t-40.5 -42.5t-63.5 -36q-35 -17 -54 -29.5t-29 -30.5q-8 -15 -22 -15h-96z" />
    <glyph glyph-name="uni1EA4" unicode="&#x1ea4;" horiz-adv-x="1258" 
d="M1130 21v-4q0 -17 -18 -17h-143q-19 0 -20 19l-46 404h-570l-234 -410q-8 -13 -23 -13h-161q-16 0 -16 13q0 5 3 11l805 1363q7 13 23 13h211q18 0 21 -19zM888 573l-78 693l-395 -693h473zM1140 1702q-8 -6 -14 -6t-14 8l-44 47q-6 6 -6 13t7 14l264 261q7 7 14 7t13 -8
l63 -68q5 -5 5 -13q0 -10 -8 -15zM540 1545l-2 8q0 11 12 18l299 160q10 6 24 6h53q15 0 24 -8l236 -158q9 -6 9 -15q0 -6 -3 -12l-33 -56q-6 -11 -15 -11q-5 0 -11 3l-250 119l-291 -120q-3 -2 -10 -2q-12 0 -16 12z" />
    <glyph glyph-name="uni1EA5" unicode="&#x1ea5;" horiz-adv-x="1080" 
d="M1082 1030q10 0 14.5 -6t2.5 -16l-118 -485l-111 -506q-1 -8 -7.5 -12.5t-14.5 -4.5h-140q-10 0 -14.5 6t-2.5 16l31 121q-61 -74 -142 -116t-179 -42q-111 0 -191.5 51t-123 143.5t-42.5 214.5q0 144 57.5 295t175.5 254t289 103q119 0 198.5 -55t111.5 -158l38 180
q5 17 21 17h147zM657.5 195q83.5 85 126.5 210t43 240q0 136 -61 205.5t-172 69.5q-127 0 -209.5 -86.5t-119.5 -208t-37 -227.5q0 -132 59.5 -210t170.5 -78q116 0 199.5 85zM949 1332q-8 -6 -14 -6t-14 8l-44 47q-6 6 -6 13t7 14l264 261q7 7 14 7t13 -8l63 -68
q5 -5 5 -13q0 -10 -8 -15zM349 1175l-2 8q0 11 12 18l299 160q10 6 24 6h53q15 0 24 -8l236 -158q9 -6 9 -15q0 -6 -3 -12l-33 -56q-6 -11 -15 -11q-5 0 -11 3l-250 119l-291 -120q-3 -2 -10 -2q-12 0 -16 12z" />
    <glyph glyph-name="uni1EA6" unicode="&#x1ea6;" horiz-adv-x="1258" 
d="M1130 21v-4q0 -17 -18 -17h-143q-19 0 -20 19l-46 404h-570l-234 -410q-8 -13 -23 -13h-161q-16 0 -16 13q0 5 3 11l805 1363q7 13 23 13h211q18 0 21 -19zM888 573l-78 693l-395 -693h473zM1156 1701q-5 -4 -12 -4q-9 0 -15 9l-188 258q-5 7 -5 12q0 9 9 15l82 58
q5 4 12 4q9 0 15 -10l162 -280q3 -6 3 -11q0 -9 -10 -16zM541 1544q-2 6 -2 9q0 12 11 18l299 159q11 6 24 6h53q14 0 24 -7l236 -159q10 -6 10 -15q0 -4 -4 -12l-33 -55q-6 -11 -16 -11q-4 0 -10 3l-250 119l-291 -121q-6 -2 -9 -2q-11 0 -17 12z" />
    <glyph glyph-name="uni1EA7" unicode="&#x1ea7;" horiz-adv-x="1080" 
d="M1082 1030q10 0 14.5 -6t2.5 -16l-118 -485l-111 -506q-1 -8 -7.5 -12.5t-14.5 -4.5h-140q-10 0 -14.5 6t-2.5 16l31 121q-61 -74 -142 -116t-179 -42q-111 0 -191.5 51t-123 143.5t-42.5 214.5q0 144 57.5 295t175.5 254t289 103q119 0 198.5 -55t111.5 -158l38 180
q5 17 21 17h147zM657.5 195q83.5 85 126.5 210t43 240q0 136 -61 205.5t-172 69.5q-127 0 -209.5 -86.5t-119.5 -208t-37 -227.5q0 -132 59.5 -210t170.5 -78q116 0 199.5 85zM965 1331q-5 -4 -12 -4q-9 0 -15 9l-188 258q-5 7 -5 12q0 9 9 15l82 58q5 4 12 4q9 0 15 -10
l162 -280q3 -6 3 -11q0 -9 -10 -16zM350 1174q-2 6 -2 9q0 12 11 18l299 159q11 6 24 6h53q14 0 24 -7l236 -159q10 -6 10 -15q0 -4 -4 -12l-33 -55q-6 -11 -16 -11q-4 0 -10 3l-250 119l-291 -121q-6 -2 -9 -2q-11 0 -17 12z" />
    <glyph glyph-name="uni1EA8" unicode="&#x1ea8;" horiz-adv-x="1258" 
d="M1130 21v-4q0 -17 -18 -17h-143q-19 0 -20 19l-46 404h-570l-234 -410q-8 -13 -23 -13h-161q-16 0 -16 13q0 5 3 11l805 1363q7 13 23 13h211q18 0 21 -19zM888 573l-78 693l-395 -693h473zM541 1545q-2 6 -2 9q0 11 12 17l299 159q10 7 24 7h53q15 0 24 -8l236 -158
q9 -7 9 -16q0 -5 -3 -11l-33 -56q-6 -11 -16 -11q-5 0 -11 3l-249 119l-291 -120q-3 -2 -10 -2q-12 0 -16 12zM1096 1714q-10 0 -15 6t-2 16q14 44 45.5 68.5t81.5 46.5q41 19 59.5 34t18.5 40t-23 39.5t-61 14.5q-78 0 -102 -65q-4 -16 -21 -16h-89q-11 0 -15.5 5.5
t-1.5 15.5q23 76 83 116t153 40q92 0 151.5 -38t59.5 -104q0 -39 -17 -65.5t-40.5 -42.5t-63.5 -36q-35 -17 -54 -29.5t-29 -30.5q-8 -15 -22 -15h-96z" />
    <glyph glyph-name="uni1EA9" unicode="&#x1ea9;" horiz-adv-x="1080" 
d="M1082 1030q10 0 14.5 -6t2.5 -16l-118 -485l-111 -506q-1 -8 -7.5 -12.5t-14.5 -4.5h-140q-10 0 -14.5 6t-2.5 16l31 121q-61 -74 -142 -116t-179 -42q-111 0 -191.5 51t-123 143.5t-42.5 214.5q0 144 57.5 295t175.5 254t289 103q119 0 198.5 -55t111.5 -158l38 180
q5 17 21 17h147zM657.5 195q83.5 85 126.5 210t43 240q0 136 -61 205.5t-172 69.5q-127 0 -209.5 -86.5t-119.5 -208t-37 -227.5q0 -132 59.5 -210t170.5 -78q116 0 199.5 85zM350 1175q-2 6 -2 9q0 11 12 17l299 159q10 7 24 7h53q15 0 24 -8l236 -158q9 -7 9 -16
q0 -5 -3 -11l-33 -56q-6 -11 -16 -11q-5 0 -11 3l-249 119l-291 -120q-3 -2 -10 -2q-12 0 -16 12zM905 1344q-10 0 -15 6t-2 16q14 44 45.5 68.5t81.5 46.5q41 19 59.5 34t18.5 40t-23 39.5t-61 14.5q-78 0 -102 -65q-4 -16 -21 -16h-89q-11 0 -15.5 5.5t-1.5 15.5
q23 76 83 116t153 40q92 0 151.5 -38t59.5 -104q0 -39 -17 -65.5t-40.5 -42.5t-63.5 -36q-35 -17 -54 -29.5t-29 -30.5q-8 -15 -22 -15h-96z" />
    <glyph glyph-name="uni1EAA" unicode="&#x1eaa;" horiz-adv-x="1258" 
d="M1130 21v-4q0 -17 -18 -17h-143q-19 0 -20 19l-46 404h-570l-234 -410q-8 -13 -23 -13h-161q-16 0 -16 13q0 5 3 11l805 1363q7 13 23 13h211q18 0 21 -19zM888 573l-78 693l-395 -693h473zM540 1545q-2 6 -2 9q0 11 12 17l299 159q10 7 24 7h53q15 0 24 -8l236 -158
q9 -7 9 -16q0 -5 -3 -11l-33 -56q-6 -11 -16 -11q-5 0 -11 3l-249 119l-291 -120q-3 -2 -10 -2q-12 0 -16 12zM988 1798.5q-30 20.5 -64 58.5q-26 28 -43 41.5t-38 13.5q-34 0 -52 -27.5t-31 -81.5q-5 -17 -22 -17h-63q-9 0 -14 6t-3 15q21 102 69.5 161.5t126.5 59.5
q44 0 74 -20.5t66 -59.5q25 -27 42 -40t36 -13q36 0 54.5 27t30.5 80q4 17 22 17h63q17 0 17 -18q0 -6 -1 -9q-45 -214 -194 -214q-46 0 -76 20.5z" />
    <glyph glyph-name="uni1EAB" unicode="&#x1eab;" horiz-adv-x="1080" 
d="M1082 1030q10 0 14.5 -6t2.5 -16l-118 -485l-111 -506q-1 -8 -7.5 -12.5t-14.5 -4.5h-140q-10 0 -14.5 6t-2.5 16l31 121q-61 -74 -142 -116t-179 -42q-111 0 -191.5 51t-123 143.5t-42.5 214.5q0 144 57.5 295t175.5 254t289 103q119 0 198.5 -55t111.5 -158l38 180
q5 17 21 17h147zM657.5 195q83.5 85 126.5 210t43 240q0 136 -61 205.5t-172 69.5q-127 0 -209.5 -86.5t-119.5 -208t-37 -227.5q0 -132 59.5 -210t170.5 -78q116 0 199.5 85zM350 1175q-2 6 -2 9q0 11 12 17l299 159q10 7 24 7h53q15 0 24 -8l236 -158q9 -7 9 -16
q0 -5 -3 -11l-33 -56q-6 -11 -16 -11q-5 0 -11 3l-249 119l-291 -120q-3 -2 -10 -2q-12 0 -16 12zM798 1428.5q-30 20.5 -64 58.5q-26 28 -43 41.5t-38 13.5q-34 0 -52 -27.5t-31 -81.5q-5 -17 -22 -17h-63q-9 0 -14 6t-3 15q21 102 69.5 161.5t126.5 59.5q44 0 74 -20.5
t66 -59.5q25 -27 42 -40t36 -13q36 0 54.5 27t30.5 80q4 17 22 17h63q17 0 17 -18q0 -6 -1 -9q-45 -214 -194 -214q-46 0 -76 20.5z" />
    <glyph glyph-name="uni1EAC" unicode="&#x1eac;" horiz-adv-x="1258" 
d="M1130 21v-4q0 -17 -18 -17h-143q-19 0 -20 19l-46 404h-570l-234 -410q-8 -13 -23 -13h-161q-16 0 -16 13q0 5 3 11l805 1363q7 13 23 13h211q18 0 21 -19zM888 573l-78 693l-395 -693h473zM383 -303q-11 0 -15.5 5.5t-2.5 15.5l37 154q4 17 22 17h146q10 0 14.5 -6
t2.5 -16l-37 -153q-3 -17 -21 -17h-146zM553 1585q-2 6 -2 9q0 11 12 17l299 159q10 7 24 7h53q15 0 24 -8l236 -158q9 -7 9 -16q0 -5 -3 -11l-33 -56q-6 -11 -16 -11q-5 0 -11 3l-249 119l-291 -120q-3 -2 -10 -2q-12 0 -16 12z" />
    <glyph glyph-name="uni1EAD" unicode="&#x1ead;" horiz-adv-x="1080" 
d="M1082 1030q10 0 14.5 -6t2.5 -16l-118 -485l-111 -506q-1 -8 -7.5 -12.5t-14.5 -4.5h-140q-10 0 -14.5 6t-2.5 16l31 121q-61 -74 -142 -116t-179 -42q-111 0 -191.5 51t-123 143.5t-42.5 214.5q0 144 57.5 295t175.5 254t289 103q119 0 198.5 -55t111.5 -158l38 180
q5 17 21 17h147zM657.5 195q83.5 85 126.5 210t43 240q0 136 -61 205.5t-172 69.5q-127 0 -209.5 -86.5t-119.5 -208t-37 -227.5q0 -132 59.5 -210t170.5 -78q116 0 199.5 85zM320 -316q-11 0 -15.5 5.5t-2.5 15.5l37 154q4 17 22 17h146q10 0 14.5 -6t2.5 -16l-37 -153
q-3 -17 -21 -17h-146zM362 1215q-2 6 -2 9q0 11 12 17l299 159q10 7 24 7h53q15 0 24 -8l236 -158q9 -7 9 -16q0 -5 -3 -11l-33 -56q-6 -11 -16 -11q-5 0 -11 3l-249 119l-291 -120q-3 -2 -10 -2q-12 0 -16 12z" />
    <glyph glyph-name="uni1EAE" unicode="&#x1eae;" horiz-adv-x="1258" 
d="M1130 21v-4q0 -17 -18 -17h-143q-19 0 -20 19l-46 404h-570l-234 -410q-8 -13 -23 -13h-161q-16 0 -16 13q0 5 3 11l805 1363q7 13 23 13h211q18 0 21 -19zM888 573l-78 693l-395 -693h473zM912 1728q-6 -6 -13 -6q-8 0 -14 8l-44 47q-6 6 -6 13q0 5 7 14l262 261
q7 7 14 7q6 0 14 -8l62 -70q6 -6 6 -13q0 -8 -7 -14zM749.5 1525.5q-56.5 29.5 -86.5 81.5t-30 117q0 17 1 26q1 19 21 19h85q20 0 18 -21q-4 -58 31 -93.5t101 -35.5q65 0 110.5 36t62.5 97q6 17 22 17h88q10 0 14.5 -5.5t3.5 -15.5q-16 -73 -58.5 -130t-107 -89.5
t-143.5 -32.5q-76 0 -132.5 29.5z" />
    <glyph glyph-name="uni1EAF" unicode="&#x1eaf;" horiz-adv-x="1080" 
d="M1082 1030q10 0 14.5 -6t2.5 -16l-118 -485l-111 -506q-1 -8 -7.5 -12.5t-14.5 -4.5h-140q-10 0 -14.5 6t-2.5 16l31 121q-61 -74 -142 -116t-179 -42q-111 0 -191.5 51t-123 143.5t-42.5 214.5q0 144 57.5 295t175.5 254t289 103q119 0 198.5 -55t111.5 -158l38 180
q5 17 21 17h147zM657.5 195q83.5 85 126.5 210t43 240q0 136 -61 205.5t-172 69.5q-127 0 -209.5 -86.5t-119.5 -208t-37 -227.5q0 -132 59.5 -210t170.5 -78q116 0 199.5 85zM722 1358q-6 -6 -13 -6q-8 0 -14 8l-44 47q-6 6 -6 13q0 5 7 14l262 261q7 7 14 7q6 0 14 -8
l62 -70q6 -6 6 -13q0 -8 -7 -14zM559.5 1155.5q-56.5 29.5 -86.5 81.5t-30 117q0 17 1 26q1 19 21 19h85q20 0 18 -21q-4 -58 31 -93.5t101 -35.5q65 0 110.5 36t62.5 97q6 17 22 17h88q10 0 14.5 -5.5t3.5 -15.5q-16 -73 -58.5 -130t-107 -89.5t-143.5 -32.5
q-76 0 -132.5 29.5z" />
    <glyph glyph-name="uni1EB0" unicode="&#x1eb0;" horiz-adv-x="1258" 
d="M1130 21v-4q0 -17 -18 -17h-143q-19 0 -20 19l-46 404h-570l-234 -410q-8 -13 -23 -13h-161q-16 0 -16 13q0 5 3 11l805 1363q7 13 23 13h211q18 0 21 -19zM888 573l-78 693l-395 -693h473zM921 1726q-5 -4 -12 -4q-9 0 -15 9l-189 258q-4 5 -4 12q0 8 9 15l81 58
q7 5 12 5q9 0 15 -11l161 -281q3 -6 3 -12q0 -9 -9 -15zM749.5 1526q-56.5 30 -86.5 82t-30 118q0 16 1 24q3 19 21 19h85q10 0 15 -5.5t4 -15.5q-5 -58 30 -93.5t101 -35.5q65 0 111 36t63 97q5 17 21 17h88q10 0 15 -5.5t3 -15.5q-16 -73 -58.5 -130t-107 -89.5
t-143.5 -32.5q-76 0 -132.5 30z" />
    <glyph glyph-name="uni1EB1" unicode="&#x1eb1;" horiz-adv-x="1080" 
d="M1082 1030q10 0 14.5 -6t2.5 -16l-118 -485l-111 -506q-1 -8 -7.5 -12.5t-14.5 -4.5h-140q-10 0 -14.5 6t-2.5 16l31 121q-61 -74 -142 -116t-179 -42q-111 0 -191.5 51t-123 143.5t-42.5 214.5q0 144 57.5 295t175.5 254t289 103q119 0 198.5 -55t111.5 -158l38 180
q5 17 21 17h147zM657.5 195q83.5 85 126.5 210t43 240q0 136 -61 205.5t-172 69.5q-127 0 -209.5 -86.5t-119.5 -208t-37 -227.5q0 -132 59.5 -210t170.5 -78q116 0 199.5 85zM730 1356q-5 -4 -12 -4q-9 0 -15 9l-189 258q-4 5 -4 12q0 8 9 15l81 58q7 5 12 5q9 0 15 -11
l161 -281q3 -6 3 -12q0 -9 -9 -15zM558.5 1156q-56.5 30 -86.5 82t-30 118q0 16 1 24q3 19 21 19h85q10 0 15 -5.5t4 -15.5q-5 -58 30 -93.5t101 -35.5q65 0 111 36t63 97q5 17 21 17h88q10 0 15 -5.5t3 -15.5q-16 -73 -58.5 -130t-107 -89.5t-143.5 -32.5q-76 0 -132.5 30z
" />
    <glyph glyph-name="uni1EB2" unicode="&#x1eb2;" horiz-adv-x="1258" 
d="M1130 21v-4q0 -17 -18 -17h-143q-19 0 -20 19l-46 404h-570l-234 -410q-8 -13 -23 -13h-161q-16 0 -16 13q0 5 3 11l805 1363q7 13 23 13h211q18 0 21 -19zM888 573l-78 693l-395 -693h473zM749.5 1525.5q-56.5 29.5 -86.5 82t-30 118.5q0 16 1 24q3 19 21 19h85
q10 0 15 -5.5t4 -15.5q-5 -58 30 -93.5t101 -35.5q65 0 111 36t63 97q5 17 21 17h88q10 0 15 -5.5t3 -15.5q-16 -73 -58.5 -130.5t-107 -89.5t-143.5 -32q-76 0 -132.5 29.5zM862 1755q-10 0 -15 6t-2 16q14 44 45.5 68.5t81.5 46.5q41 19 59.5 34t18.5 40t-23 39.5
t-61 14.5q-78 0 -102 -65q-4 -16 -21 -16h-89q-11 0 -15.5 5.5t-1.5 15.5q23 76 83 116t153 40q92 0 151.5 -38t59.5 -104q0 -39 -17 -65.5t-40.5 -42.5t-63.5 -36q-35 -17 -54 -29.5t-29 -30.5q-8 -15 -22 -15h-96z" />
    <glyph glyph-name="uni1EB3" unicode="&#x1eb3;" horiz-adv-x="1080" 
d="M1082 1030q10 0 14.5 -6t2.5 -16l-118 -485l-111 -506q-1 -8 -7.5 -12.5t-14.5 -4.5h-140q-10 0 -14.5 6t-2.5 16l31 121q-61 -74 -142 -116t-179 -42q-111 0 -191.5 51t-123 143.5t-42.5 214.5q0 144 57.5 295t175.5 254t289 103q119 0 198.5 -55t111.5 -158l38 180
q5 17 21 17h147zM657.5 195q83.5 85 126.5 210t43 240q0 136 -61 205.5t-172 69.5q-127 0 -209.5 -86.5t-119.5 -208t-37 -227.5q0 -132 59.5 -210t170.5 -78q116 0 199.5 85zM559.5 1155.5q-56.5 29.5 -86.5 82t-30 118.5q0 16 1 24q3 19 21 19h85q10 0 15 -5.5t4 -15.5
q-5 -58 30 -93.5t101 -35.5q65 0 111 36t63 97q5 17 21 17h88q10 0 15 -5.5t3 -15.5q-16 -73 -58.5 -130.5t-107 -89.5t-143.5 -32q-76 0 -132.5 29.5zM672 1385q-10 0 -15 6t-2 16q14 44 45.5 68.5t81.5 46.5q41 19 59.5 34t18.5 40t-23 39.5t-61 14.5q-78 0 -102 -65
q-4 -16 -21 -16h-89q-11 0 -15.5 5.5t-1.5 15.5q23 76 83 116t153 40q92 0 151.5 -38t59.5 -104q0 -39 -17 -65.5t-40.5 -42.5t-63.5 -36q-35 -17 -54 -29.5t-29 -30.5q-8 -15 -22 -15h-96z" />
    <glyph glyph-name="uni1EB4" unicode="&#x1eb4;" horiz-adv-x="1258" 
d="M1130 21v-4q0 -17 -18 -17h-143q-19 0 -20 19l-46 404h-570l-234 -410q-8 -13 -23 -13h-161q-16 0 -16 13q0 5 3 11l805 1363q7 13 23 13h211q18 0 21 -19zM888 573l-78 693l-395 -693h473zM980 1833q-29 18 -62 52q-24 25 -40.5 36.5t-36.5 11.5q-29 0 -44.5 -24
t-26.5 -70q-4 -17 -22 -17h-82q-11 0 -15.5 5.5t-2.5 15.5q21 94 69 149.5t125 55.5q43 0 72 -18.5t64 -53.5q22 -23 38 -34.5t34 -11.5q30 0 46.5 23.5t26.5 68.5q5 18 22 18h82q17 0 17 -18q0 -5 -1 -8q-45 -199 -191 -199q-43 0 -72 18zM750.5 1525.5
q-56.5 29.5 -86.5 81.5t-30 117q0 17 1 26q1 19 21 19h85q20 0 18 -21q-4 -58 31 -93.5t101 -35.5q65 0 110.5 36t62.5 97q6 17 22 17h87q10 0 15.5 -5.5t3.5 -15.5q-16 -73 -58.5 -130t-107 -89.5t-143.5 -32.5q-76 0 -132.5 29.5z" />
    <glyph glyph-name="uni1EB5" unicode="&#x1eb5;" horiz-adv-x="1080" 
d="M1082 1030q10 0 14.5 -6t2.5 -16l-118 -485l-111 -506q-1 -8 -7.5 -12.5t-14.5 -4.5h-140q-10 0 -14.5 6t-2.5 16l31 121q-61 -74 -142 -116t-179 -42q-111 0 -191.5 51t-123 143.5t-42.5 214.5q0 144 57.5 295t175.5 254t289 103q119 0 198.5 -55t111.5 -158l38 180
q5 17 21 17h147zM657.5 195q83.5 85 126.5 210t43 240q0 136 -61 205.5t-172 69.5q-127 0 -209.5 -86.5t-119.5 -208t-37 -227.5q0 -132 59.5 -210t170.5 -78q116 0 199.5 85zM789 1463q-29 18 -62 52q-24 25 -40.5 36.5t-36.5 11.5q-29 0 -44.5 -24t-26.5 -70
q-4 -17 -22 -17h-82q-11 0 -15.5 5.5t-2.5 15.5q21 94 69 149.5t125 55.5q43 0 72 -18.5t64 -53.5q22 -23 38 -34.5t34 -11.5q30 0 46.5 23.5t26.5 68.5q5 18 22 18h82q17 0 17 -18q0 -5 -1 -8q-45 -199 -191 -199q-43 0 -72 18zM559.5 1155.5q-56.5 29.5 -86.5 81.5
t-30 117q0 17 1 26q1 19 21 19h85q20 0 18 -21q-4 -58 31 -93.5t101 -35.5q65 0 110.5 36t62.5 97q6 17 22 17h87q10 0 15.5 -5.5t3.5 -15.5q-16 -73 -58.5 -130t-107 -89.5t-143.5 -32.5q-76 0 -132.5 29.5z" />
    <glyph glyph-name="uni1EB6" unicode="&#x1eb6;" horiz-adv-x="1258" 
d="M1130 21v-4q0 -17 -18 -17h-143q-19 0 -20 19l-46 404h-570l-234 -410q-8 -13 -23 -13h-161q-16 0 -16 13q0 5 3 11l805 1363q7 13 23 13h211q18 0 21 -19zM888 573l-78 693l-395 -693h473zM383 -303q-11 0 -15.5 5.5t-2.5 15.5l37 154q4 17 22 17h146q10 0 14.5 -6
t2.5 -16l-37 -153q-3 -17 -21 -17h-146zM755.5 1549.5q-56.5 29.5 -86.5 82t-30 118.5q0 16 1 24q3 19 21 19h85q10 0 15 -5.5t4 -15.5q-5 -58 30 -93.5t101 -35.5q65 0 111 36t63 97q5 17 21 17h88q10 0 15 -5.5t3 -15.5q-16 -73 -58.5 -130.5t-107 -89.5t-143.5 -32
q-76 0 -132.5 29.5z" />
    <glyph glyph-name="uni1EB7" unicode="&#x1eb7;" horiz-adv-x="1080" 
d="M1082 1030q10 0 14.5 -6t2.5 -16l-118 -485l-111 -506q-1 -8 -7.5 -12.5t-14.5 -4.5h-140q-10 0 -14.5 6t-2.5 16l31 121q-61 -74 -142 -116t-179 -42q-111 0 -191.5 51t-123 143.5t-42.5 214.5q0 144 57.5 295t175.5 254t289 103q119 0 198.5 -55t111.5 -158l38 180
q5 17 21 17h147zM657.5 195q83.5 85 126.5 210t43 240q0 136 -61 205.5t-172 69.5q-127 0 -209.5 -86.5t-119.5 -208t-37 -227.5q0 -132 59.5 -210t170.5 -78q116 0 199.5 85zM320 -316q-11 0 -15.5 5.5t-2.5 15.5l37 154q4 17 22 17h146q10 0 14.5 -6t2.5 -16l-37 -153
q-3 -17 -21 -17h-146zM564.5 1179.5q-56.5 29.5 -86.5 82t-30 118.5q0 16 1 24q3 19 21 19h85q10 0 15 -5.5t4 -15.5q-5 -58 30 -93.5t101 -35.5q65 0 111 36t63 97q5 17 21 17h88q10 0 15 -5.5t3 -15.5q-16 -73 -58.5 -130.5t-107 -89.5t-143.5 -32q-76 0 -132.5 29.5z" />
    <glyph glyph-name="uni1EB8" unicode="&#x1eb8;" 
d="M10 0q-10 0 -14.5 6t-1.5 16l172 703l142 658q5 17 22 17h843q10 0 14.5 -6t2.5 -16l-24 -102q-3 -18 -21 -18h-673l-110 -440h628q22 0 17 -22l-24 -102q-3 -17 -21 -17h-633l-115 -535h684q10 0 14.5 -6t2.5 -16l-24 -103q-3 -17 -21 -17h-860zM316 -303
q-11 0 -15.5 5.5t-2.5 15.5l37 154q4 17 22 17h146q10 0 14.5 -6t2.5 -16l-37 -153q-3 -17 -21 -17h-146z" />
    <glyph glyph-name="uni1EB9" unicode="&#x1eb9;" 
d="M827.5 1000.5q95.5 -50.5 147.5 -143.5t52 -217q0 -58 -14 -130q-3 -17 -21 -17h-758q-5 -32 -5 -76q0 -153 72 -232.5t201 -79.5q227 0 303 241q6 17 23 17h134q10 0 14.5 -6.5t1.5 -17.5q-53 -178 -176.5 -269t-302.5 -91q-134 0 -235.5 51.5t-157.5 152t-56 242.5
q0 154 64.5 298t190 236t300.5 92q127 0 222.5 -50.5zM843 615q5 35 5 60q0 74 -30 131t-87 88.5t-135 31.5q-134 0 -220 -87t-122 -224h589zM312 -303q-11 0 -15.5 5.5t-2.5 15.5l37 154q4 17 22 17h146q10 0 14.5 -6t2.5 -16l-37 -153q-3 -17 -21 -17h-146z" />
    <glyph glyph-name="uni1EBA" unicode="&#x1eba;" 
d="M10 0q-10 0 -14.5 6t-1.5 16l172 703l142 658q5 17 22 17h843q10 0 14.5 -6t2.5 -16l-24 -102q-3 -18 -21 -18h-673l-110 -440h628q22 0 17 -22l-24 -102q-3 -17 -21 -17h-633l-115 -535h684q10 0 14.5 -6t2.5 -16l-24 -103q-3 -17 -21 -17h-860zM760 1523q-10 0 -15 6
t-2 16q14 44 45.5 68.5t81.5 46.5q41 19 59.5 34t18.5 40t-23 39.5t-61 14.5q-78 0 -102 -65q-4 -16 -21 -16h-89q-11 0 -15.5 5.5t-1.5 15.5q23 76 83 116t153 40q92 0 151.5 -38t59.5 -104q0 -39 -17 -65.5t-40.5 -42.5t-63.5 -36q-35 -17 -54 -29.5t-29 -30.5
q-8 -15 -22 -15h-96z" />
    <glyph glyph-name="uni1EBB" unicode="&#x1ebb;" 
d="M827.5 1000.5q95.5 -50.5 147.5 -143.5t52 -217q0 -58 -14 -130q-3 -17 -21 -17h-758q-5 -32 -5 -76q0 -153 72 -232.5t201 -79.5q227 0 303 241q6 17 23 17h134q10 0 14.5 -6.5t1.5 -17.5q-53 -178 -176.5 -269t-302.5 -91q-134 0 -235.5 51.5t-157.5 152t-56 242.5
q0 154 64.5 298t190 236t300.5 92q127 0 222.5 -50.5zM843 615q5 35 5 60q0 74 -30 131t-87 88.5t-135 31.5q-134 0 -220 -87t-122 -224h589zM632 1153q-10 0 -15 6t-2 16q14 44 45.5 68.5t81.5 46.5q41 19 59.5 34t18.5 40t-23 39.5t-61 14.5q-78 0 -102 -65
q-4 -16 -21 -16h-89q-11 0 -15.5 5.5t-1.5 15.5q23 76 83 116t153 40q92 0 151.5 -38t59.5 -104q0 -39 -17 -65.5t-40.5 -42.5t-63.5 -36q-35 -17 -54 -29.5t-29 -30.5q-8 -15 -22 -15h-96z" />
    <glyph glyph-name="uni1EBC" unicode="&#x1ebc;" 
d="M10 0q-10 0 -14.5 6t-1.5 16l172 703l142 658q5 17 22 17h843q10 0 14.5 -6t2.5 -16l-24 -102q-3 -18 -21 -18h-673l-110 -440h628q22 0 17 -22l-24 -102q-3 -17 -21 -17h-633l-115 -535h684q10 0 14.5 -6t2.5 -16l-24 -103q-3 -17 -21 -17h-860zM867 1553.5
q-30 20.5 -64 58.5q-26 28 -43 41.5t-38 13.5q-34 0 -52 -27.5t-31 -81.5q-5 -17 -22 -17h-63q-9 0 -14 6t-3 15q21 102 69.5 161.5t126.5 59.5q44 0 74 -20.5t66 -59.5q25 -27 42 -40t36 -13q36 0 54.5 27t30.5 80q4 17 22 17h63q17 0 17 -18q0 -6 -1 -9
q-45 -214 -194 -214q-46 0 -76 20.5z" />
    <glyph glyph-name="uni1EBD" unicode="&#x1ebd;" 
d="M827.5 1000.5q95.5 -50.5 147.5 -143.5t52 -217q0 -58 -14 -130q-3 -17 -21 -17h-758q-5 -32 -5 -76q0 -153 72 -232.5t201 -79.5q227 0 303 241q6 17 23 17h134q10 0 14.5 -6.5t1.5 -17.5q-53 -178 -176.5 -269t-302.5 -91q-134 0 -235.5 51.5t-157.5 152t-56 242.5
q0 154 64.5 298t190 236t300.5 92q127 0 222.5 -50.5zM843 615q5 35 5 60q0 74 -30 131t-87 88.5t-135 31.5q-134 0 -220 -87t-122 -224h589zM738 1183.5q-30 20.5 -64 58.5q-26 28 -43 41.5t-38 13.5q-34 0 -52 -27.5t-31 -81.5q-5 -17 -22 -17h-63q-9 0 -14 6t-3 15
q21 102 69.5 161.5t126.5 59.5q44 0 74 -20.5t66 -59.5q25 -27 42 -40t36 -13q36 0 54.5 27t30.5 80q4 17 22 17h63q17 0 17 -18q0 -6 -1 -9q-45 -214 -194 -214q-46 0 -76 20.5z" />
    <glyph glyph-name="uni1EBE" unicode="&#x1ebe;" 
d="M10 0q-10 0 -14.5 6t-1.5 16l172 703l142 658q5 17 22 17h843q10 0 14.5 -6t2.5 -16l-24 -102q-3 -18 -21 -18h-673l-110 -440h628q22 0 17 -22l-24 -102q-3 -17 -21 -17h-633l-115 -535h684q10 0 14.5 -6t2.5 -16l-24 -103q-3 -17 -21 -17h-860zM1079 1702q-8 -6 -14 -6
t-14 8l-44 47q-6 6 -6 13t7 14l264 261q7 7 14 7t13 -8l63 -68q5 -5 5 -13q0 -10 -8 -15zM479 1545l-2 8q0 11 12 18l299 160q10 6 24 6h53q15 0 24 -8l236 -158q9 -6 9 -15q0 -6 -3 -12l-33 -56q-6 -11 -15 -11q-5 0 -11 3l-250 119l-291 -120q-3 -2 -10 -2q-12 0 -16 12z
" />
    <glyph glyph-name="uni1EBF" unicode="&#x1ebf;" 
d="M827.5 1000.5q95.5 -50.5 147.5 -143.5t52 -217q0 -58 -14 -130q-3 -17 -21 -17h-758q-5 -32 -5 -76q0 -153 72 -232.5t201 -79.5q227 0 303 241q6 17 23 17h134q10 0 14.5 -6.5t1.5 -17.5q-53 -178 -176.5 -269t-302.5 -91q-134 0 -235.5 51.5t-157.5 152t-56 242.5
q0 154 64.5 298t190 236t300.5 92q127 0 222.5 -50.5zM843 615q5 35 5 60q0 74 -30 131t-87 88.5t-135 31.5q-134 0 -220 -87t-122 -224h589zM951 1332q-8 -6 -14 -6t-14 8l-44 47q-6 6 -6 13t7 14l264 261q7 7 14 7t13 -8l63 -68q5 -5 5 -13q0 -10 -8 -15zM351 1175l-2 8
q0 11 12 18l299 160q10 6 24 6h53q15 0 24 -8l236 -158q9 -6 9 -15q0 -6 -3 -12l-33 -56q-6 -11 -15 -11q-5 0 -11 3l-250 119l-291 -120q-3 -2 -10 -2q-12 0 -16 12z" />
    <glyph glyph-name="uni1EC0" unicode="&#x1ec0;" 
d="M10 0q-10 0 -14.5 6t-1.5 16l172 703l142 658q5 17 22 17h843q10 0 14.5 -6t2.5 -16l-24 -102q-3 -18 -21 -18h-673l-110 -440h628q22 0 17 -22l-24 -102q-3 -17 -21 -17h-633l-115 -535h684q10 0 14.5 -6t2.5 -16l-24 -103q-3 -17 -21 -17h-860zM1095 1701q-5 -4 -12 -4
q-9 0 -15 9l-188 258q-5 7 -5 12q0 9 9 15l82 58q5 4 12 4q9 0 15 -10l162 -280q3 -6 3 -11q0 -9 -10 -16zM480 1544q-2 6 -2 9q0 12 11 18l299 159q11 6 24 6h53q14 0 24 -7l236 -159q10 -6 10 -15q0 -4 -4 -12l-33 -55q-6 -11 -16 -11q-4 0 -10 3l-250 119l-291 -121
q-6 -2 -9 -2q-11 0 -17 12z" />
    <glyph glyph-name="uni1EC1" unicode="&#x1ec1;" 
d="M827.5 1000.5q95.5 -50.5 147.5 -143.5t52 -217q0 -58 -14 -130q-3 -17 -21 -17h-758q-5 -32 -5 -76q0 -153 72 -232.5t201 -79.5q227 0 303 241q6 17 23 17h134q10 0 14.5 -6.5t1.5 -17.5q-53 -178 -176.5 -269t-302.5 -91q-134 0 -235.5 51.5t-157.5 152t-56 242.5
q0 154 64.5 298t190 236t300.5 92q127 0 222.5 -50.5zM843 615q5 35 5 60q0 74 -30 131t-87 88.5t-135 31.5q-134 0 -220 -87t-122 -224h589zM967 1331q-5 -4 -12 -4q-9 0 -15 9l-188 258q-5 7 -5 12q0 9 9 15l82 58q5 4 12 4q9 0 15 -10l162 -280q3 -6 3 -11q0 -9 -10 -16z
M352 1174q-2 6 -2 9q0 12 11 18l299 159q11 6 24 6h53q14 0 24 -7l236 -159q10 -6 10 -15q0 -4 -4 -12l-33 -55q-6 -11 -16 -11q-4 0 -10 3l-250 119l-291 -121q-6 -2 -9 -2q-11 0 -17 12z" />
    <glyph glyph-name="uni1EC2" unicode="&#x1ec2;" 
d="M10 0q-10 0 -14.5 6t-1.5 16l172 703l142 658q5 17 22 17h843q10 0 14.5 -6t2.5 -16l-24 -102q-3 -18 -21 -18h-673l-110 -440h628q22 0 17 -22l-24 -102q-3 -17 -21 -17h-633l-115 -535h684q10 0 14.5 -6t2.5 -16l-24 -103q-3 -17 -21 -17h-860zM480 1545q-2 6 -2 9
q0 11 12 17l299 159q10 7 24 7h53q15 0 24 -8l236 -158q9 -7 9 -16q0 -5 -3 -11l-33 -56q-6 -11 -16 -11q-5 0 -11 3l-249 119l-291 -120q-3 -2 -10 -2q-12 0 -16 12zM1035 1714q-10 0 -15 6t-2 16q14 44 45.5 68.5t81.5 46.5q41 19 59.5 34t18.5 40t-23 39.5t-61 14.5
q-78 0 -102 -65q-4 -16 -21 -16h-89q-11 0 -15.5 5.5t-1.5 15.5q23 76 83 116t153 40q92 0 151.5 -38t59.5 -104q0 -39 -17 -65.5t-40.5 -42.5t-63.5 -36q-35 -17 -54 -29.5t-29 -30.5q-8 -15 -22 -15h-96z" />
    <glyph glyph-name="uni1EC3" unicode="&#x1ec3;" 
d="M827.5 1000.5q95.5 -50.5 147.5 -143.5t52 -217q0 -58 -14 -130q-3 -17 -21 -17h-758q-5 -32 -5 -76q0 -153 72 -232.5t201 -79.5q227 0 303 241q6 17 23 17h134q10 0 14.5 -6.5t1.5 -17.5q-53 -178 -176.5 -269t-302.5 -91q-134 0 -235.5 51.5t-157.5 152t-56 242.5
q0 154 64.5 298t190 236t300.5 92q127 0 222.5 -50.5zM843 615q5 35 5 60q0 74 -30 131t-87 88.5t-135 31.5q-134 0 -220 -87t-122 -224h589zM352 1175q-2 6 -2 9q0 11 12 17l299 159q10 7 24 7h53q15 0 24 -8l236 -158q9 -7 9 -16q0 -5 -3 -11l-33 -56q-6 -11 -16 -11
q-5 0 -11 3l-249 119l-291 -120q-3 -2 -10 -2q-12 0 -16 12zM907 1344q-10 0 -15 6t-2 16q14 44 45.5 68.5t81.5 46.5q41 19 59.5 34t18.5 40t-23 39.5t-61 14.5q-78 0 -102 -65q-4 -16 -21 -16h-89q-11 0 -15.5 5.5t-1.5 15.5q23 76 83 116t153 40q92 0 151.5 -38
t59.5 -104q0 -39 -17 -65.5t-40.5 -42.5t-63.5 -36q-35 -17 -54 -29.5t-29 -30.5q-8 -15 -22 -15h-96z" />
    <glyph glyph-name="uni1EC4" unicode="&#x1ec4;" 
d="M10 0q-10 0 -14.5 6t-1.5 16l172 703l142 658q5 17 22 17h843q10 0 14.5 -6t2.5 -16l-24 -102q-3 -18 -21 -18h-673l-110 -440h628q22 0 17 -22l-24 -102q-3 -17 -21 -17h-633l-115 -535h684q10 0 14.5 -6t2.5 -16l-24 -103q-3 -17 -21 -17h-860zM480 1545q-2 6 -2 9
q0 11 12 17l299 159q10 7 24 7h53q15 0 24 -8l236 -158q9 -7 9 -16q0 -5 -3 -11l-33 -56q-6 -11 -16 -11q-5 0 -11 3l-249 119l-291 -120q-3 -2 -10 -2q-12 0 -16 12zM928 1798.5q-30 20.5 -64 58.5q-26 28 -43 41.5t-38 13.5q-34 0 -52 -27.5t-31 -81.5q-5 -17 -22 -17h-63
q-9 0 -14 6t-3 15q21 102 69.5 161.5t126.5 59.5q44 0 74 -20.5t66 -59.5q25 -27 42 -40t36 -13q36 0 54.5 27t30.5 80q4 17 22 17h63q17 0 17 -18q0 -6 -1 -9q-45 -214 -194 -214q-46 0 -76 20.5z" />
    <glyph glyph-name="uni1EC5" unicode="&#x1ec5;" 
d="M827.5 1000.5q95.5 -50.5 147.5 -143.5t52 -217q0 -58 -14 -130q-3 -17 -21 -17h-758q-5 -32 -5 -76q0 -153 72 -232.5t201 -79.5q227 0 303 241q6 17 23 17h134q10 0 14.5 -6.5t1.5 -17.5q-53 -178 -176.5 -269t-302.5 -91q-134 0 -235.5 51.5t-157.5 152t-56 242.5
q0 154 64.5 298t190 236t300.5 92q127 0 222.5 -50.5zM843 615q5 35 5 60q0 74 -30 131t-87 88.5t-135 31.5q-134 0 -220 -87t-122 -224h589zM351 1175q-2 6 -2 9q0 11 12 17l299 159q10 7 24 7h53q15 0 24 -8l236 -158q9 -7 9 -16q0 -5 -3 -11l-33 -56q-6 -11 -16 -11
q-5 0 -11 3l-249 119l-291 -120q-3 -2 -10 -2q-12 0 -16 12zM799 1428.5q-30 20.5 -64 58.5q-26 28 -43 41.5t-38 13.5q-34 0 -52 -27.5t-31 -81.5q-5 -17 -22 -17h-63q-9 0 -14 6t-3 15q21 102 69.5 161.5t126.5 59.5q44 0 74 -20.5t66 -59.5q25 -27 42 -40t36 -13
q36 0 54.5 27t30.5 80q4 17 22 17h63q17 0 17 -18q0 -6 -1 -9q-45 -214 -194 -214q-46 0 -76 20.5z" />
    <glyph glyph-name="uni1EC6" unicode="&#x1ec6;" 
d="M10 0q-10 0 -14.5 6t-1.5 16l172 703l142 658q5 17 22 17h843q10 0 14.5 -6t2.5 -16l-24 -102q-3 -18 -21 -18h-673l-110 -440h628q22 0 17 -22l-24 -102q-3 -17 -21 -17h-633l-115 -535h684q10 0 14.5 -6t2.5 -16l-24 -103q-3 -17 -21 -17h-860zM316 -303
q-11 0 -15.5 5.5t-2.5 15.5l37 154q4 17 22 17h146q10 0 14.5 -6t2.5 -16l-37 -153q-3 -17 -21 -17h-146zM492 1585q-2 6 -2 9q0 11 12 17l299 159q10 7 24 7h53q15 0 24 -8l236 -158q9 -7 9 -16q0 -5 -3 -11l-33 -56q-6 -11 -16 -11q-5 0 -11 3l-249 119l-291 -120
q-3 -2 -10 -2q-12 0 -16 12z" />
    <glyph glyph-name="uni1EC7" unicode="&#x1ec7;" 
d="M827.5 1000.5q95.5 -50.5 147.5 -143.5t52 -217q0 -58 -14 -130q-3 -17 -21 -17h-758q-5 -32 -5 -76q0 -153 72 -232.5t201 -79.5q227 0 303 241q6 17 23 17h134q10 0 14.5 -6.5t1.5 -17.5q-53 -178 -176.5 -269t-302.5 -91q-134 0 -235.5 51.5t-157.5 152t-56 242.5
q0 154 64.5 298t190 236t300.5 92q127 0 222.5 -50.5zM843 615q5 35 5 60q0 74 -30 131t-87 88.5t-135 31.5q-134 0 -220 -87t-122 -224h589zM312 -303q-11 0 -15.5 5.5t-2.5 15.5l37 154q4 17 22 17h146q10 0 14.5 -6t2.5 -16l-37 -153q-3 -17 -21 -17h-146zM364 1215
q-2 6 -2 9q0 11 12 17l299 159q10 7 24 7h53q15 0 24 -8l236 -158q9 -7 9 -16q0 -5 -3 -11l-33 -56q-6 -11 -16 -11q-5 0 -11 3l-249 119l-291 -120q-3 -2 -10 -2q-12 0 -16 12z" />
    <glyph glyph-name="uni1EC8" unicode="&#x1ec8;" horiz-adv-x="427" 
d="M21 0q-10 0 -14.5 6t-1.5 16l169 692l145 669q5 17 22 17h153q10 0 14.5 -6t2.5 -16l-164 -664l-151 -697q-1 -8 -7.5 -12.5t-14.5 -4.5h-153zM402 1523q-10 0 -15 6t-2 16q14 44 45.5 68.5t81.5 46.5q41 19 59.5 34t18.5 40t-23 39.5t-61 14.5q-78 0 -102 -65
q-4 -16 -21 -16h-89q-11 0 -15.5 5.5t-1.5 15.5q23 76 83 116t153 40q92 0 151.5 -38t59.5 -104q0 -39 -17 -65.5t-40.5 -42.5t-63.5 -36q-35 -17 -54 -29.5t-29 -30.5q-8 -15 -22 -15h-96z" />
    <glyph glyph-name="uni1EC9" unicode="&#x1ec9;" horiz-adv-x="399" 
d="M301 1153q-11 0 -15.5 6t-1.5 16q13 44 44 68t82 48q40 18 59 33t19 40t-22.5 39.5t-60.5 14.5q-78 0 -102 -65q-6 -16 -22 -16h-78q-11 0 -15.5 5.5t-2.5 15.5q22 76 79.5 116t147.5 40q87 0 143.5 -38t56.5 -104q0 -39 -16 -65.5t-38.5 -42.5t-59.5 -36
q-32 -16 -51 -29.5t-28 -30.5q-7 -15 -23 -15h-95zM7 0q-10 0 -14.5 6t-1.5 16l122 510l106 481q4 17 22 17h149q10 0 14.5 -6t2.5 -16l-116 -475l-113 -516q-3 -17 -21 -17h-150z" />
    <glyph glyph-name="uni1ECA" unicode="&#x1eca;" horiz-adv-x="427" 
d="M21 0q-10 0 -14.5 6t-1.5 16l169 692l145 669q5 17 22 17h153q10 0 14.5 -6t2.5 -16l-164 -664l-151 -697q-1 -8 -7.5 -12.5t-14.5 -4.5h-153zM-44 -303q-11 0 -15.5 5.5t-2.5 15.5l37 154q4 17 22 17h146q10 0 14.5 -6t2.5 -16l-37 -153q-3 -17 -21 -17h-146z" />
    <glyph glyph-name="uni1ECB" unicode="&#x1ecb;" horiz-adv-x="398" 
d="M7 0q-10 0 -14.5 6t-1.5 16l122 510l106 481q4 17 22 17h149q10 0 14.5 -6t2.5 -16l-116 -475l-113 -516q-3 -17 -21 -17h-150zM277 1159q-10 0 -14.5 6t-2.5 16l37 154q3 17 21 17h145q10 0 14.5 -6t2.5 -16l-37 -153q-3 -18 -21 -18h-145zM-60 -303q-11 0 -15.5 5.5
t-2.5 15.5l37 154q4 17 22 17h146q10 0 14.5 -6t2.5 -16l-37 -153q-3 -17 -21 -17h-146z" />
    <glyph glyph-name="uni1ECC" unicode="&#x1ecc;" horiz-adv-x="1467" 
d="M380 46q-137 71 -213.5 207t-76.5 323q0 205 90.5 401t265.5 322t415 126q176 0 312.5 -71t213 -206.5t76.5 -321.5q0 -206 -90.5 -402.5t-265 -322.5t-414.5 -126q-176 0 -313 71zM1018 232q129 111 190.5 275t61.5 323q0 144 -52 245t-145.5 152.5t-217.5 51.5
q-190 0 -319.5 -111t-191 -275t-61.5 -323q0 -144 51.5 -245t145.5 -152.5t219 -51.5q190 0 319 111zM510 -303q-11 0 -15.5 5.5t-2.5 15.5l37 154q4 17 22 17h146q10 0 14.5 -6t2.5 -16l-37 -153q-3 -17 -21 -17h-146z" />
    <glyph glyph-name="uni1ECD" unicode="&#x1ecd;" horiz-adv-x="1100" 
d="M261.5 31.5q-99.5 52.5 -155.5 153.5t-56 241q0 153 66 297t193.5 236t302.5 92q128 0 227.5 -52.5t155 -153t55.5 -239.5q0 -154 -65.5 -298.5t-193 -236.5t-302.5 -92q-128 0 -227.5 52.5zM700.5 184q83.5 79 124.5 197t41 232q0 100 -32 170t-90.5 106t-137.5 36
q-123 0 -207 -79t-124.5 -197t-40.5 -232q0 -100 32 -170t91 -106t138 -36q122 0 205.5 79zM333 -303q-11 0 -15.5 5.5t-2.5 15.5l37 154q4 17 22 17h146q10 0 14.5 -6t2.5 -16l-37 -153q-3 -17 -21 -17h-146z" />
    </font>
</defs>
</svg>
