<?xml version="1.0" standalone="no"?>
<!DOCTYPE svg PUBLIC "-//W3C//DTD SVG 1.1//EN" "http://www.w3.org/Graphics/SVG/1.1/DTD/svg11.dtd" >
<svg xmlns="http://www.w3.org/2000/svg" xmlns:xlink="http://www.w3.org/1999/xlink" version="1.1">
<metadata>
Created by FontForge 20170731 at Wed May 12 04:41:42 2021
 By Aleksey,,,
(c) Copyright David Jonathan Ross, 2016, 2021. All rights reserved.
</metadata>
<defs>
<font id="FormaDJRText-Light" horiz-adv-x="0" >
  <font-face 
    font-family="Forma DJR Text Light"
    font-weight="300"
    font-stretch="normal"
    units-per-em="2000"
    panose-1="0 0 0 0 0 0 0 9 0 0"
    ascent="1500"
    descent="-500"
    x-height="1030"
    cap-height="1400"
    bbox="-838 -416 2015 2035"
    underline-thickness="50"
    underline-position="-150"
    unicode-range="U+0020-FB01"
  />
<missing-glyph horiz-adv-x="1200" 
d="M50 1388q0 5 3.5 8.5t8.5 3.5h1076q5 0 8.5 -3.5t3.5 -8.5v-1716q0 -5 -3.5 -8.5t-8.5 -3.5h-1076q-5 0 -8.5 3.5t-3.5 8.5v1716zM1058 1315h-916v-1570h916v1570z" />
    <glyph glyph-name=".notdef" horiz-adv-x="1200" 
d="M50 1388q0 5 3.5 8.5t8.5 3.5h1076q5 0 8.5 -3.5t3.5 -8.5v-1716q0 -5 -3.5 -8.5t-8.5 -3.5h-1076q-5 0 -8.5 3.5t-3.5 8.5v1716zM1058 1315h-916v-1570h916v1570z" />
    <glyph glyph-name=".null" 
 />
    <glyph glyph-name="nonmarkingreturn" horiz-adv-x="666" 
 />
    <glyph glyph-name="space" unicode=" " horiz-adv-x="356" 
 />
    <glyph glyph-name="space" unicode="&#xa0;" horiz-adv-x="356" 
 />
    <glyph glyph-name="exclam" unicode="!" horiz-adv-x="367" 
d="M151 372q-8 0 -12.5 4.5t-4.5 12.5v994q0 17 17 17h67q17 0 17 -17v-994q0 -8 -4.5 -12.5t-12.5 -4.5h-67zM139 0q-17 0 -17 17v108q0 17 17 17h89q17 0 17 -17v-108q0 -17 -17 -17h-89z" />
    <glyph glyph-name="quotedbl" unicode="&#x22;" horiz-adv-x="526" 
d="M135 1096q-15 0 -17 16l-14 271v2q0 15 16 15h74q16 0 16 -17l-15 -271q0 -7 -4.5 -11.5t-12.5 -4.5h-43zM347 1096q-15 0 -17 16l-14 271v2q0 15 16 15h74q16 0 16 -17l-15 -271q0 -7 -4.5 -11.5t-12.5 -4.5h-43z" />
    <glyph glyph-name="numbersign" unicode="#" horiz-adv-x="1346" 
d="M1313 1056q18 0 15 -18l-7 -47q-1 -15 -17 -15h-330l-78 -544h331q18 0 15 -18l-8 -47q-2 -15 -18 -15h-331l-49 -336q-3 -16 -17 -16h-60q-18 0 -15 18l47 334h-336l-48 -336q-3 -16 -17 -16h-60q-18 0 -15 18l47 334h-328q-18 0 -15 18l8 47q2 15 18 15h329l78 544
h-329q-18 0 -15 18l7 47q2 15 18 15h330l47 328q3 16 18 16h59q18 0 16 -18l-47 -326h336l47 328q3 16 18 16h59q18 0 16 -18l-47 -326h328zM545 976l-78 -544h336l78 544h-336z" />
    <glyph glyph-name="dollar" unicode="$" horiz-adv-x="1084" 
d="M952.5 176q-54.5 -91 -149 -139.5t-216.5 -53.5v-166q0 -17 -17 -17h-65q-16 0 -16 17v168q-194 19 -297.5 145.5t-113.5 341.5v2q0 7 4.5 11t11.5 4h74q16 0 18 -17q13 -201 100 -304t275 -103q157 0 253 80t96 245q0 105 -51.5 163.5t-127 84t-204.5 50.5
q-139 26 -222 55t-140.5 99t-57.5 196q0 118 48.5 201.5t134.5 128.5t197 51v124q0 8 4.5 12.5t12.5 4.5h65q17 0 17 -17v-126q187 -15 284 -119t111 -298v-2q0 -15 -16 -15h-71q-16 0 -16 16q-8 169 -93 253t-258 84q-149 0 -236 -72t-87 -220q0 -94 48 -146t119.5 -75.5
t194.5 -46.5q144 -27 231.5 -58t148.5 -107t61 -214q0 -130 -54.5 -221z" />
    <glyph glyph-name="percent" unicode="%" horiz-adv-x="1473" 
d="M212 807q-61 39 -94.5 113t-33.5 175q0 100 33.5 173.5t94.5 112.5t143 39t142.5 -39t93.5 -113t33 -175q0 -100 -34 -173.5t-95 -112.5t-142 -39q-80 0 -141 39zM278 0q-7 0 -10.5 3t-3.5 8q0 6 3 10l838 1368q6 11 19 11h61q7 0 10.5 -3t3.5 -8t-3 -10l-838 -1368
q-8 -11 -19 -11h-61zM483.5 904.5q47.5 66.5 47.5 188.5q0 121 -48 189t-130 68q-83 0 -130.5 -68t-47.5 -189t47.5 -188t130.5 -67t130.5 66.5zM976.5 19.5q-60.5 39.5 -94 113.5t-33.5 176q0 100 33.5 173t94.5 111.5t143 38.5q81 0 142 -38.5t94 -111.5t33 -175
q0 -101 -34 -174.5t-95 -113t-142 -39.5t-141.5 39.5zM1248.5 117.5q47.5 67.5 47.5 189.5q0 119 -48 187t-130 68q-83 0 -130.5 -67.5t-47.5 -187.5q0 -122 48 -189.5t130 -67.5q83 0 130.5 67.5z" />
    <glyph glyph-name="ampersand" unicode="&#x26;" horiz-adv-x="1279" 
d="M1242 21q6 -6 6 -11q0 -4 -4 -7t-11 -3h-86q-12 0 -21 9l-170 181q-81 -102 -190 -156.5t-239 -54.5q-119 0 -222.5 44.5t-167 131.5t-63.5 210q0 102 44.5 179t115 132.5t171.5 112.5q-85 99 -124 178.5t-39 167.5q0 79 36 145.5t108.5 107t176.5 40.5q91 0 164 -35.5
t115 -100t42 -148.5q0 -86 -46 -151.5t-113.5 -112t-180.5 -108.5l95 -103q19 -21 37.5 -41t36.5 -40l241 -254q84 160 92 384q0 17 17 17h57q17 0 17 -21q-4 -129 -35.5 -243t-86.5 -206zM373.5 994.5q32.5 -64.5 115.5 -160.5q102 56 162.5 96.5t100.5 95t40 123.5
q0 61 -28 107.5t-79.5 72t-119.5 25.5q-107 0 -165.5 -55t-58.5 -166q0 -74 32.5 -138.5zM741.5 107.5q93.5 50.5 160.5 143.5l-314 337q-82 87 -127 137q-89 -51 -149.5 -99t-98.5 -113t-38 -148q0 -93 44.5 -162.5t126 -107.5t188.5 -38q114 0 207.5 50.5z" />
    <glyph glyph-name="quotesingle" unicode="'" horiz-adv-x="313" 
d="M135 1096q-15 0 -17 16l-14 271v2q0 15 16 15h74q16 0 16 -17l-15 -271q0 -7 -4.5 -11.5t-12.5 -4.5h-43z" />
    <glyph glyph-name="parenleft" unicode="(" horiz-adv-x="443" 
d="M295 -280q-12 0 -20 12q-103 207 -156 417.5t-53 450.5q0 452 207 848q7 12 20 12h49q14 0 14 -11l-2 -8q-183 -406 -183 -841q0 -446 185 -861l2 -8q0 -11 -14 -11h-49z" />
    <glyph glyph-name="parenright" unicode=")" horiz-adv-x="443" 
d="M100 -280q-9 0 -13 5.5t0 13.5q185 415 185 861q0 434 -182 841q-2 3 -2 8q0 11 14 11h48q14 0 20 -12q208 -398 208 -848q0 -239 -53.5 -450t-156.5 -418q-6 -12 -20 -12h-48z" />
    <glyph glyph-name="asterisk" unicode="*" horiz-adv-x="666" 
d="M311 894q-8 0 -12.5 4.5t-4.5 12.5l6 232l-198 -123q-4 -3 -10 -3q-7 0 -13 7l-21 34q-4 4 -4 10q0 9 9 13l205 112l-208 102q-9 5 -9 14q0 6 2 9l19 40q4 10 14 10q4 0 9 -3l205 -120l-6 238q0 17 16 17h40q16 0 16 -17l-7 -238l205 130q6 3 10 3q8 0 13 -8l22 -34
q3 -6 3 -10q0 -8 -9 -14l-210 -116l204 -103q9 -4 9 -14l-2 -8l-17 -40q-4 -10 -13 -10q-5 0 -9 3l-204 120l6 -233v-2q0 -7 -4.5 -11t-11.5 -4h-40z" />
    <glyph glyph-name="plus" unicode="+" horiz-adv-x="949" 
d="M894 732q16 0 16 -17v-52q0 -17 -16 -17h-375v-415q0 -17 -17 -17h-54q-16 0 -16 17v415h-377q-8 0 -12.5 4.5t-4.5 12.5v52q0 8 4.5 12.5t12.5 4.5h377v417q0 17 16 17h54q17 0 17 -17v-417h375z" />
    <glyph glyph-name="comma" unicode="," horiz-adv-x="256" 
d="M48 -163q-7 0 -10.5 5.5t-1.5 13.5l40 145v124q0 8 5 12.5t12 4.5h74q8 0 12.5 -4.5t4.5 -12.5v-112q0 -10 -6 -21l-84 -143q-9 -12 -20 -12h-26z" />
    <glyph glyph-name="hyphen" unicode="-" horiz-adv-x="510" 
d="M66 553q-7 0 -11.5 4.5t-4.5 12.5v51q0 16 16 16h377q8 0 12.5 -4.5t4.5 -11.5v-51q0 -7 -4.5 -12t-12.5 -5h-377z" />
    <glyph glyph-name="hyphen" unicode="&#x2011;" horiz-adv-x="510" 
d="M66 553q-7 0 -11.5 4.5t-4.5 12.5v51q0 16 16 16h377q8 0 12.5 -4.5t4.5 -11.5v-51q0 -7 -4.5 -12t-12.5 -5h-377z" />
    <glyph glyph-name="hyphen" unicode="&#x2010;" horiz-adv-x="510" 
d="M66 553q-7 0 -11.5 4.5t-4.5 12.5v51q0 16 16 16h377q8 0 12.5 -4.5t4.5 -11.5v-51q0 -7 -4.5 -12t-12.5 -5h-377z" />
    <glyph glyph-name="hyphen" unicode="&#xad;" horiz-adv-x="510" 
d="M66 553q-7 0 -11.5 4.5t-4.5 12.5v51q0 16 16 16h377q8 0 12.5 -4.5t4.5 -11.5v-51q0 -7 -4.5 -12t-12.5 -5h-377z" />
    <glyph glyph-name="period" unicode="." horiz-adv-x="259" 
d="M84 0q-17 0 -17 17v108q0 8 5 12.5t12 4.5h92q7 0 11.5 -4.5t4.5 -12.5v-108q0 -17 -16 -17h-92z" />
    <glyph glyph-name="slash" unicode="/" horiz-adv-x="591" 
d="M60 -293q-8 0 -12 5t-3 14l416 1706q3 15 19 15h50q8 0 12 -5t2 -13l-415 -1707q-1 -7 -6.5 -11t-12.5 -4h-50z" />
    <glyph glyph-name="zero" unicode="0" horiz-adv-x="1098" 
d="M303 65q-105 87 -163 250.5t-58 385.5q0 224 58 386.5t163.5 248.5t246.5 86q140 0 245.5 -86t163 -249t57.5 -388q0 -223 -58.5 -385.5t-164 -249t-245.5 -86.5t-245 87zM739.5 139.5q81.5 74.5 125 217t43.5 342.5q0 201 -43.5 344t-125 217.5t-191.5 74.5
q-111 0 -192 -74.5t-124 -217.5t-43 -344q0 -199 44 -341.5t125 -217.5t190 -75q110 0 191.5 74.5z" />
    <glyph glyph-name="one" unicode="1" horiz-adv-x="631" 
d="M362 0q-16 0 -16 17l4 660l-4 606q-107 -99 -281 -161q-2 -1 -5 -1q-14 0 -14 16v51q0 15 13 19q80 32 154.5 81t127.5 103q6 9 20 9h72q8 0 12.5 -4.5t4.5 -12.5l-5 -713l5 -653q0 -8 -4.5 -12.5t-12.5 -4.5h-71z" />
    <glyph glyph-name="two" unicode="2" horiz-adv-x="975" 
d="M97 0q-17 0 -17 17v155q0 131 56.5 221.5t137 146t212.5 122.5q114 59 179.5 102t110 107.5t44.5 153.5q0 88 -35 158.5t-107 112t-178 41.5q-157 0 -243 -101t-94 -297q-1 -16 -17 -16h-60q-8 0 -12.5 4.5t-3.5 12.5q7 235 118 358t315 123q130 0 223 -47.5
t142.5 -136.5t49.5 -211q0 -116 -52 -196.5t-127 -131.5t-201 -116q-121 -62 -191.5 -109t-119 -120t-48.5 -176v-92h706q16 0 16 -17v-51q0 -17 -16 -17h-788z" />
    <glyph glyph-name="three" unicode="3" horiz-adv-x="1064" 
d="M197 92.5q-114 112.5 -127 330.5v2q0 7 4.5 11t11.5 4h71q15 0 17 -17q16 -361 340 -361q179 0 269.5 93.5t91.5 253.5q0 144 -95 222t-270 78h-82q-17 0 -17 17v46q0 8 4.5 12.5t12.5 4.5h82q163 0 247.5 70.5t84.5 195.5q0 90 -39 154t-108.5 96.5t-158.5 32.5
q-326 0 -347 -350q-2 -17 -17 -17h-65q-8 0 -12.5 4.5t-4.5 12.5q5 139 63.5 236t157.5 146.5t227 49.5q115 0 208.5 -42.5t148 -124t54.5 -193.5q0 -119 -67.5 -195t-183.5 -112q133 -24 208 -116t75 -230q0 -125 -56 -222t-161 -151t-248 -54q-205 0 -319 112.5z" />
    <glyph glyph-name="four" unicode="4" horiz-adv-x="1021" 
d="M948 510q17 0 17 -17v-51q0 -17 -17 -17h-130v-408q0 -8 -4.5 -12.5t-12.5 -4.5h-68q-17 0 -17 17v408h-650q-8 0 -12.5 4.5t-4.5 12.5v57q0 10 6 20l598 871q7 10 20 10h128q8 0 12.5 -4.5t4.5 -12.5v-873h130zM716 510v617l1 200l-564 -817h563z" />
    <glyph glyph-name="five" unicode="5" horiz-adv-x="1029" 
d="M203.5 83q-106.5 105 -126.5 297v2q0 16 16 16h73q14 0 16 -16q11 -145 93 -233t232 -88q102 0 179 54.5t119 155.5t42 235t-39 227.5t-111.5 141t-172.5 47.5q-126 0 -204 -65.5t-109 -186.5q-3 -15 -18 -15h-64q-8 0 -12.5 5t-3.5 13l44 711q0 16 16 16h671
q16 0 16 -17v-51q0 -17 -16 -17h-602l-31 -474q60 83 137.5 124t190.5 41q123 0 217.5 -58.5t147 -170.5t52.5 -268q0 -159 -56.5 -279.5t-158 -186t-234.5 -65.5q-197 0 -303.5 105z" />
    <glyph glyph-name="six" unicode="6" horiz-adv-x="1062" 
d="M204.5 153.5q-120.5 175.5 -120.5 535.5q0 230 57.5 395t164.5 251.5t254 86.5q170 0 263 -83t114 -248v-4q0 -14 -15 -14h-73q-15 0 -17 16q-11 117 -80.5 183.5t-194.5 66.5q-113 0 -195.5 -76t-127 -217t-44.5 -331q48 105 148 161t226 56t221.5 -54t148 -155
t52.5 -239q0 -147 -56 -262t-155.5 -179.5t-226.5 -64.5q-223 0 -343.5 175.5zM727 112q75 50 113.5 142.5t38.5 219.5q-3 172 -88.5 272.5t-242.5 100.5q-106 0 -183 -44.5t-118 -127.5t-41 -196q0 -114 40.5 -209.5t117.5 -151.5t181 -56q107 0 182 50z" />
    <glyph glyph-name="seven" unicode="7" horiz-adv-x="876" 
d="M308 0q-18 0 -15 18q126 712 431 1297h-663q-16 0 -16 17v51q0 17 16 17h754q16 0 16 -17v-55q0 -10 -4 -21q-315 -633 -419 -1291q-3 -16 -18 -16h-82z" />
    <glyph glyph-name="eight" unicode="8" horiz-adv-x="1076" 
d="M305 30.5q-104 50.5 -163 141t-59 206.5q0 89 35.5 165.5t101 129.5t152.5 74q-112 36 -171.5 119t-58.5 195q0 105 51.5 187t142.5 127.5t205 45.5t205 -45.5t143 -127.5t52 -187q0 -65 -27.5 -128t-82 -112t-130.5 -74q91 -21 158.5 -74t103.5 -129t36 -166
q0 -116 -58.5 -206.5t-163 -141t-236.5 -50.5t-236 50.5zM699 826.5q68 38.5 104 99.5t36 128q0 89 -38 153.5t-105.5 98.5t-154.5 34t-154.5 -35t-105 -101t-37.5 -158q0 -72 36 -131t103.5 -93t157.5 -34t158 38.5zM726.5 101q79.5 40 122.5 111t43 161q0 98 -41 173
t-120 118t-190 45q-110 -2 -189 -45t-120 -119t-41 -174q0 -89 43 -159.5t122.5 -110.5t184.5 -40q106 0 185.5 40z" />
    <glyph glyph-name="nine" unicode="9" horiz-adv-x="1062" 
d="M239.5 60.5q-92.5 82.5 -114.5 248.5v3q0 15 16 15h72q15 0 17 -16q11 -122 82 -186t196 -64q116 0 197.5 74t124 213.5t42.5 334.5q-48 -105 -147.5 -160t-226.5 -55q-125 0 -220.5 54t-148 155t-52.5 239q0 147 55.5 262.5t155 179.5t227.5 64q223 0 343.5 -175.5
t120.5 -535.5q0 -230 -57.5 -395t-165 -251.5t-254.5 -86.5q-170 0 -262.5 82.5zM698 597.5q77 44.5 118 127.5t41 196q0 114 -41 209.5t-118 151.5t-181 56q-107 0 -181.5 -50t-113 -142.5t-38.5 -219.5q2 -113 40 -197t112 -130t179 -46q106 0 183 44.5z" />
    <glyph glyph-name="colon" unicode=":" horiz-adv-x="259" 
d="M84 0q-17 0 -17 17v108q0 8 5 12.5t12 4.5h92q7 0 11.5 -4.5t4.5 -12.5v-108q0 -17 -16 -17h-92zM84 889q-17 0 -17 17v108q0 8 5 12.5t12 4.5h92q7 0 11.5 -4.5t4.5 -12.5v-108q0 -17 -16 -17h-92z" />
    <glyph glyph-name="semicolon" unicode=";" horiz-adv-x="258" 
d="M48 -163q-7 0 -10.5 5.5t-1.5 13.5l40 145v124q0 8 5 12.5t12 4.5h74q8 0 12.5 -4.5t4.5 -12.5v-112q0 -10 -6 -21l-84 -143q-9 -12 -20 -12h-26zM83 888q-17 0 -17 17v108q0 8 5 12.5t12 4.5h92q7 0 11.5 -4.5t4.5 -12.5v-108q0 -17 -16 -17h-92z" />
    <glyph glyph-name="less" unicode="&#x3c;" horiz-adv-x="949" 
d="M51 640q-13 6 -13 20v58q0 14 13 20l840 388l8 2q11 0 11 -14v-53q0 -14 -12 -19l-769 -352l769 -354q12 -5 12 -19v-53q0 -14 -11 -14l-8 2z" />
    <glyph glyph-name="equal" unicode="=" horiz-adv-x="949" 
d="M55 855q-8 0 -12.5 4.5t-4.5 12.5v52q0 8 4.5 12.5t12.5 4.5h839q16 0 16 -17v-52q0 -17 -16 -17h-839zM55 437q-8 0 -12.5 4.5t-4.5 12.5v52q0 8 4.5 12.5t12.5 4.5h839q16 0 16 -17v-52q0 -17 -16 -17h-839z" />
    <glyph glyph-name="greater" unicode="&#x3e;" horiz-adv-x="949" 
d="M58 252l-8 -2q-12 0 -12 14v53q0 13 13 19l769 354l-769 352q-13 6 -13 19v53q0 14 12 14l8 -2l840 -388q12 -5 12 -20v-58q0 -15 -12 -20z" />
    <glyph glyph-name="question" unicode="?" horiz-adv-x="929" 
d="M424 372q-8 0 -12.5 5t-3.5 13q2 98 31.5 172.5t69 124.5t103.5 115q52 53 82 89.5t50 83t20 104.5q0 82 -38 140.5t-106 88.5t-157 30q-160 0 -236.5 -84t-82.5 -255q0 -8 -4.5 -12.5t-12.5 -4.5h-65q-8 0 -12.5 4.5t-3.5 12.5q9 204 117.5 311.5t304.5 107.5
q112 0 201.5 -40.5t140.5 -118.5t51 -186q0 -72 -22.5 -127.5t-55.5 -95.5t-89 -96q-60 -60 -96.5 -105t-63 -109.5t-28.5 -150.5q0 -8 -4.5 -12.5t-12.5 -4.5h-65zM410 0q-16 0 -16 17v108q0 17 16 17h91q8 0 12.5 -4.5t4.5 -12.5v-108q0 -8 -4.5 -12.5t-12.5 -4.5h-91z
" />
    <glyph glyph-name="at" unicode="@" horiz-adv-x="1714" 
d="M986 953.5q78 -51.5 123 -149.5l-4 169q0 8 4.5 12.5t12.5 4.5h60q8 0 12.5 -4.5t4.5 -12.5v-630q0 -139 40.5 -191.5t110.5 -52.5q61 0 109.5 44.5t77 135t28.5 221.5q0 256 -88 441t-250 282.5t-381 97.5q-213 0 -370.5 -98t-243 -283t-85.5 -440q0 -248 86 -429
t243.5 -276.5t369.5 -95.5q186 0 324.5 52.5t207.5 167.5q8 11 20 11h41q10 0 13.5 -5t-0.5 -12q-78 -140 -235.5 -206.5t-370.5 -66.5q-230 0 -404.5 104.5t-270 299.5t-95.5 458q0 270 96 468.5t270.5 304t405.5 105.5q237 0 415.5 -105.5t276.5 -304.5t98 -470
q0 -144 -39 -248t-104.5 -158t-144.5 -54q-89 0 -151 48.5t-79 166.5q-44 -107 -126 -167t-193 -60q-118 0 -202 63.5t-127.5 173.5t-43.5 249q0 137 44 249t128.5 177t200.5 65q107 0 185 -51.5zM1035 207.5q79 104.5 79 305.5q0 130 -35 224t-100.5 143.5t-156.5 49.5
q-100 0 -167 -53t-99.5 -144.5t-32.5 -207.5q0 -121 32 -216t98.5 -150.5t165.5 -55.5q137 0 216 104.5z" />
    <glyph glyph-name="A" unicode="A" horiz-adv-x="1192" 
d="M1166 19q1 -2 1 -6q0 -6 -4 -9.5t-11 -3.5h-75q-14 0 -19 13l-164 458h-602l-163 -458q-5 -13 -19 -13h-70q-9 0 -13 5.5t0 13.5l501 1368q4 13 19 13h100q15 0 19 -13zM866 556l-273 764l-273 -764h546z" />
    <glyph glyph-name="B" unicode="B" horiz-adv-x="1226" 
d="M138 0q-16 0 -16 17l5 722l-5 644q0 17 16 17h482q139 0 244.5 -39.5t163 -113.5t57.5 -176q0 -133 -66 -209.5t-203 -109.5q161 -39 235.5 -125.5t78.5 -219.5q0 -140 -66.5 -231t-181.5 -133.5t-264 -42.5h-480zM229 1319l-6 -531h392q177 0 271 60.5t94 200.5
q0 133 -97.5 201.5t-267.5 68.5h-386zM223 707l6 -624h386q194 0 301.5 77t107.5 245q0 103 -55.5 171t-148 99.5t-205.5 31.5h-392z" />
    <glyph glyph-name="C" unicode="C" horiz-adv-x="1332" 
d="M361.5 62q-139.5 84 -212.5 247.5t-73 398.5q0 218 75 379.5t215.5 248t333.5 86.5q215 0 364.5 -116t189.5 -365v-4q0 -15 -15 -15h-71q-15 0 -18 16q-32 205 -153 303t-299 98q-161 0 -277 -78.5t-177 -221t-61 -333.5q0 -214 62 -358.5t177 -215.5t276 -71
q129 0 229.5 49t161.5 145.5t72 235.5q2 17 17 17h71q9 0 13 -5t3 -14q-17 -164 -91.5 -279t-196 -173.5t-278.5 -58.5q-198 0 -337.5 84z" />
    <glyph glyph-name="D" unicode="D" horiz-adv-x="1308" 
d="M139 0q-17 0 -17 17l6 719l-6 647q0 17 17 17h409q200 0 355.5 -84.5t242 -241t86.5 -365.5q0 -224 -92.5 -384t-247.5 -242.5t-340 -82.5h-413zM227 737l5 -655h336q139 0 266.5 67.5t209 208.5t81.5 349q0 195 -76 333t-204.5 208t-284.5 70h-328z" />
    <glyph glyph-name="E" unicode="E" horiz-adv-x="1025" 
d="M138 0q-16 0 -16 17l5 725l-5 641q0 17 16 17h779q8 0 12.5 -4.5t4.5 -12.5v-48q0 -7 -4.5 -12t-12.5 -5h-688l-6 -524h653q17 0 17 -16v-49q0 -7 -4.5 -11.5t-12.5 -4.5h-653l6 -631h704q8 0 12.5 -4.5t4.5 -12.5v-48q0 -8 -4.5 -12.5t-12.5 -4.5h-795z" />
    <glyph glyph-name="F" unicode="F" horiz-adv-x="976" 
d="M138 0q-16 0 -16 17l5 681l-5 685q0 17 16 17h758q16 0 16 -17v-48q0 -8 -4.5 -12.5t-11.5 -4.5h-667l-6 -586h636q17 0 17 -16v-49q0 -7 -4.5 -11.5t-12.5 -4.5h-636l6 -634q0 -8 -4.5 -12.5t-12.5 -4.5h-74z" />
    <glyph glyph-name="G" unicode="G" horiz-adv-x="1341" 
d="M369 66.5q-138 88.5 -215.5 252.5t-77.5 383t77.5 382t215 250.5t311.5 87.5q219 0 362.5 -113.5t188.5 -330.5l1 -5q0 -13 -16 -13h-71q-15 0 -18 14q-35 179 -151.5 272t-294.5 93q-145 0 -258 -76t-176.5 -221t-63.5 -343q0 -194 64 -338.5t178 -222t259 -77.5
q155 0 262.5 69t162 194.5t53.5 294.5h-471q-8 0 -12.5 4.5t-4.5 12.5v48q0 7 4.5 11.5t12.5 4.5h558q17 0 17 -19q3 -221 -63 -379t-197.5 -241t-322.5 -83q-176 0 -314 88.5z" />
    <glyph glyph-name="H" unicode="H" horiz-adv-x="1289" 
d="M1162 686l5 -669q0 -17 -16 -17h-74q-17 0 -17 17l5 659v38h-841v-38l5 -659q0 -17 -17 -17h-74q-16 0 -16 17l5 669l-5 697q0 17 16 17h74q17 0 17 -17l-4 -588h839l-4 588q0 17 17 17h74q16 0 16 -17z" />
    <glyph glyph-name="I" unicode="I" horiz-adv-x="371" 
d="M149 0q-17 0 -17 17l6 707l-6 659q0 17 17 17h73q8 0 12.5 -4.5t4.5 -12.5l-6 -659l6 -707q0 -8 -4.5 -12.5t-12.5 -4.5h-73z" />
    <glyph glyph-name="J" unicode="J" horiz-adv-x="926" 
d="M144.5 102.5q-92.5 129.5 -95.5 377.5q0 8 4.5 12.5t12.5 4.5h67q17 0 17 -17q2 -137 27.5 -229t88 -143t170.5 -51q111 0 173.5 52.5t87 147.5t24.5 237l1 454l-4 435q0 17 17 17h75q16 0 16 -17l-3 -435v-455q1 -257 -92 -388.5t-295 -131.5q-199 0 -291.5 129.5z" />
    <glyph glyph-name="K" unicode="K" horiz-adv-x="1047" 
d="M1019 20q4 -6 4 -9q0 -11 -15 -11h-89q-14 0 -20 11l-490 757l-184 -211l4 -540q0 -8 -4.5 -12.5t-12.5 -4.5h-73q-17 0 -17 17l5 719l-5 647q0 17 17 17h73q8 0 12.5 -4.5t4.5 -12.5l-5 -630v-68l595 706q9 9 21 9h85q7 0 10.5 -2.5t3.5 -6.5q0 -5 -5 -12l-456 -529z
" />
    <glyph glyph-name="L" unicode="L" horiz-adv-x="929" 
d="M139 0q-17 0 -17 17l6 744l-6 622q0 17 17 17h73q17 0 17 -17l-5 -621l5 -680h656q7 0 11.5 -4.5t4.5 -12.5v-48q0 -17 -16 -17h-746z" />
    <glyph glyph-name="M" unicode="M" horiz-adv-x="1527" 
d="M138 0q-16 0 -16 17l5 659l-4 707q0 8 4.5 12.5t12.5 4.5h114q14 0 20 -13l495 -1250l492 1250q4 13 19 13h107q17 0 17 -17l-4 -707l5 -659q0 -17 -16 -17h-73q-16 0 -16 17l3 628l3 623l-493 -1255q-6 -13 -20 -13h-59q-15 0 -19 13l-499 1255l4 -623l3 -628
q0 -17 -17 -17h-68z" />
    <glyph glyph-name="N" unicode="N" horiz-adv-x="1315" 
d="M138 0q-16 0 -16 17l5 703l-4 663q0 8 4.5 12.5t12.5 4.5h81q15 0 20 -11l853 -1243v592l-3 645q0 17 16 17h70q8 0 12.5 -4.5t4.5 -12.5l-6 -663l4 -703q0 -17 -17 -17h-89q-14 0 -21 11l-844 1225v-543l4 -676q0 -8 -4.5 -12.5t-12.5 -4.5h-70z" />
    <glyph glyph-name="O" unicode="O" horiz-adv-x="1436" 
d="M380.5 66q-145.5 88 -225 251.5t-79.5 383.5q0 221 79.5 384t225 250t338.5 87t338 -87t224.5 -250t79.5 -386q0 -220 -80 -383t-226 -250.5t-338 -87.5q-191 0 -336.5 88zM1002 137.5q121 76.5 186.5 220.5t65.5 341q0 198 -65.5 342.5t-186.5 221t-285 76.5t-284 -77
t-185 -221t-65 -342q0 -196 65.5 -340t186 -221t283.5 -77t284 76.5z" />
    <glyph glyph-name="P" unicode="P" horiz-adv-x="1070" 
d="M547 1400q144 0 251 -46t165.5 -137t58.5 -223q0 -140 -59 -233.5t-164 -138t-245 -44.5h-329l4 -561q0 -8 -4.5 -12.5t-12.5 -4.5h-74q-16 0 -16 17l5 715l-5 651q0 17 16 17h409zM557 659q175 0 268 79t93 255q0 163 -95 244.5t-274 81.5h-321l-5 -586v-74h334z" />
    <glyph glyph-name="Q" unicode="Q" horiz-adv-x="1437" 
d="M1352 86q8 0 12.5 -4.5t4.5 -11.5v-53q0 -8 -4.5 -12.5t-12.5 -4.5h-458q-86 -22 -178 -22q-191 0 -336.5 88t-225 251.5t-79.5 383.5q0 221 79.5 384t225 250t338.5 87t338 -87t224.5 -250t79.5 -386q0 -217 -79 -377t-222 -244l105 8h188zM246.5 359
q65.5 -144 186.5 -221t283 -77q164 0 285 76.5t186.5 220.5t65.5 341q0 198 -65.5 342.5t-186.5 221t-285 76.5t-284.5 -77t-185.5 -221t-65 -342q0 -196 65.5 -340z" />
    <glyph glyph-name="R" unicode="R" horiz-adv-x="1151" 
d="M1077 20q4 -6 4 -9q0 -11 -15 -11h-84q-13 0 -20 11l-103 169l-273 437h-361l4 -600q0 -8 -4.5 -12.5t-12.5 -4.5h-74q-16 0 -16 17l5 720l-5 646q0 17 16 17h436q150 0 259 -44t168.5 -130.5t59.5 -212.5q0 -173 -97.5 -269.5t-268.5 -118.5zM228 1319l-5 -577v-44h371
q175 0 269 76t94 238q0 148 -95.5 227.5t-267.5 79.5h-366z" />
    <glyph glyph-name="S" unicode="S" horiz-adv-x="1194" 
d="M220.5 110.5q-136.5 128.5 -147.5 361.5v2q0 7 4.5 11t11.5 4h72q16 0 18 -16q13 -201 116.5 -304.5t322.5 -103.5q182 0 294.5 80t112.5 245q0 102 -59 160t-145 84.5t-235 53.5q-160 29 -255.5 59t-162 99.5t-66.5 193.5q0 122 61 207.5t168.5 129t246.5 43.5
q239 0 371 -106.5t147 -313.5v-2q0 -15 -16 -15h-72q-17 0 -18 16q-11 171 -111.5 254t-298.5 83q-177 0 -279.5 -73t-102.5 -217q0 -91 55.5 -143t137.5 -76t223 -49q166 -30 266.5 -62.5t171 -108t70.5 -210.5t-66.5 -228.5t-182 -140t-260.5 -46.5q-256 0 -392.5 128.5z
" />
    <glyph glyph-name="T" unicode="T" horiz-adv-x="979" 
d="M452 0q-8 0 -12.5 4.5t-4.5 12.5l7 671l-6 628h-390q-17 0 -17 16v51q0 17 17 17h888q16 0 16 -17v-51q0 -16 -16 -16h-391l-5 -628l6 -671q0 -17 -17 -17h-75z" />
    <glyph glyph-name="U" unicode="U" horiz-adv-x="1212" 
d="M243.5 124.5q-122.5 146.5 -121.5 412.5v487l-3 359q0 17 17 17h74q17 0 17 -17l-3 -358v-488q0 -218 92.5 -346t290.5 -128q199 0 292 127.5t93 346.5v487l-3 359q0 8 4.5 12.5t12.5 4.5h70q17 0 17 -17l-3 -359v-487q0 -267 -121 -413t-362 -146t-363.5 146.5z" />
    <glyph glyph-name="V" unicode="V" horiz-adv-x="1183" 
d="M27 1381q-2 6 -2 7q0 5 4 8.5t11 3.5h79q14 0 19 -13l459 -1299l458 1299q5 13 19 13h69q9 0 12.5 -5.5t0.5 -13.5l-496 -1368q-5 -13 -19 -13h-98q-15 0 -19 13z" />
    <glyph glyph-name="W" unicode="W" horiz-adv-x="1700" 
d="M35 1381v5q0 14 14 14h71q15 0 18 -14l336 -1265l319 1265q4 14 19 14h84q15 0 19 -14l319 -1267l336 1267q3 14 18 14h62q18 0 15 -19l-373 -1367q-4 -14 -19 -14h-84q-15 0 -18 14l-323 1243l-319 -1243q-3 -14 -18 -14h-86q-14 0 -18 14z" />
    <glyph glyph-name="X" unicode="X" horiz-adv-x="1142" 
d="M60 0q-14 0 -14 11q0 5 3 9l461 721l-413 639q-3 5 -3 9q0 11 14 11h85q14 0 20 -11l361 -567l355 567q7 11 20 11h74q14 0 14 -11q0 -4 -3 -9l-402 -642l461 -718q3 -4 3 -9q0 -11 -15 -11h-83q-14 0 -20 11l-412 651l-410 -651q-7 -11 -20 -11h-76z" />
    <glyph glyph-name="Y" unicode="Y" horiz-adv-x="1065" 
d="M30 1380q-3 5 -3 9q0 11 15 11h81q14 0 20 -12l394 -785l395 785q6 12 20 12h72q15 0 15 -11q0 -4 -3 -9l-457 -881l4 -482q0 -8 -4.5 -12.5t-12.5 -4.5h-74q-16 0 -16 17l3 489z" />
    <glyph glyph-name="Z" unicode="Z" horiz-adv-x="1109" 
d="M82 0q-16 0 -16 17v60q0 9 6 21l834 1220h-771q-8 0 -12.5 4.5t-4.5 12.5v48q0 8 4.5 12.5t12.5 4.5h874q8 0 12.5 -4.5t4.5 -12.5v-61q0 -11 -7 -21l-832 -1219h839q8 0 12.5 -4.5t4.5 -12.5v-48q0 -17 -17 -17h-944z" />
    <glyph glyph-name="bracketleft" unicode="[" horiz-adv-x="443" 
d="M131 -280q-17 0 -17 17v1706q0 17 17 17h236q8 0 12.5 -4.5t4.5 -12.5v-48q0 -7 -4.5 -12t-12.5 -5h-158v-1576h158q8 0 12.5 -5t4.5 -12v-48q0 -8 -4.5 -12.5t-12.5 -4.5h-236z" />
    <glyph glyph-name="backslash" unicode="\" horiz-adv-x="592" 
d="M480 -293q-16 0 -19 15l-416 1707v4q0 14 15 14h52q15 0 18 -15l416 -1706l1 -5q0 -7 -4.5 -10.5t-11.5 -3.5h-51z" />
    <glyph glyph-name="bracketright" unicode="]" horiz-adv-x="443" 
d="M76 -280q-16 0 -16 17v48q0 8 4.5 12.5t11.5 4.5h158v1576h-158q-7 0 -11.5 4.5t-4.5 12.5v48q0 17 16 17h237q16 0 16 -17v-1706q0 -17 -16 -17h-237z" />
    <glyph glyph-name="asciicircum" unicode="^" horiz-adv-x="936" 
d="M80 638q-14 0 -14 12l2 8l361 730q6 12 21 12h36q14 0 20 -12l362 -730l2 -8q0 -12 -15 -12h-51q-16 0 -20 13l-316 648l-316 -648q-6 -13 -20 -13h-52z" />
    <glyph glyph-name="underscore" unicode="_" horiz-adv-x="777" 
d="M67 -340q-17 0 -17 17v50q0 17 17 17h643q16 0 16 -17v-50q0 -17 -16 -17h-643z" />
    <glyph glyph-name="grave" unicode="`" horiz-adv-x="665" 
d="M548 1159q-4 -10 -14 -10l-8 2l-410 177q-11 5 -11 14l2 8l20 49q4 10 14 10q5 0 9 -2l400 -200q10 -4 10 -13q0 -6 -2 -9z" />
    <glyph glyph-name="a" unicode="a" horiz-adv-x="1035" 
d="M918 534l5 -517q0 -8 -4.5 -12.5t-12.5 -4.5h-67q-16 0 -16 17l4 200q-49 -112 -137 -173.5t-210 -61.5q-130 0 -223 69.5t-141 190t-48 272.5q0 150 48.5 272t142 193t222.5 71q121 0 209 -58t136 -169l-4 190q0 8 4.5 12.5t12.5 4.5h67q8 0 12.5 -4.5t4.5 -12.5z
M675 107.5q74 51.5 115 153.5t41 251q0 145 -39 249t-113 159.5t-177 55.5q-111 0 -186.5 -59t-112 -161t-36.5 -231q0 -134 36 -240t111 -167.5t186 -61.5q101 0 175 51.5z" />
    <glyph glyph-name="b" unicode="b" horiz-adv-x="1035" 
d="M778 981.5q93 -69.5 141 -190.5t48 -273q0 -150 -48.5 -272.5t-142 -194t-222.5 -71.5q-122 0 -210 59t-136 171l4 -191q0 -17 -16 -17h-67q-17 0 -17 16l5 809l-5 556q0 17 17 17h69q16 0 16 -17l-2 -556q50 107 137 165.5t206 58.5q130 0 223 -69.5zM719 114
q75 59 111.5 161.5t36.5 232.5q0 133 -36 239t-110 167.5t-184 61.5q-100 0 -174.5 -51t-116.5 -153t-42 -251q0 -146 39 -251t113 -160t177 -55q111 0 186 59z" />
    <glyph glyph-name="c" unicode="c" horiz-adv-x="1002" 
d="M273.5 44.5q-101.5 65.5 -153.5 185.5t-52 282t52 283.5t154 188.5t248 67q121 0 210.5 -43.5t141 -123t62.5 -186.5v-4q0 -13 -15 -13h-59q-15 0 -18 16q-21 137 -106.5 208t-215.5 71q-175 0 -263 -123.5t-88 -340.5t87.5 -337.5t261.5 -121.5q143 0 233 81.5
t104 228.5q2 16 17 16h59q8 0 12.5 -4t3.5 -11q-10 -113 -62 -200t-145.5 -136t-222.5 -49q-144 0 -245.5 65.5z" />
    <glyph glyph-name="d" unicode="d" horiz-adv-x="1035" 
d="M918 843l5 -826q0 -8 -4.5 -12.5t-12.5 -4.5h-67q-8 0 -12.5 4.5t-4.5 12.5l4 197q-48 -111 -136.5 -172.5t-209.5 -61.5q-130 0 -223 70t-141 191t-48 273q0 150 48.5 272.5t142 194t222.5 71.5q119 0 206 -56.5t136 -165.5l-3 553q0 8 4.5 12.5t12.5 4.5h69
q8 0 12.5 -4.5t4.5 -12.5zM673.5 105.5q74.5 51.5 116 154t41.5 251.5q0 146 -39 251t-113 161t-177 56q-111 0 -186.5 -59.5t-112 -162.5t-36.5 -233q0 -134 36 -240t111 -168t186 -62q99 0 173.5 51.5z" />
    <glyph glyph-name="e" unicode="e" horiz-adv-x="1032" 
d="M171 520q1 -232 93.5 -349.5t269.5 -117.5q138 0 219.5 77.5t106.5 219.5q3 15 18 15h62q9 0 13 -4.5t3 -12.5q-28 -176 -135 -272.5t-288 -96.5q-149 0 -253.5 66.5t-158 186.5t-53.5 280q0 158 54 280t156.5 190.5t242.5 68.5q135 0 233.5 -60.5t152 -176t56.5 -277.5
q0 -8 -4.5 -12.5t-12.5 -4.5h-775zM279.5 875.5q-88.5 -101.5 -105.5 -279.5h682q-1 108 -39.5 194.5t-114 136.5t-181.5 50q-153 0 -241.5 -101.5z" />
    <glyph glyph-name="f" unicode="f" horiz-adv-x="586" 
d="M219 0q-17 0 -17 17l4 456v480h-150q-7 0 -12 5t-5 12v43q0 8 4.5 12.5t12.5 4.5h150v110q0 103 33 168t84 94t108 30q56 0 101 -13q13 -6 13 -20v-39q0 -8 -5 -11.5t-13 -1.5q-36 8 -78 8q-146 0 -146 -219v-106h224q8 0 12.5 -4.5t4.5 -12.5v-43q0 -7 -4.5 -12
t-12.5 -5h-224v-480l3 -456q0 -17 -17 -17h-70z" />
    <glyph glyph-name="g" unicode="g" horiz-adv-x="1028" 
d="M259.5 69q-94.5 65 -143 180t-48.5 265t48.5 271.5t143.5 192.5t228 71q119 0 205 -60t133 -174l-4 198q0 8 4.5 12.5t12.5 4.5h66q17 0 17 -17l-4 -485l2 -422q1 -241 -109.5 -366.5t-311.5 -125.5q-171 -1 -283.5 75.5t-126.5 232.5v2q0 16 16 16h66q15 0 18 -16
q15 -120 98.5 -177t210.5 -57q158 0 242.5 101.5t84.5 315.5v117q-47 -106 -133 -163t-204 -57q-134 0 -228.5 65zM675.5 123.5q72.5 47.5 113 145.5t40.5 244q0 145 -39 249t-113 159.5t-177 55.5q-108 0 -183 -58.5t-113 -163t-38 -240.5q0 -208 86 -323.5t255 -115.5
q96 0 168.5 47.5z" />
    <glyph glyph-name="h" unicode="h" horiz-adv-x="1000" 
d="M808 949.5q88 -104.5 87 -318.5v-196l3 -418q0 -17 -17 -17h-69q-17 0 -17 17l3 417v194q0 182 -68 265.5t-191 83.5q-110 0 -192 -77t-139 -217l5 -666q0 -17 -17 -17h-68q-8 0 -12.5 4.5t-4.5 12.5l5 700l-5 668q0 7 4.5 11.5t12.5 4.5h68q17 0 17 -16l-5 -568
q51 101 139.5 169t210.5 68q162 0 250 -104.5z" />
    <glyph glyph-name="i" unicode="i" horiz-adv-x="347" 
d="M139 0q-17 0 -17 17l3 528l-3 468q0 17 17 17h69q8 0 12.5 -4.5t4.5 -12.5l-3 -468l3 -528q0 -8 -4.5 -12.5t-12.5 -4.5h-69zM141 1172q-8 0 -12.5 4.5t-4.5 12.5v104q0 17 17 17h68q17 0 17 -17v-104q0 -8 -4.5 -12.5t-12.5 -4.5h-68z" />
    <glyph glyph-name="j" unicode="j" horiz-adv-x="347" 
d="M139 -340q-17 0 -17 17l3 636l-3 700q0 17 17 17h69q8 0 12.5 -4.5t4.5 -12.5l-3 -700l3 -636q0 -8 -4.5 -12.5t-12.5 -4.5h-69zM141 1172q-8 0 -12.5 4.5t-4.5 12.5v104q0 17 17 17h68q17 0 17 -17v-104q0 -8 -4.5 -12.5t-12.5 -4.5h-68z" />
    <glyph glyph-name="k" unicode="k" horiz-adv-x="863" 
d="M821 19q3 -4 3 -9t-3.5 -8t-10.5 -3h-82q-13 0 -19 11l-351 576l-147 -150l3 -421q0 -8 -4.5 -12.5t-12.5 -4.5h-68q-17 0 -17 17l5 675l-5 693q0 17 17 17h68q8 0 12.5 -4.5t4.5 -12.5l-5 -692l1 -147l459 477q6 9 20 9h82q14 0 14 -10q0 -5 -6 -11l-349 -351z" />
    <glyph glyph-name="l" unicode="l" horiz-adv-x="346" 
d="M139 0q-17 0 -17 17l5 698l-5 668q0 17 17 17h68q8 0 12.5 -4.5t4.5 -12.5l-5 -664l5 -702q0 -8 -4.5 -12.5t-12.5 -4.5h-68z" />
    <glyph glyph-name="m" unicode="m" horiz-adv-x="1595" 
d="M1490 431l3 -414q0 -8 -4.5 -12.5t-12.5 -4.5h-70q-16 0 -16 17l3 414v197q0 182 -63.5 263.5t-179.5 81.5q-98 0 -170 -70t-125 -202q4 -33 4 -82v-188l3 -414v-2q0 -7 -4.5 -11t-11.5 -4h-70q-16 0 -16 17l3 414v197q0 182 -63.5 263.5t-179.5 81.5q-104 0 -179 -78.5
t-129 -224.5v-239l3 -414v-2q0 -7 -4.5 -11t-11.5 -4h-70q-17 0 -17 17l5 414l-4 582q0 17 16 17h67q17 0 17 -17l-4 -198q50 103 133 171t200 68q115 0 190.5 -59t106.5 -179q52 105 135.5 171.5t197.5 66.5q153 0 235.5 -103t82.5 -314v-206z" />
    <glyph glyph-name="n" unicode="n" horiz-adv-x="1001" 
d="M895 441l3 -424q0 -17 -17 -17h-68q-17 0 -17 17l3 424v187q0 345 -260 345q-216 0 -326 -303v-229l2 -424q0 -17 -17 -17h-69q-16 0 -16 17l4 433l-4 563q0 17 17 17h66q17 0 17 -17l-4 -198q50 101 138.5 170t211.5 69q160 0 248 -104.5t88 -312.5v-196z" />
    <glyph glyph-name="o" unicode="o" horiz-adv-x="1057" 
d="M279 45q-104 66 -157.5 186.5t-53.5 282.5q0 161 54 282.5t157.5 188t249.5 66.5t249.5 -66.5t157 -187.5t53.5 -282q0 -162 -53.5 -282.5t-157 -187t-249.5 -66.5t-250 66zM794.5 175.5q90.5 122.5 90.5 338.5q0 215 -91 339t-265 124q-175 -1 -266 -124.5t-91 -339.5
q0 -215 91.5 -337.5t265.5 -122.5q175 0 265.5 122.5z" />
    <glyph glyph-name="p" unicode="p" horiz-adv-x="1035" 
d="M778 982q93 -70 141 -191t48 -273q0 -150 -48.5 -272.5t-142 -194t-222.5 -71.5q-120 0 -207 57.5t-135 166.5l3 -527q0 -17 -17 -17h-69q-17 0 -17 17l5 799l-5 537q0 17 17 17h67q16 0 16 -17l-4 -196q49 111 138 173t209 62q130 0 223 -70zM719 114q75 59 111.5 161
t36.5 232q0 135 -36 241t-110.5 167.5t-185.5 61.5q-100 0 -174.5 -52t-115.5 -154.5t-41 -250.5q0 -146 39 -250.5t113 -159.5t177 -55q111 0 186 59z" />
    <glyph glyph-name="q" unicode="q" horiz-adv-x="1035" 
d="M690.5 988.5q87.5 -58.5 135.5 -170.5l-4 195q0 8 4.5 12.5t12.5 4.5h67q8 0 12.5 -4.5t4.5 -12.5l-5 -561l5 -775q0 -8 -4.5 -12.5t-12.5 -4.5h-69q-8 0 -12.5 4.5t-4.5 12.5l3 530q-48 -105 -135.5 -163.5t-207.5 -58.5q-130 0 -223 69t-141 189t-48 271
q0 149 48.5 270t142 192t222.5 71q122 0 209.5 -58.5zM673.5 110q74.5 51 116 152.5t41.5 248.5q0 144 -39 248t-113 159t-177 55q-111 0 -186.5 -58.5t-112 -160t-36.5 -230.5q0 -132 36 -237t111 -166.5t186 -61.5q99 0 173.5 51z" />
    <glyph glyph-name="r" unicode="r" horiz-adv-x="659" 
d="M129 0q-17 0 -17 17l5 516l-5 480q0 17 17 17h68q8 0 12.5 -4.5t3.5 -12.5l-6 -195q50 107 140.5 165t197.5 58q43 0 72 -7q7 -1 10.5 -6.5t3.5 -12.5v-47q0 -8 -5 -12t-14 -3q-27 7 -74 7q-75 0 -141.5 -33t-116 -102t-70.5 -172l4 -636q0 -17 -17 -17h-68z" />
    <glyph glyph-name="s" unicode="s" horiz-adv-x="952" 
d="M180.5 72.5q-112.5 93.5 -117.5 278.5q0 16 17 16h62q16 0 16 -16q10 -299 334 -299q89 0 157.5 26.5t107 77t38.5 120.5q0 75 -44.5 118t-110.5 62.5t-177 38.5q-125 22 -199.5 45.5t-126.5 78t-52 151.5q0 90 47.5 153t133 95.5t196.5 32.5t199.5 -33t141.5 -102
t58 -172q0 -17 -17 -17h-59q-17 0 -17 17q-7 120 -90.5 177.5t-215.5 57.5q-131 0 -206 -52.5t-75 -153.5q0 -66 41.5 -103.5t103 -55t166.5 -35.5q129 -22 208.5 -46.5t135 -84.5t55.5 -168q0 -92 -52.5 -160.5t-143 -104.5t-203.5 -36q-199 0 -311.5 93.5z" />
    <glyph glyph-name="t" unicode="t" horiz-adv-x="589" 
d="M250 50q-62 65 -62 218v683h-116q-16 0 -16 17v45q0 17 16 17h116l-2 241q0 17 16 17h69q17 0 17 -17l-2 -241h243q16 0 16 -17v-45q0 -17 -16 -17h-244v-114l1 -568q0 -78 14 -121.5t44.5 -62t83.5 -18.5q55 0 98 8q2 1 6 1q13 0 13 -15v-43q0 -15 -11 -17
q-73 -16 -113 -16q-109 0 -171 65z" />
    <glyph glyph-name="u" unicode="u" horiz-adv-x="1001" 
d="M193 80.5q-88 104.5 -88 312.5v196l-2 424q0 17 16 17h69q8 0 12.5 -4.5t4.5 -12.5l-3 -424v-187q0 -345 260 -345q216 0 326 303v229l-3 424q0 8 4.5 12.5t12.5 4.5h69q17 0 17 -17l-5 -433l4 -563q0 -17 -16 -17h-67q-16 0 -16 17l4 198q-50 -101 -139 -170t-212 -69
q-160 0 -248 104.5z" />
    <glyph glyph-name="v" unicode="v" horiz-adv-x="936" 
d="M26 1011q-1 3 -1 7q0 12 14 12h76q14 0 18 -13l342 -934l337 934q5 13 19 13h66q9 0 13 -5.5t0 -13.5l-370 -1000q-6 -13 -19 -13h-95q-13 0 -19 13z" />
    <glyph glyph-name="w" unicode="w" horiz-adv-x="1378" 
d="M34 1011q-1 2 -1 6q0 13 15 13h67q16 0 19 -14l260 -918l238 918q3 14 18 14h87q14 0 18 -14l254 -913l243 913q3 14 18 14h60q9 0 12.5 -5.5t1.5 -13.5l-276 -997q-4 -14 -19 -14h-85q-15 0 -18 14l-259 929l-234 -929q-4 -14 -19 -14h-83q-14 0 -19 14z" />
    <glyph glyph-name="x" unicode="x" horiz-adv-x="904" 
d="M48 0q-15 0 -15 11q0 3 4 9l352 524l-316 466q-4 6 -4 9q0 11 15 11h79q15 0 20 -11l273 -407l268 407q6 11 20 11h68q14 0 14 -11q0 -4 -3 -9l-308 -466l353 -524q3 -4 3 -9q0 -11 -14 -11h-78q-14 0 -20 11l-310 464l-310 -464q-7 -11 -21 -11h-70z" />
    <glyph glyph-name="y" unicode="y" horiz-adv-x="897" 
d="M768 1016q5 14 19 14h71q9 0 13 -5.5t1 -13.5l-469 -1337q-4 -14 -19 -14h-60q-9 0 -12.5 5.5t-0.5 13.5l116 323l-401 1009q-1 3 -1 7q0 12 14 12h78q13 0 19 -13l338 -878z" />
    <glyph glyph-name="z" unicode="z" horiz-adv-x="883" 
d="M74 0q-17 0 -17 17v53q0 10 6 20l623 861h-569q-16 0 -16 17v45q0 17 16 17h671q17 0 17 -17v-50q0 -9 -6 -20l-627 -864h638q8 0 12.5 -4.5t4.5 -12.5v-45q0 -8 -4.5 -12.5t-12.5 -4.5h-736z" />
    <glyph glyph-name="braceleft" unicode="{" horiz-adv-x="461" 
d="M336 1378q-57 0 -83.5 -23t-26.5 -77q0 -48 21 -128l92 -372q11 -42 11 -72q0 -46 -23.5 -74.5t-74.5 -41.5q97 -24 97 -117q0 -34 -10 -71l-84 -348q-25 -103 -25 -153q0 -55 25 -77t81 -22h41q7 0 11.5 -4.5t4.5 -12.5v-48q0 -17 -16 -17h-43q-99 0 -148 44t-49 138
q0 62 23 154l84 346q14 54 14 80q0 33 -21 49.5t-73 16.5h-30q-17 0 -17 17v50q0 8 4.5 12.5t12.5 4.5h30q52 0 73 16.5t21 49.5q0 26 -14 80l-92 372q-18 71 -18 123q0 94 52 140.5t148 46.5h43q16 0 16 -17v-48q0 -8 -4.5 -12.5t-11.5 -4.5h-41z" />
    <glyph glyph-name="bar" unicode="|" horiz-adv-x="197" 
d="M72 -280q-8 0 -12.5 4.5t-4.5 12.5v1706q0 8 4.5 12.5t12.5 4.5h53q16 0 16 -17v-1706q0 -17 -16 -17h-53z" />
    <glyph glyph-name="braceright" unicode="}" horiz-adv-x="461" 
d="M344 565q0 -17 -17 -17h-29q-52 0 -73.5 -16.5t-21.5 -49.5q0 -26 14 -80l84 -346q23 -92 23 -154q0 -94 -49 -138t-148 -44h-43q-16 0 -16 17v48q0 8 4.5 12.5t11.5 4.5h41q56 0 81 22t25 77q0 50 -25 153l-84 348q-10 43 -10 71q0 93 97 117q-51 13 -74.5 41.5
t-23.5 74.5q0 30 11 72l92 372q21 80 21 128q0 54 -26.5 77t-83.5 23h-41q-7 0 -11.5 4.5t-4.5 12.5v48q0 17 16 17h43q96 0 148 -46.5t52 -139.5q0 -53 -18 -124l-92 -372q-14 -52 -14 -80q0 -33 21.5 -49.5t73.5 -16.5h29q17 0 17 -17v-50z" />
    <glyph glyph-name="asciitilde" unicode="~" horiz-adv-x="944" 
d="M74 603q-17 0 -17 17q4 160 62.5 258.5t165.5 98.5q49 0 88.5 -24.5t68 -59.5t65.5 -91q43 -67 75 -100t73 -33q75 0 112 74.5t39 200.5q0 8 4.5 12.5t12.5 4.5h48q16 0 16 -17q-2 -159 -60.5 -256.5t-169.5 -97.5q-48 0 -86 23.5t-65.5 57.5t-62.5 89q-32 48 -52.5 74.5
t-47 45t-58.5 18.5q-73 0 -109 -74t-38 -204q0 -17 -16 -17h-48z" />
    <glyph glyph-name="exclamdown" unicode="&#xa1;" horiz-adv-x="367" 
d="M228 1030q17 0 17 -17v-108q0 -17 -17 -17h-89q-17 0 -17 17v108q0 17 17 17h89zM217 658q7 0 11.5 -4.5t4.5 -12.5v-994q0 -17 -16 -17h-68q-8 0 -12.5 4.5t-4.5 12.5v994q0 8 5 12.5t12 4.5h68z" />
    <glyph glyph-name="cent" unicode="&#xa2;" horiz-adv-x="1006" 
d="M937 579q8 0 13 -4t4 -11q-9 -104 -54 -186t-124.5 -133t-188.5 -63v-165q0 -8 -4.5 -12.5t-12.5 -4.5h-65q-17 0 -17 17v163q-134 8 -227 76t-140.5 184.5t-47.5 271.5t47.5 273t140.5 187t227 78v150q0 17 17 17h65q8 0 12.5 -4.5t4.5 -12.5v-152q155 -16 247 -109
t107 -241v-4q0 -13 -16 -13h-58q-8 0 -12.5 4.5t-5.5 11.5q-22 137 -107.5 208t-215.5 71q-174 0 -262 -123.5t-88 -340.5t87 -337.5t262 -121.5q142 0 232 81.5t104 228.5q2 16 17 16h59z" />
    <glyph glyph-name="sterling" unicode="&#xa3;" horiz-adv-x="1077" 
d="M1006 403q17 0 17 -19q-5 -214 -108.5 -312.5t-301.5 -91.5l-566 19q-8 0 -12.5 5t-4.5 13v41q0 13 13 19l45 18q102 40 146 101t45 142q0 61 -16 129t-49 175h-186q-7 0 -12 5t-5 12v45q0 8 4.5 12.5t12.5 4.5h163q-26 87 -41 159t-15 139q0 115 51.5 206.5t144.5 143
t213 51.5q187 0 295.5 -113t131.5 -309v-2q0 -15 -16 -15h-68q-16 0 -17 16q-18 155 -101 247.5t-226 92.5q-90 0 -159.5 -42t-108 -114.5t-38.5 -161.5q0 -62 15.5 -133t43.5 -165h345q16 0 16 -17v-45q0 -8 -4.5 -12.5t-11.5 -4.5h-323q29 -96 44 -166t15 -132
q0 -87 -51 -157t-145 -105l428 -19q112 -4 179 30t98 106t33 187q0 17 17 17h70z" />
    <glyph glyph-name="currency" unicode="&#xa4;" horiz-adv-x="943" 
d="M875 292q5 -7 5 -11q0 -6 -6 -12l-34 -33q-6 -6 -11 -6q-6 0 -12 6l-154 168q-39 -37 -88 -57t-103 -20t-102.5 19.5t-87.5 55.5l-156 -166q-4 -6 -11 -6q-6 0 -12 6l-34 33q-6 6 -6 12q0 4 5 11l159 170q-66 96 -66 224q0 64 17 122t49 104l-142 156q-5 7 -5 12t5 12
l34 34q6 6 12 6t11 -6l141 -154q39 35 87 54t102 19q55 0 105 -21t90 -59l150 161q6 6 13 6q6 0 11 -6l34 -34q5 -7 5 -12t-5 -12l-153 -164q61 -96 61 -218q0 -63 -17 -120t-48 -103zM589 438q52 37 82 102t30 146q0 84 -29.5 149t-82 100.5t-117.5 35.5q-67 0 -119 -35.5
t-81 -100.5t-29 -149q0 -82 29 -147t81 -101.5t119 -36.5q65 0 117 37z" />
    <glyph glyph-name="yen" unicode="&#xa5;" horiz-adv-x="1092" 
d="M592 568v-66h374q8 0 12.5 -4.5t4.5 -11.5v-50q0 -7 -4.5 -12t-12.5 -5h-373l1 -136h372q8 0 12.5 -4.5t4.5 -12.5v-50q0 -7 -4.5 -11.5t-12.5 -4.5h-371l1 -183q0 -17 -16 -17h-75q-16 0 -16 17l1 183h-362q-17 0 -17 16v50q0 8 4.5 12.5t12.5 4.5h363l1 136h-364
q-8 0 -12.5 4.5t-4.5 12.5v50q0 16 17 16h364l1 72l-449 806q-3 5 -3 9q0 11 15 11h82q13 0 19 -12l393 -727l395 727q8 12 20 12h71q15 0 15 -11q0 -4 -3 -9z" />
    <glyph glyph-name="brokenbar" unicode="&#xa6;" horiz-adv-x="197" 
d="M72 720q-8 0 -12.5 4.5t-4.5 12.5v706q0 8 4.5 12.5t12.5 4.5h53q16 0 16 -17v-706q0 -17 -16 -17h-53zM72 -280q-8 0 -12.5 4.5t-4.5 12.5v706q0 8 4.5 12.5t12.5 4.5h53q16 0 16 -17v-706q0 -17 -16 -17h-53z" />
    <glyph glyph-name="section" unicode="&#xa7;" horiz-adv-x="1091" 
d="M864 162q64 -40 103 -102.5t39 -151.5q0 -99 -58.5 -172.5t-160 -112.5t-226.5 -39q-219 0 -344 97.5t-131 291.5q0 17 17 17h61q17 0 17 -17q10 -317 380 -317q102 0 181 28.5t123.5 83t44.5 130.5q0 81 -49.5 134.5t-124 85t-196.5 67.5q-144 42 -228.5 77t-144 100
t-59.5 169q0 113 73.5 186t201.5 98q-131 46 -203 111t-72 177q0 99 53.5 168t149 104t220.5 35t223.5 -35t157.5 -108.5t64 -182.5q0 -17 -17 -17h-60q-16 0 -17 16q-7 130 -102.5 192.5t-248.5 62.5t-240 -57t-87 -168q0 -68 45.5 -113.5t114.5 -73.5t184 -61
q151 -42 240.5 -78t153.5 -104.5t64 -178.5q0 -103 -81 -173.5t-215 -96.5q90 -32 154 -72zM250 414.5q46 -46.5 115 -74t186 -60.5l27 -8q154 7 243 65.5t89 156.5q0 82 -53.5 134.5t-129 81t-213.5 66.5q-149 -6 -229.5 -68.5t-80.5 -175.5q0 -71 46 -117.5z" />
    <glyph glyph-name="dieresis" unicode="&#xa8;" horiz-adv-x="552" 
d="M117 1172q-8 0 -12.5 4.5t-4.5 12.5v104q0 17 17 17h73q8 0 12.5 -4.5t4.5 -12.5v-104q0 -7 -5 -12t-12 -5h-73zM362 1172q-8 0 -12.5 5t-4.5 12v104q0 8 4.5 12.5t12.5 4.5h73q8 0 12.5 -4.5t4.5 -12.5v-104q0 -7 -5 -12t-12 -5h-73z" />
    <glyph glyph-name="copyright" unicode="&#xa9;" horiz-adv-x="1452" 
d="M387.5 66q-145.5 88 -225 251.5t-79.5 383.5q0 221 79.5 384t225.5 250t339 87q192 0 337 -87t224.5 -250.5t79.5 -385.5q0 -220 -80 -383t-225.5 -250.5t-337.5 -87.5t-337.5 88zM1028.5 121.5q128.5 78.5 197.5 226.5t69 351q0 204 -69 352t-197.5 227t-303.5 79
t-303.5 -79t-197.5 -227.5t-69 -351.5q0 -202 69.5 -350t198 -227t302.5 -79q175 0 303.5 78.5zM440 359.5q-104 120.5 -104 346.5q0 141 48 244.5t138.5 158.5t214.5 55q137 0 231.5 -72.5t122.5 -228.5l1 -5q0 -13 -16 -13h-47q-15 0 -18 15q-21 121 -95 178.5t-181 57.5
q-98 0 -169.5 -49t-109 -137.5t-37.5 -204.5q0 -199 82.5 -298.5t233.5 -99.5q119 0 195 65.5t88 188.5q2 17 17 17h48q8 0 12.5 -5t3.5 -14q-18 -154 -114.5 -237t-248.5 -83q-192 0 -296 120.5z" />
    <glyph glyph-name="ordfeminine" unicode="&#xaa;" horiz-adv-x="832" 
d="M744 1032l3 -370q0 -8 -4.5 -12.5t-12.5 -4.5h-58q-17 0 -17 17l2 116q-41 -71 -107.5 -108.5t-157.5 -37.5q-103 0 -176.5 51t-111.5 140t-38 202q0 111 38.5 200.5t112.5 142t176 52.5q90 0 157 -36.5t107 -107.5l-2 112q0 17 16 17h59q8 0 12.5 -4.5t4.5 -12.5z
M594 782q67 84 67 243q0 154 -66 240t-182 87q-125 0 -188.5 -89.5t-63.5 -231.5q0 -147 63 -240t186 -93q117 0 184 84z" />
    <glyph glyph-name="guillemotleft" unicode="&#xab;" horiz-adv-x="720" 
d="M275 248q-12 0 -19 10l-209 328q-4 8 -4 11q0 4 4 12l208 304q7 11 20 11h53q15 0 15 -11q0 -3 -4 -9l-210 -306l210 -330q3 -6 3 -10q0 -10 -13 -10h-54zM577 248q-12 0 -19 10l-209 328q-4 8 -4 11q0 4 4 12l208 304q7 11 20 11h53q15 0 15 -11q0 -3 -4 -9l-210 -306
l210 -330q3 -6 3 -10q0 -10 -13 -10h-54z" />
    <glyph glyph-name="logicalnot" unicode="&#xac;" horiz-adv-x="953" 
d="M57 646q-16 0 -16 17v52q0 17 16 17h841q16 0 16 -17v-484q0 -17 -16 -17h-54q-17 0 -17 17v415h-770z" />
    <glyph glyph-name="registered" unicode="&#xae;" horiz-adv-x="698" 
d="M197 838q-66 38 -102.5 108.5t-36.5 165.5q0 96 36.5 166.5t102.5 108t153 37.5q88 0 153.5 -37.5t101 -108t35.5 -166.5q0 -95 -35.5 -165.5t-101.5 -108.5t-153 -38t-153 38zM530 911.5q65 72.5 65 200.5t-65 201t-180 73q-75 0 -131 -33.5t-86.5 -95t-30.5 -145.5
q0 -128 66.5 -200.5t181.5 -72.5t180 72.5zM232 916q-7 0 -11.5 4.5t-4.5 12.5v358q0 17 16 17h117q70 0 110.5 -29t40.5 -84q0 -46 -26.5 -74t-73.5 -37l95 -148q3 -4 3 -9q0 -11 -13 -11h-23q-14 0 -20 11l-97 152h-82l4 -146q0 -8 -4.5 -12.5t-12.5 -4.5h-18zM267 1270
l-4 -150h90q97 0 97 73q0 38 -25 57.5t-72 19.5h-86z" />
    <glyph glyph-name="macron" unicode="&#xaf;" horiz-adv-x="735" 
d="M117 1211q-17 0 -17 17v46q0 16 17 16h501q17 0 17 -16v-46q0 -17 -17 -17h-501z" />
    <glyph glyph-name="macron" unicode="&#x2c9;" horiz-adv-x="735" 
d="M117 1211q-17 0 -17 17v46q0 16 17 16h501q17 0 17 -16v-46q0 -17 -17 -17h-501z" />
    <glyph glyph-name="degree" unicode="&#xb0;" horiz-adv-x="659" 
d="M191 918q-63 36 -99 98t-36 137q0 76 35.5 137.5t98.5 97t140 35.5t139.5 -35.5t98 -97.5t35.5 -137t-36 -137t-98.5 -98t-138.5 -36t-139 36zM432 974.5q46 26.5 72 73t26 105.5q0 61 -26 107.5t-71.5 72t-102.5 25.5q-59 0 -104.5 -25.5t-70.5 -72t-25 -107.5
q0 -59 25 -106t70.5 -73t104.5 -26q56 0 102 26.5z" />
    <glyph glyph-name="plusminus" unicode="&#xb1;" horiz-adv-x="949" 
d="M894 744q16 0 16 -17v-52q0 -17 -16 -17h-375v-415q0 -17 -17 -17h-54q-16 0 -16 17v415h-377q-8 0 -12.5 4.5t-4.5 12.5v52q0 8 4.5 12.5t12.5 4.5h377v417q0 17 16 17h54q17 0 17 -17v-417h375zM55 0q-8 0 -12.5 4.5t-4.5 12.5v52q0 8 4.5 12.5t12.5 4.5h839
q16 0 16 -17v-52q0 -17 -16 -17h-839z" />
    <glyph glyph-name="two.sups" unicode="&#xb2;" horiz-adv-x="564" 
d="M80 689q-7 0 -11.5 4.5t-4.5 12.5v73q0 69 29 116.5t70.5 76.5t109.5 64q54 28 85.5 48.5t52.5 50.5t21 71q2 63 -34 103.5t-106 40.5q-73 0 -113.5 -44.5t-44.5 -130.5q-1 -16 -18 -16h-38q-8 0 -12.5 4.5t-3.5 12.5q5 115 61.5 175t163.5 60q103 0 161 -54.5t60 -149.5
q0 -61 -27 -103.5t-66.5 -69t-104.5 -60.5q-58 -30 -91.5 -52t-56.5 -55t-23 -79v-37h346q7 0 11.5 -4.5t4.5 -12.5v-28q0 -8 -4.5 -12.5t-11.5 -4.5h-405z" />
    <glyph glyph-name="three.sups" unicode="&#xb3;" horiz-adv-x="601" 
d="M127.5 734q-59.5 55 -68.5 161v2q0 16 16 16h46q15 0 17 -17q10 -159 153 -159q81 0 122.5 43.5t42.5 118.5q0 70 -43 106t-126 36h-34q-17 0 -17 16v23q0 8 4.5 12.5t12.5 4.5h34q76 0 115 33t39 91q0 62 -39 97t-100 35q-143 0 -155 -152q-1 -16 -17 -16h-44
q-8 0 -12 4.5t-3 12.5q7 101 70 154.5t164 53.5q61 0 109.5 -22t76.5 -63t28 -97q0 -115 -124 -155q67 -14 104.5 -59t37.5 -113q0 -65 -30.5 -115.5t-86 -78.5t-128.5 -28q-105 0 -164.5 55z" />
    <glyph glyph-name="acute" unicode="&#xb4;" horiz-adv-x="665" 
d="M139 1151q-6 -2 -8 -2q-7 0 -14 10l-9 24q-3 5 -3 9q0 9 10 13l401 200q5 3 9 3q8 0 13 -10l19 -48q2 -4 2 -9q0 -9 -10 -13z" />
    <glyph glyph-name="uni03BC" unicode="&#xb5;" horiz-adv-x="1010" 
d="M211 402q0 -345 260 -345q216 0 326 303v229l-2 425q0 16 17 16h69q8 0 12.5 -4.5t4.5 -11.5l-5 -433l4 -564q0 -8 -4.5 -12.5t-12.5 -4.5h-66q-7 0 -12 5t-5 12l4 198q-50 -101 -138.5 -170t-211.5 -69q-163 0 -239 120l2 -419q0 -17 -16 -17h-69q-8 0 -12.5 4.5
t-4.5 12.5l3 912l-3 425q0 7 4.5 11.5t12.5 4.5h69q16 0 16 -16l-3 -425v-187z" />
    <glyph glyph-name="uni03BC" unicode="&#x3bc;" horiz-adv-x="1010" 
d="M211 402q0 -345 260 -345q216 0 326 303v229l-2 425q0 16 17 16h69q8 0 12.5 -4.5t4.5 -11.5l-5 -433l4 -564q0 -8 -4.5 -12.5t-12.5 -4.5h-66q-7 0 -12 5t-5 12l4 198q-50 -101 -138.5 -170t-211.5 -69q-163 0 -239 120l2 -419q0 -17 -16 -17h-69q-8 0 -12.5 4.5
t-4.5 12.5l3 912l-3 425q0 7 4.5 11.5t12.5 4.5h69q16 0 16 -16l-3 -425v-187z" />
    <glyph glyph-name="paragraph" unicode="&#xb6;" horiz-adv-x="1198" 
d="M1086 372l6 -746q0 -8 -4.5 -12.5t-12.5 -4.5h-74q-8 0 -12.5 4.5t-4.5 12.5l5 701v251h-288l-3 -252l5 -700q0 -8 -4.5 -12.5t-12.5 -4.5h-74q-17 0 -17 17l5 700v252h-56q-140 0 -245 44.5t-164 138t-59 233.5q0 132 58.5 223t165.5 137t251 46h524q8 0 12.5 -4.5
t4.5 -12.5z" />
    <glyph glyph-name="periodcentered" unicode="&#xb7;" horiz-adv-x="259" 
d="M84 528q-17 0 -17 17v108q0 8 5 12.5t12 4.5h92q7 0 11.5 -4.5t4.5 -12.5v-108q0 -17 -16 -17h-92z" />
    <glyph glyph-name="periodcentered" unicode="&#x2219;" horiz-adv-x="259" 
d="M84 528q-17 0 -17 17v108q0 8 5 12.5t12 4.5h92q7 0 11.5 -4.5t4.5 -12.5v-108q0 -17 -16 -17h-92z" />
    <glyph glyph-name="cedilla" unicode="&#xb8;" horiz-adv-x="391" 
d="M198 -317q-5 -15 -21 -11l-61 15q-16 5 -10 21l112 302q4 12 14 12q2 0 8 -2l37 -9q13 -7 10 -22z" />
    <glyph glyph-name="one.sups" unicode="&#xb9;" horiz-adv-x="403" 
d="M220 689q-8 0 -12.5 4.5t-4.5 12.5l3 332l-1 274q-52 -48 -134 -78q-3 -1 -7 -1q-6 0 -9.5 4t-3.5 11v29q0 14 13 20q41 16 76.5 40.5t58.5 52.5q9 10 20 10h51q16 0 16 -17l-3 -356l3 -321q0 -8 -4.5 -12.5t-12.5 -4.5h-49z" />
    <glyph glyph-name="ordmasculine" unicode="&#xba;" horiz-adv-x="813" 
d="M222 677.5q-77 48.5 -116.5 138t-39.5 208.5t39.5 208.5t116.5 139t185 49.5t184.5 -49t116 -138.5t39.5 -208.5t-39.5 -208.5t-116 -138.5t-184.5 -49t-185 48.5zM589.5 784q62.5 87 62.5 240t-63 241t-183 88q-119 -1 -182 -89t-63 -241q0 -152 63.5 -239t182.5 -87
q120 0 182.5 87z" />
    <glyph glyph-name="guillemotright" unicode="&#xbb;" horiz-adv-x="720" 
d="M89 248q-14 0 -14 10q0 4 3 10l210 330l-210 306q-3 5 -3 9q0 11 14 11h53q15 0 20 -11l208 -304q4 -5 4 -12q0 -6 -4 -11l-208 -328q-7 -10 -20 -10h-53zM391 248q-14 0 -14 10q0 4 3 10l210 330l-210 306q-3 5 -3 9q0 11 14 11h53q15 0 20 -11l208 -304q4 -5 4 -12
q0 -6 -4 -11l-208 -328q-7 -10 -20 -10h-53z" />
    <glyph glyph-name="onequarter" unicode="&#xbc;" horiz-adv-x="1163" 
d="M220 689q-8 0 -12.5 4.5t-4.5 12.5l3 332l-1 274q-52 -48 -134 -78q-3 -1 -7 -1q-6 0 -9.5 4t-3.5 11v29q0 14 13 20q41 16 76.5 40.5t58.5 52.5q9 10 20 10h51q16 0 16 -17l-3 -356l3 -321q0 -8 -4.5 -12.5t-12.5 -4.5h-49zM113 0q-14 0 -14 11q0 5 3 9l757 1368
q6 12 20 12h46q7 0 11 -3t4 -8q0 -4 -3 -9l-757 -1368q-6 -12 -20 -12h-47zM1093 264q8 0 12.5 -4.5t4.5 -12.5v-28q0 -7 -4.5 -11.5t-12.5 -4.5h-57v-186q0 -8 -4.5 -12.5t-12.5 -4.5h-46q-7 0 -11.5 4.5t-4.5 12.5v186h-317q-16 0 -16 16v37q0 9 6 21l286 424q7 10 20 10
h83q17 0 17 -17v-430h57zM957 264v277l2 112l-263 -389h261z" />
    <glyph glyph-name="onehalf" unicode="&#xbd;" horiz-adv-x="1218" 
d="M220 689q-8 0 -12.5 4.5t-4.5 12.5l3 332l-1 274q-52 -48 -134 -78q-3 -1 -7 -1q-6 0 -9.5 4t-3.5 11v29q0 14 13 20q41 16 76.5 40.5t58.5 52.5q9 10 20 10h51q16 0 16 -17l-3 -356l3 -321q0 -8 -4.5 -12.5t-12.5 -4.5h-49zM125 0q-14 0 -14 11q0 5 3 9l757 1368
q6 12 20 12h46q7 0 11 -3t4 -8q0 -4 -3 -9l-757 -1368q-6 -12 -20 -12h-47zM734 0q-7 0 -11.5 4.5t-4.5 12.5v73q0 69 29 116.5t70.5 76.5t109.5 64q54 28 85.5 48.5t52.5 50.5t21 71q2 63 -34 103.5t-106 40.5q-73 0 -113.5 -44.5t-44.5 -130.5q-1 -16 -18 -16h-38
q-8 0 -12.5 4.5t-3.5 12.5q5 115 61.5 175t163.5 60q103 0 161 -54.5t60 -149.5q0 -61 -27 -103.5t-66.5 -69t-104.5 -60.5q-58 -30 -91.5 -52t-56.5 -55t-23 -79v-37h346q7 0 11.5 -4.5t4.5 -12.5v-28q0 -8 -4.5 -12.5t-11.5 -4.5h-405z" />
    <glyph glyph-name="threequarters" unicode="&#xbe;" horiz-adv-x="1353" 
d="M127.5 734q-59.5 55 -68.5 161v2q0 16 16 16h46q15 0 17 -17q10 -159 153 -159q81 0 122.5 43.5t42.5 118.5q0 70 -43 106t-126 36h-34q-17 0 -17 16v23q0 8 4.5 12.5t12.5 4.5h34q76 0 115 33t39 91q0 62 -39 97t-100 35q-143 0 -155 -152q-1 -16 -17 -16h-44
q-8 0 -12 4.5t-3 12.5q7 101 70 154.5t164 53.5q61 0 109.5 -22t76.5 -63t28 -97q0 -115 -124 -155q67 -14 104.5 -59t37.5 -113q0 -65 -30.5 -115.5t-86 -78.5t-128.5 -28q-105 0 -164.5 55zM316 0q-14 0 -14 11q0 5 3 9l757 1368q6 12 20 12h46q7 0 11 -3t4 -8q0 -4 -3 -9
l-757 -1368q-6 -12 -20 -12h-47zM1283 264q8 0 12.5 -4.5t4.5 -12.5v-28q0 -7 -4.5 -11.5t-12.5 -4.5h-57v-186q0 -8 -4.5 -12.5t-12.5 -4.5h-46q-7 0 -11.5 4.5t-4.5 12.5v186h-317q-16 0 -16 16v37q0 9 6 21l286 424q7 10 20 10h83q17 0 17 -17v-430h57zM1147 264v277
l2 112l-263 -389h261z" />
    <glyph glyph-name="questiondown" unicode="&#xbf;" horiz-adv-x="929" 
d="M519 1030q8 0 12.5 -4.5t4.5 -12.5v-108q0 -8 -4.5 -12.5t-12.5 -4.5h-91q-16 0 -16 17v108q0 17 16 17h91zM505 658q8 0 12.5 -5t4.5 -13q-2 -98 -31.5 -172.5t-69.5 -125t-104 -114.5q-53 -54 -82.5 -90t-49.5 -82.5t-20 -104.5q0 -82 38 -140.5t106.5 -88.5t157.5 -30
q159 0 235.5 84t82.5 255q2 17 17 17h65q8 0 12.5 -4.5t3.5 -12.5q-9 -204 -117.5 -311.5t-303.5 -107.5q-113 0 -202 40.5t-140 118.5t-51 186q0 72 22.5 127.5t55.5 95.5t89 96q60 60 96 105t62.5 109.5t28.5 150.5q2 17 17 17h65z" />
    <glyph glyph-name="Agrave" unicode="&#xc0;" horiz-adv-x="1192" 
d="M1166 19q1 -2 1 -6q0 -6 -4 -9.5t-11 -3.5h-75q-14 0 -19 13l-164 458h-602l-163 -458q-5 -13 -19 -13h-70q-9 0 -13 5.5t0 13.5l501 1368q4 13 19 13h100q15 0 19 -13zM866 556l-273 764l-273 -764h546zM766 1529q-4 -10 -14 -10l-8 2l-410 177q-11 5 -11 14l2 8l20 49
q4 10 14 10q5 0 9 -2l400 -200q10 -4 10 -13q0 -6 -2 -9z" />
    <glyph glyph-name="Aacute" unicode="&#xc1;" horiz-adv-x="1192" 
d="M1166 19q1 -2 1 -6q0 -6 -4 -9.5t-11 -3.5h-75q-14 0 -19 13l-164 458h-602l-163 -458q-5 -13 -19 -13h-70q-9 0 -13 5.5t0 13.5l501 1368q4 13 19 13h100q15 0 19 -13zM866 556l-273 764l-273 -764h546zM441 1521q-6 -2 -8 -2q-7 0 -14 10l-9 24q-3 5 -3 9q0 9 10 13
l401 200q5 3 9 3q8 0 13 -10l19 -48q2 -4 2 -9q0 -9 -10 -13z" />
    <glyph glyph-name="Acircumflex" unicode="&#xc2;" horiz-adv-x="1192" 
d="M1166 19q1 -2 1 -6q0 -6 -4 -9.5t-11 -3.5h-75q-14 0 -19 13l-164 458h-602l-163 -458q-5 -13 -19 -13h-70q-9 0 -13 5.5t0 13.5l501 1368q4 13 19 13h100q15 0 19 -13zM866 556l-273 764l-273 -764h546zM306 1560q-2 6 -2 9q0 9 9 13l251 132q8 5 21 5h27q12 0 21 -5
l250 -131q9 -4 9 -14q0 -6 -2 -9l-11 -26q-4 -10 -13 -10q-6 0 -9 2l-259 111l-260 -109q-3 -2 -9 -2q-8 0 -12 10z" />
    <glyph glyph-name="Atilde" unicode="&#xc3;" horiz-adv-x="1192" 
d="M1166 19q1 -2 1 -6q0 -6 -4 -9.5t-11 -3.5h-75q-14 0 -19 13l-164 458h-602l-163 -458q-5 -13 -19 -13h-70q-9 0 -13 5.5t0 13.5l501 1368q4 13 19 13h100q15 0 19 -13zM866 556l-273 764l-273 -764h546zM631 1558q-28 23 -60 67q-23 32 -40 48t-40 16q-71 0 -78 -123
q0 -17 -17 -17h-33q-17 0 -17 17q4 86 40.5 138.5t104.5 52.5q46 0 74.5 -23.5t59.5 -68.5q22 -31 38 -46.5t38 -15.5q39 0 59.5 33t22.5 90q0 8 4.5 12.5t12.5 4.5h33q17 0 16 -21q-3 -85 -40 -136t-106 -51q-44 0 -72 23z" />
    <glyph glyph-name="Adieresis" unicode="&#xc4;" horiz-adv-x="1192" 
d="M1166 19q1 -2 1 -6q0 -6 -4 -9.5t-11 -3.5h-75q-14 0 -19 13l-164 458h-602l-163 -458q-5 -13 -19 -13h-70q-9 0 -13 5.5t0 13.5l501 1368q4 13 19 13h100q15 0 19 -13zM866 556l-273 764l-273 -764h546zM439 1542q-8 0 -12.5 4.5t-4.5 12.5v104q0 17 17 17h73
q8 0 12.5 -4.5t4.5 -12.5v-104q0 -7 -5 -12t-12 -5h-73zM684 1542q-8 0 -12.5 5t-4.5 12v104q0 8 4.5 12.5t12.5 4.5h73q8 0 12.5 -4.5t4.5 -12.5v-104q0 -7 -5 -12t-12 -5h-73z" />
    <glyph glyph-name="Aring" unicode="&#xc5;" horiz-adv-x="1192" 
d="M1166 19q1 -2 1 -6q0 -6 -4 -9.5t-11 -3.5h-75q-14 0 -19 13l-164 458h-602l-163 -458q-5 -13 -19 -13h-70q-9 0 -13 5.5t0 13.5l501 1368q4 13 19 13h100q15 0 19 -13zM866 556l-273 764l-273 -764h546zM501.5 1543q-42.5 24 -66.5 65.5t-24 92.5t24 92.5t66.5 65.5
t94.5 24t94.5 -24t66.5 -65.5t24 -92.5t-24 -92.5t-66.5 -65.5t-94.5 -24t-94.5 24zM683 1608q34 36 34 93q0 58 -34 93.5t-87 35.5q-54 0 -86.5 -35t-32.5 -94q0 -57 32.5 -93t86.5 -36q53 0 87 36z" />
    <glyph glyph-name="AE" unicode="&#xc6;" horiz-adv-x="1658" 
d="M1566 82q8 0 12.5 -4.5t4.5 -12.5v-48q0 -17 -17 -17h-695q-16 0 -16 17l3 454h-496l-238 -459q-6 -12 -20 -12h-68q-15 0 -15 12l2 8l714 1368q6 12 20 12h793q17 0 17 -17v-48q0 -8 -4.5 -12.5t-12.5 -4.5h-588l-6 -524h553q17 0 17 -16v-49q0 -16 -17 -16h-553l6 -631
h604zM856 1321h-57l-395 -765h455l1 186z" />
    <glyph glyph-name="Ccedilla" unicode="&#xc7;" horiz-adv-x="1332" 
d="M1249 508q9 0 13 -5t3 -14q-17 -160 -88 -273t-187.5 -173t-267.5 -65l-86 -295q-5 -15 -21 -11l-61 15q-16 5 -10 21l101 272q-181 11 -308.5 98t-194 246.5t-66.5 383.5q0 218 75 379.5t215.5 248t333.5 86.5q215 0 364.5 -116t189.5 -365v-4q0 -15 -15 -15h-71
q-15 0 -18 16q-32 205 -153 303t-299 98q-161 0 -277 -78.5t-177 -221t-61 -333.5q0 -214 62 -358.5t177 -215.5t276 -71q129 0 229.5 49t161.5 145.5t72 235.5q2 17 17 17h71z" />
    <glyph glyph-name="Egrave" unicode="&#xc8;" horiz-adv-x="1025" 
d="M138 0q-16 0 -16 17l5 725l-5 641q0 17 16 17h779q8 0 12.5 -4.5t4.5 -12.5v-48q0 -7 -4.5 -12t-12.5 -5h-688l-6 -524h653q17 0 17 -16v-49q0 -7 -4.5 -11.5t-12.5 -4.5h-653l6 -631h704q8 0 12.5 -4.5t4.5 -12.5v-48q0 -8 -4.5 -12.5t-12.5 -4.5h-795zM712 1529
q-4 -10 -14 -10l-8 2l-410 177q-11 5 -11 14l2 8l20 49q4 10 14 10q5 0 9 -2l400 -200q10 -4 10 -13q0 -6 -2 -9z" />
    <glyph glyph-name="Eacute" unicode="&#xc9;" horiz-adv-x="1025" 
d="M138 0q-16 0 -16 17l5 725l-5 641q0 17 16 17h779q8 0 12.5 -4.5t4.5 -12.5v-48q0 -7 -4.5 -12t-12.5 -5h-688l-6 -524h653q17 0 17 -16v-49q0 -7 -4.5 -11.5t-12.5 -4.5h-653l6 -631h704q8 0 12.5 -4.5t4.5 -12.5v-48q0 -8 -4.5 -12.5t-12.5 -4.5h-795zM387 1521
q-6 -2 -8 -2q-7 0 -14 10l-9 24q-3 5 -3 9q0 9 10 13l401 200q5 3 9 3q8 0 13 -10l19 -48q2 -4 2 -9q0 -9 -10 -13z" />
    <glyph glyph-name="Ecircumflex" unicode="&#xca;" horiz-adv-x="1025" 
d="M138 0q-16 0 -16 17l5 725l-5 641q0 17 16 17h779q8 0 12.5 -4.5t4.5 -12.5v-48q0 -7 -4.5 -12t-12.5 -5h-688l-6 -524h653q17 0 17 -16v-49q0 -7 -4.5 -11.5t-12.5 -4.5h-653l6 -631h704q8 0 12.5 -4.5t4.5 -12.5v-48q0 -8 -4.5 -12.5t-12.5 -4.5h-795zM251 1560
q-2 6 -2 9q0 9 9 13l251 132q8 5 21 5h27q12 0 21 -5l250 -131q9 -4 9 -14q0 -6 -2 -9l-11 -26q-4 -10 -13 -10q-6 0 -9 2l-259 111l-260 -109q-3 -2 -9 -2q-8 0 -12 10z" />
    <glyph glyph-name="Edieresis" unicode="&#xcb;" horiz-adv-x="1025" 
d="M138 0q-16 0 -16 17l5 725l-5 641q0 17 16 17h779q8 0 12.5 -4.5t4.5 -12.5v-48q0 -7 -4.5 -12t-12.5 -5h-688l-6 -524h653q17 0 17 -16v-49q0 -7 -4.5 -11.5t-12.5 -4.5h-653l6 -631h704q8 0 12.5 -4.5t4.5 -12.5v-48q0 -8 -4.5 -12.5t-12.5 -4.5h-795zM385 1542
q-8 0 -12.5 4.5t-4.5 12.5v104q0 17 17 17h73q8 0 12.5 -4.5t4.5 -12.5v-104q0 -7 -5 -12t-12 -5h-73zM630 1542q-8 0 -12.5 5t-4.5 12v104q0 8 4.5 12.5t12.5 4.5h73q8 0 12.5 -4.5t4.5 -12.5v-104q0 -7 -5 -12t-12 -5h-73z" />
    <glyph glyph-name="Igrave" unicode="&#xcc;" horiz-adv-x="371" 
d="M149 0q-17 0 -17 17l6 707l-6 659q0 17 17 17h73q8 0 12.5 -4.5t4.5 -12.5l-6 -659l6 -707q0 -8 -4.5 -12.5t-12.5 -4.5h-73zM354 1529q-4 -10 -14 -10l-8 2l-410 177q-11 5 -11 14l2 8l20 49q4 10 14 10q5 0 9 -2l400 -200q10 -4 10 -13q0 -6 -2 -9z" />
    <glyph glyph-name="Iacute" unicode="&#xcd;" horiz-adv-x="371" 
d="M149 0q-17 0 -17 17l6 707l-6 659q0 17 17 17h73q8 0 12.5 -4.5t4.5 -12.5l-6 -659l6 -707q0 -8 -4.5 -12.5t-12.5 -4.5h-73zM29 1521q-6 -2 -8 -2q-7 0 -14 10l-9 24q-3 5 -3 9q0 9 10 13l401 200q5 3 9 3q8 0 13 -10l19 -48q2 -4 2 -9q0 -9 -10 -13z" />
    <glyph glyph-name="Icircumflex" unicode="&#xce;" horiz-adv-x="371" 
d="M149 0q-17 0 -17 17l6 707l-6 659q0 17 17 17h73q8 0 12.5 -4.5t4.5 -12.5l-6 -659l6 -707q0 -8 -4.5 -12.5t-12.5 -4.5h-73zM-106 1560q-2 6 -2 9q0 9 9 13l251 132q8 5 21 5h27q12 0 21 -5l250 -131q9 -4 9 -14q0 -6 -2 -9l-11 -26q-4 -10 -13 -10q-6 0 -9 2l-259 111
l-260 -109q-3 -2 -9 -2q-8 0 -12 10z" />
    <glyph glyph-name="Idieresis" unicode="&#xcf;" horiz-adv-x="371" 
d="M149 0q-17 0 -17 17l6 707l-6 659q0 17 17 17h73q8 0 12.5 -4.5t4.5 -12.5l-6 -659l6 -707q0 -8 -4.5 -12.5t-12.5 -4.5h-73zM27 1542q-8 0 -12.5 4.5t-4.5 12.5v104q0 17 17 17h73q8 0 12.5 -4.5t4.5 -12.5v-104q0 -7 -5 -12t-12 -5h-73zM272 1542q-8 0 -12.5 5t-4.5 12
v104q0 8 4.5 12.5t12.5 4.5h73q8 0 12.5 -4.5t4.5 -12.5v-104q0 -7 -5 -12t-12 -5h-73z" />
    <glyph glyph-name="Eth" unicode="&#xd0;" horiz-adv-x="1327" 
d="M567 1400q200 0 355.5 -84.5t242.5 -241t87 -365.5q0 -224 -92.5 -384t-248 -242.5t-340.5 -82.5h-413q-16 0 -16 17l5 697h-138q-17 0 -17 16v49q0 7 4.5 11.5t12.5 4.5h138l-5 588q0 17 16 17h409zM587 82q139 0 267 67.5t209.5 208.5t81.5 349q0 195 -76 333
t-204.5 208t-285.5 70h-327l-5 -523h405q8 0 12.5 -4.5t4.5 -11.5v-49q0 -7 -4.5 -11.5t-12.5 -4.5h-405l5 -632h335z" />
    <glyph glyph-name="Ntilde" unicode="&#xd1;" horiz-adv-x="1315" 
d="M138 0q-16 0 -16 17l5 703l-4 663q0 8 4.5 12.5t12.5 4.5h81q15 0 20 -11l853 -1243v592l-3 645q0 17 16 17h70q8 0 12.5 -4.5t4.5 -12.5l-6 -663l4 -703q0 -17 -17 -17h-89q-14 0 -21 11l-844 1225v-543l4 -676q0 -8 -4.5 -12.5t-12.5 -4.5h-70zM698 1558q-28 23 -60 67
q-23 32 -40 48t-40 16q-71 0 -78 -123q0 -17 -17 -17h-33q-17 0 -17 17q4 86 40.5 138.5t104.5 52.5q46 0 74.5 -23.5t59.5 -68.5q22 -31 38 -46.5t38 -15.5q39 0 59.5 33t22.5 90q0 8 4.5 12.5t12.5 4.5h33q17 0 16 -21q-3 -85 -40 -136t-106 -51q-44 0 -72 23z" />
    <glyph glyph-name="Ograve" unicode="&#xd2;" horiz-adv-x="1436" 
d="M380.5 66q-145.5 88 -225 251.5t-79.5 383.5q0 221 79.5 384t225 250t338.5 87t338 -87t224.5 -250t79.5 -386q0 -220 -80 -383t-226 -250.5t-338 -87.5q-191 0 -336.5 88zM1002 137.5q121 76.5 186.5 220.5t65.5 341q0 198 -65.5 342.5t-186.5 221t-285 76.5t-284 -77
t-185 -221t-65 -342q0 -196 65.5 -340t186 -221t283.5 -77t284 76.5zM887 1529q-4 -10 -14 -10l-8 2l-410 177q-11 5 -11 14l2 8l20 49q4 10 14 10q5 0 9 -2l400 -200q10 -4 10 -13q0 -6 -2 -9z" />
    <glyph glyph-name="Oacute" unicode="&#xd3;" horiz-adv-x="1436" 
d="M380.5 66q-145.5 88 -225 251.5t-79.5 383.5q0 221 79.5 384t225 250t338.5 87t338 -87t224.5 -250t79.5 -386q0 -220 -80 -383t-226 -250.5t-338 -87.5q-191 0 -336.5 88zM1002 137.5q121 76.5 186.5 220.5t65.5 341q0 198 -65.5 342.5t-186.5 221t-285 76.5t-284 -77
t-185 -221t-65 -342q0 -196 65.5 -340t186 -221t283.5 -77t284 76.5zM562 1521q-6 -2 -8 -2q-7 0 -14 10l-9 24q-3 5 -3 9q0 9 10 13l401 200q5 3 9 3q8 0 13 -10l19 -48q2 -4 2 -9q0 -9 -10 -13z" />
    <glyph glyph-name="Ocircumflex" unicode="&#xd4;" horiz-adv-x="1436" 
d="M380.5 66q-145.5 88 -225 251.5t-79.5 383.5q0 221 79.5 384t225 250t338.5 87t338 -87t224.5 -250t79.5 -386q0 -220 -80 -383t-226 -250.5t-338 -87.5q-191 0 -336.5 88zM1002 137.5q121 76.5 186.5 220.5t65.5 341q0 198 -65.5 342.5t-186.5 221t-285 76.5t-284 -77
t-185 -221t-65 -342q0 -196 65.5 -340t186 -221t283.5 -77t284 76.5zM427 1560q-2 6 -2 9q0 9 9 13l251 132q8 5 21 5h27q12 0 21 -5l250 -131q9 -4 9 -14q0 -6 -2 -9l-11 -26q-4 -10 -13 -10q-6 0 -9 2l-259 111l-260 -109q-3 -2 -9 -2q-8 0 -12 10z" />
    <glyph glyph-name="Otilde" unicode="&#xd5;" horiz-adv-x="1436" 
d="M380.5 66q-145.5 88 -225 251.5t-79.5 383.5q0 221 79.5 384t225 250t338.5 87t338 -87t224.5 -250t79.5 -386q0 -220 -80 -383t-226 -250.5t-338 -87.5q-191 0 -336.5 88zM1002 137.5q121 76.5 186.5 220.5t65.5 341q0 198 -65.5 342.5t-186.5 221t-285 76.5t-284 -77
t-185 -221t-65 -342q0 -196 65.5 -340t186 -221t283.5 -77t284 76.5zM752 1558q-28 23 -60 67q-23 32 -40 48t-40 16q-71 0 -78 -123q0 -17 -17 -17h-33q-17 0 -17 17q4 86 40.5 138.5t104.5 52.5q46 0 74.5 -23.5t59.5 -68.5q22 -31 38 -46.5t38 -15.5q39 0 59.5 33
t22.5 90q0 8 4.5 12.5t12.5 4.5h33q17 0 16 -21q-3 -85 -40 -136t-106 -51q-44 0 -72 23z" />
    <glyph glyph-name="Odieresis" unicode="&#xd6;" horiz-adv-x="1436" 
d="M380.5 66q-145.5 88 -225 251.5t-79.5 383.5q0 221 79.5 384t225 250t338.5 87t338 -87t224.5 -250t79.5 -386q0 -220 -80 -383t-226 -250.5t-338 -87.5q-191 0 -336.5 88zM1002 137.5q121 76.5 186.5 220.5t65.5 341q0 198 -65.5 342.5t-186.5 221t-285 76.5t-284 -77
t-185 -221t-65 -342q0 -196 65.5 -340t186 -221t283.5 -77t284 76.5zM560 1542q-8 0 -12.5 4.5t-4.5 12.5v104q0 17 17 17h73q8 0 12.5 -4.5t4.5 -12.5v-104q0 -7 -5 -12t-12 -5h-73zM805 1542q-8 0 -12.5 5t-4.5 12v104q0 8 4.5 12.5t12.5 4.5h73q8 0 12.5 -4.5t4.5 -12.5
v-104q0 -7 -5 -12t-12 -5h-73z" />
    <glyph glyph-name="multiply" unicode="&#xd7;" horiz-adv-x="949" 
d="M535 689l294 -294q5 -5 5 -12t-5 -12l-37 -37q-5 -5 -11 -5q-7 0 -13 6l-294 294l-293 -294q-6 -6 -13 -6q-6 0 -11 5l-37 37q-6 6 -6 12t6 12l294 294l-295 295q-6 6 -6 12t6 12l36 37q4 6 12 6q6 0 12 -6l295 -296l296 296q5 5 12 5t12 -5l36 -37q6 -6 6 -12
q0 -5 -7 -12z" />
    <glyph glyph-name="Oslash" unicode="&#xd8;" horiz-adv-x="1436" 
d="M1207 1204q75 -94 114.5 -221.5t39.5 -283.5q0 -220 -80 -383t-226 -250.5t-338 -87.5q-128 0 -236 41t-191 119l-152 -176q-4 -6 -12 -6q-6 0 -12 6l-39 38q-5 5 -5 12t4 12l154 178q-74 94 -113 220t-39 279q0 221 79.5 384t225 250t338.5 87q128 0 235.5 -40
t189.5 -116l153 178q6 6 12 6t12 -6l39 -38q6 -6 6 -12q0 -5 -5 -12zM433 1262q-120 -77 -185 -221t-65 -342q0 -130 29 -237t85 -187l789 917q-69 72 -162.5 109.5t-206.5 37.5q-164 0 -284 -77zM1002 137.5q121 76.5 186.5 220.5t65.5 341q0 132 -30 240.5t-87 189.5
l-789 -919q69 -73 162.5 -111t207.5 -38q163 0 284 76.5z" />
    <glyph glyph-name="Ugrave" unicode="&#xd9;" horiz-adv-x="1212" 
d="M243.5 124.5q-122.5 146.5 -121.5 412.5v487l-3 359q0 17 17 17h74q17 0 17 -17l-3 -358v-488q0 -218 92.5 -346t290.5 -128q199 0 292 127.5t93 346.5v487l-3 359q0 8 4.5 12.5t12.5 4.5h70q17 0 17 -17l-3 -359v-487q0 -267 -121 -413t-362 -146t-363.5 146.5z
M776 1529q-4 -10 -14 -10l-8 2l-410 177q-11 5 -11 14l2 8l20 49q4 10 14 10q5 0 9 -2l400 -200q10 -4 10 -13q0 -6 -2 -9z" />
    <glyph glyph-name="Uacute" unicode="&#xda;" horiz-adv-x="1212" 
d="M243.5 124.5q-122.5 146.5 -121.5 412.5v487l-3 359q0 17 17 17h74q17 0 17 -17l-3 -358v-488q0 -218 92.5 -346t290.5 -128q199 0 292 127.5t93 346.5v487l-3 359q0 8 4.5 12.5t12.5 4.5h70q17 0 17 -17l-3 -359v-487q0 -267 -121 -413t-362 -146t-363.5 146.5z
M451 1521q-6 -2 -8 -2q-7 0 -14 10l-9 24q-3 5 -3 9q0 9 10 13l401 200q5 3 9 3q8 0 13 -10l19 -48q2 -4 2 -9q0 -9 -10 -13z" />
    <glyph glyph-name="Ucircumflex" unicode="&#xdb;" horiz-adv-x="1212" 
d="M243.5 124.5q-122.5 146.5 -121.5 412.5v487l-3 359q0 17 17 17h74q17 0 17 -17l-3 -358v-488q0 -218 92.5 -346t290.5 -128q199 0 292 127.5t93 346.5v487l-3 359q0 8 4.5 12.5t12.5 4.5h70q17 0 17 -17l-3 -359v-487q0 -267 -121 -413t-362 -146t-363.5 146.5z
M316 1560q-2 6 -2 9q0 9 9 13l251 132q8 5 21 5h27q12 0 21 -5l250 -131q9 -4 9 -14q0 -6 -2 -9l-11 -26q-4 -10 -13 -10q-6 0 -9 2l-259 111l-260 -109q-3 -2 -9 -2q-8 0 -12 10z" />
    <glyph glyph-name="Udieresis" unicode="&#xdc;" horiz-adv-x="1212" 
d="M243.5 124.5q-122.5 146.5 -121.5 412.5v487l-3 359q0 17 17 17h74q17 0 17 -17l-3 -358v-488q0 -218 92.5 -346t290.5 -128q199 0 292 127.5t93 346.5v487l-3 359q0 8 4.5 12.5t12.5 4.5h70q17 0 17 -17l-3 -359v-487q0 -267 -121 -413t-362 -146t-363.5 146.5z
M449 1542q-8 0 -12.5 4.5t-4.5 12.5v104q0 17 17 17h73q8 0 12.5 -4.5t4.5 -12.5v-104q0 -7 -5 -12t-12 -5h-73zM694 1542q-8 0 -12.5 5t-4.5 12v104q0 8 4.5 12.5t12.5 4.5h73q8 0 12.5 -4.5t4.5 -12.5v-104q0 -7 -5 -12t-12 -5h-73z" />
    <glyph glyph-name="Yacute" unicode="&#xdd;" horiz-adv-x="1065" 
d="M30 1380q-3 5 -3 9q0 11 15 11h81q14 0 20 -12l394 -785l395 785q6 12 20 12h72q15 0 15 -11q0 -4 -3 -9l-457 -881l4 -482q0 -8 -4.5 -12.5t-12.5 -4.5h-74q-16 0 -16 17l3 489zM378 1521q-6 -2 -8 -2q-7 0 -14 10l-9 24q-3 5 -3 9q0 9 10 13l401 200q5 3 9 3
q8 0 13 -10l19 -48q2 -4 2 -9q0 -9 -10 -13z" />
    <glyph glyph-name="Thorn" unicode="&#xde;" horiz-adv-x="1074" 
d="M547 1118q144 0 251 -46t165.5 -137t58.5 -223q0 -140 -59 -233.5t-164 -138.5t-245 -45h-328l3 -278q0 -8 -4.5 -12.5t-12.5 -4.5h-74q-16 0 -16 17l5 715l-5 651q0 17 16 17h74q8 0 12.5 -4.5t4.5 -12.5l-3 -265h321zM557 376q175 0 268 79t93 256q0 163 -95 244
t-274 81h-323l-3 -308l3 -352h331z" />
    <glyph glyph-name="germandbls" unicode="&#xdf;" horiz-adv-x="1064" 
d="M137 -3q-8 0 -12.5 4.5t-4.5 11.5l4 456v548q0 142 54 234.5t142.5 134.5t195.5 42q111 0 197 -41.5t135 -125t49 -206.5q0 -115 -59.5 -192.5t-163.5 -109.5q149 -25 231 -117.5t82 -231.5q0 -120 -56.5 -212t-162.5 -143.5t-249 -51.5h-64q-17 0 -17 16v50q0 8 5 12.5
t12 4.5h64q181 0 271.5 87.5t91.5 238.5q0 142 -95.5 220.5t-265.5 78.5h-66q-7 0 -12 5t-5 12v47q0 8 5 12.5t12 4.5h66q133 0 202.5 69.5t69.5 194.5q0 154 -76 228t-204 74q-83 0 -149 -36.5t-105 -112t-39 -187.5v-547l4 -456q0 -7 -4.5 -11.5t-12.5 -4.5h-70z" />
    <glyph glyph-name="agrave" unicode="&#xe0;" horiz-adv-x="1035" 
d="M918 534l5 -517q0 -8 -4.5 -12.5t-12.5 -4.5h-67q-16 0 -16 17l4 200q-49 -112 -137 -173.5t-210 -61.5q-130 0 -223 69.5t-141 190t-48 272.5q0 150 48.5 272t142 193t222.5 71q121 0 209 -58t136 -169l-4 190q0 8 4.5 12.5t12.5 4.5h67q8 0 12.5 -4.5t4.5 -12.5z
M675 107.5q74 51.5 115 153.5t41 251q0 145 -39 249t-113 159.5t-177 55.5q-111 0 -186.5 -59t-112 -161t-36.5 -231q0 -134 36 -240t111 -167.5t186 -61.5q101 0 175 51.5zM665 1159q-4 -10 -14 -10l-8 2l-410 177q-11 5 -11 14l2 8l20 49q4 10 14 10q5 0 9 -2l400 -200
q10 -4 10 -13q0 -6 -2 -9z" />
    <glyph glyph-name="aacute" unicode="&#xe1;" horiz-adv-x="1035" 
d="M918 534l5 -517q0 -8 -4.5 -12.5t-12.5 -4.5h-67q-16 0 -16 17l4 200q-49 -112 -137 -173.5t-210 -61.5q-130 0 -223 69.5t-141 190t-48 272.5q0 150 48.5 272t142 193t222.5 71q121 0 209 -58t136 -169l-4 190q0 8 4.5 12.5t12.5 4.5h67q8 0 12.5 -4.5t4.5 -12.5z
M675 107.5q74 51.5 115 153.5t41 251q0 145 -39 249t-113 159.5t-177 55.5q-111 0 -186.5 -59t-112 -161t-36.5 -231q0 -134 36 -240t111 -167.5t186 -61.5q101 0 175 51.5zM341 1151q-6 -2 -8 -2q-7 0 -14 10l-9 24q-3 5 -3 9q0 9 10 13l401 200q5 3 9 3q8 0 13 -10l19 -48
q2 -4 2 -9q0 -9 -10 -13z" />
    <glyph glyph-name="acircumflex" unicode="&#xe2;" horiz-adv-x="1035" 
d="M918 534l5 -517q0 -8 -4.5 -12.5t-12.5 -4.5h-67q-16 0 -16 17l4 200q-49 -112 -137 -173.5t-210 -61.5q-130 0 -223 69.5t-141 190t-48 272.5q0 150 48.5 272t142 193t222.5 71q121 0 209 -58t136 -169l-4 190q0 8 4.5 12.5t12.5 4.5h67q8 0 12.5 -4.5t4.5 -12.5z
M675 107.5q74 51.5 115 153.5t41 251q0 145 -39 249t-113 159.5t-177 55.5q-111 0 -186.5 -59t-112 -161t-36.5 -231q0 -134 36 -240t111 -167.5t186 -61.5q101 0 175 51.5zM205 1190q-2 6 -2 9q0 9 9 13l251 132q8 5 21 5h27q12 0 21 -5l250 -131q9 -4 9 -14q0 -6 -2 -9
l-11 -26q-4 -10 -13 -10q-6 0 -9 2l-259 111l-260 -109q-3 -2 -9 -2q-8 0 -12 10z" />
    <glyph glyph-name="atilde" unicode="&#xe3;" horiz-adv-x="1035" 
d="M918 534l5 -517q0 -8 -4.5 -12.5t-12.5 -4.5h-67q-16 0 -16 17l4 200q-49 -112 -137 -173.5t-210 -61.5q-130 0 -223 69.5t-141 190t-48 272.5q0 150 48.5 272t142 193t222.5 71q121 0 209 -58t136 -169l-4 190q0 8 4.5 12.5t12.5 4.5h67q8 0 12.5 -4.5t4.5 -12.5z
M675 107.5q74 51.5 115 153.5t41 251q0 145 -39 249t-113 159.5t-177 55.5q-111 0 -186.5 -59t-112 -161t-36.5 -231q0 -134 36 -240t111 -167.5t186 -61.5q101 0 175 51.5zM531 1188q-28 23 -60 67q-23 32 -40 48t-40 16q-71 0 -78 -123q0 -17 -17 -17h-33q-17 0 -17 17
q4 86 40.5 138.5t104.5 52.5q46 0 74.5 -23.5t59.5 -68.5q22 -31 38 -46.5t38 -15.5q39 0 59.5 33t22.5 90q0 8 4.5 12.5t12.5 4.5h33q17 0 16 -21q-3 -85 -40 -136t-106 -51q-44 0 -72 23z" />
    <glyph glyph-name="adieresis" unicode="&#xe4;" horiz-adv-x="1035" 
d="M918 534l5 -517q0 -8 -4.5 -12.5t-12.5 -4.5h-67q-16 0 -16 17l4 200q-49 -112 -137 -173.5t-210 -61.5q-130 0 -223 69.5t-141 190t-48 272.5q0 150 48.5 272t142 193t222.5 71q121 0 209 -58t136 -169l-4 190q0 8 4.5 12.5t12.5 4.5h67q8 0 12.5 -4.5t4.5 -12.5z
M675 107.5q74 51.5 115 153.5t41 251q0 145 -39 249t-113 159.5t-177 55.5q-111 0 -186.5 -59t-112 -161t-36.5 -231q0 -134 36 -240t111 -167.5t186 -61.5q101 0 175 51.5zM339 1172q-8 0 -12.5 4.5t-4.5 12.5v104q0 17 17 17h73q8 0 12.5 -4.5t4.5 -12.5v-104q0 -7 -5 -12
t-12 -5h-73zM584 1172q-8 0 -12.5 5t-4.5 12v104q0 8 4.5 12.5t12.5 4.5h73q8 0 12.5 -4.5t4.5 -12.5v-104q0 -7 -5 -12t-12 -5h-73z" />
    <glyph glyph-name="aring" unicode="&#xe5;" horiz-adv-x="1035" 
d="M918 534l5 -517q0 -8 -4.5 -12.5t-12.5 -4.5h-67q-16 0 -16 17l4 200q-49 -112 -137 -173.5t-210 -61.5q-130 0 -223 69.5t-141 190t-48 272.5q0 150 48.5 272t142 193t222.5 71q121 0 209 -58t136 -169l-4 190q0 8 4.5 12.5t12.5 4.5h67q8 0 12.5 -4.5t4.5 -12.5z
M675 107.5q74 51.5 115 153.5t41 251q0 145 -39 249t-113 159.5t-177 55.5q-111 0 -186.5 -59t-112 -161t-36.5 -231q0 -134 36 -240t111 -167.5t186 -61.5q101 0 175 51.5zM401.5 1173q-42.5 24 -66.5 65.5t-24 92.5t24 92.5t66.5 65.5t94.5 24t94.5 -24t66.5 -65.5
t24 -92.5t-24 -92.5t-66.5 -65.5t-94.5 -24t-94.5 24zM583 1238q34 36 34 93q0 58 -34 93.5t-87 35.5q-54 0 -86.5 -35t-32.5 -94q0 -57 32.5 -93t86.5 -36q53 0 87 36z" />
    <glyph glyph-name="ae" unicode="&#xe6;" horiz-adv-x="1786" 
d="M256 51.5q-93 69.5 -140.5 190t-47.5 272.5q0 150 48.5 272t142 193t222.5 71q120 0 208 -57.5t137 -168.5l-4 189q0 17 17 17h66q8 0 12.5 -4.5t4.5 -12.5l-2 -200q53 112 145.5 175t213.5 63q134 0 231.5 -60.5t151 -176t56.5 -277.5q0 -8 -4.5 -12.5t-12.5 -4.5h-775
q2 -225 92 -346t271 -121q139 0 220.5 77.5t106.5 219.5q3 15 18 15h61q9 0 13 -4.5t3 -12.5q-28 -176 -134 -272.5t-285 -96.5q-132 0 -226 59t-145 167l1 -188q0 -8 -4.5 -12.5t-12.5 -4.5h-66q-8 0 -12.5 4.5t-4.5 12.5l4 201q-48 -112 -136 -174t-210 -62
q-131 0 -224 69.5zM1035.5 873.5q-88.5 -103.5 -105.5 -277.5h681q-1 108 -39.5 194.5t-114 136.5t-181.5 50q-152 0 -240.5 -103.5zM674.5 107.5q74.5 51.5 115 153.5t40.5 251q0 145 -39 249t-113 159.5t-176 55.5q-112 0 -187.5 -59t-112 -161t-36.5 -231q0 -134 36 -240
t111 -167.5t186 -61.5q101 0 175.5 51.5z" />
    <glyph glyph-name="ccedilla" unicode="&#xe7;" horiz-adv-x="1002" 
d="M933 379q8 0 12.5 -4t3.5 -11q-9 -107 -56.5 -191t-132 -134.5t-201.5 -58.5l-86 -297q-5 -15 -21 -11l-61 15q-16 5 -10 21l101 272q-133 8 -226 76t-140.5 185t-47.5 271q0 162 52 283.5t154 188.5t248 67q121 0 210.5 -43.5t141 -123t62.5 -186.5v-4q0 -13 -15 -13
h-59q-15 0 -18 16q-21 137 -106.5 208t-215.5 71q-175 0 -263 -123.5t-88 -340.5t87.5 -337.5t261.5 -121.5q143 0 233 81.5t104 228.5q2 16 17 16h59z" />
    <glyph glyph-name="egrave" unicode="&#xe8;" horiz-adv-x="1032" 
d="M171 520q1 -232 93.5 -349.5t269.5 -117.5q138 0 219.5 77.5t106.5 219.5q3 15 18 15h62q9 0 13 -4.5t3 -12.5q-28 -176 -135 -272.5t-288 -96.5q-149 0 -253.5 66.5t-158 186.5t-53.5 280q0 158 54 280t156.5 190.5t242.5 68.5q135 0 233.5 -60.5t152 -176t56.5 -277.5
q0 -8 -4.5 -12.5t-12.5 -4.5h-775zM279.5 875.5q-88.5 -101.5 -105.5 -279.5h682q-1 108 -39.5 194.5t-114 136.5t-181.5 50q-153 0 -241.5 -101.5zM688 1159q-4 -10 -14 -10l-8 2l-410 177q-11 5 -11 14l2 8l20 49q4 10 14 10q5 0 9 -2l400 -200q10 -4 10 -13q0 -6 -2 -9z
" />
    <glyph glyph-name="eacute" unicode="&#xe9;" horiz-adv-x="1032" 
d="M171 520q1 -232 93.5 -349.5t269.5 -117.5q138 0 219.5 77.5t106.5 219.5q3 15 18 15h62q9 0 13 -4.5t3 -12.5q-28 -176 -135 -272.5t-288 -96.5q-149 0 -253.5 66.5t-158 186.5t-53.5 280q0 158 54 280t156.5 190.5t242.5 68.5q135 0 233.5 -60.5t152 -176t56.5 -277.5
q0 -8 -4.5 -12.5t-12.5 -4.5h-775zM279.5 875.5q-88.5 -101.5 -105.5 -279.5h682q-1 108 -39.5 194.5t-114 136.5t-181.5 50q-153 0 -241.5 -101.5zM364 1151q-6 -2 -8 -2q-7 0 -14 10l-9 24q-3 5 -3 9q0 9 10 13l401 200q5 3 9 3q8 0 13 -10l19 -48q2 -4 2 -9q0 -9 -10 -13
z" />
    <glyph glyph-name="ecircumflex" unicode="&#xea;" horiz-adv-x="1032" 
d="M171 520q1 -232 93.5 -349.5t269.5 -117.5q138 0 219.5 77.5t106.5 219.5q3 15 18 15h62q9 0 13 -4.5t3 -12.5q-28 -176 -135 -272.5t-288 -96.5q-149 0 -253.5 66.5t-158 186.5t-53.5 280q0 158 54 280t156.5 190.5t242.5 68.5q135 0 233.5 -60.5t152 -176t56.5 -277.5
q0 -8 -4.5 -12.5t-12.5 -4.5h-775zM279.5 875.5q-88.5 -101.5 -105.5 -279.5h682q-1 108 -39.5 194.5t-114 136.5t-181.5 50q-153 0 -241.5 -101.5zM228 1190q-2 6 -2 9q0 9 9 13l251 132q8 5 21 5h27q12 0 21 -5l250 -131q9 -4 9 -14q0 -6 -2 -9l-11 -26q-4 -10 -13 -10
q-6 0 -9 2l-259 111l-260 -109q-3 -2 -9 -2q-8 0 -12 10z" />
    <glyph glyph-name="edieresis" unicode="&#xeb;" horiz-adv-x="1032" 
d="M171 520q1 -232 93.5 -349.5t269.5 -117.5q138 0 219.5 77.5t106.5 219.5q3 15 18 15h62q9 0 13 -4.5t3 -12.5q-28 -176 -135 -272.5t-288 -96.5q-149 0 -253.5 66.5t-158 186.5t-53.5 280q0 158 54 280t156.5 190.5t242.5 68.5q135 0 233.5 -60.5t152 -176t56.5 -277.5
q0 -8 -4.5 -12.5t-12.5 -4.5h-775zM279.5 875.5q-88.5 -101.5 -105.5 -279.5h682q-1 108 -39.5 194.5t-114 136.5t-181.5 50q-153 0 -241.5 -101.5zM362 1172q-8 0 -12.5 4.5t-4.5 12.5v104q0 17 17 17h73q8 0 12.5 -4.5t4.5 -12.5v-104q0 -7 -5 -12t-12 -5h-73zM607 1172
q-8 0 -12.5 5t-4.5 12v104q0 8 4.5 12.5t12.5 4.5h73q8 0 12.5 -4.5t4.5 -12.5v-104q0 -7 -5 -12t-12 -5h-73z" />
    <glyph glyph-name="igrave" unicode="&#xec;" horiz-adv-x="347" 
d="M325 1168q-5 -11 -14 -11l-8 2l-333 141q-10 5 -10 13q0 3 2 9l20 49q4 10 13 10q6 0 9 -2l323 -162q10 -6 10 -14q0 -6 -2 -9zM139 0q-17 0 -17 17l3 528l-3 468q0 17 17 17h69q8 0 12.5 -4.5t4.5 -12.5l-3 -468l3 -528q0 -8 -4.5 -12.5t-12.5 -4.5h-69z" />
    <glyph glyph-name="iacute" unicode="&#xed;" horiz-adv-x="347" 
d="M44 1159q-6 -2 -8 -2q-9 0 -14 11l-10 26q-2 3 -2 9q0 8 10 14l323 162q3 2 9 2q9 0 13 -10l20 -49l2 -8q0 -9 -10 -14zM139 0q-17 0 -17 17l3 528l-3 468q0 17 17 17h69q8 0 12.5 -4.5t4.5 -12.5l-3 -468l3 -528q0 -8 -4.5 -12.5t-12.5 -4.5h-69z" />
    <glyph glyph-name="icircumflex" unicode="&#xee;" horiz-adv-x="347" 
d="M-68 1191q-2 3 -2 9q0 8 8 14l202 129q8 6 21 6h26q13 0 21 -6l201 -129q8 -6 8 -14q0 -6 -2 -9l-12 -25q-4 -10 -13 -10q-6 0 -10 3l-206 110l-208 -109q-5 -3 -9 -3q-10 0 -14 10zM139 0q-17 0 -17 17l3 528l-3 468q0 17 17 17h69q8 0 12.5 -4.5t4.5 -12.5l-3 -468
l3 -528q0 -8 -4.5 -12.5t-12.5 -4.5h-69z" />
    <glyph glyph-name="idieresis" unicode="&#xef;" horiz-adv-x="347" 
d="M40 1172q-7 0 -11.5 4.5t-4.5 12.5v104q0 17 16 17h69q8 0 12.5 -4.5t4.5 -12.5v-104q0 -7 -4.5 -12t-12.5 -5h-69zM240 1172q-8 0 -12.5 4.5t-4.5 12.5v104q0 17 17 17h68q8 0 12.5 -4.5t4.5 -12.5v-104q0 -7 -4.5 -12t-12.5 -5h-68zM139 0q-17 0 -17 17l3 528l-3 468
q0 17 17 17h69q8 0 12.5 -4.5t4.5 -12.5l-3 -468l3 -528q0 -8 -4.5 -12.5t-12.5 -4.5h-69z" />
    <glyph glyph-name="eth" unicode="&#xf0;" horiz-adv-x="1059" 
d="M746 1185q112 -117 171 -274t59 -368q0 -163 -53 -291t-158 -201t-255 -73q-135 0 -233 58.5t-150 164t-52 243.5q0 147 54 256t150.5 167t222.5 58q104 0 183.5 -40t127.5 -103.5t66 -133.5q-5 148 -60.5 273.5t-152.5 224.5l-263 -134q-6 -3 -10 -3q-8 0 -13 9l-19 36
q-2 6 -2 9q0 7 9 13l239 122q-114 98 -266 160q-11 4 -11 13q0 6 2 9l22 40q4 10 14 10q3 0 9 -2q190 -85 310 -189l250 126q5 3 10 3q8 0 12 -10l19 -36q3 -6 3 -10q0 -8 -10 -12zM709 115.5q78 54.5 115.5 144t37.5 197.5q0 112 -43 200.5t-122 138t-185 49.5
q-160 0 -245.5 -107.5t-85.5 -299.5q0 -176 87 -276.5t248 -100.5q115 0 193 54.5z" />
    <glyph glyph-name="ntilde" unicode="&#xf1;" horiz-adv-x="1001" 
d="M895 441l3 -424q0 -17 -17 -17h-68q-17 0 -17 17l3 424v187q0 345 -260 345q-216 0 -326 -303v-229l2 -424q0 -17 -17 -17h-69q-16 0 -16 17l4 433l-4 563q0 17 17 17h66q17 0 17 -17l-4 -198q50 101 138.5 170t211.5 69q160 0 248 -104.5t88 -312.5v-196zM539 1188
q-28 23 -60 67q-23 32 -40 48t-40 16q-71 0 -78 -123q0 -17 -17 -17h-33q-17 0 -17 17q4 86 40.5 138.5t104.5 52.5q46 0 74.5 -23.5t59.5 -68.5q22 -31 38 -46.5t38 -15.5q39 0 59.5 33t22.5 90q0 8 4.5 12.5t12.5 4.5h33q17 0 16 -21q-3 -85 -40 -136t-106 -51
q-44 0 -72 23z" />
    <glyph glyph-name="ograve" unicode="&#xf2;" horiz-adv-x="1057" 
d="M279 45q-104 66 -157.5 186.5t-53.5 282.5q0 161 54 282.5t157.5 188t249.5 66.5t249.5 -66.5t157 -187.5t53.5 -282q0 -162 -53.5 -282.5t-157 -187t-249.5 -66.5t-250 66zM794.5 175.5q90.5 122.5 90.5 338.5q0 215 -91 339t-265 124q-175 -1 -266 -124.5t-91 -339.5
q0 -215 91.5 -337.5t265.5 -122.5q175 0 265.5 122.5zM696 1159q-4 -10 -14 -10l-8 2l-410 177q-11 5 -11 14l2 8l20 49q4 10 14 10q5 0 9 -2l400 -200q10 -4 10 -13q0 -6 -2 -9z" />
    <glyph glyph-name="oacute" unicode="&#xf3;" horiz-adv-x="1057" 
d="M279 45q-104 66 -157.5 186.5t-53.5 282.5q0 161 54 282.5t157.5 188t249.5 66.5t249.5 -66.5t157 -187.5t53.5 -282q0 -162 -53.5 -282.5t-157 -187t-249.5 -66.5t-250 66zM794.5 175.5q90.5 122.5 90.5 338.5q0 215 -91 339t-265 124q-175 -1 -266 -124.5t-91 -339.5
q0 -215 91.5 -337.5t265.5 -122.5q175 0 265.5 122.5zM372 1151q-6 -2 -8 -2q-7 0 -14 10l-9 24q-3 5 -3 9q0 9 10 13l401 200q5 3 9 3q8 0 13 -10l19 -48q2 -4 2 -9q0 -9 -10 -13z" />
    <glyph glyph-name="ocircumflex" unicode="&#xf4;" horiz-adv-x="1057" 
d="M279 45q-104 66 -157.5 186.5t-53.5 282.5q0 161 54 282.5t157.5 188t249.5 66.5t249.5 -66.5t157 -187.5t53.5 -282q0 -162 -53.5 -282.5t-157 -187t-249.5 -66.5t-250 66zM794.5 175.5q90.5 122.5 90.5 338.5q0 215 -91 339t-265 124q-175 -1 -266 -124.5t-91 -339.5
q0 -215 91.5 -337.5t265.5 -122.5q175 0 265.5 122.5zM236 1190q-2 6 -2 9q0 9 9 13l251 132q8 5 21 5h27q12 0 21 -5l250 -131q9 -4 9 -14q0 -6 -2 -9l-11 -26q-4 -10 -13 -10q-6 0 -9 2l-259 111l-260 -109q-3 -2 -9 -2q-8 0 -12 10z" />
    <glyph glyph-name="otilde" unicode="&#xf5;" horiz-adv-x="1057" 
d="M279 45q-104 66 -157.5 186.5t-53.5 282.5q0 161 54 282.5t157.5 188t249.5 66.5t249.5 -66.5t157 -187.5t53.5 -282q0 -162 -53.5 -282.5t-157 -187t-249.5 -66.5t-250 66zM794.5 175.5q90.5 122.5 90.5 338.5q0 215 -91 339t-265 124q-175 -1 -266 -124.5t-91 -339.5
q0 -215 91.5 -337.5t265.5 -122.5q175 0 265.5 122.5zM561 1188q-28 23 -60 67q-23 32 -40 48t-40 16q-71 0 -78 -123q0 -17 -17 -17h-33q-17 0 -17 17q4 86 40.5 138.5t104.5 52.5q46 0 74.5 -23.5t59.5 -68.5q22 -31 38 -46.5t38 -15.5q39 0 59.5 33t22.5 90q0 8 4.5 12.5
t12.5 4.5h33q17 0 16 -21q-3 -85 -40 -136t-106 -51q-44 0 -72 23z" />
    <glyph glyph-name="odieresis" unicode="&#xf6;" horiz-adv-x="1057" 
d="M279 45q-104 66 -157.5 186.5t-53.5 282.5q0 161 54 282.5t157.5 188t249.5 66.5t249.5 -66.5t157 -187.5t53.5 -282q0 -162 -53.5 -282.5t-157 -187t-249.5 -66.5t-250 66zM794.5 175.5q90.5 122.5 90.5 338.5q0 215 -91 339t-265 124q-175 -1 -266 -124.5t-91 -339.5
q0 -215 91.5 -337.5t265.5 -122.5q175 0 265.5 122.5zM370 1172q-8 0 -12.5 4.5t-4.5 12.5v104q0 17 17 17h73q8 0 12.5 -4.5t4.5 -12.5v-104q0 -7 -5 -12t-12 -5h-73zM615 1172q-8 0 -12.5 5t-4.5 12v104q0 8 4.5 12.5t12.5 4.5h73q8 0 12.5 -4.5t4.5 -12.5v-104
q0 -7 -5 -12t-12 -5h-73z" />
    <glyph glyph-name="divide" unicode="&#xf7;" horiz-adv-x="949" 
d="M430 1033q-17 0 -17 17v108q0 8 5 12.5t12 4.5h92q7 0 11.5 -4.5t4.5 -12.5v-108q0 -17 -16 -17h-92zM55 646q-8 0 -12.5 4.5t-4.5 12.5v52q0 8 4.5 12.5t12.5 4.5h839q16 0 16 -17v-52q0 -17 -16 -17h-839zM430 206q-17 0 -17 17v108q0 8 5 12.5t12 4.5h92
q7 0 11.5 -4.5t4.5 -12.5v-108q0 -17 -16 -17h-92z" />
    <glyph glyph-name="oslash" unicode="&#xf8;" horiz-adv-x="1057" 
d="M885 885q51 -69 77.5 -163.5t26.5 -206.5q0 -162 -53.5 -282.5t-157 -187t-249.5 -66.5q-94 0 -171 28.5t-134 83.5l-108 -131q-5 -7 -12 -7q-6 0 -12 6l-30 28q-6 6 -6 13q0 6 4 11l111 136q-51 68 -77 161.5t-26 205.5q0 161 54 282.5t157.5 188t249.5 66.5
q186 0 303 -112l105 128q4 7 12 7q5 0 12 -5l31 -29q6 -6 6 -12q0 -4 -5 -11zM263 852.5q-91 -123.5 -91 -339.5q0 -178 65 -291l542 649q-90 106 -250 106q-175 -1 -266 -124.5zM794.5 175.5q90.5 122.5 90.5 338.5q0 181 -67 296l-542 -650q45 -52 109 -79.5t144 -27.5
q175 0 265.5 122.5z" />
    <glyph glyph-name="ugrave" unicode="&#xf9;" horiz-adv-x="1001" 
d="M193 80.5q-88 104.5 -88 312.5v196l-2 424q0 17 16 17h69q8 0 12.5 -4.5t4.5 -12.5l-3 -424v-187q0 -345 260 -345q216 0 326 303v229l-3 424q0 8 4.5 12.5t12.5 4.5h69q17 0 17 -17l-5 -433l4 -563q0 -17 -16 -17h-67q-16 0 -16 17l4 198q-50 -101 -139 -170t-212 -69
q-160 0 -248 104.5zM664 1159q-4 -10 -14 -10l-8 2l-410 177q-11 5 -11 14l2 8l20 49q4 10 14 10q5 0 9 -2l400 -200q10 -4 10 -13q0 -6 -2 -9z" />
    <glyph glyph-name="uacute" unicode="&#xfa;" horiz-adv-x="1001" 
d="M193 80.5q-88 104.5 -88 312.5v196l-2 424q0 17 16 17h69q8 0 12.5 -4.5t4.5 -12.5l-3 -424v-187q0 -345 260 -345q216 0 326 303v229l-3 424q0 8 4.5 12.5t12.5 4.5h69q17 0 17 -17l-5 -433l4 -563q0 -17 -16 -17h-67q-16 0 -16 17l4 198q-50 -101 -139 -170t-212 -69
q-160 0 -248 104.5zM339 1151q-6 -2 -8 -2q-7 0 -14 10l-9 24q-3 5 -3 9q0 9 10 13l401 200q5 3 9 3q8 0 13 -10l19 -48q2 -4 2 -9q0 -9 -10 -13z" />
    <glyph glyph-name="ucircumflex" unicode="&#xfb;" horiz-adv-x="1001" 
d="M193 80.5q-88 104.5 -88 312.5v196l-2 424q0 17 16 17h69q8 0 12.5 -4.5t4.5 -12.5l-3 -424v-187q0 -345 260 -345q216 0 326 303v229l-3 424q0 8 4.5 12.5t12.5 4.5h69q17 0 17 -17l-5 -433l4 -563q0 -17 -16 -17h-67q-16 0 -16 17l4 198q-50 -101 -139 -170t-212 -69
q-160 0 -248 104.5zM204 1190q-2 6 -2 9q0 9 9 13l251 132q8 5 21 5h27q12 0 21 -5l250 -131q9 -4 9 -14q0 -6 -2 -9l-11 -26q-4 -10 -13 -10q-6 0 -9 2l-259 111l-260 -109q-3 -2 -9 -2q-8 0 -12 10z" />
    <glyph glyph-name="udieresis" unicode="&#xfc;" horiz-adv-x="1001" 
d="M193 80.5q-88 104.5 -88 312.5v196l-2 424q0 17 16 17h69q8 0 12.5 -4.5t4.5 -12.5l-3 -424v-187q0 -345 260 -345q216 0 326 303v229l-3 424q0 8 4.5 12.5t12.5 4.5h69q17 0 17 -17l-5 -433l4 -563q0 -17 -16 -17h-67q-16 0 -16 17l4 198q-50 -101 -139 -170t-212 -69
q-160 0 -248 104.5zM337 1172q-8 0 -12.5 4.5t-4.5 12.5v104q0 17 17 17h73q8 0 12.5 -4.5t4.5 -12.5v-104q0 -7 -5 -12t-12 -5h-73zM582 1172q-8 0 -12.5 5t-4.5 12v104q0 8 4.5 12.5t12.5 4.5h73q8 0 12.5 -4.5t4.5 -12.5v-104q0 -7 -5 -12t-12 -5h-73z" />
    <glyph glyph-name="yacute" unicode="&#xfd;" horiz-adv-x="897" 
d="M768 1016q5 14 19 14h71q9 0 13 -5.5t1 -13.5l-469 -1337q-4 -14 -19 -14h-60q-9 0 -12.5 5.5t-0.5 13.5l116 323l-401 1009q-1 3 -1 7q0 12 14 12h78q13 0 19 -13l338 -878zM295 1151q-6 -2 -8 -2q-7 0 -14 10l-9 24q-3 5 -3 9q0 9 10 13l401 200q5 3 9 3q8 0 13 -10
l19 -48q2 -4 2 -9q0 -9 -10 -13z" />
    <glyph glyph-name="thorn" unicode="&#xfe;" horiz-adv-x="1035" 
d="M778 982q93 -70 141 -191t48 -273q0 -150 -48.5 -272.5t-142 -194t-222.5 -71.5q-120 0 -207 57.5t-135 166.5l3 -527q0 -17 -17 -17h-69q-17 0 -17 17l5 817l-5 889q0 17 17 17h67q16 0 16 -17l-5 -570q49 113 138.5 176t209.5 63q130 0 223 -70zM720 114
q75 59 111.5 161.5t36.5 231.5q0 134 -36 240.5t-111 168t-186 61.5q-101 0 -175.5 -52t-115 -154.5t-40.5 -250.5q0 -146 39 -250.5t113 -159.5t177 -55q112 0 187 59z" />
    <glyph glyph-name="ydieresis" unicode="&#xff;" horiz-adv-x="897" 
d="M768 1016q5 14 19 14h71q9 0 13 -5.5t1 -13.5l-469 -1337q-4 -14 -19 -14h-60q-9 0 -12.5 5.5t-0.5 13.5l116 323l-401 1009q-1 3 -1 7q0 12 14 12h78q13 0 19 -13l338 -878zM294 1172q-8 0 -12.5 4.5t-4.5 12.5v104q0 17 17 17h73q8 0 12.5 -4.5t4.5 -12.5v-104
q0 -7 -5 -12t-12 -5h-73zM539 1172q-8 0 -12.5 5t-4.5 12v104q0 8 4.5 12.5t12.5 4.5h73q8 0 12.5 -4.5t4.5 -12.5v-104q0 -7 -5 -12t-12 -5h-73z" />
    <glyph glyph-name="Amacron" unicode="&#x100;" horiz-adv-x="1192" 
d="M1166 19q1 -2 1 -6q0 -6 -4 -9.5t-11 -3.5h-75q-14 0 -19 13l-164 458h-602l-163 -458q-5 -13 -19 -13h-70q-9 0 -13 5.5t0 13.5l501 1368q4 13 19 13h100q15 0 19 -13zM866 556l-273 764l-273 -764h546zM346 1581q-17 0 -17 17v46q0 16 17 16h501q17 0 17 -16v-46
q0 -17 -17 -17h-501z" />
    <glyph glyph-name="amacron" unicode="&#x101;" horiz-adv-x="1035" 
d="M918 534l5 -517q0 -8 -4.5 -12.5t-12.5 -4.5h-67q-16 0 -16 17l4 200q-49 -112 -137 -173.5t-210 -61.5q-130 0 -223 69.5t-141 190t-48 272.5q0 150 48.5 272t142 193t222.5 71q121 0 209 -58t136 -169l-4 190q0 8 4.5 12.5t12.5 4.5h67q8 0 12.5 -4.5t4.5 -12.5z
M675 107.5q74 51.5 115 153.5t41 251q0 145 -39 249t-113 159.5t-177 55.5q-111 0 -186.5 -59t-112 -161t-36.5 -231q0 -134 36 -240t111 -167.5t186 -61.5q101 0 175 51.5zM246 1211q-17 0 -17 17v46q0 16 17 16h501q17 0 17 -16v-46q0 -17 -17 -17h-501z" />
    <glyph glyph-name="Abreve" unicode="&#x102;" horiz-adv-x="1192" 
d="M1166 19q1 -2 1 -6q0 -6 -4 -9.5t-11 -3.5h-75q-14 0 -19 13l-164 458h-602l-163 -458q-5 -13 -19 -13h-70q-9 0 -13 5.5t0 13.5l501 1368q4 13 19 13h100q15 0 19 -13zM866 556l-273 764l-273 -764h546zM480.5 1547.5q-51.5 27.5 -81 76t-33.5 109.5v2q0 15 16 15h42
q15 0 17 -16q5 -64 45.5 -102.5t111.5 -38.5q68 0 110 39t47 102q2 16 17 16h43q16 0 16 -16q-4 -61 -33.5 -109.5t-81 -76.5t-118.5 -28q-66 0 -117.5 27.5z" />
    <glyph glyph-name="abreve" unicode="&#x103;" horiz-adv-x="1035" 
d="M918 534l5 -517q0 -8 -4.5 -12.5t-12.5 -4.5h-67q-16 0 -16 17l4 200q-49 -112 -137 -173.5t-210 -61.5q-130 0 -223 69.5t-141 190t-48 272.5q0 150 48.5 272t142 193t222.5 71q121 0 209 -58t136 -169l-4 190q0 8 4.5 12.5t12.5 4.5h67q8 0 12.5 -4.5t4.5 -12.5z
M675 107.5q74 51.5 115 153.5t41 251q0 145 -39 249t-113 159.5t-177 55.5q-111 0 -186.5 -59t-112 -161t-36.5 -231q0 -134 36 -240t111 -167.5t186 -61.5q101 0 175 51.5zM380.5 1177.5q-51.5 27.5 -81 76t-33.5 109.5v2q0 15 16 15h42q15 0 17 -16q5 -64 45.5 -102.5
t111.5 -38.5q68 0 110 39t47 102q2 16 17 16h43q16 0 16 -16q-4 -61 -33.5 -109.5t-81 -76.5t-118.5 -28q-66 0 -117.5 27.5z" />
    <glyph glyph-name="Aogonek" unicode="&#x104;" horiz-adv-x="1192" 
d="M1226 -275q17 0 17 -17v-43q0 -17 -17 -17h-82q-61 0 -108.5 20.5t-74 58t-26.5 85.5q0 62 34.5 111.5t91.5 84.5l-3 5l-164 458h-602l-163 -458q-5 -13 -19 -13h-70q-9 0 -13 5.5t0 13.5l501 1368q4 13 19 13h100q15 0 19 -13l500 -1368q1 -2 1 -6q0 -6 -4 -9.5
t-11 -3.5h-12q-46 -23 -83 -67.5t-37 -100.5q0 -53 35.5 -80t92.5 -27h78zM593 1320l-273 -764h546z" />
    <glyph glyph-name="aogonek" unicode="&#x105;" horiz-adv-x="1035" 
d="M979 -275q17 0 17 -17v-43q0 -17 -17 -17h-82q-61 0 -108.5 20.5t-74 58t-26.5 85.5q0 65 37.5 115.5t97.5 85.5v4l4 200q-49 -112 -137 -173.5t-210 -61.5q-130 0 -223 69.5t-141 190t-48 272.5q0 150 48.5 272t142 193t222.5 71q121 0 209 -58t136 -169l-4 190
q0 8 4.5 12.5t12.5 4.5h67q8 0 12.5 -4.5t4.5 -12.5l-5 -479l5 -517q0 -8 -4.5 -12.5t-12.5 -4.5h-13q-46 -23 -83 -67.5t-37 -100.5q0 -53 35.5 -80t92.5 -27h78zM675 107.5q74 51.5 115 153.5t41 251q0 145 -39 249t-113 159.5t-177 55.5q-111 0 -186.5 -59t-112 -161
t-36.5 -231q0 -134 36 -240t111 -167.5t186 -61.5q101 0 175 51.5z" />
    <glyph glyph-name="Cacute" unicode="&#x106;" horiz-adv-x="1332" 
d="M361.5 62q-139.5 84 -212.5 247.5t-73 398.5q0 218 75 379.5t215.5 248t333.5 86.5q215 0 364.5 -116t189.5 -365v-4q0 -15 -15 -15h-71q-15 0 -18 16q-32 205 -153 303t-299 98q-161 0 -277 -78.5t-177 -221t-61 -333.5q0 -214 62 -358.5t177 -215.5t276 -71
q129 0 229.5 49t161.5 145.5t72 235.5q2 17 17 17h71q9 0 13 -5t3 -14q-17 -164 -91.5 -279t-196 -173.5t-278.5 -58.5q-198 0 -337.5 84zM534 1521q-6 -2 -8 -2q-7 0 -14 10l-9 24q-3 5 -3 9q0 9 10 13l401 200q5 3 9 3q8 0 13 -10l19 -48q2 -4 2 -9q0 -9 -10 -13z" />
    <glyph glyph-name="cacute" unicode="&#x107;" horiz-adv-x="1002" 
d="M273.5 44.5q-101.5 65.5 -153.5 185.5t-52 282t52 283.5t154 188.5t248 67q121 0 210.5 -43.5t141 -123t62.5 -186.5v-4q0 -13 -15 -13h-59q-15 0 -18 16q-21 137 -106.5 208t-215.5 71q-175 0 -263 -123.5t-88 -340.5t87.5 -337.5t261.5 -121.5q143 0 233 81.5
t104 228.5q2 16 17 16h59q8 0 12.5 -4t3.5 -11q-10 -113 -62 -200t-145.5 -136t-222.5 -49q-144 0 -245.5 65.5zM362 1151q-6 -2 -8 -2q-7 0 -14 10l-9 24q-3 5 -3 9q0 9 10 13l401 200q5 3 9 3q8 0 13 -10l19 -48q2 -4 2 -9q0 -9 -10 -13z" />
    <glyph glyph-name="Ccircumflex" unicode="&#x108;" horiz-adv-x="1332" 
d="M361.5 62q-139.5 84 -212.5 247.5t-73 398.5q0 218 75 379.5t215.5 248t333.5 86.5q215 0 364.5 -116t189.5 -365v-4q0 -15 -15 -15h-71q-15 0 -18 16q-32 205 -153 303t-299 98q-161 0 -277 -78.5t-177 -221t-61 -333.5q0 -214 62 -358.5t177 -215.5t276 -71
q129 0 229.5 49t161.5 145.5t72 235.5q2 17 17 17h71q9 0 13 -5t3 -14q-17 -164 -91.5 -279t-196 -173.5t-278.5 -58.5q-198 0 -337.5 84zM399 1560q-2 6 -2 9q0 9 9 13l251 132q8 5 21 5h27q12 0 21 -5l250 -131q9 -4 9 -14q0 -6 -2 -9l-11 -26q-4 -10 -13 -10q-6 0 -9 2
l-259 111l-260 -109q-3 -2 -9 -2q-8 0 -12 10z" />
    <glyph glyph-name="ccircumflex" unicode="&#x109;" horiz-adv-x="1002" 
d="M273.5 44.5q-101.5 65.5 -153.5 185.5t-52 282t52 283.5t154 188.5t248 67q121 0 210.5 -43.5t141 -123t62.5 -186.5v-4q0 -13 -15 -13h-59q-15 0 -18 16q-21 137 -106.5 208t-215.5 71q-175 0 -263 -123.5t-88 -340.5t87.5 -337.5t261.5 -121.5q143 0 233 81.5
t104 228.5q2 16 17 16h59q8 0 12.5 -4t3.5 -11q-10 -113 -62 -200t-145.5 -136t-222.5 -49q-144 0 -245.5 65.5zM226 1190q-2 6 -2 9q0 9 9 13l251 132q8 5 21 5h27q12 0 21 -5l250 -131q9 -4 9 -14q0 -6 -2 -9l-11 -26q-4 -10 -13 -10q-6 0 -9 2l-259 111l-260 -109
q-3 -2 -9 -2q-8 0 -12 10z" />
    <glyph glyph-name="Cdotaccent" unicode="&#x10a;" horiz-adv-x="1332" 
d="M361.5 62q-139.5 84 -212.5 247.5t-73 398.5q0 218 75 379.5t215.5 248t333.5 86.5q215 0 364.5 -116t189.5 -365v-4q0 -15 -15 -15h-71q-15 0 -18 16q-32 205 -153 303t-299 98q-161 0 -277 -78.5t-177 -221t-61 -333.5q0 -214 62 -358.5t177 -215.5t276 -71
q129 0 229.5 49t161.5 145.5t72 235.5q2 17 17 17h71q9 0 13 -5t3 -14q-17 -164 -91.5 -279t-196 -173.5t-278.5 -58.5q-198 0 -337.5 84zM658 1542q-8 0 -12.5 4.5t-4.5 12.5v104q0 17 17 17h68q17 0 17 -17v-104q0 -8 -4.5 -12.5t-12.5 -4.5h-68z" />
    <glyph glyph-name="cdotaccent" unicode="&#x10b;" horiz-adv-x="1002" 
d="M273.5 44.5q-101.5 65.5 -153.5 185.5t-52 282t52 283.5t154 188.5t248 67q121 0 210.5 -43.5t141 -123t62.5 -186.5v-4q0 -13 -15 -13h-59q-15 0 -18 16q-21 137 -106.5 208t-215.5 71q-175 0 -263 -123.5t-88 -340.5t87.5 -337.5t261.5 -121.5q143 0 233 81.5
t104 228.5q2 16 17 16h59q8 0 12.5 -4t3.5 -11q-10 -113 -62 -200t-145.5 -136t-222.5 -49q-144 0 -245.5 65.5zM485 1172q-8 0 -12.5 4.5t-4.5 12.5v104q0 17 17 17h68q17 0 17 -17v-104q0 -8 -4.5 -12.5t-12.5 -4.5h-68z" />
    <glyph glyph-name="Ccaron" unicode="&#x10c;" horiz-adv-x="1332" 
d="M361.5 62q-139.5 84 -212.5 247.5t-73 398.5q0 218 75 379.5t215.5 248t333.5 86.5q215 0 364.5 -116t189.5 -365v-4q0 -15 -15 -15h-71q-15 0 -18 16q-32 205 -153 303t-299 98q-161 0 -277 -78.5t-177 -221t-61 -333.5q0 -214 62 -358.5t177 -215.5t276 -71
q129 0 229.5 49t161.5 145.5t72 235.5q2 17 17 17h71q9 0 13 -5t3 -14q-17 -164 -91.5 -279t-196 -173.5t-278.5 -58.5q-198 0 -337.5 84zM406 1652q-9 5 -9 13q0 3 2 9l11 24q5 10 13 10l8 -2l260 -110l258 112q3 2 9 2q9 0 13 -10l12 -26q2 -6 2 -9q0 -9 -9 -14l-251 -130
q-7 -5 -21 -5h-26q-13 0 -21 5z" />
    <glyph glyph-name="ccaron" unicode="&#x10d;" horiz-adv-x="1002" 
d="M273.5 44.5q-101.5 65.5 -153.5 185.5t-52 282t52 283.5t154 188.5t248 67q121 0 210.5 -43.5t141 -123t62.5 -186.5v-4q0 -13 -15 -13h-59q-15 0 -18 16q-21 137 -106.5 208t-215.5 71q-175 0 -263 -123.5t-88 -340.5t87.5 -337.5t261.5 -121.5q143 0 233 81.5
t104 228.5q2 16 17 16h59q8 0 12.5 -4t3.5 -11q-10 -113 -62 -200t-145.5 -136t-222.5 -49q-144 0 -245.5 65.5zM234 1282q-9 5 -9 13q0 3 2 9l11 24q5 10 13 10l8 -2l260 -110l258 112q3 2 9 2q9 0 13 -10l12 -26q2 -6 2 -9q0 -9 -9 -14l-251 -130q-7 -5 -21 -5h-26
q-13 0 -21 5z" />
    <glyph glyph-name="Dcaron" unicode="&#x10e;" horiz-adv-x="1308" 
d="M139 0q-17 0 -17 17l6 719l-6 647q0 17 17 17h409q200 0 355.5 -84.5t242 -241t86.5 -365.5q0 -224 -92.5 -384t-247.5 -242.5t-340 -82.5h-413zM227 737l5 -655h336q139 0 266.5 67.5t209 208.5t81.5 349q0 195 -76 333t-204.5 208t-284.5 70h-328zM337 1652q-9 5 -9 13
q0 3 2 9l11 24q5 10 13 10l8 -2l260 -110l258 112q3 2 9 2q9 0 13 -10l12 -26q2 -6 2 -9q0 -9 -9 -14l-251 -130q-7 -5 -21 -5h-26q-13 0 -21 5z" />
    <glyph glyph-name="dcaron" unicode="&#x10f;" horiz-adv-x="1035" 
d="M918 843l5 -826q0 -8 -4.5 -12.5t-12.5 -4.5h-67q-8 0 -12.5 4.5t-4.5 12.5l4 197q-48 -111 -136.5 -172.5t-209.5 -61.5q-130 0 -223 70t-141 191t-48 273q0 150 48.5 272.5t142 194t222.5 71.5q119 0 206 -56.5t136 -165.5l-3 553q0 8 4.5 12.5t12.5 4.5h69
q8 0 12.5 -4.5t4.5 -12.5zM673.5 105.5q74.5 51.5 116 154t41.5 251.5q0 146 -39 251t-113 161t-177 56q-111 0 -186.5 -59.5t-112 -162.5t-36.5 -233q0 -134 36 -240t111 -168t186 -62q99 0 173.5 51.5zM1070 1130q-1 -7 -6.5 -10.5t-12.5 -3.5h-39q-9 0 -12.5 5t-1.5 13
l84 336q3 14 18 14h59q9 0 13 -5t2 -14z" />
    <glyph glyph-name="Dcroat" unicode="&#x110;" horiz-adv-x="1327" 
d="M567 1400q200 0 355.5 -84.5t242.5 -241t87 -365.5q0 -224 -92.5 -384t-248 -242.5t-340.5 -82.5h-413q-16 0 -16 17l5 697h-138q-17 0 -17 16v49q0 7 4.5 11.5t12.5 4.5h138l-5 588q0 17 16 17h409zM587 82q139 0 267 67.5t209.5 208.5t81.5 349q0 195 -76 333
t-204.5 208t-285.5 70h-327l-5 -523h405q8 0 12.5 -4.5t4.5 -11.5v-49q0 -7 -4.5 -11.5t-12.5 -4.5h-405l5 -632h335z" />
    <glyph glyph-name="dcroat" unicode="&#x111;" horiz-adv-x="1035" 
d="M1032 1237q16 0 16 -17v-42q0 -8 -4.5 -12.5t-11.5 -4.5h-112l-2 -318l5 -826q0 -8 -4.5 -12.5t-12.5 -4.5h-67q-8 0 -12.5 4.5t-4.5 12.5l4 197q-48 -111 -137 -172.5t-209 -61.5q-130 0 -223 70t-141 191t-48 273q0 150 48.5 272.5t142 194t222.5 71.5q119 0 206 -56.5
t136 -165.5l-1 331h-324q-8 0 -12.5 4.5t-4.5 12.5v42q0 17 17 17h322v146q0 8 4.5 12.5t12.5 4.5h69q8 0 12.5 -4.5t4.5 -12.5l-1 -146h110zM673 105.5q75 51.5 116.5 154.5t41.5 251q0 146 -39 251t-113 161t-177 56q-112 0 -187 -59.5t-111.5 -162.5t-36.5 -233
q0 -134 36 -240t111 -168t186 -62q98 0 173 51.5z" />
    <glyph glyph-name="Emacron" unicode="&#x112;" horiz-adv-x="1025" 
d="M138 0q-16 0 -16 17l5 725l-5 641q0 17 16 17h779q8 0 12.5 -4.5t4.5 -12.5v-48q0 -7 -4.5 -12t-12.5 -5h-688l-6 -524h653q17 0 17 -16v-49q0 -7 -4.5 -11.5t-12.5 -4.5h-653l6 -631h704q8 0 12.5 -4.5t4.5 -12.5v-48q0 -8 -4.5 -12.5t-12.5 -4.5h-795zM292 1581
q-17 0 -17 17v46q0 16 17 16h501q17 0 17 -16v-46q0 -17 -17 -17h-501z" />
    <glyph glyph-name="emacron" unicode="&#x113;" horiz-adv-x="1032" 
d="M171 520q1 -232 93.5 -349.5t269.5 -117.5q138 0 219.5 77.5t106.5 219.5q3 15 18 15h62q9 0 13 -4.5t3 -12.5q-28 -176 -135 -272.5t-288 -96.5q-149 0 -253.5 66.5t-158 186.5t-53.5 280q0 158 54 280t156.5 190.5t242.5 68.5q135 0 233.5 -60.5t152 -176t56.5 -277.5
q0 -8 -4.5 -12.5t-12.5 -4.5h-775zM279.5 875.5q-88.5 -101.5 -105.5 -279.5h682q-1 108 -39.5 194.5t-114 136.5t-181.5 50q-153 0 -241.5 -101.5zM269 1211q-17 0 -17 17v46q0 16 17 16h501q17 0 17 -16v-46q0 -17 -17 -17h-501z" />
    <glyph glyph-name="Ebreve" unicode="&#x114;" horiz-adv-x="1025" 
d="M138 0q-16 0 -16 17l5 725l-5 641q0 17 16 17h779q8 0 12.5 -4.5t4.5 -12.5v-48q0 -7 -4.5 -12t-12.5 -5h-688l-6 -524h653q17 0 17 -16v-49q0 -7 -4.5 -11.5t-12.5 -4.5h-653l6 -631h704q8 0 12.5 -4.5t4.5 -12.5v-48q0 -8 -4.5 -12.5t-12.5 -4.5h-795zM426.5 1547.5
q-51.5 27.5 -81 76t-33.5 109.5v2q0 15 16 15h42q15 0 17 -16q5 -64 45.5 -102.5t111.5 -38.5q68 0 110 39t47 102q2 16 17 16h43q16 0 16 -16q-4 -61 -33.5 -109.5t-81 -76.5t-118.5 -28q-66 0 -117.5 27.5z" />
    <glyph glyph-name="ebreve" unicode="&#x115;" horiz-adv-x="1032" 
d="M171 520q1 -232 93.5 -349.5t269.5 -117.5q138 0 219.5 77.5t106.5 219.5q3 15 18 15h62q9 0 13 -4.5t3 -12.5q-28 -176 -135 -272.5t-288 -96.5q-149 0 -253.5 66.5t-158 186.5t-53.5 280q0 158 54 280t156.5 190.5t242.5 68.5q135 0 233.5 -60.5t152 -176t56.5 -277.5
q0 -8 -4.5 -12.5t-12.5 -4.5h-775zM279.5 875.5q-88.5 -101.5 -105.5 -279.5h682q-1 108 -39.5 194.5t-114 136.5t-181.5 50q-153 0 -241.5 -101.5zM403.5 1177.5q-51.5 27.5 -81 76t-33.5 109.5v2q0 15 16 15h42q15 0 17 -16q5 -64 45.5 -102.5t111.5 -38.5q68 0 110 39
t47 102q2 16 17 16h43q16 0 16 -16q-4 -61 -33.5 -109.5t-81 -76.5t-118.5 -28q-66 0 -117.5 27.5z" />
    <glyph glyph-name="Edotaccent" unicode="&#x116;" horiz-adv-x="1025" 
d="M138 0q-16 0 -16 17l5 725l-5 641q0 17 16 17h779q8 0 12.5 -4.5t4.5 -12.5v-48q0 -7 -4.5 -12t-12.5 -5h-688l-6 -524h653q17 0 17 -16v-49q0 -7 -4.5 -11.5t-12.5 -4.5h-653l6 -631h704q8 0 12.5 -4.5t4.5 -12.5v-48q0 -8 -4.5 -12.5t-12.5 -4.5h-795zM511 1542
q-8 0 -12.5 4.5t-4.5 12.5v104q0 17 17 17h68q17 0 17 -17v-104q0 -8 -4.5 -12.5t-12.5 -4.5h-68z" />
    <glyph glyph-name="edotaccent" unicode="&#x117;" horiz-adv-x="1032" 
d="M171 520q1 -232 93.5 -349.5t269.5 -117.5q138 0 219.5 77.5t106.5 219.5q3 15 18 15h62q9 0 13 -4.5t3 -12.5q-28 -176 -135 -272.5t-288 -96.5q-149 0 -253.5 66.5t-158 186.5t-53.5 280q0 158 54 280t156.5 190.5t242.5 68.5q135 0 233.5 -60.5t152 -176t56.5 -277.5
q0 -8 -4.5 -12.5t-12.5 -4.5h-775zM279.5 875.5q-88.5 -101.5 -105.5 -279.5h682q-1 108 -39.5 194.5t-114 136.5t-181.5 50q-153 0 -241.5 -101.5zM488 1172q-8 0 -12.5 4.5t-4.5 12.5v104q0 17 17 17h68q17 0 17 -17v-104q0 -8 -4.5 -12.5t-12.5 -4.5h-68z" />
    <glyph glyph-name="Eogonek" unicode="&#x118;" horiz-adv-x="1025" 
d="M937 -275q17 0 17 -17v-43q0 -17 -17 -17h-82q-61 0 -108.5 20.5t-74 58t-26.5 85.5q0 59 31 106.5t83 81.5h-622q-16 0 -16 17l5 725l-5 641q0 17 16 17h779q8 0 12.5 -4.5t4.5 -12.5v-48q0 -7 -4.5 -12t-12.5 -5h-688l-6 -524h653q17 0 17 -16v-49q0 -7 -4.5 -11.5
t-12.5 -4.5h-653l6 -631h704q8 0 12.5 -4.5t4.5 -12.5v-48q0 -8 -4.5 -12.5t-12.5 -4.5h-82q-46 -23 -83 -67.5t-37 -100.5q0 -53 35.5 -80t92.5 -27h78z" />
    <glyph glyph-name="eogonek" unicode="&#x119;" horiz-adv-x="1032" 
d="M958.5 524.5q-4.5 -4.5 -12.5 -4.5h-775q1 -232 93.5 -349.5t269.5 -117.5q138 0 219.5 77.5t106.5 219.5q3 15 18 15h62q9 0 13 -4.5t3 -12.5q-24 -149 -105.5 -242t-217.5 -118q-41 -27 -69.5 -67t-28.5 -89q0 -53 35.5 -80t92.5 -27h78q17 0 17 -17v-43q0 -17 -17 -17
h-82q-61 0 -108.5 20.5t-74 58t-26.5 85.5q0 50 23 92t63 75h-3q-149 0 -253.5 66.5t-158 186.5t-53.5 280q0 158 54 280t156.5 190.5t242.5 68.5q135 0 233.5 -60.5t152 -176t56.5 -277.5q0 -8 -4.5 -12.5zM856 596q-1 108 -39.5 194.5t-114 136.5t-181.5 50
q-153 0 -241.5 -101.5t-105.5 -279.5h682z" />
    <glyph glyph-name="Ecaron" unicode="&#x11a;" horiz-adv-x="1025" 
d="M138 0q-16 0 -16 17l5 725l-5 641q0 17 16 17h779q8 0 12.5 -4.5t4.5 -12.5v-48q0 -7 -4.5 -12t-12.5 -5h-688l-6 -524h653q17 0 17 -16v-49q0 -7 -4.5 -11.5t-12.5 -4.5h-653l6 -631h704q8 0 12.5 -4.5t4.5 -12.5v-48q0 -8 -4.5 -12.5t-12.5 -4.5h-795zM259 1652
q-9 5 -9 13q0 3 2 9l11 24q5 10 13 10l8 -2l260 -110l258 112q3 2 9 2q9 0 13 -10l12 -26q2 -6 2 -9q0 -9 -9 -14l-251 -130q-7 -5 -21 -5h-26q-13 0 -21 5z" />
    <glyph glyph-name="ecaron" unicode="&#x11b;" horiz-adv-x="1032" 
d="M171 520q1 -232 93.5 -349.5t269.5 -117.5q138 0 219.5 77.5t106.5 219.5q3 15 18 15h62q9 0 13 -4.5t3 -12.5q-28 -176 -135 -272.5t-288 -96.5q-149 0 -253.5 66.5t-158 186.5t-53.5 280q0 158 54 280t156.5 190.5t242.5 68.5q135 0 233.5 -60.5t152 -176t56.5 -277.5
q0 -8 -4.5 -12.5t-12.5 -4.5h-775zM279.5 875.5q-88.5 -101.5 -105.5 -279.5h682q-1 108 -39.5 194.5t-114 136.5t-181.5 50q-153 0 -241.5 -101.5zM236 1282q-9 5 -9 13q0 3 2 9l11 24q5 10 13 10l8 -2l260 -110l258 112q3 2 9 2q9 0 13 -10l12 -26q2 -6 2 -9q0 -9 -9 -14
l-251 -130q-7 -5 -21 -5h-26q-13 0 -21 5z" />
    <glyph glyph-name="Gcircumflex" unicode="&#x11c;" horiz-adv-x="1341" 
d="M369 66.5q-138 88.5 -215.5 252.5t-77.5 383t77.5 382t215 250.5t311.5 87.5q219 0 362.5 -113.5t188.5 -330.5l1 -5q0 -13 -16 -13h-71q-15 0 -18 14q-35 179 -151.5 272t-294.5 93q-145 0 -258 -76t-176.5 -221t-63.5 -343q0 -194 64 -338.5t178 -222t259 -77.5
q155 0 262.5 69t162 194.5t53.5 294.5h-471q-8 0 -12.5 4.5t-4.5 12.5v48q0 7 4.5 11.5t12.5 4.5h558q17 0 17 -19q3 -221 -63 -379t-197.5 -241t-322.5 -83q-176 0 -314 88.5zM379 1560q-2 6 -2 9q0 9 9 13l251 132q8 5 21 5h27q12 0 21 -5l250 -131q9 -4 9 -14q0 -6 -2 -9
l-11 -26q-4 -10 -13 -10q-6 0 -9 2l-259 111l-260 -109q-3 -2 -9 -2q-8 0 -12 10z" />
    <glyph glyph-name="gcircumflex" unicode="&#x11d;" horiz-adv-x="1028" 
d="M259.5 69q-94.5 65 -143 180t-48.5 265t48.5 271.5t143.5 192.5t228 71q119 0 205 -60t133 -174l-4 198q0 8 4.5 12.5t12.5 4.5h66q17 0 17 -17l-4 -485l2 -422q1 -241 -109.5 -366.5t-311.5 -125.5q-171 -1 -283.5 75.5t-126.5 232.5v2q0 16 16 16h66q15 0 18 -16
q15 -120 98.5 -177t210.5 -57q158 0 242.5 101.5t84.5 315.5v117q-47 -106 -133 -163t-204 -57q-134 0 -228.5 65zM675.5 123.5q72.5 47.5 113 145.5t40.5 244q0 145 -39 249t-113 159.5t-177 55.5q-108 0 -183 -58.5t-113 -163t-38 -240.5q0 -208 86 -323.5t255 -115.5
q96 0 168.5 47.5zM205 1190q-2 6 -2 9q0 9 9 13l251 132q8 5 21 5h27q12 0 21 -5l250 -131q9 -4 9 -14q0 -6 -2 -9l-11 -26q-4 -10 -13 -10q-6 0 -9 2l-259 111l-260 -109q-3 -2 -9 -2q-8 0 -12 10z" />
    <glyph glyph-name="Gbreve" unicode="&#x11e;" horiz-adv-x="1341" 
d="M369 66.5q-138 88.5 -215.5 252.5t-77.5 383t77.5 382t215 250.5t311.5 87.5q219 0 362.5 -113.5t188.5 -330.5l1 -5q0 -13 -16 -13h-71q-15 0 -18 14q-35 179 -151.5 272t-294.5 93q-145 0 -258 -76t-176.5 -221t-63.5 -343q0 -194 64 -338.5t178 -222t259 -77.5
q155 0 262.5 69t162 194.5t53.5 294.5h-471q-8 0 -12.5 4.5t-4.5 12.5v48q0 7 4.5 11.5t12.5 4.5h558q17 0 17 -19q3 -221 -63 -379t-197.5 -241t-322.5 -83q-176 0 -314 88.5zM553.5 1547.5q-51.5 27.5 -81 76t-33.5 109.5v2q0 15 16 15h42q15 0 17 -16q5 -64 45.5 -102.5
t111.5 -38.5q68 0 110 39t47 102q2 16 17 16h43q16 0 16 -16q-4 -61 -33.5 -109.5t-81 -76.5t-118.5 -28q-66 0 -117.5 27.5z" />
    <glyph glyph-name="gbreve" unicode="&#x11f;" horiz-adv-x="1028" 
d="M259.5 69q-94.5 65 -143 180t-48.5 265t48.5 271.5t143.5 192.5t228 71q119 0 205 -60t133 -174l-4 198q0 8 4.5 12.5t12.5 4.5h66q17 0 17 -17l-4 -485l2 -422q1 -241 -109.5 -366.5t-311.5 -125.5q-171 -1 -283.5 75.5t-126.5 232.5v2q0 16 16 16h66q15 0 18 -16
q15 -120 98.5 -177t210.5 -57q158 0 242.5 101.5t84.5 315.5v117q-47 -106 -133 -163t-204 -57q-134 0 -228.5 65zM675.5 123.5q72.5 47.5 113 145.5t40.5 244q0 145 -39 249t-113 159.5t-177 55.5q-108 0 -183 -58.5t-113 -163t-38 -240.5q0 -208 86 -323.5t255 -115.5
q96 0 168.5 47.5zM380.5 1177.5q-51.5 27.5 -81 76t-33.5 109.5v2q0 15 16 15h42q15 0 17 -16q5 -64 45.5 -102.5t111.5 -38.5q68 0 110 39t47 102q2 16 17 16h43q16 0 16 -16q-4 -61 -33.5 -109.5t-81 -76.5t-118.5 -28q-66 0 -117.5 27.5z" />
    <glyph glyph-name="Gdotaccent" unicode="&#x120;" horiz-adv-x="1341" 
d="M369 66.5q-138 88.5 -215.5 252.5t-77.5 383t77.5 382t215 250.5t311.5 87.5q219 0 362.5 -113.5t188.5 -330.5l1 -5q0 -13 -16 -13h-71q-15 0 -18 14q-35 179 -151.5 272t-294.5 93q-145 0 -258 -76t-176.5 -221t-63.5 -343q0 -194 64 -338.5t178 -222t259 -77.5
q155 0 262.5 69t162 194.5t53.5 294.5h-471q-8 0 -12.5 4.5t-4.5 12.5v48q0 7 4.5 11.5t12.5 4.5h558q17 0 17 -19q3 -221 -63 -379t-197.5 -241t-322.5 -83q-176 0 -314 88.5zM638 1542q-8 0 -12.5 4.5t-4.5 12.5v104q0 17 17 17h68q17 0 17 -17v-104q0 -8 -4.5 -12.5
t-12.5 -4.5h-68z" />
    <glyph glyph-name="gdotaccent" unicode="&#x121;" horiz-adv-x="1028" 
d="M259.5 69q-94.5 65 -143 180t-48.5 265t48.5 271.5t143.5 192.5t228 71q119 0 205 -60t133 -174l-4 198q0 8 4.5 12.5t12.5 4.5h66q17 0 17 -17l-4 -485l2 -422q1 -241 -109.5 -366.5t-311.5 -125.5q-171 -1 -283.5 75.5t-126.5 232.5v2q0 16 16 16h66q15 0 18 -16
q15 -120 98.5 -177t210.5 -57q158 0 242.5 101.5t84.5 315.5v117q-47 -106 -133 -163t-204 -57q-134 0 -228.5 65zM675.5 123.5q72.5 47.5 113 145.5t40.5 244q0 145 -39 249t-113 159.5t-177 55.5q-108 0 -183 -58.5t-113 -163t-38 -240.5q0 -208 86 -323.5t255 -115.5
q96 0 168.5 47.5zM465 1172q-8 0 -12.5 4.5t-4.5 12.5v104q0 17 17 17h68q17 0 17 -17v-104q0 -8 -4.5 -12.5t-12.5 -4.5h-68z" />
    <glyph glyph-name="uni0122" unicode="&#x122;" horiz-adv-x="1341" 
d="M369 66.5q-138 88.5 -215.5 252.5t-77.5 383t77.5 382t215 250.5t311.5 87.5q219 0 362.5 -113.5t188.5 -330.5l1 -5q0 -13 -16 -13h-71q-15 0 -18 14q-35 179 -151.5 272t-294.5 93q-145 0 -258 -76t-176.5 -221t-63.5 -343q0 -194 64 -338.5t178 -222t259 -77.5
q155 0 262.5 69t162 194.5t53.5 294.5h-471q-8 0 -12.5 4.5t-4.5 12.5v48q0 7 4.5 11.5t12.5 4.5h558q17 0 17 -19q3 -221 -63 -379t-197.5 -241t-322.5 -83q-176 0 -314 88.5zM614 -415q-7 0 -10.5 5.5t-1.5 13.5l38 139v115q0 8 4.5 12.5t12.5 4.5h65q8 0 12.5 -4.5
t4.5 -12.5v-104q0 -11 -6 -21l-76 -136q-9 -12 -20 -12h-23z" />
    <glyph glyph-name="uni0123" unicode="&#x123;" horiz-adv-x="1028" 
d="M259.5 69q-94.5 65 -143 180t-48.5 265t48.5 271.5t143.5 192.5t228 71q119 0 205 -60t133 -174l-4 198q0 8 4.5 12.5t12.5 4.5h66q17 0 17 -17l-4 -485l2 -422q1 -241 -109.5 -366.5t-311.5 -125.5q-171 -1 -283.5 75.5t-126.5 232.5v2q0 16 16 16h66q15 0 18 -16
q15 -120 98.5 -177t210.5 -57q158 0 242.5 101.5t84.5 315.5v117q-47 -106 -133 -163t-204 -57q-134 0 -228.5 65zM675.5 123.5q72.5 47.5 113 145.5t40.5 244q0 145 -39 249t-113 159.5t-177 55.5q-108 0 -183 -58.5t-113 -163t-38 -240.5q0 -208 86 -323.5t255 -115.5
q96 0 168.5 47.5zM444 1172q-8 0 -12.5 4.5t-4.5 12.5v101q0 11 6 20l85 137q7 12 19 12h31q9 0 13 -5.5t1 -14.5l-47 -138v-112q0 -8 -4.5 -12.5t-12.5 -4.5h-74z" />
    <glyph glyph-name="Hcircumflex" unicode="&#x124;" horiz-adv-x="1289" 
d="M1162 686l5 -669q0 -17 -16 -17h-74q-17 0 -17 17l5 659v38h-841v-38l5 -659q0 -17 -17 -17h-74q-16 0 -16 17l5 669l-5 697q0 17 16 17h74q17 0 17 -17l-4 -588h839l-4 588q0 17 17 17h74q16 0 16 -17zM353 1560q-2 6 -2 9q0 9 9 13l251 132q8 5 21 5h27q12 0 21 -5
l250 -131q9 -4 9 -14q0 -6 -2 -9l-11 -26q-4 -10 -13 -10q-6 0 -9 2l-259 111l-260 -109q-3 -2 -9 -2q-8 0 -12 10z" />
    <glyph glyph-name="hcircumflex" unicode="&#x125;" horiz-adv-x="1000" 
d="M808 949.5q88 -104.5 87 -318.5v-196l3 -418q0 -17 -17 -17h-69q-17 0 -17 17l3 417v194q0 182 -68 265.5t-191 83.5q-110 0 -192 -77t-139 -217l5 -666q0 -17 -17 -17h-68q-8 0 -12.5 4.5t-4.5 12.5l5 700l-5 668q0 7 4.5 11.5t12.5 4.5h68q17 0 17 -16l-5 -568
q51 101 139.5 169t210.5 68q162 0 250 -104.5zM-129 1561q-2 6 -2 9q0 9 9 13l251 132q8 5 21 5h27q12 0 21 -5l250 -131q9 -4 9 -14q0 -6 -2 -9l-11 -26q-4 -10 -13 -10q-6 0 -9 2l-259 111l-260 -109q-3 -2 -9 -2q-8 0 -12 10z" />
    <glyph glyph-name="Hbar" unicode="&#x126;" horiz-adv-x="1310" 
d="M1309 1097q16 0 16 -16v-49q0 -16 -16 -16h-134l-2 -330l4 -669q0 -17 -16 -17h-73q-8 0 -12.5 4.5t-4.5 12.5l4 638v38h-840v-38l4 -638q0 -8 -4.5 -12.5t-12.5 -4.5h-73q-16 0 -16 17l4 669l-2 330h-134q-16 0 -16 16v49q0 16 16 16h134l-2 286q0 17 16 17h73
q8 0 12.5 -4.5t4.5 -12.5l-2 -286h836l-2 286q0 8 4.5 12.5t12.5 4.5h73q16 0 16 -17l-2 -286h134zM237 1016l-1 -242h838l-1 242h-836z" />
    <glyph glyph-name="hbar" unicode="&#x127;" horiz-adv-x="993" 
d="M801 949.5q88 -104.5 87 -318.5v-196l3 -418q0 -17 -17 -17h-69q-17 0 -17 17l3 417v194q0 182 -68 265.5t-191 83.5q-210 0 -331 -294l5 -666q0 -17 -17 -17h-68q-8 0 -12.5 4.5t-4.5 12.5l5 700l-3 444h-111q-7 0 -11.5 4.5t-4.5 12.5v42q0 17 16 17h110l-1 148
q0 8 4.5 12.5t12.5 4.5h68q17 0 17 -17l-1 -148h325q16 0 16 -17v-42q0 -8 -4.5 -12.5t-11.5 -4.5h-326l-3 -344q51 101 139.5 169t210.5 68q162 0 250 -104.5z" />
    <glyph glyph-name="Itilde" unicode="&#x128;" horiz-adv-x="371" 
d="M149 0q-17 0 -17 17l6 707l-6 659q0 17 17 17h73q8 0 12.5 -4.5t4.5 -12.5l-6 -659l6 -707q0 -8 -4.5 -12.5t-12.5 -4.5h-73zM219 1558q-28 23 -60 67q-23 32 -40 48t-40 16q-71 0 -78 -123q0 -17 -17 -17h-33q-17 0 -17 17q4 86 40.5 138.5t104.5 52.5q46 0 74.5 -23.5
t59.5 -68.5q22 -31 38 -46.5t38 -15.5q39 0 59.5 33t22.5 90q0 8 4.5 12.5t12.5 4.5h33q17 0 16 -21q-3 -85 -40 -136t-106 -51q-44 0 -72 23z" />
    <glyph glyph-name="itilde" unicode="&#x129;" horiz-adv-x="347" 
d="M198.5 1189q-23.5 24 -48.5 69q-17 32 -30 47t-30 15q-50 0 -53 -124q0 -17 -16 -17h-32q-8 0 -12.5 4.5t-4.5 12.5q3 91 32.5 141t84.5 50q39 0 62.5 -24.5t47.5 -68.5q17 -32 30 -47t30 -15q49 0 52 124q0 8 4.5 12.5t12.5 4.5h32q16 0 16 -28q-5 -87 -33.5 -133.5
t-82.5 -46.5q-38 0 -61.5 24zM139 0q-17 0 -17 17l3 528l-3 468q0 17 17 17h69q8 0 12.5 -4.5t4.5 -12.5l-3 -468l3 -528q0 -8 -4.5 -12.5t-12.5 -4.5h-69z" />
    <glyph glyph-name="Imacron" unicode="&#x12a;" horiz-adv-x="371" 
d="M149 0q-17 0 -17 17l6 707l-6 659q0 17 17 17h73q8 0 12.5 -4.5t4.5 -12.5l-6 -659l6 -707q0 -8 -4.5 -12.5t-12.5 -4.5h-73zM-65 1581q-17 0 -17 17v46q0 16 17 16h501q17 0 17 -16v-46q0 -17 -17 -17h-501z" />
    <glyph glyph-name="imacron" unicode="&#x12b;" horiz-adv-x="347" 
d="M-27 1211q-8 0 -12.5 4.5t-4.5 12.5v46q0 7 4.5 11.5t12.5 4.5h401q16 0 16 -16v-46q0 -17 -16 -17h-401zM139 0q-17 0 -17 17l3 528l-3 468q0 17 17 17h69q8 0 12.5 -4.5t4.5 -12.5l-3 -468l3 -528q0 -8 -4.5 -12.5t-12.5 -4.5h-69z" />
    <glyph glyph-name="Ibreve" unicode="&#x12c;" horiz-adv-x="371" 
d="M149 0q-17 0 -17 17l6 707l-6 659q0 17 17 17h73q8 0 12.5 -4.5t4.5 -12.5l-6 -659l6 -707q0 -8 -4.5 -12.5t-12.5 -4.5h-73zM68.5 1547.5q-51.5 27.5 -81 76t-33.5 109.5v2q0 15 16 15h42q15 0 17 -16q5 -64 45.5 -102.5t111.5 -38.5q68 0 110 39t47 102q2 16 17 16h43
q16 0 16 -16q-4 -61 -33.5 -109.5t-81 -76.5t-118.5 -28q-66 0 -117.5 27.5z" />
    <glyph glyph-name="ibreve" unicode="&#x12d;" horiz-adv-x="347" 
d="M28 1209q-56 59 -61 154v2q0 15 16 15h40q16 0 18 -17q3 -64 38 -102.5t95 -38.5t95 38.5t39 102.5q2 17 17 17h41q16 0 16 -18q-5 -94 -61.5 -153t-146.5 -59t-146 59zM139 0q-17 0 -17 17l3 528l-3 468q0 17 17 17h69q8 0 12.5 -4.5t4.5 -12.5l-3 -468l3 -528
q0 -8 -4.5 -12.5t-12.5 -4.5h-69z" />
    <glyph glyph-name="Iogonek" unicode="&#x12e;" horiz-adv-x="371" 
d="M294 -275q17 0 17 -17v-43q0 -17 -17 -17h-82q-61 0 -108.5 20.5t-74 58t-26.5 85.5q0 63 36 113t94 85q-1 2 -1 7l6 707l-6 659q0 17 17 17h73q8 0 12.5 -4.5t4.5 -12.5l-6 -659l6 -707q0 -8 -4.5 -12.5t-12.5 -4.5h-14q-46 -23 -83 -67.5t-37 -100.5q0 -53 35.5 -80
t92.5 -27h78z" />
    <glyph glyph-name="iogonek" unicode="&#x12f;" horiz-adv-x="347" 
d="M141 1172q-8 0 -12.5 4.5t-4.5 12.5v104q0 17 17 17h68q17 0 17 -17v-104q0 -8 -4.5 -12.5t-12.5 -4.5h-68zM277 -275q17 0 17 -17v-43q0 -17 -17 -17h-82q-61 0 -108.5 20.5t-74 58t-26.5 85.5q0 65 37.5 115.5t98.5 86.5v3l3 528l-3 468q0 17 17 17h69q8 0 12.5 -4.5
t4.5 -12.5l-3 -468l3 -528q0 -8 -4.5 -12.5t-12.5 -4.5h-17q-46 -23 -83 -67.5t-37 -100.5q0 -53 35.5 -80t92.5 -27h78z" />
    <glyph glyph-name="Idotaccent" unicode="&#x130;" horiz-adv-x="371" 
d="M149 0q-17 0 -17 17l6 707l-6 659q0 17 17 17h73q8 0 12.5 -4.5t4.5 -12.5l-6 -659l6 -707q0 -8 -4.5 -12.5t-12.5 -4.5h-73zM153 1542q-8 0 -12.5 4.5t-4.5 12.5v104q0 17 17 17h68q17 0 17 -17v-104q0 -8 -4.5 -12.5t-12.5 -4.5h-68z" />
    <glyph glyph-name="dotlessi" unicode="&#x131;" horiz-adv-x="347" 
d="M139 0q-17 0 -17 17l3 528l-3 468q0 17 17 17h69q8 0 12.5 -4.5t4.5 -12.5l-3 -468l3 -528q0 -8 -4.5 -12.5t-12.5 -4.5h-69z" />
    <glyph glyph-name="IJ" unicode="&#x132;" horiz-adv-x="1297" 
d="M149 0q-17 0 -17 17l6 707l-6 659q0 17 17 17h73q8 0 12.5 -4.5t4.5 -12.5l-6 -659l6 -707q0 -8 -4.5 -12.5t-12.5 -4.5h-73zM515.5 102.5q-92.5 129.5 -95.5 377.5q0 8 4.5 12.5t12.5 4.5h67q17 0 17 -17q2 -137 27.5 -229t88 -143t170.5 -51q111 0 173.5 52.5t87 147.5
t24.5 237l1 454l-4 435q0 17 17 17h75q16 0 16 -17l-3 -435v-455q1 -257 -92 -388.5t-295 -131.5q-199 0 -291.5 129.5z" />
    <glyph glyph-name="ij" unicode="&#x133;" horiz-adv-x="693" 
d="M139 0q-17 0 -17 17l3 528l-3 468q0 17 17 17h69q8 0 12.5 -4.5t4.5 -12.5l-3 -468l3 -528q0 -8 -4.5 -12.5t-12.5 -4.5h-69zM141 1172q-8 0 -12.5 4.5t-4.5 12.5v104q0 17 17 17h68q17 0 17 -17v-104q0 -8 -4.5 -12.5t-12.5 -4.5h-68zM486 -340q-17 0 -17 17l3 636
l-3 700q0 17 17 17h69q8 0 12.5 -4.5t4.5 -12.5l-3 -700l3 -636q0 -8 -4.5 -12.5t-12.5 -4.5h-69zM488 1172q-8 0 -12.5 4.5t-4.5 12.5v104q0 17 17 17h68q17 0 17 -17v-104q0 -8 -4.5 -12.5t-12.5 -4.5h-68z" />
    <glyph glyph-name="Jcircumflex" unicode="&#x134;" horiz-adv-x="926" 
d="M144.5 102.5q-92.5 129.5 -95.5 377.5q0 8 4.5 12.5t12.5 4.5h67q17 0 17 -17q2 -137 27.5 -229t88 -143t170.5 -51q111 0 173.5 52.5t87 147.5t24.5 237l1 454l-4 435q0 17 17 17h75q16 0 16 -17l-3 -435v-455q1 -257 -92 -388.5t-295 -131.5q-199 0 -291.5 129.5z
M481 1560q-2 6 -2 9q0 9 9 13l251 132q8 5 21 5h27q12 0 21 -5l250 -131q9 -4 9 -14q0 -6 -2 -9l-11 -26q-4 -10 -13 -10q-6 0 -9 2l-259 111l-260 -109q-3 -2 -9 -2q-8 0 -12 10z" />
    <glyph glyph-name="jcircumflex" unicode="&#x135;" horiz-adv-x="347" 
d="M-68 1191q-2 3 -2 9q0 8 8 14l202 129q8 6 21 6h26q13 0 21 -6l201 -129q8 -6 8 -14q0 -6 -2 -9l-12 -25q-4 -10 -13 -10q-6 0 -10 3l-206 110l-208 -109q-5 -3 -9 -3q-10 0 -14 10zM139 -340q-17 0 -17 17l3 636l-3 700q0 17 17 17h69q8 0 12.5 -4.5t4.5 -12.5l-3 -700
l3 -636q0 -8 -4.5 -12.5t-12.5 -4.5h-69z" />
    <glyph glyph-name="uni0136" unicode="&#x136;" horiz-adv-x="1047" 
d="M1019 20q4 -6 4 -9q0 -11 -15 -11h-89q-14 0 -20 11l-490 757l-184 -211l4 -540q0 -8 -4.5 -12.5t-12.5 -4.5h-73q-17 0 -17 17l5 719l-5 647q0 17 17 17h73q8 0 12.5 -4.5t4.5 -12.5l-5 -630v-68l595 706q9 9 21 9h85q7 0 10.5 -2.5t3.5 -6.5q0 -5 -5 -12l-456 -529z
M461 -415q-7 0 -10.5 5.5t-1.5 13.5l38 139v115q0 8 4.5 12.5t12.5 4.5h65q8 0 12.5 -4.5t4.5 -12.5v-104q0 -11 -6 -21l-76 -136q-9 -12 -20 -12h-23z" />
    <glyph glyph-name="uni0137" unicode="&#x137;" horiz-adv-x="863" 
d="M821 19q3 -4 3 -9t-3.5 -8t-10.5 -3h-82q-13 0 -19 11l-351 576l-147 -150l3 -421q0 -8 -4.5 -12.5t-12.5 -4.5h-68q-17 0 -17 17l5 675l-5 693q0 17 17 17h68q8 0 12.5 -4.5t4.5 -12.5l-5 -692l1 -147l459 477q6 9 20 9h82q14 0 14 -10q0 -5 -6 -11l-349 -351zM365 -415
q-7 0 -10.5 5.5t-1.5 13.5l38 139v115q0 8 4.5 12.5t12.5 4.5h65q8 0 12.5 -4.5t4.5 -12.5v-104q0 -11 -6 -21l-76 -136q-9 -12 -20 -12h-23z" />
    <glyph glyph-name="Lacute" unicode="&#x139;" horiz-adv-x="929" 
d="M139 0q-17 0 -17 17l6 744l-6 622q0 17 17 17h73q17 0 17 -17l-5 -621l5 -680h656q7 0 11.5 -4.5t4.5 -12.5v-48q0 -17 -16 -17h-746zM68 1521q-6 -2 -8 -2q-7 0 -14 10l-9 24q-3 5 -3 9q0 9 10 13l401 200q5 3 9 3q8 0 13 -10l19 -48q2 -4 2 -9q0 -9 -10 -13z" />
    <glyph glyph-name="lacute" unicode="&#x13a;" horiz-adv-x="346" 
d="M139 0q-17 0 -17 17l5 698l-5 668q0 17 17 17h68q8 0 12.5 -4.5t4.5 -12.5l-5 -664l5 -702q0 -8 -4.5 -12.5t-12.5 -4.5h-68zM17 1521q-6 -2 -8 -2q-7 0 -14 10l-9 24q-3 5 -3 9q0 9 10 13l401 200q5 3 9 3q8 0 13 -10l19 -48q2 -4 2 -9q0 -9 -10 -13z" />
    <glyph glyph-name="uni013B" unicode="&#x13b;" horiz-adv-x="929" 
d="M139 0q-17 0 -17 17l6 744l-6 622q0 17 17 17h73q17 0 17 -17l-5 -621l5 -680h656q7 0 11.5 -4.5t4.5 -12.5v-48q0 -17 -16 -17h-746zM459 -415q-7 0 -10.5 5.5t-1.5 13.5l38 139v115q0 8 4.5 12.5t12.5 4.5h65q8 0 12.5 -4.5t4.5 -12.5v-104q0 -11 -6 -21l-76 -136
q-9 -12 -20 -12h-23z" />
    <glyph glyph-name="uni013C" unicode="&#x13c;" horiz-adv-x="346" 
d="M139 0q-17 0 -17 17l5 698l-5 668q0 17 17 17h68q8 0 12.5 -4.5t4.5 -12.5l-5 -664l5 -702q0 -8 -4.5 -12.5t-12.5 -4.5h-68zM100 -415q-7 0 -10.5 5.5t-1.5 13.5l38 139v115q0 8 4.5 12.5t12.5 4.5h65q8 0 12.5 -4.5t4.5 -12.5v-104q0 -11 -6 -21l-76 -136
q-9 -12 -20 -12h-23z" />
    <glyph glyph-name="Lcaron" unicode="&#x13d;" horiz-adv-x="929" 
d="M139 0q-17 0 -17 17l6 744l-6 622q0 17 17 17h73q17 0 17 -17l-5 -621l5 -680h656q7 0 11.5 -4.5t4.5 -12.5v-48q0 -17 -16 -17h-746zM442 1046q-1 -7 -6.5 -10.5t-12.5 -3.5h-39q-9 0 -12.5 5t-1.5 13l84 336q3 14 18 14h59q9 0 13 -5t2 -14z" />
    <glyph glyph-name="lcaron" unicode="&#x13e;" horiz-adv-x="346" 
d="M139 0q-17 0 -17 17l5 698l-5 668q0 17 17 17h68q8 0 12.5 -4.5t4.5 -12.5l-5 -664l5 -702q0 -8 -4.5 -12.5t-12.5 -4.5h-68zM371 1130q-1 -7 -6.5 -10.5t-12.5 -3.5h-39q-9 0 -12.5 5t-1.5 13l84 336q3 14 18 14h59q9 0 13 -5t2 -14z" />
    <glyph glyph-name="Ldot" unicode="&#x13f;" horiz-adv-x="929" 
d="M139 0q-17 0 -17 17l6 744l-6 622q0 17 17 17h73q17 0 17 -17l-5 -621l5 -680h656q7 0 11.5 -4.5t4.5 -12.5v-48q0 -17 -16 -17h-746zM597 733q-8 0 -12.5 4.5t-4.5 12.5v104q0 17 17 17h68q17 0 17 -17v-104q0 -8 -4.5 -12.5t-12.5 -4.5h-68z" />
    <glyph glyph-name="ldot" unicode="&#x140;" horiz-adv-x="448" 
d="M139 0q-17 0 -17 17l5 698l-5 668q0 17 17 17h68q8 0 12.5 -4.5t4.5 -12.5l-5 -664l5 -702q0 -8 -4.5 -12.5t-12.5 -4.5h-68zM362 591q-7 0 -11.5 4.5t-4.5 12.5v104q0 8 4.5 12.5t11.5 4.5h69q8 0 12.5 -4.5t4.5 -12.5v-104q0 -7 -4.5 -12t-12.5 -5h-69z" />
    <glyph glyph-name="Lslash" unicode="&#x141;" horiz-adv-x="939" 
d="M610 823q2 1 6 1q13 0 13 -15v-53q0 -14 -14 -19l-376 -118l4 -537h656q7 0 11.5 -4.5t4.5 -12.5v-48q0 -17 -16 -17h-746q-17 0 -17 17l4 571l-136 -44q-2 -1 -6 -1q-13 0 -13 15v53q0 15 14 19l142 45l-5 708q0 17 17 17h74q16 0 16 -17l-5 -677z" />
    <glyph glyph-name="lslash" unicode="&#x142;" horiz-adv-x="374" 
d="M352 750q4 3 9 3t8 -4t3 -11v-45q0 -13 -11 -19l-127 -73l4 -584q0 -17 -17 -17h-68q-8 0 -12.5 4.5t-4.5 12.5l4 530l-118 -67q-4 -3 -9 -3t-8 4t-3 11v44q0 13 11 20l127 73l1 86l-5 668q0 8 4.5 12.5t12.5 4.5h68q17 0 17 -17l-5 -664v-37z" />
    <glyph glyph-name="Nacute" unicode="&#x143;" horiz-adv-x="1315" 
d="M138 0q-16 0 -16 17l5 703l-4 663q0 8 4.5 12.5t12.5 4.5h81q15 0 20 -11l853 -1243v592l-3 645q0 17 16 17h70q8 0 12.5 -4.5t4.5 -12.5l-6 -663l4 -703q0 -17 -17 -17h-89q-14 0 -21 11l-844 1225v-543l4 -676q0 -8 -4.5 -12.5t-12.5 -4.5h-70zM508 1521q-6 -2 -8 -2
q-7 0 -14 10l-9 24q-3 5 -3 9q0 9 10 13l401 200q5 3 9 3q8 0 13 -10l19 -48q2 -4 2 -9q0 -9 -10 -13z" />
    <glyph glyph-name="nacute" unicode="&#x144;" horiz-adv-x="1001" 
d="M895 441l3 -424q0 -17 -17 -17h-68q-17 0 -17 17l3 424v187q0 345 -260 345q-216 0 -326 -303v-229l2 -424q0 -17 -17 -17h-69q-16 0 -16 17l4 433l-4 563q0 17 17 17h66q17 0 17 -17l-4 -198q50 101 138.5 170t211.5 69q160 0 248 -104.5t88 -312.5v-196zM349 1151
q-6 -2 -8 -2q-7 0 -14 10l-9 24q-3 5 -3 9q0 9 10 13l401 200q5 3 9 3q8 0 13 -10l19 -48q2 -4 2 -9q0 -9 -10 -13z" />
    <glyph glyph-name="uni0145" unicode="&#x145;" horiz-adv-x="1315" 
d="M138 0q-16 0 -16 17l5 703l-4 663q0 8 4.5 12.5t12.5 4.5h81q15 0 20 -11l853 -1243v592l-3 645q0 17 16 17h70q8 0 12.5 -4.5t4.5 -12.5l-6 -663l4 -703q0 -17 -17 -17h-89q-14 0 -21 11l-844 1225v-543l4 -676q0 -8 -4.5 -12.5t-12.5 -4.5h-70zM585 -415
q-7 0 -10.5 5.5t-1.5 13.5l38 139v115q0 8 4.5 12.5t12.5 4.5h65q8 0 12.5 -4.5t4.5 -12.5v-104q0 -11 -6 -21l-76 -136q-9 -12 -20 -12h-23z" />
    <glyph glyph-name="uni0146" unicode="&#x146;" horiz-adv-x="1001" 
d="M895 441l3 -424q0 -17 -17 -17h-68q-17 0 -17 17l3 424v187q0 345 -260 345q-216 0 -326 -303v-229l2 -424q0 -17 -17 -17h-69q-16 0 -16 17l4 433l-4 563q0 17 17 17h66q17 0 17 -17l-4 -198q50 101 138.5 170t211.5 69q160 0 248 -104.5t88 -312.5v-196zM433 -415
q-7 0 -10.5 5.5t-1.5 13.5l38 139v115q0 8 4.5 12.5t12.5 4.5h65q8 0 12.5 -4.5t4.5 -12.5v-104q0 -11 -6 -21l-76 -136q-9 -12 -20 -12h-23z" />
    <glyph glyph-name="Ncaron" unicode="&#x147;" horiz-adv-x="1315" 
d="M138 0q-16 0 -16 17l5 703l-4 663q0 8 4.5 12.5t12.5 4.5h81q15 0 20 -11l853 -1243v592l-3 645q0 17 16 17h70q8 0 12.5 -4.5t4.5 -12.5l-6 -663l4 -703q0 -17 -17 -17h-89q-14 0 -21 11l-844 1225v-543l4 -676q0 -8 -4.5 -12.5t-12.5 -4.5h-70zM380 1652q-9 5 -9 13
q0 3 2 9l11 24q5 10 13 10l8 -2l260 -110l258 112q3 2 9 2q9 0 13 -10l12 -26q2 -6 2 -9q0 -9 -9 -14l-251 -130q-7 -5 -21 -5h-26q-13 0 -21 5z" />
    <glyph glyph-name="ncaron" unicode="&#x148;" horiz-adv-x="1001" 
d="M895 441l3 -424q0 -17 -17 -17h-68q-17 0 -17 17l3 424v187q0 345 -260 345q-216 0 -326 -303v-229l2 -424q0 -17 -17 -17h-69q-16 0 -16 17l4 433l-4 563q0 17 17 17h66q17 0 17 -17l-4 -198q50 101 138.5 170t211.5 69q160 0 248 -104.5t88 -312.5v-196zM221 1282
q-9 5 -9 13q0 3 2 9l11 24q5 10 13 10l8 -2l260 -110l258 112q3 2 9 2q9 0 13 -10l12 -26q2 -6 2 -9q0 -9 -9 -14l-251 -130q-7 -5 -21 -5h-26q-13 0 -21 5z" />
    <glyph glyph-name="Eng" unicode="&#x14a;" horiz-adv-x="1314" 
d="M138 0q-16 0 -16 17l4 703l-3 663q0 8 4.5 12.5t12.5 4.5h80q14 0 21 -10l852 -1223l1 548l-4 668q0 8 4.5 12.5t12.5 4.5h69q16 0 16 -17l-4 -644l3 -808q0 -103 -33.5 -168t-84.5 -93.5t-108 -29.5q-54 0 -101 13q-13 4 -13 19v46q0 8 5 12t13 2q35 -9 79 -9
q146 0 146 212v57l-873 1247v-523l3 -699q0 -17 -17 -17h-69z" />
    <glyph glyph-name="eng" unicode="&#x14b;" horiz-adv-x="998" 
d="M569 -347q-13 6 -13 20v38q0 9 5 12.5t13 1.5q36 -8 78 -8q146 0 146 219v692q0 345 -259 345q-216 0 -326 -303v-229l2 -424q0 -17 -17 -17h-69q-16 0 -16 17l4 433l-4 563q0 8 4.5 12.5t12.5 4.5h66q17 0 17 -17l-4 -198q50 101 138.5 170t211.5 69q160 0 248.5 -104.5
t88.5 -312.5v-706q0 -102 -33 -167t-84.5 -94t-108.5 -30q-55 0 -101 13z" />
    <glyph glyph-name="Omacron" unicode="&#x14c;" horiz-adv-x="1436" 
d="M380.5 66q-145.5 88 -225 251.5t-79.5 383.5q0 221 79.5 384t225 250t338.5 87t338 -87t224.5 -250t79.5 -386q0 -220 -80 -383t-226 -250.5t-338 -87.5q-191 0 -336.5 88zM1002 137.5q121 76.5 186.5 220.5t65.5 341q0 198 -65.5 342.5t-186.5 221t-285 76.5t-284 -77
t-185 -221t-65 -342q0 -196 65.5 -340t186 -221t283.5 -77t284 76.5zM468 1581q-17 0 -17 17v46q0 16 17 16h501q17 0 17 -16v-46q0 -17 -17 -17h-501z" />
    <glyph glyph-name="omacron" unicode="&#x14d;" horiz-adv-x="1057" 
d="M279 45q-104 66 -157.5 186.5t-53.5 282.5q0 161 54 282.5t157.5 188t249.5 66.5t249.5 -66.5t157 -187.5t53.5 -282q0 -162 -53.5 -282.5t-157 -187t-249.5 -66.5t-250 66zM794.5 175.5q90.5 122.5 90.5 338.5q0 215 -91 339t-265 124q-175 -1 -266 -124.5t-91 -339.5
q0 -215 91.5 -337.5t265.5 -122.5q175 0 265.5 122.5zM277 1211q-17 0 -17 17v46q0 16 17 16h501q17 0 17 -16v-46q0 -17 -17 -17h-501z" />
    <glyph glyph-name="Obreve" unicode="&#x14e;" horiz-adv-x="1436" 
d="M380.5 66q-145.5 88 -225 251.5t-79.5 383.5q0 221 79.5 384t225 250t338.5 87t338 -87t224.5 -250t79.5 -386q0 -220 -80 -383t-226 -250.5t-338 -87.5q-191 0 -336.5 88zM1002 137.5q121 76.5 186.5 220.5t65.5 341q0 198 -65.5 342.5t-186.5 221t-285 76.5t-284 -77
t-185 -221t-65 -342q0 -196 65.5 -340t186 -221t283.5 -77t284 76.5zM601.5 1547.5q-51.5 27.5 -81 76t-33.5 109.5v2q0 15 16 15h42q15 0 17 -16q5 -64 45.5 -102.5t111.5 -38.5q68 0 110 39t47 102q2 16 17 16h43q16 0 16 -16q-4 -61 -33.5 -109.5t-81 -76.5t-118.5 -28
q-66 0 -117.5 27.5z" />
    <glyph glyph-name="obreve" unicode="&#x14f;" horiz-adv-x="1057" 
d="M279 45q-104 66 -157.5 186.5t-53.5 282.5q0 161 54 282.5t157.5 188t249.5 66.5t249.5 -66.5t157 -187.5t53.5 -282q0 -162 -53.5 -282.5t-157 -187t-249.5 -66.5t-250 66zM794.5 175.5q90.5 122.5 90.5 338.5q0 215 -91 339t-265 124q-175 -1 -266 -124.5t-91 -339.5
q0 -215 91.5 -337.5t265.5 -122.5q175 0 265.5 122.5zM411.5 1177.5q-51.5 27.5 -81 76t-33.5 109.5v2q0 15 16 15h42q15 0 17 -16q5 -64 45.5 -102.5t111.5 -38.5q68 0 110 39t47 102q2 16 17 16h43q16 0 16 -16q-4 -61 -33.5 -109.5t-81 -76.5t-118.5 -28
q-66 0 -117.5 27.5z" />
    <glyph glyph-name="Ohungarumlaut" unicode="&#x150;" horiz-adv-x="1436" 
d="M380.5 66q-145.5 88 -225 251.5t-79.5 383.5q0 221 79.5 384t225 250t338.5 87t338 -87t224.5 -250t79.5 -386q0 -220 -80 -383t-226 -250.5t-338 -87.5q-191 0 -336.5 88zM1002 137.5q121 76.5 186.5 220.5t65.5 341q0 198 -65.5 342.5t-186.5 221t-285 76.5t-284 -77
t-185 -221t-65 -342q0 -196 65.5 -340t186 -221t283.5 -77t284 76.5zM592 1555q-5 -6 -11 -6t-12 6l-16 14q-5 5 -5 11q0 7 4 12l222 273q4 7 11 7q6 0 12 -6l33 -33q6 -6 6 -12q0 -4 -5 -11zM817 1553q-7 -5 -12 -5t-12 5l-15 14q-6 6 -6 12t4 11l222 273q6 7 12 7
q7 0 11 -6l33 -32q6 -6 6 -12q0 -5 -5 -12z" />
    <glyph glyph-name="ohungarumlaut" unicode="&#x151;" horiz-adv-x="1057" 
d="M279 45q-104 66 -157.5 186.5t-53.5 282.5q0 161 54 282.5t157.5 188t249.5 66.5t249.5 -66.5t157 -187.5t53.5 -282q0 -162 -53.5 -282.5t-157 -187t-249.5 -66.5t-250 66zM794.5 175.5q90.5 122.5 90.5 338.5q0 215 -91 339t-265 124q-175 -1 -266 -124.5t-91 -339.5
q0 -215 91.5 -337.5t265.5 -122.5q175 0 265.5 122.5zM402 1185q-5 -6 -11 -6t-12 6l-16 14q-5 5 -5 11q0 7 4 12l222 273q4 7 11 7q6 0 12 -6l33 -33q6 -6 6 -12q0 -4 -5 -11zM627 1183q-7 -5 -12 -5t-12 5l-15 14q-6 6 -6 12t4 11l222 273q6 7 12 7q7 0 11 -6l33 -32
q6 -6 6 -12q0 -5 -5 -12z" />
    <glyph glyph-name="OE" unicode="&#x152;" horiz-adv-x="2013" 
d="M1922 82q8 0 12.5 -4.5t4.5 -12.5v-48q0 -17 -17 -17h-1134q-185 0 -340 82.5t-247.5 242.5t-92.5 384q0 209 86.5 365.5t242 241t355.5 84.5h1114q17 0 17 -17v-48q0 -8 -4.5 -12.5t-12.5 -4.5h-689l-4 -524h652q17 0 17 -16v-49q0 -16 -17 -16h-652l4 -631h705z
M1107 82l5 654l-5 582h-327q-157 0 -285.5 -70t-204.5 -208t-76 -333q0 -208 81.5 -349t209.5 -208.5t267 -67.5h335z" />
    <glyph glyph-name="oe" unicode="&#x153;" horiz-adv-x="1849" 
d="M277 45q-103 66 -156 186.5t-53 282.5q0 161 53 282.5t156.5 188t248.5 66.5q158 0 266.5 -90t145.5 -259q40 163 146 256t257 93q134 0 232 -60.5t151 -176t56 -277.5q0 -17 -17 -17h-774q1 -232 93.5 -349.5t268.5 -117.5q139 0 220.5 77.5t106.5 219.5q3 15 18 15h61
q9 0 13 -4.5t3 -12.5q-28 -176 -134 -272.5t-285 -96.5q-167 0 -274 90t-144 252q-38 -161 -143.5 -251.5t-266.5 -90.5q-146 0 -249 66zM793.5 176q90.5 123 90.5 338t-91 339t-265 124q-175 -1 -265.5 -124t-90.5 -340q0 -216 91 -338t266 -122q174 0 264.5 123z
M1099.5 875.5q-89.5 -101.5 -107.5 -279.5h681q-1 108 -39.5 194.5t-114 136.5t-181.5 50q-149 0 -238.5 -101.5z" />
    <glyph glyph-name="Racute" unicode="&#x154;" horiz-adv-x="1151" 
d="M1077 20q4 -6 4 -9q0 -11 -15 -11h-84q-13 0 -20 11l-103 169l-273 437h-361l4 -600q0 -8 -4.5 -12.5t-12.5 -4.5h-74q-16 0 -16 17l5 720l-5 646q0 17 16 17h436q150 0 259 -44t168.5 -130.5t59.5 -212.5q0 -173 -97.5 -269.5t-268.5 -118.5zM228 1319l-5 -577v-44h371
q175 0 269 76t94 238q0 148 -95.5 227.5t-267.5 79.5h-366zM437 1521q-6 -2 -8 -2q-7 0 -14 10l-9 24q-3 5 -3 9q0 9 10 13l401 200q5 3 9 3q8 0 13 -10l19 -48q2 -4 2 -9q0 -9 -10 -13z" />
    <glyph glyph-name="racute" unicode="&#x155;" horiz-adv-x="659" 
d="M129 0q-17 0 -17 17l5 516l-5 480q0 17 17 17h68q8 0 12.5 -4.5t3.5 -12.5l-6 -195q50 107 140.5 165t197.5 58q43 0 72 -7q7 -1 10.5 -6.5t3.5 -12.5v-47q0 -8 -5 -12t-14 -3q-27 7 -74 7q-75 0 -141.5 -33t-116 -102t-70.5 -172l4 -636q0 -17 -17 -17h-68zM215 1151
q-6 -2 -8 -2q-7 0 -14 10l-9 24q-3 5 -3 9q0 9 10 13l401 200q5 3 9 3q8 0 13 -10l19 -48q2 -4 2 -9q0 -9 -10 -13z" />
    <glyph glyph-name="uni0156" unicode="&#x156;" horiz-adv-x="1151" 
d="M1077 20q4 -6 4 -9q0 -11 -15 -11h-84q-13 0 -20 11l-103 169l-273 437h-361l4 -600q0 -8 -4.5 -12.5t-12.5 -4.5h-74q-16 0 -16 17l5 720l-5 646q0 17 16 17h436q150 0 259 -44t168.5 -130.5t59.5 -212.5q0 -173 -97.5 -269.5t-268.5 -118.5zM228 1319l-5 -577v-44h371
q175 0 269 76t94 238q0 148 -95.5 227.5t-267.5 79.5h-366zM514 -415q-7 0 -10.5 5.5t-1.5 13.5l38 139v115q0 8 4.5 12.5t12.5 4.5h65q8 0 12.5 -4.5t4.5 -12.5v-104q0 -11 -6 -21l-76 -136q-9 -12 -20 -12h-23z" />
    <glyph glyph-name="uni0157" unicode="&#x157;" horiz-adv-x="659" 
d="M129 0q-17 0 -17 17l5 516l-5 480q0 17 17 17h68q8 0 12.5 -4.5t3.5 -12.5l-6 -195q50 107 140.5 165t197.5 58q43 0 72 -7q7 -1 10.5 -6.5t3.5 -12.5v-47q0 -8 -5 -12t-14 -3q-27 7 -74 7q-75 0 -141.5 -33t-116 -102t-70.5 -172l4 -636q0 -17 -17 -17h-68zM90 -415
q-7 0 -10.5 5.5t-1.5 13.5l38 139v115q0 8 4.5 12.5t12.5 4.5h65q8 0 12.5 -4.5t4.5 -12.5v-104q0 -11 -6 -21l-76 -136q-9 -12 -20 -12h-23z" />
    <glyph glyph-name="Rcaron" unicode="&#x158;" horiz-adv-x="1151" 
d="M1077 20q4 -6 4 -9q0 -11 -15 -11h-84q-13 0 -20 11l-103 169l-273 437h-361l4 -600q0 -8 -4.5 -12.5t-12.5 -4.5h-74q-16 0 -16 17l5 720l-5 646q0 17 16 17h436q150 0 259 -44t168.5 -130.5t59.5 -212.5q0 -173 -97.5 -269.5t-268.5 -118.5zM228 1319l-5 -577v-44h371
q175 0 269 76t94 238q0 148 -95.5 227.5t-267.5 79.5h-366zM291 1652q-9 5 -9 13q0 3 2 9l11 24q5 10 13 10l8 -2l260 -110l258 112q3 2 9 2q9 0 13 -10l12 -26q2 -6 2 -9q0 -9 -9 -14l-251 -130q-7 -5 -21 -5h-26q-13 0 -21 5z" />
    <glyph glyph-name="rcaron" unicode="&#x159;" horiz-adv-x="659" 
d="M129 0q-17 0 -17 17l5 516l-5 480q0 17 17 17h68q8 0 12.5 -4.5t3.5 -12.5l-6 -195q50 107 140.5 165t197.5 58q43 0 72 -7q7 -1 10.5 -6.5t3.5 -12.5v-47q0 -8 -5 -12t-14 -3q-27 7 -74 7q-75 0 -141.5 -33t-116 -102t-70.5 -172l4 -636q0 -17 -17 -17h-68zM87 1282
q-9 5 -9 13q0 3 2 9l11 24q5 10 13 10l8 -2l260 -110l258 112q3 2 9 2q9 0 13 -10l12 -26q2 -6 2 -9q0 -9 -9 -14l-251 -130q-7 -5 -21 -5h-26q-13 0 -21 5z" />
    <glyph glyph-name="Sacute" unicode="&#x15a;" horiz-adv-x="1194" 
d="M220.5 110.5q-136.5 128.5 -147.5 361.5v2q0 7 4.5 11t11.5 4h72q16 0 18 -16q13 -201 116.5 -304.5t322.5 -103.5q182 0 294.5 80t112.5 245q0 102 -59 160t-145 84.5t-235 53.5q-160 29 -255.5 59t-162 99.5t-66.5 193.5q0 122 61 207.5t168.5 129t246.5 43.5
q239 0 371 -106.5t147 -313.5v-2q0 -15 -16 -15h-72q-17 0 -18 16q-11 171 -111.5 254t-298.5 83q-177 0 -279.5 -73t-102.5 -217q0 -91 55.5 -143t137.5 -76t223 -49q166 -30 266.5 -62.5t171 -108t70.5 -210.5t-66.5 -228.5t-182 -140t-260.5 -46.5q-256 0 -392.5 128.5z
M442 1521q-6 -2 -8 -2q-7 0 -14 10l-9 24q-3 5 -3 9q0 9 10 13l401 200q5 3 9 3q8 0 13 -10l19 -48q2 -4 2 -9q0 -9 -10 -13z" />
    <glyph glyph-name="sacute" unicode="&#x15b;" horiz-adv-x="952" 
d="M180.5 72.5q-112.5 93.5 -117.5 278.5q0 16 17 16h62q16 0 16 -16q10 -299 334 -299q89 0 157.5 26.5t107 77t38.5 120.5q0 75 -44.5 118t-110.5 62.5t-177 38.5q-125 22 -199.5 45.5t-126.5 78t-52 151.5q0 90 47.5 153t133 95.5t196.5 32.5t199.5 -33t141.5 -102
t58 -172q0 -17 -17 -17h-59q-17 0 -17 17q-7 120 -90.5 177.5t-215.5 57.5q-131 0 -206 -52.5t-75 -153.5q0 -66 41.5 -103.5t103 -55t166.5 -35.5q129 -22 208.5 -46.5t135 -84.5t55.5 -168q0 -92 -52.5 -160.5t-143 -104.5t-203.5 -36q-199 0 -311.5 93.5zM320 1151
q-6 -2 -8 -2q-7 0 -14 10l-9 24q-3 5 -3 9q0 9 10 13l401 200q5 3 9 3q8 0 13 -10l19 -48q2 -4 2 -9q0 -9 -10 -13z" />
    <glyph glyph-name="Scircumflex" unicode="&#x15c;" horiz-adv-x="1194" 
d="M220.5 110.5q-136.5 128.5 -147.5 361.5v2q0 7 4.5 11t11.5 4h72q16 0 18 -16q13 -201 116.5 -304.5t322.5 -103.5q182 0 294.5 80t112.5 245q0 102 -59 160t-145 84.5t-235 53.5q-160 29 -255.5 59t-162 99.5t-66.5 193.5q0 122 61 207.5t168.5 129t246.5 43.5
q239 0 371 -106.5t147 -313.5v-2q0 -15 -16 -15h-72q-17 0 -18 16q-11 171 -111.5 254t-298.5 83q-177 0 -279.5 -73t-102.5 -217q0 -91 55.5 -143t137.5 -76t223 -49q166 -30 266.5 -62.5t171 -108t70.5 -210.5t-66.5 -228.5t-182 -140t-260.5 -46.5q-256 0 -392.5 128.5z
M306 1560q-2 6 -2 9q0 9 9 13l251 132q8 5 21 5h27q12 0 21 -5l250 -131q9 -4 9 -14q0 -6 -2 -9l-11 -26q-4 -10 -13 -10q-6 0 -9 2l-259 111l-260 -109q-3 -2 -9 -2q-8 0 -12 10z" />
    <glyph glyph-name="scircumflex" unicode="&#x15d;" horiz-adv-x="952" 
d="M180.5 72.5q-112.5 93.5 -117.5 278.5q0 16 17 16h62q16 0 16 -16q10 -299 334 -299q89 0 157.5 26.5t107 77t38.5 120.5q0 75 -44.5 118t-110.5 62.5t-177 38.5q-125 22 -199.5 45.5t-126.5 78t-52 151.5q0 90 47.5 153t133 95.5t196.5 32.5t199.5 -33t141.5 -102
t58 -172q0 -17 -17 -17h-59q-17 0 -17 17q-7 120 -90.5 177.5t-215.5 57.5q-131 0 -206 -52.5t-75 -153.5q0 -66 41.5 -103.5t103 -55t166.5 -35.5q129 -22 208.5 -46.5t135 -84.5t55.5 -168q0 -92 -52.5 -160.5t-143 -104.5t-203.5 -36q-199 0 -311.5 93.5zM185 1190
q-2 6 -2 9q0 9 9 13l251 132q8 5 21 5h27q12 0 21 -5l250 -131q9 -4 9 -14q0 -6 -2 -9l-11 -26q-4 -10 -13 -10q-6 0 -9 2l-259 111l-260 -109q-3 -2 -9 -2q-8 0 -12 10z" />
    <glyph glyph-name="Scedilla" unicode="&#x15e;" horiz-adv-x="1194" 
d="M1060.5 176.5q-61.5 -91.5 -168 -139.5t-243.5 -54l-87 -300q-5 -15 -21 -11l-61 15q-16 5 -10 21l102 275q-236 10 -362 137.5t-137 351.5v2q0 7 4.5 11t11.5 4h72q16 0 18 -16q13 -201 116.5 -304.5t322.5 -103.5q182 0 294.5 80t112.5 245q0 102 -59 160t-145 84.5
t-235 53.5q-160 29 -255.5 59t-162 99.5t-66.5 193.5q0 122 61 207.5t168.5 129t246.5 43.5q239 0 371 -106.5t147 -313.5v-2q0 -15 -16 -15h-72q-17 0 -18 16q-11 171 -111.5 254t-298.5 83q-177 0 -279.5 -73t-102.5 -217q0 -91 55.5 -143t137.5 -76t223 -49
q166 -30 266.5 -62.5t171 -108t70.5 -210.5q0 -129 -61.5 -220.5z" />
    <glyph glyph-name="scedilla" unicode="&#x15f;" horiz-adv-x="952" 
d="M841.5 123q-49.5 -67 -136.5 -104t-195 -40l-86 -296q-5 -15 -21 -11l-61 15q-16 5 -10 21l101 273q-172 13 -269 106t-101 264q0 16 17 16h62q16 0 16 -16q10 -299 334 -299q89 0 157.5 26.5t107 77t38.5 120.5q0 75 -44.5 118t-110.5 62.5t-177 38.5
q-125 22 -199.5 45.5t-126.5 78t-52 151.5q0 90 47.5 153t133 95.5t196.5 32.5t199.5 -33t141.5 -102t58 -172q0 -17 -17 -17h-59q-17 0 -17 17q-7 120 -90.5 177.5t-215.5 57.5q-131 0 -206 -52.5t-75 -153.5q0 -66 41.5 -103.5t103 -55t166.5 -35.5q129 -22 208.5 -46.5
t135 -84.5t55.5 -168q0 -90 -49.5 -157z" />
    <glyph glyph-name="Scaron" unicode="&#x160;" horiz-adv-x="1194" 
d="M220.5 110.5q-136.5 128.5 -147.5 361.5v2q0 7 4.5 11t11.5 4h72q16 0 18 -16q13 -201 116.5 -304.5t322.5 -103.5q182 0 294.5 80t112.5 245q0 102 -59 160t-145 84.5t-235 53.5q-160 29 -255.5 59t-162 99.5t-66.5 193.5q0 122 61 207.5t168.5 129t246.5 43.5
q239 0 371 -106.5t147 -313.5v-2q0 -15 -16 -15h-72q-17 0 -18 16q-11 171 -111.5 254t-298.5 83q-177 0 -279.5 -73t-102.5 -217q0 -91 55.5 -143t137.5 -76t223 -49q166 -30 266.5 -62.5t171 -108t70.5 -210.5t-66.5 -228.5t-182 -140t-260.5 -46.5q-256 0 -392.5 128.5z
M314 1652q-9 5 -9 13q0 3 2 9l11 24q5 10 13 10l8 -2l260 -110l258 112q3 2 9 2q9 0 13 -10l12 -26q2 -6 2 -9q0 -9 -9 -14l-251 -130q-7 -5 -21 -5h-26q-13 0 -21 5z" />
    <glyph glyph-name="scaron" unicode="&#x161;" horiz-adv-x="952" 
d="M180.5 72.5q-112.5 93.5 -117.5 278.5q0 16 17 16h62q16 0 16 -16q10 -299 334 -299q89 0 157.5 26.5t107 77t38.5 120.5q0 75 -44.5 118t-110.5 62.5t-177 38.5q-125 22 -199.5 45.5t-126.5 78t-52 151.5q0 90 47.5 153t133 95.5t196.5 32.5t199.5 -33t141.5 -102
t58 -172q0 -17 -17 -17h-59q-17 0 -17 17q-7 120 -90.5 177.5t-215.5 57.5q-131 0 -206 -52.5t-75 -153.5q0 -66 41.5 -103.5t103 -55t166.5 -35.5q129 -22 208.5 -46.5t135 -84.5t55.5 -168q0 -92 -52.5 -160.5t-143 -104.5t-203.5 -36q-199 0 -311.5 93.5zM192 1282
q-9 5 -9 13q0 3 2 9l11 24q5 10 13 10l8 -2l260 -110l258 112q3 2 9 2q9 0 13 -10l12 -26q2 -6 2 -9q0 -9 -9 -14l-251 -130q-7 -5 -21 -5h-26q-13 0 -21 5z" />
    <glyph glyph-name="uni0162" unicode="&#x162;" horiz-adv-x="979" 
d="M934 1400q16 0 16 -17v-51q0 -16 -16 -16h-391l-5 -628l6 -671q0 -17 -17 -17h-2l-89 -317q-3 -14 -20 -11l-61 15q-16 5 -10 21l104 292q-14 3 -14 17l7 671l-6 628h-390q-17 0 -17 16v51q0 17 17 17h888z" />
    <glyph glyph-name="uni0163" unicode="&#x163;" horiz-adv-x="589" 
d="M285 951v-114l1 -568q0 -78 14 -121.5t44.5 -62t83.5 -18.5q55 0 98 8q2 1 6 1q13 0 13 -15v-43q0 -15 -11 -17q-73 -16 -113 -16h-10l-88 -302q-5 -15 -21 -11l-61 15q-16 5 -10 21l107 288q-72 21 -111 86t-39 186v683h-116q-16 0 -16 17v45q0 17 16 17h116l-2 241
q0 17 16 17h69q17 0 17 -17l-2 -241h243q16 0 16 -17v-45q0 -17 -16 -17h-244z" />
    <glyph glyph-name="Tcaron" unicode="&#x164;" horiz-adv-x="979" 
d="M452 0q-8 0 -12.5 4.5t-4.5 12.5l7 671l-6 628h-390q-17 0 -17 16v51q0 17 17 17h888q16 0 16 -17v-51q0 -16 -16 -16h-391l-5 -628l6 -671q0 -17 -17 -17h-75zM205 1652q-9 5 -9 13q0 3 2 9l11 24q5 10 13 10l8 -2l260 -110l258 112q3 2 9 2q9 0 13 -10l12 -26
q2 -6 2 -9q0 -9 -9 -14l-251 -130q-7 -5 -21 -5h-26q-13 0 -21 5z" />
    <glyph glyph-name="tcaron" unicode="&#x165;" horiz-adv-x="589" 
d="M250 50q-62 65 -62 218v683h-116q-16 0 -16 17v45q0 17 16 17h116l-2 241q0 17 16 17h69q17 0 17 -17l-2 -241h243q16 0 16 -17v-45q0 -17 -16 -17h-244v-114l1 -568q0 -78 14 -121.5t44.5 -62t83.5 -18.5q55 0 98 8q2 1 6 1q13 0 13 -15v-43q0 -15 -11 -17
q-73 -16 -113 -16q-109 0 -171 65zM444 1130q-1 -7 -6.5 -10.5t-12.5 -3.5h-39q-9 0 -12.5 5t-1.5 13l84 336q3 14 18 14h59q9 0 13 -5t2 -14z" />
    <glyph glyph-name="Tbar" unicode="&#x166;" horiz-adv-x="979" 
d="M934 1400q16 0 16 -17v-51q0 -16 -16 -16h-391l-5 -620h243q8 0 12.5 -4.5t4.5 -12.5v-48q0 -8 -4.5 -12.5t-12.5 -4.5h-243l6 -597q0 -17 -17 -17h-75q-8 0 -12.5 4.5t-4.5 12.5l6 597h-238q-17 0 -17 17v48q0 8 4.5 12.5t12.5 4.5h238l-5 620h-390q-17 0 -17 16v51
q0 17 17 17h888z" />
    <glyph glyph-name="tbar" unicode="&#x167;" horiz-adv-x="597" 
d="M286 951v-352h242q8 0 12.5 -4.5t4.5 -12.5v-45q0 -8 -4.5 -12.5t-12.5 -4.5h-242v-251q0 -78 14.5 -121.5t45 -62t82.5 -18.5q56 0 99 8q2 1 6 1q12 0 12 -15v-43q0 -16 -11 -17q-73 -16 -113 -16q-109 0 -171 65t-62 218v252h-115q-16 0 -16 17v45q0 17 16 17h115v352
h-115q-8 0 -12.5 4.5t-4.5 12.5v45q0 8 4.5 12.5t12.5 4.5h115l-2 241q0 17 17 17h69q16 0 16 -17l-2 -241h243q8 0 12.5 -4.5t4.5 -12.5v-45q0 -8 -4.5 -12.5t-12.5 -4.5h-243z" />
    <glyph glyph-name="Utilde" unicode="&#x168;" horiz-adv-x="1212" 
d="M243.5 124.5q-122.5 146.5 -121.5 412.5v487l-3 359q0 17 17 17h74q17 0 17 -17l-3 -358v-488q0 -218 92.5 -346t290.5 -128q199 0 292 127.5t93 346.5v487l-3 359q0 8 4.5 12.5t12.5 4.5h70q17 0 17 -17l-3 -359v-487q0 -267 -121 -413t-362 -146t-363.5 146.5z
M641 1558q-28 23 -60 67q-23 32 -40 48t-40 16q-71 0 -78 -123q0 -17 -17 -17h-33q-17 0 -17 17q4 86 40.5 138.5t104.5 52.5q46 0 74.5 -23.5t59.5 -68.5q22 -31 38 -46.5t38 -15.5q39 0 59.5 33t22.5 90q0 8 4.5 12.5t12.5 4.5h33q17 0 16 -21q-3 -85 -40 -136t-106 -51
q-44 0 -72 23z" />
    <glyph glyph-name="utilde" unicode="&#x169;" horiz-adv-x="1001" 
d="M193 80.5q-88 104.5 -88 312.5v196l-2 424q0 17 16 17h69q8 0 12.5 -4.5t4.5 -12.5l-3 -424v-187q0 -345 260 -345q216 0 326 303v229l-3 424q0 8 4.5 12.5t12.5 4.5h69q17 0 17 -17l-5 -433l4 -563q0 -17 -16 -17h-67q-16 0 -16 17l4 198q-50 -101 -139 -170t-212 -69
q-160 0 -248 104.5zM529 1188q-28 23 -60 67q-23 32 -40 48t-40 16q-71 0 -78 -123q0 -17 -17 -17h-33q-17 0 -17 17q4 86 40.5 138.5t104.5 52.5q46 0 74.5 -23.5t59.5 -68.5q22 -31 38 -46.5t38 -15.5q39 0 59.5 33t22.5 90q0 8 4.5 12.5t12.5 4.5h33q17 0 16 -21
q-3 -85 -40 -136t-106 -51q-44 0 -72 23z" />
    <glyph glyph-name="Umacron" unicode="&#x16a;" horiz-adv-x="1212" 
d="M243.5 124.5q-122.5 146.5 -121.5 412.5v487l-3 359q0 17 17 17h74q17 0 17 -17l-3 -358v-488q0 -218 92.5 -346t290.5 -128q199 0 292 127.5t93 346.5v487l-3 359q0 8 4.5 12.5t12.5 4.5h70q17 0 17 -17l-3 -359v-487q0 -267 -121 -413t-362 -146t-363.5 146.5z
M357 1581q-17 0 -17 17v46q0 16 17 16h501q17 0 17 -16v-46q0 -17 -17 -17h-501z" />
    <glyph glyph-name="umacron" unicode="&#x16b;" horiz-adv-x="1001" 
d="M193 80.5q-88 104.5 -88 312.5v196l-2 424q0 17 16 17h69q8 0 12.5 -4.5t4.5 -12.5l-3 -424v-187q0 -345 260 -345q216 0 326 303v229l-3 424q0 8 4.5 12.5t12.5 4.5h69q17 0 17 -17l-5 -433l4 -563q0 -17 -16 -17h-67q-16 0 -16 17l4 198q-50 -101 -139 -170t-212 -69
q-160 0 -248 104.5zM244 1211q-17 0 -17 17v46q0 16 17 16h501q17 0 17 -16v-46q0 -17 -17 -17h-501z" />
    <glyph glyph-name="Ubreve" unicode="&#x16c;" horiz-adv-x="1212" 
d="M243.5 124.5q-122.5 146.5 -121.5 412.5v487l-3 359q0 17 17 17h74q17 0 17 -17l-3 -358v-488q0 -218 92.5 -346t290.5 -128q199 0 292 127.5t93 346.5v487l-3 359q0 8 4.5 12.5t12.5 4.5h70q17 0 17 -17l-3 -359v-487q0 -267 -121 -413t-362 -146t-363.5 146.5z
M490.5 1547.5q-51.5 27.5 -81 76t-33.5 109.5v2q0 15 16 15h42q15 0 17 -16q5 -64 45.5 -102.5t111.5 -38.5q68 0 110 39t47 102q2 16 17 16h43q16 0 16 -16q-4 -61 -33.5 -109.5t-81 -76.5t-118.5 -28q-66 0 -117.5 27.5z" />
    <glyph glyph-name="ubreve" unicode="&#x16d;" horiz-adv-x="1001" 
d="M193 80.5q-88 104.5 -88 312.5v196l-2 424q0 17 16 17h69q8 0 12.5 -4.5t4.5 -12.5l-3 -424v-187q0 -345 260 -345q216 0 326 303v229l-3 424q0 8 4.5 12.5t12.5 4.5h69q17 0 17 -17l-5 -433l4 -563q0 -17 -16 -17h-67q-16 0 -16 17l4 198q-50 -101 -139 -170t-212 -69
q-160 0 -248 104.5zM378.5 1177.5q-51.5 27.5 -81 76t-33.5 109.5v2q0 15 16 15h42q15 0 17 -16q5 -64 45.5 -102.5t111.5 -38.5q68 0 110 39t47 102q2 16 17 16h43q16 0 16 -16q-4 -61 -33.5 -109.5t-81 -76.5t-118.5 -28q-66 0 -117.5 27.5z" />
    <glyph glyph-name="Uring" unicode="&#x16e;" horiz-adv-x="1212" 
d="M243.5 124.5q-122.5 146.5 -121.5 412.5v487l-3 359q0 17 17 17h74q17 0 17 -17l-3 -358v-488q0 -218 92.5 -346t290.5 -128q199 0 292 127.5t93 346.5v487l-3 359q0 8 4.5 12.5t12.5 4.5h70q17 0 17 -17l-3 -359v-487q0 -267 -121 -413t-362 -146t-363.5 146.5z
M511.5 1543q-42.5 24 -66.5 65.5t-24 92.5t24 92.5t66.5 65.5t94.5 24t94.5 -24t66.5 -65.5t24 -92.5t-24 -92.5t-66.5 -65.5t-94.5 -24t-94.5 24zM693 1608q34 36 34 93q0 58 -34 93.5t-87 35.5q-54 0 -86.5 -35t-32.5 -94q0 -57 32.5 -93t86.5 -36q53 0 87 36z" />
    <glyph glyph-name="uring" unicode="&#x16f;" horiz-adv-x="1001" 
d="M193 80.5q-88 104.5 -88 312.5v196l-2 424q0 17 16 17h69q8 0 12.5 -4.5t4.5 -12.5l-3 -424v-187q0 -345 260 -345q216 0 326 303v229l-3 424q0 8 4.5 12.5t12.5 4.5h69q17 0 17 -17l-5 -433l4 -563q0 -17 -16 -17h-67q-16 0 -16 17l4 198q-50 -101 -139 -170t-212 -69
q-160 0 -248 104.5zM399.5 1173q-42.5 24 -66.5 65.5t-24 92.5t24 92.5t66.5 65.5t94.5 24t94.5 -24t66.5 -65.5t24 -92.5t-24 -92.5t-66.5 -65.5t-94.5 -24t-94.5 24zM581 1238q34 36 34 93q0 58 -34 93.5t-87 35.5q-54 0 -86.5 -35t-32.5 -94q0 -57 32.5 -93t86.5 -36
q53 0 87 36z" />
    <glyph glyph-name="Uhungarumlaut" unicode="&#x170;" horiz-adv-x="1212" 
d="M243.5 124.5q-122.5 146.5 -121.5 412.5v487l-3 359q0 17 17 17h74q17 0 17 -17l-3 -358v-488q0 -218 92.5 -346t290.5 -128q199 0 292 127.5t93 346.5v487l-3 359q0 8 4.5 12.5t12.5 4.5h70q17 0 17 -17l-3 -359v-487q0 -267 -121 -413t-362 -146t-363.5 146.5z
M481 1555q-5 -6 -11 -6t-12 6l-16 14q-5 5 -5 11q0 7 4 12l222 273q4 7 11 7q6 0 12 -6l33 -33q6 -6 6 -12q0 -4 -5 -11zM706 1553q-7 -5 -12 -5t-12 5l-15 14q-6 6 -6 12t4 11l222 273q6 7 12 7q7 0 11 -6l33 -32q6 -6 6 -12q0 -5 -5 -12z" />
    <glyph glyph-name="uhungarumlaut" unicode="&#x171;" horiz-adv-x="1001" 
d="M193 80.5q-88 104.5 -88 312.5v196l-2 424q0 17 16 17h69q8 0 12.5 -4.5t4.5 -12.5l-3 -424v-187q0 -345 260 -345q216 0 326 303v229l-3 424q0 8 4.5 12.5t12.5 4.5h69q17 0 17 -17l-5 -433l4 -563q0 -17 -16 -17h-67q-16 0 -16 17l4 198q-50 -101 -139 -170t-212 -69
q-160 0 -248 104.5zM369 1185q-5 -6 -11 -6t-12 6l-16 14q-5 5 -5 11q0 7 4 12l222 273q4 7 11 7q6 0 12 -6l33 -33q6 -6 6 -12q0 -4 -5 -11zM594 1183q-7 -5 -12 -5t-12 5l-15 14q-6 6 -6 12t4 11l222 273q6 7 12 7q7 0 11 -6l33 -32q6 -6 6 -12q0 -5 -5 -12z" />
    <glyph glyph-name="Uogonek" unicode="&#x172;" horiz-adv-x="1212" 
d="M1076 1400q17 0 17 -17l-3 -359v-487q0 -259 -113.5 -404t-340.5 -154q-36 -27 -60.5 -64.5t-24.5 -82.5q0 -53 35.5 -80t92.5 -27h78q17 0 17 -17v-43q0 -17 -17 -17h-82q-61 0 -108.5 20.5t-74 58t-26.5 85.5q0 97 87 168q-215 16 -323.5 161t-107.5 396v487l-3 359
q0 17 17 17h74q17 0 17 -17l-3 -358v-488q0 -218 92.5 -346t290.5 -128q199 0 292 127.5t93 346.5v487l-3 359q0 8 4.5 12.5t12.5 4.5h70z" />
    <glyph glyph-name="uogonek" unicode="&#x173;" horiz-adv-x="1001" 
d="M939 -275q17 0 17 -17v-43q0 -17 -17 -17h-82q-61 0 -108.5 20.5t-74 58t-26.5 85.5q0 66 39 117.5t101 86.5v1l4 198q-50 -101 -139 -170t-212 -69q-160 0 -248 104.5t-88 312.5v196l-2 424q0 17 16 17h69q8 0 12.5 -4.5t4.5 -12.5l-3 -424v-187q0 -345 260 -345
q216 0 326 303v229l-3 424q0 8 4.5 12.5t12.5 4.5h69q17 0 17 -17l-5 -433l4 -563q0 -17 -16 -17h-18q-46 -23 -83 -67.5t-37 -100.5q0 -53 35.5 -80t92.5 -27h78z" />
    <glyph glyph-name="Wcircumflex" unicode="&#x174;" horiz-adv-x="1700" 
d="M35 1381v5q0 14 14 14h71q15 0 18 -14l336 -1265l319 1265q4 14 19 14h84q15 0 19 -14l319 -1267l336 1267q3 14 18 14h62q18 0 15 -19l-373 -1367q-4 -14 -19 -14h-84q-15 0 -18 14l-323 1243l-319 -1243q-3 -14 -18 -14h-86q-14 0 -18 14zM558 1560q-2 6 -2 9q0 9 9 13
l251 132q8 5 21 5h27q12 0 21 -5l250 -131q9 -4 9 -14q0 -6 -2 -9l-11 -26q-4 -10 -13 -10q-6 0 -9 2l-259 111l-260 -109q-3 -2 -9 -2q-8 0 -12 10z" />
    <glyph glyph-name="wcircumflex" unicode="&#x175;" horiz-adv-x="1378" 
d="M34 1011q-1 2 -1 6q0 13 15 13h67q16 0 19 -14l260 -918l238 918q3 14 18 14h87q14 0 18 -14l254 -913l243 913q3 14 18 14h60q9 0 12.5 -5.5t1.5 -13.5l-276 -997q-4 -14 -19 -14h-85q-15 0 -18 14l-259 929l-234 -929q-4 -14 -19 -14h-83q-14 0 -19 14zM398 1190
q-2 6 -2 9q0 9 9 13l251 132q8 5 21 5h27q12 0 21 -5l250 -131q9 -4 9 -14q0 -6 -2 -9l-11 -26q-4 -10 -13 -10q-6 0 -9 2l-259 111l-260 -109q-3 -2 -9 -2q-8 0 -12 10z" />
    <glyph glyph-name="Ycircumflex" unicode="&#x176;" horiz-adv-x="1065" 
d="M30 1380q-3 5 -3 9q0 11 15 11h81q14 0 20 -12l394 -785l395 785q6 12 20 12h72q15 0 15 -11q0 -4 -3 -9l-457 -881l4 -482q0 -8 -4.5 -12.5t-12.5 -4.5h-74q-16 0 -16 17l3 489zM243 1560q-2 6 -2 9q0 9 9 13l251 132q8 5 21 5h27q12 0 21 -5l250 -131q9 -4 9 -14
q0 -6 -2 -9l-11 -26q-4 -10 -13 -10q-6 0 -9 2l-259 111l-260 -109q-3 -2 -9 -2q-8 0 -12 10z" />
    <glyph glyph-name="ycircumflex" unicode="&#x177;" horiz-adv-x="897" 
d="M768 1016q5 14 19 14h71q9 0 13 -5.5t1 -13.5l-469 -1337q-4 -14 -19 -14h-60q-9 0 -12.5 5.5t-0.5 13.5l116 323l-401 1009q-1 3 -1 7q0 12 14 12h78q13 0 19 -13l338 -878zM160 1190q-2 6 -2 9q0 9 9 13l251 132q8 5 21 5h27q12 0 21 -5l250 -131q9 -4 9 -14
q0 -6 -2 -9l-11 -26q-4 -10 -13 -10q-6 0 -9 2l-259 111l-260 -109q-3 -2 -9 -2q-8 0 -12 10z" />
    <glyph glyph-name="Ydieresis" unicode="&#x178;" horiz-adv-x="1065" 
d="M30 1380q-3 5 -3 9q0 11 15 11h81q14 0 20 -12l394 -785l395 785q6 12 20 12h72q15 0 15 -11q0 -4 -3 -9l-457 -881l4 -482q0 -8 -4.5 -12.5t-12.5 -4.5h-74q-16 0 -16 17l3 489zM376 1542q-8 0 -12.5 4.5t-4.5 12.5v104q0 17 17 17h73q8 0 12.5 -4.5t4.5 -12.5v-104
q0 -7 -5 -12t-12 -5h-73zM621 1542q-8 0 -12.5 5t-4.5 12v104q0 8 4.5 12.5t12.5 4.5h73q8 0 12.5 -4.5t4.5 -12.5v-104q0 -7 -5 -12t-12 -5h-73z" />
    <glyph glyph-name="Zacute" unicode="&#x179;" horiz-adv-x="1109" 
d="M82 0q-16 0 -16 17v60q0 9 6 21l834 1220h-771q-8 0 -12.5 4.5t-4.5 12.5v48q0 8 4.5 12.5t12.5 4.5h874q8 0 12.5 -4.5t4.5 -12.5v-61q0 -11 -7 -21l-832 -1219h839q8 0 12.5 -4.5t4.5 -12.5v-48q0 -17 -17 -17h-944zM402 1521q-6 -2 -8 -2q-7 0 -14 10l-9 24q-3 5 -3 9
q0 9 10 13l401 200q5 3 9 3q8 0 13 -10l19 -48q2 -4 2 -9q0 -9 -10 -13z" />
    <glyph glyph-name="zacute" unicode="&#x17a;" horiz-adv-x="883" 
d="M74 0q-17 0 -17 17v53q0 10 6 20l623 861h-569q-16 0 -16 17v45q0 17 16 17h671q17 0 17 -17v-50q0 -9 -6 -20l-627 -864h638q8 0 12.5 -4.5t4.5 -12.5v-45q0 -8 -4.5 -12.5t-12.5 -4.5h-736zM287 1151q-6 -2 -8 -2q-7 0 -14 10l-9 24q-3 5 -3 9q0 9 10 13l401 200
q5 3 9 3q8 0 13 -10l19 -48q2 -4 2 -9q0 -9 -10 -13z" />
    <glyph glyph-name="Zdotaccent" unicode="&#x17b;" horiz-adv-x="1109" 
d="M82 0q-16 0 -16 17v60q0 9 6 21l834 1220h-771q-8 0 -12.5 4.5t-4.5 12.5v48q0 8 4.5 12.5t12.5 4.5h874q8 0 12.5 -4.5t4.5 -12.5v-61q0 -11 -7 -21l-832 -1219h839q8 0 12.5 -4.5t4.5 -12.5v-48q0 -17 -17 -17h-944zM526 1542q-8 0 -12.5 4.5t-4.5 12.5v104q0 17 17 17
h68q17 0 17 -17v-104q0 -8 -4.5 -12.5t-12.5 -4.5h-68z" />
    <glyph glyph-name="zdotaccent" unicode="&#x17c;" horiz-adv-x="883" 
d="M74 0q-17 0 -17 17v53q0 10 6 20l623 861h-569q-16 0 -16 17v45q0 17 16 17h671q17 0 17 -17v-50q0 -9 -6 -20l-627 -864h638q8 0 12.5 -4.5t4.5 -12.5v-45q0 -8 -4.5 -12.5t-12.5 -4.5h-736zM410 1172q-8 0 -12.5 4.5t-4.5 12.5v104q0 17 17 17h68q17 0 17 -17v-104
q0 -8 -4.5 -12.5t-12.5 -4.5h-68z" />
    <glyph glyph-name="Zcaron" unicode="&#x17d;" horiz-adv-x="1109" 
d="M82 0q-16 0 -16 17v60q0 9 6 21l834 1220h-771q-8 0 -12.5 4.5t-4.5 12.5v48q0 8 4.5 12.5t12.5 4.5h874q8 0 12.5 -4.5t4.5 -12.5v-61q0 -11 -7 -21l-832 -1219h839q8 0 12.5 -4.5t4.5 -12.5v-48q0 -17 -17 -17h-944zM295 1652q-9 5 -9 13q0 3 2 9l11 24q5 10 13 10
l8 -2l260 -110l258 112q3 2 9 2q9 0 13 -10l12 -26q2 -6 2 -9q0 -9 -9 -14l-251 -130q-7 -5 -21 -5h-26q-13 0 -21 5z" />
    <glyph glyph-name="zcaron" unicode="&#x17e;" horiz-adv-x="883" 
d="M74 0q-17 0 -17 17v53q0 10 6 20l623 861h-569q-16 0 -16 17v45q0 17 16 17h671q17 0 17 -17v-50q0 -9 -6 -20l-627 -864h638q8 0 12.5 -4.5t4.5 -12.5v-45q0 -8 -4.5 -12.5t-12.5 -4.5h-736zM159 1282q-9 5 -9 13q0 3 2 9l11 24q5 10 13 10l8 -2l260 -110l258 112
q3 2 9 2q9 0 13 -10l12 -26q2 -6 2 -9q0 -9 -9 -14l-251 -130q-7 -5 -21 -5h-26q-13 0 -21 5z" />
    <glyph glyph-name="florin" unicode="&#x192;" horiz-adv-x="605" 
d="M318 1136v-106h224q16 0 16 -17v-42q0 -17 -16 -17h-224v-1023q0 -102 -33 -167t-84.5 -94t-108.5 -30q-55 0 -101 13q-13 6 -13 20v38q0 9 5 12.5t13 1.5q36 -8 78 -8q146 0 146 219v1018h-149q-8 0 -12.5 4.5t-4.5 12.5v42q0 8 4.5 12.5t12.5 4.5h149v110q0 103 33 168
t84.5 94t108.5 30q54 0 101 -13q13 -6 13 -20v-39q0 -8 -5 -11.5t-13 -1.5q-36 8 -79 8q-145 0 -145 -219z" />
    <glyph glyph-name="Ohorn" unicode="&#x1a0;" horiz-adv-x="1436" 
d="M1076 1323q136 -89 210.5 -249t74.5 -375q0 -220 -80 -383t-226 -250.5t-338 -87.5q-191 0 -336.5 88t-225 251.5t-79.5 383.5q0 221 79.5 384t225 250t338.5 87q159 0 288 -60l202 293q5 8 13 8q5 0 10 -3l46 -28q7 -6 7 -13q0 -5 -3 -10zM1002 137.5
q121 76.5 186.5 220.5t65.5 341q0 198 -65.5 342.5t-186.5 221t-285 76.5t-284 -77t-185 -221t-65 -342q0 -196 65.5 -340t186 -221t283.5 -77t284 76.5z" />
    <glyph glyph-name="ohorn" unicode="&#x1a1;" horiz-adv-x="1057" 
d="M986 1262q8 -5 8 -13q0 -5 -3 -10l-185 -274q90 -68 136.5 -183.5t46.5 -266.5q0 -162 -53.5 -282.5t-157 -187t-249.5 -66.5t-250 66t-157.5 186.5t-53.5 282.5q0 161 54 282.5t157.5 188t249.5 66.5q120 0 212 -46l3 6l174 274q5 8 13 8q4 0 10 -3zM794 853
q-91 124 -265 124q-175 -1 -266 -124.5t-91 -339.5q0 -215 91.5 -337.5t265.5 -122.5q175 0 265.5 122.5t90.5 338.5q0 215 -91 339z" />
    <glyph glyph-name="Uhorn" unicode="&#x1af;" horiz-adv-x="1212" 
d="M1237 1632q8 -5 8 -13q0 -5 -3 -10l-149 -226l-3 -359v-487q0 -267 -121 -413t-362 -146t-363.5 146.5t-121.5 412.5v487l-3 359q0 17 17 17h74q17 0 17 -17l-3 -358v-488q0 -218 92.5 -346t290.5 -128q199 0 292 127.5t93 346.5v487l-3 359q0 8 4.5 12.5t12.5 4.5h6
q0 1 2 5l155 250q5 8 13 8q4 0 10 -3z" />
    <glyph glyph-name="uhorn" unicode="&#x1b0;" horiz-adv-x="1001" 
d="M888 1007l-5 -427l4 -563q0 -17 -16 -17h-67q-16 0 -16 17l4 198q-50 -101 -139 -170t-212 -69q-160 0 -248 104.5t-88 312.5v196l-2 424q0 17 16 17h69q8 0 12.5 -4.5t4.5 -12.5l-3 -424v-187q0 -345 260 -345q216 0 326 303v229l-3 424q0 8 4.5 12.5t12.5 4.5h9
q0 1 2 5l155 250q5 8 13 8q4 0 10 -3l45 -28q8 -5 8 -13q0 -5 -3 -10z" />
    <glyph glyph-name="uni0218" unicode="&#x218;" horiz-adv-x="1194" 
d="M220.5 110.5q-136.5 128.5 -147.5 361.5v2q0 7 4.5 11t11.5 4h72q16 0 18 -16q13 -201 116.5 -304.5t322.5 -103.5q182 0 294.5 80t112.5 245q0 102 -59 160t-145 84.5t-235 53.5q-160 29 -255.5 59t-162 99.5t-66.5 193.5q0 122 61 207.5t168.5 129t246.5 43.5
q239 0 371 -106.5t147 -313.5v-2q0 -15 -16 -15h-72q-17 0 -18 16q-11 171 -111.5 254t-298.5 83q-177 0 -279.5 -73t-102.5 -217q0 -91 55.5 -143t137.5 -76t223 -49q166 -30 266.5 -62.5t171 -108t70.5 -210.5t-66.5 -228.5t-182 -140t-260.5 -46.5q-256 0 -392.5 128.5z
M542 -415q-7 0 -10.5 5.5t-1.5 13.5l38 139v115q0 8 4.5 12.5t12.5 4.5h65q8 0 12.5 -4.5t4.5 -12.5v-104q0 -11 -6 -21l-76 -136q-9 -12 -20 -12h-23z" />
    <glyph glyph-name="uni0219" unicode="&#x219;" horiz-adv-x="952" 
d="M180.5 72.5q-112.5 93.5 -117.5 278.5q0 16 17 16h62q16 0 16 -16q10 -299 334 -299q89 0 157.5 26.5t107 77t38.5 120.5q0 75 -44.5 118t-110.5 62.5t-177 38.5q-125 22 -199.5 45.5t-126.5 78t-52 151.5q0 90 47.5 153t133 95.5t196.5 32.5t199.5 -33t141.5 -102
t58 -172q0 -17 -17 -17h-59q-17 0 -17 17q-7 120 -90.5 177.5t-215.5 57.5q-131 0 -206 -52.5t-75 -153.5q0 -66 41.5 -103.5t103 -55t166.5 -35.5q129 -22 208.5 -46.5t135 -84.5t55.5 -168q0 -92 -52.5 -160.5t-143 -104.5t-203.5 -36q-199 0 -311.5 93.5zM404 -415
q-7 0 -10.5 5.5t-1.5 13.5l38 139v115q0 8 4.5 12.5t12.5 4.5h65q8 0 12.5 -4.5t4.5 -12.5v-104q0 -11 -6 -21l-76 -136q-9 -12 -20 -12h-23z" />
    <glyph glyph-name="uni021A" unicode="&#x21a;" horiz-adv-x="979" 
d="M452 0q-8 0 -12.5 4.5t-4.5 12.5l7 671l-6 628h-390q-17 0 -17 16v51q0 17 17 17h888q16 0 16 -17v-51q0 -16 -16 -16h-391l-5 -628l6 -671q0 -17 -17 -17h-75zM417 -415q-7 0 -10.5 5.5t-1.5 13.5l38 139v115q0 8 4.5 12.5t12.5 4.5h65q8 0 12.5 -4.5t4.5 -12.5v-104
q0 -11 -6 -21l-76 -136q-9 -12 -20 -12h-23z" />
    <glyph glyph-name="uni021B" unicode="&#x21b;" horiz-adv-x="589" 
d="M250 50q-62 65 -62 218v683h-116q-16 0 -16 17v45q0 17 16 17h116l-2 241q0 17 16 17h69q17 0 17 -17l-2 -241h243q16 0 16 -17v-45q0 -17 -16 -17h-244v-114l1 -568q0 -78 14 -121.5t44.5 -62t83.5 -18.5q55 0 98 8q2 1 6 1q13 0 13 -15v-43q0 -15 -11 -17
q-73 -16 -113 -16q-109 0 -171 65zM303 -415q-7 0 -10.5 5.5t-1.5 13.5l38 139v115q0 8 4.5 12.5t12.5 4.5h65q8 0 12.5 -4.5t4.5 -12.5v-104q0 -11 -6 -21l-76 -136q-9 -12 -20 -12h-23z" />
    <glyph glyph-name="uni0237" unicode="&#x237;" horiz-adv-x="347" 
d="M139 -340q-17 0 -17 17l3 636l-3 700q0 17 17 17h69q8 0 12.5 -4.5t4.5 -12.5l-3 -700l3 -636q0 -8 -4.5 -12.5t-12.5 -4.5h-69z" />
    <glyph glyph-name="uni0237" unicode="&#xf6be;" horiz-adv-x="347" 
d="M139 -340q-17 0 -17 17l3 636l-3 700q0 17 17 17h69q8 0 12.5 -4.5t4.5 -12.5l-3 -700l3 -636q0 -8 -4.5 -12.5t-12.5 -4.5h-69z" />
    <glyph glyph-name="uni0259" unicode="&#x259;" horiz-adv-x="1032" 
d="M862 510q-1 232 -94 349.5t-270 117.5q-138 0 -219.5 -77.5t-106.5 -219.5q-3 -15 -18 -15h-62q-18 0 -16 17q29 176 135.5 272.5t287.5 96.5q149 0 254 -66.5t158 -186.5t53 -280q0 -158 -54 -280t-156.5 -190.5t-242.5 -68.5q-135 0 -233.5 60.5t-152 176t-56.5 277.5
q0 8 4.5 12.5t12.5 4.5h776zM752.5 154.5q88.5 101.5 105.5 279.5h-682q1 -108 40 -194.5t114 -136.5t181 -50q153 0 241.5 101.5z" />
    <glyph glyph-name="quoteleft" unicode="&#x2bb;" horiz-adv-x="260" 
d="M206 1400q17 0 12 -19l-40 -145v-124q0 -16 -16 -16h-75q-16 0 -16 16v113q0 8 5 20l85 143q7 12 20 12h25z" />
    <glyph glyph-name="quoteleft" unicode="&#x2018;" horiz-adv-x="260" 
d="M206 1400q17 0 12 -19l-40 -145v-124q0 -16 -16 -16h-75q-16 0 -16 16v113q0 8 5 20l85 143q7 12 20 12h25z" />
    <glyph glyph-name="circumflex" unicode="&#x2c6;" horiz-adv-x="799" 
d="M107 1190q-2 6 -2 9q0 9 9 13l251 132q8 5 21 5h27q12 0 21 -5l250 -131q9 -4 9 -14q0 -6 -2 -9l-11 -26q-4 -10 -13 -10q-6 0 -9 2l-259 111l-260 -109q-3 -2 -9 -2q-8 0 -12 10z" />
    <glyph glyph-name="caron" unicode="&#x2c7;" horiz-adv-x="798" 
d="M114 1282q-9 5 -9 13q0 3 2 9l11 24q5 10 13 10l8 -2l260 -110l258 112q3 2 9 2q9 0 13 -10l12 -26q2 -6 2 -9q0 -9 -9 -14l-251 -130q-7 -5 -21 -5h-26q-13 0 -21 5z" />
    <glyph glyph-name="breve" unicode="&#x2d8;" horiz-adv-x="666" 
d="M215.5 1177.5q-51.5 27.5 -81 76t-33.5 109.5v2q0 15 16 15h42q15 0 17 -16q5 -64 45.5 -102.5t111.5 -38.5q68 0 110 39t47 102q2 16 17 16h43q16 0 16 -16q-4 -61 -33.5 -109.5t-81 -76.5t-118.5 -28q-66 0 -117.5 27.5z" />
    <glyph glyph-name="dotaccent" unicode="&#x2d9;" horiz-adv-x="302" 
d="M117 1172q-8 0 -12.5 4.5t-4.5 12.5v104q0 17 17 17h68q17 0 17 -17v-104q0 -8 -4.5 -12.5t-12.5 -4.5h-68z" />
    <glyph glyph-name="ring" unicode="&#x2da;" horiz-adv-x="570" 
d="M190.5 1173q-42.5 24 -66.5 65.5t-24 92.5t24 92.5t66.5 65.5t94.5 24t94.5 -24t66.5 -65.5t24 -92.5t-24 -92.5t-66.5 -65.5t-94.5 -24t-94.5 24zM372 1238q34 36 34 93q0 58 -34 93.5t-87 35.5q-54 0 -86.5 -35t-32.5 -94q0 -57 32.5 -93t86.5 -36q53 0 87 36z" />
    <glyph glyph-name="ogonek" unicode="&#x2db;" horiz-adv-x="508" 
d="M309 -352q-61 0 -108.5 20.5t-74 58t-26.5 85.5q0 78 52.5 135t130.5 90l8 2q8 0 14 -9l5 -8q4 -8 4 -10q0 -7 -9 -12q-46 -23 -83 -67.5t-37 -100.5q0 -53 35.5 -80t92.5 -27h78q17 0 17 -17v-43q0 -17 -17 -17h-82z" />
    <glyph glyph-name="tilde" unicode="&#x2dc;" horiz-adv-x="704" 
d="M385 1188q-28 23 -60 67q-23 32 -40 48t-40 16q-71 0 -78 -123q0 -17 -17 -17h-33q-17 0 -17 17q4 86 40.5 138.5t104.5 52.5q46 0 74.5 -23.5t59.5 -68.5q22 -31 38 -46.5t38 -15.5q39 0 59.5 33t22.5 90q0 8 4.5 12.5t12.5 4.5h33q17 0 16 -21q-3 -85 -40 -136
t-106 -51q-44 0 -72 23z" />
    <glyph glyph-name="hungarumlaut" unicode="&#x2dd;" horiz-adv-x="724" 
d="M150 1185q-5 -6 -11 -6t-12 6l-16 14q-5 5 -5 11q0 7 4 12l222 273q4 7 11 7q6 0 12 -6l33 -33q6 -6 6 -12q0 -4 -5 -11zM375 1183q-7 -5 -12 -5t-12 5l-15 14q-6 6 -6 12t4 11l222 273q6 7 12 7q7 0 11 -6l33 -32q6 -6 6 -12q0 -5 -5 -12z" />
    <glyph glyph-name="gravecomb" unicode="&#x300;" 
d="M-117 1159q-4 -10 -14 -10l-8 2l-410 177q-11 5 -11 14l2 8l20 49q4 10 14 10q5 0 9 -2l400 -200q10 -4 10 -13q0 -6 -2 -9z" />
    <glyph glyph-name="acutecomb" unicode="&#x301;" 
d="M-526 1151q-6 -2 -8 -2q-7 0 -14 10l-9 24q-3 5 -3 9q0 9 10 13l401 200q5 3 9 3q8 0 13 -10l19 -48q2 -4 2 -9q0 -9 -10 -13z" />
    <glyph glyph-name="uni0302" unicode="&#x302;" 
d="M-692 1190q-2 6 -2 9q0 9 9 13l251 132q8 5 21 5h27q12 0 21 -5l250 -131q9 -4 9 -14q0 -6 -2 -9l-11 -26q-4 -10 -13 -10q-6 0 -9 2l-259 111l-260 -109q-3 -2 -9 -2q-8 0 -12 10z" />
    <glyph glyph-name="tildecomb" unicode="&#x303;" 
d="M-319 1188q-28 23 -60 67q-23 32 -40 48t-40 16q-71 0 -78 -123q0 -17 -17 -17h-33q-17 0 -17 17q4 86 40.5 138.5t104.5 52.5q46 0 74.5 -23.5t59.5 -68.5q22 -31 38 -46.5t38 -15.5q39 0 59.5 33t22.5 90q0 8 4.5 12.5t12.5 4.5h33q17 0 16 -21q-3 -85 -40 -136
t-106 -51q-44 0 -72 23z" />
    <glyph glyph-name="uni0304" unicode="&#x304;" 
d="M-618 1211q-17 0 -17 17v46q0 16 17 16h501q17 0 17 -16v-46q0 -17 -17 -17h-501z" />
    <glyph glyph-name="uni0306" unicode="&#x306;" 
d="M-450.5 1177.5q-51.5 27.5 -81 76t-33.5 109.5v2q0 15 16 15h42q15 0 17 -16q5 -64 45.5 -102.5t111.5 -38.5q68 0 110 39t47 102q2 16 17 16h43q16 0 16 -16q-4 -61 -33.5 -109.5t-81 -76.5t-118.5 -28q-66 0 -117.5 27.5z" />
    <glyph glyph-name="uni0307" unicode="&#x307;" 
d="M-185 1172q-8 0 -12.5 4.5t-4.5 12.5v104q0 17 17 17h68q17 0 17 -17v-104q0 -8 -4.5 -12.5t-12.5 -4.5h-68z" />
    <glyph glyph-name="uni0308" unicode="&#x308;" 
d="M-435 1172q-8 0 -12.5 4.5t-4.5 12.5v104q0 17 17 17h73q8 0 12.5 -4.5t4.5 -12.5v-104q0 -7 -5 -12t-12 -5h-73zM-190 1172q-8 0 -12.5 5t-4.5 12v104q0 8 4.5 12.5t12.5 4.5h73q8 0 12.5 -4.5t4.5 -12.5v-104q0 -7 -5 -12t-12 -5h-73z" />
    <glyph glyph-name="hookabovecomb" unicode="&#x309;" 
d="M-301 1172q-9 0 -13.5 4.5t-2.5 12.5q5 33 24 53t54 44q33 23 48.5 40t15.5 43q0 31 -25 49.5t-71 18.5q-45 0 -72 -19t-34 -52q-3 -16 -18 -16h-41q-8 0 -12 5t-3 13q8 62 55.5 97.5t124.5 35.5q78 0 124.5 -36t46.5 -95q0 -42 -21.5 -67.5t-61.5 -53.5
q-27 -20 -40 -32.5t-18 -29.5q-2 -8 -6 -11.5t-11 -3.5h-43z" />
    <glyph glyph-name="uni030A" unicode="&#x30a;" 
d="M-379.5 1173q-42.5 24 -66.5 65.5t-24 92.5t24 92.5t66.5 65.5t94.5 24t94.5 -24t66.5 -65.5t24 -92.5t-24 -92.5t-66.5 -65.5t-94.5 -24t-94.5 24zM-198 1238q34 36 34 93q0 58 -34 93.5t-87 35.5q-54 0 -86.5 -35t-32.5 -94q0 -57 32.5 -93t86.5 -36q53 0 87 36z" />
    <glyph glyph-name="uni030B" unicode="&#x30b;" 
d="M-574 1185q-5 -6 -11 -6t-12 6l-16 14q-5 5 -5 11q0 7 4 12l222 273q4 7 11 7q6 0 12 -6l33 -33q6 -6 6 -12q0 -4 -5 -11zM-349 1183q-7 -5 -12 -5t-12 5l-15 14q-6 6 -6 12t4 11l222 273q6 7 12 7q7 0 11 -6l33 -32q6 -6 6 -12q0 -5 -5 -12z" />
    <glyph glyph-name="uni030C" unicode="&#x30c;" 
d="M-684 1282q-9 5 -9 13q0 3 2 9l11 24q5 10 13 10l8 -2l260 -110l258 112q3 2 9 2q9 0 13 -10l12 -26q2 -6 2 -9q0 -9 -9 -14l-251 -130q-7 -5 -21 -5h-26q-13 0 -21 5z" />
    <glyph glyph-name="uni0312" unicode="&#x312;" 
d="M-244 1172q-8 0 -12.5 4.5t-4.5 12.5v101q0 11 6 20l85 137q7 12 19 12h31q9 0 13 -5.5t1 -14.5l-47 -138v-112q0 -8 -4.5 -12.5t-12.5 -4.5h-74z" />
    <glyph glyph-name="uni031B" unicode="&#x31b;" 
d="M-346 957q-5 -8 -11 -8t-11 7l-34 32q-5 7 -5 12q0 3 4 11l174 274q5 8 13 8q4 0 10 -3l45 -28q8 -5 8 -13q0 -5 -3 -10z" />
    <glyph glyph-name="dotbelowcomb" unicode="&#x323;" 
d="M-185 -263q-8 0 -12.5 4.5t-4.5 12.5v104q0 17 17 17h68q17 0 17 -17v-104q0 -8 -4.5 -12.5t-12.5 -4.5h-68z" />
    <glyph glyph-name="uni0326" unicode="&#x326;" 
d="M-225 -415q-7 0 -10.5 5.5t-1.5 13.5l38 139v115q0 8 4.5 12.5t12.5 4.5h65q8 0 12.5 -4.5t4.5 -12.5v-104q0 -11 -6 -21l-76 -136q-9 -12 -20 -12h-23z" />
    <glyph glyph-name="uni0327" unicode="&#x327;" 
d="M-193 -317q-5 -15 -21 -11l-61 15q-16 5 -10 21l112 302q4 12 14 12q2 0 8 -2l37 -9q13 -7 10 -22z" />
    <glyph glyph-name="uni0328" unicode="&#x328;" 
d="M-199 -352q-61 0 -108.5 20.5t-74 58t-26.5 85.5q0 78 52.5 135t130.5 90l8 2q8 0 14 -9l5 -8q4 -8 4 -10q0 -7 -9 -12q-46 -23 -83 -67.5t-37 -100.5q0 -53 35.5 -80t92.5 -27h78q17 0 17 -17v-43q0 -17 -17 -17h-82z" />
    <glyph glyph-name="uni0394" unicode="&#x394;" horiz-adv-x="1213" 
d="M47 0q-17 0 -17 17v57q0 11 4 20l504 1293q6 13 19 13h100q13 0 19 -13l503 -1293q4 -9 4 -20v-57q0 -17 -17 -17h-1119zM1073 84l-471 1236l-467 -1236h938z" />
    <glyph glyph-name="uni0394" unicode="&#x2206;" horiz-adv-x="1213" 
d="M47 0q-17 0 -17 17v57q0 11 4 20l504 1293q6 13 19 13h100q13 0 19 -13l503 -1293q4 -9 4 -20v-57q0 -17 -17 -17h-1119zM1073 84l-471 1236l-467 -1236h938z" />
    <glyph glyph-name="uni03A9" unicode="&#x3a9;" horiz-adv-x="1473" 
d="M1344 85q8 0 12.5 -4.5t4.5 -12.5v-51q0 -8 -4.5 -12.5t-12.5 -4.5h-421q-8 0 -12.5 4.5t-4.5 12.5v51q0 13 14 25q109 79 185.5 168t121 207.5t44.5 270.5q0 183 -63 316.5t-179.5 206.5t-274.5 76h-33q-158 -3 -274.5 -76t-179.5 -206.5t-63 -316.5q0 -152 44.5 -270.5
t121 -207.5t185.5 -168q14 -10 14 -25v-51q0 -8 -4.5 -12.5t-12.5 -4.5h-421q-8 0 -12.5 4.5t-4.5 12.5v51q0 8 4.5 12.5t12.5 4.5h291q-156 122 -241 280t-85 377q0 207 77 359t218 234.5t330 86.5h33q189 -4 330 -86.5t218 -234.5t77 -359q0 -219 -85 -377t-241 -280h291z
" />
    <glyph glyph-name="uni03A9" unicode="&#x2126;" horiz-adv-x="1473" 
d="M1344 85q8 0 12.5 -4.5t4.5 -12.5v-51q0 -8 -4.5 -12.5t-12.5 -4.5h-421q-8 0 -12.5 4.5t-4.5 12.5v51q0 13 14 25q109 79 185.5 168t121 207.5t44.5 270.5q0 183 -63 316.5t-179.5 206.5t-274.5 76h-33q-158 -3 -274.5 -76t-179.5 -206.5t-63 -316.5q0 -152 44.5 -270.5
t121 -207.5t185.5 -168q14 -10 14 -25v-51q0 -8 -4.5 -12.5t-12.5 -4.5h-421q-8 0 -12.5 4.5t-4.5 12.5v51q0 8 4.5 12.5t12.5 4.5h291q-156 122 -241 280t-85 377q0 207 77 359t218 234.5t330 86.5h33q189 -4 330 -86.5t218 -234.5t77 -359q0 -219 -85 -377t-241 -280h291z
" />
    <glyph glyph-name="pi" unicode="&#x3c0;" horiz-adv-x="1002" 
d="M128 0q-16 0 -16 17l4 433l-4 563q0 8 4.5 12.5t12.5 4.5h750q8 0 12.5 -4.5t4.5 -12.5l-1 -572l2 -424q0 -17 -16 -17h-69q-17 0 -17 17l2 433v500h-585v-509l2 -424q0 -17 -17 -17h-69z" />
    <glyph glyph-name="Wgrave" unicode="&#x1e80;" horiz-adv-x="1700" 
d="M35 1381v5q0 14 14 14h71q15 0 18 -14l336 -1265l319 1265q4 14 19 14h84q15 0 19 -14l319 -1267l336 1267q3 14 18 14h62q18 0 15 -19l-373 -1367q-4 -14 -19 -14h-84q-15 0 -18 14l-323 1243l-319 -1243q-3 -14 -18 -14h-86q-14 0 -18 14zM1018 1529q-4 -10 -14 -10
l-8 2l-410 177q-11 5 -11 14l2 8l20 49q4 10 14 10q5 0 9 -2l400 -200q10 -4 10 -13q0 -6 -2 -9z" />
    <glyph glyph-name="wgrave" unicode="&#x1e81;" horiz-adv-x="1378" 
d="M34 1011q-1 2 -1 6q0 13 15 13h67q16 0 19 -14l260 -918l238 918q3 14 18 14h87q14 0 18 -14l254 -913l243 913q3 14 18 14h60q9 0 12.5 -5.5t1.5 -13.5l-276 -997q-4 -14 -19 -14h-85q-15 0 -18 14l-259 929l-234 -929q-4 -14 -19 -14h-83q-14 0 -19 14zM858 1159
q-4 -10 -14 -10l-8 2l-410 177q-11 5 -11 14l2 8l20 49q4 10 14 10q5 0 9 -2l400 -200q10 -4 10 -13q0 -6 -2 -9z" />
    <glyph glyph-name="Wacute" unicode="&#x1e82;" horiz-adv-x="1700" 
d="M35 1381v5q0 14 14 14h71q15 0 18 -14l336 -1265l319 1265q4 14 19 14h84q15 0 19 -14l319 -1267l336 1267q3 14 18 14h62q18 0 15 -19l-373 -1367q-4 -14 -19 -14h-84q-15 0 -18 14l-323 1243l-319 -1243q-3 -14 -18 -14h-86q-14 0 -18 14zM693 1521q-6 -2 -8 -2
q-7 0 -14 10l-9 24q-3 5 -3 9q0 9 10 13l401 200q5 3 9 3q8 0 13 -10l19 -48q2 -4 2 -9q0 -9 -10 -13z" />
    <glyph glyph-name="wacute" unicode="&#x1e83;" horiz-adv-x="1378" 
d="M34 1011q-1 2 -1 6q0 13 15 13h67q16 0 19 -14l260 -918l238 918q3 14 18 14h87q14 0 18 -14l254 -913l243 913q3 14 18 14h60q9 0 12.5 -5.5t1.5 -13.5l-276 -997q-4 -14 -19 -14h-85q-15 0 -18 14l-259 929l-234 -929q-4 -14 -19 -14h-83q-14 0 -19 14zM533 1151
q-6 -2 -8 -2q-7 0 -14 10l-9 24q-3 5 -3 9q0 9 10 13l401 200q5 3 9 3q8 0 13 -10l19 -48q2 -4 2 -9q0 -9 -10 -13z" />
    <glyph glyph-name="Wdieresis" unicode="&#x1e84;" horiz-adv-x="1700" 
d="M35 1381v5q0 14 14 14h71q15 0 18 -14l336 -1265l319 1265q4 14 19 14h84q15 0 19 -14l319 -1267l336 1267q3 14 18 14h62q18 0 15 -19l-373 -1367q-4 -14 -19 -14h-84q-15 0 -18 14l-323 1243l-319 -1243q-3 -14 -18 -14h-86q-14 0 -18 14zM691 1542q-8 0 -12.5 4.5
t-4.5 12.5v104q0 17 17 17h73q8 0 12.5 -4.5t4.5 -12.5v-104q0 -7 -5 -12t-12 -5h-73zM936 1542q-8 0 -12.5 5t-4.5 12v104q0 8 4.5 12.5t12.5 4.5h73q8 0 12.5 -4.5t4.5 -12.5v-104q0 -7 -5 -12t-12 -5h-73z" />
    <glyph glyph-name="wdieresis" unicode="&#x1e85;" horiz-adv-x="1378" 
d="M34 1011q-1 2 -1 6q0 13 15 13h67q16 0 19 -14l260 -918l238 918q3 14 18 14h87q14 0 18 -14l254 -913l243 913q3 14 18 14h60q9 0 12.5 -5.5t1.5 -13.5l-276 -997q-4 -14 -19 -14h-85q-15 0 -18 14l-259 929l-234 -929q-4 -14 -19 -14h-83q-14 0 -19 14zM531 1172
q-8 0 -12.5 4.5t-4.5 12.5v104q0 17 17 17h73q8 0 12.5 -4.5t4.5 -12.5v-104q0 -7 -5 -12t-12 -5h-73zM776 1172q-8 0 -12.5 5t-4.5 12v104q0 8 4.5 12.5t12.5 4.5h73q8 0 12.5 -4.5t4.5 -12.5v-104q0 -7 -5 -12t-12 -5h-73z" />
    <glyph glyph-name="uni1EA0" unicode="&#x1ea0;" horiz-adv-x="1192" 
d="M1166 19q1 -2 1 -6q0 -6 -4 -9.5t-11 -3.5h-75q-14 0 -19 13l-164 458h-602l-163 -458q-5 -13 -19 -13h-70q-9 0 -13 5.5t0 13.5l501 1368q4 13 19 13h100q15 0 19 -13zM866 556l-273 764l-273 -764h546zM559 -263q-8 0 -12.5 4.5t-4.5 12.5v104q0 17 17 17h68
q17 0 17 -17v-104q0 -8 -4.5 -12.5t-12.5 -4.5h-68z" />
    <glyph glyph-name="uni1EA1" unicode="&#x1ea1;" horiz-adv-x="1035" 
d="M918 534l5 -517q0 -8 -4.5 -12.5t-12.5 -4.5h-67q-16 0 -16 17l4 200q-49 -112 -137 -173.5t-210 -61.5q-130 0 -223 69.5t-141 190t-48 272.5q0 150 48.5 272t142 193t222.5 71q121 0 209 -58t136 -169l-4 190q0 8 4.5 12.5t12.5 4.5h67q8 0 12.5 -4.5t4.5 -12.5z
M675 107.5q74 51.5 115 153.5t41 251q0 145 -39 249t-113 159.5t-177 55.5q-111 0 -186.5 -59t-112 -161t-36.5 -231q0 -134 36 -240t111 -167.5t186 -61.5q101 0 175 51.5zM483 -263q-8 0 -12.5 4.5t-4.5 12.5v104q0 17 17 17h68q17 0 17 -17v-104q0 -8 -4.5 -12.5
t-12.5 -4.5h-68z" />
    <glyph glyph-name="uni1EA2" unicode="&#x1ea2;" horiz-adv-x="1192" 
d="M1166 19q1 -2 1 -6q0 -6 -4 -9.5t-11 -3.5h-75q-14 0 -19 13l-164 458h-602l-163 -458q-5 -13 -19 -13h-70q-9 0 -13 5.5t0 13.5l501 1368q4 13 19 13h100q15 0 19 -13zM866 556l-273 764l-273 -764h546zM578 1542q-9 0 -13.5 4.5t-2.5 12.5q5 33 24 53t54 44
q33 23 48.5 40t15.5 43q0 31 -25 49.5t-71 18.5q-45 0 -72 -19t-34 -52q-3 -16 -18 -16h-41q-8 0 -12 5t-3 13q8 62 55.5 97.5t124.5 35.5q78 0 124.5 -36t46.5 -95q0 -42 -21.5 -67.5t-61.5 -53.5q-27 -20 -40 -32.5t-18 -29.5q-2 -8 -6 -11.5t-11 -3.5h-43z" />
    <glyph glyph-name="uni1EA3" unicode="&#x1ea3;" horiz-adv-x="1035" 
d="M918 534l5 -517q0 -8 -4.5 -12.5t-12.5 -4.5h-67q-16 0 -16 17l4 200q-49 -112 -137 -173.5t-210 -61.5q-130 0 -223 69.5t-141 190t-48 272.5q0 150 48.5 272t142 193t222.5 71q121 0 209 -58t136 -169l-4 190q0 8 4.5 12.5t12.5 4.5h67q8 0 12.5 -4.5t4.5 -12.5z
M675 107.5q74 51.5 115 153.5t41 251q0 145 -39 249t-113 159.5t-177 55.5q-111 0 -186.5 -59t-112 -161t-36.5 -231q0 -134 36 -240t111 -167.5t186 -61.5q101 0 175 51.5zM478 1172q-9 0 -13.5 4.5t-2.5 12.5q5 33 24 53t54 44q33 23 48.5 40t15.5 43q0 31 -25 49.5
t-71 18.5q-45 0 -72 -19t-34 -52q-3 -16 -18 -16h-41q-8 0 -12 5t-3 13q8 62 55.5 97.5t124.5 35.5q78 0 124.5 -36t46.5 -95q0 -42 -21.5 -67.5t-61.5 -53.5q-27 -20 -40 -32.5t-18 -29.5q-2 -8 -6 -11.5t-11 -3.5h-43z" />
    <glyph glyph-name="uni1EA4" unicode="&#x1ea4;" horiz-adv-x="1192" 
d="M1166 19q1 -2 1 -6q0 -6 -4 -9.5t-11 -3.5h-75q-14 0 -19 13l-164 458h-602l-163 -458q-5 -13 -19 -13h-70q-9 0 -13 5.5t0 13.5l501 1368q4 13 19 13h100q15 0 19 -13zM866 556l-273 764l-273 -764h546zM814 1683q-6 -6 -13 -6q-6 0 -11 5l-20 18q-7 4 -7 12q0 6 4 11
l206 252q7 7 13 7q4 0 11 -5l33 -31q6 -6 6 -12q0 -4 -5 -11zM306 1521l-2 8q0 10 9 14l251 131q8 5 21 5h27q12 0 21 -5l250 -131q9 -4 9 -14q0 -5 -2 -8l-11 -26q-6 -11 -14 -11q-2 0 -8 2l-259 112l-260 -110l-8 -2q-8 0 -13 10z" />
    <glyph glyph-name="uni1EA5" unicode="&#x1ea5;" horiz-adv-x="1035" 
d="M918 534l5 -517q0 -8 -4.5 -12.5t-12.5 -4.5h-67q-16 0 -16 17l4 200q-49 -112 -137 -173.5t-210 -61.5q-130 0 -223 69.5t-141 190t-48 272.5q0 150 48.5 272t142 193t222.5 71q121 0 209 -58t136 -169l-4 190q0 8 4.5 12.5t12.5 4.5h67q8 0 12.5 -4.5t4.5 -12.5z
M675 107.5q74 51.5 115 153.5t41 251q0 145 -39 249t-113 159.5t-177 55.5q-111 0 -186.5 -59t-112 -161t-36.5 -231q0 -134 36 -240t111 -167.5t186 -61.5q101 0 175 51.5zM713 1313q-6 -6 -13 -6q-6 0 -11 5l-20 18q-7 4 -7 12q0 6 4 11l206 252q7 7 13 7q4 0 11 -5
l33 -31q6 -6 6 -12q0 -4 -5 -11zM205 1151l-2 8q0 10 9 14l251 131q8 5 21 5h27q12 0 21 -5l250 -131q9 -4 9 -14q0 -5 -2 -8l-11 -26q-6 -11 -14 -11q-2 0 -8 2l-259 112l-260 -110l-8 -2q-8 0 -13 10z" />
    <glyph glyph-name="uni1EA6" unicode="&#x1ea6;" horiz-adv-x="1192" 
d="M1166 19q1 -2 1 -6q0 -6 -4 -9.5t-11 -3.5h-75q-14 0 -19 13l-164 458h-602l-163 -458q-5 -13 -19 -13h-70q-9 0 -13 5.5t0 13.5l501 1368q4 13 19 13h100q15 0 19 -13zM866 556l-273 764l-273 -764h546zM833 1681q-4 -4 -11 -4t-13 6l-217 240q-5 5 -5 11t6 12l33 30
q7 5 12 5q6 0 12 -7l206 -251q5 -5 5 -11q0 -7 -8 -13zM306 1521l-2 8q0 10 9 14l251 131q8 5 21 5h27q12 0 21 -5l250 -131q9 -4 9 -14q0 -5 -2 -8l-11 -26q-6 -11 -14 -11q-2 0 -8 2l-259 112l-260 -110l-8 -2q-8 0 -13 10z" />
    <glyph glyph-name="uni1EA7" unicode="&#x1ea7;" horiz-adv-x="1035" 
d="M918 534l5 -517q0 -8 -4.5 -12.5t-12.5 -4.5h-67q-16 0 -16 17l4 200q-49 -112 -137 -173.5t-210 -61.5q-130 0 -223 69.5t-141 190t-48 272.5q0 150 48.5 272t142 193t222.5 71q121 0 209 -58t136 -169l-4 190q0 8 4.5 12.5t12.5 4.5h67q8 0 12.5 -4.5t4.5 -12.5z
M675 107.5q74 51.5 115 153.5t41 251q0 145 -39 249t-113 159.5t-177 55.5q-111 0 -186.5 -59t-112 -161t-36.5 -231q0 -134 36 -240t111 -167.5t186 -61.5q101 0 175 51.5zM732 1311q-4 -4 -11 -4t-13 6l-217 240q-5 5 -5 11t6 12l33 30q7 5 12 5q6 0 12 -7l206 -251
q5 -5 5 -11q0 -7 -8 -13zM205 1151l-2 8q0 10 9 14l251 131q8 5 21 5h27q12 0 21 -5l250 -131q9 -4 9 -14q0 -5 -2 -8l-11 -26q-6 -11 -14 -11q-2 0 -8 2l-259 112l-260 -110l-8 -2q-8 0 -13 10z" />
    <glyph glyph-name="uni1EA8" unicode="&#x1ea8;" horiz-adv-x="1192" 
d="M1166 19q1 -2 1 -6q0 -6 -4 -9.5t-11 -3.5h-75q-14 0 -19 13l-164 458h-602l-163 -458q-5 -13 -19 -13h-70q-9 0 -13 5.5t0 13.5l501 1368q4 13 19 13h100q15 0 19 -13zM866 556l-273 764l-273 -764h546zM306 1520q-2 6 -2 9q0 9 9 13l251 132q8 5 21 5h27q12 0 21 -5
l250 -131q9 -4 9 -14q0 -6 -2 -9l-11 -26q-4 -10 -13 -10q-6 0 -9 2l-259 111l-260 -109q-3 -2 -9 -2q-8 0 -12 10zM776 1689q-9 0 -13.5 4.5t-2.5 12.5q5 33 24 53t54 44q33 23 48.5 40t15.5 43q0 31 -25 49.5t-71 18.5q-45 0 -72 -19t-34 -52q-3 -16 -18 -16h-41
q-8 0 -12 5t-3 13q8 62 55.5 97.5t124.5 35.5q78 0 124.5 -36t46.5 -95q0 -42 -21.5 -67.5t-61.5 -53.5q-27 -20 -40 -32.5t-18 -29.5q-2 -8 -6 -11.5t-11 -3.5h-43z" />
    <glyph glyph-name="uni1EA9" unicode="&#x1ea9;" horiz-adv-x="1035" 
d="M918 534l5 -517q0 -8 -4.5 -12.5t-12.5 -4.5h-67q-16 0 -16 17l4 200q-49 -112 -137 -173.5t-210 -61.5q-130 0 -223 69.5t-141 190t-48 272.5q0 150 48.5 272t142 193t222.5 71q121 0 209 -58t136 -169l-4 190q0 8 4.5 12.5t12.5 4.5h67q8 0 12.5 -4.5t4.5 -12.5z
M675 107.5q74 51.5 115 153.5t41 251q0 145 -39 249t-113 159.5t-177 55.5q-111 0 -186.5 -59t-112 -161t-36.5 -231q0 -134 36 -240t111 -167.5t186 -61.5q101 0 175 51.5zM205 1150q-2 6 -2 9q0 9 9 13l251 132q8 5 21 5h27q12 0 21 -5l250 -131q9 -4 9 -14q0 -6 -2 -9
l-11 -26q-4 -10 -13 -10q-6 0 -9 2l-259 111l-260 -109q-3 -2 -9 -2q-8 0 -12 10zM675 1319q-9 0 -13.5 4.5t-2.5 12.5q5 33 24 53t54 44q33 23 48.5 40t15.5 43q0 31 -25 49.5t-71 18.5q-45 0 -72 -19t-34 -52q-3 -16 -18 -16h-41q-8 0 -12 5t-3 13q8 62 55.5 97.5
t124.5 35.5q78 0 124.5 -36t46.5 -95q0 -42 -21.5 -67.5t-61.5 -53.5q-27 -20 -40 -32.5t-18 -29.5q-2 -8 -6 -11.5t-11 -3.5h-43z" />
    <glyph glyph-name="uni1EAA" unicode="&#x1eaa;" horiz-adv-x="1192" 
d="M1166 19q1 -2 1 -6q0 -6 -4 -9.5t-11 -3.5h-75q-14 0 -19 13l-164 458h-602l-163 -458q-5 -13 -19 -13h-70q-9 0 -13 5.5t0 13.5l501 1368q4 13 19 13h100q15 0 19 -13zM866 556l-273 764l-273 -764h546zM306 1520q-2 6 -2 9q0 9 9 13l251 132q8 5 21 5h27q12 0 21 -5
l250 -131q9 -4 9 -14q0 -6 -2 -9l-11 -26q-4 -10 -13 -10q-6 0 -9 2l-259 111l-260 -109q-3 -2 -9 -2q-8 0 -12 10zM632 1744q-28 23 -60 67q-23 32 -40 48t-40 16q-71 0 -78 -123q0 -17 -17 -17h-33q-17 0 -17 17q4 86 40.5 138.5t104.5 52.5q46 0 74.5 -23.5t59.5 -68.5
q22 -31 38 -46.5t38 -15.5q39 0 59.5 33t22.5 90q0 8 4.5 12.5t12.5 4.5h33q17 0 16 -21q-3 -85 -40 -136t-106 -51q-44 0 -72 23z" />
    <glyph glyph-name="uni1EAB" unicode="&#x1eab;" horiz-adv-x="1035" 
d="M918 534l5 -517q0 -8 -4.5 -12.5t-12.5 -4.5h-67q-16 0 -16 17l4 200q-49 -112 -137 -173.5t-210 -61.5q-130 0 -223 69.5t-141 190t-48 272.5q0 150 48.5 272t142 193t222.5 71q121 0 209 -58t136 -169l-4 190q0 8 4.5 12.5t12.5 4.5h67q8 0 12.5 -4.5t4.5 -12.5z
M675 107.5q74 51.5 115 153.5t41 251q0 145 -39 249t-113 159.5t-177 55.5q-111 0 -186.5 -59t-112 -161t-36.5 -231q0 -134 36 -240t111 -167.5t186 -61.5q101 0 175 51.5zM205 1150q-2 6 -2 9q0 9 9 13l251 132q8 5 21 5h27q12 0 21 -5l250 -131q9 -4 9 -14q0 -6 -2 -9
l-11 -26q-4 -10 -13 -10q-6 0 -9 2l-259 111l-260 -109q-3 -2 -9 -2q-8 0 -12 10zM531 1374q-28 23 -60 67q-23 32 -40 48t-40 16q-71 0 -78 -123q0 -17 -17 -17h-33q-17 0 -17 17q4 86 40.5 138.5t104.5 52.5q46 0 74.5 -23.5t59.5 -68.5q22 -31 38 -46.5t38 -15.5
q39 0 59.5 33t22.5 90q0 8 4.5 12.5t12.5 4.5h33q17 0 16 -21q-3 -85 -40 -136t-106 -51q-44 0 -72 23z" />
    <glyph glyph-name="uni1EAC" unicode="&#x1eac;" horiz-adv-x="1192" 
d="M1166 19q1 -2 1 -6q0 -6 -4 -9.5t-11 -3.5h-75q-14 0 -19 13l-164 458h-602l-163 -458q-5 -13 -19 -13h-70q-9 0 -13 5.5t0 13.5l501 1368q4 13 19 13h100q15 0 19 -13zM866 556l-273 764l-273 -764h546zM559 -263q-8 0 -12.5 4.5t-4.5 12.5v104q0 17 17 17h68
q17 0 17 -17v-104q0 -8 -4.5 -12.5t-12.5 -4.5h-68zM306 1560q-2 6 -2 9q0 9 9 13l251 132q8 5 21 5h27q12 0 21 -5l250 -131q9 -4 9 -14q0 -6 -2 -9l-11 -26q-4 -10 -13 -10q-6 0 -9 2l-259 111l-260 -109q-3 -2 -9 -2q-8 0 -12 10z" />
    <glyph glyph-name="uni1EAD" unicode="&#x1ead;" horiz-adv-x="1035" 
d="M918 534l5 -517q0 -8 -4.5 -12.5t-12.5 -4.5h-67q-16 0 -16 17l4 200q-49 -112 -137 -173.5t-210 -61.5q-130 0 -223 69.5t-141 190t-48 272.5q0 150 48.5 272t142 193t222.5 71q121 0 209 -58t136 -169l-4 190q0 8 4.5 12.5t12.5 4.5h67q8 0 12.5 -4.5t4.5 -12.5z
M675 107.5q74 51.5 115 153.5t41 251q0 145 -39 249t-113 159.5t-177 55.5q-111 0 -186.5 -59t-112 -161t-36.5 -231q0 -134 36 -240t111 -167.5t186 -61.5q101 0 175 51.5zM483 -263q-8 0 -12.5 4.5t-4.5 12.5v104q0 17 17 17h68q17 0 17 -17v-104q0 -8 -4.5 -12.5
t-12.5 -4.5h-68zM205 1190q-2 6 -2 9q0 9 9 13l251 132q8 5 21 5h27q12 0 21 -5l250 -131q9 -4 9 -14q0 -6 -2 -9l-11 -26q-4 -10 -13 -10q-6 0 -9 2l-259 111l-260 -109q-3 -2 -9 -2q-8 0 -12 10z" />
    <glyph glyph-name="uni1EAE" unicode="&#x1eae;" horiz-adv-x="1192" 
d="M1166 19q1 -2 1 -6q0 -6 -4 -9.5t-11 -3.5h-75q-14 0 -19 13l-164 458h-602l-163 -458q-5 -13 -19 -13h-70q-9 0 -13 5.5t0 13.5l501 1368q4 13 19 13h100q15 0 19 -13zM866 556l-273 764l-273 -764h546zM600 1698q-5 -7 -12 -7q-5 0 -12 5l-21 18q-7 6 -7 13q0 6 4 11
l207 252q5 7 12 7q5 0 12 -5l33 -31q6 -6 6 -12q0 -4 -5 -11zM480 1526.5q-51 27.5 -80.5 76t-33.5 109.5v2q0 15 16 15h42q15 0 17 -17q5 -63 45.5 -101.5t111.5 -38.5q68 0 110 39t47 101q2 17 17 17h43q16 0 16 -16q-4 -61 -33.5 -109.5t-81 -76.5t-118.5 -28t-118 27.5z
" />
    <glyph glyph-name="uni1EAF" unicode="&#x1eaf;" horiz-adv-x="1035" 
d="M918 534l5 -517q0 -8 -4.5 -12.5t-12.5 -4.5h-67q-16 0 -16 17l4 200q-49 -112 -137 -173.5t-210 -61.5q-130 0 -223 69.5t-141 190t-48 272.5q0 150 48.5 272t142 193t222.5 71q121 0 209 -58t136 -169l-4 190q0 8 4.5 12.5t12.5 4.5h67q8 0 12.5 -4.5t4.5 -12.5z
M675 107.5q74 51.5 115 153.5t41 251q0 145 -39 249t-113 159.5t-177 55.5q-111 0 -186.5 -59t-112 -161t-36.5 -231q0 -134 36 -240t111 -167.5t186 -61.5q101 0 175 51.5zM500 1328q-5 -7 -12 -7q-5 0 -12 5l-21 18q-7 6 -7 13q0 6 4 11l207 252q5 7 12 7q5 0 12 -5
l33 -31q6 -6 6 -12q0 -4 -5 -11zM380 1156.5q-51 27.5 -80.5 76t-33.5 109.5v2q0 15 16 15h42q15 0 17 -17q5 -63 45.5 -101.5t111.5 -38.5q68 0 110 39t47 101q2 17 17 17h43q16 0 16 -16q-4 -61 -33.5 -109.5t-81 -76.5t-118.5 -28t-118 27.5z" />
    <glyph glyph-name="uni1EB0" unicode="&#x1eb0;" horiz-adv-x="1192" 
d="M1166 19q1 -2 1 -6q0 -6 -4 -9.5t-11 -3.5h-75q-14 0 -19 13l-164 458h-602l-163 -458q-5 -13 -19 -13h-70q-9 0 -13 5.5t0 13.5l501 1368q4 13 19 13h100q15 0 19 -13zM866 556l-273 764l-273 -764h546zM619 1696q-7 -5 -11 -5q-6 0 -13 7l-217 240q-4 5 -4 11q0 7 5 12
l34 31q7 5 11 5q6 0 13 -7l206 -252q5 -7 5 -11q0 -7 -8 -13zM478.5 1526.5q-51.5 27.5 -80.5 76t-33 109.5v2q0 15 16 15h42q15 0 17 -17q5 -63 45.5 -101.5t111.5 -38.5q68 0 110 39t47 101q2 17 17 17h42q8 0 12.5 -4t3.5 -12q-3 -61 -32.5 -109.5t-81 -76.5t-118.5 -28
t-118.5 27.5z" />
    <glyph glyph-name="uni1EB1" unicode="&#x1eb1;" horiz-adv-x="1035" 
d="M918 534l5 -517q0 -8 -4.5 -12.5t-12.5 -4.5h-67q-16 0 -16 17l4 200q-49 -112 -137 -173.5t-210 -61.5q-130 0 -223 69.5t-141 190t-48 272.5q0 150 48.5 272t142 193t222.5 71q121 0 209 -58t136 -169l-4 190q0 8 4.5 12.5t12.5 4.5h67q8 0 12.5 -4.5t4.5 -12.5z
M675 107.5q74 51.5 115 153.5t41 251q0 145 -39 249t-113 159.5t-177 55.5q-111 0 -186.5 -59t-112 -161t-36.5 -231q0 -134 36 -240t111 -167.5t186 -61.5q101 0 175 51.5zM519 1326q-7 -5 -11 -5q-6 0 -13 7l-217 240q-4 5 -4 11q0 7 5 12l34 31q7 5 11 5q6 0 13 -7
l206 -252q5 -7 5 -11q0 -7 -8 -13zM378.5 1156.5q-51.5 27.5 -80.5 76t-33 109.5v2q0 15 16 15h42q15 0 17 -17q5 -63 45.5 -101.5t111.5 -38.5q68 0 110 39t47 101q2 17 17 17h42q8 0 12.5 -4t3.5 -12q-3 -61 -32.5 -109.5t-81 -76.5t-118.5 -28t-118.5 27.5z" />
    <glyph glyph-name="uni1EB2" unicode="&#x1eb2;" horiz-adv-x="1192" 
d="M1166 19q1 -2 1 -6q0 -6 -4 -9.5t-11 -3.5h-75q-14 0 -19 13l-164 458h-602l-163 -458q-5 -13 -19 -13h-70q-9 0 -13 5.5t0 13.5l501 1368q4 13 19 13h100q15 0 19 -13zM866 556l-273 764l-273 -764h546zM480.5 1526.5q-51.5 27.5 -81 76t-33.5 109.5v2q0 15 16 15h42
q15 0 17 -16q5 -64 45.5 -102.5t111.5 -38.5q68 0 110 39t47 102q2 16 17 16h43q16 0 16 -16q-4 -61 -33.5 -109.5t-81 -76.5t-118.5 -28q-66 0 -117.5 27.5zM576 1706q-9 0 -13.5 4.5t-2.5 12.5q5 33 24 53t54 44q33 23 48.5 40t15.5 43q0 31 -25 49.5t-71 18.5
q-45 0 -72 -19t-34 -52q-3 -16 -18 -16h-41q-8 0 -12 5t-3 13q8 62 55.5 97.5t124.5 35.5q78 0 124.5 -36t46.5 -95q0 -42 -21.5 -67.5t-61.5 -53.5q-27 -20 -40 -32.5t-18 -29.5q-2 -8 -6 -11.5t-11 -3.5h-43z" />
    <glyph glyph-name="uni1EB3" unicode="&#x1eb3;" horiz-adv-x="1035" 
d="M918 534l5 -517q0 -8 -4.5 -12.5t-12.5 -4.5h-67q-16 0 -16 17l4 200q-49 -112 -137 -173.5t-210 -61.5q-130 0 -223 69.5t-141 190t-48 272.5q0 150 48.5 272t142 193t222.5 71q121 0 209 -58t136 -169l-4 190q0 8 4.5 12.5t12.5 4.5h67q8 0 12.5 -4.5t4.5 -12.5z
M675 107.5q74 51.5 115 153.5t41 251q0 145 -39 249t-113 159.5t-177 55.5q-111 0 -186.5 -59t-112 -161t-36.5 -231q0 -134 36 -240t111 -167.5t186 -61.5q101 0 175 51.5zM380.5 1156.5q-51.5 27.5 -81 76t-33.5 109.5v2q0 15 16 15h42q15 0 17 -16q5 -64 45.5 -102.5
t111.5 -38.5q68 0 110 39t47 102q2 16 17 16h43q16 0 16 -16q-4 -61 -33.5 -109.5t-81 -76.5t-118.5 -28q-66 0 -117.5 27.5zM476 1336q-9 0 -13.5 4.5t-2.5 12.5q5 33 24 53t54 44q33 23 48.5 40t15.5 43q0 31 -25 49.5t-71 18.5q-45 0 -72 -19t-34 -52q-3 -16 -18 -16h-41
q-8 0 -12 5t-3 13q8 62 55.5 97.5t124.5 35.5q78 0 124.5 -36t46.5 -95q0 -42 -21.5 -67.5t-61.5 -53.5q-27 -20 -40 -32.5t-18 -29.5q-2 -8 -6 -11.5t-11 -3.5h-43z" />
    <glyph glyph-name="uni1EB4" unicode="&#x1eb4;" horiz-adv-x="1192" 
d="M1166 19q1 -2 1 -6q0 -6 -4 -9.5t-11 -3.5h-75q-14 0 -19 13l-164 458h-602l-163 -458q-5 -13 -19 -13h-70q-9 0 -13 5.5t0 13.5l501 1368q4 13 19 13h100q15 0 19 -13zM866 556l-273 764l-273 -764h546zM626.5 1791.5q-25.5 20.5 -50.5 57.5q-20 28 -35 41.5t-36 13.5
q-65 0 -68 -104q0 -8 -4.5 -12.5t-12.5 -4.5h-34q-16 0 -16 17q3 78 37 125t97 47q29 0 50 -11t34.5 -25.5t31.5 -40.5q20 -29 34.5 -42.5t36.5 -13.5q63 0 68 102q0 8 4.5 12.5t12.5 4.5h34q16 0 15 -21q-3 -75 -37 -120.5t-95 -45.5q-41 0 -66.5 20.5zM480 1526.5
q-51 27.5 -80.5 76t-33.5 109.5v2q0 15 16 15h42q15 0 17 -17q5 -63 45.5 -101.5t111.5 -38.5q68 0 110 39t47 101q2 17 17 17h43q16 0 16 -16q-4 -61 -33.5 -109.5t-81 -76.5t-118.5 -28t-118 27.5z" />
    <glyph glyph-name="uni1EB5" unicode="&#x1eb5;" horiz-adv-x="1035" 
d="M918 534l5 -517q0 -8 -4.5 -12.5t-12.5 -4.5h-67q-16 0 -16 17l4 200q-49 -112 -137 -173.5t-210 -61.5q-130 0 -223 69.5t-141 190t-48 272.5q0 150 48.5 272t142 193t222.5 71q121 0 209 -58t136 -169l-4 190q0 8 4.5 12.5t12.5 4.5h67q8 0 12.5 -4.5t4.5 -12.5z
M675 107.5q74 51.5 115 153.5t41 251q0 145 -39 249t-113 159.5t-177 55.5q-111 0 -186.5 -59t-112 -161t-36.5 -231q0 -134 36 -240t111 -167.5t186 -61.5q101 0 175 51.5zM526.5 1421.5q-25.5 20.5 -50.5 57.5q-20 28 -35 41.5t-36 13.5q-65 0 -68 -104q0 -8 -4.5 -12.5
t-12.5 -4.5h-34q-16 0 -16 17q3 78 37 125t97 47q29 0 50 -11t34.5 -25.5t31.5 -40.5q20 -29 34.5 -42.5t36.5 -13.5q63 0 68 102q0 8 4.5 12.5t12.5 4.5h34q16 0 15 -21q-3 -75 -37 -120.5t-95 -45.5q-41 0 -66.5 20.5zM380 1156.5q-51 27.5 -80.5 76t-33.5 109.5v2
q0 15 16 15h42q15 0 17 -17q5 -63 45.5 -101.5t111.5 -38.5q68 0 110 39t47 101q2 17 17 17h43q16 0 16 -16q-4 -61 -33.5 -109.5t-81 -76.5t-118.5 -28t-118 27.5z" />
    <glyph glyph-name="uni1EB6" unicode="&#x1eb6;" horiz-adv-x="1192" 
d="M1166 19q1 -2 1 -6q0 -6 -4 -9.5t-11 -3.5h-75q-14 0 -19 13l-164 458h-602l-163 -458q-5 -13 -19 -13h-70q-9 0 -13 5.5t0 13.5l501 1368q4 13 19 13h100q15 0 19 -13zM866 556l-273 764l-273 -764h546zM559 -263q-8 0 -12.5 4.5t-4.5 12.5v104q0 17 17 17h68
q17 0 17 -17v-104q0 -8 -4.5 -12.5t-12.5 -4.5h-68zM480.5 1547.5q-51.5 27.5 -81 76t-33.5 109.5v2q0 15 16 15h42q15 0 17 -16q5 -64 45.5 -102.5t111.5 -38.5q68 0 110 39t47 102q2 16 17 16h43q16 0 16 -16q-4 -61 -33.5 -109.5t-81 -76.5t-118.5 -28q-66 0 -117.5 27.5
z" />
    <glyph glyph-name="uni1EB7" unicode="&#x1eb7;" horiz-adv-x="1035" 
d="M918 534l5 -517q0 -8 -4.5 -12.5t-12.5 -4.5h-67q-16 0 -16 17l4 200q-49 -112 -137 -173.5t-210 -61.5q-130 0 -223 69.5t-141 190t-48 272.5q0 150 48.5 272t142 193t222.5 71q121 0 209 -58t136 -169l-4 190q0 8 4.5 12.5t12.5 4.5h67q8 0 12.5 -4.5t4.5 -12.5z
M675 107.5q74 51.5 115 153.5t41 251q0 145 -39 249t-113 159.5t-177 55.5q-111 0 -186.5 -59t-112 -161t-36.5 -231q0 -134 36 -240t111 -167.5t186 -61.5q101 0 175 51.5zM483 -263q-8 0 -12.5 4.5t-4.5 12.5v104q0 17 17 17h68q17 0 17 -17v-104q0 -8 -4.5 -12.5
t-12.5 -4.5h-68zM380.5 1177.5q-51.5 27.5 -81 76t-33.5 109.5v2q0 15 16 15h42q15 0 17 -16q5 -64 45.5 -102.5t111.5 -38.5q68 0 110 39t47 102q2 16 17 16h43q16 0 16 -16q-4 -61 -33.5 -109.5t-81 -76.5t-118.5 -28q-66 0 -117.5 27.5z" />
    <glyph glyph-name="uni1EB8" unicode="&#x1eb8;" horiz-adv-x="1025" 
d="M138 0q-16 0 -16 17l5 725l-5 641q0 17 16 17h779q8 0 12.5 -4.5t4.5 -12.5v-48q0 -7 -4.5 -12t-12.5 -5h-688l-6 -524h653q17 0 17 -16v-49q0 -7 -4.5 -11.5t-12.5 -4.5h-653l6 -631h704q8 0 12.5 -4.5t4.5 -12.5v-48q0 -8 -4.5 -12.5t-12.5 -4.5h-795zM520 -263
q-8 0 -12.5 4.5t-4.5 12.5v104q0 17 17 17h68q17 0 17 -17v-104q0 -8 -4.5 -12.5t-12.5 -4.5h-68z" />
    <glyph glyph-name="uni1EB9" unicode="&#x1eb9;" horiz-adv-x="1032" 
d="M171 520q1 -232 93.5 -349.5t269.5 -117.5q138 0 219.5 77.5t106.5 219.5q3 15 18 15h62q9 0 13 -4.5t3 -12.5q-28 -176 -135 -272.5t-288 -96.5q-149 0 -253.5 66.5t-158 186.5t-53.5 280q0 158 54 280t156.5 190.5t242.5 68.5q135 0 233.5 -60.5t152 -176t56.5 -277.5
q0 -8 -4.5 -12.5t-12.5 -4.5h-775zM279.5 875.5q-88.5 -101.5 -105.5 -279.5h682q-1 108 -39.5 194.5t-114 136.5t-181.5 50q-153 0 -241.5 -101.5zM482 -263q-8 0 -12.5 4.5t-4.5 12.5v104q0 17 17 17h68q17 0 17 -17v-104q0 -8 -4.5 -12.5t-12.5 -4.5h-68z" />
    <glyph glyph-name="uni1EBA" unicode="&#x1eba;" horiz-adv-x="1025" 
d="M138 0q-16 0 -16 17l5 725l-5 641q0 17 16 17h779q8 0 12.5 -4.5t4.5 -12.5v-48q0 -7 -4.5 -12t-12.5 -5h-688l-6 -524h653q17 0 17 -16v-49q0 -7 -4.5 -11.5t-12.5 -4.5h-653l6 -631h704q8 0 12.5 -4.5t4.5 -12.5v-48q0 -8 -4.5 -12.5t-12.5 -4.5h-795zM524 1542
q-9 0 -13.5 4.5t-2.5 12.5q5 33 24 53t54 44q33 23 48.5 40t15.5 43q0 31 -25 49.5t-71 18.5q-45 0 -72 -19t-34 -52q-3 -16 -18 -16h-41q-8 0 -12 5t-3 13q8 62 55.5 97.5t124.5 35.5q78 0 124.5 -36t46.5 -95q0 -42 -21.5 -67.5t-61.5 -53.5q-27 -20 -40 -32.5t-18 -29.5
q-2 -8 -6 -11.5t-11 -3.5h-43z" />
    <glyph glyph-name="uni1EBB" unicode="&#x1ebb;" horiz-adv-x="1032" 
d="M171 520q1 -232 93.5 -349.5t269.5 -117.5q138 0 219.5 77.5t106.5 219.5q3 15 18 15h62q9 0 13 -4.5t3 -12.5q-28 -176 -135 -272.5t-288 -96.5q-149 0 -253.5 66.5t-158 186.5t-53.5 280q0 158 54 280t156.5 190.5t242.5 68.5q135 0 233.5 -60.5t152 -176t56.5 -277.5
q0 -8 -4.5 -12.5t-12.5 -4.5h-775zM279.5 875.5q-88.5 -101.5 -105.5 -279.5h682q-1 108 -39.5 194.5t-114 136.5t-181.5 50q-153 0 -241.5 -101.5zM501 1172q-9 0 -13.5 4.5t-2.5 12.5q5 33 24 53t54 44q33 23 48.5 40t15.5 43q0 31 -25 49.5t-71 18.5q-45 0 -72 -19
t-34 -52q-3 -16 -18 -16h-41q-8 0 -12 5t-3 13q8 62 55.5 97.5t124.5 35.5q78 0 124.5 -36t46.5 -95q0 -42 -21.5 -67.5t-61.5 -53.5q-27 -20 -40 -32.5t-18 -29.5q-2 -8 -6 -11.5t-11 -3.5h-43z" />
    <glyph glyph-name="uni1EBC" unicode="&#x1ebc;" horiz-adv-x="1025" 
d="M138 0q-16 0 -16 17l5 725l-5 641q0 17 16 17h779q8 0 12.5 -4.5t4.5 -12.5v-48q0 -7 -4.5 -12t-12.5 -5h-688l-6 -524h653q17 0 17 -16v-49q0 -7 -4.5 -11.5t-12.5 -4.5h-653l6 -631h704q8 0 12.5 -4.5t4.5 -12.5v-48q0 -8 -4.5 -12.5t-12.5 -4.5h-795zM577 1558
q-28 23 -60 67q-23 32 -40 48t-40 16q-71 0 -78 -123q0 -17 -17 -17h-33q-17 0 -17 17q4 86 40.5 138.5t104.5 52.5q46 0 74.5 -23.5t59.5 -68.5q22 -31 38 -46.5t38 -15.5q39 0 59.5 33t22.5 90q0 8 4.5 12.5t12.5 4.5h33q17 0 16 -21q-3 -85 -40 -136t-106 -51
q-44 0 -72 23z" />
    <glyph glyph-name="uni1EBD" unicode="&#x1ebd;" horiz-adv-x="1032" 
d="M171 520q1 -232 93.5 -349.5t269.5 -117.5q138 0 219.5 77.5t106.5 219.5q3 15 18 15h62q9 0 13 -4.5t3 -12.5q-28 -176 -135 -272.5t-288 -96.5q-149 0 -253.5 66.5t-158 186.5t-53.5 280q0 158 54 280t156.5 190.5t242.5 68.5q135 0 233.5 -60.5t152 -176t56.5 -277.5
q0 -8 -4.5 -12.5t-12.5 -4.5h-775zM279.5 875.5q-88.5 -101.5 -105.5 -279.5h682q-1 108 -39.5 194.5t-114 136.5t-181.5 50q-153 0 -241.5 -101.5zM554 1188q-28 23 -60 67q-23 32 -40 48t-40 16q-71 0 -78 -123q0 -17 -17 -17h-33q-17 0 -17 17q4 86 40.5 138.5
t104.5 52.5q46 0 74.5 -23.5t59.5 -68.5q22 -31 38 -46.5t38 -15.5q39 0 59.5 33t22.5 90q0 8 4.5 12.5t12.5 4.5h33q17 0 16 -21q-3 -85 -40 -136t-106 -51q-44 0 -72 23z" />
    <glyph glyph-name="uni1EBE" unicode="&#x1ebe;" horiz-adv-x="1025" 
d="M138 0q-16 0 -16 17l5 725l-5 641q0 17 16 17h779q8 0 12.5 -4.5t4.5 -12.5v-48q0 -7 -4.5 -12t-12.5 -5h-688l-6 -524h653q17 0 17 -16v-49q0 -7 -4.5 -11.5t-12.5 -4.5h-653l6 -631h704q8 0 12.5 -4.5t4.5 -12.5v-48q0 -8 -4.5 -12.5t-12.5 -4.5h-795zM759 1683
q-6 -6 -13 -6q-6 0 -11 5l-20 18q-7 4 -7 12q0 6 4 11l206 252q7 7 13 7q4 0 11 -5l33 -31q6 -6 6 -12q0 -4 -5 -11zM251 1521l-2 8q0 10 9 14l251 131q8 5 21 5h27q12 0 21 -5l250 -131q9 -4 9 -14q0 -5 -2 -8l-11 -26q-6 -11 -14 -11q-2 0 -8 2l-259 112l-260 -110l-8 -2
q-8 0 -13 10z" />
    <glyph glyph-name="uni1EBF" unicode="&#x1ebf;" horiz-adv-x="1032" 
d="M171 520q1 -232 93.5 -349.5t269.5 -117.5q138 0 219.5 77.5t106.5 219.5q3 15 18 15h62q9 0 13 -4.5t3 -12.5q-28 -176 -135 -272.5t-288 -96.5q-149 0 -253.5 66.5t-158 186.5t-53.5 280q0 158 54 280t156.5 190.5t242.5 68.5q135 0 233.5 -60.5t152 -176t56.5 -277.5
q0 -8 -4.5 -12.5t-12.5 -4.5h-775zM279.5 875.5q-88.5 -101.5 -105.5 -279.5h682q-1 108 -39.5 194.5t-114 136.5t-181.5 50q-153 0 -241.5 -101.5zM736 1313q-6 -6 -13 -6q-6 0 -11 5l-20 18q-7 4 -7 12q0 6 4 11l206 252q7 7 13 7q4 0 11 -5l33 -31q6 -6 6 -12
q0 -4 -5 -11zM228 1151l-2 8q0 10 9 14l251 131q8 5 21 5h27q12 0 21 -5l250 -131q9 -4 9 -14q0 -5 -2 -8l-11 -26q-6 -11 -14 -11q-2 0 -8 2l-259 112l-260 -110l-8 -2q-8 0 -13 10z" />
    <glyph glyph-name="uni1EC0" unicode="&#x1ec0;" horiz-adv-x="1025" 
d="M138 0q-16 0 -16 17l5 725l-5 641q0 17 16 17h779q8 0 12.5 -4.5t4.5 -12.5v-48q0 -7 -4.5 -12t-12.5 -5h-688l-6 -524h653q17 0 17 -16v-49q0 -7 -4.5 -11.5t-12.5 -4.5h-653l6 -631h704q8 0 12.5 -4.5t4.5 -12.5v-48q0 -8 -4.5 -12.5t-12.5 -4.5h-795zM778 1681
q-4 -4 -11 -4t-13 6l-217 240q-5 5 -5 11t6 12l33 30q7 5 12 5q6 0 12 -7l206 -251q5 -5 5 -11q0 -7 -8 -13zM251 1521l-2 8q0 10 9 14l251 131q8 5 21 5h27q12 0 21 -5l250 -131q9 -4 9 -14q0 -5 -2 -8l-11 -26q-6 -11 -14 -11q-2 0 -8 2l-259 112l-260 -110l-8 -2
q-8 0 -13 10z" />
    <glyph glyph-name="uni1EC1" unicode="&#x1ec1;" horiz-adv-x="1032" 
d="M171 520q1 -232 93.5 -349.5t269.5 -117.5q138 0 219.5 77.5t106.5 219.5q3 15 18 15h62q9 0 13 -4.5t3 -12.5q-28 -176 -135 -272.5t-288 -96.5q-149 0 -253.5 66.5t-158 186.5t-53.5 280q0 158 54 280t156.5 190.5t242.5 68.5q135 0 233.5 -60.5t152 -176t56.5 -277.5
q0 -8 -4.5 -12.5t-12.5 -4.5h-775zM279.5 875.5q-88.5 -101.5 -105.5 -279.5h682q-1 108 -39.5 194.5t-114 136.5t-181.5 50q-153 0 -241.5 -101.5zM755 1311q-4 -4 -11 -4t-13 6l-217 240q-5 5 -5 11t6 12l33 30q7 5 12 5q6 0 12 -7l206 -251q5 -5 5 -11q0 -7 -8 -13z
M228 1151l-2 8q0 10 9 14l251 131q8 5 21 5h27q12 0 21 -5l250 -131q9 -4 9 -14q0 -5 -2 -8l-11 -26q-6 -11 -14 -11q-2 0 -8 2l-259 112l-260 -110l-8 -2q-8 0 -13 10z" />
    <glyph glyph-name="uni1EC2" unicode="&#x1ec2;" horiz-adv-x="1025" 
d="M138 0q-16 0 -16 17l5 725l-5 641q0 17 16 17h779q8 0 12.5 -4.5t4.5 -12.5v-48q0 -7 -4.5 -12t-12.5 -5h-688l-6 -524h653q17 0 17 -16v-49q0 -7 -4.5 -11.5t-12.5 -4.5h-653l6 -631h704q8 0 12.5 -4.5t4.5 -12.5v-48q0 -8 -4.5 -12.5t-12.5 -4.5h-795zM251 1520
q-2 6 -2 9q0 9 9 13l251 132q8 5 21 5h27q12 0 21 -5l250 -131q9 -4 9 -14q0 -6 -2 -9l-11 -26q-4 -10 -13 -10q-6 0 -9 2l-259 111l-260 -109q-3 -2 -9 -2q-8 0 -12 10zM721 1689q-9 0 -13.5 4.5t-2.5 12.5q5 33 24 53t54 44q33 23 48.5 40t15.5 43q0 31 -25 49.5t-71 18.5
q-45 0 -72 -19t-34 -52q-3 -16 -18 -16h-41q-8 0 -12 5t-3 13q8 62 55.5 97.5t124.5 35.5q78 0 124.5 -36t46.5 -95q0 -42 -21.5 -67.5t-61.5 -53.5q-27 -20 -40 -32.5t-18 -29.5q-2 -8 -6 -11.5t-11 -3.5h-43z" />
    <glyph glyph-name="uni1EC3" unicode="&#x1ec3;" horiz-adv-x="1032" 
d="M171 520q1 -232 93.5 -349.5t269.5 -117.5q138 0 219.5 77.5t106.5 219.5q3 15 18 15h62q9 0 13 -4.5t3 -12.5q-28 -176 -135 -272.5t-288 -96.5q-149 0 -253.5 66.5t-158 186.5t-53.5 280q0 158 54 280t156.5 190.5t242.5 68.5q135 0 233.5 -60.5t152 -176t56.5 -277.5
q0 -8 -4.5 -12.5t-12.5 -4.5h-775zM279.5 875.5q-88.5 -101.5 -105.5 -279.5h682q-1 108 -39.5 194.5t-114 136.5t-181.5 50q-153 0 -241.5 -101.5zM228 1150q-2 6 -2 9q0 9 9 13l251 132q8 5 21 5h27q12 0 21 -5l250 -131q9 -4 9 -14q0 -6 -2 -9l-11 -26q-4 -10 -13 -10
q-6 0 -9 2l-259 111l-260 -109q-3 -2 -9 -2q-8 0 -12 10zM698 1319q-9 0 -13.5 4.5t-2.5 12.5q5 33 24 53t54 44q33 23 48.5 40t15.5 43q0 31 -25 49.5t-71 18.5q-45 0 -72 -19t-34 -52q-3 -16 -18 -16h-41q-8 0 -12 5t-3 13q8 62 55.5 97.5t124.5 35.5q78 0 124.5 -36
t46.5 -95q0 -42 -21.5 -67.5t-61.5 -53.5q-27 -20 -40 -32.5t-18 -29.5q-2 -8 -6 -11.5t-11 -3.5h-43z" />
    <glyph glyph-name="uni1EC4" unicode="&#x1ec4;" horiz-adv-x="1025" 
d="M138 0q-16 0 -16 17l5 725l-5 641q0 17 16 17h779q8 0 12.5 -4.5t4.5 -12.5v-48q0 -7 -4.5 -12t-12.5 -5h-688l-6 -524h653q17 0 17 -16v-49q0 -7 -4.5 -11.5t-12.5 -4.5h-653l6 -631h704q8 0 12.5 -4.5t4.5 -12.5v-48q0 -8 -4.5 -12.5t-12.5 -4.5h-795zM251 1520
q-2 6 -2 9q0 9 9 13l251 132q8 5 21 5h27q12 0 21 -5l250 -131q9 -4 9 -14q0 -6 -2 -9l-11 -26q-4 -10 -13 -10q-6 0 -9 2l-259 111l-260 -109q-3 -2 -9 -2q-8 0 -12 10zM577 1744q-28 23 -60 67q-23 32 -40 48t-40 16q-71 0 -78 -123q0 -17 -17 -17h-33q-17 0 -17 17
q4 86 40.5 138.5t104.5 52.5q46 0 74.5 -23.5t59.5 -68.5q22 -31 38 -46.5t38 -15.5q39 0 59.5 33t22.5 90q0 8 4.5 12.5t12.5 4.5h33q17 0 16 -21q-3 -85 -40 -136t-106 -51q-44 0 -72 23z" />
    <glyph glyph-name="uni1EC5" unicode="&#x1ec5;" horiz-adv-x="1032" 
d="M171 520q1 -232 93.5 -349.5t269.5 -117.5q138 0 219.5 77.5t106.5 219.5q3 15 18 15h62q9 0 13 -4.5t3 -12.5q-28 -176 -135 -272.5t-288 -96.5q-149 0 -253.5 66.5t-158 186.5t-53.5 280q0 158 54 280t156.5 190.5t242.5 68.5q135 0 233.5 -60.5t152 -176t56.5 -277.5
q0 -8 -4.5 -12.5t-12.5 -4.5h-775zM279.5 875.5q-88.5 -101.5 -105.5 -279.5h682q-1 108 -39.5 194.5t-114 136.5t-181.5 50q-153 0 -241.5 -101.5zM228 1150q-2 6 -2 9q0 9 9 13l251 132q8 5 21 5h27q12 0 21 -5l250 -131q9 -4 9 -14q0 -6 -2 -9l-11 -26q-4 -10 -13 -10
q-6 0 -9 2l-259 111l-260 -109q-3 -2 -9 -2q-8 0 -12 10zM554 1374q-28 23 -60 67q-23 32 -40 48t-40 16q-71 0 -78 -123q0 -17 -17 -17h-33q-17 0 -17 17q4 86 40.5 138.5t104.5 52.5q46 0 74.5 -23.5t59.5 -68.5q22 -31 38 -46.5t38 -15.5q39 0 59.5 33t22.5 90
q0 8 4.5 12.5t12.5 4.5h33q17 0 16 -21q-3 -85 -40 -136t-106 -51q-44 0 -72 23z" />
    <glyph glyph-name="uni1EC6" unicode="&#x1ec6;" horiz-adv-x="1025" 
d="M138 0q-16 0 -16 17l5 725l-5 641q0 17 16 17h779q8 0 12.5 -4.5t4.5 -12.5v-48q0 -7 -4.5 -12t-12.5 -5h-688l-6 -524h653q17 0 17 -16v-49q0 -7 -4.5 -11.5t-12.5 -4.5h-653l6 -631h704q8 0 12.5 -4.5t4.5 -12.5v-48q0 -8 -4.5 -12.5t-12.5 -4.5h-795zM520 -263
q-8 0 -12.5 4.5t-4.5 12.5v104q0 17 17 17h68q17 0 17 -17v-104q0 -8 -4.5 -12.5t-12.5 -4.5h-68zM251 1560q-2 6 -2 9q0 9 9 13l251 132q8 5 21 5h27q12 0 21 -5l250 -131q9 -4 9 -14q0 -6 -2 -9l-11 -26q-4 -10 -13 -10q-6 0 -9 2l-259 111l-260 -109q-3 -2 -9 -2
q-8 0 -12 10z" />
    <glyph glyph-name="uni1EC7" unicode="&#x1ec7;" horiz-adv-x="1032" 
d="M171 520q1 -232 93.5 -349.5t269.5 -117.5q138 0 219.5 77.5t106.5 219.5q3 15 18 15h62q9 0 13 -4.5t3 -12.5q-28 -176 -135 -272.5t-288 -96.5q-149 0 -253.5 66.5t-158 186.5t-53.5 280q0 158 54 280t156.5 190.5t242.5 68.5q135 0 233.5 -60.5t152 -176t56.5 -277.5
q0 -8 -4.5 -12.5t-12.5 -4.5h-775zM279.5 875.5q-88.5 -101.5 -105.5 -279.5h682q-1 108 -39.5 194.5t-114 136.5t-181.5 50q-153 0 -241.5 -101.5zM482 -263q-8 0 -12.5 4.5t-4.5 12.5v104q0 17 17 17h68q17 0 17 -17v-104q0 -8 -4.5 -12.5t-12.5 -4.5h-68zM228 1190
q-2 6 -2 9q0 9 9 13l251 132q8 5 21 5h27q12 0 21 -5l250 -131q9 -4 9 -14q0 -6 -2 -9l-11 -26q-4 -10 -13 -10q-6 0 -9 2l-259 111l-260 -109q-3 -2 -9 -2q-8 0 -12 10z" />
    <glyph glyph-name="uni1EC8" unicode="&#x1ec8;" horiz-adv-x="371" 
d="M149 0q-17 0 -17 17l6 707l-6 659q0 17 17 17h73q8 0 12.5 -4.5t4.5 -12.5l-6 -659l6 -707q0 -8 -4.5 -12.5t-12.5 -4.5h-73zM166 1542q-9 0 -13.5 4.5t-2.5 12.5q5 33 24 53t54 44q33 23 48.5 40t15.5 43q0 31 -25 49.5t-71 18.5q-45 0 -72 -19t-34 -52q-3 -16 -18 -16
h-41q-8 0 -12 5t-3 13q8 62 55.5 97.5t124.5 35.5q78 0 124.5 -36t46.5 -95q0 -42 -21.5 -67.5t-61.5 -53.5q-27 -20 -40 -32.5t-18 -29.5q-2 -8 -6 -11.5t-11 -3.5h-43z" />
    <glyph glyph-name="uni1EC9" unicode="&#x1ec9;" horiz-adv-x="347" 
d="M154 1172q-9 0 -13.5 4.5t-2.5 12.5q5 33 24 53t54 44q33 23 48.5 40t15.5 43q0 31 -25 49.5t-71 18.5q-45 0 -72 -19t-34 -52q-3 -16 -18 -16h-37q-8 0 -12.5 5t-3.5 13q8 62 54.5 97.5t122.5 35.5t122 -36t46 -95q0 -30 -11.5 -52t-27 -36t-42.5 -34
q-25 -17 -38.5 -30.5t-18.5 -30.5q-2 -8 -6 -11.5t-12 -3.5h-42zM139 0q-17 0 -17 17l3 528l-3 468q0 17 17 17h69q8 0 12.5 -4.5t4.5 -12.5l-3 -468l3 -528q0 -8 -4.5 -12.5t-12.5 -4.5h-69z" />
    <glyph glyph-name="uni1ECA" unicode="&#x1eca;" horiz-adv-x="371" 
d="M149 0q-17 0 -17 17l6 707l-6 659q0 17 17 17h73q8 0 12.5 -4.5t4.5 -12.5l-6 -659l6 -707q0 -8 -4.5 -12.5t-12.5 -4.5h-73zM151 -263q-8 0 -12.5 4.5t-4.5 12.5v104q0 17 17 17h68q17 0 17 -17v-104q0 -8 -4.5 -12.5t-12.5 -4.5h-68z" />
    <glyph glyph-name="uni1ECB" unicode="&#x1ecb;" horiz-adv-x="347" 
d="M139 0q-17 0 -17 17l3 528l-3 468q0 17 17 17h69q8 0 12.5 -4.5t4.5 -12.5l-3 -468l3 -528q0 -8 -4.5 -12.5t-12.5 -4.5h-69zM141 1172q-8 0 -12.5 4.5t-4.5 12.5v104q0 17 17 17h68q17 0 17 -17v-104q0 -8 -4.5 -12.5t-12.5 -4.5h-68zM139 -263q-8 0 -12.5 4.5
t-4.5 12.5v104q0 17 17 17h68q17 0 17 -17v-104q0 -8 -4.5 -12.5t-12.5 -4.5h-68z" />
    <glyph glyph-name="uni1ECC" unicode="&#x1ecc;" horiz-adv-x="1436" 
d="M380.5 66q-145.5 88 -225 251.5t-79.5 383.5q0 221 79.5 384t225 250t338.5 87t338 -87t224.5 -250t79.5 -386q0 -220 -80 -383t-226 -250.5t-338 -87.5q-191 0 -336.5 88zM1002 137.5q121 76.5 186.5 220.5t65.5 341q0 198 -65.5 342.5t-186.5 221t-285 76.5t-284 -77
t-185 -221t-65 -342q0 -196 65.5 -340t186 -221t283.5 -77t284 76.5zM684 -263q-8 0 -12.5 4.5t-4.5 12.5v104q0 17 17 17h68q17 0 17 -17v-104q0 -8 -4.5 -12.5t-12.5 -4.5h-68z" />
    <glyph glyph-name="uni1ECD" unicode="&#x1ecd;" horiz-adv-x="1057" 
d="M279 45q-104 66 -157.5 186.5t-53.5 282.5q0 161 54 282.5t157.5 188t249.5 66.5t249.5 -66.5t157 -187.5t53.5 -282q0 -162 -53.5 -282.5t-157 -187t-249.5 -66.5t-250 66zM794.5 175.5q90.5 122.5 90.5 338.5q0 215 -91 339t-265 124q-175 -1 -266 -124.5t-91 -339.5
q0 -215 91.5 -337.5t265.5 -122.5q175 0 265.5 122.5zM494 -263q-8 0 -12.5 4.5t-4.5 12.5v104q0 17 17 17h68q17 0 17 -17v-104q0 -8 -4.5 -12.5t-12.5 -4.5h-68z" />
    <glyph glyph-name="uni1ECE" unicode="&#x1ece;" horiz-adv-x="1436" 
d="M380.5 66q-145.5 88 -225 251.5t-79.5 383.5q0 221 79.5 384t225 250t338.5 87t338 -87t224.5 -250t79.5 -386q0 -220 -80 -383t-226 -250.5t-338 -87.5q-191 0 -336.5 88zM1002 137.5q121 76.5 186.5 220.5t65.5 341q0 198 -65.5 342.5t-186.5 221t-285 76.5t-284 -77
t-185 -221t-65 -342q0 -196 65.5 -340t186 -221t283.5 -77t284 76.5zM699 1542q-9 0 -13.5 4.5t-2.5 12.5q5 33 24 53t54 44q33 23 48.5 40t15.5 43q0 31 -25 49.5t-71 18.5q-45 0 -72 -19t-34 -52q-3 -16 -18 -16h-41q-8 0 -12 5t-3 13q8 62 55.5 97.5t124.5 35.5
q78 0 124.5 -36t46.5 -95q0 -42 -21.5 -67.5t-61.5 -53.5q-27 -20 -40 -32.5t-18 -29.5q-2 -8 -6 -11.5t-11 -3.5h-43z" />
    <glyph glyph-name="uni1ECF" unicode="&#x1ecf;" horiz-adv-x="1057" 
d="M279 45q-104 66 -157.5 186.5t-53.5 282.5q0 161 54 282.5t157.5 188t249.5 66.5t249.5 -66.5t157 -187.5t53.5 -282q0 -162 -53.5 -282.5t-157 -187t-249.5 -66.5t-250 66zM794.5 175.5q90.5 122.5 90.5 338.5q0 215 -91 339t-265 124q-175 -1 -266 -124.5t-91 -339.5
q0 -215 91.5 -337.5t265.5 -122.5q175 0 265.5 122.5zM508 1172q-9 0 -13.5 4.5t-2.5 12.5q5 33 24 53t54 44q33 23 48.5 40t15.5 43q0 31 -25 49.5t-71 18.5q-45 0 -72 -19t-34 -52q-3 -16 -18 -16h-41q-8 0 -12 5t-3 13q8 62 55.5 97.5t124.5 35.5q78 0 124.5 -36
t46.5 -95q0 -42 -21.5 -67.5t-61.5 -53.5q-27 -20 -40 -32.5t-18 -29.5q-2 -8 -6 -11.5t-11 -3.5h-43z" />
    <glyph glyph-name="uni1ED0" unicode="&#x1ed0;" horiz-adv-x="1436" 
d="M380.5 66q-145.5 88 -225 251.5t-79.5 383.5q0 221 79.5 384t225 250t338.5 87t338 -87t224.5 -250t79.5 -386q0 -220 -80 -383t-226 -250.5t-338 -87.5q-191 0 -336.5 88zM1002 137.5q121 76.5 186.5 220.5t65.5 341q0 198 -65.5 342.5t-186.5 221t-285 76.5t-284 -77
t-185 -221t-65 -342q0 -196 65.5 -340t186 -221t283.5 -77t284 76.5zM935 1683q-6 -6 -13 -6q-6 0 -11 5l-20 18q-7 4 -7 12q0 6 4 11l206 252q7 7 13 7q4 0 11 -5l33 -31q6 -6 6 -12q0 -4 -5 -11zM427 1521l-2 8q0 10 9 14l251 131q8 5 21 5h27q12 0 21 -5l250 -131
q9 -4 9 -14q0 -5 -2 -8l-11 -26q-6 -11 -14 -11q-2 0 -8 2l-259 112l-260 -110l-8 -2q-8 0 -13 10z" />
    <glyph glyph-name="uni1ED1" unicode="&#x1ed1;" horiz-adv-x="1057" 
d="M279 45q-104 66 -157.5 186.5t-53.5 282.5q0 161 54 282.5t157.5 188t249.5 66.5t249.5 -66.5t157 -187.5t53.5 -282q0 -162 -53.5 -282.5t-157 -187t-249.5 -66.5t-250 66zM794.5 175.5q90.5 122.5 90.5 338.5q0 215 -91 339t-265 124q-175 -1 -266 -124.5t-91 -339.5
q0 -215 91.5 -337.5t265.5 -122.5q175 0 265.5 122.5zM744 1313q-6 -6 -13 -6q-6 0 -11 5l-20 18q-7 4 -7 12q0 6 4 11l206 252q7 7 13 7q4 0 11 -5l33 -31q6 -6 6 -12q0 -4 -5 -11zM236 1151l-2 8q0 10 9 14l251 131q8 5 21 5h27q12 0 21 -5l250 -131q9 -4 9 -14
q0 -5 -2 -8l-11 -26q-6 -11 -14 -11q-2 0 -8 2l-259 112l-260 -110l-8 -2q-8 0 -13 10z" />
    <glyph glyph-name="uni1ED2" unicode="&#x1ed2;" horiz-adv-x="1436" 
d="M380.5 66q-145.5 88 -225 251.5t-79.5 383.5q0 221 79.5 384t225 250t338.5 87t338 -87t224.5 -250t79.5 -386q0 -220 -80 -383t-226 -250.5t-338 -87.5q-191 0 -336.5 88zM1002 137.5q121 76.5 186.5 220.5t65.5 341q0 198 -65.5 342.5t-186.5 221t-285 76.5t-284 -77
t-185 -221t-65 -342q0 -196 65.5 -340t186 -221t283.5 -77t284 76.5zM954 1681q-4 -4 -11 -4t-13 6l-217 240q-5 5 -5 11t6 12l33 30q7 5 12 5q6 0 12 -7l206 -251q5 -5 5 -11q0 -7 -8 -13zM427 1521l-2 8q0 10 9 14l251 131q8 5 21 5h27q12 0 21 -5l250 -131q9 -4 9 -14
q0 -5 -2 -8l-11 -26q-6 -11 -14 -11q-2 0 -8 2l-259 112l-260 -110l-8 -2q-8 0 -13 10z" />
    <glyph glyph-name="uni1ED3" unicode="&#x1ed3;" horiz-adv-x="1057" 
d="M279 45q-104 66 -157.5 186.5t-53.5 282.5q0 161 54 282.5t157.5 188t249.5 66.5t249.5 -66.5t157 -187.5t53.5 -282q0 -162 -53.5 -282.5t-157 -187t-249.5 -66.5t-250 66zM794.5 175.5q90.5 122.5 90.5 338.5q0 215 -91 339t-265 124q-175 -1 -266 -124.5t-91 -339.5
q0 -215 91.5 -337.5t265.5 -122.5q175 0 265.5 122.5zM763 1311q-4 -4 -11 -4t-13 6l-217 240q-5 5 -5 11t6 12l33 30q7 5 12 5q6 0 12 -7l206 -251q5 -5 5 -11q0 -7 -8 -13zM236 1151l-2 8q0 10 9 14l251 131q8 5 21 5h27q12 0 21 -5l250 -131q9 -4 9 -14q0 -5 -2 -8
l-11 -26q-6 -11 -14 -11q-2 0 -8 2l-259 112l-260 -110l-8 -2q-8 0 -13 10z" />
    <glyph glyph-name="uni1ED4" unicode="&#x1ed4;" horiz-adv-x="1436" 
d="M380.5 66q-145.5 88 -225 251.5t-79.5 383.5q0 221 79.5 384t225 250t338.5 87t338 -87t224.5 -250t79.5 -386q0 -220 -80 -383t-226 -250.5t-338 -87.5q-191 0 -336.5 88zM1002 137.5q121 76.5 186.5 220.5t65.5 341q0 198 -65.5 342.5t-186.5 221t-285 76.5t-284 -77
t-185 -221t-65 -342q0 -196 65.5 -340t186 -221t283.5 -77t284 76.5zM427 1520q-2 6 -2 9q0 9 9 13l251 132q8 5 21 5h27q12 0 21 -5l250 -131q9 -4 9 -14q0 -6 -2 -9l-11 -26q-4 -10 -13 -10q-6 0 -9 2l-259 111l-260 -109q-3 -2 -9 -2q-8 0 -12 10zM897 1689
q-9 0 -13.5 4.5t-2.5 12.5q5 33 24 53t54 44q33 23 48.5 40t15.5 43q0 31 -25 49.5t-71 18.5q-45 0 -72 -19t-34 -52q-3 -16 -18 -16h-41q-8 0 -12 5t-3 13q8 62 55.5 97.5t124.5 35.5q78 0 124.5 -36t46.5 -95q0 -42 -21.5 -67.5t-61.5 -53.5q-27 -20 -40 -32.5t-18 -29.5
q-2 -8 -6 -11.5t-11 -3.5h-43z" />
    <glyph glyph-name="uni1ED5" unicode="&#x1ed5;" horiz-adv-x="1057" 
d="M279 45q-104 66 -157.5 186.5t-53.5 282.5q0 161 54 282.5t157.5 188t249.5 66.5t249.5 -66.5t157 -187.5t53.5 -282q0 -162 -53.5 -282.5t-157 -187t-249.5 -66.5t-250 66zM794.5 175.5q90.5 122.5 90.5 338.5q0 215 -91 339t-265 124q-175 -1 -266 -124.5t-91 -339.5
q0 -215 91.5 -337.5t265.5 -122.5q175 0 265.5 122.5zM236 1150q-2 6 -2 9q0 9 9 13l251 132q8 5 21 5h27q12 0 21 -5l250 -131q9 -4 9 -14q0 -6 -2 -9l-11 -26q-4 -10 -13 -10q-6 0 -9 2l-259 111l-260 -109q-3 -2 -9 -2q-8 0 -12 10zM706 1319q-9 0 -13.5 4.5t-2.5 12.5
q5 33 24 53t54 44q33 23 48.5 40t15.5 43q0 31 -25 49.5t-71 18.5q-45 0 -72 -19t-34 -52q-3 -16 -18 -16h-41q-8 0 -12 5t-3 13q8 62 55.5 97.5t124.5 35.5q78 0 124.5 -36t46.5 -95q0 -42 -21.5 -67.5t-61.5 -53.5q-27 -20 -40 -32.5t-18 -29.5q-2 -8 -6 -11.5t-11 -3.5
h-43z" />
    <glyph glyph-name="uni1ED6" unicode="&#x1ed6;" horiz-adv-x="1436" 
d="M380.5 66q-145.5 88 -225 251.5t-79.5 383.5q0 221 79.5 384t225 250t338.5 87t338 -87t224.5 -250t79.5 -386q0 -220 -80 -383t-226 -250.5t-338 -87.5q-191 0 -336.5 88zM1002 137.5q121 76.5 186.5 220.5t65.5 341q0 198 -65.5 342.5t-186.5 221t-285 76.5t-284 -77
t-185 -221t-65 -342q0 -196 65.5 -340t186 -221t283.5 -77t284 76.5zM427 1520q-2 6 -2 9q0 9 9 13l251 132q8 5 21 5h27q12 0 21 -5l250 -131q9 -4 9 -14q0 -6 -2 -9l-11 -26q-4 -10 -13 -10q-6 0 -9 2l-259 111l-260 -109q-3 -2 -9 -2q-8 0 -12 10zM753 1744
q-28 23 -60 67q-23 32 -40 48t-40 16q-71 0 -78 -123q0 -17 -17 -17h-33q-17 0 -17 17q4 86 40.5 138.5t104.5 52.5q46 0 74.5 -23.5t59.5 -68.5q22 -31 38 -46.5t38 -15.5q39 0 59.5 33t22.5 90q0 8 4.5 12.5t12.5 4.5h33q17 0 16 -21q-3 -85 -40 -136t-106 -51
q-44 0 -72 23z" />
    <glyph glyph-name="uni1ED7" unicode="&#x1ed7;" horiz-adv-x="1057" 
d="M279 45q-104 66 -157.5 186.5t-53.5 282.5q0 161 54 282.5t157.5 188t249.5 66.5t249.5 -66.5t157 -187.5t53.5 -282q0 -162 -53.5 -282.5t-157 -187t-249.5 -66.5t-250 66zM794.5 175.5q90.5 122.5 90.5 338.5q0 215 -91 339t-265 124q-175 -1 -266 -124.5t-91 -339.5
q0 -215 91.5 -337.5t265.5 -122.5q175 0 265.5 122.5zM236 1150q-2 6 -2 9q0 9 9 13l251 132q8 5 21 5h27q12 0 21 -5l250 -131q9 -4 9 -14q0 -6 -2 -9l-11 -26q-4 -10 -13 -10q-6 0 -9 2l-259 111l-260 -109q-3 -2 -9 -2q-8 0 -12 10zM562 1374q-28 23 -60 67
q-23 32 -40 48t-40 16q-71 0 -78 -123q0 -17 -17 -17h-33q-17 0 -17 17q4 86 40.5 138.5t104.5 52.5q46 0 74.5 -23.5t59.5 -68.5q22 -31 38 -46.5t38 -15.5q39 0 59.5 33t22.5 90q0 8 4.5 12.5t12.5 4.5h33q17 0 16 -21q-3 -85 -40 -136t-106 -51q-44 0 -72 23z" />
    <glyph glyph-name="uni1ED8" unicode="&#x1ed8;" horiz-adv-x="1436" 
d="M380.5 66q-145.5 88 -225 251.5t-79.5 383.5q0 221 79.5 384t225 250t338.5 87t338 -87t224.5 -250t79.5 -386q0 -220 -80 -383t-226 -250.5t-338 -87.5q-191 0 -336.5 88zM1002 137.5q121 76.5 186.5 220.5t65.5 341q0 198 -65.5 342.5t-186.5 221t-285 76.5t-284 -77
t-185 -221t-65 -342q0 -196 65.5 -340t186 -221t283.5 -77t284 76.5zM684 -263q-8 0 -12.5 4.5t-4.5 12.5v104q0 17 17 17h68q17 0 17 -17v-104q0 -8 -4.5 -12.5t-12.5 -4.5h-68zM427 1560q-2 6 -2 9q0 9 9 13l251 132q8 5 21 5h27q12 0 21 -5l250 -131q9 -4 9 -14
q0 -6 -2 -9l-11 -26q-4 -10 -13 -10q-6 0 -9 2l-259 111l-260 -109q-3 -2 -9 -2q-8 0 -12 10z" />
    <glyph glyph-name="uni1ED9" unicode="&#x1ed9;" horiz-adv-x="1057" 
d="M279 45q-104 66 -157.5 186.5t-53.5 282.5q0 161 54 282.5t157.5 188t249.5 66.5t249.5 -66.5t157 -187.5t53.5 -282q0 -162 -53.5 -282.5t-157 -187t-249.5 -66.5t-250 66zM794.5 175.5q90.5 122.5 90.5 338.5q0 215 -91 339t-265 124q-175 -1 -266 -124.5t-91 -339.5
q0 -215 91.5 -337.5t265.5 -122.5q175 0 265.5 122.5zM494 -263q-8 0 -12.5 4.5t-4.5 12.5v104q0 17 17 17h68q17 0 17 -17v-104q0 -8 -4.5 -12.5t-12.5 -4.5h-68zM236 1190q-2 6 -2 9q0 9 9 13l251 132q8 5 21 5h27q12 0 21 -5l250 -131q9 -4 9 -14q0 -6 -2 -9l-11 -26
q-4 -10 -13 -10q-6 0 -9 2l-259 111l-260 -109q-3 -2 -9 -2q-8 0 -12 10z" />
    <glyph glyph-name="uni1EDA" unicode="&#x1eda;" horiz-adv-x="1436" 
d="M1076 1323q136 -89 210.5 -249t74.5 -375q0 -220 -80 -383t-226 -250.5t-338 -87.5q-191 0 -336.5 88t-225 251.5t-79.5 383.5q0 221 79.5 384t225 250t338.5 87q159 0 288 -60l202 293q5 8 13 8q5 0 10 -3l46 -28q7 -6 7 -13q0 -5 -3 -10zM1002 137.5
q121 76.5 186.5 220.5t65.5 341q0 198 -65.5 342.5t-186.5 221t-285 76.5t-284 -77t-185 -221t-65 -342q0 -196 65.5 -340t186 -221t283.5 -77t284 76.5zM558 1521q-6 -2 -8 -2q-7 0 -14 10l-9 24q-3 5 -3 9q0 9 10 13l401 200q5 3 9 3q8 0 13 -10l19 -48q2 -4 2 -9
q0 -9 -10 -13z" />
    <glyph glyph-name="uni1EDB" unicode="&#x1edb;" horiz-adv-x="1057" 
d="M986 1262q8 -5 8 -13q0 -5 -3 -10l-185 -274q90 -68 136.5 -183.5t46.5 -266.5q0 -162 -53.5 -282.5t-157 -187t-249.5 -66.5t-250 66t-157.5 186.5t-53.5 282.5q0 161 54 282.5t157.5 188t249.5 66.5q120 0 212 -46l3 6l174 274q5 8 13 8q4 0 10 -3zM794 853
q-91 124 -265 124q-175 -1 -266 -124.5t-91 -339.5q0 -215 91.5 -337.5t265.5 -122.5q175 0 265.5 122.5t90.5 338.5q0 215 -91 339zM359 1151q-6 -2 -8 -2q-7 0 -14 10l-9 24q-3 5 -3 9q0 9 10 13l401 200q5 3 9 3q8 0 13 -10l19 -48q2 -4 2 -9q0 -9 -10 -13z" />
    </font>
</defs>
</svg>
