<?xml version="1.0" standalone="no"?>
<!DOCTYPE svg PUBLIC "-//W3C//DTD SVG 1.1//EN" "http://www.w3.org/Graphics/SVG/1.1/DTD/svg11.dtd" >
<svg xmlns="http://www.w3.org/2000/svg" xmlns:xlink="http://www.w3.org/1999/xlink" version="1.1">
<metadata>
Created by FontForge 20170731 at Wed May 12 04:41:42 2021
 By Aleksey,,,
(c) Copyright David Jonathan Ross, 2016, 2021. All rights reserved.
</metadata>
<defs>
<font id="FormaDJRText-LightItalic" horiz-adv-x="0" >
  <font-face 
    font-family="Forma DJR Text Light"
    font-weight="300"
    font-style="italic"
    font-stretch="normal"
    units-per-em="2000"
    panose-1="0 0 0 0 0 0 0 9 0 0"
    ascent="1500"
    descent="-500"
    x-height="1030"
    cap-height="1400"
    bbox="-628 -407 2086.2 2035"
    underline-thickness="50"
    underline-position="-150"
    slope="-13"
    unicode-range="U+0020-FB02"
  />
<missing-glyph horiz-adv-x="1200" 
d="M248 1388q2 5 6 8.5t9 3.5h1076q5 0 7.5 -3.5t1.5 -8.5l-396 -1716q-2 -5 -6 -8.5t-9 -3.5h-1076q-5 0 -7.5 3.5t-1.5 8.5zM323 1315l-362 -1570h916l362 1570h-916z" />
    <glyph glyph-name=".notdef" horiz-adv-x="1200" 
d="M248 1388q2 5 6 8.5t9 3.5h1076q5 0 7.5 -3.5t1.5 -8.5l-396 -1716q-2 -5 -6 -8.5t-9 -3.5h-1076q-5 0 -7.5 3.5t-1.5 8.5zM323 1315l-362 -1570h916l362 1570h-916z" />
    <glyph glyph-name=".null" 
 />
    <glyph glyph-name="nonmarkingreturn" horiz-adv-x="666" 
 />
    <glyph glyph-name="space" unicode=" " horiz-adv-x="353" 
 />
    <glyph glyph-name="space" unicode="&#xa0;" horiz-adv-x="353" 
 />
    <glyph glyph-name="exclam" unicode="!" horiz-adv-x="367" 
d="M120 372q-19 0 -14 19l230 994q3 15 18 15h68q8 0 12 -5t2 -14l-230 -994q-3 -15 -19 -15h-67zM22 0q-8 0 -12 5t-2 14l24 108q3 15 18 15h90q9 0 13 -5t2 -14l-25 -108q-3 -15 -18 -15h-90z" />
    <glyph glyph-name="quotedbl" unicode="&#x22;" horiz-adv-x="526" 
d="M271 1096q-18 0 -15 18l49 271q2 15 17 15h73q19 0 14 -19l-77 -271q-4 -14 -19 -14h-42zM483 1096q-18 0 -15 18l49 271q2 15 17 15h73q19 0 14 -19l-77 -271q-4 -14 -19 -14h-42z" />
    <glyph glyph-name="numbersign" unicode="#" horiz-adv-x="1321" 
d="M1421 1056q9 0 13 -5.5t0 -13.5l-18 -48q-6 -13 -19 -13h-330l-204 -544h324q9 0 13 -5.5t0 -13.5l-19 -48q-6 -13 -19 -13h-329l-127 -339q-5 -13 -18 -13h-59q-9 0 -13 5.5t0 13.5l124 333h-336l-127 -339q-5 -13 -18 -13h-59q-9 0 -13 5.5t0 13.5l124 333h-324
q-9 0 -12.5 5.5t-0.5 13.5l19 48q6 13 20 13h328l204 544h-324q-15 0 -15 11q0 2 2 8l17 48q6 13 20 13h330l124 331q5 13 18 13h59q9 0 13 -5.5t0 -13.5l-121 -325h336l124 331q5 13 19 13h58q9 0 13 -5.5t1 -13.5l-122 -325h324zM638 976l-204 -544h336l204 544h-336z" />
    <glyph glyph-name="dollar" unicode="$" horiz-adv-x="1090" 
d="M802 1404q134 -34 213.5 -136.5t78.5 -268.5q0 -16 -16 -16h-71q-17 0 -17 17q0 117 -44 192.5t-118 110.5t-168 35q-97 0 -175 -35t-123.5 -102t-45.5 -159q0 -86 41.5 -140t103 -84t166.5 -66q116 -40 186.5 -75.5t119.5 -105t49 -181.5q0 -119 -57 -211.5
t-161.5 -144.5t-243.5 -52q-28 0 -42 1l-38 -168q-3 -15 -19 -15h-65q-17 0 -14 19l40 178q-152 34 -241 140t-89 270q0 21 4 65q1 7 5.5 11.5t12.5 4.5h70q18 0 15 -18q-4 -28 -4 -61q0 -104 45.5 -182t130 -120.5t196.5 -42.5q108 0 188.5 39.5t123.5 109.5t43 159
q0 88 -42.5 144t-104.5 87t-168 68q-115 40 -184.5 75.5t-117.5 103t-48 175.5q0 120 60.5 209.5t164 137.5t227.5 48q25 0 38 -1l29 126q3 15 19 15h65q17 0 14 -19z" />
    <glyph glyph-name="percent" unicode="%" horiz-adv-x="1528" 
d="M317.5 798q-52.5 30 -81.5 85.5t-29 130.5q0 95 37 188.5t110.5 155.5t176.5 62q71 0 123.5 -30t81 -86t28.5 -131q0 -94 -37 -188t-110.5 -155.5t-175.5 -61.5q-71 0 -123.5 30zM196 0q-7 0 -11 3t-4 7t5 11l1138 1370q8 9 21 9h61q7 0 11 -3t4 -7t-5 -11l-1139 -1370
q-6 -9 -20 -9h-61zM572 892q52 55 76.5 132.5t24.5 143.5q0 82 -38 132.5t-107 50.5q-77 0 -129 -55t-76.5 -132.5t-24.5 -144.5q0 -82 38 -132t107 -50q77 0 129 55zM958.5 10q-52.5 30 -81.5 85.5t-29 130.5q0 95 37 188.5t110.5 155.5t176.5 62q70 0 123 -30t81.5 -85.5
t28.5 -130.5q0 -94 -37 -188t-110.5 -156t-175.5 -62q-71 0 -123.5 30zM1213 104q52 55 76.5 132.5t24.5 144.5q0 82 -38 132t-107 50q-77 0 -129 -55t-76.5 -132.5t-24.5 -143.5q0 -82 38 -132.5t107 -50.5q77 0 129 55z" />
    <glyph glyph-name="ampersand" unicode="&#x26;" horiz-adv-x="1277" 
d="M235 13q-89 34 -145 108t-56 186q0 122 59.5 211.5t152 150.5t225.5 122q-93 156 -93 285q0 96 45.5 177t127.5 129t188 48q83 0 151 -30.5t108 -88.5t40 -138q0 -98 -59 -169.5t-145 -120.5t-233 -116q42 -64 111 -158l202 -286q125 162 181 399q3 15 18 15h57
q14 0 14 -16q0 -6 -1 -9q-31 -136 -87.5 -251.5t-133.5 -207.5l163 -233q5 -7 5 -10q0 -4 -4 -7t-11 -3h-79q-14 0 -20 10l-124 174q-101 -99 -221 -152t-246 -53q-101 0 -190 34zM498 962.5q22 -61.5 64 -132.5q132 60 207.5 102.5t126 101.5t50.5 137q0 59 -29 101t-77 63
t-106 21q-83 0 -141.5 -39.5t-87.5 -102.5t-29 -131q0 -59 22 -120.5zM656 107.5q105 49.5 192 140.5l-243 344l-29 41q-53 74 -65 93q-116 -55 -195.5 -108.5t-129.5 -128t-50 -172.5q0 -90 41.5 -148t109.5 -84.5t150 -26.5q114 0 219 49.5z" />
    <glyph glyph-name="quotesingle" unicode="'" horiz-adv-x="313" 
d="M271 1096q-18 0 -15 18l49 271q2 15 17 15h73q19 0 14 -19l-77 -271q-4 -14 -19 -14h-42z" />
    <glyph glyph-name="parenleft" unicode="(" horiz-adv-x="446" 
d="M115 -280q-14 0 -19 14q-60 224 -60 444q0 332 120 660t337 612q7 10 20 10h46q14 0 14 -10q0 -5 -4 -10q-206 -306 -319 -638t-113 -668q0 -199 42 -395q1 -2 1 -6q0 -6 -4 -9.5t-11 -3.5h-50z" />
    <glyph glyph-name="parenright" unicode=")" horiz-adv-x="446" 
d="M365 1460q14 0 19 -14q60 -224 60 -444q0 -332 -120 -660t-336 -612q-9 -10 -21 -10h-46q-14 0 -14 10q0 5 4 10q206 306 319 638t113 668q0 206 -42 395v5q0 14 14 14h50z" />
    <glyph glyph-name="asterisk" unicode="*" horiz-adv-x="666" 
d="M422 894q-18 0 -15 18l43 231l-220 -125q-5 -3 -9 -3q-10 0 -14 10l-15 31q-3 5 -3 9q0 8 10 14l231 116l-183 103q-8 4 -8 13q0 6 3 10l25 37q6 8 12 8q3 0 11 -4l177 -119l33 241q3 16 18 16h38q8 0 12 -5t3 -13l-44 -237l228 131q4 3 9 3q9 0 13 -10l14 -33l2 -8
q0 -8 -10 -15l-235 -118l177 -105q9 -4 9 -13q0 -4 -3 -10l-24 -36q-6 -9 -12 -9q-2 0 -10 4l-177 120l-29 -236q-1 -16 -18 -16h-39z" />
    <glyph glyph-name="plus" unicode="+" horiz-adv-x="947" 
d="M941 732q9 0 13 -5t2 -14l-12 -52q-3 -15 -18 -15h-377l-97 -417q-3 -15 -18 -15h-54q-8 0 -12 5t-2 14l95 413h-374q-9 0 -13 5t-2 14l12 52q3 15 19 15h378l97 419q3 15 19 15h54q17 0 14 -19l-96 -415h372z" />
    <glyph glyph-name="comma" unicode="," horiz-adv-x="253" 
d="M-105 -163q-11 0 -11 10q0 4 3 10l73 144l28 126q2 7 6.5 11t11.5 4h74q9 0 13 -5t2 -14l-25 -111q-2 -9 -9 -19l-120 -146q-10 -10 -21 -10h-25z" />
    <glyph glyph-name="hyphen" unicode="-" horiz-adv-x="505" 
d="M74 550q-8 0 -12 5t-3 13l12 51q2 7 6.5 11t11.5 4h373q8 0 12 -5t3 -14l-12 -50q-3 -15 -18 -15h-373z" />
    <glyph glyph-name="hyphen" unicode="&#x2011;" horiz-adv-x="505" 
d="M74 550q-8 0 -12 5t-3 13l12 51q2 7 6.5 11t11.5 4h373q8 0 12 -5t3 -14l-12 -50q-3 -15 -18 -15h-373z" />
    <glyph glyph-name="hyphen" unicode="&#x2010;" horiz-adv-x="505" 
d="M74 550q-8 0 -12 5t-3 13l12 51q2 7 6.5 11t11.5 4h373q8 0 12 -5t3 -14l-12 -50q-3 -15 -18 -15h-373z" />
    <glyph glyph-name="hyphen" unicode="&#xad;" horiz-adv-x="505" 
d="M74 550q-8 0 -12 5t-3 13l12 51q2 7 6.5 11t11.5 4h373q8 0 12 -5t3 -14l-12 -50q-3 -15 -18 -15h-373z" />
    <glyph glyph-name="period" unicode="." horiz-adv-x="260" 
d="M-32 0q-9 0 -13 5t-2 14l25 108q1 7 6 11t12 4h92q8 0 12 -5t3 -14l-25 -108q-3 -15 -18 -15h-92z" />
    <glyph glyph-name="slash" unicode="/" horiz-adv-x="591" 
d="M-213 -340q-14 0 -14 11q0 4 3 9l959 1708q7 12 20 12h54q14 0 14 -11q0 -4 -3 -9l-960 -1708q-5 -12 -19 -12h-54z" />
    <glyph glyph-name="zero" unicode="0" horiz-adv-x="1099" 
d="M263.5 42q-84.5 64 -126 175.5t-41.5 253.5q0 192 68.5 414.5t208 379.5t338.5 157q125 0 209.5 -64t126 -175t41.5 -252q0 -192 -69 -415t-208 -380.5t-339 -157.5q-124 0 -208.5 64zM752 209q115 148 172.5 354t57.5 373q0 188 -69 295.5t-203 107.5
q-163 0 -278 -147.5t-172.5 -353t-57.5 -372.5q0 -190 69.5 -297.5t202.5 -107.5q163 0 278 148z" />
    <glyph glyph-name="one" unicode="1" horiz-adv-x="639" 
d="M241 0q-8 0 -12 5t-2 14l168 705l125 559q-127 -98 -316 -160q-2 -1 -7 -1q-13 0 -10 17l12 50q3 13 15 18q88 32 175 81t153 104q9 8 21 8h71q18 0 15 -19l-158 -657l-158 -709q-3 -15 -19 -15h-73z" />
    <glyph glyph-name="two" unicode="2" horiz-adv-x="977" 
d="M-21 0q-8 0 -12 5t-2 14l37 160q34 146 118 243t183 153.5t251 120.5q135 58 211 100.5t126.5 110.5t50.5 169q0 92 -40.5 151.5t-107 86t-147.5 26.5q-159 0 -254.5 -100.5t-129.5 -301.5q-3 -16 -18 -16h-63q-18 0 -15 18q35 238 162.5 360t326.5 122q106 0 193 -36
t140 -112.5t53 -193.5q0 -124 -59.5 -208t-147.5 -136t-238 -118q-144 -63 -233 -113.5t-161 -131t-98 -196.5l-20 -92h699q19 0 14 -19l-11 -51q-3 -15 -19 -15h-789z" />
    <glyph glyph-name="three" unicode="3" horiz-adv-x="1068" 
d="M243 22.5q-95 44.5 -146.5 130.5t-51.5 207q0 20 4 66q1 16 18 16h68q17 0 15 -18q-4 -29 -4 -64q0 -141 85 -220.5t245 -79.5q135 0 223 54.5t128 137t40 169.5q0 83 -37 148t-109 102.5t-171 37.5h-92q-18 0 -15 18l10 45q1 7 6.5 11t12.5 4h96q71 0 157 16.5t162.5 81
t76.5 193.5q0 132 -82.5 197t-213.5 65q-145 0 -239.5 -88.5t-133.5 -267.5q-3 -15 -18 -15h-64q-8 0 -12.5 5t-3.5 14q39 213 167 323.5t317 110.5q108 0 196.5 -38.5t140 -113t51.5 -177.5q0 -89 -40 -162t-114.5 -122t-174.5 -67q109 -35 171.5 -122t62.5 -202
q0 -112 -57.5 -213t-172 -164t-275.5 -63q-131 0 -226 44.5z" />
    <glyph glyph-name="four" unicode="4" horiz-adv-x="1018" 
d="M1002 1400q8 0 12 -5t2 -14l-202 -874h127q8 0 12 -5t3 -14l-11 -48q-3 -15 -18 -15h-132l-95 -410q-3 -15 -18 -15h-70q-9 0 -12.5 5t-1.5 13l94 407h-648q-8 0 -12 5t-3 14l13 55q3 10 10 19l811 873q9 9 21 9h118zM853 1127l44 181l-746 -801h559z" />
    <glyph glyph-name="five" unicode="5" horiz-adv-x="1029" 
d="M223.5 23.5q-86.5 45.5 -132.5 129t-46 195.5q0 25 1 38q0 7 4.5 11.5t12.5 4.5h70q8 0 12.5 -5t3.5 -13q-2 -28 -2 -40q0 -84 34.5 -148.5t98.5 -100.5t151 -36q142 0 240.5 89t146.5 218.5t48 248.5q0 148 -74.5 228.5t-203.5 80.5q-118 0 -205 -66.5t-139 -191.5
q-6 -13 -19 -13h-66q-9 0 -13 5t-1 14l212 714q4 14 19 14h669q8 0 12 -5t2 -14l-11 -51q-1 -7 -6.5 -11t-12.5 -4h-605l-140 -471q66 79 145 120t177 41q109 0 192 -45.5t128.5 -133t45.5 -208.5q0 -145 -60.5 -293.5t-183 -247.5t-299.5 -99q-119 0 -205.5 45.5z" />
    <glyph glyph-name="six" unicode="6" horiz-adv-x="1061" 
d="M268.5 31.5q-88.5 53.5 -135 155t-46.5 243.5q0 140 42 318q77 324 227.5 498t373.5 174q105 0 183 -39.5t120 -115t43 -180.5q0 -8 -4.5 -12.5t-12.5 -4.5h-68q-8 0 -12.5 4.5t-4.5 12.5q-1 73 -28.5 130.5t-83.5 90.5t-137 33q-172 0 -297 -153t-193 -439
q65 90 161 136.5t207 46.5q115 0 204 -47t138.5 -135t49.5 -209q0 -139 -62.5 -268.5t-180 -211t-273.5 -81.5q-122 0 -210.5 53.5zM700 129.5q92 69.5 141 178t49 221.5q0 105 -42 177.5t-112.5 108t-156.5 35.5q-91 0 -168 -38.5t-131.5 -110t-77.5 -169.5
q-15 -64 -15 -134q0 -101 35.5 -177.5t103 -118.5t160.5 -42q122 0 214 69.5z" />
    <glyph glyph-name="seven" unicode="7" horiz-adv-x="875" 
d="M189 0q-9 0 -13 5t0 14q290 712 729 1296h-660q-17 0 -14 19l12 51q2 7 6.5 11t11.5 4h753q8 0 12 -5t2 -14l-12 -53q-2 -10 -10 -19q-461 -639 -717 -1296q-6 -13 -20 -13h-80z" />
    <glyph glyph-name="eight" unicode="8" horiz-adv-x="1077" 
d="M258.5 25.5q-100.5 47.5 -157.5 132.5t-57 193q0 104 51 194.5t138.5 149.5t191.5 72q-81 37 -124 109t-43 161q0 105 58.5 193.5t158.5 140t219 51.5q108 0 194.5 -42t135.5 -117.5t49 -171.5q0 -80 -36 -154.5t-108.5 -130t-175.5 -75.5q108 -37 166.5 -122t58.5 -194
q0 -121 -65 -221t-178 -158t-249 -58q-127 0 -227.5 47.5zM821.5 829q72.5 43 109.5 112t37 145t-37 134.5t-100 90t-141 31.5q-88 0 -163.5 -39.5t-121 -109t-45.5 -155.5q0 -75 35.5 -132t100.5 -88.5t151 -31.5q102 0 174.5 43zM688.5 106q87.5 47 135.5 127t48 176
q0 88 -41.5 156t-116.5 106t-174 38q-114 0 -203 -49t-138 -130.5t-49 -174.5q0 -89 43.5 -156t120.5 -103.5t175 -36.5q112 0 199.5 47z" />
    <glyph glyph-name="nine" unicode="9" horiz-adv-x="1061" 
d="M228.5 17.5q-77.5 39.5 -119.5 115t-43 180.5q0 17 17 17h68q8 0 12.5 -4.5t4.5 -12.5q1 -73 28.5 -130.5t83.5 -90.5t137 -33q172 0 297 153t193 440q-65 -91 -160.5 -137t-207.5 -46q-115 0 -204 46.5t-138.5 135t-49.5 209.5q0 139 62.5 268t180 210.5t273.5 81.5
q122 0 210.5 -53.5t135 -155t46.5 -243.5q0 -141 -43 -317q-77 -324 -227.5 -498.5t-373.5 -174.5q-105 0 -182.5 39.5zM731 586.5q77 38.5 131 110t77 169.5q15 64 15 134q0 101 -35.5 177.5t-102.5 118.5t-160 42q-122 0 -214 -69.5t-141 -178t-49 -221.5
q0 -105 42 -177.5t112.5 -108t156.5 -35.5q91 0 168 38.5z" />
    <glyph glyph-name="colon" unicode=":" horiz-adv-x="262" 
d="M175 888q-9 0 -13 5t-2 14l25 108q1 7 6 11t12 4h92q8 0 12 -5t3 -14l-25 -108q-3 -15 -18 -15h-92zM-32 0q-9 0 -13 5t-2 14l25 108q1 7 6 11t12 4h92q8 0 12 -5t3 -14l-25 -108q-3 -15 -18 -15h-92z" />
    <glyph glyph-name="semicolon" unicode=";" horiz-adv-x="262" 
d="M174 888q-9 0 -13 5t-2 14l25 108q1 7 6 11t12 4h92q8 0 12 -5t3 -14l-25 -108q-3 -15 -18 -15h-92zM-105 -163q-11 0 -11 10q0 4 3 10l73 144l28 126q2 7 6.5 11t11.5 4h74q9 0 13 -5t2 -14l-25 -111q-2 -9 -9 -19l-120 -146q-10 -10 -21 -10h-25z" />
    <glyph glyph-name="less" unicode="&#x3c;" horiz-adv-x="947" 
d="M81 639q-12 7 -9 22l13 58q3 13 15 18l930 388q3 2 8 2t7.5 -4.5t1.5 -11.5l-14 -59q-3 -11 -15 -17l-852 -353l686 -352q13 -7 10 -22l-10 -47q-3 -11 -12 -11q-6 0 -9 2z" />
    <glyph glyph-name="equal" unicode="=" horiz-adv-x="947" 
d="M135 855q-8 0 -12 5t-3 14l12 52q3 15 19 15h838q9 0 13 -5t2 -13l-12 -53q-3 -15 -18 -15h-839zM39 437q-8 0 -12.5 5t-2.5 13l12 53q3 15 18 15h839q9 0 13 -5t2 -14l-12 -52q-3 -15 -18 -15h-839z" />
    <glyph glyph-name="greater" unicode="&#x3e;" horiz-adv-x="947" 
d="M-2 252q-6 -2 -8 -2q-5 0 -7.5 4.5t-1.5 12.5l13 58q2 11 15 17l853 355l-687 351q-13 8 -10 21l11 48q3 11 12 11q6 0 9 -2l750 -387q12 -7 9 -22l-13 -58q-3 -13 -15 -18z" />
    <glyph glyph-name="question" unicode="?" horiz-adv-x="929" 
d="M392 372q-9 0 -13 5t-2 14q24 92 71 165t99.5 123.5t133.5 118.5q75 62 116.5 103t69.5 93.5t28 117.5q0 110 -77.5 168t-204.5 58q-148 0 -233 -83t-124 -256q-3 -15 -18 -15h-64q-8 0 -12 5t-2 13q48 213 162.5 316.5t299.5 103.5q105 0 188 -34t131 -103.5t48 -170.5
q0 -80 -31 -142t-77 -108t-127 -112q-77 -62 -125.5 -109t-91 -111t-63.5 -145q-3 -15 -18 -15h-64zM292 0q-8 0 -12 5t-3 14l25 108q3 15 18 15h92q8 0 12 -5t2 -14l-24 -108q-3 -15 -19 -15h-91z" />
    <glyph glyph-name="at" unicode="@" horiz-adv-x="1713" 
d="M1322 1297q156 -83 243.5 -239.5t87.5 -370.5q0 -149 -41.5 -298.5t-127.5 -249t-211 -99.5q-93 0 -147.5 52t-57.5 148q-60 -97 -145 -153.5t-192 -56.5q-95 0 -163.5 45.5t-105 128.5t-36.5 193q0 129 51 270.5t156 239.5t258 98q114 0 186.5 -57.5t96.5 -165.5l41 193
q3 15 18 15h64q8 0 12 -5t2 -13l-140 -611q-17 -76 -17 -119q0 -65 34.5 -100t97.5 -35q98 0 164 93t96.5 228.5t30.5 263.5q0 192 -76.5 332.5t-215.5 215t-322 74.5q-265 0 -451 -148t-277.5 -371t-91.5 -445q0 -202 77 -347.5t216.5 -221t324.5 -75.5q276 0 481 174
q9 8 21 5l43 -7q14 -3 14 -11q0 -4 -5 -9q-108 -103 -248.5 -160.5t-307.5 -57.5q-204 0 -361 84.5t-244.5 245t-87.5 381.5q0 241 103 479t306.5 394t487.5 156q203 0 359 -83zM956.5 186.5q87.5 85.5 133 213t45.5 247.5q0 143 -63 215t-175 72q-132 0 -216.5 -89
t-122.5 -213.5t-38 -234.5q0 -136 60.5 -216t170.5 -80q118 0 205.5 85.5z" />
    <glyph glyph-name="A" unicode="A" horiz-adv-x="1192" 
d="M1051 18v-4q0 -14 -15 -14h-67q-17 0 -18 16l-58 455h-601l-271 -460q-8 -11 -20 -11h-77q-7 0 -11 3t-4 8t3 9l819 1369q7 11 20 11h99q17 0 18 -16zM883 556l-96 761l-447 -761h543z" />
    <glyph glyph-name="B" unicode="B" horiz-adv-x="1207" 
d="M22 0q-8 0 -12 5t-2 14l170 712l145 654q1 7 6.5 11t12.5 4h469q137 0 229 -38.5t136 -106.5t44 -157t-43.5 -162t-125.5 -122t-195 -67q127 -33 191.5 -112.5t64.5 -199.5q0 -125 -66 -224t-192 -155t-297 -56h-535zM703 788q132 0 224 39t139 108t47 156
q0 106 -75.5 167.5t-235.5 61.5h-387l-128 -532h416zM566 80q142 0 241 46.5t149.5 127t50.5 181.5q0 84 -38.5 146t-112.5 95t-176 33h-412l-140 -629h438z" />
    <glyph glyph-name="C" unicode="C" horiz-adv-x="1336" 
d="M369.5 46.5q-125.5 68.5 -194 202t-68.5 321.5q0 199 80 396t240.5 326.5t388.5 129.5q152 0 269 -60.5t182.5 -171t65.5 -253.5q0 -16 -17 -16h-67q-16 0 -16 16q-4 126 -55.5 216.5t-144.5 138t-219 47.5q-200 0 -335.5 -120.5t-200 -299t-64.5 -350.5
q0 -166 54.5 -279.5t156 -171t241.5 -57.5q383 0 512 430q5 15 19 15h69q14 0 14 -15q0 -6 -1 -9q-77 -256 -235.5 -380t-380.5 -124q-168 0 -293.5 68.5z" />
    <glyph glyph-name="D" unicode="D" horiz-adv-x="1304" 
d="M22 0q-8 0 -12 5t-2 14l171 717l144 649q1 7 6.5 11t12.5 4h355q177 0 310.5 -67t207 -194t73.5 -303q0 -198 -86.5 -391t-259 -319t-417.5 -126h-503zM527 82q216 0 364 117t219.5 291.5t71.5 346.5q0 153 -59.5 261t-168.5 164t-258 56h-278l-139 -581l-147 -655h395z
" />
    <glyph glyph-name="E" unicode="E" horiz-adv-x="1027" 
d="M22 0q-8 0 -12 5t-2 14l173 723l142 643q1 7 6.5 11t12.5 4h778q9 0 13 -5t2 -14l-12 -48q-3 -15 -18 -15h-691l-125 -524h650q8 0 12.5 -5t2.5 -13l-12 -49q-3 -14 -18 -14h-655l-141 -631h703q8 0 12 -5t3 -14l-11 -48q-2 -7 -6.5 -11t-11.5 -4h-795z" />
    <glyph glyph-name="F" unicode="F" horiz-adv-x="977" 
d="M22 0q-8 0 -12 5t-2 14l163 679l152 687q1 7 6.5 11t12.5 4h757q8 0 12 -5t2 -14l-11 -48q-4 -15 -19 -15h-669l-141 -586h634q9 0 13 -4.5t2 -13.5l-11 -49q-1 -7 -6 -10.5t-12 -3.5h-638l-141 -636q-3 -15 -19 -15h-73z" />
    <glyph glyph-name="G" unicode="G" horiz-adv-x="1341" 
d="M341 52.5q-119 74.5 -179.5 207t-60.5 307.5q0 215 86 412t248 320t378 123q143 0 257 -56t181.5 -157.5t75.5 -232.5v-2q0 -7 -4.5 -10.5t-11.5 -3.5h-68q-15 0 -17 15q-11 112 -64 194t-142 126t-206 44q-190 0 -327.5 -112t-208 -290t-70.5 -370q0 -160 50.5 -273.5
t146 -173t228.5 -59.5q145 0 261 69.5t192 195.5t106 293h-475q-8 0 -12 5t-3 13l12 49q3 15 18 15h563q8 0 12.5 -6.5t2.5 -16.5q-37 -219 -130 -376.5t-233.5 -240.5t-316.5 -83q-170 0 -289 74.5z" />
    <glyph glyph-name="H" unicode="H" horiz-adv-x="1290" 
d="M1354 1400q8 0 12 -5t3 -14l-167 -695l-149 -671q-1 -7 -6.5 -11t-12.5 -4h-74q-17 0 -14 19l157 657l9 38h-842l-8 -38l-148 -661q-3 -15 -18 -15h-74q-8 0 -12 5t-2 14l159 667l156 699q1 7 6.5 11t12.5 4h74q8 0 12 -5t2 -14l-140 -586h841l131 590q3 15 19 15h73z
" />
    <glyph glyph-name="I" unicode="I" horiz-adv-x="372" 
d="M34 0q-18 0 -15 19l169 705l147 661q1 7 6.5 11t12.5 4h73q8 0 12 -5t2 -14l-158 -657l-158 -709q-3 -15 -18 -15h-73z" />
    <glyph glyph-name="J" unicode="J" horiz-adv-x="926" 
d="M114.5 66.5q-86.5 93.5 -86.5 268.5q0 69 13 143q3 16 18 16h67q8 0 12.5 -5t3.5 -14q-11 -75 -11 -132q0 -141 60 -213.5t179 -72.5q82 0 144 39.5t111 131.5t85 248l111 472l98 437q1 7 6 11t12 4h75q8 0 12 -5t2 -14l-104 -433l-110 -473q-43 -184 -105.5 -294.5
t-146.5 -159t-196 -48.5q-163 0 -249.5 93.5z" />
    <glyph glyph-name="K" unicode="K" horiz-adv-x="1048" 
d="M323 1385q1 7 6.5 11t12.5 4h73q8 0 12 -5t2 -14l-148 -624l-14 -60l748 695q8 8 20 8h93q7 0 10.5 -2.5t3.5 -6.5q0 -6 -6 -12l-580 -530l349 -829l2 -8q0 -5 -4 -8.5t-11 -3.5h-80q-15 0 -19 13l-318 761l-240 -220l-121 -539q-1 -7 -6.5 -11t-12.5 -4h-73q-8 0 -12 5
t-2 14l171 717z" />
    <glyph glyph-name="L" unicode="L" horiz-adv-x="930" 
d="M22 0q-8 0 -12 5t-2 14l176 742l139 624q1 7 6.5 11t12.5 4h73q18 0 15 -19l-149 -619l-153 -680h654q8 0 12 -5t3 -14l-11 -48q-2 -7 -6.5 -11t-11.5 -4h-746z" />
    <glyph glyph-name="M" unicode="M" horiz-adv-x="1526" 
d="M22 0q-8 0 -12 5t-2 14l157 657l160 709q1 7 6.5 11t12.5 4h103q15 0 18 -15l207 -1252l783 1256q6 11 20 11h116q8 0 12 -5t2 -14l-166 -705l-148 -661q-1 -7 -6.5 -11t-12.5 -4h-72q-8 0 -12 5t-2 14l146 618l86 378l62 252l-784 -1256q-7 -11 -20 -11h-59
q-15 0 -18 15l-209 1248l-54 -250l-87 -376l-141 -622q-2 -7 -6.5 -11t-11.5 -4h-68z" />
    <glyph glyph-name="N" unicode="N" horiz-adv-x="1316" 
d="M22 0q-8 0 -12 5t-2 14l168 701l149 665q1 7 6.5 11t12.5 4h70q14 0 19 -12l576 -1243l140 600l144 640q2 7 6.5 11t11.5 4h70q17 0 14 -19l-158 -661l-160 -705q-3 -15 -18 -15h-79q-14 0 -20 12l-571 1228l-127 -555l-152 -670q-3 -15 -19 -15h-69z" />
    <glyph glyph-name="O" unicode="O" horiz-adv-x="1438" 
d="M377 47.5q-130 69.5 -202.5 203t-72.5 317.5q0 200 85.5 397.5t254.5 327t406 129.5q169 0 299 -69.5t202.5 -202t72.5 -314.5q0 -202 -85.5 -400.5t-254.5 -328t-406 -129.5q-169 0 -299 69.5zM1031 181.5q144 120.5 214.5 300t70.5 355.5q0 159 -58.5 272t-164.5 171.5
t-246 58.5q-209 0 -353.5 -120.5t-214.5 -300t-70 -355.5q0 -159 58.5 -272t164 -171.5t246.5 -58.5q209 0 353 120.5z" />
    <glyph glyph-name="P" unicode="P" horiz-adv-x="1071" 
d="M719 1400q141 0 235 -45.5t140 -126.5t46 -189q0 -135 -67 -239.5t-192.5 -163t-295.5 -58.5h-345l-126 -563q-3 -15 -19 -15h-73q-8 0 -12 5t-2 14l169 712l146 654q1 7 6.5 11t12.5 4h377zM592 659q143 0 242.5 48t150 132t50.5 192q0 132 -78 210t-245 78h-298
l-142 -592l-15 -68h335z" />
    <glyph glyph-name="Q" unicode="Q" horiz-adv-x="1447" 
d="M1263 83q8 0 12 -5t3 -14l-11 -49q-3 -15 -19 -15h-394q-86 -22 -178 -22q-169 0 -299 69.5t-202.5 203t-72.5 317.5q0 200 85.5 397.5t254.5 327t406 129.5q169 0 299 -69.5t202.5 -202t72.5 -314.5q0 -143 -44.5 -289.5t-133.5 -270.5t-216 -196l52 3h183zM267.5 291
q58.5 -113 164 -171.5t246.5 -58.5q209 0 353 120.5t214.5 300t70.5 355.5q0 159 -58.5 272t-164.5 171.5t-246 58.5q-209 0 -353.5 -120.5t-214.5 -300t-70 -355.5q0 -159 58.5 -272z" />
    <glyph glyph-name="R" unicode="R" horiz-adv-x="1152" 
d="M1127.5 847q-54.5 -93 -157 -151t-242.5 -73l236 -604q2 -6 2 -7q0 -5 -4 -8.5t-11 -3.5h-78q-13 0 -19 13l-63 167l-172 437h-384l-121 -602q-3 -15 -19 -15h-73q-8 0 -12 5t-2 14l169 712l146 654q1 7 6.5 11t12.5 4h422q140 0 233.5 -43.5t139 -120.5t45.5 -180
q0 -116 -54.5 -209zM999.5 1246q-77.5 73 -242.5 73h-343l-140 -587l-8 -34h377q140 0 237.5 45t147 124.5t49.5 180.5q0 125 -77.5 198z" />
    <glyph glyph-name="S" unicode="S" horiz-adv-x="1195" 
d="M306.5 32q-117.5 50 -184.5 147.5t-67 233.5q0 29 3 60q0 7 4.5 11.5t12.5 4.5h71q8 0 12 -4.5t3 -12.5q-3 -25 -3 -50q0 -108 51.5 -189t146.5 -125t223 -44q127 0 219 40.5t140 111.5t48 161q0 86 -48 139.5t-119 83.5t-193 67q-135 40 -216 75.5t-137.5 103.5
t-56.5 178q0 115 65.5 205t181 140.5t259.5 50.5q133 0 241.5 -45t172 -140t62.5 -236q0 -16 -17 -16h-71q-17 0 -17 21q0 170 -105.5 251.5t-274.5 81.5q-114 0 -203.5 -35t-141 -103t-51.5 -162q0 -84 47.5 -137t118.5 -82.5t191 -64.5q135 -39 217 -75.5t139 -105.5
t57 -180q0 -116 -61.5 -209t-178 -147t-273.5 -54q-150 0 -267.5 50z" />
    <glyph glyph-name="T" unicode="T" horiz-adv-x="979" 
d="M334 0q-8 0 -12 5t-2 14l160 669l140 630h-387q-9 0 -13 5t-2 14l12 48q3 15 18 15h887q9 0 13 -5t2 -14l-12 -48q-3 -15 -18 -15h-392l-151 -630l-149 -673q-3 -15 -19 -15h-75z" />
    <glyph glyph-name="U" unicode="U" horiz-adv-x="1213" 
d="M296 30q-95 52 -142.5 144t-47.5 210q0 76 19 153l115 487l81 361q3 15 18 15h75q17 0 14 -19l-86 -356l-114 -492q-17 -76 -17 -141q0 -96 35.5 -170t108.5 -116.5t183 -42.5q169 0 283.5 112.5t166.5 333.5l122 515l80 361q3 15 19 15h70q18 0 15 -19l-86 -357
l-121 -514q-62 -262 -203 -397t-356 -135q-137 0 -232 52z" />
    <glyph glyph-name="V" unicode="V" horiz-adv-x="1183" 
d="M228 1382v4q0 14 15 14h70q17 0 18 -16l158 -1299l760 1304q8 11 20 11h76q7 0 11 -3t4 -8q0 -4 -3 -9l-814 -1369q-5 -11 -19 -11h-98q-16 0 -17 16z" />
    <glyph glyph-name="W" unicode="W" horiz-adv-x="1700" 
d="M308 0q-16 0 -18 17l-55 1366v2q0 7 4.5 11t11.5 4h64q8 0 12.5 -4.5t4.5 -12.5l42 -1267l615 1272q6 12 20 12h83q18 0 18 -17l24 -1264l629 1269q6 12 20 12h69q14 0 14 -11q0 -3 -2 -9l-690 -1368q-4 -12 -20 -12h-83q-8 0 -12.5 4.5t-4.5 12.5l-35 1239l-608 -1244
q-4 -12 -19 -12h-84z" />
    <glyph glyph-name="X" unicode="X" horiz-adv-x="1142" 
d="M-56 0q-14 0 -14 10q0 4 5 11l628 729l-266 631q-2 6 -2 7q0 5 4 8.5t11 3.5h75q15 0 19 -13l236 -563l482 567q8 9 20 9h82q7 0 11 -2.5t4 -7.5q0 -4 -5 -11l-556 -647l299 -713q2 -6 2 -8q0 -11 -15 -11h-72q-14 0 -20 13l-269 650l-554 -653q-9 -10 -21 -10h-84z" />
    <glyph glyph-name="Y" unicode="Y" horiz-adv-x="1065" 
d="M229 1381q-1 2 -1 6q0 13 15 13h73q15 0 18 -14l213 -783l578 787q8 10 21 10h79q7 0 11 -2.5t4 -7.5q0 -4 -5 -11l-659 -879l-109 -485q-1 -7 -6.5 -11t-12.5 -4h-74q-8 0 -12 5t-2 14l117 488z" />
    <glyph glyph-name="Z" unicode="Z" horiz-adv-x="1109" 
d="M-35 0q-8 0 -12 5t-2 14l13 58q2 8 10 20l1113 1221h-765q-8 0 -12 5t-3 14l12 48q3 15 18 15h874q18 0 15 -19l-14 -60q-2 -8 -11 -19l-1110 -1220h832q8 0 12 -5t3 -14l-11 -48q-2 -7 -6.5 -11t-11.5 -4h-944z" />
    <glyph glyph-name="bracketleft" unicode="[" horiz-adv-x="451" 
d="M-48 -280q-8 0 -12 5t-2 14l394 1706q3 15 18 15h236q8 0 12 -5t3 -14l-12 -48q-4 -15 -19 -15h-159l-364 -1576h156q8 0 12 -5t2 -14l-10 -48q-3 -15 -19 -15h-236z" />
    <glyph glyph-name="backslash" unicode="\" horiz-adv-x="499" 
d="M250 -340q-16 0 -17 16l-73 1707v2q0 15 17 15h45q16 0 17 -16l73 -1707v-2q0 -15 -16 -15h-46z" />
    <glyph glyph-name="bracketright" unicode="]" horiz-adv-x="453" 
d="M-100 -280q-8 0 -12 5t-2 14l10 48q3 15 19 15h159l364 1576h-155q-8 0 -12 5t-3 14l12 48q5 15 19 15h236q8 0 12 -5t2 -14l-394 -1706q-3 -15 -18 -15h-237z" />
    <glyph glyph-name="asciicircum" unicode="^" horiz-adv-x="938" 
d="M111 638q-14 0 -14 10q0 6 4 11l533 731q7 10 20 10h36q15 0 19 -14l192 -729v-5q0 -14 -15 -14h-49q-15 0 -18 14l-165 645l-467 -648q-6 -11 -20 -11h-56z" />
    <glyph glyph-name="underscore" unicode="_" horiz-adv-x="779" 
d="M-128 -340q-9 0 -13 5t-2 14l11 50q1 7 6.5 11t12.5 4h643q8 0 12 -5t3 -14l-12 -50q-2 -7 -6.5 -11t-11.5 -4h-643z" />
    <glyph glyph-name="grave" unicode="`" horiz-adv-x="664" 
d="M694 1157q-8 -13 -22 -7l-386 179q-10 4 -10 13q0 5 3 9l26 53q4 9 13 9q4 0 9 -3l373 -202q9 -4 9 -14q0 -6 -2 -9z" />
    <glyph glyph-name="a" unicode="a" horiz-adv-x="1030" 
d="M1018 1030q8 0 12 -5t2 -14l-115 -478l-115 -518q-3 -15 -18 -15h-65q-9 0 -13 5t-2 14l42 168q-64 -93 -152.5 -146.5t-199.5 -53.5q-107 0 -184.5 49.5t-118 139.5t-40.5 210q0 141 56 294t172.5 259t287.5 106q130 0 211.5 -67t105.5 -193l49 230q3 15 18 15h67z
M645 152.5q97 93.5 147.5 233t50.5 271.5q0 156 -71 235t-198 79q-148 0 -243.5 -97t-138.5 -233t-43 -256q0 -149 70 -237.5t197 -88.5q132 0 229 93.5z" />
    <glyph glyph-name="b" unicode="b" horiz-adv-x="1027" 
d="M817.5 995.5q77.5 -49.5 118.5 -140t41 -209.5q0 -141 -56 -294t-173 -259t-288 -106q-128 0 -209 64.5t-107 186.5l-48 -221q-3 -15 -17 -15h-68q-8 0 -12 5t-2 13l132 555l184 810q3 15 19 15h68q18 0 15 -19l-124 -522q65 87 150.5 136.5t191.5 49.5
q107 0 184.5 -49.5zM696.5 158q95.5 97 138.5 233t43 255q0 150 -69.5 238t-196.5 88q-132 0 -229 -93.5t-147.5 -232.5t-50.5 -271q0 -156 70.5 -235t197.5 -79q148 0 243.5 97z" />
    <glyph glyph-name="c" unicode="c" horiz-adv-x="1006" 
d="M252 31.5q-93 50.5 -144 148.5t-51 238q0 149 59.5 294.5t179 241t290.5 95.5q113 0 200 -44.5t135.5 -125t48.5 -186.5q0 -17 -17 -17h-60q-17 0 -17 17q-4 133 -82.5 207t-210.5 74q-141 0 -238 -87t-143.5 -216t-46.5 -255q0 -176 84.5 -268.5t233.5 -92.5
q273 0 363 303q5 15 19 15h62q14 0 14 -14q0 -2 -2 -10q-58 -188 -174.5 -278t-282.5 -90q-127 0 -220 50.5z" />
    <glyph glyph-name="d" unicode="d" horiz-adv-x="1031" 
d="M1101 1400q18 0 15 -19l-195 -828l-119 -538q-1 -7 -6.5 -11t-12.5 -4h-64q-8 0 -12 5t-3 14l43 169q-65 -93 -153.5 -147t-199.5 -54q-107 0 -184.5 49.5t-118.5 140t-41 209.5q0 141 56 294t173 259t288 106q130 0 211.5 -67t105.5 -193l131 600q3 15 18 15h68z
M644 152.5q97 93.5 148 233t51 271.5q0 156 -71 235t-198 79q-148 0 -243.5 -97t-138.5 -233t-43 -256q0 -149 70 -237.5t197 -88.5q131 0 228 93.5z" />
    <glyph glyph-name="e" unicode="e" horiz-adv-x="1032" 
d="M792.5 1002q88.5 -47 137 -135.5t48.5 -208.5q0 -58 -12 -123q-3 -15 -18 -15h-786q-8 -49 -8 -108q0 -173 85.5 -265t235.5 -92q274 0 362 298q6 15 20 15h61q14 0 14 -15q0 -6 -1 -9q-58 -185 -174.5 -274t-282.5 -89q-127 0 -220.5 50.5t-145 148.5t-51.5 236
q0 150 59.5 296.5t179.5 241.5t291 95q117 0 205.5 -47zM876 595q7 39 7 82q0 88 -36 155.5t-103.5 105t-159.5 37.5q-110 0 -193.5 -52.5t-136.5 -138.5t-78 -189h700z" />
    <glyph glyph-name="f" unicode="f" horiz-adv-x="586" 
d="M748 1398l-9 -40q-1 -8 -6.5 -11t-13.5 -1q-38 9 -76 9q-149 0 -197 -219l-25 -106h222q9 0 13 -5t2 -14l-10 -44q-3 -15 -19 -15h-226l-111 -479l-102 -458q-3 -15 -18 -15h-71q-8 0 -12 5t-2 14l108 454l110 479h-146q-9 0 -13 5t-2 14l10 44q3 15 18 15h152l26 110
q34 154 112.5 223t180.5 69q53 0 94 -13q14 -4 11 -21z" />
    <glyph glyph-name="g" unicode="g" horiz-adv-x="1025" 
d="M1018 1030q8 0 12 -5t3 -14l-122 -515l-89 -390q-58 -252 -178.5 -372t-323.5 -120q-104 0 -189.5 37t-135 107.5t-46.5 167.5q0 8 4.5 12.5t12.5 4.5h67q16 0 16 -22q0 -73 35.5 -125t98 -78.5t142.5 -26.5q110 0 187 44t128.5 135.5t85.5 236.5l18 77
q-66 -90 -153 -141.5t-195 -51.5q-107 0 -185 49t-119 138.5t-41 208.5q0 141 56 294t172.5 258.5t287.5 105.5q130 0 211.5 -66t106.5 -190l48 226q3 15 19 15h66zM645.5 156q96.5 93 147 232t50.5 271q0 155 -70.5 233.5t-198.5 78.5q-147 0 -242.5 -97t-138.5 -232.5
t-43 -254.5q0 -148 70 -236t197 -88q132 0 228.5 93z" />
    <glyph glyph-name="h" unicode="h" horiz-adv-x="1003" 
d="M13 0q-8 0 -12 5t-2 14l104 431l210 935q3 15 18 15h68q18 0 15 -19l-135 -566q37 66 94 120t129.5 86.5t151.5 32.5q83 0 147.5 -34t100.5 -100t36 -159q0 -58 -15 -127l-44 -193l-95 -426q-1 -7 -6.5 -11t-12.5 -4h-69q-8 0 -12 5t-2 14l99 417l43 187q16 68 16 125
q0 112 -57.5 168.5t-157.5 56.5q-114 0 -207.5 -80.5t-167.5 -222.5l-55 -234l-94 -421q-2 -7 -6.5 -11t-11.5 -4h-70z" />
    <glyph glyph-name="i" unicode="i" horiz-adv-x="347" 
d="M21 0q-8 0 -12 5t-2 14l124 526l106 470q3 15 19 15h69q8 0 12 -5t2 -14l-110 -465l-120 -531q-3 -15 -18 -15h-70zM294 1180q-8 0 -12 5t-3 14l25 104q3 15 19 15h65q8 0 12 -5t3 -14l-25 -104q-3 -15 -19 -15h-65z" />
    <glyph glyph-name="j" unicode="j" horiz-adv-x="347" 
d="M-57 -340q-8 0 -12 5t-2 14l148 634l159 702q1 7 6.5 11t12.5 4h69q8 0 12 -5t2 -14l-164 -698l-143 -638q-1 -7 -6.5 -11t-12.5 -4h-69zM295 1180q-8 0 -12 5t-3 14l25 104q3 15 19 15h65q8 0 12 -5t3 -14l-25 -104q-3 -15 -19 -15h-65z" />
    <glyph glyph-name="k" unicode="k" horiz-adv-x="863" 
d="M888 1030q7 0 10.5 -2.5t3.5 -6.5q0 -6 -7 -12l-434 -352l243 -638q2 -6 2 -7q0 -5 -4 -8.5t-11 -3.5h-71q-14 0 -20 13l-40 111l-176 470l-193 -158l-93 -423q-1 -7 -6.5 -11t-12.5 -4h-68q-8 0 -12 5t-2 14l159 673l156 695q1 7 6.5 11t12.5 4h68q8 0 12 -5t2 -14
l-166 -691l-29 -131l552 463q10 8 21 8h97z" />
    <glyph glyph-name="l" unicode="l" horiz-adv-x="346" 
d="M21 0q-17 0 -14 19l166 696l150 670q3 15 19 15h68q8 0 12 -5t2 -14l-159 -662l-157 -704q-3 -15 -18 -15h-69z" />
    <glyph glyph-name="m" unicode="m" horiz-adv-x="1598" 
d="M1402.5 1020.5q61.5 -33.5 96.5 -98.5t35 -157q0 -63 -16 -131l-44 -193l-95 -426q-1 -7 -6.5 -11t-12.5 -4h-69q-8 0 -12 5t-2 14l99 417l43 187q16 70 16 129q0 110 -54.5 165.5t-144.5 55.5q-102 0 -185 -71.5t-155 -200.5q-5 -49 -14 -87l-135 -599q-3 -15 -18 -15
h-69q-19 0 -14 19l99 417l42 187q16 71 16 130q0 109 -54 164.5t-145 55.5q-108 0 -194.5 -79.5t-161.5 -223.5l-55 -234l-94 -421q-3 -15 -19 -15h-69q-8 0 -12 5t-2 14l104 431l126 565q3 15 19 15h65q9 0 13 -5t2 -14l-49 -196q57 102 151.5 170.5t205.5 68.5
q108 0 179.5 -62.5t84.5 -176.5q61 103 157 171t207 68q79 0 140.5 -33.5z" />
    <glyph glyph-name="n" unicode="n" horiz-adv-x="1000" 
d="M11 0q-8 0 -12 5t-2 14l104 431l126 565q3 15 19 15h65q9 0 13 -5t2 -14l-49 -196q37 66 94 120t129.5 86.5t151.5 32.5q83 0 147.5 -34t100.5 -100t36 -159q0 -58 -15 -127l-44 -193l-96 -426q-1 -7 -6 -11t-12 -4h-69q-8 0 -12 5t-2 14l99 417l43 187q16 68 16 125
q0 112 -57.5 168.5t-157.5 56.5q-218 0 -375 -303l-55 -234l-94 -421q-3 -15 -19 -15h-69z" />
    <glyph glyph-name="o" unicode="o" horiz-adv-x="1061" 
d="M254 32.5q-93 51.5 -145 150t-52 235.5q0 149 61.5 295t183.5 241t293 95q121 0 213.5 -51t144.5 -149t52 -233q0 -151 -61.5 -297.5t-183 -242t-292.5 -95.5q-121 0 -214 51.5zM710.5 142q98.5 87 147 217.5t48.5 258.5q0 113 -39 193t-109.5 122t-164.5 42
q-143 0 -242 -87t-147.5 -217.5t-48.5 -258.5q0 -112 39 -192.5t110.5 -122.5t165.5 -42q142 0 240.5 87z" />
    <glyph glyph-name="p" unicode="p" horiz-adv-x="1025" 
d="M815.5 995.5q77.5 -49.5 118 -139.5t40.5 -210q0 -141 -56 -294t-172.5 -259t-287.5 -106q-126 0 -206 62t-108 179l-124 -553q-3 -15 -18 -15h-69q-18 0 -15 19l189 797l119 539q3 15 19 15h64q9 0 13 -5t2 -14l-42 -161q65 91 152.5 143t196.5 52q107 0 184.5 -49.5z
M694 158q96 97 139 233t43 255q0 150 -69.5 238t-197.5 88q-132 0 -229 -93.5t-147.5 -232.5t-50.5 -271q0 -156 71 -235t198 -79q147 0 243 97z" />
    <glyph glyph-name="q" unicode="q" horiz-adv-x="1030" 
d="M1018 1030q8 0 12 -5t2 -14l-134 -559l-174 -777q-3 -15 -18 -15h-69q-8 0 -12 5t-2 14l119 504q-64 -91 -151.5 -143.5t-196.5 -52.5q-107 0 -184.5 49.5t-118.5 140t-41 209.5q0 141 56 294t173 259t288 106q130 0 211.5 -67t105.5 -193l48 230q3 15 18 15h68z
M644 152.5q97 93.5 147.5 233t50.5 271.5q0 156 -70.5 235t-197.5 79q-148 0 -243.5 -97t-138.5 -233t-43 -256q0 -149 69.5 -237.5t196.5 -88.5q132 0 229 93.5z" />
    <glyph glyph-name="r" unicode="r" horiz-adv-x="656" 
d="M11 0q-8 0 -12 5t-2 14l123 514l107 482q3 15 18 15h67q9 0 13 -5t2 -14l-52 -197q77 110 175 168.5t203 58.5q41 0 69 -7q15 -3 12 -20l-12 -49q-3 -15 -20 -12q-27 7 -62 7q-116 0 -219 -75.5t-177 -222.5l-146 -647q-2 -7 -6.5 -11t-11.5 -4h-69z" />
    <glyph glyph-name="s" unicode="s" horiz-adv-x="952" 
d="M218 23q-96 44 -145.5 127.5t-44.5 199.5q0 8 4.5 12.5t12.5 4.5h62q7 0 11.5 -5t4.5 -13q-3 -90 34.5 -157t112 -103.5t181.5 -36.5q86 0 152.5 28.5t104 78.5t37.5 113q0 61 -37 100t-91.5 61t-150.5 49q-108 30 -173.5 57.5t-111 80t-45.5 137.5q0 86 52.5 153
t142.5 104t198 37q106 0 191.5 -34.5t137.5 -104.5t59 -173v-2q0 -15 -16 -15h-60q-8 0 -12.5 4.5t-4.5 11.5q-9 123 -91.5 182t-207.5 59q-80 0 -145.5 -25.5t-104 -74t-38.5 -114.5q0 -60 36.5 -98t90.5 -59t149 -47q108 -30 173.5 -57t111.5 -80t46 -139
q0 -87 -51 -156.5t-141.5 -109.5t-205.5 -40q-132 0 -228 44z" />
    <glyph glyph-name="t" unicode="t" horiz-adv-x="589" 
d="M645 1030q8 0 12 -5t3 -14l-11 -44q-1 -7 -6 -11t-12 -4h-245l-158 -683q-12 -52 -12 -92q0 -56 28 -83t86 -27q44 0 92 8q2 1 6 1q13 0 10 -17l-9 -42q-3 -15 -13 -16q-56 -14 -119 -14q-79 0 -129.5 42t-50.5 136q0 47 13 103l159 684h-114q-9 0 -13 5t-2 14l10 44
q1 7 6.5 11t12.5 4h117l54 243q3 15 19 15h69q17 0 14 -19l-57 -239h240z" />
    <glyph glyph-name="u" unicode="u" horiz-adv-x="1000" 
d="M988 1030q8 0 12 -5t2 -14l-104 -431l-126 -565q-1 -7 -6.5 -11t-12.5 -4h-66q-8 0 -12 5t-2 14l49 196q-37 -66 -94 -120t-129.5 -86.5t-151.5 -32.5q-83 0 -147.5 34t-101 100.5t-36.5 159.5q0 57 15 126l45 193l95 426q1 7 6.5 11t12.5 4h69q8 0 12 -5t2 -14
l-100 -417l-42 -187q-16 -68 -16 -125q0 -112 57.5 -168.5t157.5 -56.5q114 0 207.5 80.5t167.5 222.5l55 234l94 421q2 7 6.5 11t11.5 4h70z" />
    <glyph glyph-name="v" unicode="v" horiz-adv-x="933" 
d="M142 1012v4q0 14 16 14h68q14 0 17 -16l126 -912l545 917q7 11 20 11h72q14 0 14 -11q0 -4 -3 -9l-603 -1001q-7 -11 -20 -11h-83q-16 0 -18 15z" />
    <glyph glyph-name="w" unicode="w" horiz-adv-x="1376" 
d="M232 0q-16 0 -17 16l-67 997v2q0 15 16 15h60q16 0 17 -16l49 -914l447 918q6 12 20 12h88q16 0 16 -16l43 -911l456 915q5 12 20 12h65q14 0 14 -11l-2 -8l-507 -999q-6 -12 -20 -12h-85q-16 0 -17 16l-44 928l-450 -932q-6 -12 -19 -12h-83z" />
    <glyph glyph-name="x" unicode="x" horiz-adv-x="904" 
d="M-70 0q-14 0 -14 10q0 6 5 11l480 534l-215 455q-2 3 -2 9q0 11 14 11h71q15 0 20 -12l185 -399l355 402q8 9 20 9h78q14 0 14 -10q0 -4 -5 -11l-421 -474l237 -516q2 -3 2 -8q0 -11 -14 -11h-70q-15 0 -19 12l-211 458l-409 -461q-9 -9 -21 -9h-80z" />
    <glyph glyph-name="y" unicode="y" horiz-adv-x="899" 
d="M125 -340q-7 0 -10.5 3t-3.5 8q0 4 3 9l191 324l-168 1008v4q0 14 16 14h68q15 0 18 -15l138 -888l511 892q6 11 19 11h72q7 0 11 -3t4 -8q0 -4 -3 -9l-778 -1339q-8 -11 -20 -11h-68z" />
    <glyph glyph-name="z" unicode="z" horiz-adv-x="883" 
d="M-44 0q-8 0 -12 5t-2 14l12 51q3 12 10 20l817 860h-562q-9 0 -13 5t-2 14l11 46q5 15 19 15h671q8 0 12 -5t3 -14l-12 -48q-2 -9 -10 -20l-821 -863h629q8 0 12 -5t3 -14l-10 -46q-1 -7 -6.5 -11t-12.5 -4h-736z" />
    <glyph glyph-name="braceleft" unicode="{" horiz-adv-x="461" 
d="M112 -280q-82 0 -123 30t-41 92q0 77 66 214l166 346q17 37 25.5 60t8.5 40q0 23 -19 34.5t-62 11.5h-28q-8 0 -12 5t-2 14l11 50q1 7 6.5 11t12.5 4h31q47 0 72 14t33.5 38.5t8.5 63.5l-1 30l-5 372q-5 156 62.5 233t191.5 77h40q9 0 13 -5t2 -14l-12 -48
q-3 -15 -18 -15h-43q-55 0 -86 -21.5t-44 -70.5t-11 -136l5 -372q3 -78 -27.5 -124.5t-102.5 -63.5q75 -20 75 -83q0 -40 -30 -105l-166 -348q-33 -70 -49 -116t-16 -75q0 -33 21.5 -47t66.5 -14h39q8 0 12 -5t3 -14l-11 -48q-2 -7 -6.5 -11t-11.5 -4h-45z" />
    <glyph glyph-name="bar" unicode="|" horiz-adv-x="198" 
d="M-109 -280q-8 0 -12 5t-2 14l394 1706q3 15 18 15h53q17 0 14 -19l-394 -1706q-3 -15 -19 -15h-52z" />
    <glyph glyph-name="braceright" unicode="}" horiz-adv-x="463" 
d="M-57 -280q-9 0 -13 5t-2 14l10 48q1 7 6.5 11t12.5 4h42q56 0 86 22t42.5 76t10.5 154l-3 348q-1 77 29 124.5t102 63.5q-39 10 -57.5 30.5t-18.5 52.5q0 41 31 105l179 372q55 111 55 164q0 34 -22.5 49t-69.5 15h-38q-8 0 -12 5t-3 14l12 48q5 15 19 15h44
q79 0 121.5 -32t42.5 -96q0 -73 -54 -182l-179 -372q-17 -37 -25.5 -59t-8.5 -39q0 -24 19 -36t64 -12h27q8 0 12 -5t2 -14l-11 -50q-3 -15 -19 -15h-31q-69 0 -92 -28t-23 -86l1 -32l2 -346q4 -176 -56.5 -256t-193.5 -80h-40z" />
    <glyph glyph-name="asciitilde" unicode="~" horiz-adv-x="947" 
d="M97 603q-8 0 -12 5t-2 13q37 164 106 260t175 96q51 0 88.5 -24.5t62.5 -59.5t58 -92q26 -46 43.5 -71.5t40.5 -43t52 -17.5q75 0 121 72.5t76 204.5q5 15 19 15h48q17 0 14 -19q-38 -165 -106 -258.5t-177 -93.5q-49 0 -85.5 24t-61 57.5t-56.5 89.5q-26 47 -44.5 74
t-44 45t-57.5 18q-73 0 -118 -72.5t-74 -207.5q-3 -15 -18 -15h-48z" />
    <glyph glyph-name="exclamdown" unicode="&#xa1;" horiz-adv-x="367" 
d="M345 1030q8 0 12 -5t3 -14l-25 -108q-3 -15 -18 -15h-90q-8 0 -12 5t-3 14l25 108q3 15 18 15h90zM248 658q17 0 14 -19l-231 -994q-1 -7 -6 -11t-12 -4h-68q-17 0 -14 19l231 994q1 7 6 11t12 4h68z" />
    <glyph glyph-name="cent" unicode="&#xa2;" horiz-adv-x="1009" 
d="M742 1237q126 -29 200 -120.5t75 -223.5q0 -8 -4.5 -12.5t-12.5 -4.5h-60q-17 0 -17 17q-5 133 -83 207t-210 74q-141 0 -238 -87t-143.5 -216t-46.5 -255q0 -176 84.5 -268.5t233.5 -92.5q273 0 363 303q5 15 19 15h62q14 0 14 -14q0 -2 -2 -10q-58 -187 -175 -277.5
t-282 -90.5h-22l-38 -166q-1 -7 -6 -11t-12 -4h-65q-8 0 -12 5t-2 14l39 175q-141 32 -219.5 140.5t-78.5 283.5q0 149 59.5 294.5t179.5 241t291 95.5h13l35 153q3 15 18 15h66q17 0 14 -19z" />
    <glyph glyph-name="sterling" unicode="&#xa3;" horiz-adv-x="1068" 
d="M902.5 1372q85.5 -46 130 -132t44.5 -205q0 -25 -1 -38q0 -17 -17 -17h-67q-8 0 -12.5 5t-3.5 13q1 11 1 32q0 144 -74.5 225.5t-209.5 81.5q-113 0 -194.5 -57.5t-123.5 -161t-42 -241.5q0 -58 7 -156h342q8 0 12 -5t3 -13l-11 -46q-4 -15 -18 -15h-322q6 -94 6 -138
q0 -113 -26.5 -194t-86.5 -137t-162 -91l414 -19q14 -1 41 -1q108 0 176.5 31.5t111.5 102t68 192.5q3 15 18 15h68q8 0 12 -7t2 -19q-31 -156 -96.5 -243t-157.5 -120.5t-217 -33.5l-40 1l-551 18q-9 0 -13 5t-2 14l9 41q3 13 15 17l52 18q76 27 131.5 66t93.5 122.5
t38 222.5q0 39 -6 137h-189q-8 0 -12 5t-2 14l11 45q3 15 18 15h169q-7 95 -7 151q0 166 54 289t159 190t252 67q120 0 205.5 -46z" />
    <glyph glyph-name="currency" unicode="&#xa4;" horiz-adv-x="943" 
d="M981 1047q5 -7 5 -12t-7 -11l-174 -146q29 -64 29 -145q0 -77 -27.5 -154.5t-79.5 -136.5l97 -151q3 -4 3 -10q0 -7 -8 -12l-37 -25q-5 -3 -10 -3q-8 0 -13 8l-91 140q-85 -62 -194 -62q-73 0 -129 27t-93 75l-167 -140q-5 -4 -11 -4q-8 0 -12 7l-27 33q-4 5 -4 11t7 12
l175 147q-27 66 -27 144q0 77 27.5 154.5t78.5 136.5l-98 151q-3 6 -3 10q0 7 8 13l37 25q4 3 9 3q8 0 14 -9l91 -140q86 62 195 62q72 0 127.5 -26.5t93.5 -73.5l166 138q4 4 10 4q9 0 13 -7zM630 445q62 52 93 130t31 157q0 66 -23 122t-71 90.5t-120 34.5q-89 0 -151 -52
t-92 -130t-30 -157q0 -67 23.5 -123t71.5 -90t118 -34q88 0 150 52z" />
    <glyph glyph-name="yen" unicode="&#xa5;" horiz-adv-x="1064" 
d="M592 568l-15 -66h370q8 0 12 -5t2 -13l-11 -50q-2 -7 -6.5 -11t-11.5 -4h-374l-30 -136h368q9 0 13 -5t2 -14l-11 -50q-1 -7 -6.5 -10.5t-12.5 -3.5h-372l-42 -185q-1 -7 -6.5 -11t-12.5 -4h-74q-8 0 -12 5t-2 14l43 181h-360q-19 0 -15 18l11 50q3 15 19 15h365l32 136
h-362q-8 0 -12 5t-3 14l12 50q3 14 18 14h367l17 73l-262 806q-1 3 -1 7q0 12 14 12h72q15 0 20 -14l225 -722l566 726q9 10 21 10h77q14 0 14 -10q0 -6 -4 -11z" />
    <glyph glyph-name="brokenbar" unicode="&#xa6;" horiz-adv-x="199" 
d="M122 720q-8 0 -12 5t-2 14l164 706q1 7 6 11t12 4h53q17 0 14 -19l-164 -706q-3 -15 -19 -15h-52zM-108 -280q-8 0 -12 5t-2 14l162 706q1 7 6 11t12 4h53q17 0 14 -19l-162 -706q-3 -15 -19 -15h-52z" />
    <glyph glyph-name="section" unicode="&#xa7;" horiz-adv-x="1173" 
d="M950.5 1352q97.5 -42 148.5 -123.5t48 -196.5q0 -16 -17 -16h-60q-16 0 -16 17q3 140 -86 213.5t-253 73.5q-109 0 -189 -32t-122 -89t-42 -128q0 -72 43 -117.5t107 -71t173 -55.5q121 -33 195 -64t125 -89.5t51 -154.5q0 -80 -38 -148.5t-111 -117t-175 -68.5
q82 -38 128 -95t46 -146q0 -98 -56 -178t-160.5 -126.5t-245.5 -46.5q-146 0 -252.5 50.5t-160.5 144t-50 217.5q0 8 4.5 12.5t12.5 4.5h58q7 0 11.5 -5t4.5 -13q-2 -103 40 -179t126 -117.5t205 -41.5q117 0 199.5 35.5t124 96t41.5 134.5t-43.5 120t-106.5 71t-174 56
q-121 33 -194 63t-123.5 87.5t-50.5 152.5q0 83 41 152t119 115t185 62q-94 38 -145.5 95t-51.5 152q0 99 57 175t160 118.5t238 42.5q134 0 231.5 -42zM913 629.5q-45 47.5 -109.5 72.5t-179.5 56q-14 1 -42 1q-115 0 -198.5 -33.5t-127 -92.5t-43.5 -133
q0 -75 43.5 -121.5t107.5 -72t174 -56.5l61 -17q113 2 194.5 39t123 98t41.5 135q0 77 -45 124.5z" />
    <glyph glyph-name="dieresis" unicode="&#xa8;" horiz-adv-x="560" 
d="M273 1180q-9 0 -13 5t-2 14l25 104q3 15 19 15h72q9 0 13 -5t2 -14l-25 -104q-1 -7 -6.5 -11t-12.5 -4h-72zM522 1180q-8 0 -12 5t-2 14l25 104q2 7 6.5 11t11.5 4h73q8 0 12 -5t2 -14l-25 -104q-3 -15 -18 -15h-73z" />
    <glyph glyph-name="copyright" unicode="&#xa9;" horiz-adv-x="1452" 
d="M430.5 66q-145.5 88 -225 251.5t-79.5 383.5q0 221 79.5 384t225 250t338.5 87t338 -87t224.5 -250t79.5 -386q0 -220 -80 -383t-226 -250.5t-338 -87.5q-191 0 -336.5 88zM1071 121.5q129 78.5 198.5 226.5t69.5 351q0 204 -69.5 352t-198.5 227t-304 79
q-178 0 -306.5 -79t-196 -227t-67.5 -352q0 -202 69.5 -350t198 -227t302.5 -79q175 0 304 78.5zM483 359.5q-104 120.5 -104 346.5q0 140 48 243.5t138 159t214 55.5q137 0 232 -72.5t123 -228.5v-4q0 -14 -16 -14h-47q-15 0 -18 15q-21 121 -94.5 178.5t-181.5 57.5
q-101 0 -172 -48t-107.5 -136t-36.5 -205q0 -199 83 -299.5t233 -100.5q120 0 195.5 65.5t87.5 188.5q2 17 17 17h48q8 0 12.5 -5t3.5 -14q-18 -154 -114.5 -237t-248.5 -83q-191 0 -295 120.5z" />
    <glyph glyph-name="ordfeminine" unicode="&#xaa;" horiz-adv-x="840" 
d="M942 1408q9 0 12.5 -4.5t1.5 -13.5l-84 -351l-87 -381q-3 -15 -18 -15h-53q-9 0 -13 5t-2 14l27 109q-52 -65 -121.5 -103t-154.5 -38t-146.5 37.5t-94 105t-32.5 156.5q0 105 44 219t137 193t232 79q95 0 158 -41.5t88 -119.5l28 135q3 14 17 14h61zM645.5 766
q73.5 68 111.5 169t38 197q0 108 -53.5 164t-148.5 56q-112 0 -184 -70t-104 -168t-32 -185q0 -107 51.5 -169t148.5 -62q99 0 172.5 68z" />
    <glyph glyph-name="guillemotleft" unicode="&#xab;" horiz-adv-x="718" 
d="M213 248q-15 0 -19 12l-131 325q-2 3 -2 10q0 8 5 13l271 307q8 9 21 9h60q15 0 15 -9q0 -4 -5 -11l-280 -315l133 -322q2 -6 2 -7q0 -5 -4 -8.5t-11 -3.5h-55zM515 248q-15 0 -19 12l-131 325q-2 3 -2 10q0 8 5 13l271 307q8 9 21 9h60q15 0 15 -9q0 -4 -5 -11
l-280 -315l133 -322q2 -6 2 -7q0 -5 -4 -8.5t-11 -3.5h-55z" />
    <glyph glyph-name="logicalnot" unicode="&#xac;" horiz-adv-x="953" 
d="M958 727q4 -5 2 -14l-112 -484q-3 -15 -18 -15h-54q-8 0 -12 5t-2 14l96 413h-768q-8 0 -12 5t-3 14l12 52q3 15 19 15h840q8 0 12 -5z" />
    <glyph glyph-name="registered" unicode="&#xae;" horiz-adv-x="694" 
d="M332 838q-66 38 -102.5 108.5t-36.5 165.5q0 96 36.5 166.5t102.5 108t153 37.5q88 0 153.5 -37.5t101 -108t35.5 -166.5q0 -95 -35.5 -165.5t-101.5 -108.5t-153 -38t-153 38zM665.5 911.5q65.5 72.5 65.5 200.5t-65.5 201t-180.5 73q-75 0 -131 -33.5t-86.5 -95
t-30.5 -145.5q0 -128 66.5 -200.5t181.5 -72.5t180.5 72.5zM367 916q-7 0 -11.5 4.5t-4.5 12.5v358q0 17 16 17h117q70 0 110.5 -29t40.5 -84q0 -46 -26 -74t-73 -37l94 -148q3 -4 3 -9q0 -11 -13 -11h-23q-14 0 -20 11l-97 152h-82l4 -146q0 -8 -4.5 -12.5t-12.5 -4.5h-18z
M488 1120q48 0 72.5 17.5t24.5 55.5t-25 57.5t-72 19.5h-86l-4 -150h90z" />
    <glyph glyph-name="macron" unicode="&#xaf;" horiz-adv-x="739" 
d="M284 1211q-8 0 -12 5t-3 14l11 46q3 14 19 14h504q9 0 13 -4.5t2 -13.5l-11 -46q-3 -15 -18 -15h-505z" />
    <glyph glyph-name="macron" unicode="&#x2c9;" horiz-adv-x="739" 
d="M284 1211q-8 0 -12 5t-3 14l11 46q3 14 19 14h504q9 0 13 -4.5t2 -13.5l-11 -46q-3 -15 -18 -15h-505z" />
    <glyph glyph-name="degree" unicode="&#xb0;" horiz-adv-x="658" 
d="M324 913.5q-58 30.5 -91.5 84.5t-33.5 123q0 76 40 145.5t110.5 113t159.5 43.5q71 0 128.5 -30t91 -84.5t33.5 -123.5q0 -75 -40 -145t-110.5 -113.5t-158.5 -43.5q-71 0 -129 30.5zM576.5 981.5q51.5 33.5 80.5 88t29 115.5q0 78 -52 125.5t-133 47.5
q-70 0 -121.5 -35.5t-78 -90t-26.5 -111.5q0 -78 51.5 -125.5t132.5 -47.5q66 0 117.5 33.5z" />
    <glyph glyph-name="plusminus" unicode="&#xb1;" horiz-adv-x="947" 
d="M944 744q9 0 13 -5t2 -14l-12 -52q-3 -15 -18 -15h-377l-97 -417q-3 -15 -18 -15h-54q-8 0 -12 5t-2 14l95 413h-374q-9 0 -13 5t-2 14l12 52q3 15 19 15h378l97 419q3 15 19 15h54q17 0 14 -19l-96 -415h372zM-62 0q-9 0 -13 5t-2 14l12 52q3 15 19 15h838q9 0 13 -5
t2 -14l-12 -52q-3 -15 -18 -15h-839z" />
    <glyph glyph-name="two.sups" unicode="&#xb2;" horiz-adv-x="520" 
d="M102 690q-8 0 -12 5t-2 14l19 81q18 75 60.5 124.5t93 78t127.5 61.5q66 29 102.5 49t60.5 51.5t24 77.5q0 60 -37.5 91.5t-97.5 31.5q-67 0 -112.5 -42.5t-62.5 -132.5q-3 -16 -18 -16h-38q-8 0 -12.5 5t-3.5 14q20 114 85.5 172t166.5 58q90 0 146.5 -45.5t56.5 -130.5
q0 -64 -31 -108t-76.5 -71.5t-121.5 -61.5q-68 -31 -110 -54.5t-75.5 -59.5t-44.5 -86l-11 -46h335q9 0 13 -5t2 -14l-7 -27q-3 -14 -18 -14h-401z" />
    <glyph glyph-name="three.sups" unicode="&#xb3;" horiz-adv-x="563" 
d="M190 730q-60 53 -60 145q0 17 1 25q1 16 18 16h41q16 0 16 -17q-1 -7 -1 -20q0 -65 39.5 -103.5t112.5 -38.5q59 0 100 25t61 64t20 81q0 58 -37.5 95.5t-102.5 37.5h-46q-8 0 -12 5t-2 14l5 20q3 15 18 15h50q38 0 78.5 12.5t69.5 43.5t29 82q0 58 -38 89t-99 31
q-64 0 -107.5 -37.5t-60.5 -109.5q-3 -14 -18 -14h-41q-9 0 -12.5 4.5t-1.5 13.5q23 100 88.5 152t158.5 52q58 0 105.5 -21t75 -59.5t27.5 -90.5q0 -67 -45 -116t-121 -62q54 -16 85 -60t31 -101q0 -59 -31 -111t-90.5 -83.5t-139.5 -31.5q-104 0 -164 53z" />
    <glyph glyph-name="acute" unicode="&#xb4;" horiz-adv-x="671" 
d="M321 1151q-6 -2 -8 -2q-11 0 -14 11l-10 29q-1 2 -1 7q0 9 10 15l420 197l8 2q9 0 14 -11l19 -54q2 -6 2 -7q0 -9 -12 -14z" />
    <glyph glyph-name="uni03BC" unicode="&#xb5;" horiz-adv-x="1011" 
d="M229 1022q3 10 12 10h84q4 0 6.5 -3.5t1.5 -7.5l-144 -612q-16 -68 -16 -125q0 -112 57.5 -168.5t157.5 -56.5q114 0 207.5 80.5t167.5 222.5l55 234l96 428q2 8 10 8h84q4 0 6.5 -3t1.5 -8l-106 -439l-128 -572q-3 -8 -11 -8h-81q-10 0 -8 10l52 205q-37 -66 -94 -120
t-129.5 -86.5t-151.5 -32.5q-85 0 -147 38.5t-89 110.5l-103 -459q-3 -8 -11 -8h-83q-10 0 -8 10l191 814z" />
    <glyph glyph-name="uni03BC" unicode="&#x3bc;" horiz-adv-x="1011" 
d="M229 1022q3 10 12 10h84q4 0 6.5 -3.5t1.5 -7.5l-144 -612q-16 -68 -16 -125q0 -112 57.5 -168.5t157.5 -56.5q114 0 207.5 80.5t167.5 222.5l55 234l96 428q2 8 10 8h84q4 0 6.5 -3t1.5 -8l-106 -439l-128 -572q-3 -8 -11 -8h-81q-10 0 -8 10l52 205q-37 -66 -94 -120
t-129.5 -86.5t-151.5 -32.5q-85 0 -147 38.5t-89 110.5l-103 -459q-3 -8 -11 -8h-83q-10 0 -8 10l191 814z" />
    <glyph glyph-name="paragraph" unicode="&#xb6;" horiz-adv-x="1196" 
d="M1276 1400q18 0 15 -19l-240 -1009l-166 -748q-3 -15 -19 -15h-73q-18 0 -15 19l166 699l59 251h-289l-62 -252l-156 -702q-3 -15 -19 -15h-74q-17 0 -14 19l165 698l60 252h-29q-137 0 -229.5 46t-138 127.5t-45.5 187.5q0 135 67 239.5t192.5 163t295.5 58.5h549z" />
    <glyph glyph-name="periodcentered" unicode="&#xb7;" horiz-adv-x="260" 
d="M90 528q-9 0 -13 5t-2 14l25 108q1 7 6 11t12 4h92q8 0 12 -5t3 -14l-25 -108q-3 -15 -18 -15h-92z" />
    <glyph glyph-name="periodcentered" unicode="&#x2219;" horiz-adv-x="260" 
d="M90 528q-9 0 -13 5t-2 14l25 108q1 7 6 11t12 4h92q8 0 12 -5t3 -14l-25 -108q-3 -15 -18 -15h-92z" />
    <glyph glyph-name="cedilla" unicode="&#xb8;" horiz-adv-x="401" 
d="M4 -323q-3 -6 -9 -8.5t-13 -0.5l-55 13q-12 3 -12 13q0 4 3 9l191 319q8 14 22 8l38 -8q14 -8 8 -22z" />
    <glyph glyph-name="one.sups" unicode="&#xb9;" horiz-adv-x="359" 
d="M243 690q-18 0 -15 19l80 329l62 275q-71 -52 -154 -79q-2 -1 -7 -1q-13 0 -10 17l5 26q3 13 15 17q97 32 166 99q8 8 21 8h44q19 0 14 -19l-85 -353l-70 -323q-1 -7 -6.5 -11t-12.5 -4h-47z" />
    <glyph glyph-name="ordmasculine" unicode="&#xba;" horiz-adv-x="837" 
d="M330 667q-70 38 -109 111.5t-39 175.5q0 110 46 218t137 178.5t219 70.5q90 0 160 -38t109.5 -110.5t39.5 -171.5q0 -111 -46.5 -220t-137.5 -180.5t-218 -71.5q-91 0 -161 38zM660 760q69 63 103.5 157t34.5 185q0 119 -58.5 185t-156.5 66q-100 0 -169.5 -62.5
t-103 -155.5t-33.5 -186q0 -119 58 -185.5t157 -66.5t168 63z" />
    <glyph glyph-name="guillemotright" unicode="&#xbb;" horiz-adv-x="718" 
d="M28 248q-7 0 -10.5 2.5t-3.5 6.5t5 11l287 339l-139 298l-2 8q0 11 15 11h54q15 0 20 -12l136 -302q2 -4 2 -10q0 -7 -5 -12l-278 -330q-9 -10 -21 -10h-60zM330 248q-7 0 -10.5 2.5t-3.5 6.5t5 11l287 339l-139 298l-2 8q0 11 15 11h54q15 0 20 -12l136 -302q2 -4 2 -10
q0 -7 -5 -12l-278 -330q-9 -10 -21 -10h-60z" />
    <glyph glyph-name="onequarter" unicode="&#xbc;" horiz-adv-x="1155" 
d="M243 690q-18 0 -15 19l80 329l62 275q-71 -52 -154 -79q-2 -1 -7 -1q-13 0 -10 17l5 26q3 13 15 17q97 32 166 99q8 8 21 8h44q19 0 14 -19l-85 -353l-70 -323q-1 -7 -6.5 -11t-12.5 -4h-47zM27 0q-14 0 -14 10q0 5 4 10l1027 1370q8 10 20 10h44q7 0 11 -2.5t4 -7.5
t-4 -10l-1027 -1370q-8 -10 -21 -10h-44zM1072 710q18 0 15 -19l-100 -432h59q8 0 12 -5t2 -13l-6 -25q-3 -15 -18 -15h-63l-42 -186q-1 -7 -6.5 -11t-12.5 -4h-44q-8 0 -12 5t-2 13l42 183h-312q-8 0 -12.5 5t-2.5 13l9 36q1 10 10 19l390 426q7 10 20 10h74zM972 533
l28 110l-352 -384h261z" />
    <glyph glyph-name="onehalf" unicode="&#xbd;" horiz-adv-x="1175" 
d="M598 0q-8 0 -12 5t-2 14l19 81q18 75 60.5 124.5t93 78t127.5 61.5q66 29 102.5 49t60.5 51.5t24 77.5q0 60 -37.5 91.5t-97.5 31.5q-67 0 -112.5 -42.5t-62.5 -132.5q-3 -16 -18 -16h-38q-8 0 -12.5 5t-3.5 14q20 114 85.5 172t166.5 58q90 0 146.5 -45.5t56.5 -130.5
q0 -64 -31 -108t-76.5 -71.5t-121.5 -61.5q-68 -31 -110 -54.5t-75.5 -59.5t-44.5 -86l-11 -46h335q9 0 13 -5t2 -14l-7 -27q-3 -14 -18 -14h-401zM243 690q-18 0 -15 19l80 329l62 275q-71 -52 -154 -79q-2 -1 -7 -1q-13 0 -10 17l5 26q3 13 15 17q97 32 166 99q8 8 21 8
h44q19 0 14 -19l-85 -353l-70 -323q-1 -7 -6.5 -11t-12.5 -4h-47zM26 0q-14 0 -14 10q0 5 4 10l1027 1370q8 10 20 10h44q7 0 11 -2.5t4 -7.5t-4 -10l-1027 -1370q-8 -10 -21 -10h-44z" />
    <glyph glyph-name="threequarters" unicode="&#xbe;" horiz-adv-x="1333" 
d="M190 730q-60 53 -60 145q0 17 1 25q1 16 18 16h41q16 0 16 -17q-1 -7 -1 -20q0 -65 39.5 -103.5t112.5 -38.5q59 0 100 25t61 64t20 81q0 58 -37.5 95.5t-102.5 37.5h-46q-8 0 -12 5t-2 14l5 20q3 15 18 15h50q38 0 78.5 12.5t69.5 43.5t29 82q0 58 -38 89t-99 31
q-64 0 -107.5 -37.5t-60.5 -109.5q-3 -14 -18 -14h-41q-9 0 -12.5 4.5t-1.5 13.5q23 100 88.5 152t158.5 52q58 0 105.5 -21t75 -59.5t27.5 -90.5q0 -67 -45 -116t-121 -62q54 -16 85 -60t31 -101q0 -59 -31 -111t-90.5 -83.5t-139.5 -31.5q-104 0 -164 53zM223 0
q-14 0 -14 10q0 5 4 10l1027 1370q8 10 20 10h44q7 0 11 -2.5t4 -7.5t-4 -10l-1027 -1370q-8 -10 -21 -10h-44zM1251 710q18 0 15 -19l-100 -432h59q8 0 12 -5t2 -13l-6 -25q-3 -15 -18 -15h-63l-42 -186q-1 -7 -6.5 -11t-12.5 -4h-44q-8 0 -12 5t-2 13l42 183h-312
q-8 0 -12.5 5t-2.5 13l9 36q1 10 10 19l390 426q7 10 20 10h74zM1151 533l28 110l-352 -384h261z" />
    <glyph glyph-name="questiondown" unicode="&#xbf;" horiz-adv-x="929" 
d="M637 1030q9 0 13 -5t2 -14l-25 -108q-1 -7 -6 -11t-12 -4h-92q-8 0 -12 5t-2 14l24 108q3 15 19 15h91zM537 658q9 0 13 -5t2 -14q-24 -92 -71 -165t-99.5 -123.5t-133.5 -118.5q-75 -62 -116.5 -103t-69.5 -93.5t-28 -117.5q0 -110 77.5 -168t204.5 -58q148 0 233 83
t124 256q3 15 18 15h64q8 0 12 -5t3 -13q-48 -213 -162.5 -316.5t-300.5 -103.5q-104 0 -187 34t-131.5 103.5t-48.5 170.5q0 80 31 142t77 108t127 112q77 62 125.5 109t91 111t63.5 145q3 15 18 15h64z" />
    <glyph glyph-name="Agrave" unicode="&#xc0;" horiz-adv-x="1192" 
d="M1051 18v-4q0 -14 -15 -14h-67q-17 0 -18 16l-58 455h-601l-271 -460q-8 -11 -20 -11h-77q-7 0 -11 3t-4 8t3 9l819 1369q7 11 20 11h99q17 0 18 -16zM883 556l-96 761l-447 -761h543zM1011 1527q-8 -13 -22 -7l-386 179q-10 4 -10 13q0 5 3 9l26 53q4 9 13 9q4 0 9 -3
l373 -202q9 -4 9 -14q0 -6 -2 -9z" />
    <glyph glyph-name="Aacute" unicode="&#xc1;" horiz-adv-x="1192" 
d="M1051 18v-4q0 -14 -15 -14h-67q-17 0 -18 16l-58 455h-601l-271 -460q-8 -11 -20 -11h-77q-7 0 -11 3t-4 8t3 9l819 1369q7 11 20 11h99q17 0 18 -16zM883 556l-96 761l-447 -761h543zM691 1521q-6 -2 -8 -2q-11 0 -14 11l-10 29q-1 2 -1 7q0 9 10 15l420 197l8 2
q9 0 14 -11l19 -54q2 -6 2 -7q0 -9 -12 -14z" />
    <glyph glyph-name="Acircumflex" unicode="&#xc2;" horiz-adv-x="1192" 
d="M1051 18v-4q0 -14 -15 -14h-67q-17 0 -18 16l-58 455h-601l-271 -460q-8 -11 -20 -11h-77q-7 0 -11 3t-4 8t3 9l819 1369q7 11 20 11h99q17 0 18 -16zM883 556l-96 761l-447 -761h543zM540 1562q-2 4 -2 7q0 10 11 15l282 130q10 5 21 5h26q12 0 21 -6l224 -129
q10 -6 10 -13q0 -4 -3 -9l-15 -26q-5 -10 -14 -10l-8 2l-237 105l-282 -107q-6 -2 -7 -2q-10 0 -15 11z" />
    <glyph glyph-name="Atilde" unicode="&#xc3;" horiz-adv-x="1192" 
d="M1051 18v-4q0 -14 -15 -14h-67q-17 0 -18 16l-58 455h-601l-271 -460q-8 -11 -20 -11h-77q-7 0 -11 3t-4 8t3 9l819 1369q7 11 20 11h99q17 0 18 -16zM883 556l-96 761l-447 -761h543zM892.5 1557.5q-27.5 22.5 -59.5 65.5q-25 34 -43.5 50t-43.5 16q-36 0 -55.5 -31
t-33.5 -95q-4 -14 -19 -14h-33q-8 0 -12 5t-3 13q22 91 60 141.5t102 50.5q45 0 74 -23t62 -67q26 -34 42.5 -49t39.5 -15q39 0 58.5 31t34.5 94q5 15 19 15h33q8 0 12 -6.5t2 -16.5q-21 -90 -59.5 -138.5t-104.5 -48.5q-45 0 -72.5 22.5z" />
    <glyph glyph-name="Adieresis" unicode="&#xc4;" horiz-adv-x="1192" 
d="M1051 18v-4q0 -14 -15 -14h-67q-17 0 -18 16l-58 455h-601l-271 -460q-8 -11 -20 -11h-77q-7 0 -11 3t-4 8t3 9l819 1369q7 11 20 11h99q17 0 18 -16zM883 556l-96 761l-447 -761h543zM680 1550q-9 0 -13 5t-2 14l25 104q3 15 19 15h72q9 0 13 -5t2 -14l-25 -104
q-1 -7 -6.5 -11t-12.5 -4h-72zM929 1550q-8 0 -12 5t-2 14l25 104q2 7 6.5 11t11.5 4h73q8 0 12 -5t2 -14l-25 -104q-3 -15 -18 -15h-73z" />
    <glyph glyph-name="Aring" unicode="&#xc5;" horiz-adv-x="1192" 
d="M1051 18v-4q0 -14 -15 -14h-67q-17 0 -18 16l-58 455h-601l-271 -460q-8 -11 -20 -11h-77q-7 0 -11 3t-4 8t3 9l819 1369q7 11 20 11h99q17 0 18 -16zM883 556l-96 761l-447 -761h543zM766.5 1539.5q-40.5 20.5 -63.5 58t-23 85.5q0 54 26 100t72.5 73t105.5 27
q50 0 89.5 -20.5t62.5 -58t23 -85.5q0 -54 -26 -100t-72 -73t-105 -27q-49 0 -89.5 20.5zM956 1612.5q39 41.5 39 102.5q0 54 -32 85t-81 31q-59 0 -98 -41.5t-39 -102.5q0 -55 31.5 -85.5t81.5 -30.5q59 0 98 41.5z" />
    <glyph glyph-name="AE" unicode="&#xc6;" horiz-adv-x="1665" 
d="M1758 1400q9 0 13 -5t2 -14l-12 -48q-3 -15 -18 -15h-591l-125 -524h550q9 0 13 -5t2 -13l-12 -49q-3 -14 -18 -14h-555l-141 -631h603q8 0 12 -5t3 -14l-11 -48q-2 -7 -6.5 -11t-11.5 -4h-695q-8 0 -12 5t-2 14l108 452h-486l-345 -461q-8 -10 -20 -10h-78q-14 0 -14 10
q0 5 4 10l1028 1370q10 10 21 10h794zM429 556h445l45 186l129 579h-47z" />
    <glyph glyph-name="Ccedilla" unicode="&#xc7;" horiz-adv-x="1336" 
d="M1085 1361.5q117 -60.5 182.5 -171t65.5 -253.5q0 -16 -17 -16h-67q-16 0 -16 16q-4 126 -55.5 216.5t-144.5 138t-219 47.5q-200 0 -335.5 -120.5t-200 -299t-64.5 -350.5q0 -166 54.5 -279.5t156 -171t241.5 -57.5q383 0 512 430q5 15 19 15h69q14 0 14 -15q0 -6 -1 -9
q-77 -256 -235.5 -380t-380.5 -124q-26 0 -39 1l-162 -302q-3 -6 -9 -8.5t-13 -0.5l-55 13q-12 3 -12 13q0 4 3 9l170 284q-135 22 -233.5 96.5t-152 198t-53.5 288.5q0 199 80 396t240.5 326.5t388.5 129.5q152 0 269 -60.5z" />
    <glyph glyph-name="Egrave" unicode="&#xc8;" horiz-adv-x="1027" 
d="M22 0q-8 0 -12 5t-2 14l173 723l142 643q1 7 6.5 11t12.5 4h778q9 0 13 -5t2 -14l-12 -48q-3 -15 -18 -15h-691l-125 -524h650q8 0 12.5 -5t2.5 -13l-12 -49q-3 -14 -18 -14h-655l-141 -631h703q8 0 12 -5t3 -14l-11 -48q-2 -7 -6.5 -11t-11.5 -4h-795zM950 1527
q-8 -13 -22 -7l-386 179q-10 4 -10 13q0 5 3 9l26 53q4 9 13 9q4 0 9 -3l373 -202q9 -4 9 -14q0 -6 -2 -9z" />
    <glyph glyph-name="Eacute" unicode="&#xc9;" horiz-adv-x="1027" 
d="M22 0q-8 0 -12 5t-2 14l173 723l142 643q1 7 6.5 11t12.5 4h778q9 0 13 -5t2 -14l-12 -48q-3 -15 -18 -15h-691l-125 -524h650q8 0 12.5 -5t2.5 -13l-12 -49q-3 -14 -18 -14h-655l-141 -631h703q8 0 12 -5t3 -14l-11 -48q-2 -7 -6.5 -11t-11.5 -4h-795zM629 1521
q-6 -2 -8 -2q-11 0 -14 11l-10 29q-1 2 -1 7q0 9 10 15l420 197l8 2q9 0 14 -11l19 -54q2 -6 2 -7q0 -9 -12 -14z" />
    <glyph glyph-name="Ecircumflex" unicode="&#xca;" horiz-adv-x="1027" 
d="M22 0q-8 0 -12 5t-2 14l173 723l142 643q1 7 6.5 11t12.5 4h778q9 0 13 -5t2 -14l-12 -48q-3 -15 -18 -15h-691l-125 -524h650q8 0 12.5 -5t2.5 -13l-12 -49q-3 -14 -18 -14h-655l-141 -631h703q8 0 12 -5t3 -14l-11 -48q-2 -7 -6.5 -11t-11.5 -4h-795zM479 1562
q-2 4 -2 7q0 10 11 15l282 130q10 5 21 5h26q12 0 21 -6l224 -129q10 -6 10 -13q0 -4 -3 -9l-15 -26q-5 -10 -14 -10l-8 2l-237 105l-282 -107q-6 -2 -7 -2q-10 0 -15 11z" />
    <glyph glyph-name="Edieresis" unicode="&#xcb;" horiz-adv-x="1027" 
d="M22 0q-8 0 -12 5t-2 14l173 723l142 643q1 7 6.5 11t12.5 4h778q9 0 13 -5t2 -14l-12 -48q-3 -15 -18 -15h-691l-125 -524h650q8 0 12.5 -5t2.5 -13l-12 -49q-3 -14 -18 -14h-655l-141 -631h703q8 0 12 -5t3 -14l-11 -48q-2 -7 -6.5 -11t-11.5 -4h-795zM618 1550
q-9 0 -13 5t-2 14l25 104q3 15 19 15h72q9 0 13 -5t2 -14l-25 -104q-1 -7 -6.5 -11t-12.5 -4h-72zM867 1550q-8 0 -12 5t-2 14l25 104q2 7 6.5 11t11.5 4h73q8 0 12 -5t2 -14l-25 -104q-3 -15 -18 -15h-73z" />
    <glyph glyph-name="Igrave" unicode="&#xcc;" horiz-adv-x="372" 
d="M34 0q-18 0 -15 19l169 705l147 661q1 7 6.5 11t12.5 4h73q8 0 12 -5t2 -14l-158 -657l-158 -709q-3 -15 -18 -15h-73zM600 1527q-8 -13 -22 -7l-386 179q-10 4 -10 13q0 5 3 9l26 53q4 9 13 9q4 0 9 -3l373 -202q9 -4 9 -14q0 -6 -2 -9z" />
    <glyph glyph-name="Iacute" unicode="&#xcd;" horiz-adv-x="372" 
d="M34 0q-18 0 -15 19l169 705l147 661q1 7 6.5 11t12.5 4h73q8 0 12 -5t2 -14l-158 -657l-158 -709q-3 -15 -18 -15h-73zM280 1521q-6 -2 -8 -2q-11 0 -14 11l-10 29q-1 2 -1 7q0 9 10 15l420 197l8 2q9 0 14 -11l19 -54q2 -6 2 -7q0 -9 -12 -14z" />
    <glyph glyph-name="Icircumflex" unicode="&#xce;" horiz-adv-x="372" 
d="M34 0q-18 0 -15 19l169 705l147 661q1 7 6.5 11t12.5 4h73q8 0 12 -5t2 -14l-158 -657l-158 -709q-3 -15 -18 -15h-73zM129 1562q-2 4 -2 7q0 10 11 15l282 130q10 5 21 5h26q12 0 21 -6l224 -129q10 -6 10 -13q0 -4 -3 -9l-15 -26q-5 -10 -14 -10l-8 2l-237 105
l-282 -107q-6 -2 -7 -2q-10 0 -15 11z" />
    <glyph glyph-name="Idieresis" unicode="&#xcf;" horiz-adv-x="372" 
d="M34 0q-18 0 -15 19l169 705l147 661q1 7 6.5 11t12.5 4h73q8 0 12 -5t2 -14l-158 -657l-158 -709q-3 -15 -18 -15h-73zM268 1550q-9 0 -13 5t-2 14l25 104q3 15 19 15h72q9 0 13 -5t2 -14l-25 -104q-1 -7 -6.5 -11t-12.5 -4h-72zM517 1550q-8 0 -12 5t-2 14l25 104
q2 7 6.5 11t11.5 4h73q8 0 12 -5t2 -14l-25 -104q-3 -15 -18 -15h-73z" />
    <glyph glyph-name="Eth" unicode="&#xd0;" horiz-adv-x="1314" 
d="M708 1400q177 0 310.5 -67t207 -194t73.5 -303q0 -198 -86.5 -391t-259.5 -319t-418 -126h-503q-8 0 -12 5t-2 14l166 695h-135q-9 0 -13 5t-2 13l11 49q4 14 19 14h138l132 590q3 15 18 15h356zM537 82q216 0 364 117t219.5 291.5t71.5 346.5q0 153 -59.5 261
t-168.5 164t-258 56h-278l-125 -523h404q9 0 12.5 -4.5t1.5 -13.5l-11 -48q-4 -15 -19 -15h-407l-142 -632h395z" />
    <glyph glyph-name="Ntilde" unicode="&#xd1;" horiz-adv-x="1316" 
d="M22 0q-8 0 -12 5t-2 14l168 701l149 665q1 7 6.5 11t12.5 4h70q14 0 19 -12l576 -1243l140 600l144 640q2 7 6.5 11t11.5 4h70q17 0 14 -19l-158 -661l-160 -705q-3 -15 -18 -15h-79q-14 0 -20 12l-571 1228l-127 -555l-152 -670q-3 -15 -19 -15h-69zM947.5 1557.5
q-27.5 22.5 -59.5 65.5q-25 34 -43.5 50t-43.5 16q-36 0 -55.5 -31t-33.5 -95q-4 -14 -19 -14h-33q-8 0 -12 5t-3 13q22 91 60 141.5t102 50.5q45 0 74 -23t62 -67q26 -34 42.5 -49t39.5 -15q39 0 58.5 31t34.5 94q5 15 19 15h33q8 0 12 -6.5t2 -16.5q-21 -90 -59.5 -138.5
t-104.5 -48.5q-45 0 -72.5 22.5z" />
    <glyph glyph-name="Ograve" unicode="&#xd2;" horiz-adv-x="1438" 
d="M377 47.5q-130 69.5 -202.5 203t-72.5 317.5q0 200 85.5 397.5t254.5 327t406 129.5q169 0 299 -69.5t202.5 -202t72.5 -314.5q0 -202 -85.5 -400.5t-254.5 -328t-406 -129.5q-169 0 -299 69.5zM1031 181.5q144 120.5 214.5 300t70.5 355.5q0 159 -58.5 272t-164.5 171.5
t-246 58.5q-209 0 -353.5 -120.5t-214.5 -300t-70 -355.5q0 -159 58.5 -272t164 -171.5t246.5 -58.5q209 0 353 120.5zM1110 1527q-8 -13 -22 -7l-386 179q-10 4 -10 13q0 5 3 9l26 53q4 9 13 9q4 0 9 -3l373 -202q9 -4 9 -14q0 -6 -2 -9z" />
    <glyph glyph-name="Oacute" unicode="&#xd3;" horiz-adv-x="1438" 
d="M377 47.5q-130 69.5 -202.5 203t-72.5 317.5q0 200 85.5 397.5t254.5 327t406 129.5q169 0 299 -69.5t202.5 -202t72.5 -314.5q0 -202 -85.5 -400.5t-254.5 -328t-406 -129.5q-169 0 -299 69.5zM1031 181.5q144 120.5 214.5 300t70.5 355.5q0 159 -58.5 272t-164.5 171.5
t-246 58.5q-209 0 -353.5 -120.5t-214.5 -300t-70 -355.5q0 -159 58.5 -272t164 -171.5t246.5 -58.5q209 0 353 120.5zM789 1521q-6 -2 -8 -2q-11 0 -14 11l-10 29q-1 2 -1 7q0 9 10 15l420 197l8 2q9 0 14 -11l19 -54q2 -6 2 -7q0 -9 -12 -14z" />
    <glyph glyph-name="Ocircumflex" unicode="&#xd4;" horiz-adv-x="1438" 
d="M377 47.5q-130 69.5 -202.5 203t-72.5 317.5q0 200 85.5 397.5t254.5 327t406 129.5q169 0 299 -69.5t202.5 -202t72.5 -314.5q0 -202 -85.5 -400.5t-254.5 -328t-406 -129.5q-169 0 -299 69.5zM1031 181.5q144 120.5 214.5 300t70.5 355.5q0 159 -58.5 272t-164.5 171.5
t-246 58.5q-209 0 -353.5 -120.5t-214.5 -300t-70 -355.5q0 -159 58.5 -272t164 -171.5t246.5 -58.5q209 0 353 120.5zM639 1562q-2 4 -2 7q0 10 11 15l282 130q10 5 21 5h26q12 0 21 -6l224 -129q10 -6 10 -13q0 -4 -3 -9l-15 -26q-5 -10 -14 -10l-8 2l-237 105l-282 -107
q-6 -2 -7 -2q-10 0 -15 11z" />
    <glyph glyph-name="Otilde" unicode="&#xd5;" horiz-adv-x="1438" 
d="M377 47.5q-130 69.5 -202.5 203t-72.5 317.5q0 200 85.5 397.5t254.5 327t406 129.5q169 0 299 -69.5t202.5 -202t72.5 -314.5q0 -202 -85.5 -400.5t-254.5 -328t-406 -129.5q-169 0 -299 69.5zM1031 181.5q144 120.5 214.5 300t70.5 355.5q0 159 -58.5 272t-164.5 171.5
t-246 58.5q-209 0 -353.5 -120.5t-214.5 -300t-70 -355.5q0 -159 58.5 -272t164 -171.5t246.5 -58.5q209 0 353 120.5zM991.5 1557.5q-27.5 22.5 -59.5 65.5q-25 34 -43.5 50t-43.5 16q-36 0 -55.5 -31t-33.5 -95q-4 -14 -19 -14h-33q-8 0 -12 5t-3 13q22 91 60 141.5
t102 50.5q45 0 74 -23t62 -67q26 -34 42.5 -49t39.5 -15q39 0 58.5 31t34.5 94q5 15 19 15h33q8 0 12 -6.5t2 -16.5q-21 -90 -59.5 -138.5t-104.5 -48.5q-45 0 -72.5 22.5z" />
    <glyph glyph-name="Odieresis" unicode="&#xd6;" horiz-adv-x="1438" 
d="M377 47.5q-130 69.5 -202.5 203t-72.5 317.5q0 200 85.5 397.5t254.5 327t406 129.5q169 0 299 -69.5t202.5 -202t72.5 -314.5q0 -202 -85.5 -400.5t-254.5 -328t-406 -129.5q-169 0 -299 69.5zM1031 181.5q144 120.5 214.5 300t70.5 355.5q0 159 -58.5 272t-164.5 171.5
t-246 58.5q-209 0 -353.5 -120.5t-214.5 -300t-70 -355.5q0 -159 58.5 -272t164 -171.5t246.5 -58.5q209 0 353 120.5zM778 1550q-9 0 -13 5t-2 14l25 104q3 15 19 15h72q9 0 13 -5t2 -14l-25 -104q-1 -7 -6.5 -11t-12.5 -4h-72zM1027 1550q-8 0 -12 5t-2 14l25 104
q2 7 6.5 11t11.5 4h73q8 0 12 -5t2 -14l-25 -104q-3 -15 -18 -15h-73z" />
    <glyph glyph-name="multiply" unicode="&#xd7;" horiz-adv-x="947" 
d="M945 1004q4 -5 4 -11q0 -7 -7 -13l-369 -295l226 -290q4 -4 4 -10q0 -7 -7 -13l-40 -33q-7 -5 -12 -5t-12 7l-226 289l-370 -297q-5 -5 -11 -5q-7 0 -12 8l-33 39q-4 5 -4 11t7 12l371 297l-225 288q-4 4 -4 10q0 7 7 13l41 35q7 5 11 5q8 0 12 -7l226 -289l368 295
q7 5 11 5q8 0 12 -9z" />
    <glyph glyph-name="Oslash" unicode="&#xd8;" horiz-adv-x="1438" 
d="M1572 1401q5 -7 5 -11q0 -6 -7 -13l-230 -209q82 -138 82 -332q0 -202 -85.5 -400.5t-254.5 -328t-406 -129.5q-140 0 -253.5 49t-189.5 142l-229 -207q-7 -5 -11 -5q-6 0 -13 7l-28 35q-5 7 -5 11q0 6 7 13l231 209q-83 141 -83 336q0 200 85.5 397.5t254.5 327
t406 129.5q140 0 253.5 -49t190.5 -142l228 207q7 5 11 5q6 0 13 -7zM493.5 1218.5q-144.5 -120.5 -214.5 -300t-70 -355.5q0 -151 56 -263l957 864q-61 85 -157 130t-218 45q-209 0 -353.5 -120.5zM1031 181.5q144 120.5 214.5 300t70.5 355.5q0 150 -57 262l-957 -863
q61 -85 157.5 -130t218.5 -45q209 0 353 120.5z" />
    <glyph glyph-name="Ugrave" unicode="&#xd9;" horiz-adv-x="1213" 
d="M296 30q-95 52 -142.5 144t-47.5 210q0 76 19 153l115 487l81 361q3 15 18 15h75q17 0 14 -19l-86 -356l-114 -492q-17 -76 -17 -141q0 -96 35.5 -170t108.5 -116.5t183 -42.5q169 0 283.5 112.5t166.5 333.5l122 515l80 361q3 15 19 15h70q18 0 15 -19l-86 -357
l-121 -514q-62 -262 -203 -397t-356 -135q-137 0 -232 52zM1022 1527q-8 -13 -22 -7l-386 179q-10 4 -10 13q0 5 3 9l26 53q4 9 13 9q4 0 9 -3l373 -202q9 -4 9 -14q0 -6 -2 -9z" />
    <glyph glyph-name="Uacute" unicode="&#xda;" horiz-adv-x="1213" 
d="M296 30q-95 52 -142.5 144t-47.5 210q0 76 19 153l115 487l81 361q3 15 18 15h75q17 0 14 -19l-86 -356l-114 -492q-17 -76 -17 -141q0 -96 35.5 -170t108.5 -116.5t183 -42.5q169 0 283.5 112.5t166.5 333.5l122 515l80 361q3 15 19 15h70q18 0 15 -19l-86 -357
l-121 -514q-62 -262 -203 -397t-356 -135q-137 0 -232 52zM702 1521q-6 -2 -8 -2q-11 0 -14 11l-10 29q-1 2 -1 7q0 9 10 15l420 197l8 2q9 0 14 -11l19 -54q2 -6 2 -7q0 -9 -12 -14z" />
    <glyph glyph-name="Ucircumflex" unicode="&#xdb;" horiz-adv-x="1213" 
d="M296 30q-95 52 -142.5 144t-47.5 210q0 76 19 153l115 487l81 361q3 15 18 15h75q17 0 14 -19l-86 -356l-114 -492q-17 -76 -17 -141q0 -96 35.5 -170t108.5 -116.5t183 -42.5q169 0 283.5 112.5t166.5 333.5l122 515l80 361q3 15 19 15h70q18 0 15 -19l-86 -357
l-121 -514q-62 -262 -203 -397t-356 -135q-137 0 -232 52zM551 1562q-2 4 -2 7q0 10 11 15l282 130q10 5 21 5h26q12 0 21 -6l224 -129q10 -6 10 -13q0 -4 -3 -9l-15 -26q-5 -10 -14 -10l-8 2l-237 105l-282 -107q-6 -2 -7 -2q-10 0 -15 11z" />
    <glyph glyph-name="Udieresis" unicode="&#xdc;" horiz-adv-x="1213" 
d="M296 30q-95 52 -142.5 144t-47.5 210q0 76 19 153l115 487l81 361q3 15 18 15h75q17 0 14 -19l-86 -356l-114 -492q-17 -76 -17 -141q0 -96 35.5 -170t108.5 -116.5t183 -42.5q169 0 283.5 112.5t166.5 333.5l122 515l80 361q3 15 19 15h70q18 0 15 -19l-86 -357
l-121 -514q-62 -262 -203 -397t-356 -135q-137 0 -232 52zM691 1550q-9 0 -13 5t-2 14l25 104q3 15 19 15h72q9 0 13 -5t2 -14l-25 -104q-1 -7 -6.5 -11t-12.5 -4h-72zM940 1550q-8 0 -12 5t-2 14l25 104q2 7 6.5 11t11.5 4h73q8 0 12 -5t2 -14l-25 -104q-3 -15 -18 -15h-73
z" />
    <glyph glyph-name="Yacute" unicode="&#xdd;" horiz-adv-x="1065" 
d="M229 1381q-1 2 -1 6q0 13 15 13h73q15 0 18 -14l213 -783l578 787q8 10 21 10h79q7 0 11 -2.5t4 -7.5q0 -4 -5 -11l-659 -879l-109 -485q-1 -7 -6.5 -11t-12.5 -4h-74q-8 0 -12 5t-2 14l117 488zM620 1521q-6 -2 -8 -2q-11 0 -14 11l-10 29q-1 2 -1 7q0 9 10 15l420 197
l8 2q9 0 14 -11l19 -54q2 -6 2 -7q0 -9 -12 -14z" />
    <glyph glyph-name="Thorn" unicode="&#xde;" horiz-adv-x="1075" 
d="M654 1118q141 0 235 -45.5t140 -127t46 -189.5q0 -135 -67 -239.5t-192.5 -163t-295.5 -58.5h-343l-62 -280q-1 -7 -6.5 -11t-12.5 -4h-73q-8 0 -12 5t-2 14l169 713l146 653q1 7 6.5 11t12.5 4h73q8 0 12 -5t2 -14l-63 -263h287zM527 376q142 0 242 48t150.5 132.5
t50.5 191.5q0 132 -78 210t-245 78h-300l-73 -308l-79 -352h332z" />
    <glyph glyph-name="germandbls" unicode="&#xdf;" horiz-adv-x="1019" 
d="M12 -1q-8 0 -12 5t-2 14l233 1001q49 210 164.5 308.5t280.5 99.5q108 0 186.5 -40.5t120 -112t41.5 -163.5q0 -90 -39.5 -164.5t-113.5 -125t-176 -69.5q131 -32 197 -113t66 -204q0 -125 -66 -223.5t-191.5 -155t-297.5 -56.5h-76q-9 0 -13 5t-2 14l11 46q5 15 19 15
h66q143 0 243.5 46.5t151 127.5t50.5 183q0 85 -39 147t-113 95.5t-176 33.5h-31q-18 0 -15 18l11 43q3 15 18 15h33q117 0 202.5 38.5t131 109t45.5 163.5q0 113 -66 180.5t-187 67.5q-127 0 -213.5 -81.5t-125.5 -247.5l-128 -550l-100 -455q-1 -7 -6.5 -11t-12.5 -4h-69z
" />
    <glyph glyph-name="agrave" unicode="&#xe0;" horiz-adv-x="1030" 
d="M1018 1030q8 0 12 -5t2 -14l-115 -478l-115 -518q-3 -15 -18 -15h-65q-9 0 -13 5t-2 14l42 168q-64 -93 -152.5 -146.5t-199.5 -53.5q-107 0 -184.5 49.5t-118 139.5t-40.5 210q0 141 56 294t172.5 259t287.5 106q130 0 211.5 -67t105.5 -193l49 230q3 15 18 15h67z
M645 152.5q97 93.5 147.5 233t50.5 271.5q0 156 -71 235t-198 79q-148 0 -243.5 -97t-138.5 -233t-43 -256q0 -149 70 -237.5t197 -88.5q132 0 229 93.5zM820 1157q-8 -13 -22 -7l-386 179q-10 4 -10 13q0 5 3 9l26 53q4 9 13 9q4 0 9 -3l373 -202q9 -4 9 -14q0 -6 -2 -9z
" />
    <glyph glyph-name="aacute" unicode="&#xe1;" horiz-adv-x="1030" 
d="M1018 1030q8 0 12 -5t2 -14l-115 -478l-115 -518q-3 -15 -18 -15h-65q-9 0 -13 5t-2 14l42 168q-64 -93 -152.5 -146.5t-199.5 -53.5q-107 0 -184.5 49.5t-118 139.5t-40.5 210q0 141 56 294t172.5 259t287.5 106q130 0 211.5 -67t105.5 -193l49 230q3 15 18 15h67z
M645 152.5q97 93.5 147.5 233t50.5 271.5q0 156 -71 235t-198 79q-148 0 -243.5 -97t-138.5 -233t-43 -256q0 -149 70 -237.5t197 -88.5q132 0 229 93.5zM499 1151q-6 -2 -8 -2q-11 0 -14 11l-10 29q-1 2 -1 7q0 9 10 15l420 197l8 2q9 0 14 -11l19 -54q2 -6 2 -7
q0 -9 -12 -14z" />
    <glyph glyph-name="acircumflex" unicode="&#xe2;" horiz-adv-x="1030" 
d="M1018 1030q8 0 12 -5t2 -14l-115 -478l-115 -518q-3 -15 -18 -15h-65q-9 0 -13 5t-2 14l42 168q-64 -93 -152.5 -146.5t-199.5 -53.5q-107 0 -184.5 49.5t-118 139.5t-40.5 210q0 141 56 294t172.5 259t287.5 106q130 0 211.5 -67t105.5 -193l49 230q3 15 18 15h67z
M645 152.5q97 93.5 147.5 233t50.5 271.5q0 156 -71 235t-198 79q-148 0 -243.5 -97t-138.5 -233t-43 -256q0 -149 70 -237.5t197 -88.5q132 0 229 93.5zM349 1192q-2 4 -2 7q0 10 11 15l282 130q10 5 21 5h26q12 0 21 -6l224 -129q10 -6 10 -13q0 -4 -3 -9l-15 -26
q-5 -10 -14 -10l-8 2l-237 105l-282 -107q-6 -2 -7 -2q-10 0 -15 11z" />
    <glyph glyph-name="atilde" unicode="&#xe3;" horiz-adv-x="1030" 
d="M1018 1030q8 0 12 -5t2 -14l-115 -478l-115 -518q-3 -15 -18 -15h-65q-9 0 -13 5t-2 14l42 168q-64 -93 -152.5 -146.5t-199.5 -53.5q-107 0 -184.5 49.5t-118 139.5t-40.5 210q0 141 56 294t172.5 259t287.5 106q130 0 211.5 -67t105.5 -193l49 230q3 15 18 15h67z
M645 152.5q97 93.5 147.5 233t50.5 271.5q0 156 -71 235t-198 79q-148 0 -243.5 -97t-138.5 -233t-43 -256q0 -149 70 -237.5t197 -88.5q132 0 229 93.5zM700.5 1187.5q-27.5 22.5 -59.5 65.5q-25 34 -43.5 50t-43.5 16q-36 0 -55.5 -31t-33.5 -95q-4 -14 -19 -14h-33
q-8 0 -12 5t-3 13q22 91 60 141.5t102 50.5q45 0 74 -23t62 -67q26 -34 42.5 -49t39.5 -15q39 0 58.5 31t34.5 94q5 15 19 15h33q8 0 12 -6.5t2 -16.5q-21 -90 -59.5 -138.5t-104.5 -48.5q-45 0 -72.5 22.5z" />
    <glyph glyph-name="adieresis" unicode="&#xe4;" horiz-adv-x="1030" 
d="M1018 1030q8 0 12 -5t2 -14l-115 -478l-115 -518q-3 -15 -18 -15h-65q-9 0 -13 5t-2 14l42 168q-64 -93 -152.5 -146.5t-199.5 -53.5q-107 0 -184.5 49.5t-118 139.5t-40.5 210q0 141 56 294t172.5 259t287.5 106q130 0 211.5 -67t105.5 -193l49 230q3 15 18 15h67z
M645 152.5q97 93.5 147.5 233t50.5 271.5q0 156 -71 235t-198 79q-148 0 -243.5 -97t-138.5 -233t-43 -256q0 -149 70 -237.5t197 -88.5q132 0 229 93.5zM488 1180q-9 0 -13 5t-2 14l25 104q3 15 19 15h72q9 0 13 -5t2 -14l-25 -104q-1 -7 -6.5 -11t-12.5 -4h-72zM737 1180
q-8 0 -12 5t-2 14l25 104q2 7 6.5 11t11.5 4h73q8 0 12 -5t2 -14l-25 -104q-3 -15 -18 -15h-73z" />
    <glyph glyph-name="aring" unicode="&#xe5;" horiz-adv-x="1030" 
d="M1018 1030q8 0 12 -5t2 -14l-115 -478l-115 -518q-3 -15 -18 -15h-65q-9 0 -13 5t-2 14l42 168q-64 -93 -152.5 -146.5t-199.5 -53.5q-107 0 -184.5 49.5t-118 139.5t-40.5 210q0 141 56 294t172.5 259t287.5 106q130 0 211.5 -67t105.5 -193l49 230q3 15 18 15h67z
M645 152.5q97 93.5 147.5 233t50.5 271.5q0 156 -71 235t-198 79q-148 0 -243.5 -97t-138.5 -233t-43 -256q0 -149 70 -237.5t197 -88.5q132 0 229 93.5zM574.5 1169.5q-40.5 20.5 -63.5 58t-23 85.5q0 54 26 100t72.5 73t105.5 27q50 0 89.5 -20.5t62.5 -58t23 -85.5
q0 -54 -26 -100t-72 -73t-105 -27q-49 0 -89.5 20.5zM764 1242.5q39 41.5 39 102.5q0 54 -32 85t-81 31q-59 0 -98 -41.5t-39 -102.5q0 -55 31.5 -85.5t81.5 -30.5q59 0 98 41.5z" />
    <glyph glyph-name="ae" unicode="&#xe6;" horiz-adv-x="1796" 
d="M1558.5 1002q87.5 -47 136 -135t48.5 -207q0 -61 -13 -125q-3 -15 -17 -15h-787q-8 -48 -8 -105q0 -176 85 -268t236 -92q273 0 363 298q5 15 19 15h61q14 0 14 -15q0 -6 -1 -9q-58 -185 -174.5 -274t-279.5 -89q-145 0 -243.5 70.5t-135.5 201.5l-53 -238
q-1 -15 -17 -15h-64q-9 0 -13 5t-2 14l49 194q-66 -104 -158 -165t-210 -61q-107 0 -184.5 49.5t-118.5 140t-41 209.5q0 141 56 294t173 259t288 106q124 0 203 -63t106 -179l45 212q2 15 17 15h64q9 0 13 -5t2 -14l-45 -185q68 109 162.5 166t221.5 57q115 0 202.5 -47z
M1640 595q7 39 7 81q0 88 -36 155.5t-103.5 105.5t-158.5 38q-111 0 -194.5 -52.5t-136.5 -138.5t-78 -189h700zM644 152.5q97 93.5 148 233t51 271.5q-1 156 -72 235t-197 79q-148 0 -243.5 -97t-138.5 -233t-43 -256q0 -149 70 -237.5t197 -88.5q131 0 228 93.5z" />
    <glyph glyph-name="ccedilla" unicode="&#xe7;" horiz-adv-x="1006" 
d="M786 1004.5q87 -44.5 135.5 -125t48.5 -186.5q0 -17 -17 -17h-60q-17 0 -17 17q-4 133 -82.5 207t-210.5 74q-141 0 -238 -87t-143.5 -216t-46.5 -255q0 -176 84.5 -268.5t233.5 -92.5q273 0 363 303q5 15 19 15h62q14 0 14 -14q0 -2 -2 -10q-58 -188 -174.5 -278
t-282.5 -90h-24l-163 -304q-3 -6 -9 -8.5t-13 -0.5l-55 13q-12 3 -12 13q0 4 3 9l172 287q-148 28 -231 138t-83 290q0 149 59.5 294.5t179 241t290.5 95.5q113 0 200 -44.5z" />
    <glyph glyph-name="egrave" unicode="&#xe8;" horiz-adv-x="1032" 
d="M792.5 1002q88.5 -47 137 -135.5t48.5 -208.5q0 -58 -12 -123q-3 -15 -18 -15h-786q-8 -49 -8 -108q0 -173 85.5 -265t235.5 -92q274 0 362 298q6 15 20 15h61q14 0 14 -15q0 -6 -1 -9q-58 -185 -174.5 -274t-282.5 -89q-127 0 -220.5 50.5t-145 148.5t-51.5 236
q0 150 59.5 296.5t179.5 241.5t291 95q117 0 205.5 -47zM876 595q7 39 7 82q0 88 -36 155.5t-103.5 105t-159.5 37.5q-110 0 -193.5 -52.5t-136.5 -138.5t-78 -189h700zM833 1157q-8 -13 -22 -7l-386 179q-10 4 -10 13q0 5 3 9l26 53q4 9 13 9q4 0 9 -3l373 -202q9 -4 9 -14
q0 -6 -2 -9z" />
    <glyph glyph-name="eacute" unicode="&#xe9;" horiz-adv-x="1032" 
d="M792.5 1002q88.5 -47 137 -135.5t48.5 -208.5q0 -58 -12 -123q-3 -15 -18 -15h-786q-8 -49 -8 -108q0 -173 85.5 -265t235.5 -92q274 0 362 298q6 15 20 15h61q14 0 14 -15q0 -6 -1 -9q-58 -185 -174.5 -274t-282.5 -89q-127 0 -220.5 50.5t-145 148.5t-51.5 236
q0 150 59.5 296.5t179.5 241.5t291 95q117 0 205.5 -47zM876 595q7 39 7 82q0 88 -36 155.5t-103.5 105t-159.5 37.5q-110 0 -193.5 -52.5t-136.5 -138.5t-78 -189h700zM513 1151q-6 -2 -8 -2q-11 0 -14 11l-10 29q-1 2 -1 7q0 9 10 15l420 197l8 2q9 0 14 -11l19 -54
q2 -6 2 -7q0 -9 -12 -14z" />
    <glyph glyph-name="ecircumflex" unicode="&#xea;" horiz-adv-x="1032" 
d="M792.5 1002q88.5 -47 137 -135.5t48.5 -208.5q0 -58 -12 -123q-3 -15 -18 -15h-786q-8 -49 -8 -108q0 -173 85.5 -265t235.5 -92q274 0 362 298q6 15 20 15h61q14 0 14 -15q0 -6 -1 -9q-58 -185 -174.5 -274t-282.5 -89q-127 0 -220.5 50.5t-145 148.5t-51.5 236
q0 150 59.5 296.5t179.5 241.5t291 95q117 0 205.5 -47zM876 595q7 39 7 82q0 88 -36 155.5t-103.5 105t-159.5 37.5q-110 0 -193.5 -52.5t-136.5 -138.5t-78 -189h700zM362 1192q-2 4 -2 7q0 10 11 15l282 130q10 5 21 5h26q12 0 21 -6l224 -129q10 -6 10 -13q0 -4 -3 -9
l-15 -26q-5 -10 -14 -10l-8 2l-237 105l-282 -107q-6 -2 -7 -2q-10 0 -15 11z" />
    <glyph glyph-name="edieresis" unicode="&#xeb;" horiz-adv-x="1032" 
d="M792.5 1002q88.5 -47 137 -135.5t48.5 -208.5q0 -58 -12 -123q-3 -15 -18 -15h-786q-8 -49 -8 -108q0 -173 85.5 -265t235.5 -92q274 0 362 298q6 15 20 15h61q14 0 14 -15q0 -6 -1 -9q-58 -185 -174.5 -274t-282.5 -89q-127 0 -220.5 50.5t-145 148.5t-51.5 236
q0 150 59.5 296.5t179.5 241.5t291 95q117 0 205.5 -47zM876 595q7 39 7 82q0 88 -36 155.5t-103.5 105t-159.5 37.5q-110 0 -193.5 -52.5t-136.5 -138.5t-78 -189h700zM501 1180q-9 0 -13 5t-2 14l25 104q3 15 19 15h72q9 0 13 -5t2 -14l-25 -104q-1 -7 -6.5 -11t-12.5 -4
h-72zM750 1180q-8 0 -12 5t-2 14l25 104q2 7 6.5 11t11.5 4h73q8 0 12 -5t2 -14l-25 -104q-3 -15 -18 -15h-73z" />
    <glyph glyph-name="igrave" unicode="&#xec;" horiz-adv-x="348" 
d="M467 1166q-8 -13 -22 -7l-299 139q-10 4 -10 13q0 5 3 9l27 53q6 10 14 10q5 0 9 -3l285 -163q10 -6 10 -14q0 -4 -3 -9zM21 0q-8 0 -12 5t-2 14l124 526l106 470q3 15 19 15h69q8 0 12 -5t2 -14l-110 -465l-120 -531q-3 -15 -18 -15h-70z" />
    <glyph glyph-name="iacute" unicode="&#xed;" horiz-adv-x="348" 
d="M194 1152q-6 -2 -8 -2q-11 0 -14 11l-10 29q-2 4 -2 7q0 9 11 15l357 167q3 2 9 2q10 0 13 -11l17 -52q2 -6 2 -7q0 -9 -11 -14zM21 0q-8 0 -12 5t-2 14l124 526l106 470q3 15 19 15h69q8 0 12 -5t2 -14l-110 -465l-120 -531q-3 -15 -18 -15h-70z" />
    <glyph glyph-name="icircumflex" unicode="&#xee;" horiz-adv-x="347" 
d="M85 1193l-2 9q0 7 9 13l229 129q9 5 21 5h27q12 0 20 -7l178 -126q8 -6 8 -13q0 -4 -3 -10l-17 -26q-6 -8 -14 -8q-5 0 -9 3l-186 103l-228 -106q-6 -2 -8 -2q-7 0 -14 10zM21 0q-8 0 -12 5t-2 14l124 526l106 470q3 15 19 15h69q8 0 12 -5t2 -14l-110 -465l-120 -531
q-3 -15 -18 -15h-70z" />
    <glyph glyph-name="idieresis" unicode="&#xef;" horiz-adv-x="347" 
d="M196 1180q-17 0 -14 19l23 104q1 7 6.5 11t12.5 4h69q17 0 14 -19l-24 -104q-1 -7 -6 -11t-12 -4h-69zM396 1180q-19 0 -14 19l23 104q2 7 6.5 11t11.5 4h69q17 0 14 -19l-24 -104q-1 -7 -6 -11t-12 -4h-68zM21 0q-8 0 -12 5t-2 14l124 526l106 470q3 15 19 15h69
q8 0 12 -5t2 -14l-110 -465l-120 -531q-3 -15 -18 -15h-70z" />
    <glyph glyph-name="eth" unicode="&#xf0;" horiz-adv-x="1064" 
d="M1137 1285q6 2 7 2q11 0 13 -13l9 -34q1 -2 1 -6q0 -12 -12 -15l-248 -80q113 -173 113 -398q0 -203 -64 -376.5t-190.5 -278.5t-305.5 -105q-120 0 -214 49t-147 141.5t-53 218.5q0 139 63 260.5t175.5 195t254.5 73.5q98 0 180 -37t136 -106.5t70 -162.5q6 66 6 143
q0 199 -106 357l-303 -97q-2 -1 -7 -1q-9 0 -14 12l-9 33q-1 2 -1 7q0 10 12 14l276 90q-91 108 -238 195q-10 4 -10 13q0 5 5 10l34 38q6 7 13 7q4 0 10 -3q174 -111 272 -234zM682.5 122q92.5 67 141 172.5t48.5 218.5q0 103 -41.5 177.5t-114.5 113.5t-168 39
q-126 0 -217 -66.5t-137.5 -171t-46.5 -216.5q0 -104 40.5 -179.5t112.5 -115t165 -39.5q125 0 217.5 67z" />
    <glyph glyph-name="ntilde" unicode="&#xf1;" horiz-adv-x="1000" 
d="M11 0q-8 0 -12 5t-2 14l104 431l126 565q3 15 19 15h65q9 0 13 -5t2 -14l-49 -196q37 66 94 120t129.5 86.5t151.5 32.5q83 0 147.5 -34t100.5 -100t36 -159q0 -58 -15 -127l-44 -193l-96 -426q-1 -7 -6 -11t-12 -4h-69q-8 0 -12 5t-2 14l99 417l43 187q16 68 16 125
q0 112 -57.5 168.5t-157.5 56.5q-218 0 -375 -303l-55 -234l-94 -421q-3 -15 -19 -15h-69zM711.5 1187.5q-27.5 22.5 -59.5 65.5q-25 34 -43.5 50t-43.5 16q-36 0 -55.5 -31t-33.5 -95q-4 -14 -19 -14h-33q-8 0 -12 5t-3 13q22 91 60 141.5t102 50.5q45 0 74 -23t62 -67
q26 -34 42.5 -49t39.5 -15q39 0 58.5 31t34.5 94q5 15 19 15h33q8 0 12 -6.5t2 -16.5q-21 -90 -59.5 -138.5t-104.5 -48.5q-45 0 -72.5 22.5z" />
    <glyph glyph-name="ograve" unicode="&#xf2;" horiz-adv-x="1061" 
d="M254 32.5q-93 51.5 -145 150t-52 235.5q0 149 61.5 295t183.5 241t293 95q121 0 213.5 -51t144.5 -149t52 -233q0 -151 -61.5 -297.5t-183 -242t-292.5 -95.5q-121 0 -214 51.5zM710.5 142q98.5 87 147 217.5t48.5 258.5q0 113 -39 193t-109.5 122t-164.5 42
q-143 0 -242 -87t-147.5 -217.5t-48.5 -258.5q0 -112 39 -192.5t110.5 -122.5t165.5 -42q142 0 240.5 87zM843 1157q-8 -13 -22 -7l-386 179q-10 4 -10 13q0 5 3 9l26 53q4 9 13 9q4 0 9 -3l373 -202q9 -4 9 -14q0 -6 -2 -9z" />
    <glyph glyph-name="oacute" unicode="&#xf3;" horiz-adv-x="1061" 
d="M254 32.5q-93 51.5 -145 150t-52 235.5q0 149 61.5 295t183.5 241t293 95q121 0 213.5 -51t144.5 -149t52 -233q0 -151 -61.5 -297.5t-183 -242t-292.5 -95.5q-121 0 -214 51.5zM710.5 142q98.5 87 147 217.5t48.5 258.5q0 113 -39 193t-109.5 122t-164.5 42
q-143 0 -242 -87t-147.5 -217.5t-48.5 -258.5q0 -112 39 -192.5t110.5 -122.5t165.5 -42q142 0 240.5 87zM523 1151q-6 -2 -8 -2q-11 0 -14 11l-10 29q-1 2 -1 7q0 9 10 15l420 197l8 2q9 0 14 -11l19 -54q2 -6 2 -7q0 -9 -12 -14z" />
    <glyph glyph-name="ocircumflex" unicode="&#xf4;" horiz-adv-x="1061" 
d="M254 32.5q-93 51.5 -145 150t-52 235.5q0 149 61.5 295t183.5 241t293 95q121 0 213.5 -51t144.5 -149t52 -233q0 -151 -61.5 -297.5t-183 -242t-292.5 -95.5q-121 0 -214 51.5zM710.5 142q98.5 87 147 217.5t48.5 258.5q0 113 -39 193t-109.5 122t-164.5 42
q-143 0 -242 -87t-147.5 -217.5t-48.5 -258.5q0 -112 39 -192.5t110.5 -122.5t165.5 -42q142 0 240.5 87zM372 1192q-2 4 -2 7q0 10 11 15l282 130q10 5 21 5h26q12 0 21 -6l224 -129q10 -6 10 -13q0 -4 -3 -9l-15 -26q-5 -10 -14 -10l-8 2l-237 105l-282 -107q-6 -2 -7 -2
q-10 0 -15 11z" />
    <glyph glyph-name="otilde" unicode="&#xf5;" horiz-adv-x="1061" 
d="M254 32.5q-93 51.5 -145 150t-52 235.5q0 149 61.5 295t183.5 241t293 95q121 0 213.5 -51t144.5 -149t52 -233q0 -151 -61.5 -297.5t-183 -242t-292.5 -95.5q-121 0 -214 51.5zM710.5 142q98.5 87 147 217.5t48.5 258.5q0 113 -39 193t-109.5 122t-164.5 42
q-143 0 -242 -87t-147.5 -217.5t-48.5 -258.5q0 -112 39 -192.5t110.5 -122.5t165.5 -42q142 0 240.5 87zM724.5 1187.5q-27.5 22.5 -59.5 65.5q-25 34 -43.5 50t-43.5 16q-36 0 -55.5 -31t-33.5 -95q-4 -14 -19 -14h-33q-8 0 -12 5t-3 13q22 91 60 141.5t102 50.5
q45 0 74 -23t62 -67q26 -34 42.5 -49t39.5 -15q39 0 58.5 31t34.5 94q5 15 19 15h33q8 0 12 -6.5t2 -16.5q-21 -90 -59.5 -138.5t-104.5 -48.5q-45 0 -72.5 22.5z" />
    <glyph glyph-name="odieresis" unicode="&#xf6;" horiz-adv-x="1061" 
d="M254 32.5q-93 51.5 -145 150t-52 235.5q0 149 61.5 295t183.5 241t293 95q121 0 213.5 -51t144.5 -149t52 -233q0 -151 -61.5 -297.5t-183 -242t-292.5 -95.5q-121 0 -214 51.5zM710.5 142q98.5 87 147 217.5t48.5 258.5q0 113 -39 193t-109.5 122t-164.5 42
q-143 0 -242 -87t-147.5 -217.5t-48.5 -258.5q0 -112 39 -192.5t110.5 -122.5t165.5 -42q142 0 240.5 87zM512 1180q-9 0 -13 5t-2 14l25 104q3 15 19 15h72q9 0 13 -5t2 -14l-25 -104q-1 -7 -6.5 -11t-12.5 -4h-72zM761 1180q-8 0 -12 5t-2 14l25 104q2 7 6.5 11t11.5 4h73
q8 0 12 -5t2 -14l-25 -104q-3 -15 -18 -15h-73z" />
    <glyph glyph-name="divide" unicode="&#xf7;" horiz-adv-x="947" 
d="M551 1033q-9 0 -13 5t-2 14l25 108q1 7 6 11t12 4h92q8 0 12 -5t3 -14l-25 -108q-3 -15 -18 -15h-92zM87 646q-9 0 -13 5t-2 14l12 52q3 15 19 15h838q9 0 13 -5t2 -14l-12 -52q-3 -15 -18 -15h-839zM358 206q-9 0 -13 5t-2 14l25 108q1 7 6 11t12 4h92q8 0 12 -5t3 -14
l-25 -108q-3 -15 -18 -15h-92z" />
    <glyph glyph-name="oslash" unicode="&#xf8;" horiz-adv-x="1060" 
d="M293.5 14.5q-78.5 33.5 -132.5 97.5l-162 -151q-5 -5 -11 -5t-12 6l-25 30q-4 5 -4 10q0 7 6 13l164 154q-60 102 -60 249q0 149 61.5 295t183.5 241t293 95q95 0 173.5 -33t131.5 -96l159 149q7 5 12 5q7 0 11 -6l25 -30q4 -5 4 -11t-6 -12l-160 -151q60 -106 60 -248
q0 -151 -61.5 -297.5t-183 -242t-292.5 -95.5q-96 0 -174.5 33.5zM351 888q-99 -87 -147.5 -217.5t-48.5 -258.5q0 -102 35 -175l649 621q-41 57 -104 87t-142 30q-143 0 -242 -87zM710.5 142q98.5 87 147 217.5t48.5 258.5q0 104 -35 177l-650 -621q41 -58 105 -88.5
t144 -30.5q142 0 240.5 87z" />
    <glyph glyph-name="ugrave" unicode="&#xf9;" horiz-adv-x="1000" 
d="M988 1030q8 0 12 -5t2 -14l-104 -431l-126 -565q-1 -7 -6.5 -11t-12.5 -4h-66q-8 0 -12 5t-2 14l49 196q-37 -66 -94 -120t-129.5 -86.5t-151.5 -32.5q-83 0 -147.5 34t-101 100.5t-36.5 159.5q0 57 15 126l45 193l95 426q1 7 6.5 11t12.5 4h69q8 0 12 -5t2 -14
l-100 -417l-42 -187q-16 -68 -16 -125q0 -112 57.5 -168.5t157.5 -56.5q114 0 207.5 80.5t167.5 222.5l55 234l94 421q2 7 6.5 11t11.5 4h70zM823 1157q-8 -13 -22 -7l-386 179q-10 4 -10 13q0 5 3 9l26 53q4 9 13 9q4 0 9 -3l373 -202q9 -4 9 -14q0 -6 -2 -9z" />
    <glyph glyph-name="uacute" unicode="&#xfa;" horiz-adv-x="1000" 
d="M988 1030q8 0 12 -5t2 -14l-104 -431l-126 -565q-1 -7 -6.5 -11t-12.5 -4h-66q-8 0 -12 5t-2 14l49 196q-37 -66 -94 -120t-129.5 -86.5t-151.5 -32.5q-83 0 -147.5 34t-101 100.5t-36.5 159.5q0 57 15 126l45 193l95 426q1 7 6.5 11t12.5 4h69q8 0 12 -5t2 -14
l-100 -417l-42 -187q-16 -68 -16 -125q0 -112 57.5 -168.5t157.5 -56.5q114 0 207.5 80.5t167.5 222.5l55 234l94 421q2 7 6.5 11t11.5 4h70zM503 1151q-6 -2 -8 -2q-11 0 -14 11l-10 29q-1 2 -1 7q0 9 10 15l420 197l8 2q9 0 14 -11l19 -54q2 -6 2 -7q0 -9 -12 -14z" />
    <glyph glyph-name="ucircumflex" unicode="&#xfb;" horiz-adv-x="1000" 
d="M988 1030q8 0 12 -5t2 -14l-104 -431l-126 -565q-1 -7 -6.5 -11t-12.5 -4h-66q-8 0 -12 5t-2 14l49 196q-37 -66 -94 -120t-129.5 -86.5t-151.5 -32.5q-83 0 -147.5 34t-101 100.5t-36.5 159.5q0 57 15 126l45 193l95 426q1 7 6.5 11t12.5 4h69q8 0 12 -5t2 -14
l-100 -417l-42 -187q-16 -68 -16 -125q0 -112 57.5 -168.5t157.5 -56.5q114 0 207.5 80.5t167.5 222.5l55 234l94 421q2 7 6.5 11t11.5 4h70zM352 1192q-2 4 -2 7q0 10 11 15l282 130q10 5 21 5h26q12 0 21 -6l224 -129q10 -6 10 -13q0 -4 -3 -9l-15 -26q-5 -10 -14 -10
l-8 2l-237 105l-282 -107q-6 -2 -7 -2q-10 0 -15 11z" />
    <glyph glyph-name="udieresis" unicode="&#xfc;" horiz-adv-x="1000" 
d="M988 1030q8 0 12 -5t2 -14l-104 -431l-126 -565q-1 -7 -6.5 -11t-12.5 -4h-66q-8 0 -12 5t-2 14l49 196q-37 -66 -94 -120t-129.5 -86.5t-151.5 -32.5q-83 0 -147.5 34t-101 100.5t-36.5 159.5q0 57 15 126l45 193l95 426q1 7 6.5 11t12.5 4h69q8 0 12 -5t2 -14
l-100 -417l-42 -187q-16 -68 -16 -125q0 -112 57.5 -168.5t157.5 -56.5q114 0 207.5 80.5t167.5 222.5l55 234l94 421q2 7 6.5 11t11.5 4h70zM491 1180q-9 0 -13 5t-2 14l25 104q3 15 19 15h72q9 0 13 -5t2 -14l-25 -104q-1 -7 -6.5 -11t-12.5 -4h-72zM740 1180q-8 0 -12 5
t-2 14l25 104q2 7 6.5 11t11.5 4h73q8 0 12 -5t2 -14l-25 -104q-3 -15 -18 -15h-73z" />
    <glyph glyph-name="yacute" unicode="&#xfd;" horiz-adv-x="899" 
d="M125 -340q-7 0 -10.5 3t-3.5 8q0 4 3 9l191 324l-168 1008v4q0 14 16 14h68q15 0 18 -15l138 -888l511 892q6 11 19 11h72q7 0 11 -3t4 -8q0 -4 -3 -9l-778 -1339q-8 -11 -20 -11h-68zM454 1151q-6 -2 -8 -2q-11 0 -14 11l-10 29q-1 2 -1 7q0 9 10 15l420 197l8 2
q9 0 14 -11l19 -54q2 -6 2 -7q0 -9 -12 -14z" />
    <glyph glyph-name="thorn" unicode="&#xfe;" horiz-adv-x="1026" 
d="M815.5 995.5q77.5 -49.5 118.5 -139.5t41 -210q0 -141 -56 -294t-172.5 -259t-287.5 -106q-126 0 -206.5 62t-107.5 179l-124 -553q-3 -15 -18 -15h-70q-17 0 -14 19l194 823l200 883q3 15 18 15h66q9 0 13 -5t2 -14l-130 -534q65 92 152.5 145t196.5 53
q107 0 184.5 -49.5zM695 157q96 97 139 233t43 256q0 150 -70 238.5t-197 88.5q-132 0 -229 -93.5t-147.5 -233t-50.5 -271.5q0 -156 70.5 -235.5t197.5 -79.5q148 0 244 97z" />
    <glyph glyph-name="ydieresis" unicode="&#xff;" horiz-adv-x="899" 
d="M125 -340q-7 0 -10.5 3t-3.5 8q0 4 3 9l191 324l-168 1008v4q0 14 16 14h68q15 0 18 -15l138 -888l511 892q6 11 19 11h72q7 0 11 -3t4 -8q0 -4 -3 -9l-778 -1339q-8 -11 -20 -11h-68zM442 1180q-9 0 -13 5t-2 14l25 104q3 15 19 15h72q9 0 13 -5t2 -14l-25 -104
q-1 -7 -6.5 -11t-12.5 -4h-72zM691 1180q-8 0 -12 5t-2 14l25 104q2 7 6.5 11t11.5 4h73q8 0 12 -5t2 -14l-25 -104q-3 -15 -18 -15h-73z" />
    <glyph glyph-name="Amacron" unicode="&#x100;" horiz-adv-x="1192" 
d="M1051 18v-4q0 -14 -15 -14h-67q-17 0 -18 16l-58 455h-601l-271 -460q-8 -11 -20 -11h-77q-7 0 -11 3t-4 8t3 9l819 1369q7 11 20 11h99q17 0 18 -16zM883 556l-96 761l-447 -761h543zM596 1581q-8 0 -12 5t-3 14l11 46q3 14 19 14h504q9 0 13 -4.5t2 -13.5l-11 -46
q-3 -15 -18 -15h-505z" />
    <glyph glyph-name="amacron" unicode="&#x101;" horiz-adv-x="1030" 
d="M1018 1030q8 0 12 -5t2 -14l-115 -478l-115 -518q-3 -15 -18 -15h-65q-9 0 -13 5t-2 14l42 168q-64 -93 -152.5 -146.5t-199.5 -53.5q-107 0 -184.5 49.5t-118 139.5t-40.5 210q0 141 56 294t172.5 259t287.5 106q130 0 211.5 -67t105.5 -193l49 230q3 15 18 15h67z
M645 152.5q97 93.5 147.5 233t50.5 271.5q0 156 -71 235t-198 79q-148 0 -243.5 -97t-138.5 -233t-43 -256q0 -149 70 -237.5t197 -88.5q132 0 229 93.5zM404 1211q-8 0 -12 5t-3 14l11 46q3 14 19 14h504q9 0 13 -4.5t2 -13.5l-11 -46q-3 -15 -18 -15h-505z" />
    <glyph glyph-name="Abreve" unicode="&#x102;" horiz-adv-x="1192" 
d="M1051 18v-4q0 -14 -15 -14h-67q-17 0 -18 16l-58 455h-601l-271 -460q-8 -11 -20 -11h-77q-7 0 -11 3t-4 8t3 9l819 1369q7 11 20 11h99q17 0 18 -16zM883 556l-96 761l-447 -761h543zM740 1544.5q-47 24.5 -71.5 68t-24.5 97.5q0 16 1 24q1 16 18 16h41q16 0 15 -18
q-1 -6 -1 -18q0 -54 36 -87.5t101 -33.5q68 0 116.5 39t65.5 103q4 15 19 15h44q18 0 15 -18q-22 -95 -93.5 -153.5t-170.5 -58.5q-64 0 -111 24.5z" />
    <glyph glyph-name="abreve" unicode="&#x103;" horiz-adv-x="1030" 
d="M1018 1030q8 0 12 -5t2 -14l-115 -478l-115 -518q-3 -15 -18 -15h-65q-9 0 -13 5t-2 14l42 168q-64 -93 -152.5 -146.5t-199.5 -53.5q-107 0 -184.5 49.5t-118 139.5t-40.5 210q0 141 56 294t172.5 259t287.5 106q130 0 211.5 -67t105.5 -193l49 230q3 15 18 15h67z
M645 152.5q97 93.5 147.5 233t50.5 271.5q0 156 -71 235t-198 79q-148 0 -243.5 -97t-138.5 -233t-43 -256q0 -149 70 -237.5t197 -88.5q132 0 229 93.5zM549 1174.5q-47 24.5 -71.5 68t-24.5 97.5q0 16 1 24q1 16 18 16h41q16 0 15 -18q-1 -6 -1 -18q0 -54 36 -87.5
t101 -33.5q68 0 116.5 39t65.5 103q4 15 19 15h44q18 0 15 -18q-22 -95 -93.5 -153.5t-170.5 -58.5q-64 0 -111 24.5z" />
    <glyph glyph-name="Aogonek" unicode="&#x104;" horiz-adv-x="1192" 
d="M1035 -275q8 0 12 -5t2 -14l-9 -43q-3 -15 -19 -15h-65q-92 0 -144 43t-52 111q0 70 54 126.5t137 89.5l-58 453h-601l-271 -460q-8 -11 -20 -11h-77q-7 0 -11 3t-4 8t3 9l819 1369q7 11 20 11h99q17 0 18 -16l183 -1366v-4q0 -14 -15 -14h-23q-66 -23 -114 -72.5
t-48 -108.5q0 -45 32 -69.5t94 -24.5h58zM787 1317l-447 -761h543z" />
    <glyph glyph-name="aogonek" unicode="&#x105;" horiz-adv-x="1030" 
d="M1018 1030q8 0 12 -5t2 -14l-115 -478l-115 -518q-3 -15 -18 -15h-10q-66 -23 -114 -72.5t-48 -108.5q0 -45 32 -69.5t94 -24.5h58q8 0 12 -5t2 -14l-9 -43q-3 -15 -19 -15h-65q-92 0 -144 43t-52 111q0 67 51.5 123t130.5 90l1 4l42 168q-65 -93 -153 -146.5t-199 -53.5
q-107 0 -184.5 49.5t-118 139.5t-40.5 210q0 141 56 294t172.5 259t287.5 106q130 0 211.5 -67t105.5 -193l49 230q3 15 18 15h67zM645 152.5q97 93.5 147.5 233t50.5 271.5q0 156 -71 235t-198 79q-148 0 -243.5 -97t-138.5 -233t-43 -256q0 -149 70 -237.5t197 -88.5
q132 0 229 93.5z" />
    <glyph glyph-name="Cacute" unicode="&#x106;" horiz-adv-x="1336" 
d="M369.5 46.5q-125.5 68.5 -194 202t-68.5 321.5q0 199 80 396t240.5 326.5t388.5 129.5q152 0 269 -60.5t182.5 -171t65.5 -253.5q0 -16 -17 -16h-67q-16 0 -16 16q-4 126 -55.5 216.5t-144.5 138t-219 47.5q-200 0 -335.5 -120.5t-200 -299t-64.5 -350.5
q0 -166 54.5 -279.5t156 -171t241.5 -57.5q383 0 512 430q5 15 19 15h69q14 0 14 -15q0 -6 -1 -9q-77 -256 -235.5 -380t-380.5 -124q-168 0 -293.5 68.5zM753 1521q-6 -2 -8 -2q-11 0 -14 11l-10 29q-1 2 -1 7q0 9 10 15l420 197l8 2q9 0 14 -11l19 -54q2 -6 2 -7
q0 -9 -12 -14z" />
    <glyph glyph-name="cacute" unicode="&#x107;" horiz-adv-x="1006" 
d="M252 31.5q-93 50.5 -144 148.5t-51 238q0 149 59.5 294.5t179 241t290.5 95.5q113 0 200 -44.5t135.5 -125t48.5 -186.5q0 -17 -17 -17h-60q-17 0 -17 17q-4 133 -82.5 207t-210.5 74q-141 0 -238 -87t-143.5 -216t-46.5 -255q0 -176 84.5 -268.5t233.5 -92.5
q273 0 363 303q5 15 19 15h62q14 0 14 -14q0 -2 -2 -10q-58 -188 -174.5 -278t-282.5 -90q-127 0 -220 50.5zM510 1151q-6 -2 -8 -2q-11 0 -14 11l-10 29q-1 2 -1 7q0 9 10 15l420 197l8 2q9 0 14 -11l19 -54q2 -6 2 -7q0 -9 -12 -14z" />
    <glyph glyph-name="Ccircumflex" unicode="&#x108;" horiz-adv-x="1336" 
d="M369.5 46.5q-125.5 68.5 -194 202t-68.5 321.5q0 199 80 396t240.5 326.5t388.5 129.5q152 0 269 -60.5t182.5 -171t65.5 -253.5q0 -16 -17 -16h-67q-16 0 -16 16q-4 126 -55.5 216.5t-144.5 138t-219 47.5q-200 0 -335.5 -120.5t-200 -299t-64.5 -350.5
q0 -166 54.5 -279.5t156 -171t241.5 -57.5q383 0 512 430q5 15 19 15h69q14 0 14 -15q0 -6 -1 -9q-77 -256 -235.5 -380t-380.5 -124q-168 0 -293.5 68.5zM602 1562q-2 4 -2 7q0 10 11 15l282 130q10 5 21 5h26q12 0 21 -6l224 -129q10 -6 10 -13q0 -4 -3 -9l-15 -26
q-5 -10 -14 -10l-8 2l-237 105l-282 -107q-6 -2 -7 -2q-10 0 -15 11z" />
    <glyph glyph-name="ccircumflex" unicode="&#x109;" horiz-adv-x="1006" 
d="M252 31.5q-93 50.5 -144 148.5t-51 238q0 149 59.5 294.5t179 241t290.5 95.5q113 0 200 -44.5t135.5 -125t48.5 -186.5q0 -17 -17 -17h-60q-17 0 -17 17q-4 133 -82.5 207t-210.5 74q-141 0 -238 -87t-143.5 -216t-46.5 -255q0 -176 84.5 -268.5t233.5 -92.5
q273 0 363 303q5 15 19 15h62q14 0 14 -14q0 -2 -2 -10q-58 -188 -174.5 -278t-282.5 -90q-127 0 -220 50.5zM359 1192q-2 4 -2 7q0 10 11 15l282 130q10 5 21 5h26q12 0 21 -6l224 -129q10 -6 10 -13q0 -4 -3 -9l-15 -26q-5 -10 -14 -10l-8 2l-237 105l-282 -107
q-6 -2 -7 -2q-10 0 -15 11z" />
    <glyph glyph-name="Cdotaccent" unicode="&#x10a;" horiz-adv-x="1336" 
d="M369.5 46.5q-125.5 68.5 -194 202t-68.5 321.5q0 199 80 396t240.5 326.5t388.5 129.5q152 0 269 -60.5t182.5 -171t65.5 -253.5q0 -16 -17 -16h-67q-16 0 -16 16q-4 126 -55.5 216.5t-144.5 138t-219 47.5q-200 0 -335.5 -120.5t-200 -299t-64.5 -350.5
q0 -166 54.5 -279.5t156 -171t241.5 -57.5q383 0 512 430q5 15 19 15h69q14 0 14 -15q0 -6 -1 -9q-77 -256 -235.5 -380t-380.5 -124q-168 0 -293.5 68.5zM867 1550q-8 0 -12 5t-3 14l25 104q3 15 19 15h65q8 0 12 -5t3 -14l-25 -104q-3 -15 -19 -15h-65z" />
    <glyph glyph-name="cdotaccent" unicode="&#x10b;" horiz-adv-x="1006" 
d="M252 31.5q-93 50.5 -144 148.5t-51 238q0 149 59.5 294.5t179 241t290.5 95.5q113 0 200 -44.5t135.5 -125t48.5 -186.5q0 -17 -17 -17h-60q-17 0 -17 17q-4 133 -82.5 207t-210.5 74q-141 0 -238 -87t-143.5 -216t-46.5 -255q0 -176 84.5 -268.5t233.5 -92.5
q273 0 363 303q5 15 19 15h62q14 0 14 -14q0 -2 -2 -10q-58 -188 -174.5 -278t-282.5 -90q-127 0 -220 50.5zM625 1180q-8 0 -12 5t-3 14l25 104q3 15 19 15h65q8 0 12 -5t3 -14l-25 -104q-3 -15 -19 -15h-65z" />
    <glyph glyph-name="Ccaron" unicode="&#x10c;" horiz-adv-x="1336" 
d="M369.5 46.5q-125.5 68.5 -194 202t-68.5 321.5q0 199 80 396t240.5 326.5t388.5 129.5q152 0 269 -60.5t182.5 -171t65.5 -253.5q0 -16 -17 -16h-67q-16 0 -16 16q-4 126 -55.5 216.5t-144.5 138t-219 47.5q-200 0 -335.5 -120.5t-200 -299t-64.5 -350.5
q0 -166 54.5 -279.5t156 -171t241.5 -57.5q383 0 512 430q5 15 19 15h69q14 0 14 -15q0 -6 -1 -9q-77 -256 -235.5 -380t-380.5 -124q-168 0 -293.5 68.5zM633 1650q-9 6 -9 13q0 2 2 10l15 25q4 10 13 10q6 0 9 -2l237 -104l283 106q6 2 7 2q9 0 14 -11l12 -26q2 -6 2 -8
q0 -9 -10 -14l-282 -130q-9 -5 -21 -5h-27q-12 0 -21 5z" />
    <glyph glyph-name="ccaron" unicode="&#x10d;" horiz-adv-x="1006" 
d="M252 31.5q-93 50.5 -144 148.5t-51 238q0 149 59.5 294.5t179 241t290.5 95.5q113 0 200 -44.5t135.5 -125t48.5 -186.5q0 -17 -17 -17h-60q-17 0 -17 17q-4 133 -82.5 207t-210.5 74q-141 0 -238 -87t-143.5 -216t-46.5 -255q0 -176 84.5 -268.5t233.5 -92.5
q273 0 363 303q5 15 19 15h62q14 0 14 -14q0 -2 -2 -10q-58 -188 -174.5 -278t-282.5 -90q-127 0 -220 50.5zM391 1280q-9 6 -9 13q0 2 2 10l15 25q4 10 13 10q6 0 9 -2l237 -104l283 106q6 2 7 2q9 0 14 -11l12 -26q2 -6 2 -8q0 -9 -10 -14l-282 -130q-9 -5 -21 -5h-27
q-12 0 -21 5z" />
    <glyph glyph-name="Dcaron" unicode="&#x10e;" horiz-adv-x="1304" 
d="M22 0q-8 0 -12 5t-2 14l171 717l144 649q1 7 6.5 11t12.5 4h355q177 0 310.5 -67t207 -194t73.5 -303q0 -198 -86.5 -391t-259 -319t-417.5 -126h-503zM527 82q216 0 364 117t219.5 291.5t71.5 346.5q0 153 -59.5 261t-168.5 164t-258 56h-278l-139 -581l-147 -655h395z
M548 1650q-9 6 -9 13q0 2 2 10l15 25q4 10 13 10q6 0 9 -2l237 -104l283 106q6 2 7 2q9 0 14 -11l12 -26q2 -6 2 -8q0 -9 -10 -14l-282 -130q-9 -5 -21 -5h-27q-12 0 -21 5z" />
    <glyph glyph-name="dcaron" unicode="&#x10f;" horiz-adv-x="1031" 
d="M1101 1400q18 0 15 -19l-195 -828l-119 -538q-1 -7 -6.5 -11t-12.5 -4h-64q-8 0 -12 5t-3 14l43 169q-65 -93 -153.5 -147t-199.5 -54q-107 0 -184.5 49.5t-118.5 140t-41 209.5q0 141 56 294t173 259t288 106q130 0 211.5 -67t105.5 -193l131 600q3 15 18 15h68z
M644 152.5q97 93.5 148 233t51 271.5q0 156 -71 235t-198 79q-148 0 -243.5 -97t-138.5 -233t-43 -256q0 -149 70 -237.5t197 -88.5q131 0 228 93.5zM1193 1127q-9 -12 -19 -12h-40q-15 0 -15 11q0 5 3 9l162 336q5 12 20 12h60q15 0 15 -11q0 -4 -3 -9z" />
    <glyph glyph-name="Dcroat" unicode="&#x110;" horiz-adv-x="1314" 
d="M708 1400q177 0 310.5 -67t207 -194t73.5 -303q0 -198 -86.5 -391t-259.5 -319t-418 -126h-503q-8 0 -12 5t-2 14l166 695h-135q-9 0 -13 5t-2 13l11 49q4 14 19 14h138l132 590q3 15 18 15h356zM537 82q216 0 364 117t219.5 291.5t71.5 346.5q0 153 -59.5 261
t-168.5 164t-258 56h-278l-125 -523h404q9 0 12.5 -4.5t1.5 -13.5l-11 -48q-4 -15 -19 -15h-407l-142 -632h395z" />
    <glyph glyph-name="dcroat" unicode="&#x111;" horiz-adv-x="1037" 
d="M1192 1237q17 0 14 -19l-10 -42q-2 -7 -6.5 -11t-11.5 -4h-113l-142 -608l-120 -538q-3 -15 -18 -15h-64q-9 0 -13 5t-2 14l43 171q-65 -94 -153.5 -148.5t-199.5 -54.5q-108 0 -186 49t-119 138t-41 208q0 142 56 296t172.5 260.5t286.5 106.5q132 0 214 -68.5
t105 -197.5l84 382h-325q-18 0 -15 19l10 42q2 7 6.5 11t11.5 4h328l32 148q3 15 18 15h69q8 0 12 -5t2 -14l-33 -144h108zM644.5 152q96.5 93 147.5 232t51 269q0 158 -71 238t-199 80q-147 0 -242.5 -98t-138.5 -234.5t-43 -256.5q0 -148 70 -235.5t198 -87.5
q131 0 227.5 93z" />
    <glyph glyph-name="Emacron" unicode="&#x112;" horiz-adv-x="1027" 
d="M22 0q-8 0 -12 5t-2 14l173 723l142 643q1 7 6.5 11t12.5 4h778q9 0 13 -5t2 -14l-12 -48q-3 -15 -18 -15h-691l-125 -524h650q8 0 12.5 -5t2.5 -13l-12 -49q-3 -14 -18 -14h-655l-141 -631h703q8 0 12 -5t3 -14l-11 -48q-2 -7 -6.5 -11t-11.5 -4h-795zM534 1581
q-8 0 -12 5t-3 14l11 46q3 14 19 14h504q9 0 13 -4.5t2 -13.5l-11 -46q-3 -15 -18 -15h-505z" />
    <glyph glyph-name="emacron" unicode="&#x113;" horiz-adv-x="1032" 
d="M792.5 1002q88.5 -47 137 -135.5t48.5 -208.5q0 -58 -12 -123q-3 -15 -18 -15h-786q-8 -49 -8 -108q0 -173 85.5 -265t235.5 -92q274 0 362 298q6 15 20 15h61q14 0 14 -15q0 -6 -1 -9q-58 -185 -174.5 -274t-282.5 -89q-127 0 -220.5 50.5t-145 148.5t-51.5 236
q0 150 59.5 296.5t179.5 241.5t291 95q117 0 205.5 -47zM876 595q7 39 7 82q0 88 -36 155.5t-103.5 105t-159.5 37.5q-110 0 -193.5 -52.5t-136.5 -138.5t-78 -189h700zM417 1211q-8 0 -12 5t-3 14l11 46q3 14 19 14h504q9 0 13 -4.5t2 -13.5l-11 -46q-3 -15 -18 -15h-505z
" />
    <glyph glyph-name="Ebreve" unicode="&#x114;" horiz-adv-x="1027" 
d="M22 0q-8 0 -12 5t-2 14l173 723l142 643q1 7 6.5 11t12.5 4h778q9 0 13 -5t2 -14l-12 -48q-3 -15 -18 -15h-691l-125 -524h650q8 0 12.5 -5t2.5 -13l-12 -49q-3 -14 -18 -14h-655l-141 -631h703q8 0 12 -5t3 -14l-11 -48q-2 -7 -6.5 -11t-11.5 -4h-795zM679 1544.5
q-47 24.5 -71.5 68t-24.5 97.5q0 16 1 24q1 16 18 16h41q16 0 15 -18q-1 -6 -1 -18q0 -54 36 -87.5t101 -33.5q68 0 116.5 39t65.5 103q4 15 19 15h44q18 0 15 -18q-22 -95 -93.5 -153.5t-170.5 -58.5q-64 0 -111 24.5z" />
    <glyph glyph-name="ebreve" unicode="&#x115;" horiz-adv-x="1032" 
d="M792.5 1002q88.5 -47 137 -135.5t48.5 -208.5q0 -58 -12 -123q-3 -15 -18 -15h-786q-8 -49 -8 -108q0 -173 85.5 -265t235.5 -92q274 0 362 298q6 15 20 15h61q14 0 14 -15q0 -6 -1 -9q-58 -185 -174.5 -274t-282.5 -89q-127 0 -220.5 50.5t-145 148.5t-51.5 236
q0 150 59.5 296.5t179.5 241.5t291 95q117 0 205.5 -47zM876 595q7 39 7 82q0 88 -36 155.5t-103.5 105t-159.5 37.5q-110 0 -193.5 -52.5t-136.5 -138.5t-78 -189h700zM562 1174.5q-47 24.5 -71.5 68t-24.5 97.5q0 16 1 24q1 16 18 16h41q16 0 15 -18q-1 -6 -1 -18
q0 -54 36 -87.5t101 -33.5q68 0 116.5 39t65.5 103q4 15 19 15h44q18 0 15 -18q-22 -95 -93.5 -153.5t-170.5 -58.5q-64 0 -111 24.5z" />
    <glyph glyph-name="Edotaccent" unicode="&#x116;" horiz-adv-x="1027" 
d="M22 0q-8 0 -12 5t-2 14l173 723l142 643q1 7 6.5 11t12.5 4h778q9 0 13 -5t2 -14l-12 -48q-3 -15 -18 -15h-691l-125 -524h650q8 0 12.5 -5t2.5 -13l-12 -49q-3 -14 -18 -14h-655l-141 -631h703q8 0 12 -5t3 -14l-11 -48q-2 -7 -6.5 -11t-11.5 -4h-795zM744 1550
q-8 0 -12 5t-3 14l25 104q3 15 19 15h65q8 0 12 -5t3 -14l-25 -104q-3 -15 -19 -15h-65z" />
    <glyph glyph-name="edotaccent" unicode="&#x117;" horiz-adv-x="1032" 
d="M792.5 1002q88.5 -47 137 -135.5t48.5 -208.5q0 -58 -12 -123q-3 -15 -18 -15h-786q-8 -49 -8 -108q0 -173 85.5 -265t235.5 -92q274 0 362 298q6 15 20 15h61q14 0 14 -15q0 -6 -1 -9q-58 -185 -174.5 -274t-282.5 -89q-127 0 -220.5 50.5t-145 148.5t-51.5 236
q0 150 59.5 296.5t179.5 241.5t291 95q117 0 205.5 -47zM876 595q7 39 7 82q0 88 -36 155.5t-103.5 105t-159.5 37.5q-110 0 -193.5 -52.5t-136.5 -138.5t-78 -189h700zM627 1180q-8 0 -12 5t-3 14l25 104q3 15 19 15h65q8 0 12 -5t3 -14l-25 -104q-3 -15 -19 -15h-65z" />
    <glyph glyph-name="Eogonek" unicode="&#x118;" horiz-adv-x="1027" 
d="M1120 1400q9 0 13 -5t2 -14l-12 -48q-3 -15 -18 -15h-691l-125 -524h650q8 0 12.5 -5t2.5 -13l-12 -49q-3 -14 -18 -14h-655l-141 -631h703q8 0 12 -5t3 -14l-11 -48q-2 -7 -6.5 -11t-11.5 -4h-90q-66 -23 -114 -72.5t-48 -108.5q0 -45 32 -69.5t94 -24.5h58q8 0 12 -5
t2 -14l-9 -43q-3 -15 -19 -15h-65q-92 0 -144 43t-52 111q0 60 41.5 111.5t109.5 86.5h-603q-8 0 -12 5t-2 14l173 723l142 643q1 7 6.5 11t12.5 4h778z" />
    <glyph glyph-name="eogonek" unicode="&#x119;" horiz-adv-x="1032" 
d="M792.5 1002q88.5 -47 137 -135.5t48.5 -208.5q0 -58 -12 -123q-3 -15 -18 -15h-786q-8 -49 -8 -108q0 -173 85.5 -265t235.5 -92q274 0 362 298q6 15 20 15h61q14 0 14 -15q0 -6 -1 -9q-51 -161 -146 -249.5t-229 -107.5q-55 -27 -92.5 -71.5t-37.5 -96.5q0 -45 32 -69.5
t94 -24.5h58q8 0 12 -5t2 -14l-9 -43q-3 -15 -19 -15h-65q-92 0 -144 43t-52 111q0 53 32 99t87 80q-121 4 -210.5 56t-138 148.5t-48.5 230.5q0 150 59.5 296.5t179.5 241.5t291 95q117 0 205.5 -47zM876 595q7 39 7 82q0 88 -36 155.5t-103.5 105t-159.5 37.5
q-110 0 -193.5 -52.5t-136.5 -138.5t-78 -189h700z" />
    <glyph glyph-name="Ecaron" unicode="&#x11a;" horiz-adv-x="1027" 
d="M22 0q-8 0 -12 5t-2 14l173 723l142 643q1 7 6.5 11t12.5 4h778q9 0 13 -5t2 -14l-12 -48q-3 -15 -18 -15h-691l-125 -524h650q8 0 12.5 -5t2.5 -13l-12 -49q-3 -14 -18 -14h-655l-141 -631h703q8 0 12 -5t3 -14l-11 -48q-2 -7 -6.5 -11t-11.5 -4h-795zM510 1650
q-9 6 -9 13q0 2 2 10l15 25q4 10 13 10q6 0 9 -2l237 -104l283 106q6 2 7 2q9 0 14 -11l12 -26q2 -6 2 -8q0 -9 -10 -14l-282 -130q-9 -5 -21 -5h-27q-12 0 -21 5z" />
    <glyph glyph-name="ecaron" unicode="&#x11b;" horiz-adv-x="1032" 
d="M792.5 1002q88.5 -47 137 -135.5t48.5 -208.5q0 -58 -12 -123q-3 -15 -18 -15h-786q-8 -49 -8 -108q0 -173 85.5 -265t235.5 -92q274 0 362 298q6 15 20 15h61q14 0 14 -15q0 -6 -1 -9q-58 -185 -174.5 -274t-282.5 -89q-127 0 -220.5 50.5t-145 148.5t-51.5 236
q0 150 59.5 296.5t179.5 241.5t291 95q117 0 205.5 -47zM876 595q7 39 7 82q0 88 -36 155.5t-103.5 105t-159.5 37.5q-110 0 -193.5 -52.5t-136.5 -138.5t-78 -189h700zM393 1280q-9 6 -9 13q0 2 2 10l15 25q4 10 13 10q6 0 9 -2l237 -104l283 106q6 2 7 2q9 0 14 -11
l12 -26q2 -6 2 -8q0 -9 -10 -14l-282 -130q-9 -5 -21 -5h-27q-12 0 -21 5z" />
    <glyph glyph-name="Gcircumflex" unicode="&#x11c;" horiz-adv-x="1341" 
d="M341 52.5q-119 74.5 -179.5 207t-60.5 307.5q0 215 86 412t248 320t378 123q143 0 257 -56t181.5 -157.5t75.5 -232.5v-2q0 -7 -4.5 -10.5t-11.5 -3.5h-68q-15 0 -17 15q-11 112 -64 194t-142 126t-206 44q-190 0 -327.5 -112t-208 -290t-70.5 -370q0 -160 50.5 -273.5
t146 -173t228.5 -59.5q145 0 261 69.5t192 195.5t106 293h-475q-8 0 -12 5t-3 13l12 49q3 15 18 15h563q8 0 12.5 -6.5t2.5 -16.5q-37 -219 -130 -376.5t-233.5 -240.5t-316.5 -83q-170 0 -289 74.5zM603 1562q-2 4 -2 7q0 10 11 15l282 130q10 5 21 5h26q12 0 21 -6
l224 -129q10 -6 10 -13q0 -4 -3 -9l-15 -26q-5 -10 -14 -10l-8 2l-237 105l-282 -107q-6 -2 -7 -2q-10 0 -15 11z" />
    <glyph glyph-name="gcircumflex" unicode="&#x11d;" horiz-adv-x="1025" 
d="M1018 1030q8 0 12 -5t3 -14l-122 -515l-89 -390q-58 -252 -178.5 -372t-323.5 -120q-104 0 -189.5 37t-135 107.5t-46.5 167.5q0 8 4.5 12.5t12.5 4.5h67q16 0 16 -22q0 -73 35.5 -125t98 -78.5t142.5 -26.5q110 0 187 44t128.5 135.5t85.5 236.5l18 77
q-66 -90 -153 -141.5t-195 -51.5q-107 0 -185 49t-119 138.5t-41 208.5q0 141 56 294t172.5 258.5t287.5 105.5q130 0 211.5 -66t106.5 -190l48 226q3 15 19 15h66zM645.5 156q96.5 93 147 232t50.5 271q0 155 -70.5 233.5t-198.5 78.5q-147 0 -242.5 -97t-138.5 -232.5
t-43 -254.5q0 -148 70 -236t197 -88q132 0 228.5 93zM350 1192q-2 4 -2 7q0 10 11 15l282 130q10 5 21 5h26q12 0 21 -6l224 -129q10 -6 10 -13q0 -4 -3 -9l-15 -26q-5 -10 -14 -10l-8 2l-237 105l-282 -107q-6 -2 -7 -2q-10 0 -15 11z" />
    <glyph glyph-name="Gbreve" unicode="&#x11e;" horiz-adv-x="1341" 
d="M341 52.5q-119 74.5 -179.5 207t-60.5 307.5q0 215 86 412t248 320t378 123q143 0 257 -56t181.5 -157.5t75.5 -232.5v-2q0 -7 -4.5 -10.5t-11.5 -3.5h-68q-15 0 -17 15q-11 112 -64 194t-142 126t-206 44q-190 0 -327.5 -112t-208 -290t-70.5 -370q0 -160 50.5 -273.5
t146 -173t228.5 -59.5q145 0 261 69.5t192 195.5t106 293h-475q-8 0 -12 5t-3 13l12 49q3 15 18 15h563q8 0 12.5 -6.5t2.5 -16.5q-37 -219 -130 -376.5t-233.5 -240.5t-316.5 -83q-170 0 -289 74.5zM803 1544.5q-47 24.5 -71.5 68t-24.5 97.5q0 16 1 24q1 16 18 16h41
q16 0 15 -18q-1 -6 -1 -18q0 -54 36 -87.5t101 -33.5q68 0 116.5 39t65.5 103q4 15 19 15h44q18 0 15 -18q-22 -95 -93.5 -153.5t-170.5 -58.5q-64 0 -111 24.5z" />
    <glyph glyph-name="gbreve" unicode="&#x11f;" horiz-adv-x="1025" 
d="M1018 1030q8 0 12 -5t3 -14l-122 -515l-89 -390q-58 -252 -178.5 -372t-323.5 -120q-104 0 -189.5 37t-135 107.5t-46.5 167.5q0 8 4.5 12.5t12.5 4.5h67q16 0 16 -22q0 -73 35.5 -125t98 -78.5t142.5 -26.5q110 0 187 44t128.5 135.5t85.5 236.5l18 77
q-66 -90 -153 -141.5t-195 -51.5q-107 0 -185 49t-119 138.5t-41 208.5q0 141 56 294t172.5 258.5t287.5 105.5q130 0 211.5 -66t106.5 -190l48 226q3 15 19 15h66zM645.5 156q96.5 93 147 232t50.5 271q0 155 -70.5 233.5t-198.5 78.5q-147 0 -242.5 -97t-138.5 -232.5
t-43 -254.5q0 -148 70 -236t197 -88q132 0 228.5 93zM550 1174.5q-47 24.5 -71.5 68t-24.5 97.5q0 16 1 24q1 16 18 16h41q16 0 15 -18q-1 -6 -1 -18q0 -54 36 -87.5t101 -33.5q68 0 116.5 39t65.5 103q4 15 19 15h44q18 0 15 -18q-22 -95 -93.5 -153.5t-170.5 -58.5
q-64 0 -111 24.5z" />
    <glyph glyph-name="Gdotaccent" unicode="&#x120;" horiz-adv-x="1341" 
d="M341 52.5q-119 74.5 -179.5 207t-60.5 307.5q0 215 86 412t248 320t378 123q143 0 257 -56t181.5 -157.5t75.5 -232.5v-2q0 -7 -4.5 -10.5t-11.5 -3.5h-68q-15 0 -17 15q-11 112 -64 194t-142 126t-206 44q-190 0 -327.5 -112t-208 -290t-70.5 -370q0 -160 50.5 -273.5
t146 -173t228.5 -59.5q145 0 261 69.5t192 195.5t106 293h-475q-8 0 -12 5t-3 13l12 49q3 15 18 15h563q8 0 12.5 -6.5t2.5 -16.5q-37 -219 -130 -376.5t-233.5 -240.5t-316.5 -83q-170 0 -289 74.5zM868 1550q-8 0 -12 5t-3 14l25 104q3 15 19 15h65q8 0 12 -5t3 -14
l-25 -104q-3 -15 -19 -15h-65z" />
    <glyph glyph-name="gdotaccent" unicode="&#x121;" horiz-adv-x="1025" 
d="M1018 1030q8 0 12 -5t3 -14l-122 -515l-89 -390q-58 -252 -178.5 -372t-323.5 -120q-104 0 -189.5 37t-135 107.5t-46.5 167.5q0 8 4.5 12.5t12.5 4.5h67q16 0 16 -22q0 -73 35.5 -125t98 -78.5t142.5 -26.5q110 0 187 44t128.5 135.5t85.5 236.5l18 77
q-66 -90 -153 -141.5t-195 -51.5q-107 0 -185 49t-119 138.5t-41 208.5q0 141 56 294t172.5 258.5t287.5 105.5q130 0 211.5 -66t106.5 -190l48 226q3 15 19 15h66zM645.5 156q96.5 93 147 232t50.5 271q0 155 -70.5 233.5t-198.5 78.5q-147 0 -242.5 -97t-138.5 -232.5
t-43 -254.5q0 -148 70 -236t197 -88q132 0 228.5 93zM615 1180q-8 0 -12 5t-3 14l25 104q3 15 19 15h65q8 0 12 -5t3 -14l-25 -104q-3 -15 -19 -15h-65z" />
    <glyph glyph-name="uni0122" unicode="&#x122;" horiz-adv-x="1341" 
d="M341 52.5q-119 74.5 -179.5 207t-60.5 307.5q0 215 86 412t248 320t378 123q143 0 257 -56t181.5 -157.5t75.5 -232.5v-2q0 -7 -4.5 -10.5t-11.5 -3.5h-68q-15 0 -17 15q-11 112 -64 194t-142 126t-206 44q-190 0 -327.5 -112t-208 -290t-70.5 -370q0 -160 50.5 -273.5
t146 -173t228.5 -59.5q145 0 261 69.5t192 195.5t106 293h-475q-8 0 -12 5t-3 13l12 49q3 15 18 15h563q8 0 12.5 -6.5t2.5 -16.5q-37 -219 -130 -376.5t-233.5 -240.5t-316.5 -83q-170 0 -289 74.5zM431 -389q-11 0 -11 9q0 4 3 10l68 138l27 117q3 15 18 15h77
q8 0 12 -4.5t2 -13.5l-23 -103q-3 -12 -9 -19l-119 -140q-8 -9 -20 -9h-25z" />
    <glyph glyph-name="uni0123" unicode="&#x123;" horiz-adv-x="1025" 
d="M1018 1030q8 0 12 -5t3 -14l-122 -515l-89 -390q-58 -252 -178.5 -372t-323.5 -120q-104 0 -189.5 37t-135 107.5t-46.5 167.5q0 8 4.5 12.5t12.5 4.5h67q16 0 16 -22q0 -73 35.5 -125t98 -78.5t142.5 -26.5q110 0 187 44t128.5 135.5t85.5 236.5l18 77
q-66 -90 -153 -141.5t-195 -51.5q-107 0 -185 49t-119 138.5t-41 208.5q0 141 56 294t172.5 258.5t287.5 105.5q130 0 211.5 -66t106.5 -190l48 226q3 15 19 15h66zM645.5 156q96.5 93 147 232t50.5 271q0 155 -70.5 233.5t-198.5 78.5q-147 0 -242.5 -97t-138.5 -232.5
t-43 -254.5q0 -148 70 -236t197 -88q132 0 228.5 93zM612 1177q-8 0 -12 5t-3 14l24 103q1 10 9 18l119 140q8 10 20 10h28q15 0 15 -12q0 -6 -2 -9l-77 -137l-26 -117q-3 -15 -19 -15h-76z" />
    <glyph glyph-name="Hcircumflex" unicode="&#x124;" horiz-adv-x="1290" 
d="M1354 1400q8 0 12 -5t3 -14l-167 -695l-149 -671q-1 -7 -6.5 -11t-12.5 -4h-74q-17 0 -14 19l157 657l9 38h-842l-8 -38l-148 -661q-3 -15 -18 -15h-74q-8 0 -12 5t-2 14l159 667l156 699q1 7 6.5 11t12.5 4h74q8 0 12 -5t2 -14l-140 -586h841l131 590q3 15 19 15h73z
M587 1562q-2 4 -2 7q0 10 11 15l282 130q10 5 21 5h26q12 0 21 -6l224 -129q10 -6 10 -13q0 -4 -3 -9l-15 -26q-5 -10 -14 -10l-8 2l-237 105l-282 -107q-6 -2 -7 -2q-10 0 -15 11z" />
    <glyph glyph-name="hcircumflex" unicode="&#x125;" horiz-adv-x="1003" 
d="M13 0q-8 0 -12 5t-2 14l104 431l210 935q3 15 18 15h68q18 0 15 -19l-135 -566q37 66 94 120t129.5 86.5t151.5 32.5q83 0 147.5 -34t100.5 -100t36 -159q0 -58 -15 -127l-44 -193l-95 -426q-1 -7 -6.5 -11t-12.5 -4h-69q-8 0 -12 5t-2 14l99 417l43 187q16 68 16 125
q0 112 -57.5 168.5t-157.5 56.5q-114 0 -207.5 -80.5t-167.5 -222.5l-55 -234l-94 -421q-2 -7 -6.5 -11t-11.5 -4h-70zM106 1562q-2 4 -2 7q0 10 11 15l282 130q10 5 21 5h26q12 0 21 -6l224 -129q10 -6 10 -13q0 -4 -3 -9l-15 -26q-5 -10 -14 -10l-8 2l-237 105l-282 -107
q-6 -2 -7 -2q-10 0 -15 11z" />
    <glyph glyph-name="Hbar" unicode="&#x126;" horiz-adv-x="1310" 
d="M1436 1097q18 0 15 -18l-11 -49q-3 -14 -18 -14h-131l-79 -330l-150 -671q-3 -15 -18 -15h-74q-8 0 -12 5t-2 14l151 636l9 38h-841l-8 -38l-143 -640q-1 -7 -6.5 -11t-12.5 -4h-74q-8 0 -12 5t-2 14l160 667l74 330h-128q-19 0 -15 18l10 49q1 7 6.5 10.5t12.5 3.5h131
l65 288q3 15 19 15h73q18 0 15 -19l-68 -284h835l65 288q3 15 18 15h74q8 0 12 -5t2 -14l-68 -284h126zM352 1016l-58 -242h841l54 242h-837z" />
    <glyph glyph-name="hbar" unicode="&#x127;" horiz-adv-x="1006" 
d="M801.5 1002.5q64.5 -34.5 101 -100.5t36.5 -159q0 -58 -15 -126l-41 -176l-96 -426q-1 -7 -6 -11t-12 -4h-69q-8 0 -12 5t-2 14l100 421l38 166q16 67 16 125q0 111 -57.5 168t-156.5 57q-115 0 -208.5 -80.5t-167.5 -222.5l-51 -217l-94 -421q-3 -15 -19 -15h-69
q-8 0 -12 5t-2 14l104 431l159 711h-109q-8 0 -12 5t-2 14l10 42q3 15 18 15h113l33 148q3 15 18 15h68q8 0 12 -5t2 -14l-34 -144h322q17 0 14 -19l-10 -42q-2 -7 -6.5 -11t-11.5 -4h-326l-86 -363q37 66 94.5 120t130 86.5t150.5 32.5q83 0 147.5 -34.5z" />
    <glyph glyph-name="Itilde" unicode="&#x128;" horiz-adv-x="372" 
d="M34 0q-18 0 -15 19l169 705l147 661q1 7 6.5 11t12.5 4h73q8 0 12 -5t2 -14l-158 -657l-158 -709q-3 -15 -18 -15h-73zM481.5 1557.5q-27.5 22.5 -59.5 65.5q-25 34 -43.5 50t-43.5 16q-36 0 -55.5 -31t-33.5 -95q-4 -14 -19 -14h-33q-8 0 -12 5t-3 13q22 91 60 141.5
t102 50.5q45 0 74 -23t62 -67q26 -34 42.5 -49t39.5 -15q39 0 58.5 31t34.5 94q5 15 19 15h33q8 0 12 -6.5t2 -16.5q-21 -90 -59.5 -138.5t-104.5 -48.5q-45 0 -72.5 22.5z" />
    <glyph glyph-name="itilde" unicode="&#x129;" horiz-adv-x="347" 
d="M365 1188.5q-20 23.5 -39 67.5q-13 33 -25 48.5t-32 15.5q-23 0 -41.5 -28.5t-33.5 -96.5q-3 -16 -18 -16h-31q-9 0 -13 5t-2 14q21 99 57.5 144t88.5 45q29 0 47.5 -13t29 -31t23.5 -47q14 -33 25 -48.5t31 -15.5q49 0 75 125q3 16 18 16h31q14 0 14 -19q0 -7 -3 -18
q-22 -89 -57 -130t-84 -41q-41 0 -61 23.5zM21 0q-8 0 -12 5t-2 14l124 526l106 470q3 15 19 15h69q8 0 12 -5t2 -14l-110 -465l-120 -531q-3 -15 -18 -15h-70z" />
    <glyph glyph-name="Imacron" unicode="&#x12a;" horiz-adv-x="372" 
d="M34 0q-18 0 -15 19l169 705l147 661q1 7 6.5 11t12.5 4h73q8 0 12 -5t2 -14l-158 -657l-158 -709q-3 -15 -18 -15h-73zM184 1581q-8 0 -12 5t-3 14l11 46q3 14 19 14h504q9 0 13 -4.5t2 -13.5l-11 -46q-3 -15 -18 -15h-505z" />
    <glyph glyph-name="imacron" unicode="&#x12b;" horiz-adv-x="347" 
d="M136 1211q-9 0 -13 5t-2 14l11 46q3 14 18 14h400q9 0 13 -5t2 -13l-11 -46q-1 -7 -6 -11t-12 -4h-400zM21 0q-8 0 -12 5t-2 14l124 526l106 470q3 15 19 15h69q8 0 12 -5t2 -14l-110 -465l-120 -531q-3 -15 -18 -15h-70z" />
    <glyph glyph-name="Ibreve" unicode="&#x12c;" horiz-adv-x="372" 
d="M34 0q-18 0 -15 19l169 705l147 661q1 7 6.5 11t12.5 4h73q8 0 12 -5t2 -14l-158 -657l-158 -709q-3 -15 -18 -15h-73zM329 1544.5q-47 24.5 -71.5 68t-24.5 97.5q0 16 1 24q1 16 18 16h41q16 0 15 -18q-1 -6 -1 -18q0 -54 36 -87.5t101 -33.5q68 0 116.5 39t65.5 103
q4 15 19 15h44q18 0 15 -18q-22 -95 -93.5 -153.5t-170.5 -58.5q-64 0 -111 24.5z" />
    <glyph glyph-name="ibreve" unicode="&#x12d;" horiz-adv-x="347" 
d="M207 1201.5q-47 51.5 -47 134.5q0 18 1 28q1 16 18 16h40q17 0 15 -18q-1 -7 -1 -22q0 -54 29.5 -86t81.5 -32q59 0 101.5 39t57.5 104q3 15 18 15h42q9 0 13 -5.5t2 -14.5q-21 -94 -86.5 -152t-153.5 -58q-84 0 -131 51.5zM21 0q-8 0 -12 5t-2 14l124 526l106 470
q3 15 19 15h69q8 0 12 -5t2 -14l-110 -465l-120 -531q-3 -15 -18 -15h-70z" />
    <glyph glyph-name="Iogonek" unicode="&#x12e;" horiz-adv-x="372" 
d="M427 1400q8 0 12 -5t2 -14l-158 -657l-158 -709q-3 -15 -18 -15h-20q-66 -23 -114 -72.5t-48 -108.5q0 -45 32 -69.5t94 -24.5h58q8 0 12 -5t2 -14l-9 -43q-3 -15 -19 -15h-65q-92 0 -144 43t-52 111t52 124t133 90v3l169 705l147 661q1 7 6.5 11t12.5 4h73z" />
    <glyph glyph-name="iogonek" unicode="&#x12f;" horiz-adv-x="347" 
d="M388 1318q8 0 12 -5t3 -14l-25 -104q-3 -15 -19 -15h-65q-8 0 -12 5t-3 14l25 104q3 15 19 15h65zM325 1030q8 0 12 -5t2 -14l-110 -465l-120 -531q-3 -15 -18 -15h-17q-66 -23 -114 -72.5t-48 -108.5q0 -45 32 -69.5t94 -24.5h58q8 0 12 -5t2 -14l-9 -43q-3 -15 -19 -15
h-65q-92 0 -144 43t-52 111t52 124t133 90q1 1 1 3l124 526l106 470q3 15 19 15h69z" />
    <glyph glyph-name="Idotaccent" unicode="&#x130;" horiz-adv-x="372" 
d="M34 0q-18 0 -15 19l169 705l147 661q1 7 6.5 11t12.5 4h73q8 0 12 -5t2 -14l-158 -657l-158 -709q-3 -15 -18 -15h-73zM394 1550q-8 0 -12 5t-3 14l25 104q3 15 19 15h65q8 0 12 -5t3 -14l-25 -104q-3 -15 -19 -15h-65z" />
    <glyph glyph-name="dotlessi" unicode="&#x131;" horiz-adv-x="347" 
d="M21 0q-8 0 -12 5t-2 14l124 526l106 470q3 15 19 15h69q8 0 12 -5t2 -14l-110 -465l-120 -531q-3 -15 -18 -15h-70z" />
    <glyph glyph-name="IJ" unicode="&#x132;" horiz-adv-x="1298" 
d="M34 0q-18 0 -15 19l169 705l147 661q1 7 6.5 11t12.5 4h73q8 0 12 -5t2 -14l-158 -657l-158 -709q-3 -15 -18 -15h-73zM486.5 66.5q-86.5 93.5 -86.5 268.5q0 69 13 143q3 16 18 16h67q8 0 12.5 -5t3.5 -14q-11 -75 -11 -132q0 -141 60 -213.5t179 -72.5q82 0 144 39.5
t111 131.5t85 248l111 472l98 437q1 7 6 11t12 4h75q8 0 12 -5t2 -14l-104 -433l-110 -473q-43 -184 -105.5 -294.5t-146.5 -159t-196 -48.5q-163 0 -249.5 93.5z" />
    <glyph glyph-name="ij" unicode="&#x133;" horiz-adv-x="694" 
d="M21 0q-8 0 -12 5t-2 14l124 526l106 470q3 15 19 15h69q8 0 12 -5t2 -14l-110 -465l-120 -531q-3 -15 -18 -15h-70zM294 1180q-8 0 -12 5t-3 14l25 104q3 15 19 15h65q8 0 12 -5t3 -14l-25 -104q-3 -15 -19 -15h-65zM290 -340q-8 0 -12 5t-2 14l148 634l159 702
q1 7 6.5 11t12.5 4h69q8 0 12 -5t2 -14l-164 -698l-143 -638q-1 -7 -6.5 -11t-12.5 -4h-69zM642 1180q-8 0 -12 5t-3 14l25 104q3 15 19 15h65q8 0 12 -5t3 -14l-25 -104q-3 -15 -19 -15h-65z" />
    <glyph glyph-name="Jcircumflex" unicode="&#x134;" horiz-adv-x="926" 
d="M114.5 66.5q-86.5 93.5 -86.5 268.5q0 69 13 143q3 16 18 16h67q8 0 12.5 -5t3.5 -14q-11 -75 -11 -132q0 -141 60 -213.5t179 -72.5q82 0 144 39.5t111 131.5t85 248l111 472l98 437q1 7 6 11t12 4h75q8 0 12 -5t2 -14l-104 -433l-110 -473q-43 -184 -105.5 -294.5
t-146.5 -159t-196 -48.5q-163 0 -249.5 93.5zM715 1562q-2 4 -2 7q0 10 11 15l282 130q10 5 21 5h26q12 0 21 -6l224 -129q10 -6 10 -13q0 -4 -3 -9l-15 -26q-5 -10 -14 -10l-8 2l-237 105l-282 -107q-6 -2 -7 -2q-10 0 -15 11z" />
    <glyph glyph-name="jcircumflex" unicode="&#x135;" horiz-adv-x="347" 
d="M85 1193q-3 5 -3 9q0 7 10 13l229 129q9 5 21 5h26q11 0 21 -7l178 -126q8 -6 8 -12q0 -3 -4 -11l-16 -26q-6 -8 -14 -8q-5 0 -9 3l-186 103l-228 -106l-8 -2q-7 0 -14 10zM-57 -340q-8 0 -12 5t-2 14l148 634l159 702q1 7 6.5 11t12.5 4h69q8 0 12 -5t2 -14l-164 -698
l-143 -638q-1 -7 -6.5 -11t-12.5 -4h-69z" />
    <glyph glyph-name="uni0136" unicode="&#x136;" horiz-adv-x="1048" 
d="M323 1385q1 7 6.5 11t12.5 4h73q8 0 12 -5t2 -14l-148 -624l-14 -60l748 695q8 8 20 8h93q7 0 10.5 -2.5t3.5 -6.5q0 -6 -6 -12l-580 -530l349 -829l2 -8q0 -5 -4 -8.5t-11 -3.5h-80q-15 0 -19 13l-318 761l-240 -220l-121 -539q-1 -7 -6.5 -11t-12.5 -4h-73q-8 0 -12 5
t-2 14l171 717zM286 -389q-11 0 -11 9q0 4 3 10l68 138l27 117q3 15 18 15h77q8 0 12 -4.5t2 -13.5l-23 -103q-3 -12 -9 -19l-119 -140q-8 -9 -20 -9h-25z" />
    <glyph glyph-name="uni0137" unicode="&#x137;" horiz-adv-x="863" 
d="M888 1030q7 0 10.5 -2.5t3.5 -6.5q0 -6 -7 -12l-434 -352l243 -638q2 -6 2 -7q0 -5 -4 -8.5t-11 -3.5h-71q-14 0 -20 13l-40 111l-176 470l-193 -158l-93 -423q-1 -7 -6.5 -11t-12.5 -4h-68q-8 0 -12 5t-2 14l159 673l156 695q1 7 6.5 11t12.5 4h68q8 0 12 -5t2 -14
l-166 -691l-29 -131l552 463q10 8 21 8h97zM181 -389q-11 0 -11 9q0 4 3 10l68 138l27 117q3 15 18 15h77q8 0 12 -4.5t2 -13.5l-23 -103q-3 -12 -9 -19l-119 -140q-8 -9 -20 -9h-25z" />
    <glyph glyph-name="Lacute" unicode="&#x139;" horiz-adv-x="930" 
d="M22 0q-8 0 -12 5t-2 14l176 742l139 624q1 7 6.5 11t12.5 4h73q18 0 15 -19l-149 -619l-153 -680h654q8 0 12 -5t3 -14l-11 -48q-2 -7 -6.5 -11t-11.5 -4h-746zM268 1521q-6 -2 -8 -2q-11 0 -14 11l-10 29q-1 2 -1 7q0 9 10 15l420 197l8 2q9 0 14 -11l19 -54q2 -6 2 -7
q0 -9 -12 -14z" />
    <glyph glyph-name="lacute" unicode="&#x13a;" horiz-adv-x="346" 
d="M21 0q-17 0 -14 19l166 696l150 670q3 15 19 15h68q8 0 12 -5t2 -14l-159 -662l-157 -704q-3 -15 -18 -15h-69zM265 1521q-6 -2 -8 -2q-11 0 -14 11l-10 29q-1 2 -1 7q0 9 10 15l420 197l8 2q9 0 14 -11l19 -54q2 -6 2 -7q0 -9 -12 -14z" />
    <glyph glyph-name="uni013B" unicode="&#x13b;" horiz-adv-x="930" 
d="M22 0q-8 0 -12 5t-2 14l176 742l139 624q1 7 6.5 11t12.5 4h73q18 0 15 -19l-149 -619l-153 -680h654q8 0 12 -5t3 -14l-11 -48q-2 -7 -6.5 -11t-11.5 -4h-746zM226 -389q-11 0 -11 9q0 4 3 10l68 138l27 117q3 15 18 15h77q8 0 12 -4.5t2 -13.5l-23 -103q-3 -12 -9 -19
l-119 -140q-8 -9 -20 -9h-25z" />
    <glyph glyph-name="uni013C" unicode="&#x13c;" horiz-adv-x="346" 
d="M21 0q-17 0 -14 19l166 696l150 670q3 15 19 15h68q8 0 12 -5t2 -14l-159 -662l-157 -704q-3 -15 -18 -15h-69zM-115 -389q-11 0 -11 9q0 4 3 10l68 138l27 117q3 15 18 15h77q8 0 12 -4.5t2 -13.5l-23 -103q-3 -12 -9 -19l-119 -140q-8 -9 -20 -9h-25z" />
    <glyph glyph-name="Lcaron" unicode="&#x13d;" horiz-adv-x="930" 
d="M22 0q-8 0 -12 5t-2 14l176 742l139 624q1 7 6.5 11t12.5 4h73q18 0 15 -19l-149 -619l-153 -680h654q8 0 12 -5t3 -14l-11 -48q-2 -7 -6.5 -11t-11.5 -4h-746zM565 1044q-9 -12 -19 -12h-40q-15 0 -15 11q0 5 3 9l162 336q5 12 20 12h60q15 0 15 -11q0 -4 -3 -9z" />
    <glyph glyph-name="lcaron" unicode="&#x13e;" horiz-adv-x="346" 
d="M21 0q-17 0 -14 19l166 696l150 670q3 15 19 15h68q8 0 12 -5t2 -14l-159 -662l-157 -704q-3 -15 -18 -15h-69zM504 1128q-9 -12 -19 -12h-40q-15 0 -15 11q0 5 3 9l162 336q5 12 20 12h60q15 0 15 -11q0 -4 -3 -9z" />
    <glyph glyph-name="Ldot" unicode="&#x13f;" horiz-adv-x="930" 
d="M22 0q-8 0 -12 5t-2 14l176 742l139 624q1 7 6.5 11t12.5 4h73q18 0 15 -19l-149 -619l-153 -680h654q8 0 12 -5t3 -14l-11 -48q-2 -7 -6.5 -11t-11.5 -4h-746zM652 705q-8 0 -12 5t-3 14l25 104q3 15 19 15h65q8 0 12 -5t3 -14l-25 -104q-3 -15 -19 -15h-65z" />
    <glyph glyph-name="ldot" unicode="&#x140;" horiz-adv-x="375" 
d="M21 0q-17 0 -14 19l166 696l150 670q3 15 19 15h68q8 0 12 -5t2 -14l-159 -662l-157 -704q-3 -15 -18 -15h-69zM352 617q-8 0 -12 4.5t-2 13.5l23 103q3 14 19 14h65q8 0 12 -4.5t2 -13.5l-24 -103q-3 -14 -18 -14h-65z" />
    <glyph glyph-name="Lslash" unicode="&#x141;" horiz-adv-x="939" 
d="M791 82q8 0 12 -5t3 -14l-11 -48q-2 -7 -6.5 -11t-11.5 -4h-746q-8 0 -12 5t-2 14l134 566l-136 -40q-2 -1 -6 -1q-14 0 -11 17l12 52q3 13 16 16l146 43l161 713q3 15 18 15h74q8 0 12 -5t2 -14l-162 -678l406 119q2 1 6 1q7 0 10 -4.5t1 -12.5l-12 -51q-3 -12 -17 -17
l-414 -122l-120 -534h654z" />
    <glyph glyph-name="lslash" unicode="&#x142;" horiz-adv-x="385" 
d="M284 719l-8 -37l145 72q4 3 9 3t7.5 -4t1.5 -11l-9 -42q-3 -11 -14 -18l-158 -79l-130 -588q-1 -7 -6.5 -11t-12.5 -4h-68q-8 0 -12 5t-2 14l127 532l-145 -72q-4 -3 -9 -3t-7.5 4t-1.5 11l9 42q3 11 14 18l159 79l20 85l150 670q3 15 18 15h68q8 0 12 -5t2 -14z" />
    <glyph glyph-name="Nacute" unicode="&#x143;" horiz-adv-x="1316" 
d="M22 0q-8 0 -12 5t-2 14l168 701l149 665q1 7 6.5 11t12.5 4h70q14 0 19 -12l576 -1243l140 600l144 640q2 7 6.5 11t11.5 4h70q17 0 14 -19l-158 -661l-160 -705q-3 -15 -18 -15h-79q-14 0 -20 12l-571 1228l-127 -555l-152 -670q-3 -15 -19 -15h-69zM746 1521
q-6 -2 -8 -2q-11 0 -14 11l-10 29q-1 2 -1 7q0 9 10 15l420 197l8 2q9 0 14 -11l19 -54q2 -6 2 -7q0 -9 -12 -14z" />
    <glyph glyph-name="nacute" unicode="&#x144;" horiz-adv-x="1000" 
d="M11 0q-8 0 -12 5t-2 14l104 431l126 565q3 15 19 15h65q9 0 13 -5t2 -14l-49 -196q37 66 94 120t129.5 86.5t151.5 32.5q83 0 147.5 -34t100.5 -100t36 -159q0 -58 -15 -127l-44 -193l-96 -426q-1 -7 -6 -11t-12 -4h-69q-8 0 -12 5t-2 14l99 417l43 187q16 68 16 125
q0 112 -57.5 168.5t-157.5 56.5q-218 0 -375 -303l-55 -234l-94 -421q-3 -15 -19 -15h-69zM510 1151q-6 -2 -8 -2q-11 0 -14 11l-10 29q-1 2 -1 7q0 9 10 15l420 197l8 2q9 0 14 -11l19 -54q2 -6 2 -7q0 -9 -12 -14z" />
    <glyph glyph-name="uni0145" unicode="&#x145;" horiz-adv-x="1316" 
d="M22 0q-8 0 -12 5t-2 14l168 701l149 665q1 7 6.5 11t12.5 4h70q14 0 19 -12l576 -1243l140 600l144 640q2 7 6.5 11t11.5 4h70q17 0 14 -19l-158 -661l-160 -705q-3 -15 -18 -15h-79q-14 0 -20 12l-571 1228l-127 -555l-152 -670q-3 -15 -19 -15h-69zM374 -389
q-11 0 -11 9q0 4 3 10l68 138l27 117q3 15 18 15h77q8 0 12 -4.5t2 -13.5l-23 -103q-3 -12 -9 -19l-119 -140q-8 -9 -20 -9h-25z" />
    <glyph glyph-name="uni0146" unicode="&#x146;" horiz-adv-x="1000" 
d="M11 0q-8 0 -12 5t-2 14l104 431l126 565q3 15 19 15h65q9 0 13 -5t2 -14l-49 -196q37 66 94 120t129.5 86.5t151.5 32.5q83 0 147.5 -34t100.5 -100t36 -159q0 -58 -15 -127l-44 -193l-96 -426q-1 -7 -6 -11t-12 -4h-69q-8 0 -12 5t-2 14l99 417l43 187q16 68 16 125
q0 112 -57.5 168.5t-157.5 56.5q-218 0 -375 -303l-55 -234l-94 -421q-3 -15 -19 -15h-69zM218 -389q-11 0 -11 9q0 4 3 10l68 138l27 117q3 15 18 15h77q8 0 12 -4.5t2 -13.5l-23 -103q-3 -12 -9 -19l-119 -140q-8 -9 -20 -9h-25z" />
    <glyph glyph-name="Ncaron" unicode="&#x147;" horiz-adv-x="1316" 
d="M22 0q-8 0 -12 5t-2 14l168 701l149 665q1 7 6.5 11t12.5 4h70q14 0 19 -12l576 -1243l140 600l144 640q2 7 6.5 11t11.5 4h70q17 0 14 -19l-158 -661l-160 -705q-3 -15 -18 -15h-79q-14 0 -20 12l-571 1228l-127 -555l-152 -670q-3 -15 -19 -15h-69zM627 1650
q-9 6 -9 13q0 2 2 10l15 25q4 10 13 10q6 0 9 -2l237 -104l283 106q6 2 7 2q9 0 14 -11l12 -26q2 -6 2 -8q0 -9 -10 -14l-282 -130q-9 -5 -21 -5h-27q-12 0 -21 5z" />
    <glyph glyph-name="ncaron" unicode="&#x148;" horiz-adv-x="1000" 
d="M11 0q-8 0 -12 5t-2 14l104 431l126 565q3 15 19 15h65q9 0 13 -5t2 -14l-49 -196q37 66 94 120t129.5 86.5t151.5 32.5q83 0 147.5 -34t100.5 -100t36 -159q0 -58 -15 -127l-44 -193l-96 -426q-1 -7 -6 -11t-12 -4h-69q-8 0 -12 5t-2 14l99 417l43 187q16 68 16 125
q0 112 -57.5 168.5t-157.5 56.5q-218 0 -375 -303l-55 -234l-94 -421q-3 -15 -19 -15h-69zM391 1280q-9 6 -9 13q0 2 2 10l15 25q4 10 13 10q6 0 9 -2l237 -104l283 106q6 2 7 2q9 0 14 -11l12 -26q2 -6 2 -8q0 -9 -10 -14l-282 -130q-9 -5 -21 -5h-27q-12 0 -21 5z" />
    <glyph glyph-name="Eng" unicode="&#x14a;" horiz-adv-x="1316" 
d="M22 0q-8 0 -12 5t-2 14l168 701l149 665q1 7 6.5 11t12.5 4h78q15 0 19 -12l572 -1230l135 585l145 642q2 7 6.5 11t11.5 4h70q8 0 12 -5t2 -14l-157 -656l-182 -794q-34 -153 -113.5 -222t-179.5 -69q-46 0 -94 13q-14 4 -11 20l10 48q5 15 21 12q34 -10 76 -10
q71 0 121.5 51.5t72.5 160.5l15 61l-584 1252l-122 -532l-158 -701q-3 -15 -19 -15h-69z" />
    <glyph glyph-name="eng" unicode="&#x14b;" horiz-adv-x="998" 
d="M396 -351q-14 6 -11 21l9 41q3 16 20 11q35 -9 70 -9q63 0 105.5 48.5t68.5 153.5l164 709q16 68 16 126q0 111 -57.5 167t-156.5 56q-114 0 -208.5 -80.5t-167.5 -222.5l-55 -233l-94 -422q-3 -15 -19 -15h-69q-8 0 -12 5t-2 14l104 431l126 565q3 15 19 15h65
q9 0 13 -5t2 -14l-49 -196q37 66 94 120t129.5 86.5t150.5 32.5q83 0 147.5 -34t101 -100t36.5 -159q0 -58 -15 -126l-167 -724q-34 -145 -105 -209t-165 -65q-49 0 -88 12z" />
    <glyph glyph-name="Omacron" unicode="&#x14c;" horiz-adv-x="1438" 
d="M377 47.5q-130 69.5 -202.5 203t-72.5 317.5q0 200 85.5 397.5t254.5 327t406 129.5q169 0 299 -69.5t202.5 -202t72.5 -314.5q0 -202 -85.5 -400.5t-254.5 -328t-406 -129.5q-169 0 -299 69.5zM1031 181.5q144 120.5 214.5 300t70.5 355.5q0 159 -58.5 272t-164.5 171.5
t-246 58.5q-209 0 -353.5 -120.5t-214.5 -300t-70 -355.5q0 -159 58.5 -272t164 -171.5t246.5 -58.5q209 0 353 120.5zM694 1581q-8 0 -12 5t-3 14l11 46q3 14 19 14h504q9 0 13 -4.5t2 -13.5l-11 -46q-3 -15 -18 -15h-505z" />
    <glyph glyph-name="omacron" unicode="&#x14d;" horiz-adv-x="1061" 
d="M254 32.5q-93 51.5 -145 150t-52 235.5q0 149 61.5 295t183.5 241t293 95q121 0 213.5 -51t144.5 -149t52 -233q0 -151 -61.5 -297.5t-183 -242t-292.5 -95.5q-121 0 -214 51.5zM710.5 142q98.5 87 147 217.5t48.5 258.5q0 113 -39 193t-109.5 122t-164.5 42
q-143 0 -242 -87t-147.5 -217.5t-48.5 -258.5q0 -112 39 -192.5t110.5 -122.5t165.5 -42q142 0 240.5 87zM428 1211q-8 0 -12 5t-3 14l11 46q3 14 19 14h504q9 0 13 -4.5t2 -13.5l-11 -46q-3 -15 -18 -15h-505z" />
    <glyph glyph-name="Obreve" unicode="&#x14e;" horiz-adv-x="1438" 
d="M377 47.5q-130 69.5 -202.5 203t-72.5 317.5q0 200 85.5 397.5t254.5 327t406 129.5q169 0 299 -69.5t202.5 -202t72.5 -314.5q0 -202 -85.5 -400.5t-254.5 -328t-406 -129.5q-169 0 -299 69.5zM1031 181.5q144 120.5 214.5 300t70.5 355.5q0 159 -58.5 272t-164.5 171.5
t-246 58.5q-209 0 -353.5 -120.5t-214.5 -300t-70 -355.5q0 -159 58.5 -272t164 -171.5t246.5 -58.5q209 0 353 120.5zM839 1544.5q-47 24.5 -71.5 68t-24.5 97.5q0 16 1 24q1 16 18 16h41q16 0 15 -18q-1 -6 -1 -18q0 -54 36 -87.5t101 -33.5q68 0 116.5 39t65.5 103
q4 15 19 15h44q18 0 15 -18q-22 -95 -93.5 -153.5t-170.5 -58.5q-64 0 -111 24.5z" />
    <glyph glyph-name="obreve" unicode="&#x14f;" horiz-adv-x="1061" 
d="M254 32.5q-93 51.5 -145 150t-52 235.5q0 149 61.5 295t183.5 241t293 95q121 0 213.5 -51t144.5 -149t52 -233q0 -151 -61.5 -297.5t-183 -242t-292.5 -95.5q-121 0 -214 51.5zM710.5 142q98.5 87 147 217.5t48.5 258.5q0 113 -39 193t-109.5 122t-164.5 42
q-143 0 -242 -87t-147.5 -217.5t-48.5 -258.5q0 -112 39 -192.5t110.5 -122.5t165.5 -42q142 0 240.5 87zM572 1174.5q-47 24.5 -71.5 68t-24.5 97.5q0 16 1 24q1 16 18 16h41q16 0 15 -18q-1 -6 -1 -18q0 -54 36 -87.5t101 -33.5q68 0 116.5 39t65.5 103q4 15 19 15h44
q18 0 15 -18q-22 -95 -93.5 -153.5t-170.5 -58.5q-64 0 -111 24.5z" />
    <glyph glyph-name="Ohungarumlaut" unicode="&#x150;" horiz-adv-x="1438" 
d="M377 47.5q-130 69.5 -202.5 203t-72.5 317.5q0 200 85.5 397.5t254.5 327t406 129.5q169 0 299 -69.5t202.5 -202t72.5 -314.5q0 -202 -85.5 -400.5t-254.5 -328t-406 -129.5q-169 0 -299 69.5zM1031 181.5q144 120.5 214.5 300t70.5 355.5q0 159 -58.5 272t-164.5 171.5
t-246 58.5q-209 0 -353.5 -120.5t-214.5 -300t-70 -355.5q0 -159 58.5 -272t164 -171.5t246.5 -58.5q209 0 353 120.5zM780 1554q-7 -5 -12 -5q-8 0 -12 7l-14 15q-4 5 -4 11q0 7 6 13l287 274q6 6 12 6t12 -7l26 -33q4 -5 4 -12q0 -6 -6 -12zM1047 1552q-7 -5 -12 -5
q-7 0 -12 7l-14 15q-4 5 -4 11q0 7 6 13l287 275q7 5 12 5q6 0 12 -7l26 -33q4 -5 4 -11t-6 -12z" />
    <glyph glyph-name="ohungarumlaut" unicode="&#x151;" horiz-adv-x="1061" 
d="M254 32.5q-93 51.5 -145 150t-52 235.5q0 149 61.5 295t183.5 241t293 95q121 0 213.5 -51t144.5 -149t52 -233q0 -151 -61.5 -297.5t-183 -242t-292.5 -95.5q-121 0 -214 51.5zM710.5 142q98.5 87 147 217.5t48.5 258.5q0 113 -39 193t-109.5 122t-164.5 42
q-143 0 -242 -87t-147.5 -217.5t-48.5 -258.5q0 -112 39 -192.5t110.5 -122.5t165.5 -42q142 0 240.5 87zM514 1184q-7 -5 -12 -5q-8 0 -12 7l-14 15q-4 5 -4 11q0 7 6 13l287 274q6 6 12 6t12 -7l26 -33q4 -5 4 -12q0 -6 -6 -12zM781 1182q-7 -5 -12 -5q-7 0 -12 7l-14 15
q-4 5 -4 11q0 7 6 13l287 275q7 5 12 5q6 0 12 -7l26 -33q4 -5 4 -11t-6 -12z" />
    <glyph glyph-name="OE" unicode="&#x152;" horiz-adv-x="1977" 
d="M691 0q-177 0 -310.5 67t-207 194t-73.5 303q0 198 86.5 391t259.5 319t417 126h1208q8 0 12 -5t3 -14l-12 -48q-3 -15 -18 -15h-691l-125 -524h650q8 0 12 -5t3 -13l-12 -49q-3 -14 -18 -14h-654l-141 -631h702q8 0 12 -5t2 -14l-10 -48q-3 -15 -19 -15h-1076zM266 302
q59 -108 168.5 -164t258.5 -56h278l138 582l148 654h-396q-216 0 -364 -117t-219 -291.5t-71 -346.5q0 -153 59 -261z" />
    <glyph glyph-name="oe" unicode="&#x153;" horiz-adv-x="1843" 
d="M1614 1000q88 -47 136.5 -135t48.5 -207q0 -58 -12 -123q-1 -15 -17 -15h-772q-6 -37 -6 -93q0 -171 75 -270.5t224 -99.5q139 0 230.5 77.5t129.5 217.5q4 14 18 14h60q9 0 13 -5t1 -13q-51 -178 -164 -271.5t-289 -93.5q-153 0 -249 84.5t-125 231.5
q-67 -143 -186.5 -230.5t-271.5 -87.5q-123 0 -214 54t-139.5 153t-48.5 231q0 162 69 307.5t193.5 234t283.5 88.5q147 0 243.5 -83t126.5 -228q64 139 177.5 224t260.5 85q116 0 204 -47zM691 135q98 80 150.5 208.5t52.5 269.5q0 168 -76 265t-220 97q-133 0 -234 -80
t-155 -208.5t-54 -269.5q0 -168 78.5 -265t228.5 -97q131 0 229 80zM1697 595q7 39 7 80q0 88 -36.5 155.5t-104.5 105t-161 37.5q-102 0 -182 -50.5t-132.5 -136.5t-76.5 -191h686z" />
    <glyph glyph-name="Racute" unicode="&#x154;" horiz-adv-x="1152" 
d="M1127.5 847q-54.5 -93 -157 -151t-242.5 -73l236 -604q2 -6 2 -7q0 -5 -4 -8.5t-11 -3.5h-78q-13 0 -19 13l-63 167l-172 437h-384l-121 -602q-3 -15 -19 -15h-73q-8 0 -12 5t-2 14l169 712l146 654q1 7 6.5 11t12.5 4h422q140 0 233.5 -43.5t139 -120.5t45.5 -180
q0 -116 -54.5 -209zM999.5 1246q-77.5 73 -242.5 73h-343l-140 -587l-8 -34h377q140 0 237.5 45t147 124.5t49.5 180.5q0 125 -77.5 198zM633 1521q-6 -2 -8 -2q-11 0 -14 11l-10 29q-1 2 -1 7q0 9 10 15l420 197l8 2q9 0 14 -11l19 -54q2 -6 2 -7q0 -9 -12 -14z" />
    <glyph glyph-name="racute" unicode="&#x155;" horiz-adv-x="656" 
d="M11 0q-8 0 -12 5t-2 14l123 514l107 482q3 15 18 15h67q9 0 13 -5t2 -14l-52 -197q77 110 175 168.5t203 58.5q41 0 69 -7q15 -3 12 -20l-12 -49q-3 -15 -20 -12q-27 7 -62 7q-116 0 -219 -75.5t-177 -222.5l-146 -647q-2 -7 -6.5 -11t-11.5 -4h-69zM365 1151
q-6 -2 -8 -2q-11 0 -14 11l-10 29q-1 2 -1 7q0 9 10 15l420 197l8 2q9 0 14 -11l19 -54q2 -6 2 -7q0 -9 -12 -14z" />
    <glyph glyph-name="uni0156" unicode="&#x156;" horiz-adv-x="1152" 
d="M1127.5 847q-54.5 -93 -157 -151t-242.5 -73l236 -604q2 -6 2 -7q0 -5 -4 -8.5t-11 -3.5h-78q-13 0 -19 13l-63 167l-172 437h-384l-121 -602q-3 -15 -19 -15h-73q-8 0 -12 5t-2 14l169 712l146 654q1 7 6.5 11t12.5 4h422q140 0 233.5 -43.5t139 -120.5t45.5 -180
q0 -116 -54.5 -209zM999.5 1246q-77.5 73 -242.5 73h-343l-140 -587l-8 -34h377q140 0 237.5 45t147 124.5t49.5 180.5q0 125 -77.5 198zM318 -389q-11 0 -11 9q0 4 3 10l68 138l27 117q3 15 18 15h77q8 0 12 -4.5t2 -13.5l-23 -103q-3 -12 -9 -19l-119 -140q-8 -9 -20 -9
h-25z" />
    <glyph glyph-name="uni0157" unicode="&#x157;" horiz-adv-x="656" 
d="M11 0q-8 0 -12 5t-2 14l123 514l107 482q3 15 18 15h67q9 0 13 -5t2 -14l-52 -197q77 110 175 168.5t203 58.5q41 0 69 -7q15 -3 12 -20l-12 -49q-3 -15 -20 -12q-27 7 -62 7q-116 0 -219 -75.5t-177 -222.5l-146 -647q-2 -7 -6.5 -11t-11.5 -4h-69zM-125 -389
q-11 0 -11 9q0 4 3 10l68 138l27 117q3 15 18 15h77q8 0 12 -4.5t2 -13.5l-23 -103q-3 -12 -9 -19l-119 -140q-8 -9 -20 -9h-25z" />
    <glyph glyph-name="Rcaron" unicode="&#x158;" horiz-adv-x="1152" 
d="M1127.5 847q-54.5 -93 -157 -151t-242.5 -73l236 -604q2 -6 2 -7q0 -5 -4 -8.5t-11 -3.5h-78q-13 0 -19 13l-63 167l-172 437h-384l-121 -602q-3 -15 -19 -15h-73q-8 0 -12 5t-2 14l169 712l146 654q1 7 6.5 11t12.5 4h422q140 0 233.5 -43.5t139 -120.5t45.5 -180
q0 -116 -54.5 -209zM999.5 1246q-77.5 73 -242.5 73h-343l-140 -587l-8 -34h377q140 0 237.5 45t147 124.5t49.5 180.5q0 125 -77.5 198zM514 1650q-9 6 -9 13q0 2 2 10l15 25q4 10 13 10q6 0 9 -2l237 -104l283 106q6 2 7 2q9 0 14 -11l12 -26q2 -6 2 -8q0 -9 -10 -14
l-282 -130q-9 -5 -21 -5h-27q-12 0 -21 5z" />
    <glyph glyph-name="rcaron" unicode="&#x159;" horiz-adv-x="656" 
d="M11 0q-8 0 -12 5t-2 14l123 514l107 482q3 15 18 15h67q9 0 13 -5t2 -14l-52 -197q77 110 175 168.5t203 58.5q41 0 69 -7q15 -3 12 -20l-12 -49q-3 -15 -20 -12q-27 7 -62 7q-116 0 -219 -75.5t-177 -222.5l-146 -647q-2 -7 -6.5 -11t-11.5 -4h-69zM246 1280q-9 6 -9 13
q0 2 2 10l15 25q4 10 13 10q6 0 9 -2l237 -104l283 106q6 2 7 2q9 0 14 -11l12 -26q2 -6 2 -8q0 -9 -10 -14l-282 -130q-9 -5 -21 -5h-27q-12 0 -21 5z" />
    <glyph glyph-name="Sacute" unicode="&#x15a;" horiz-adv-x="1195" 
d="M306.5 32q-117.5 50 -184.5 147.5t-67 233.5q0 29 3 60q0 7 4.5 11.5t12.5 4.5h71q8 0 12 -4.5t3 -12.5q-3 -25 -3 -50q0 -108 51.5 -189t146.5 -125t223 -44q127 0 219 40.5t140 111.5t48 161q0 86 -48 139.5t-119 83.5t-193 67q-135 40 -216 75.5t-137.5 103.5
t-56.5 178q0 115 65.5 205t181 140.5t259.5 50.5q133 0 241.5 -45t172 -140t62.5 -236q0 -16 -17 -16h-71q-17 0 -17 21q0 170 -105.5 251.5t-274.5 81.5q-114 0 -203.5 -35t-141 -103t-51.5 -162q0 -84 47.5 -137t118.5 -82.5t191 -64.5q135 -39 217 -75.5t139 -105.5
t57 -180q0 -116 -61.5 -209t-178 -147t-273.5 -54q-150 0 -267.5 50zM691 1521q-6 -2 -8 -2q-11 0 -14 11l-10 29q-1 2 -1 7q0 9 10 15l420 197l8 2q9 0 14 -11l19 -54q2 -6 2 -7q0 -9 -12 -14z" />
    <glyph glyph-name="sacute" unicode="&#x15b;" horiz-adv-x="952" 
d="M218 23q-96 44 -145.5 127.5t-44.5 199.5q0 8 4.5 12.5t12.5 4.5h62q7 0 11.5 -5t4.5 -13q-3 -90 34.5 -157t112 -103.5t181.5 -36.5q86 0 152.5 28.5t104 78.5t37.5 113q0 61 -37 100t-91.5 61t-150.5 49q-108 30 -173.5 57.5t-111 80t-45.5 137.5q0 86 52.5 153
t142.5 104t198 37q106 0 191.5 -34.5t137.5 -104.5t59 -173v-2q0 -15 -16 -15h-60q-8 0 -12.5 4.5t-4.5 11.5q-9 123 -91.5 182t-207.5 59q-80 0 -145.5 -25.5t-104 -74t-38.5 -114.5q0 -60 36.5 -98t90.5 -59t149 -47q108 -30 173.5 -57t111.5 -80t46 -139
q0 -87 -51 -156.5t-141.5 -109.5t-205.5 -40q-132 0 -228 44zM483 1151q-6 -2 -8 -2q-11 0 -14 11l-10 29q-1 2 -1 7q0 9 10 15l420 197l8 2q9 0 14 -11l19 -54q2 -6 2 -7q0 -9 -12 -14z" />
    <glyph glyph-name="Scircumflex" unicode="&#x15c;" horiz-adv-x="1195" 
d="M306.5 32q-117.5 50 -184.5 147.5t-67 233.5q0 29 3 60q0 7 4.5 11.5t12.5 4.5h71q8 0 12 -4.5t3 -12.5q-3 -25 -3 -50q0 -108 51.5 -189t146.5 -125t223 -44q127 0 219 40.5t140 111.5t48 161q0 86 -48 139.5t-119 83.5t-193 67q-135 40 -216 75.5t-137.5 103.5
t-56.5 178q0 115 65.5 205t181 140.5t259.5 50.5q133 0 241.5 -45t172 -140t62.5 -236q0 -16 -17 -16h-71q-17 0 -17 21q0 170 -105.5 251.5t-274.5 81.5q-114 0 -203.5 -35t-141 -103t-51.5 -162q0 -84 47.5 -137t118.5 -82.5t191 -64.5q135 -39 217 -75.5t139 -105.5
t57 -180q0 -116 -61.5 -209t-178 -147t-273.5 -54q-150 0 -267.5 50zM541 1562q-2 4 -2 7q0 10 11 15l282 130q10 5 21 5h26q12 0 21 -6l224 -129q10 -6 10 -13q0 -4 -3 -9l-15 -26q-5 -10 -14 -10l-8 2l-237 105l-282 -107q-6 -2 -7 -2q-10 0 -15 11z" />
    <glyph glyph-name="scircumflex" unicode="&#x15d;" horiz-adv-x="952" 
d="M218 23q-96 44 -145.5 127.5t-44.5 199.5q0 8 4.5 12.5t12.5 4.5h62q7 0 11.5 -5t4.5 -13q-3 -90 34.5 -157t112 -103.5t181.5 -36.5q86 0 152.5 28.5t104 78.5t37.5 113q0 61 -37 100t-91.5 61t-150.5 49q-108 30 -173.5 57.5t-111 80t-45.5 137.5q0 86 52.5 153
t142.5 104t198 37q106 0 191.5 -34.5t137.5 -104.5t59 -173v-2q0 -15 -16 -15h-60q-8 0 -12.5 4.5t-4.5 11.5q-9 123 -91.5 182t-207.5 59q-80 0 -145.5 -25.5t-104 -74t-38.5 -114.5q0 -60 36.5 -98t90.5 -59t149 -47q108 -30 173.5 -57t111.5 -80t46 -139
q0 -87 -51 -156.5t-141.5 -109.5t-205.5 -40q-132 0 -228 44zM332 1192q-2 4 -2 7q0 10 11 15l282 130q10 5 21 5h26q12 0 21 -6l224 -129q10 -6 10 -13q0 -4 -3 -9l-15 -26q-5 -10 -14 -10l-8 2l-237 105l-282 -107q-6 -2 -7 -2q-10 0 -15 11z" />
    <glyph glyph-name="Scedilla" unicode="&#x15e;" horiz-adv-x="1195" 
d="M963.5 1375q108.5 -45 172 -140t62.5 -236q0 -16 -17 -16h-71q-17 0 -17 21q0 170 -105.5 251.5t-274.5 81.5q-114 0 -203.5 -35t-141 -103t-51.5 -162q0 -84 47.5 -137t118.5 -82.5t191 -64.5q135 -39 217 -75.5t139 -105.5t57 -180q0 -116 -61.5 -209t-178 -147
t-273.5 -54q-24 0 -36 1l-164 -306q-3 -6 -9 -8.5t-13 -0.5l-55 13q-12 3 -12 13q0 4 3 9l172 287q-121 17 -212.5 71.5t-142 143.5t-50.5 207q0 30 3 61q0 7 4.5 11.5t12.5 4.5h71q8 0 12 -4.5t3 -12.5q-3 -25 -3 -50q0 -108 51.5 -189t146.5 -125t223 -44q127 0 219 40.5
t140 111.5t48 161q0 86 -48 139.5t-119 83.5t-193 67q-135 40 -216 75.5t-137.5 103.5t-56.5 178q0 115 65.5 205t181 140.5t259.5 50.5q133 0 241.5 -45z" />
    <glyph glyph-name="scedilla" unicode="&#x15f;" horiz-adv-x="952" 
d="M917 737q0 -15 -16 -15h-60q-8 0 -12.5 4.5t-4.5 11.5q-9 123 -91.5 182t-207.5 59q-80 0 -145.5 -25.5t-104 -74t-38.5 -114.5q0 -60 36.5 -98t90.5 -59t149 -47q108 -30 173.5 -57t111.5 -80t46 -139q0 -87 -51 -156.5t-141.5 -109.5t-205.5 -40q-23 0 -34 1l-162 -303
q-3 -6 -9 -8.5t-13 -0.5l-55 13q-12 3 -12 13q0 4 3 9l171 285q-151 26 -232.5 120t-74.5 242q0 8 4.5 12.5t12.5 4.5h62q7 0 11.5 -5t4.5 -13q-3 -90 34.5 -157t112 -103.5t181.5 -36.5q86 0 152.5 28.5t104 78.5t37.5 113q0 61 -37 100t-91.5 61t-150.5 49
q-108 30 -173.5 57.5t-111 80t-45.5 137.5q0 86 52.5 153t142.5 104t198 37q106 0 191.5 -34.5t137.5 -104.5t59 -173v-2z" />
    <glyph glyph-name="Scaron" unicode="&#x160;" horiz-adv-x="1195" 
d="M306.5 32q-117.5 50 -184.5 147.5t-67 233.5q0 29 3 60q0 7 4.5 11.5t12.5 4.5h71q8 0 12 -4.5t3 -12.5q-3 -25 -3 -50q0 -108 51.5 -189t146.5 -125t223 -44q127 0 219 40.5t140 111.5t48 161q0 86 -48 139.5t-119 83.5t-193 67q-135 40 -216 75.5t-137.5 103.5
t-56.5 178q0 115 65.5 205t181 140.5t259.5 50.5q133 0 241.5 -45t172 -140t62.5 -236q0 -16 -17 -16h-71q-17 0 -17 21q0 170 -105.5 251.5t-274.5 81.5q-114 0 -203.5 -35t-141 -103t-51.5 -162q0 -84 47.5 -137t118.5 -82.5t191 -64.5q135 -39 217 -75.5t139 -105.5
t57 -180q0 -116 -61.5 -209t-178 -147t-273.5 -54q-150 0 -267.5 50zM572 1650q-9 6 -9 13q0 2 2 10l15 25q4 10 13 10q6 0 9 -2l237 -104l283 106q6 2 7 2q9 0 14 -11l12 -26q2 -6 2 -8q0 -9 -10 -14l-282 -130q-9 -5 -21 -5h-27q-12 0 -21 5z" />
    <glyph glyph-name="scaron" unicode="&#x161;" horiz-adv-x="952" 
d="M218 23q-96 44 -145.5 127.5t-44.5 199.5q0 8 4.5 12.5t12.5 4.5h62q7 0 11.5 -5t4.5 -13q-3 -90 34.5 -157t112 -103.5t181.5 -36.5q86 0 152.5 28.5t104 78.5t37.5 113q0 61 -37 100t-91.5 61t-150.5 49q-108 30 -173.5 57.5t-111 80t-45.5 137.5q0 86 52.5 153
t142.5 104t198 37q106 0 191.5 -34.5t137.5 -104.5t59 -173v-2q0 -15 -16 -15h-60q-8 0 -12.5 4.5t-4.5 11.5q-9 123 -91.5 182t-207.5 59q-80 0 -145.5 -25.5t-104 -74t-38.5 -114.5q0 -60 36.5 -98t90.5 -59t149 -47q108 -30 173.5 -57t111.5 -80t46 -139
q0 -87 -51 -156.5t-141.5 -109.5t-205.5 -40q-132 0 -228 44zM364 1280q-9 6 -9 13q0 2 2 10l15 25q4 10 13 10q6 0 9 -2l237 -104l283 106q6 2 7 2q9 0 14 -11l12 -26q2 -6 2 -8q0 -9 -10 -14l-282 -130q-9 -5 -21 -5h-27q-12 0 -21 5z" />
    <glyph glyph-name="uni0162" unicode="&#x162;" horiz-adv-x="977" 
d="M1135 1400q9 0 13 -5t2 -14l-12 -48q-3 -15 -18 -15h-392l-151 -630l-149 -673q-2 -7 -6.5 -11t-11.5 -4l-172 -322q-8 -15 -22 -9l-56 14q-11 3 -11 12q0 5 3 10l178 295q-6 2 -9 7t-1 12l160 669l140 630h-387q-9 0 -13 5t-2 14l12 48q3 15 18 15h887z" />
    <glyph glyph-name="uni0163" unicode="&#x163;" horiz-adv-x="589" 
d="M645 1030q8 0 12 -5t3 -14l-11 -44q-1 -7 -6 -11t-12 -4h-245l-158 -683q-12 -52 -12 -92q0 -56 28 -83t86 -27q44 0 92 8q2 1 6 1q13 0 10 -17l-9 -42q-3 -15 -13 -16q-56 -14 -119 -14h-17l-165 -310q-8 -14 -22 -9l-56 13q-11 3 -11 12q0 5 3 10l180 300
q-43 18 -67.5 58t-24.5 104q0 47 13 103l159 684h-114q-9 0 -13 5t-2 14l10 44q1 7 6.5 11t12.5 4h117l54 243q3 15 19 15h69q17 0 14 -19l-57 -239h240z" />
    <glyph glyph-name="Tcaron" unicode="&#x164;" horiz-adv-x="979" 
d="M334 0q-8 0 -12 5t-2 14l160 669l140 630h-387q-9 0 -13 5t-2 14l12 48q3 15 18 15h887q9 0 13 -5t2 -14l-12 -48q-3 -15 -18 -15h-392l-151 -630l-149 -673q-3 -15 -19 -15h-75zM464 1650q-9 6 -9 13q0 2 2 10l15 25q4 10 13 10q6 0 9 -2l237 -104l283 106q6 2 7 2
q9 0 14 -11l12 -26q2 -6 2 -8q0 -9 -10 -14l-282 -130q-9 -5 -21 -5h-27q-12 0 -21 5z" />
    <glyph glyph-name="tcaron" unicode="&#x165;" horiz-adv-x="589" 
d="M645 1030q8 0 12 -5t3 -14l-11 -44q-1 -7 -6 -11t-12 -4h-245l-158 -683q-12 -52 -12 -92q0 -56 28 -83t86 -27q44 0 92 8q2 1 6 1q13 0 10 -17l-9 -42q-3 -15 -13 -16q-56 -14 -119 -14q-79 0 -129.5 42t-50.5 136q0 47 13 103l159 684h-114q-9 0 -13 5t-2 14l10 44
q1 7 6.5 11t12.5 4h117l54 243q3 15 19 15h69q17 0 14 -19l-57 -239h240zM584 1128q-9 -12 -19 -12h-40q-15 0 -15 11q0 5 3 9l162 336q5 12 20 12h60q15 0 15 -11q0 -4 -3 -9z" />
    <glyph glyph-name="Tbar" unicode="&#x166;" horiz-adv-x="979" 
d="M1135 1400q9 0 13 -5t2 -14l-12 -48q-3 -15 -18 -15h-392l-149 -621h242q8 0 12 -5t2 -13l-12 -52q-2 -7 -6.5 -11t-11.5 -4h-245l-132 -597q-3 -15 -19 -15h-75q-8 0 -12 5t-2 14l142 593h-236q-8 0 -12 5t-2 14l12 52q1 7 6 10.5t12 3.5h241l137 621h-387q-9 0 -13 5
t-2 14l12 48q3 15 18 15h887z" />
    <glyph glyph-name="tbar" unicode="&#x167;" horiz-adv-x="591" 
d="M646 1030q8 0 12 -5t3 -14l-10 -44q-1 -7 -6.5 -11t-12.5 -4h-245l-82 -353h240q9 0 13 -5t2 -14l-10 -44q-3 -15 -18 -15h-245l-58 -252q-12 -52 -12 -92q0 -56 28 -83t86 -27q43 0 93 8q2 1 6 1q12 0 9 -17l-9 -42q-3 -15 -13 -16q-56 -14 -119 -14q-79 0 -129.5 42
t-50.5 136q0 47 13 103l59 253h-113q-9 0 -13 5t-2 14l10 44q3 15 18 15h118l82 353h-114q-8 0 -12 5t-3 14l10 44q1 7 6.5 11t12.5 4h117l54 243q1 7 6.5 11t12.5 4h69q8 0 12 -5t2 -14l-57 -239h240z" />
    <glyph glyph-name="Utilde" unicode="&#x168;" horiz-adv-x="1213" 
d="M296 30q-95 52 -142.5 144t-47.5 210q0 76 19 153l115 487l81 361q3 15 18 15h75q17 0 14 -19l-86 -356l-114 -492q-17 -76 -17 -141q0 -96 35.5 -170t108.5 -116.5t183 -42.5q169 0 283.5 112.5t166.5 333.5l122 515l80 361q3 15 19 15h70q18 0 15 -19l-86 -357
l-121 -514q-62 -262 -203 -397t-356 -135q-137 0 -232 52zM903.5 1557.5q-27.5 22.5 -59.5 65.5q-25 34 -43.5 50t-43.5 16q-36 0 -55.5 -31t-33.5 -95q-4 -14 -19 -14h-33q-8 0 -12 5t-3 13q22 91 60 141.5t102 50.5q45 0 74 -23t62 -67q26 -34 42.5 -49t39.5 -15
q39 0 58.5 31t34.5 94q5 15 19 15h33q8 0 12 -6.5t2 -16.5q-21 -90 -59.5 -138.5t-104.5 -48.5q-45 0 -72.5 22.5z" />
    <glyph glyph-name="utilde" unicode="&#x169;" horiz-adv-x="1000" 
d="M988 1030q8 0 12 -5t2 -14l-104 -431l-126 -565q-1 -7 -6.5 -11t-12.5 -4h-66q-8 0 -12 5t-2 14l49 196q-37 -66 -94 -120t-129.5 -86.5t-151.5 -32.5q-83 0 -147.5 34t-101 100.5t-36.5 159.5q0 57 15 126l45 193l95 426q1 7 6.5 11t12.5 4h69q8 0 12 -5t2 -14
l-100 -417l-42 -187q-16 -68 -16 -125q0 -112 57.5 -168.5t157.5 -56.5q114 0 207.5 80.5t167.5 222.5l55 234l94 421q2 7 6.5 11t11.5 4h70zM704.5 1187.5q-27.5 22.5 -59.5 65.5q-25 34 -43.5 50t-43.5 16q-36 0 -55.5 -31t-33.5 -95q-4 -14 -19 -14h-33q-8 0 -12 5t-3 13
q22 91 60 141.5t102 50.5q45 0 74 -23t62 -67q26 -34 42.5 -49t39.5 -15q39 0 58.5 31t34.5 94q5 15 19 15h33q8 0 12 -6.5t2 -16.5q-21 -90 -59.5 -138.5t-104.5 -48.5q-45 0 -72.5 22.5z" />
    <glyph glyph-name="Umacron" unicode="&#x16a;" horiz-adv-x="1213" 
d="M296 30q-95 52 -142.5 144t-47.5 210q0 76 19 153l115 487l81 361q3 15 18 15h75q17 0 14 -19l-86 -356l-114 -492q-17 -76 -17 -141q0 -96 35.5 -170t108.5 -116.5t183 -42.5q169 0 283.5 112.5t166.5 333.5l122 515l80 361q3 15 19 15h70q18 0 15 -19l-86 -357
l-121 -514q-62 -262 -203 -397t-356 -135q-137 0 -232 52zM607 1581q-8 0 -12 5t-3 14l11 46q3 14 19 14h504q9 0 13 -4.5t2 -13.5l-11 -46q-3 -15 -18 -15h-505z" />
    <glyph glyph-name="umacron" unicode="&#x16b;" horiz-adv-x="1000" 
d="M988 1030q8 0 12 -5t2 -14l-104 -431l-126 -565q-1 -7 -6.5 -11t-12.5 -4h-66q-8 0 -12 5t-2 14l49 196q-37 -66 -94 -120t-129.5 -86.5t-151.5 -32.5q-83 0 -147.5 34t-101 100.5t-36.5 159.5q0 57 15 126l45 193l95 426q1 7 6.5 11t12.5 4h69q8 0 12 -5t2 -14
l-100 -417l-42 -187q-16 -68 -16 -125q0 -112 57.5 -168.5t157.5 -56.5q114 0 207.5 80.5t167.5 222.5l55 234l94 421q2 7 6.5 11t11.5 4h70zM407 1211q-8 0 -12 5t-3 14l11 46q3 14 19 14h504q9 0 13 -4.5t2 -13.5l-11 -46q-3 -15 -18 -15h-505z" />
    <glyph glyph-name="Ubreve" unicode="&#x16c;" horiz-adv-x="1213" 
d="M296 30q-95 52 -142.5 144t-47.5 210q0 76 19 153l115 487l81 361q3 15 18 15h75q17 0 14 -19l-86 -356l-114 -492q-17 -76 -17 -141q0 -96 35.5 -170t108.5 -116.5t183 -42.5q169 0 283.5 112.5t166.5 333.5l122 515l80 361q3 15 19 15h70q18 0 15 -19l-86 -357
l-121 -514q-62 -262 -203 -397t-356 -135q-137 0 -232 52zM751 1544.5q-47 24.5 -71.5 68t-24.5 97.5q0 16 1 24q1 16 18 16h41q16 0 15 -18q-1 -6 -1 -18q0 -54 36 -87.5t101 -33.5q68 0 116.5 39t65.5 103q4 15 19 15h44q18 0 15 -18q-22 -95 -93.5 -153.5t-170.5 -58.5
q-64 0 -111 24.5z" />
    <glyph glyph-name="ubreve" unicode="&#x16d;" horiz-adv-x="1000" 
d="M988 1030q8 0 12 -5t2 -14l-104 -431l-126 -565q-1 -7 -6.5 -11t-12.5 -4h-66q-8 0 -12 5t-2 14l49 196q-37 -66 -94 -120t-129.5 -86.5t-151.5 -32.5q-83 0 -147.5 34t-101 100.5t-36.5 159.5q0 57 15 126l45 193l95 426q1 7 6.5 11t12.5 4h69q8 0 12 -5t2 -14
l-100 -417l-42 -187q-16 -68 -16 -125q0 -112 57.5 -168.5t157.5 -56.5q114 0 207.5 80.5t167.5 222.5l55 234l94 421q2 7 6.5 11t11.5 4h70zM552 1174.5q-47 24.5 -71.5 68t-24.5 97.5q0 16 1 24q1 16 18 16h41q16 0 15 -18q-1 -6 -1 -18q0 -54 36 -87.5t101 -33.5
q68 0 116.5 39t65.5 103q4 15 19 15h44q18 0 15 -18q-22 -95 -93.5 -153.5t-170.5 -58.5q-64 0 -111 24.5z" />
    <glyph glyph-name="Uring" unicode="&#x16e;" horiz-adv-x="1213" 
d="M296 30q-95 52 -142.5 144t-47.5 210q0 76 19 153l115 487l81 361q3 15 18 15h75q17 0 14 -19l-86 -356l-114 -492q-17 -76 -17 -141q0 -96 35.5 -170t108.5 -116.5t183 -42.5q169 0 283.5 112.5t166.5 333.5l122 515l80 361q3 15 19 15h70q18 0 15 -19l-86 -357
l-121 -514q-62 -262 -203 -397t-356 -135q-137 0 -232 52zM777.5 1539.5q-40.5 20.5 -63.5 58t-23 85.5q0 54 26 100t72.5 73t105.5 27q50 0 89.5 -20.5t62.5 -58t23 -85.5q0 -54 -26 -100t-72 -73t-105 -27q-49 0 -89.5 20.5zM967 1612.5q39 41.5 39 102.5q0 54 -32 85
t-81 31q-59 0 -98 -41.5t-39 -102.5q0 -55 31.5 -85.5t81.5 -30.5q59 0 98 41.5z" />
    <glyph glyph-name="uring" unicode="&#x16f;" horiz-adv-x="1000" 
d="M988 1030q8 0 12 -5t2 -14l-104 -431l-126 -565q-1 -7 -6.5 -11t-12.5 -4h-66q-8 0 -12 5t-2 14l49 196q-37 -66 -94 -120t-129.5 -86.5t-151.5 -32.5q-83 0 -147.5 34t-101 100.5t-36.5 159.5q0 57 15 126l45 193l95 426q1 7 6.5 11t12.5 4h69q8 0 12 -5t2 -14
l-100 -417l-42 -187q-16 -68 -16 -125q0 -112 57.5 -168.5t157.5 -56.5q114 0 207.5 80.5t167.5 222.5l55 234l94 421q2 7 6.5 11t11.5 4h70zM577.5 1169.5q-40.5 20.5 -63.5 58t-23 85.5q0 54 26 100t72.5 73t105.5 27q50 0 89.5 -20.5t62.5 -58t23 -85.5q0 -54 -26 -100
t-72 -73t-105 -27q-49 0 -89.5 20.5zM767 1242.5q39 41.5 39 102.5q0 54 -32 85t-81 31q-59 0 -98 -41.5t-39 -102.5q0 -55 31.5 -85.5t81.5 -30.5q59 0 98 41.5z" />
    <glyph glyph-name="Uhungarumlaut" unicode="&#x170;" horiz-adv-x="1213" 
d="M296 30q-95 52 -142.5 144t-47.5 210q0 76 19 153l115 487l81 361q3 15 18 15h75q17 0 14 -19l-86 -356l-114 -492q-17 -76 -17 -141q0 -96 35.5 -170t108.5 -116.5t183 -42.5q169 0 283.5 112.5t166.5 333.5l122 515l80 361q3 15 19 15h70q18 0 15 -19l-86 -357
l-121 -514q-62 -262 -203 -397t-356 -135q-137 0 -232 52zM693 1554q-7 -5 -12 -5q-8 0 -12 7l-14 15q-4 5 -4 11q0 7 6 13l287 274q6 6 12 6t12 -7l26 -33q4 -5 4 -12q0 -6 -6 -12zM960 1552q-7 -5 -12 -5q-7 0 -12 7l-14 15q-4 5 -4 11q0 7 6 13l287 275q7 5 12 5
q6 0 12 -7l26 -33q4 -5 4 -11t-6 -12z" />
    <glyph glyph-name="uhungarumlaut" unicode="&#x171;" horiz-adv-x="1000" 
d="M988 1030q8 0 12 -5t2 -14l-104 -431l-126 -565q-1 -7 -6.5 -11t-12.5 -4h-66q-8 0 -12 5t-2 14l49 196q-37 -66 -94 -120t-129.5 -86.5t-151.5 -32.5q-83 0 -147.5 34t-101 100.5t-36.5 159.5q0 57 15 126l45 193l95 426q1 7 6.5 11t12.5 4h69q8 0 12 -5t2 -14
l-100 -417l-42 -187q-16 -68 -16 -125q0 -112 57.5 -168.5t157.5 -56.5q114 0 207.5 80.5t167.5 222.5l55 234l94 421q2 7 6.5 11t11.5 4h70zM493 1184q-7 -5 -12 -5q-8 0 -12 7l-14 15q-4 5 -4 11q0 7 6 13l287 274q6 6 12 6t12 -7l26 -33q4 -5 4 -12q0 -6 -6 -12z
M760 1182q-7 -5 -12 -5q-7 0 -12 7l-14 15q-4 5 -4 11q0 7 6 13l287 275q7 5 12 5q6 0 12 -7l26 -33q4 -5 4 -11t-6 -12z" />
    <glyph glyph-name="Uogonek" unicode="&#x172;" horiz-adv-x="1213" 
d="M1279 1400q18 0 15 -19l-86 -357l-121 -514q-62 -262 -203 -397t-356 -135q-22 0 -32 1q-50 -28 -82.5 -70t-32.5 -90q0 -45 32 -69.5t94 -24.5h58q8 0 12 -5t2 -14l-9 -43q-3 -15 -19 -15h-65q-92 0 -144 43t-52 111q0 55 35 103t94 83q-152 29 -232.5 135t-80.5 261
q0 76 19 153l115 487l81 361q3 15 18 15h75q17 0 14 -19l-86 -356l-114 -492q-17 -76 -17 -141q0 -96 35.5 -170t108.5 -116.5t183 -42.5q169 0 283.5 112.5t166.5 333.5l122 515l80 361q3 15 19 15h70z" />
    <glyph glyph-name="uogonek" unicode="&#x173;" horiz-adv-x="1000" 
d="M988 1030q8 0 12 -5t2 -14l-104 -431l-126 -565q-1 -7 -6.5 -11t-12.5 -4h-13q-66 -23 -114 -72.5t-48 -108.5q0 -45 32 -69.5t94 -24.5h58q8 0 12 -5t2 -14l-9 -43q-3 -15 -19 -15h-65q-92 0 -144 43t-52 111t52 124t133 90q1 1 1 3l49 196q-37 -66 -94 -120
t-129.5 -86.5t-151.5 -32.5q-83 0 -147.5 34t-101 100.5t-36.5 159.5q0 57 15 126l45 193l95 426q1 7 6.5 11t12.5 4h69q8 0 12 -5t2 -14l-100 -417l-42 -187q-16 -68 -16 -125q0 -112 57.5 -168.5t157.5 -56.5q114 0 207.5 80.5t167.5 222.5l55 234l94 421q2 7 6.5 11
t11.5 4h70z" />
    <glyph glyph-name="Wcircumflex" unicode="&#x174;" horiz-adv-x="1700" 
d="M308 0q-16 0 -18 17l-55 1366v2q0 7 4.5 11t11.5 4h64q8 0 12.5 -4.5t4.5 -12.5l42 -1267l615 1272q6 12 20 12h83q18 0 18 -17l24 -1264l629 1269q6 12 20 12h69q14 0 14 -11q0 -3 -2 -9l-690 -1368q-4 -12 -20 -12h-83q-8 0 -12.5 4.5t-4.5 12.5l-35 1239l-608 -1244
q-4 -12 -19 -12h-84zM789 1562q-2 4 -2 7q0 10 11 15l282 130q10 5 21 5h26q12 0 21 -6l224 -129q10 -6 10 -13q0 -4 -3 -9l-15 -26q-5 -10 -14 -10l-8 2l-237 105l-282 -107q-6 -2 -7 -2q-10 0 -15 11z" />
    <glyph glyph-name="wcircumflex" unicode="&#x175;" horiz-adv-x="1376" 
d="M232 0q-16 0 -17 16l-67 997v2q0 15 16 15h60q16 0 17 -16l49 -914l447 918q6 12 20 12h88q16 0 16 -16l43 -911l456 915q5 12 20 12h65q14 0 14 -11l-2 -8l-507 -999q-6 -12 -20 -12h-85q-16 0 -17 16l-44 928l-450 -932q-6 -12 -19 -12h-83zM541 1192q-2 4 -2 7
q0 10 11 15l282 130q10 5 21 5h26q12 0 21 -6l224 -129q10 -6 10 -13q0 -4 -3 -9l-15 -26q-5 -10 -14 -10l-8 2l-237 105l-282 -107q-6 -2 -7 -2q-10 0 -15 11z" />
    <glyph glyph-name="Ycircumflex" unicode="&#x176;" horiz-adv-x="1065" 
d="M229 1381q-1 2 -1 6q0 13 15 13h73q15 0 18 -14l213 -783l578 787q8 10 21 10h79q7 0 11 -2.5t4 -7.5q0 -4 -5 -11l-659 -879l-109 -485q-1 -7 -6.5 -11t-12.5 -4h-74q-8 0 -12 5t-2 14l117 488zM469 1562q-2 4 -2 7q0 10 11 15l282 130q10 5 21 5h26q12 0 21 -6
l224 -129q10 -6 10 -13q0 -4 -3 -9l-15 -26q-5 -10 -14 -10l-8 2l-237 105l-282 -107q-6 -2 -7 -2q-10 0 -15 11z" />
    <glyph glyph-name="ycircumflex" unicode="&#x177;" horiz-adv-x="899" 
d="M125 -340q-7 0 -10.5 3t-3.5 8q0 4 3 9l191 324l-168 1008v4q0 14 16 14h68q15 0 18 -15l138 -888l511 892q6 11 19 11h72q7 0 11 -3t4 -8q0 -4 -3 -9l-778 -1339q-8 -11 -20 -11h-68zM303 1192q-2 4 -2 7q0 10 11 15l282 130q10 5 21 5h26q12 0 21 -6l224 -129
q10 -6 10 -13q0 -4 -3 -9l-15 -26q-5 -10 -14 -10l-8 2l-237 105l-282 -107q-6 -2 -7 -2q-10 0 -15 11z" />
    <glyph glyph-name="Ydieresis" unicode="&#x178;" horiz-adv-x="1065" 
d="M229 1381q-1 2 -1 6q0 13 15 13h73q15 0 18 -14l213 -783l578 787q8 10 21 10h79q7 0 11 -2.5t4 -7.5q0 -4 -5 -11l-659 -879l-109 -485q-1 -7 -6.5 -11t-12.5 -4h-74q-8 0 -12 5t-2 14l117 488zM609 1550q-9 0 -13 5t-2 14l25 104q3 15 19 15h72q9 0 13 -5t2 -14
l-25 -104q-1 -7 -6.5 -11t-12.5 -4h-72zM858 1550q-8 0 -12 5t-2 14l25 104q2 7 6.5 11t11.5 4h73q8 0 12 -5t2 -14l-25 -104q-3 -15 -18 -15h-73z" />
    <glyph glyph-name="Zacute" unicode="&#x179;" horiz-adv-x="1109" 
d="M-35 0q-8 0 -12 5t-2 14l13 58q2 8 10 20l1113 1221h-765q-8 0 -12 5t-3 14l12 48q3 15 18 15h874q18 0 15 -19l-14 -60q-2 -8 -11 -19l-1110 -1220h832q8 0 12 -5t3 -14l-11 -48q-2 -7 -6.5 -11t-11.5 -4h-944zM651 1521q-6 -2 -8 -2q-11 0 -14 11l-10 29q-1 2 -1 7
q0 9 10 15l420 197l8 2q9 0 14 -11l19 -54q2 -6 2 -7q0 -9 -12 -14z" />
    <glyph glyph-name="zacute" unicode="&#x17a;" horiz-adv-x="883" 
d="M-44 0q-8 0 -12 5t-2 14l12 51q3 12 10 20l817 860h-562q-9 0 -13 5t-2 14l11 46q5 15 19 15h671q8 0 12 -5t3 -14l-12 -48q-2 -9 -10 -20l-821 -863h629q8 0 12 -5t3 -14l-10 -46q-1 -7 -6.5 -11t-12.5 -4h-736zM451 1151q-6 -2 -8 -2q-11 0 -14 11l-10 29q-1 2 -1 7
q0 9 10 15l420 197l8 2q9 0 14 -11l19 -54q2 -6 2 -7q0 -9 -12 -14z" />
    <glyph glyph-name="Zdotaccent" unicode="&#x17b;" horiz-adv-x="1109" 
d="M-35 0q-8 0 -12 5t-2 14l13 58q2 8 10 20l1113 1221h-765q-8 0 -12 5t-3 14l12 48q3 15 18 15h874q18 0 15 -19l-14 -60q-2 -8 -11 -19l-1110 -1220h832q8 0 12 -5t3 -14l-11 -48q-2 -7 -6.5 -11t-11.5 -4h-944zM765 1550q-8 0 -12 5t-3 14l25 104q3 15 19 15h65
q8 0 12 -5t3 -14l-25 -104q-3 -15 -19 -15h-65z" />
    <glyph glyph-name="zdotaccent" unicode="&#x17c;" horiz-adv-x="883" 
d="M-44 0q-8 0 -12 5t-2 14l12 51q3 12 10 20l817 860h-562q-9 0 -13 5t-2 14l11 46q5 15 19 15h671q8 0 12 -5t3 -14l-12 -48q-2 -9 -10 -20l-821 -863h629q8 0 12 -5t3 -14l-10 -46q-1 -7 -6.5 -11t-12.5 -4h-736zM565 1180q-8 0 -12 5t-3 14l25 104q3 15 19 15h65
q8 0 12 -5t3 -14l-25 -104q-3 -15 -19 -15h-65z" />
    <glyph glyph-name="Zcaron" unicode="&#x17d;" horiz-adv-x="1109" 
d="M-35 0q-8 0 -12 5t-2 14l13 58q2 8 10 20l1113 1221h-765q-8 0 -12 5t-3 14l12 48q3 15 18 15h874q18 0 15 -19l-14 -60q-2 -8 -11 -19l-1110 -1220h832q8 0 12 -5t3 -14l-11 -48q-2 -7 -6.5 -11t-11.5 -4h-944zM532 1650q-9 6 -9 13q0 2 2 10l15 25q4 10 13 10q6 0 9 -2
l237 -104l283 106q6 2 7 2q9 0 14 -11l12 -26q2 -6 2 -8q0 -9 -10 -14l-282 -130q-9 -5 -21 -5h-27q-12 0 -21 5z" />
    <glyph glyph-name="zcaron" unicode="&#x17e;" horiz-adv-x="883" 
d="M-44 0q-8 0 -12 5t-2 14l12 51q3 12 10 20l817 860h-562q-9 0 -13 5t-2 14l11 46q5 15 19 15h671q8 0 12 -5t3 -14l-12 -48q-2 -9 -10 -20l-821 -863h629q8 0 12 -5t3 -14l-10 -46q-1 -7 -6.5 -11t-12.5 -4h-736zM332 1280q-9 6 -9 13q0 2 2 10l15 25q4 10 13 10
q6 0 9 -2l237 -104l283 106q6 2 7 2q9 0 14 -11l12 -26q2 -6 2 -8q0 -9 -10 -14l-282 -130q-9 -5 -21 -5h-27q-12 0 -21 5z" />
    <glyph glyph-name="florin" unicode="&#x192;" horiz-adv-x="609" 
d="M763 1398l-9 -40q-3 -17 -21 -12q-36 9 -76 9q-145 0 -196 -219l-24 -106h227q8 0 12 -5t2 -14l-10 -42q-3 -15 -18 -15h-232l-81 -352l-156 -671q-34 -153 -112.5 -222t-180.5 -69q-53 0 -94 13q-14 4 -11 21l9 40q3 17 21 12q36 -9 76 -9q71 0 121 53t75 166l155 667
l81 351h-142q-8 0 -12 5t-2 13l10 43q2 7 6.5 11t11.5 4h146l26 110q35 154 113 223t180 69q53 0 94 -13q14 -4 11 -21z" />
    <glyph glyph-name="Ohorn" unicode="&#x1a0;" horiz-adv-x="1438" 
d="M1473 1565q7 -7 7 -13t-6 -11l-233 -254q87 -76 134 -190.5t47 -260.5q0 -202 -85.5 -400.5t-254.5 -328t-406 -129.5q-169 0 -299 69.5t-202.5 203t-72.5 317.5q0 200 85.5 397.5t254.5 327t406 129.5q194 0 334 -90l229 262q6 6 12 6q4 0 11 -5zM1257.5 1109
q-58.5 113 -164.5 171.5t-246 58.5q-209 0 -353.5 -120.5t-214.5 -300t-70 -355.5q0 -159 58.5 -272t164 -171.5t246.5 -58.5q209 0 353 120.5t214.5 300t70.5 355.5q0 159 -58.5 272z" />
    <glyph glyph-name="ohorn" unicode="&#x1a1;" horiz-adv-x="1061" 
d="M1096 1194q7 -4 7 -12q0 -6 -5 -11l-211 -232q57 -57 87.5 -138.5t30.5 -184.5q0 -151 -61.5 -297.5t-183 -242t-292.5 -95.5q-121 0 -214 51.5t-145 150t-52 235.5q0 149 61.5 295t183.5 241t293 95q136 0 235 -64l204 238q7 7 12 7q4 0 11 -5zM867 811
q-39 80 -109.5 122t-164.5 42q-143 0 -242 -87t-147.5 -217.5t-48.5 -258.5q0 -112 39 -192.5t110.5 -122.5t165.5 -42q142 0 240.5 87t147 217.5t48.5 258.5q0 113 -39 193z" />
    <glyph glyph-name="Uhorn" unicode="&#x1af;" horiz-adv-x="1213" 
d="M1434 1565q7 -7 7 -13t-5 -11l-142 -157v-3l-86 -357l-121 -514q-62 -262 -203 -397t-356 -135q-137 0 -232 52t-142.5 144t-47.5 210q0 76 19 153l115 487l81 361q3 15 18 15h75q17 0 14 -19l-86 -356l-114 -492q-17 -76 -17 -141q0 -96 35.5 -170t108.5 -116.5
t183 -42.5q169 0 283.5 112.5t166.5 333.5l122 515l80 361q3 15 19 15h8l1 2l154 191q5 7 12 7q5 0 12 -5z" />
    <glyph glyph-name="uhorn" unicode="&#x1b0;" horiz-adv-x="1000" 
d="M1146 1195q7 -7 7 -13t-5 -11l-147 -162l-103 -429l-126 -565q-1 -7 -6.5 -11t-12.5 -4h-66q-8 0 -12 5t-2 14l49 196q-37 -66 -94 -120t-129.5 -86.5t-151.5 -32.5q-83 0 -147.5 34t-101 100.5t-36.5 159.5q0 57 15 126l45 193l95 426q1 7 6.5 11t12.5 4h69q8 0 12 -5
t2 -14l-100 -417l-42 -187q-16 -68 -16 -125q0 -112 57.5 -168.5t157.5 -56.5q114 0 207.5 80.5t167.5 222.5l55 234l94 421q2 7 6.5 11t11.5 4h11l1 2l154 191q5 7 12 7q5 0 12 -5z" />
    <glyph glyph-name="uni0218" unicode="&#x218;" horiz-adv-x="1195" 
d="M306.5 32q-117.5 50 -184.5 147.5t-67 233.5q0 29 3 60q0 7 4.5 11.5t12.5 4.5h71q8 0 12 -4.5t3 -12.5q-3 -25 -3 -50q0 -108 51.5 -189t146.5 -125t223 -44q127 0 219 40.5t140 111.5t48 161q0 86 -48 139.5t-119 83.5t-193 67q-135 40 -216 75.5t-137.5 103.5
t-56.5 178q0 115 65.5 205t181 140.5t259.5 50.5q133 0 241.5 -45t172 -140t62.5 -236q0 -16 -17 -16h-71q-17 0 -17 21q0 170 -105.5 251.5t-274.5 81.5q-114 0 -203.5 -35t-141 -103t-51.5 -162q0 -84 47.5 -137t118.5 -82.5t191 -64.5q135 -39 217 -75.5t139 -105.5
t57 -180q0 -116 -61.5 -209t-178 -147t-273.5 -54q-150 0 -267.5 50zM337 -389q-11 0 -11 9q0 4 3 10l68 138l27 117q3 15 18 15h77q8 0 12 -4.5t2 -13.5l-23 -103q-3 -12 -9 -19l-119 -140q-8 -9 -20 -9h-25z" />
    <glyph glyph-name="uni0219" unicode="&#x219;" horiz-adv-x="952" 
d="M218 23q-96 44 -145.5 127.5t-44.5 199.5q0 8 4.5 12.5t12.5 4.5h62q7 0 11.5 -5t4.5 -13q-3 -90 34.5 -157t112 -103.5t181.5 -36.5q86 0 152.5 28.5t104 78.5t37.5 113q0 61 -37 100t-91.5 61t-150.5 49q-108 30 -173.5 57.5t-111 80t-45.5 137.5q0 86 52.5 153
t142.5 104t198 37q106 0 191.5 -34.5t137.5 -104.5t59 -173v-2q0 -15 -16 -15h-60q-8 0 -12.5 4.5t-4.5 11.5q-9 123 -91.5 182t-207.5 59q-80 0 -145.5 -25.5t-104 -74t-38.5 -114.5q0 -60 36.5 -98t90.5 -59t149 -47q108 -30 173.5 -57t111.5 -80t46 -139
q0 -87 -51 -156.5t-141.5 -109.5t-205.5 -40q-132 0 -228 44zM213 -389q-11 0 -11 9q0 4 3 10l68 138l27 117q3 15 18 15h77q8 0 12 -4.5t2 -13.5l-23 -103q-3 -12 -9 -19l-119 -140q-8 -9 -20 -9h-25z" />
    <glyph glyph-name="uni021A" unicode="&#x21a;" horiz-adv-x="979" 
d="M334 0q-8 0 -12 5t-2 14l160 669l140 630h-387q-9 0 -13 5t-2 14l12 48q3 15 18 15h887q9 0 13 -5t2 -14l-12 -48q-3 -15 -18 -15h-392l-151 -630l-149 -673q-3 -15 -19 -15h-75zM203 -389q-11 0 -11 9q0 4 3 10l68 138l27 117q3 15 18 15h77q8 0 12 -4.5t2 -13.5
l-23 -103q-3 -12 -9 -19l-119 -140q-8 -9 -20 -9h-25z" />
    <glyph glyph-name="uni021B" unicode="&#x21b;" horiz-adv-x="589" 
d="M645 1030q8 0 12 -5t3 -14l-11 -44q-1 -7 -6 -11t-12 -4h-245l-158 -683q-12 -52 -12 -92q0 -56 28 -83t86 -27q44 0 92 8q2 1 6 1q13 0 10 -17l-9 -42q-3 -15 -13 -16q-56 -14 -119 -14q-79 0 -129.5 42t-50.5 136q0 47 13 103l159 684h-114q-9 0 -13 5t-2 14l10 44
q1 7 6.5 11t12.5 4h117l54 243q3 15 19 15h69q17 0 14 -19l-57 -239h240zM86 -389q-11 0 -11 9q0 4 3 10l68 138l27 117q3 15 18 15h77q8 0 12 -4.5t2 -13.5l-23 -103q-3 -12 -9 -19l-119 -140q-8 -9 -20 -9h-25z" />
    <glyph glyph-name="uni0237" unicode="&#x237;" horiz-adv-x="347" 
d="M-57 -340q-8 0 -12 5t-2 14l148 634l159 702q1 7 6.5 11t12.5 4h69q8 0 12 -5t2 -14l-164 -698l-143 -638q-1 -7 -6.5 -11t-12.5 -4h-69z" />
    <glyph glyph-name="uni0259" unicode="&#x259;" horiz-adv-x="1032" 
d="M239.5 28q-88.5 47 -137 135.5t-48.5 208.5q0 59 12 123q3 15 18 15h786q8 49 8 108q0 173 -85.5 265t-235.5 92q-272 0 -362 -298q-6 -15 -20 -15h-61q-14 0 -14 15q0 6 1 9q58 186 175 274.5t282 88.5q127 0 221 -50.5t145.5 -148.5t51.5 -236q0 -150 -60 -296.5
t-180 -241.5t-291 -95q-117 0 -205.5 47zM156 435q-7 -39 -7 -82q0 -88 36 -155.5t103.5 -105t159.5 -37.5q110 0 193.5 52.5t136.5 138.5t78 189h-700z" />
    <glyph glyph-name="quoteleft" unicode="&#x2bb;" horiz-adv-x="260" 
d="M402 1400q11 0 11 -9q0 -5 -3 -11l-72 -144l-28 -126q-1 -7 -6.5 -10.5t-12.5 -3.5h-74q-18 0 -15 18l26 111q1 9 9 19l120 146q8 10 20 10h25z" />
    <glyph glyph-name="quoteleft" unicode="&#x2018;" horiz-adv-x="260" 
d="M402 1400q11 0 11 -9q0 -5 -3 -11l-72 -144l-28 -126q-1 -7 -6.5 -10.5t-12.5 -3.5h-74q-18 0 -15 18l26 111q1 9 9 19l120 146q8 10 20 10h25z" />
    <glyph glyph-name="quoteright" unicode="&#x2bc;" horiz-adv-x="259" 
d="M194 1096q-11 0 -11 9q0 4 3 10l72 144l28 126q1 7 6.5 11t12.5 4h74q8 0 12 -5t3 -14l-26 -111q-1 -10 -9 -18l-120 -146q-7 -10 -20 -10h-25z" />
    <glyph glyph-name="quoteright" unicode="&#x2019;" horiz-adv-x="259" 
d="M194 1096q-11 0 -11 9q0 4 3 10l72 144l28 126q1 7 6.5 11t12.5 4h74q8 0 12 -5t3 -14l-26 -111q-1 -10 -9 -18l-120 -146q-7 -10 -20 -10h-25z" />
    <glyph glyph-name="circumflex" unicode="&#x2c6;" horiz-adv-x="802" 
d="M263 1192q-2 4 -2 7q0 10 11 15l282 130q10 5 21 5h26q12 0 21 -6l224 -129q10 -6 10 -13q0 -4 -3 -9l-15 -26q-5 -10 -14 -10l-8 2l-237 105l-282 -107q-6 -2 -7 -2q-10 0 -15 11z" />
    <glyph glyph-name="caron" unicode="&#x2c7;" horiz-adv-x="806" 
d="M291 1280q-9 6 -9 13q0 2 2 10l15 25q4 10 13 10q6 0 9 -2l237 -104l283 106q6 2 7 2q9 0 14 -11l12 -26q2 -6 2 -8q0 -9 -10 -14l-282 -130q-9 -5 -21 -5h-27q-12 0 -21 5z" />
    <glyph glyph-name="breve" unicode="&#x2d8;" horiz-adv-x="665" 
d="M371 1174.5q-47 24.5 -71.5 68t-24.5 97.5q0 16 1 24q1 16 18 16h41q16 0 15 -18q-1 -6 -1 -18q0 -54 36 -87.5t101 -33.5q68 0 116.5 39t65.5 103q4 15 19 15h44q18 0 15 -18q-22 -95 -93.5 -153.5t-170.5 -58.5q-64 0 -111 24.5z" />
    <glyph glyph-name="dotaccent" unicode="&#x2d9;" horiz-adv-x="299" 
d="M271 1180q-8 0 -12 5t-3 14l25 104q3 15 19 15h65q8 0 12 -5t3 -14l-25 -104q-3 -15 -19 -15h-65z" />
    <glyph glyph-name="ring" unicode="&#x2da;" horiz-adv-x="583" 
d="M376.5 1169.5q-40.5 20.5 -63.5 58t-23 85.5q0 54 26 100t72.5 73t105.5 27q50 0 89.5 -20.5t62.5 -58t23 -85.5q0 -54 -26 -100t-72 -73t-105 -27q-49 0 -89.5 20.5zM566 1242.5q39 41.5 39 102.5q0 54 -32 85t-81 31q-59 0 -98 -41.5t-39 -102.5q0 -55 31.5 -85.5
t81.5 -30.5q59 0 98 41.5z" />
    <glyph glyph-name="ogonek" unicode="&#x2db;" horiz-adv-x="508" 
d="M126 -352q-92 0 -144 43t-52 111q0 79 69 141t167 91q3 1 8 1q7 0 13 -9l3 -5q2 -3 2 -9q0 -9 -9 -12q-66 -23 -114 -72.5t-48 -108.5q0 -45 32 -69.5t94 -24.5h58q8 0 12 -5t2 -14l-9 -43q-3 -15 -19 -15h-65z" />
    <glyph glyph-name="tilde" unicode="&#x2dc;" horiz-adv-x="704" 
d="M560.5 1187.5q-27.5 22.5 -59.5 65.5q-25 34 -43.5 50t-43.5 16q-36 0 -55.5 -31t-33.5 -95q-4 -14 -19 -14h-33q-8 0 -12 5t-3 13q22 91 60 141.5t102 50.5q45 0 74 -23t62 -67q26 -34 42.5 -49t39.5 -15q39 0 58.5 31t34.5 94q5 15 19 15h33q8 0 12 -6.5t2 -16.5
q-21 -90 -59.5 -138.5t-104.5 -48.5q-45 0 -72.5 22.5z" />
    <glyph glyph-name="hungarumlaut" unicode="&#x2dd;" horiz-adv-x="772" 
d="M309 1184q-7 -5 -12 -5q-8 0 -12 7l-14 15q-4 5 -4 11q0 7 6 13l287 274q6 6 12 6t12 -7l26 -33q4 -5 4 -12q0 -6 -6 -12zM576 1182q-7 -5 -12 -5q-7 0 -12 7l-14 15q-4 5 -4 11q0 7 6 13l287 275q7 5 12 5q6 0 12 -7l26 -33q4 -5 4 -11t-6 -12z" />
    <glyph glyph-name="gravecomb" unicode="&#x300;" 
d="M30 1157q-8 -13 -22 -7l-386 179q-10 4 -10 13q0 5 3 9l26 53q4 9 13 9q4 0 9 -3l373 -202q9 -4 9 -14q0 -6 -2 -9z" />
    <glyph glyph-name="acutecomb" unicode="&#x301;" 
d="M-350 1151q-6 -2 -8 -2q-11 0 -14 11l-10 29q-1 2 -1 7q0 9 10 15l420 197l8 2q9 0 14 -11l19 -54q2 -6 2 -7q0 -9 -12 -14z" />
    <glyph glyph-name="uni0302" unicode="&#x302;" 
d="M-539 1192q-2 4 -2 7q0 10 11 15l282 130q10 5 21 5h26q12 0 21 -6l224 -129q10 -6 10 -13q0 -4 -3 -9l-15 -26q-5 -10 -14 -10l-8 2l-237 105l-282 -107q-6 -2 -7 -2q-10 0 -15 11z" />
    <glyph glyph-name="tildecomb" unicode="&#x303;" 
d="M-143.5 1187.5q-27.5 22.5 -59.5 65.5q-25 34 -43.5 50t-43.5 16q-36 0 -55.5 -31t-33.5 -95q-4 -14 -19 -14h-33q-8 0 -12 5t-3 13q22 91 60 141.5t102 50.5q45 0 74 -23t62 -67q26 -34 42.5 -49t39.5 -15q39 0 58.5 31t34.5 94q5 15 19 15h33q8 0 12 -6.5t2 -16.5
q-21 -90 -59.5 -138.5t-104.5 -48.5q-45 0 -72.5 22.5z" />
    <glyph glyph-name="uni0304" unicode="&#x304;" 
d="M-455 1211q-8 0 -12 5t-3 14l11 46q3 14 19 14h504q9 0 13 -4.5t2 -13.5l-11 -46q-3 -15 -18 -15h-505z" />
    <glyph glyph-name="uni0306" unicode="&#x306;" 
d="M-294 1174.5q-47 24.5 -71.5 68t-24.5 97.5q0 16 1 24q1 16 18 16h41q16 0 15 -18q-1 -6 -1 -18q0 -54 36 -87.5t101 -33.5q68 0 116.5 39t65.5 103q4 15 19 15h44q18 0 15 -18q-22 -95 -93.5 -153.5t-170.5 -58.5q-64 0 -111 24.5z" />
    <glyph glyph-name="uni0307" unicode="&#x307;" 
d="M-28 1180q-8 0 -12 5t-3 14l25 104q3 15 19 15h65q8 0 12 -5t3 -14l-25 -104q-3 -15 -19 -15h-65z" />
    <glyph glyph-name="uni0308" unicode="&#x308;" 
d="M-287 1180q-9 0 -13 5t-2 14l25 104q3 15 19 15h72q9 0 13 -5t2 -14l-25 -104q-1 -7 -6.5 -11t-12.5 -4h-72zM-38 1180q-8 0 -12 5t-2 14l25 104q2 7 6.5 11t11.5 4h73q8 0 12 -5t2 -14l-25 -104q-3 -15 -18 -15h-73z" />
    <glyph glyph-name="hookabovecomb" unicode="&#x309;" 
d="M-153 1151q-9 0 -13 5t-1 14q13 36 39 57t69 45q40 21 58.5 38t18.5 45t-24 44.5t-67 16.5q-45 0 -72.5 -18.5t-40.5 -54.5q-5 -14 -19 -14h-42q-8 0 -12.5 5.5t-1.5 13.5q22 65 71.5 98.5t121.5 33.5t118 -33t46 -87q0 -34 -14.5 -58t-35.5 -39t-56 -34q-32 -17 -51 -31
t-28 -34q-6 -13 -20 -13h-44z" />
    <glyph glyph-name="uni030A" unicode="&#x30a;" 
d="M-206.5 1169.5q-40.5 20.5 -63.5 58t-23 85.5q0 54 26 100t72.5 73t105.5 27q50 0 89.5 -20.5t62.5 -58t23 -85.5q0 -54 -26 -100t-72 -73t-105 -27q-49 0 -89.5 20.5zM-17 1242.5q39 41.5 39 102.5q0 54 -32 85t-81 31q-59 0 -98 -41.5t-39 -102.5q0 -55 31.5 -85.5
t81.5 -30.5q59 0 98 41.5z" />
    <glyph glyph-name="uni030B" unicode="&#x30b;" 
d="M-463 1184q-7 -5 -12 -5q-8 0 -12 7l-14 15q-4 5 -4 11q0 7 6 13l287 274q6 6 12 6t12 -7l26 -33q4 -5 4 -12q0 -6 -6 -12zM-196 1182q-7 -5 -12 -5q-7 0 -12 7l-14 15q-4 5 -4 11q0 7 6 13l287 275q7 5 12 5q6 0 12 -7l26 -33q4 -5 4 -11t-6 -12z" />
    <glyph glyph-name="uni030C" unicode="&#x30c;" 
d="M-515 1280q-9 6 -9 13q0 2 2 10l15 25q4 10 13 10q6 0 9 -2l237 -104l283 106q6 2 7 2q9 0 14 -11l12 -26q2 -6 2 -8q0 -9 -10 -14l-282 -130q-9 -5 -21 -5h-27q-12 0 -21 5z" />
    <glyph glyph-name="uni0312" unicode="&#x312;" 
d="M-88 1177q-8 0 -12 5t-3 14l24 103q1 10 9 18l119 140q8 10 20 10h28q15 0 15 -12q0 -6 -2 -9l-77 -137l-26 -117q-3 -15 -19 -15h-76z" />
    <glyph glyph-name="uni031B" unicode="&#x31b;" 
d="M-183 923q-5 -5 -11 -5q-8 0 -12 7l-24 34q-4 8 -4 11q0 6 6 12l207 241q7 7 12 7q4 0 11 -5l39 -31q7 -4 7 -12q0 -6 -5 -11z" />
    <glyph glyph-name="dotbelowcomb" unicode="&#x323;" 
d="M-367 -272q-9 0 -13 5t-2 14l25 104q3 15 19 15h67q9 0 13 -5t2 -14l-25 -104q-2 -7 -6.5 -11t-11.5 -4h-68z" />
    <glyph glyph-name="uni0326" unicode="&#x326;" 
d="M-444 -389q-11 0 -11 9q0 4 3 10l68 138l27 117q3 15 18 15h77q8 0 12 -4.5t2 -13.5l-23 -103q-3 -12 -9 -19l-119 -140q-8 -9 -20 -9h-25z" />
    <glyph glyph-name="uni0327" unicode="&#x327;" 
d="M-397 -323q-3 -6 -9 -8.5t-13 -0.5l-55 13q-12 3 -12 13q0 4 3 9l191 319q8 14 22 8l38 -8q14 -8 8 -22z" />
    <glyph glyph-name="uni0328" unicode="&#x328;" 
d="M-382 -352q-92 0 -144 43t-52 111q0 79 69 141t167 91q3 1 8 1q7 0 13 -9l3 -5q2 -3 2 -9q0 -9 -9 -12q-66 -23 -114 -72.5t-48 -108.5q0 -45 32 -69.5t94 -24.5h58q8 0 12 -5t2 -14l-9 -43q-3 -15 -19 -15h-65z" />
    <glyph glyph-name="uni0394" unicode="&#x394;" horiz-adv-x="1213" 
d="M-71 0q-8 0 -12 5t-2 14l12 55q3 12 8 19l806 1296q7 11 20 11h99q16 0 19 -15l201 -1291q2 -8 2 -10t-2 -10l-13 -59q-2 -7 -6.5 -11t-11.5 -4h-1120zM798 1320l-754 -1236h938z" />
    <glyph glyph-name="uni0394" unicode="&#x2206;" horiz-adv-x="1213" 
d="M-71 0q-8 0 -12 5t-2 14l12 55q3 12 8 19l806 1296q7 11 20 11h99q16 0 19 -15l201 -1291q2 -8 2 -10t-2 -10l-13 -59q-2 -7 -6.5 -11t-11.5 -4h-1120zM798 1320l-754 -1236h938z" />
    <glyph glyph-name="uni03A9" unicode="&#x3a9;" horiz-adv-x="1467" 
d="M1239 85q19 0 14 -19l-11 -51q-3 -15 -19 -15h-419q-8 0 -12 5t-2 14l12 51q2 13 18 22q242 121 377.5 315.5t135.5 433.5q0 160 -61 272t-170.5 169t-252.5 57q-206 0 -345 -109t-205.5 -274.5t-66.5 -334.5q0 -158 56.5 -283t159.5 -241q8 -8 8 -21q0 -6 -1 -10
l-12 -51q-1 -7 -6 -11t-12 -4h-417q-17 0 -14 19l12 51q3 15 18 15h313q-102 115 -157.5 246t-55.5 293q0 196 80.5 379t244.5 300t400 117q175 0 309 -68t209 -197.5t75 -308.5q0 -153 -55 -295t-161.5 -261t-257.5 -205h271z" />
    <glyph glyph-name="uni03A9" unicode="&#x2126;" horiz-adv-x="1467" 
d="M1239 85q19 0 14 -19l-11 -51q-3 -15 -19 -15h-419q-8 0 -12 5t-2 14l12 51q2 13 18 22q242 121 377.5 315.5t135.5 433.5q0 160 -61 272t-170.5 169t-252.5 57q-206 0 -345 -109t-205.5 -274.5t-66.5 -334.5q0 -158 56.5 -283t159.5 -241q8 -8 8 -21q0 -6 -1 -10
l-12 -51q-1 -7 -6 -11t-12 -4h-417q-17 0 -14 19l12 51q3 15 18 15h313q-102 115 -157.5 246t-55.5 293q0 196 80.5 379t244.5 300t400 117q175 0 309 -68t209 -197.5t75 -308.5q0 -153 -55 -295t-161.5 -261t-257.5 -205h271z" />
    <glyph glyph-name="pi" unicode="&#x3c0;" horiz-adv-x="1001" 
d="M10 0q-18 0 -15 19l105 431l126 565q3 15 18 15h751q8 0 12 -5t2 -14l-133 -570l-95 -426q-3 -15 -18 -15h-70q-8 0 -12 5t-2 14l102 431l116 502h-587l-117 -511l-95 -426q-3 -15 -19 -15h-69z" />
    <glyph glyph-name="Wgrave" unicode="&#x1e80;" horiz-adv-x="1700" 
d="M308 0q-16 0 -18 17l-55 1366v2q0 7 4.5 11t11.5 4h64q8 0 12.5 -4.5t4.5 -12.5l42 -1267l615 1272q6 12 20 12h83q18 0 18 -17l24 -1264l629 1269q6 12 20 12h69q14 0 14 -11q0 -3 -2 -9l-690 -1368q-4 -12 -20 -12h-83q-8 0 -12.5 4.5t-4.5 12.5l-35 1239l-608 -1244
q-4 -12 -19 -12h-84zM1261 1527q-8 -13 -22 -7l-386 179q-10 4 -10 13q0 5 3 9l26 53q4 9 13 9q4 0 9 -3l373 -202q9 -4 9 -14q0 -6 -2 -9z" />
    <glyph glyph-name="wgrave" unicode="&#x1e81;" horiz-adv-x="1376" 
d="M232 0q-16 0 -17 16l-67 997v2q0 15 16 15h60q16 0 17 -16l49 -914l447 918q6 12 20 12h88q16 0 16 -16l43 -911l456 915q5 12 20 12h65q14 0 14 -11l-2 -8l-507 -999q-6 -12 -20 -12h-85q-16 0 -17 16l-44 928l-450 -932q-6 -12 -19 -12h-83zM1012 1157q-8 -13 -22 -7
l-386 179q-10 4 -10 13q0 5 3 9l26 53q4 9 13 9q4 0 9 -3l373 -202q9 -4 9 -14q0 -6 -2 -9z" />
    <glyph glyph-name="Wacute" unicode="&#x1e82;" horiz-adv-x="1700" 
d="M308 0q-16 0 -18 17l-55 1366v2q0 7 4.5 11t11.5 4h64q8 0 12.5 -4.5t4.5 -12.5l42 -1267l615 1272q6 12 20 12h83q18 0 18 -17l24 -1264l629 1269q6 12 20 12h69q14 0 14 -11q0 -3 -2 -9l-690 -1368q-4 -12 -20 -12h-83q-8 0 -12.5 4.5t-4.5 12.5l-35 1239l-608 -1244
q-4 -12 -19 -12h-84zM940 1521q-6 -2 -8 -2q-11 0 -14 11l-10 29q-1 2 -1 7q0 9 10 15l420 197l8 2q9 0 14 -11l19 -54q2 -6 2 -7q0 -9 -12 -14z" />
    <glyph glyph-name="wacute" unicode="&#x1e83;" horiz-adv-x="1376" 
d="M232 0q-16 0 -17 16l-67 997v2q0 15 16 15h60q16 0 17 -16l49 -914l447 918q6 12 20 12h88q16 0 16 -16l43 -911l456 915q5 12 20 12h65q14 0 14 -11l-2 -8l-507 -999q-6 -12 -20 -12h-85q-16 0 -17 16l-44 928l-450 -932q-6 -12 -19 -12h-83zM692 1151q-6 -2 -8 -2
q-11 0 -14 11l-10 29q-1 2 -1 7q0 9 10 15l420 197l8 2q9 0 14 -11l19 -54q2 -6 2 -7q0 -9 -12 -14z" />
    <glyph glyph-name="Wdieresis" unicode="&#x1e84;" horiz-adv-x="1700" 
d="M308 0q-16 0 -18 17l-55 1366v2q0 7 4.5 11t11.5 4h64q8 0 12.5 -4.5t4.5 -12.5l42 -1267l615 1272q6 12 20 12h83q18 0 18 -17l24 -1264l629 1269q6 12 20 12h69q14 0 14 -11q0 -3 -2 -9l-690 -1368q-4 -12 -20 -12h-83q-8 0 -12.5 4.5t-4.5 12.5l-35 1239l-608 -1244
q-4 -12 -19 -12h-84zM929 1550q-9 0 -13 5t-2 14l25 104q3 15 19 15h72q9 0 13 -5t2 -14l-25 -104q-1 -7 -6.5 -11t-12.5 -4h-72zM1178 1550q-8 0 -12 5t-2 14l25 104q2 7 6.5 11t11.5 4h73q8 0 12 -5t2 -14l-25 -104q-3 -15 -18 -15h-73z" />
    <glyph glyph-name="wdieresis" unicode="&#x1e85;" horiz-adv-x="1376" 
d="M232 0q-16 0 -17 16l-67 997v2q0 15 16 15h60q16 0 17 -16l49 -914l447 918q6 12 20 12h88q16 0 16 -16l43 -911l456 915q5 12 20 12h65q14 0 14 -11l-2 -8l-507 -999q-6 -12 -20 -12h-85q-16 0 -17 16l-44 928l-450 -932q-6 -12 -19 -12h-83zM680 1180q-9 0 -13 5t-2 14
l25 104q3 15 19 15h72q9 0 13 -5t2 -14l-25 -104q-1 -7 -6.5 -11t-12.5 -4h-72zM929 1180q-8 0 -12 5t-2 14l25 104q2 7 6.5 11t11.5 4h73q8 0 12 -5t2 -14l-25 -104q-3 -15 -18 -15h-73z" />
    <glyph glyph-name="uni1EA0" unicode="&#x1ea0;" horiz-adv-x="1192" 
d="M1051 18v-4q0 -14 -15 -14h-67q-17 0 -18 16l-58 455h-601l-271 -460q-8 -11 -20 -11h-77q-7 0 -11 3t-4 8t3 9l819 1369q7 11 20 11h99q17 0 18 -16zM883 556l-96 761l-447 -761h543zM388 -272q-9 0 -13 5t-2 14l25 104q3 15 19 15h67q9 0 13 -5t2 -14l-25 -104
q-2 -7 -6.5 -11t-11.5 -4h-68z" />
    <glyph glyph-name="uni1EA1" unicode="&#x1ea1;" horiz-adv-x="1030" 
d="M1018 1030q8 0 12 -5t2 -14l-115 -478l-115 -518q-3 -15 -18 -15h-65q-9 0 -13 5t-2 14l42 168q-64 -93 -152.5 -146.5t-199.5 -53.5q-107 0 -184.5 49.5t-118 139.5t-40.5 210q0 141 56 294t172.5 259t287.5 106q130 0 211.5 -67t105.5 -193l49 230q3 15 18 15h67z
M645 152.5q97 93.5 147.5 233t50.5 271.5q0 156 -71 235t-198 79q-148 0 -243.5 -97t-138.5 -233t-43 -256q0 -149 70 -237.5t197 -88.5q132 0 229 93.5zM344 -290q-9 0 -13 5t-2 14l25 104q3 15 19 15h67q9 0 13 -5t2 -14l-25 -104q-2 -7 -6.5 -11t-11.5 -4h-68z" />
    <glyph glyph-name="uni1EA2" unicode="&#x1ea2;" horiz-adv-x="1192" 
d="M1051 18v-4q0 -14 -15 -14h-67q-17 0 -18 16l-58 455h-601l-271 -460q-8 -11 -20 -11h-77q-7 0 -11 3t-4 8t3 9l819 1369q7 11 20 11h99q17 0 18 -16zM883 556l-96 761l-447 -761h543zM810 1521q-9 0 -13 5t-1 14q13 36 39 57t69 45q40 21 58.5 38t18.5 45t-24 44.5
t-67 16.5q-45 0 -72.5 -18.5t-40.5 -54.5q-5 -14 -19 -14h-42q-8 0 -12.5 5.5t-1.5 13.5q22 65 71.5 98.5t121.5 33.5t118 -33t46 -87q0 -34 -14.5 -58t-35.5 -39t-56 -34q-32 -17 -51 -31t-28 -34q-6 -13 -20 -13h-44z" />
    <glyph glyph-name="uni1EA3" unicode="&#x1ea3;" horiz-adv-x="1030" 
d="M1018 1030q8 0 12 -5t2 -14l-115 -478l-115 -518q-3 -15 -18 -15h-65q-9 0 -13 5t-2 14l42 168q-64 -93 -152.5 -146.5t-199.5 -53.5q-107 0 -184.5 49.5t-118 139.5t-40.5 210q0 141 56 294t172.5 259t287.5 106q130 0 211.5 -67t105.5 -193l49 230q3 15 18 15h67z
M645 152.5q97 93.5 147.5 233t50.5 271.5q0 156 -71 235t-198 79q-148 0 -243.5 -97t-138.5 -233t-43 -256q0 -149 70 -237.5t197 -88.5q132 0 229 93.5zM619 1151q-9 0 -13 5t-1 14q13 36 39 57t69 45q40 21 58.5 38t18.5 45t-24 44.5t-67 16.5q-45 0 -72.5 -18.5
t-40.5 -54.5q-5 -14 -19 -14h-42q-8 0 -12.5 5.5t-1.5 13.5q22 65 71.5 98.5t121.5 33.5t118 -33t46 -87q0 -34 -14.5 -58t-35.5 -39t-56 -34q-32 -17 -51 -31t-28 -34q-6 -13 -20 -13h-44z" />
    <glyph glyph-name="uni1EA4" unicode="&#x1ea4;" horiz-adv-x="1192" 
d="M1051 18v-4q0 -14 -15 -14h-67q-17 0 -18 16l-58 455h-601l-271 -460q-8 -11 -20 -11h-77q-7 0 -11 3t-4 8t3 9l819 1369q7 11 20 11h99q17 0 18 -16zM883 556l-96 761l-447 -761h543zM1054 1676q-4 -6 -11 -6q-5 0 -12 7l-20 22q-4 5 -4 11q0 7 5 12l254 243q5 5 11 5
q8 0 12 -6l29 -32q4 -5 4 -11q0 -7 -6 -13zM531 1524q-2 6 -2 8q0 10 11 15l281 130q12 5 21 5h27q11 0 21 -6l224 -129q9 -6 9 -13q0 -3 -2 -9l-15 -26q-4 -10 -13 -10q-3 0 -9 2l-237 105l-283 -107q-4 -2 -7 -2q-9 0 -14 11z" />
    <glyph glyph-name="uni1EA5" unicode="&#x1ea5;" horiz-adv-x="1030" 
d="M1018 1030q8 0 12 -5t2 -14l-115 -478l-115 -518q-3 -15 -18 -15h-65q-9 0 -13 5t-2 14l42 168q-64 -93 -152.5 -146.5t-199.5 -53.5q-107 0 -184.5 49.5t-118 139.5t-40.5 210q0 141 56 294t172.5 259t287.5 106q130 0 211.5 -67t105.5 -193l49 230q3 15 18 15h67z
M645 152.5q97 93.5 147.5 233t50.5 271.5q0 156 -71 235t-198 79q-148 0 -243.5 -97t-138.5 -233t-43 -256q0 -149 70 -237.5t197 -88.5q132 0 229 93.5zM862 1306q-4 -6 -11 -6q-5 0 -12 7l-20 22q-4 5 -4 11q0 7 5 12l254 243q5 5 11 5q8 0 12 -6l29 -32q4 -5 4 -11
q0 -7 -6 -13zM339 1154q-2 6 -2 8q0 10 11 15l281 130q12 5 21 5h27q11 0 21 -6l224 -129q9 -6 9 -13q0 -3 -2 -9l-15 -26q-4 -10 -13 -10q-3 0 -9 2l-237 105l-283 -107q-4 -2 -7 -2q-9 0 -14 11z" />
    <glyph glyph-name="uni1EA6" unicode="&#x1ea6;" horiz-adv-x="1192" 
d="M1051 18v-4q0 -14 -15 -14h-67q-17 0 -18 16l-58 455h-601l-271 -460q-8 -11 -20 -11h-77q-7 0 -11 3t-4 8t3 9l819 1369q7 11 20 11h99q17 0 18 -16zM883 556l-96 761l-447 -761h543zM1078 1675q-6 -3 -10 -3q-7 0 -13 7l-171 248q-3 5 -3 9q0 8 8 14l37 26q5 4 10 4
q8 0 13 -9l159 -258q3 -4 3 -9q0 -9 -9 -14zM531 1524q-2 6 -2 8q0 9 10 14l282 131q8 4 21 4h27q12 0 20 -5l225 -129q9 -6 9 -13q0 -4 -3 -10l-14 -25q-4 -10 -14 -10l-8 2l-238 104l-282 -106q-6 -2 -8 -2q-10 0 -13 11z" />
    <glyph glyph-name="uni1EA7" unicode="&#x1ea7;" horiz-adv-x="1030" 
d="M1018 1030q8 0 12 -5t2 -14l-115 -478l-115 -518q-3 -15 -18 -15h-65q-9 0 -13 5t-2 14l42 168q-64 -93 -152.5 -146.5t-199.5 -53.5q-107 0 -184.5 49.5t-118 139.5t-40.5 210q0 141 56 294t172.5 259t287.5 106q130 0 211.5 -67t105.5 -193l49 230q3 15 18 15h67z
M645 152.5q97 93.5 147.5 233t50.5 271.5q0 156 -71 235t-198 79q-148 0 -243.5 -97t-138.5 -233t-43 -256q0 -149 70 -237.5t197 -88.5q132 0 229 93.5zM887 1305q-6 -3 -10 -3q-7 0 -13 7l-171 248q-3 5 -3 9q0 8 8 14l37 26q5 4 10 4q8 0 13 -9l159 -258q3 -4 3 -9
q0 -9 -9 -14zM340 1154q-2 6 -2 8q0 9 10 14l282 131q8 4 21 4h27q12 0 20 -5l225 -129q9 -6 9 -13q0 -4 -3 -10l-14 -25q-4 -10 -14 -10l-8 2l-238 104l-282 -106q-6 -2 -8 -2q-10 0 -13 11z" />
    <glyph glyph-name="uni1EA8" unicode="&#x1ea8;" horiz-adv-x="1192" 
d="M1051 18v-4q0 -14 -15 -14h-67q-17 0 -18 16l-58 455h-601l-271 -460q-8 -11 -20 -11h-77q-7 0 -11 3t-4 8t3 9l819 1369q7 11 20 11h99q17 0 18 -16zM883 556l-96 761l-447 -761h543zM531 1525q-2 4 -2 7q0 10 11 15l282 130q10 5 21 5h26q12 0 21 -6l224 -129
q10 -6 10 -13q0 -4 -3 -9l-15 -26q-5 -10 -14 -10l-8 2l-237 105l-282 -107q-6 -2 -7 -2q-10 0 -15 11zM1025 1681q-9 0 -13 5t-1 14q13 36 39 57t69 45q40 21 58.5 38t18.5 45t-24 44.5t-67 16.5q-45 0 -72.5 -18.5t-40.5 -54.5q-5 -14 -19 -14h-42q-8 0 -12.5 5.5
t-1.5 13.5q22 65 71.5 98.5t121.5 33.5t118 -33t46 -87q0 -34 -14.5 -58t-35.5 -39t-56 -34q-32 -17 -51 -31t-28 -34q-6 -13 -20 -13h-44z" />
    <glyph glyph-name="uni1EA9" unicode="&#x1ea9;" horiz-adv-x="1030" 
d="M1018 1030q8 0 12 -5t2 -14l-115 -478l-115 -518q-3 -15 -18 -15h-65q-9 0 -13 5t-2 14l42 168q-64 -93 -152.5 -146.5t-199.5 -53.5q-107 0 -184.5 49.5t-118 139.5t-40.5 210q0 141 56 294t172.5 259t287.5 106q130 0 211.5 -67t105.5 -193l49 230q3 15 18 15h67z
M645 152.5q97 93.5 147.5 233t50.5 271.5q0 156 -71 235t-198 79q-148 0 -243.5 -97t-138.5 -233t-43 -256q0 -149 70 -237.5t197 -88.5q132 0 229 93.5zM339 1155q-2 4 -2 7q0 10 11 15l282 130q10 5 21 5h26q12 0 21 -6l224 -129q10 -6 10 -13q0 -4 -3 -9l-15 -26
q-5 -10 -14 -10l-8 2l-237 105l-282 -107q-6 -2 -7 -2q-10 0 -15 11zM833 1311q-9 0 -13 5t-1 14q13 36 39 57t69 45q40 21 58.5 38t18.5 45t-24 44.5t-67 16.5q-45 0 -72.5 -18.5t-40.5 -54.5q-5 -14 -19 -14h-42q-8 0 -12.5 5.5t-1.5 13.5q22 65 71.5 98.5t121.5 33.5
t118 -33t46 -87q0 -34 -14.5 -58t-35.5 -39t-56 -34q-32 -17 -51 -31t-28 -34q-6 -13 -20 -13h-44z" />
    <glyph glyph-name="uni1EAA" unicode="&#x1eaa;" horiz-adv-x="1192" 
d="M1051 18v-4q0 -14 -15 -14h-67q-17 0 -18 16l-58 455h-601l-271 -460q-8 -11 -20 -11h-77q-7 0 -11 3t-4 8t3 9l819 1369q7 11 20 11h99q17 0 18 -16zM883 556l-96 761l-447 -761h543zM531 1525q-2 4 -2 7q0 10 11 15l282 130q10 5 21 5h26q12 0 21 -6l224 -129
q10 -6 10 -13q0 -4 -3 -9l-15 -26q-5 -10 -14 -10l-8 2l-237 105l-282 -107q-6 -2 -7 -2q-10 0 -15 11zM937.5 1735.5q-27.5 22.5 -59.5 65.5q-25 34 -43.5 50t-43.5 16q-36 0 -55.5 -31t-33.5 -95q-4 -14 -19 -14h-33q-8 0 -12 5t-3 13q22 91 60 141.5t102 50.5
q45 0 74 -23t62 -67q26 -34 42.5 -49t39.5 -15q39 0 58.5 31t34.5 94q5 15 19 15h33q8 0 12 -6.5t2 -16.5q-21 -90 -59.5 -138.5t-104.5 -48.5q-45 0 -72.5 22.5z" />
    <glyph glyph-name="uni1EAB" unicode="&#x1eab;" horiz-adv-x="1030" 
d="M1018 1030q8 0 12 -5t2 -14l-115 -478l-115 -518q-3 -15 -18 -15h-65q-9 0 -13 5t-2 14l42 168q-64 -93 -152.5 -146.5t-199.5 -53.5q-107 0 -184.5 49.5t-118 139.5t-40.5 210q0 141 56 294t172.5 259t287.5 106q130 0 211.5 -67t105.5 -193l49 230q3 15 18 15h67z
M645 152.5q97 93.5 147.5 233t50.5 271.5q0 156 -71 235t-198 79q-148 0 -243.5 -97t-138.5 -233t-43 -256q0 -149 70 -237.5t197 -88.5q132 0 229 93.5zM339 1155q-2 4 -2 7q0 10 11 15l282 130q10 5 21 5h26q12 0 21 -6l224 -129q10 -6 10 -13q0 -4 -3 -9l-15 -26
q-5 -10 -14 -10l-8 2l-237 105l-282 -107q-6 -2 -7 -2q-10 0 -15 11zM745.5 1365.5q-27.5 22.5 -59.5 65.5q-25 34 -43.5 50t-43.5 16q-36 0 -55.5 -31t-33.5 -95q-4 -14 -19 -14h-33q-8 0 -12 5t-3 13q22 91 60 141.5t102 50.5q45 0 74 -23t62 -67q26 -34 42.5 -49
t39.5 -15q39 0 58.5 31t34.5 94q5 15 19 15h33q8 0 12 -6.5t2 -16.5q-21 -90 -59.5 -138.5t-104.5 -48.5q-45 0 -72.5 22.5z" />
    <glyph glyph-name="uni1EAC" unicode="&#x1eac;" horiz-adv-x="1192" 
d="M1051 18v-4q0 -14 -15 -14h-67q-17 0 -18 16l-58 455h-601l-271 -460q-8 -11 -20 -11h-77q-7 0 -11 3t-4 8t3 9l819 1369q7 11 20 11h99q17 0 18 -16zM883 556l-96 761l-447 -761h543zM388 -272q-9 0 -13 5t-2 14l25 104q3 15 19 15h67q9 0 13 -5t2 -14l-25 -104
q-2 -7 -6.5 -11t-11.5 -4h-68zM540 1562q-2 4 -2 7q0 10 11 15l282 130q10 5 21 5h26q12 0 21 -6l224 -129q10 -6 10 -13q0 -4 -3 -9l-15 -26q-5 -10 -14 -10l-8 2l-237 105l-282 -107q-6 -2 -7 -2q-10 0 -15 11z" />
    <glyph glyph-name="uni1EAD" unicode="&#x1ead;" horiz-adv-x="1030" 
d="M1018 1030q8 0 12 -5t2 -14l-115 -478l-115 -518q-3 -15 -18 -15h-65q-9 0 -13 5t-2 14l42 168q-64 -93 -152.5 -146.5t-199.5 -53.5q-107 0 -184.5 49.5t-118 139.5t-40.5 210q0 141 56 294t172.5 259t287.5 106q130 0 211.5 -67t105.5 -193l49 230q3 15 18 15h67z
M645 152.5q97 93.5 147.5 233t50.5 271.5q0 156 -71 235t-198 79q-148 0 -243.5 -97t-138.5 -233t-43 -256q0 -149 70 -237.5t197 -88.5q132 0 229 93.5zM344 -290q-9 0 -13 5t-2 14l25 104q3 15 19 15h67q9 0 13 -5t2 -14l-25 -104q-2 -7 -6.5 -11t-11.5 -4h-68zM349 1192
q-2 4 -2 7q0 10 11 15l282 130q10 5 21 5h26q12 0 21 -6l224 -129q10 -6 10 -13q0 -4 -3 -9l-15 -26q-5 -10 -14 -10l-8 2l-237 105l-282 -107q-6 -2 -7 -2q-10 0 -15 11z" />
    <glyph glyph-name="uni1EAE" unicode="&#x1eae;" horiz-adv-x="1192" 
d="M1051 18v-4q0 -14 -15 -14h-67q-17 0 -18 16l-58 455h-601l-271 -460q-8 -11 -20 -11h-77q-7 0 -11 3t-4 8t3 9l819 1369q7 11 20 11h99q17 0 18 -16zM883 556l-96 761l-447 -761h543zM867 1697q-7 -5 -11 -5q-6 0 -13 7l-19 22q-5 5 -5 12t5 11l252 242q6 6 12 6t12 -6
l29 -33q6 -6 6 -11t-7 -12zM735 1523.5q-47 24.5 -71.5 67.5t-24.5 98q0 16 1 24q1 16 18 16h41q16 0 15 -18q-1 -6 -1 -18q0 -55 36 -88t101 -33q68 0 116.5 39t65.5 103q5 15 19 15h43q19 0 16 -18q-22 -95 -93.5 -153.5t-170.5 -58.5q-64 0 -111 24.5z" />
    <glyph glyph-name="uni1EAF" unicode="&#x1eaf;" horiz-adv-x="1030" 
d="M1018 1030q8 0 12 -5t2 -14l-115 -478l-115 -518q-3 -15 -18 -15h-65q-9 0 -13 5t-2 14l42 168q-64 -93 -152.5 -146.5t-199.5 -53.5q-107 0 -184.5 49.5t-118 139.5t-40.5 210q0 141 56 294t172.5 259t287.5 106q130 0 211.5 -67t105.5 -193l49 230q3 15 18 15h67z
M645 152.5q97 93.5 147.5 233t50.5 271.5q0 156 -71 235t-198 79q-148 0 -243.5 -97t-138.5 -233t-43 -256q0 -149 70 -237.5t197 -88.5q132 0 229 93.5zM675 1327q-7 -5 -11 -5q-6 0 -13 7l-19 22q-5 5 -5 12t5 11l252 242q6 6 12 6t12 -6l29 -33q6 -6 6 -11t-7 -12z
M543 1153.5q-47 24.5 -71.5 67.5t-24.5 98q0 16 1 24q1 16 18 16h41q16 0 15 -18q-1 -6 -1 -18q0 -55 36 -88t101 -33q68 0 116.5 39t65.5 103q5 15 19 15h43q19 0 16 -18q-22 -95 -93.5 -153.5t-170.5 -58.5q-64 0 -111 24.5z" />
    <glyph glyph-name="uni1EB0" unicode="&#x1eb0;" horiz-adv-x="1192" 
d="M1051 18v-4q0 -14 -15 -14h-67q-17 0 -18 16l-58 455h-601l-271 -460q-8 -11 -20 -11h-77q-7 0 -11 3t-4 8t3 9l819 1369q7 11 20 11h99q17 0 18 -16zM883 556l-96 761l-447 -761h543zM885 1695q-5 -3 -9 -3q-9 0 -14 8l-171 247q-3 6 -3 10q0 7 7 13l38 27q4 4 10 4
q7 0 13 -8l158 -259q3 -6 3 -10q0 -7 -8 -13zM734 1523.5q-47 24.5 -71.5 67.5t-24.5 98q0 16 1 24q1 16 18 16h41q17 0 16 -18q-1 -6 -1 -18q0 -55 36 -88t100 -33q69 0 117.5 39t65.5 103q5 15 18 15h44q18 0 15 -18q-22 -95 -93.5 -153.5t-170.5 -58.5q-64 0 -111 24.5z
" />
    <glyph glyph-name="uni1EB1" unicode="&#x1eb1;" horiz-adv-x="1030" 
d="M1018 1030q8 0 12 -5t2 -14l-115 -478l-115 -518q-3 -15 -18 -15h-65q-9 0 -13 5t-2 14l42 168q-64 -93 -152.5 -146.5t-199.5 -53.5q-107 0 -184.5 49.5t-118 139.5t-40.5 210q0 141 56 294t172.5 259t287.5 106q130 0 211.5 -67t105.5 -193l49 230q3 15 18 15h67z
M645 152.5q97 93.5 147.5 233t50.5 271.5q0 156 -71 235t-198 79q-148 0 -243.5 -97t-138.5 -233t-43 -256q0 -149 70 -237.5t197 -88.5q132 0 229 93.5zM693 1325q-5 -3 -9 -3q-9 0 -14 8l-171 247q-3 6 -3 10q0 7 7 13l38 27q4 4 10 4q7 0 13 -8l158 -259q3 -6 3 -10
q0 -7 -8 -13zM542 1153.5q-47 24.5 -71.5 67.5t-24.5 98q0 16 1 24q1 16 18 16h41q17 0 16 -18q-1 -6 -1 -18q0 -55 36 -88t100 -33q69 0 117.5 39t65.5 103q5 15 18 15h44q18 0 15 -18q-22 -95 -93.5 -153.5t-170.5 -58.5q-64 0 -111 24.5z" />
    <glyph glyph-name="uni1EB2" unicode="&#x1eb2;" horiz-adv-x="1192" 
d="M1051 18v-4q0 -14 -15 -14h-67q-17 0 -18 16l-58 455h-601l-271 -460q-8 -11 -20 -11h-77q-7 0 -11 3t-4 8t3 9l819 1369q7 11 20 11h99q17 0 18 -16zM883 556l-96 761l-447 -761h543zM735 1523.5q-47 24.5 -71.5 68t-24.5 97.5q0 16 1 24q1 16 18 16h41q16 0 15 -18
q-1 -6 -1 -18q0 -54 36 -87.5t101 -33.5q68 0 116.5 39t65.5 103q4 15 19 15h44q18 0 15 -18q-22 -95 -93.5 -153.5t-170.5 -58.5q-64 0 -111 24.5zM847 1706q-9 0 -13 5t-1 14q13 36 39 57t69 45q40 21 58.5 38t18.5 45t-24 44.5t-67 16.5q-45 0 -72.5 -18.5t-40.5 -54.5
q-5 -14 -19 -14h-42q-8 0 -12.5 5.5t-1.5 13.5q22 65 71.5 98.5t121.5 33.5t118 -33t46 -87q0 -34 -14.5 -58t-35.5 -39t-56 -34q-32 -17 -51 -31t-28 -34q-6 -13 -20 -13h-44z" />
    <glyph glyph-name="uni1EB3" unicode="&#x1eb3;" horiz-adv-x="1030" 
d="M1018 1030q8 0 12 -5t2 -14l-115 -478l-115 -518q-3 -15 -18 -15h-65q-9 0 -13 5t-2 14l42 168q-64 -93 -152.5 -146.5t-199.5 -53.5q-107 0 -184.5 49.5t-118 139.5t-40.5 210q0 141 56 294t172.5 259t287.5 106q130 0 211.5 -67t105.5 -193l49 230q3 15 18 15h67z
M645 152.5q97 93.5 147.5 233t50.5 271.5q0 156 -71 235t-198 79q-148 0 -243.5 -97t-138.5 -233t-43 -256q0 -149 70 -237.5t197 -88.5q132 0 229 93.5zM544 1153.5q-47 24.5 -71.5 68t-24.5 97.5q0 16 1 24q1 16 18 16h41q16 0 15 -18q-1 -6 -1 -18q0 -54 36 -87.5
t101 -33.5q68 0 116.5 39t65.5 103q4 15 19 15h44q18 0 15 -18q-22 -95 -93.5 -153.5t-170.5 -58.5q-64 0 -111 24.5zM656 1336q-9 0 -13 5t-1 14q13 36 39 57t69 45q40 21 58.5 38t18.5 45t-24 44.5t-67 16.5q-45 0 -72.5 -18.5t-40.5 -54.5q-5 -14 -19 -14h-42
q-8 0 -12.5 5.5t-1.5 13.5q22 65 71.5 98.5t121.5 33.5t118 -33t46 -87q0 -34 -14.5 -58t-35.5 -39t-56 -34q-32 -17 -51 -31t-28 -34q-6 -13 -20 -13h-44z" />
    <glyph glyph-name="uni1EB4" unicode="&#x1eb4;" horiz-adv-x="1192" 
d="M1051 18v-4q0 -14 -15 -14h-67q-17 0 -18 16l-58 455h-601l-271 -460q-8 -11 -20 -11h-77q-7 0 -11 3t-4 8t3 9l819 1369q7 11 20 11h99q17 0 18 -16zM883 556l-96 761l-447 -761h543zM930.5 1791.5q-25.5 19.5 -53.5 55.5q-23 29 -39 42.5t-38 13.5q-30 0 -46 -26
t-28 -79q-5 -15 -19 -15h-39q-8 0 -12.5 5.5t-2.5 13.5q21 81 56 125.5t94 44.5q40 0 66 -20t57 -58q21 -27 36 -40.5t35 -13.5q33 0 50 26.5t29 78.5q3 15 18 15h39q9 0 13 -6.5t1 -16.5q-21 -79 -56 -122t-96 -43q-39 0 -64.5 19.5zM735 1523.5q-47 24.5 -71.5 67.5
t-24.5 98q0 16 1 24q3 16 18 16h41q17 0 16 -18q-1 -6 -1 -18q0 -55 36 -88t100 -33q69 0 117.5 39t65.5 103q4 15 18 15h44q9 0 13 -4.5t2 -13.5q-22 -95 -93.5 -153.5t-170.5 -58.5q-64 0 -111 24.5z" />
    <glyph glyph-name="uni1EB5" unicode="&#x1eb5;" horiz-adv-x="1030" 
d="M1018 1030q8 0 12 -5t2 -14l-115 -478l-115 -518q-3 -15 -18 -15h-65q-9 0 -13 5t-2 14l42 168q-64 -93 -152.5 -146.5t-199.5 -53.5q-107 0 -184.5 49.5t-118 139.5t-40.5 210q0 141 56 294t172.5 259t287.5 106q130 0 211.5 -67t105.5 -193l49 230q3 15 18 15h67z
M645 152.5q97 93.5 147.5 233t50.5 271.5q0 156 -71 235t-198 79q-148 0 -243.5 -97t-138.5 -233t-43 -256q0 -149 70 -237.5t197 -88.5q132 0 229 93.5zM739.5 1421.5q-25.5 19.5 -53.5 55.5q-23 29 -39 42.5t-38 13.5q-30 0 -46 -26t-28 -79q-5 -15 -19 -15h-39
q-8 0 -12.5 5.5t-2.5 13.5q21 81 56 125.5t94 44.5q40 0 66 -20t57 -58q21 -27 36 -40.5t35 -13.5q33 0 50 26.5t29 78.5q3 15 18 15h39q9 0 13 -6.5t1 -16.5q-21 -79 -56 -122t-96 -43q-39 0 -64.5 19.5zM544 1153.5q-47 24.5 -71.5 67.5t-24.5 98q0 16 1 24q3 16 18 16h41
q17 0 16 -18q-1 -6 -1 -18q0 -55 36 -88t100 -33q69 0 117.5 39t65.5 103q4 15 18 15h44q9 0 13 -4.5t2 -13.5q-22 -95 -93.5 -153.5t-170.5 -58.5q-64 0 -111 24.5z" />
    <glyph glyph-name="uni1EB6" unicode="&#x1eb6;" horiz-adv-x="1192" 
d="M1051 18v-4q0 -14 -15 -14h-67q-17 0 -18 16l-58 455h-601l-271 -460q-8 -11 -20 -11h-77q-7 0 -11 3t-4 8t3 9l819 1369q7 11 20 11h99q17 0 18 -16zM883 556l-96 761l-447 -761h543zM388 -272q-9 0 -13 5t-2 14l25 104q3 15 19 15h67q9 0 13 -5t2 -14l-25 -104
q-2 -7 -6.5 -11t-11.5 -4h-68zM740 1544.5q-47 24.5 -71.5 68t-24.5 97.5q0 16 1 24q1 16 18 16h41q16 0 15 -18q-1 -6 -1 -18q0 -54 36 -87.5t101 -33.5q68 0 116.5 39t65.5 103q4 15 19 15h44q18 0 15 -18q-22 -95 -93.5 -153.5t-170.5 -58.5q-64 0 -111 24.5z" />
    <glyph glyph-name="uni1EB7" unicode="&#x1eb7;" horiz-adv-x="1030" 
d="M1018 1030q8 0 12 -5t2 -14l-115 -478l-115 -518q-3 -15 -18 -15h-65q-9 0 -13 5t-2 14l42 168q-64 -93 -152.5 -146.5t-199.5 -53.5q-107 0 -184.5 49.5t-118 139.5t-40.5 210q0 141 56 294t172.5 259t287.5 106q130 0 211.5 -67t105.5 -193l49 230q3 15 18 15h67z
M645 152.5q97 93.5 147.5 233t50.5 271.5q0 156 -71 235t-198 79q-148 0 -243.5 -97t-138.5 -233t-43 -256q0 -149 70 -237.5t197 -88.5q132 0 229 93.5zM344 -290q-9 0 -13 5t-2 14l25 104q3 15 19 15h67q9 0 13 -5t2 -14l-25 -104q-2 -7 -6.5 -11t-11.5 -4h-68z
M549 1174.5q-47 24.5 -71.5 68t-24.5 97.5q0 16 1 24q1 16 18 16h41q16 0 15 -18q-1 -6 -1 -18q0 -54 36 -87.5t101 -33.5q68 0 116.5 39t65.5 103q4 15 19 15h44q18 0 15 -18q-22 -95 -93.5 -153.5t-170.5 -58.5q-64 0 -111 24.5z" />
    <glyph glyph-name="uni1EB8" unicode="&#x1eb8;" horiz-adv-x="1027" 
d="M22 0q-8 0 -12 5t-2 14l173 723l142 643q1 7 6.5 11t12.5 4h778q9 0 13 -5t2 -14l-12 -48q-3 -15 -18 -15h-691l-125 -524h650q8 0 12.5 -5t2.5 -13l-12 -49q-3 -14 -18 -14h-655l-141 -631h703q8 0 12 -5t3 -14l-11 -48q-2 -7 -6.5 -11t-11.5 -4h-795zM329 -272
q-9 0 -13 5t-2 14l25 104q3 15 19 15h67q9 0 13 -5t2 -14l-25 -104q-2 -7 -6.5 -11t-11.5 -4h-68z" />
    <glyph glyph-name="uni1EB9" unicode="&#x1eb9;" horiz-adv-x="1032" 
d="M792.5 1002q88.5 -47 137 -135.5t48.5 -208.5q0 -58 -12 -123q-3 -15 -18 -15h-786q-8 -49 -8 -108q0 -173 85.5 -265t235.5 -92q274 0 362 298q6 15 20 15h61q14 0 14 -15q0 -6 -1 -9q-58 -185 -174.5 -274t-282.5 -89q-127 0 -220.5 50.5t-145 148.5t-51.5 236
q0 150 59.5 296.5t179.5 241.5t291 95q117 0 205.5 -47zM876 595q7 39 7 82q0 88 -36 155.5t-103.5 105t-159.5 37.5q-110 0 -193.5 -52.5t-136.5 -138.5t-78 -189h700zM330 -272q-9 0 -13 5t-2 14l25 104q3 15 19 15h67q9 0 13 -5t2 -14l-25 -104q-2 -7 -6.5 -11t-11.5 -4
h-68z" />
    <glyph glyph-name="uni1EBA" unicode="&#x1eba;" horiz-adv-x="1027" 
d="M22 0q-8 0 -12 5t-2 14l173 723l142 643q1 7 6.5 11t12.5 4h778q9 0 13 -5t2 -14l-12 -48q-3 -15 -18 -15h-691l-125 -524h650q8 0 12.5 -5t2.5 -13l-12 -49q-3 -14 -18 -14h-655l-141 -631h703q8 0 12 -5t3 -14l-11 -48q-2 -7 -6.5 -11t-11.5 -4h-795zM749 1521
q-9 0 -13 5t-1 14q13 36 39 57t69 45q40 21 58.5 38t18.5 45t-24 44.5t-67 16.5q-45 0 -72.5 -18.5t-40.5 -54.5q-5 -14 -19 -14h-42q-8 0 -12.5 5.5t-1.5 13.5q22 65 71.5 98.5t121.5 33.5t118 -33t46 -87q0 -34 -14.5 -58t-35.5 -39t-56 -34q-32 -17 -51 -31t-28 -34
q-6 -13 -20 -13h-44z" />
    <glyph glyph-name="uni1EBB" unicode="&#x1ebb;" horiz-adv-x="1032" 
d="M792.5 1002q88.5 -47 137 -135.5t48.5 -208.5q0 -58 -12 -123q-3 -15 -18 -15h-786q-8 -49 -8 -108q0 -173 85.5 -265t235.5 -92q274 0 362 298q6 15 20 15h61q14 0 14 -15q0 -6 -1 -9q-58 -185 -174.5 -274t-282.5 -89q-127 0 -220.5 50.5t-145 148.5t-51.5 236
q0 150 59.5 296.5t179.5 241.5t291 95q117 0 205.5 -47zM876 595q7 39 7 82q0 88 -36 155.5t-103.5 105t-159.5 37.5q-110 0 -193.5 -52.5t-136.5 -138.5t-78 -189h700zM632 1151q-9 0 -13 5t-1 14q13 36 39 57t69 45q40 21 58.5 38t18.5 45t-24 44.5t-67 16.5
q-45 0 -72.5 -18.5t-40.5 -54.5q-5 -14 -19 -14h-42q-8 0 -12.5 5.5t-1.5 13.5q22 65 71.5 98.5t121.5 33.5t118 -33t46 -87q0 -34 -14.5 -58t-35.5 -39t-56 -34q-32 -17 -51 -31t-28 -34q-6 -13 -20 -13h-44z" />
    <glyph glyph-name="uni1EBC" unicode="&#x1ebc;" horiz-adv-x="1027" 
d="M22 0q-8 0 -12 5t-2 14l173 723l142 643q1 7 6.5 11t12.5 4h778q9 0 13 -5t2 -14l-12 -48q-3 -15 -18 -15h-691l-125 -524h650q8 0 12.5 -5t2.5 -13l-12 -49q-3 -14 -18 -14h-655l-141 -631h703q8 0 12 -5t3 -14l-11 -48q-2 -7 -6.5 -11t-11.5 -4h-795zM830.5 1557.5
q-27.5 22.5 -59.5 65.5q-25 34 -43.5 50t-43.5 16q-36 0 -55.5 -31t-33.5 -95q-4 -14 -19 -14h-33q-8 0 -12 5t-3 13q22 91 60 141.5t102 50.5q45 0 74 -23t62 -67q26 -34 42.5 -49t39.5 -15q39 0 58.5 31t34.5 94q5 15 19 15h33q8 0 12 -6.5t2 -16.5q-21 -90 -59.5 -138.5
t-104.5 -48.5q-45 0 -72.5 22.5z" />
    <glyph glyph-name="uni1EBD" unicode="&#x1ebd;" horiz-adv-x="1032" 
d="M792.5 1002q88.5 -47 137 -135.5t48.5 -208.5q0 -58 -12 -123q-3 -15 -18 -15h-786q-8 -49 -8 -108q0 -173 85.5 -265t235.5 -92q274 0 362 298q6 15 20 15h61q14 0 14 -15q0 -6 -1 -9q-58 -185 -174.5 -274t-282.5 -89q-127 0 -220.5 50.5t-145 148.5t-51.5 236
q0 150 59.5 296.5t179.5 241.5t291 95q117 0 205.5 -47zM876 595q7 39 7 82q0 88 -36 155.5t-103.5 105t-159.5 37.5q-110 0 -193.5 -52.5t-136.5 -138.5t-78 -189h700zM714.5 1187.5q-27.5 22.5 -59.5 65.5q-25 34 -43.5 50t-43.5 16q-36 0 -55.5 -31t-33.5 -95
q-4 -14 -19 -14h-33q-8 0 -12 5t-3 13q22 91 60 141.5t102 50.5q45 0 74 -23t62 -67q26 -34 42.5 -49t39.5 -15q39 0 58.5 31t34.5 94q5 15 19 15h33q8 0 12 -6.5t2 -16.5q-21 -90 -59.5 -138.5t-104.5 -48.5q-45 0 -72.5 22.5z" />
    <glyph glyph-name="uni1EBE" unicode="&#x1ebe;" horiz-adv-x="1027" 
d="M22 0q-8 0 -12 5t-2 14l173 723l142 643q1 7 6.5 11t12.5 4h778q9 0 13 -5t2 -14l-12 -48q-3 -15 -18 -15h-691l-125 -524h650q8 0 12.5 -5t2.5 -13l-12 -49q-3 -14 -18 -14h-655l-141 -631h703q8 0 12 -5t3 -14l-11 -48q-2 -7 -6.5 -11t-11.5 -4h-795zM992 1676
q-4 -6 -11 -6q-5 0 -12 7l-20 22q-4 5 -4 11q0 7 5 12l254 243q5 5 11 5q8 0 12 -6l29 -32q4 -5 4 -11q0 -7 -6 -13zM469 1524q-2 6 -2 8q0 10 11 15l281 130q12 5 21 5h27q11 0 21 -6l224 -129q9 -6 9 -13q0 -3 -2 -9l-15 -26q-4 -10 -13 -10q-3 0 -9 2l-237 105l-283 -107
q-4 -2 -7 -2q-9 0 -14 11z" />
    <glyph glyph-name="uni1EBF" unicode="&#x1ebf;" horiz-adv-x="1032" 
d="M792.5 1002q88.5 -47 137 -135.5t48.5 -208.5q0 -58 -12 -123q-3 -15 -18 -15h-786q-8 -49 -8 -108q0 -173 85.5 -265t235.5 -92q274 0 362 298q6 15 20 15h61q14 0 14 -15q0 -6 -1 -9q-58 -185 -174.5 -274t-282.5 -89q-127 0 -220.5 50.5t-145 148.5t-51.5 236
q0 150 59.5 296.5t179.5 241.5t291 95q117 0 205.5 -47zM876 595q7 39 7 82q0 88 -36 155.5t-103.5 105t-159.5 37.5q-110 0 -193.5 -52.5t-136.5 -138.5t-78 -189h700zM875 1306q-4 -6 -11 -6q-5 0 -12 7l-20 22q-4 5 -4 11q0 7 5 12l254 243q5 5 11 5q8 0 12 -6l29 -32
q4 -5 4 -11q0 -7 -6 -13zM352 1154q-2 6 -2 8q0 10 11 15l281 130q12 5 21 5h27q11 0 21 -6l224 -129q9 -6 9 -13q0 -3 -2 -9l-15 -26q-4 -10 -13 -10q-3 0 -9 2l-237 105l-283 -107q-4 -2 -7 -2q-9 0 -14 11z" />
    <glyph glyph-name="uni1EC0" unicode="&#x1ec0;" horiz-adv-x="1027" 
d="M22 0q-8 0 -12 5t-2 14l173 723l142 643q1 7 6.5 11t12.5 4h778q9 0 13 -5t2 -14l-12 -48q-3 -15 -18 -15h-691l-125 -524h650q8 0 12.5 -5t2.5 -13l-12 -49q-3 -14 -18 -14h-655l-141 -631h703q8 0 12 -5t3 -14l-11 -48q-2 -7 -6.5 -11t-11.5 -4h-795zM1017 1675
q-6 -3 -10 -3q-7 0 -13 7l-171 248q-3 5 -3 9q0 8 8 14l37 26q5 4 10 4q8 0 13 -9l159 -258q3 -4 3 -9q0 -9 -9 -14zM470 1524q-2 6 -2 8q0 9 10 14l282 131q8 4 21 4h27q12 0 20 -5l225 -129q9 -6 9 -13q0 -4 -3 -10l-14 -25q-4 -10 -14 -10l-8 2l-238 104l-282 -106
q-6 -2 -8 -2q-10 0 -13 11z" />
    <glyph glyph-name="uni1EC1" unicode="&#x1ec1;" horiz-adv-x="1032" 
d="M792.5 1002q88.5 -47 137 -135.5t48.5 -208.5q0 -58 -12 -123q-3 -15 -18 -15h-786q-8 -49 -8 -108q0 -173 85.5 -265t235.5 -92q274 0 362 298q6 15 20 15h61q14 0 14 -15q0 -6 -1 -9q-58 -185 -174.5 -274t-282.5 -89q-127 0 -220.5 50.5t-145 148.5t-51.5 236
q0 150 59.5 296.5t179.5 241.5t291 95q117 0 205.5 -47zM876 595q7 39 7 82q0 88 -36 155.5t-103.5 105t-159.5 37.5q-110 0 -193.5 -52.5t-136.5 -138.5t-78 -189h700zM900 1305q-6 -3 -10 -3q-7 0 -13 7l-171 248q-3 5 -3 9q0 8 8 14l37 26q5 4 10 4q8 0 13 -9l159 -258
q3 -4 3 -9q0 -9 -9 -14zM353 1154q-2 6 -2 8q0 9 10 14l282 131q8 4 21 4h27q12 0 20 -5l225 -129q9 -6 9 -13q0 -4 -3 -10l-14 -25q-4 -10 -14 -10l-8 2l-238 104l-282 -106q-6 -2 -8 -2q-10 0 -13 11z" />
    <glyph glyph-name="uni1EC2" unicode="&#x1ec2;" horiz-adv-x="1027" 
d="M22 0q-8 0 -12 5t-2 14l173 723l142 643q1 7 6.5 11t12.5 4h778q9 0 13 -5t2 -14l-12 -48q-3 -15 -18 -15h-691l-125 -524h650q8 0 12.5 -5t2.5 -13l-12 -49q-3 -14 -18 -14h-655l-141 -631h703q8 0 12 -5t3 -14l-11 -48q-2 -7 -6.5 -11t-11.5 -4h-795zM469 1525
q-2 4 -2 7q0 10 11 15l282 130q10 5 21 5h26q12 0 21 -6l224 -129q10 -6 10 -13q0 -4 -3 -9l-15 -26q-5 -10 -14 -10l-8 2l-237 105l-282 -107q-6 -2 -7 -2q-10 0 -15 11zM963 1681q-9 0 -13 5t-1 14q13 36 39 57t69 45q40 21 58.5 38t18.5 45t-24 44.5t-67 16.5
q-45 0 -72.5 -18.5t-40.5 -54.5q-5 -14 -19 -14h-42q-8 0 -12.5 5.5t-1.5 13.5q22 65 71.5 98.5t121.5 33.5t118 -33t46 -87q0 -34 -14.5 -58t-35.5 -39t-56 -34q-32 -17 -51 -31t-28 -34q-6 -13 -20 -13h-44z" />
    <glyph glyph-name="uni1EC3" unicode="&#x1ec3;" horiz-adv-x="1032" 
d="M792.5 1002q88.5 -47 137 -135.5t48.5 -208.5q0 -58 -12 -123q-3 -15 -18 -15h-786q-8 -49 -8 -108q0 -173 85.5 -265t235.5 -92q274 0 362 298q6 15 20 15h61q14 0 14 -15q0 -6 -1 -9q-58 -185 -174.5 -274t-282.5 -89q-127 0 -220.5 50.5t-145 148.5t-51.5 236
q0 150 59.5 296.5t179.5 241.5t291 95q117 0 205.5 -47zM876 595q7 39 7 82q0 88 -36 155.5t-103.5 105t-159.5 37.5q-110 0 -193.5 -52.5t-136.5 -138.5t-78 -189h700zM353 1155q-2 4 -2 7q0 10 11 15l282 130q10 5 21 5h26q12 0 21 -6l224 -129q10 -6 10 -13q0 -4 -3 -9
l-15 -26q-5 -10 -14 -10l-8 2l-237 105l-282 -107q-6 -2 -7 -2q-10 0 -15 11zM847 1311q-9 0 -13 5t-1 14q13 36 39 57t69 45q40 21 58.5 38t18.5 45t-24 44.5t-67 16.5q-45 0 -72.5 -18.5t-40.5 -54.5q-5 -14 -19 -14h-42q-8 0 -12.5 5.5t-1.5 13.5q22 65 71.5 98.5
t121.5 33.5t118 -33t46 -87q0 -34 -14.5 -58t-35.5 -39t-56 -34q-32 -17 -51 -31t-28 -34q-6 -13 -20 -13h-44z" />
    <glyph glyph-name="uni1EC4" unicode="&#x1ec4;" horiz-adv-x="1027" 
d="M22 0q-8 0 -12 5t-2 14l173 723l142 643q1 7 6.5 11t12.5 4h778q9 0 13 -5t2 -14l-12 -48q-3 -15 -18 -15h-691l-125 -524h650q8 0 12.5 -5t2.5 -13l-12 -49q-3 -14 -18 -14h-655l-141 -631h703q8 0 12 -5t3 -14l-11 -48q-2 -7 -6.5 -11t-11.5 -4h-795zM469 1525
q-2 4 -2 7q0 10 11 15l282 130q10 5 21 5h26q12 0 21 -6l224 -129q10 -6 10 -13q0 -4 -3 -9l-15 -26q-5 -10 -14 -10l-8 2l-237 105l-282 -107q-6 -2 -7 -2q-10 0 -15 11zM875.5 1735.5q-27.5 22.5 -59.5 65.5q-25 34 -43.5 50t-43.5 16q-36 0 -55.5 -31t-33.5 -95
q-4 -14 -19 -14h-33q-8 0 -12 5t-3 13q22 91 60 141.5t102 50.5q45 0 74 -23t62 -67q26 -34 42.5 -49t39.5 -15q39 0 58.5 31t34.5 94q5 15 19 15h33q8 0 12 -6.5t2 -16.5q-21 -90 -59.5 -138.5t-104.5 -48.5q-45 0 -72.5 22.5z" />
    <glyph glyph-name="uni1EC5" unicode="&#x1ec5;" horiz-adv-x="1032" 
d="M792.5 1002q88.5 -47 137 -135.5t48.5 -208.5q0 -58 -12 -123q-3 -15 -18 -15h-786q-8 -49 -8 -108q0 -173 85.5 -265t235.5 -92q274 0 362 298q6 15 20 15h61q14 0 14 -15q0 -6 -1 -9q-58 -185 -174.5 -274t-282.5 -89q-127 0 -220.5 50.5t-145 148.5t-51.5 236
q0 150 59.5 296.5t179.5 241.5t291 95q117 0 205.5 -47zM876 595q7 39 7 82q0 88 -36 155.5t-103.5 105t-159.5 37.5q-110 0 -193.5 -52.5t-136.5 -138.5t-78 -189h700zM352 1155q-2 4 -2 7q0 10 11 15l282 130q10 5 21 5h26q12 0 21 -6l224 -129q10 -6 10 -13q0 -4 -3 -9
l-15 -26q-5 -10 -14 -10l-8 2l-237 105l-282 -107q-6 -2 -7 -2q-10 0 -15 11zM758.5 1365.5q-27.5 22.5 -59.5 65.5q-25 34 -43.5 50t-43.5 16q-36 0 -55.5 -31t-33.5 -95q-4 -14 -19 -14h-33q-8 0 -12 5t-3 13q22 91 60 141.5t102 50.5q45 0 74 -23t62 -67q26 -34 42.5 -49
t39.5 -15q39 0 58.5 31t34.5 94q5 15 19 15h33q8 0 12 -6.5t2 -16.5q-21 -90 -59.5 -138.5t-104.5 -48.5q-45 0 -72.5 22.5z" />
    <glyph glyph-name="uni1EC6" unicode="&#x1ec6;" horiz-adv-x="1027" 
d="M22 0q-8 0 -12 5t-2 14l173 723l142 643q1 7 6.5 11t12.5 4h778q9 0 13 -5t2 -14l-12 -48q-3 -15 -18 -15h-691l-125 -524h650q8 0 12.5 -5t2.5 -13l-12 -49q-3 -14 -18 -14h-655l-141 -631h703q8 0 12 -5t3 -14l-11 -48q-2 -7 -6.5 -11t-11.5 -4h-795zM329 -272
q-9 0 -13 5t-2 14l25 104q3 15 19 15h67q9 0 13 -5t2 -14l-25 -104q-2 -7 -6.5 -11t-11.5 -4h-68zM479 1562q-2 4 -2 7q0 10 11 15l282 130q10 5 21 5h26q12 0 21 -6l224 -129q10 -6 10 -13q0 -4 -3 -9l-15 -26q-5 -10 -14 -10l-8 2l-237 105l-282 -107q-6 -2 -7 -2
q-10 0 -15 11z" />
    <glyph glyph-name="uni1EC7" unicode="&#x1ec7;" horiz-adv-x="1032" 
d="M792.5 1002q88.5 -47 137 -135.5t48.5 -208.5q0 -58 -12 -123q-3 -15 -18 -15h-786q-8 -49 -8 -108q0 -173 85.5 -265t235.5 -92q274 0 362 298q6 15 20 15h61q14 0 14 -15q0 -6 -1 -9q-58 -185 -174.5 -274t-282.5 -89q-127 0 -220.5 50.5t-145 148.5t-51.5 236
q0 150 59.5 296.5t179.5 241.5t291 95q117 0 205.5 -47zM876 595q7 39 7 82q0 88 -36 155.5t-103.5 105t-159.5 37.5q-110 0 -193.5 -52.5t-136.5 -138.5t-78 -189h700zM330 -272q-9 0 -13 5t-2 14l25 104q3 15 19 15h67q9 0 13 -5t2 -14l-25 -104q-2 -7 -6.5 -11t-11.5 -4
h-68zM362 1192q-2 4 -2 7q0 10 11 15l282 130q10 5 21 5h26q12 0 21 -6l224 -129q10 -6 10 -13q0 -4 -3 -9l-15 -26q-5 -10 -14 -10l-8 2l-237 105l-282 -107q-6 -2 -7 -2q-10 0 -15 11z" />
    <glyph glyph-name="uni1EC8" unicode="&#x1ec8;" horiz-adv-x="372" 
d="M34 0q-18 0 -15 19l169 705l147 661q1 7 6.5 11t12.5 4h73q8 0 12 -5t2 -14l-158 -657l-158 -709q-3 -15 -18 -15h-73zM399 1521q-9 0 -13 5t-1 14q13 36 39 57t69 45q40 21 58.5 38t18.5 45t-24 44.5t-67 16.5q-45 0 -72.5 -18.5t-40.5 -54.5q-5 -14 -19 -14h-42
q-8 0 -12.5 5.5t-1.5 13.5q22 65 71.5 98.5t121.5 33.5t118 -33t46 -87q0 -34 -14.5 -58t-35.5 -39t-56 -34q-32 -17 -51 -31t-28 -34q-6 -13 -20 -13h-44z" />
    <glyph glyph-name="uni1EC9" unicode="&#x1ec9;" horiz-adv-x="347" 
d="M299 1151q-9 0 -13 5t-1 14q13 36 39 57t69 45q40 21 58.5 38t18.5 45t-24 44.5t-67 16.5q-45 0 -72.5 -18.5t-40.5 -54.5q-5 -14 -19 -14h-39q-8 0 -12.5 5.5t-1.5 13.5q22 65 70.5 98.5t119.5 33.5t116 -33t45 -87q0 -34 -14.5 -58t-35 -39t-54.5 -34q-32 -17 -51 -31
t-28 -34q-6 -13 -19 -13h-44zM21 0q-8 0 -12 5t-2 14l124 526l106 470q3 15 19 15h69q8 0 12 -5t2 -14l-110 -465l-120 -531q-3 -15 -18 -15h-70z" />
    <glyph glyph-name="uni1ECA" unicode="&#x1eca;" horiz-adv-x="372" 
d="M34 0q-18 0 -15 19l169 705l147 661q1 7 6.5 11t12.5 4h73q8 0 12 -5t2 -14l-158 -657l-158 -709q-3 -15 -18 -15h-73zM-24 -272q-9 0 -13 5t-2 14l25 104q3 15 19 15h67q9 0 13 -5t2 -14l-25 -104q-2 -7 -6.5 -11t-11.5 -4h-68z" />
    <glyph glyph-name="uni1ECB" unicode="&#x1ecb;" horiz-adv-x="347" 
d="M21 0q-8 0 -12 5t-2 14l124 526l106 470q3 15 19 15h69q8 0 12 -5t2 -14l-110 -465l-120 -531q-3 -15 -18 -15h-70zM294 1180q-8 0 -12 5t-3 14l25 104q3 15 19 15h65q8 0 12 -5t3 -14l-25 -104q-3 -15 -19 -15h-65zM-39 -272q-9 0 -13 5t-2 14l25 104q3 15 19 15h67
q9 0 13 -5t2 -14l-25 -104q-2 -7 -6.5 -11t-11.5 -4h-68z" />
    <glyph glyph-name="uni1ECC" unicode="&#x1ecc;" horiz-adv-x="1438" 
d="M377 47.5q-130 69.5 -202.5 203t-72.5 317.5q0 200 85.5 397.5t254.5 327t406 129.5q169 0 299 -69.5t202.5 -202t72.5 -314.5q0 -202 -85.5 -400.5t-254.5 -328t-406 -129.5q-169 0 -299 69.5zM1031 181.5q144 120.5 214.5 300t70.5 355.5q0 159 -58.5 272t-164.5 171.5
t-246 58.5q-209 0 -353.5 -120.5t-214.5 -300t-70 -355.5q0 -159 58.5 -272t164 -171.5t246.5 -58.5q209 0 353 120.5zM544 -272q-9 0 -13 5t-2 14l25 104q3 15 19 15h67q9 0 13 -5t2 -14l-25 -104q-2 -7 -6.5 -11t-11.5 -4h-68z" />
    <glyph glyph-name="uni1ECD" unicode="&#x1ecd;" horiz-adv-x="1061" 
d="M254 32.5q-93 51.5 -145 150t-52 235.5q0 149 61.5 295t183.5 241t293 95q121 0 213.5 -51t144.5 -149t52 -233q0 -151 -61.5 -297.5t-183 -242t-292.5 -95.5q-121 0 -214 51.5zM710.5 142q98.5 87 147 217.5t48.5 258.5q0 113 -39 193t-109.5 122t-164.5 42
q-143 0 -242 -87t-147.5 -217.5t-48.5 -258.5q0 -112 39 -192.5t110.5 -122.5t165.5 -42q142 0 240.5 87zM365 -272q-9 0 -13 5t-2 14l25 104q3 15 19 15h67q9 0 13 -5t2 -14l-25 -104q-2 -7 -6.5 -11t-11.5 -4h-68z" />
    <glyph glyph-name="uni1ECE" unicode="&#x1ece;" horiz-adv-x="1438" 
d="M377 47.5q-130 69.5 -202.5 203t-72.5 317.5q0 200 85.5 397.5t254.5 327t406 129.5q169 0 299 -69.5t202.5 -202t72.5 -314.5q0 -202 -85.5 -400.5t-254.5 -328t-406 -129.5q-169 0 -299 69.5zM1031 181.5q144 120.5 214.5 300t70.5 355.5q0 159 -58.5 272t-164.5 171.5
t-246 58.5q-209 0 -353.5 -120.5t-214.5 -300t-70 -355.5q0 -159 58.5 -272t164 -171.5t246.5 -58.5q209 0 353 120.5zM909 1521q-9 0 -13 5t-1 14q13 36 39 57t69 45q40 21 58.5 38t18.5 45t-24 44.5t-67 16.5q-45 0 -72.5 -18.5t-40.5 -54.5q-5 -14 -19 -14h-42
q-8 0 -12.5 5.5t-1.5 13.5q22 65 71.5 98.5t121.5 33.5t118 -33t46 -87q0 -34 -14.5 -58t-35.5 -39t-56 -34q-32 -17 -51 -31t-28 -34q-6 -13 -20 -13h-44z" />
    <glyph glyph-name="uni1ECF" unicode="&#x1ecf;" horiz-adv-x="1061" 
d="M254 32.5q-93 51.5 -145 150t-52 235.5q0 149 61.5 295t183.5 241t293 95q121 0 213.5 -51t144.5 -149t52 -233q0 -151 -61.5 -297.5t-183 -242t-292.5 -95.5q-121 0 -214 51.5zM710.5 142q98.5 87 147 217.5t48.5 258.5q0 113 -39 193t-109.5 122t-164.5 42
q-143 0 -242 -87t-147.5 -217.5t-48.5 -258.5q0 -112 39 -192.5t110.5 -122.5t165.5 -42q142 0 240.5 87zM642 1151q-9 0 -13 5t-1 14q13 36 39 57t69 45q40 21 58.5 38t18.5 45t-24 44.5t-67 16.5q-45 0 -72.5 -18.5t-40.5 -54.5q-5 -14 -19 -14h-42q-8 0 -12.5 5.5
t-1.5 13.5q22 65 71.5 98.5t121.5 33.5t118 -33t46 -87q0 -34 -14.5 -58t-35.5 -39t-56 -34q-32 -17 -51 -31t-28 -34q-6 -13 -20 -13h-44z" />
    <glyph glyph-name="uni1ED0" unicode="&#x1ed0;" horiz-adv-x="1438" 
d="M377 47.5q-130 69.5 -202.5 203t-72.5 317.5q0 200 85.5 397.5t254.5 327t406 129.5q169 0 299 -69.5t202.5 -202t72.5 -314.5q0 -202 -85.5 -400.5t-254.5 -328t-406 -129.5q-169 0 -299 69.5zM1031 181.5q144 120.5 214.5 300t70.5 355.5q0 159 -58.5 272t-164.5 171.5
t-246 58.5q-209 0 -353.5 -120.5t-214.5 -300t-70 -355.5q0 -159 58.5 -272t164 -171.5t246.5 -58.5q209 0 353 120.5zM1152 1676q-4 -6 -11 -6q-5 0 -12 7l-20 22q-4 5 -4 11q0 7 5 12l254 243q5 5 11 5q8 0 12 -6l29 -32q4 -5 4 -11q0 -7 -6 -13zM629 1524q-2 6 -2 8
q0 10 11 15l281 130q12 5 21 5h27q11 0 21 -6l224 -129q9 -6 9 -13q0 -3 -2 -9l-15 -26q-4 -10 -13 -10q-3 0 -9 2l-237 105l-283 -107q-4 -2 -7 -2q-9 0 -14 11z" />
    </font>
</defs>
</svg>
