<?xml version="1.0" standalone="no"?>
<!DOCTYPE svg PUBLIC "-//W3C//DTD SVG 1.1//EN" "http://www.w3.org/Graphics/SVG/1.1/DTD/svg11.dtd" >
<svg xmlns="http://www.w3.org/2000/svg" xmlns:xlink="http://www.w3.org/1999/xlink" version="1.1">
<metadata>
Created by FontForge 20170731 at Wed May 12 04:41:42 2021
 By Aleksey,,,
(c) Copyright David Jonathan Ross, 2016, 2021. All rights reserved.
</metadata>
<defs>
<font id="FormaDJRText-Medium" horiz-adv-x="0" >
  <font-face 
    font-family="Forma DJR Text Medium"
    font-weight="500"
    font-stretch="normal"
    units-per-em="2000"
    panose-1="0 0 0 0 0 0 0 9 0 0"
    ascent="1500"
    descent="-500"
    x-height="1030"
    cap-height="1400"
    bbox="-1001 -475 2380 2172"
    underline-thickness="50"
    underline-position="-150"
    unicode-range="U+0020-FB01"
  />
<missing-glyph horiz-adv-x="1200" 
d="M50 1388q0 5 3.5 8.5t8.5 3.5h1076q5 0 8.5 -3.5t3.5 -8.5v-1716q0 -5 -3.5 -8.5t-8.5 -3.5h-1076q-5 0 -8.5 3.5t-3.5 8.5v1716zM912 1195h-624v-1330h624v1330z" />
    <glyph glyph-name=".notdef" horiz-adv-x="1200" 
d="M50 1388q0 5 3.5 8.5t8.5 3.5h1076q5 0 8.5 -3.5t3.5 -8.5v-1716q0 -5 -3.5 -8.5t-8.5 -3.5h-1076q-5 0 -8.5 3.5t-3.5 8.5v1716zM912 1195h-624v-1330h624v1330z" />
    <glyph glyph-name=".null" 
 />
    <glyph glyph-name="nonmarkingreturn" horiz-adv-x="666" 
 />
    <glyph glyph-name="space" unicode=" " horiz-adv-x="383" 
 />
    <glyph glyph-name="space" unicode="&#xa0;" horiz-adv-x="383" 
 />
    <glyph glyph-name="exclam" unicode="!" horiz-adv-x="431" 
d="M117 396q-10 0 -15.5 5.5t-5.5 15.5v962q0 10 5.5 15.5t15.5 5.5h197q10 0 16 -5.5t6 -15.5v-962q0 -10 -6 -15.5t-16 -5.5h-197zM114 0q-10 0 -16 5.5t-6 15.5v202q0 10 6 16t16 6h203q10 0 16 -6t6 -16v-202q0 -10 -6 -15.5t-16 -5.5h-203z" />
    <glyph glyph-name="quotedbl" unicode="&#x22;" horiz-adv-x="721" 
d="M137 944q-20 0 -22 21l-28 413v3q0 19 20 19h187q11 0 16.5 -6t4.5 -16l-28 -413q-1 -21 -23 -21h-127zM457 944q-20 0 -22 21l-28 413v3q0 19 20 19h187q11 0 16.5 -6t4.5 -16l-28 -413q-1 -21 -23 -21h-127z" />
    <glyph glyph-name="numbersign" unicode="#" horiz-adv-x="1350" 
d="M1317 1104q11 0 16.5 -6t3.5 -17l-18 -133q-3 -20 -23 -20h-243l-65 -448h241q11 0 16.5 -6t3.5 -17l-23 -133q-5 -20 -23 -20h-240l-40 -284q-3 -20 -23 -20h-181q-11 0 -16 6.5t-4 16.5l40 281h-240l-41 -284q-3 -20 -23 -20h-181q-11 0 -16 6.5t-4 16.5l40 281h-242
q-11 0 -16.5 6t-3.5 17l23 133q5 20 23 20h242l64 448h-239q-10 0 -15.5 6t-4.5 17l19 133q3 20 22 20h243l39 276q3 20 23 20h181q11 0 16 -6.5t4 -16.5l-39 -273h241l39 276q3 20 23 20h181q11 0 16 -6.5t4 -16.5l-39 -273h239zM588 928l-64 -448h240l65 448h-241z" />
    <glyph glyph-name="dollar" unicode="$" horiz-adv-x="1192" 
d="M1014.5 113.5q-109.5 -112.5 -302.5 -135.5v-157q0 -10 -5.5 -15.5t-15.5 -5.5h-200q-10 0 -16 5.5t-6 15.5v163q-183 34 -286.5 153t-113.5 318q0 22 21 22h213q22 0 23 -21q14 -148 80.5 -223.5t213.5 -75.5q260 0 260 228q0 75 -43 118t-107.5 64t-176.5 43
q-147 30 -237 63.5t-154.5 114.5t-64.5 226q0 168 96.5 273.5t269.5 131.5v120q0 10 6 15.5t16 5.5h200q10 0 15.5 -5.5t5.5 -15.5v-122q164 -27 260.5 -128.5t118.5 -280.5l1 -5q0 -9 -6 -13.5t-15 -4.5h-212q-20 0 -22 21q-11 115 -76.5 174.5t-186.5 59.5
q-106 0 -168 -50t-62 -153q0 -68 41.5 -108t103.5 -59t172 -41q149 -29 242.5 -63.5t160 -117.5t66.5 -232q0 -190 -109.5 -302.5z" />
    <glyph glyph-name="percent" unicode="%" horiz-adv-x="1675" 
d="M223 759.5q-78 39.5 -120.5 117t-42.5 189.5t42.5 191.5t120.5 121t183 41.5t182.5 -41.5t120 -121t42.5 -191.5q0 -111 -42.5 -189t-120 -117.5t-182.5 -39.5t-183 39.5zM272 0q-19 0 -19 13q0 5 5 13l960 1361q10 13 26 13h156q8 0 13 -3.5t5 -9.5q0 -7 -5 -13
l-960 -1361q-9 -13 -26 -13h-155zM544 1066q0 105 -36.5 158t-103.5 53q-66 0 -102 -53t-36 -158q0 -101 36 -152t104 -51q138 0 138 203zM1086.5 21.5q-77.5 41.5 -120 121.5t-42.5 192q0 111 42.5 188.5t120 117t182.5 39.5q160 0 253 -89t93 -257q0 -111 -42.5 -191
t-121 -121.5t-183.5 -41.5q-104 0 -181.5 41.5zM1373 175.5q36 52.5 36 158.5q0 101 -36 152t-105 51q-138 0 -138 -203q0 -106 36.5 -158.5t103.5 -52.5t103 52.5z" />
    <glyph glyph-name="ampersand" unicode="&#x26;" horiz-adv-x="1367" 
d="M1332 26q6 -7 6 -14q0 -12 -18 -12h-237q-16 0 -27 12l-97 112q-83 -72 -187 -110t-223 -38q-133 0 -246 46t-181 136t-68 217q0 104 45 183.5t116 137t170 111.5q-73 90 -111 168t-38 158q0 84 46 153t134 109t208 40q104 0 187.5 -36t133 -103.5t50.5 -159.5
q0 -82 -41 -145t-105 -109.5t-162 -99.5l15 -18q94 -107 152 -176l119 -133q47 109 58 247q0 21 22 21h179q10 0 15.5 -6t4.5 -17q-11 -116 -46.5 -221t-92.5 -193zM490 1032q26 -48 92 -126q104 58 157.5 109.5t53.5 120.5q0 73 -45 114t-123 41q-76 0 -118.5 -41
t-42.5 -122q0 -48 26 -96zM719.5 173.5q70.5 31.5 127.5 89.5l-273 325q-25 31 -57 64q-1 1 -20 23q-97 -61 -151 -128.5t-54 -159.5q0 -120 75 -182.5t201 -62.5q81 0 151.5 31.5z" />
    <glyph glyph-name="quotesingle" unicode="'" horiz-adv-x="402" 
d="M137 944q-20 0 -22 21l-28 413v3q0 19 20 19h187q11 0 16.5 -6t4.5 -16l-28 -413q-1 -21 -23 -21h-127z" />
    <glyph glyph-name="parenleft" unicode="(" horiz-adv-x="511" 
d="M284 -280q-18 0 -25 16q-103 206 -156 416t-53 448q0 448 206 845q9 15 26 15h146q18 0 18 -14q0 -5 -3 -11q-180 -407 -180 -835q0 -441 183 -855q2 -8 2 -10q0 -7 -5 -11t-13 -4h-146z" />
    <glyph glyph-name="parenright" unicode=")" horiz-adv-x="511" 
d="M82 -280q-19 0 -19 14q0 5 3 11q182 416 182 855q0 428 -180 835q-3 6 -3 11q0 14 19 14h145q17 0 26 -15q206 -397 206 -845q0 -238 -53 -448t-155 -416q-9 -16 -26 -16h-145z" />
    <glyph glyph-name="asterisk" unicode="*" horiz-adv-x="696" 
d="M291 846q-11 0 -16.5 6t-4.5 16l7 191l-163 -103q-7 -4 -13 -4q-11 0 -17 11l-52 86q-4 8 -4 12q0 11 12 18l162 87l-165 83q-12 6 -12 17q0 6 3 12l48 96q6 12 17 12q4 0 12 -4l170 -101l-8 197v2q0 20 21 20h103q21 0 21 -21l-6 -197l169 109q8 5 13 5q11 0 17 -12
l50 -88q4 -8 4 -12q0 -10 -12 -18l-167 -92l161 -81q12 -6 12 -18q0 -7 -2 -11l-46 -97q-4 -12 -17 -12q-5 0 -11 3l-167 100l8 -190v-2q0 -20 -21 -20h-106z" />
    <glyph glyph-name="plus" unicode="+" horiz-adv-x="1062" 
d="M969 780q22 0 22 -22v-138q0 -22 -22 -22h-343v-386q0 -22 -22 -22h-144q-22 0 -22 22v386h-345q-22 0 -22 22v138q0 22 22 22h345v388q0 22 22 22h144q22 0 22 -22v-388h343z" />
    <glyph glyph-name="comma" unicode="," horiz-adv-x="367" 
d="M34 -213q-11 0 -16 6.5t-2 17.5l53 195v216q0 10 6 15.5t16 5.5h190q21 0 21 -21v-200q0 -13 -8 -26l-139 -195q-9 -14 -26 -14h-95z" />
    <glyph glyph-name="hyphen" unicode="-" horiz-adv-x="544" 
d="M55 503q-22 0 -22 22v128q0 21 22 21h433q10 0 16 -5.5t6 -15.5v-128q0 -22 -22 -22h-433z" />
    <glyph glyph-name="hyphen" unicode="&#x2011;" horiz-adv-x="544" 
d="M55 503q-22 0 -22 22v128q0 21 22 21h433q10 0 16 -5.5t6 -15.5v-128q0 -22 -22 -22h-433z" />
    <glyph glyph-name="hyphen" unicode="&#x2010;" horiz-adv-x="544" 
d="M55 503q-22 0 -22 22v128q0 21 22 21h433q10 0 16 -5.5t6 -15.5v-128q0 -22 -22 -22h-433z" />
    <glyph glyph-name="hyphen" unicode="&#xad;" horiz-adv-x="544" 
d="M55 503q-22 0 -22 22v128q0 21 22 21h433q10 0 16 -5.5t6 -15.5v-128q0 -22 -22 -22h-433z" />
    <glyph glyph-name="period" unicode="." horiz-adv-x="382" 
d="M85 0q-21 0 -21 21v201q0 10 5.5 15.5t15.5 5.5h214q10 0 15.5 -5.5t5.5 -15.5v-201q0 -10 -5.5 -15.5t-15.5 -5.5h-214z" />
    <glyph glyph-name="slash" unicode="/" horiz-adv-x="693" 
d="M68 -284q-11 0 -16 6.5t-3 17.5l414 1697q6 19 24 19h136q11 0 16 -6.5t3 -17.5l-414 -1697q-4 -19 -24 -19h-136z" />
    <glyph glyph-name="zero" unicode="0" horiz-adv-x="1178" 
d="M308 58q-119 85 -184.5 248.5t-65.5 391.5q0 234 65 398t184 247.5t281 83.5q161 0 280.5 -83t185 -247t65.5 -400q0 -228 -65.5 -391t-185.5 -248t-281 -85q-160 0 -279 85zM794.5 295.5q71.5 132.5 71.5 401.5q0 270 -72 405t-207 135q-136 0 -206 -133.5t-70 -406.5
q0 -267 72 -400.5t206 -133.5t205.5 132.5z" />
    <glyph glyph-name="one" unicode="1" horiz-adv-x="741" 
d="M369 0q-21 0 -21 21l9 674l-5 434q-103 -98 -277 -154q-3 -1 -9 -1q-16 0 -16 19v144q0 17 17 25q94 35 167 92t121 131q9 15 26 15h200q21 0 21 -21l-11 -733l11 -625q0 -21 -21 -21h-212z" />
    <glyph glyph-name="two" unicode="2" horiz-adv-x="1056" 
d="M84 0q-10 0 -16 5.5t-6 15.5v168q0 144 59.5 242t143.5 156.5t218 127.5q99 51 155.5 87t93.5 86t37 117q3 111 -56 176t-172 65q-116 0 -181.5 -76.5t-70.5 -223.5q-1 -21 -23 -21h-180q-10 0 -15.5 6t-5.5 16q3 230 123 353t349 124q220 0 337 -108t122 -304
q0 -132 -58.5 -223.5t-140.5 -147t-214 -122.5q-101 -51 -158.5 -87t-95.5 -86.5t-38 -117.5v-44h679q10 0 15.5 -5.5t5.5 -15.5v-142q0 -10 -5.5 -15.5t-15.5 -5.5h-886z" />
    <glyph glyph-name="three" unicode="3" horiz-adv-x="1095" 
d="M189.5 91q-120.5 111 -137.5 327v4q0 18 20 18h194q10 0 16 -5.5t6 -15.5q7 -131 67.5 -201t176.5 -70q123 0 191 74t68 202q0 123 -76 182t-236 59h-50q-21 0 -21 21v117q0 10 5.5 16t15.5 6h50q142 0 214 56.5t72 155.5q0 64 -28 113t-77 75.5t-110 26.5
q-224 0 -242 -246q-3 -22 -23 -22h-190q-10 0 -16 6t-5 17q13 200 141.5 306.5t346.5 106.5q129 0 229.5 -44t157 -125.5t57.5 -190.5q0 -119 -63 -193.5t-173 -110.5q129 -30 200 -116.5t71 -216.5q0 -135 -67 -235.5t-183 -154t-260 -53.5q-221 0 -341.5 111z" />
    <glyph glyph-name="four" unicode="4" horiz-adv-x="1123" 
d="M1060 534q10 0 16 -6t6 -16v-141q0 -10 -6 -15.5t-16 -5.5h-130v-329q0 -10 -6 -15.5t-16 -5.5h-201q-21 0 -21 21v329h-617q-10 0 -15.5 5.5t-5.5 15.5v171q0 14 7 27l536 817q8 14 26 14h291q10 0 16 -5.5t6 -15.5v-845h130zM686 534v431l7 257l-446 -688h439z" />
    <glyph glyph-name="five" unicode="5" horiz-adv-x="1113" 
d="M297.5 19q-102.5 48 -160 135t-71.5 205v3q0 19 20 19h201q21 0 21 -21q8 -102 69 -160t164 -58q123 0 192 91t69 258q0 163 -63.5 247.5t-189.5 84.5q-93 0 -153.5 -45t-82.5 -130q-6 -19 -24 -19h-172q-23 0 -21 23l50 727q1 21 22 21h782q10 0 16 -5.5t6 -15.5v-142
q0 -10 -6 -15.5t-16 -5.5h-589l-29 -328q112 110 288 110q124 0 224.5 -61t158.5 -172.5t58 -257.5q0 -162 -65 -283.5t-183 -187t-271 -65.5q-142 0 -244.5 48z" />
    <glyph glyph-name="six" unicode="6" horiz-adv-x="1140" 
d="M306.5 54q-116.5 81 -178.5 242.5t-62 397.5q0 232 66 396.5t188 250.5t288 86q183 0 290.5 -88t130.5 -255v-4q0 -19 -20 -19h-197q-20 0 -23 20q-13 80 -63 127t-136 47t-146.5 -55.5t-92.5 -159.5t-33 -248q101 145 318 145q132 0 233 -55t156.5 -157.5t55.5 -240.5
q0 -141 -64.5 -258t-177.5 -185t-253 -68q-163 0 -279.5 81zM709 187.5q57 36.5 87.5 105.5t30.5 164q-1 143 -62.5 224.5t-178.5 81.5q-120 0 -188 -78t-68 -218q0 -94 29 -165.5t84 -111t131 -39.5q78 0 135 36.5z" />
    <glyph glyph-name="seven" unicode="7" horiz-adv-x="947" 
d="M281 0q-22 0 -20 23q55 333 153.5 640t236.5 553h-598q-10 0 -15.5 5.5t-5.5 15.5v142q0 10 5.5 15.5t15.5 5.5h841q10 0 15.5 -5.5t5.5 -15.5v-153q0 -15 -6 -26q-144 -287 -245 -579t-147 -601q-3 -20 -22 -20h-214z" />
    <glyph glyph-name="eight" unicode="8" horiz-adv-x="1145" 
d="M310.5 27.5q-116.5 49.5 -183 143.5t-66.5 222q0 125 70 216.5t200 132.5q-109 46 -167.5 123t-58.5 177q0 121 56 207t161 131t251 45t251 -44.5t161.5 -129.5t58.5 -204q1 -98 -59 -177.5t-171 -127.5q132 -41 203 -132.5t71 -216.5q0 -128 -67 -222t-184 -143.5
t-264 -49.5q-146 0 -262.5 49.5zM695.5 839q52.5 29 81 79t28.5 112q0 107 -63 169t-169 62q-105 0 -168 -62.5t-63 -170.5q0 -63 28.5 -112.5t80.5 -77.5t122 -28t122.5 29zM715 175q62 33 96.5 91.5t34.5 132.5q0 77 -33 135t-94.5 90t-145.5 32q-83 0 -144.5 -32
t-94.5 -90t-33 -135q0 -74 34.5 -132.5t96 -91.5t141.5 -33t142 33z" />
    <glyph glyph-name="nine" unicode="9" horiz-adv-x="1140" 
d="M245.5 61q-107.5 88 -130.5 255v4q0 19 20 19h197q18 0 23 -20q12 -81 62.5 -127.5t136.5 -46.5q130 0 200 121t71 342q-99 -145 -317 -145q-132 0 -233 55t-156.5 157.5t-55.5 240.5q0 143 63 260t175.5 184t255.5 67q163 0 280 -80.5t179 -241.5t62 -399
q0 -231 -66 -396t-188 -251t-288 -86q-183 0 -290.5 88zM745.5 715q68.5 78 68.5 218q0 94 -29 165.5t-84 111t-132 39.5t-134 -36.5t-87.5 -105.5t-30.5 -164q1 -143 62 -224.5t178 -81.5q120 0 188.5 78z" />
    <glyph glyph-name="colon" unicode=":" horiz-adv-x="384" 
d="M85 0q-21 0 -21 21v201q0 10 5.5 15.5t15.5 5.5h214q10 0 15.5 -5.5t5.5 -15.5v-201q0 -10 -5.5 -15.5t-15.5 -5.5h-214zM85 788q-21 0 -21 21v201q0 10 5.5 15.5t15.5 5.5h214q10 0 15.5 -5.5t5.5 -15.5v-201q0 -10 -5.5 -15.5t-15.5 -5.5h-214z" />
    <glyph glyph-name="semicolon" unicode=";" horiz-adv-x="376" 
d="M34 -213q-11 0 -16 6.5t-2 17.5l53 195v216q0 10 6 15.5t16 5.5h190q21 0 21 -21v-200q0 -13 -8 -26l-139 -195q-9 -14 -26 -14h-95zM79 787q-21 0 -21 21v201q0 10 5.5 15.5t15.5 5.5h214q10 0 15.5 -5.5t5.5 -15.5v-201q0 -10 -5.5 -15.5t-15.5 -5.5h-214z" />
    <glyph glyph-name="less" unicode="&#x3c;" horiz-adv-x="1062" 
d="M87 591q-16 8 -16 25v146q0 17 16 25l879 396q6 3 11 3q14 0 14 -19v-143q0 -17 -16 -25l-715 -309l715 -311q16 -8 16 -25v-143q0 -19 -14 -19q-5 0 -11 3z" />
    <glyph glyph-name="equal" unicode="=" horiz-adv-x="1062" 
d="M93 843q-22 0 -22 22v138q0 10 6 16t16 6h876q10 0 16 -6t6 -16v-138q0 -22 -22 -22h-876zM93 353q-10 0 -16 6t-6 16v138q0 22 22 22h876q22 0 22 -22v-138q0 -10 -6 -16t-16 -6h-876z" />
    <glyph glyph-name="greater" unicode="&#x3e;" horiz-adv-x="1062" 
d="M96 195q-6 -3 -11 -3q-14 0 -14 19v143q0 17 16 25l715 311l-715 309q-16 8 -16 25v143q0 19 14 19q5 0 11 -3l879 -396q16 -8 16 -25v-146q0 -17 -16 -25z" />
    <glyph glyph-name="question" unicode="?" horiz-adv-x="1005" 
d="M397 396q-11 0 -16.5 6t-4.5 16q3 102 34 177t72 124t107 111q46 43 72 71.5t43 64t17 77.5q0 100 -63 154.5t-168 54.5q-116 0 -172.5 -62t-61.5 -187q-1 -21 -22 -21h-187q-11 0 -16.5 6t-4.5 16q13 202 136 308t345 106q130 0 233 -44.5t161.5 -131t58.5 -205.5
q0 -73 -22.5 -127.5t-55.5 -92.5t-90 -90q-55 -51 -88.5 -89.5t-58 -93.5t-27.5 -127q-1 -21 -22 -21h-199zM391 0q-10 0 -15.5 5.5t-5.5 15.5v202q0 10 5.5 16t15.5 6h208q10 0 16 -6t6 -16v-202q0 -10 -6 -15.5t-16 -5.5h-208z" />
    <glyph glyph-name="at" unicode="@" horiz-adv-x="1673" 
d="M904.5 971.5q71.5 -36.5 118.5 -107.5l-4 104q0 22 22 22h175q10 0 16 -5.5t6 -15.5v-662q0 -82 23.5 -115t67.5 -33t79 38t55.5 114.5t20.5 188.5q0 237 -80.5 408.5t-229 262t-349.5 90.5q-195 0 -339 -91t-222 -262.5t-78 -407.5q0 -230 78.5 -397t222.5 -255.5
t338 -88.5q156 0 272 47.5t191 157.5q10 14 26 14h97q9 0 13.5 -4t4.5 -10t-4 -13q-98 -157 -250.5 -234t-349.5 -77q-230 0 -404.5 104.5t-270 299.5t-95.5 458q0 270 96 468.5t270.5 304t405.5 105.5q237 0 415.5 -105.5t276.5 -304.5t98 -470q0 -144 -39 -248
t-104.5 -158t-144.5 -54q-55 0 -112 19t-102 61t-60 108q-47 -94 -129 -146.5t-189 -52.5q-126 0 -215.5 63.5t-135.5 173.5t-46 249q0 138 48.5 250t139 177.5t212.5 65.5q93 0 164.5 -36.5zM968.5 265q61.5 85 61.5 254q0 162 -60 250t-169 89q-117 2 -176.5 -84.5
t-59.5 -243.5q0 -166 58 -258t170 -92q114 0 175.5 85z" />
    <glyph glyph-name="A" unicode="A" horiz-adv-x="1304" 
d="M1297 25q2 -6 2 -9q0 -16 -19 -16h-209q-19 0 -25 17l-124 373h-548l-121 -372q-4 -18 -24 -18h-205q-19 0 -19 16q0 3 2 9l480 1358q6 17 24 17h290q18 0 24 -17zM859 585l-215 648l-210 -648h425z" />
    <glyph glyph-name="B" unicode="B" horiz-adv-x="1262" 
d="M118 0q-21 0 -21 21l11 691l-11 667q0 21 21 21h564q145 0 255 -38t171.5 -114.5t61.5 -188.5q0 -126 -63 -201.5t-187 -110.5q144 -34 216.5 -119.5t73.5 -208.5q0 -143 -71 -237t-189 -138t-262 -44h-570zM349 1227l-10 -405h344q116 0 179 49t63 151t-66.5 153.5
t-175.5 51.5h-334zM339 649l10 -475h334q131 0 205 56.5t74 187.5q0 119 -78 175t-201 56h-344z" />
    <glyph glyph-name="C" unicode="C" horiz-adv-x="1388" 
d="M369 62q-152 89 -233 253t-81 383q0 220 82.5 385t234.5 254.5t356 89.5q234 0 392.5 -114.5t211.5 -371.5l1 -6q0 -8 -5.5 -13t-14.5 -5h-198q-19 0 -23 19q-31 150 -125.5 226t-241.5 76q-133 0 -227 -65t-142.5 -186t-48.5 -288q0 -173 49 -293.5t142.5 -182
t224.5 -61.5q159 0 254.5 85t120.5 248q5 20 24 20h201q11 0 16 -7t3 -20q-49 -264 -206 -389.5t-407 -125.5q-208 0 -360 89z" />
    <glyph glyph-name="D" unicode="D" horiz-adv-x="1364" 
d="M118 0q-21 0 -21 21l12 690l-12 668q0 21 21 21h466q206 0 370 -79t259.5 -237.5t95.5 -387.5q0 -234 -97 -390t-260 -231t-364 -75h-470zM340 715l11 -532h253q124 0 226.5 54.5t164.5 170t62 289.5q0 171 -60.5 288t-164.5 174.5t-236 57.5h-245z" />
    <glyph glyph-name="E" unicode="E" horiz-adv-x="1103" 
d="M118 0q-21 0 -21 21l11 692l-11 666q0 21 21 21h889q10 0 15.5 -5.5t5.5 -15.5v-141q0 -10 -5.5 -15.5t-15.5 -5.5h-658l-10 -382h615q21 0 21 -22v-140q0 -10 -5.5 -15.5t-15.5 -5.5h-615l10 -469h674q10 0 15.5 -5.5t5.5 -15.5v-141q0 -10 -5.5 -15.5t-15.5 -5.5h-905z
" />
    <glyph glyph-name="F" unicode="F" horiz-adv-x="1043" 
d="M118 0q-21 0 -21 21l11 678l-11 680q0 21 21 21h861q10 0 16 -5.5t6 -15.5v-141q0 -10 -6 -15.5t-16 -5.5h-630l-10 -444h610q10 0 15.5 -6t5.5 -16v-140q0 -10 -5.5 -15.5t-15.5 -5.5h-610l10 -569q0 -21 -21 -21h-210z" />
    <glyph glyph-name="G" unicode="G" horiz-adv-x="1421" 
d="M375 64q-151 91 -235.5 256t-84.5 381q0 219 83 383.5t233 253.5t346 89q244 0 402 -117t212 -336q1 -3 1 -7q0 -8 -5.5 -12.5t-14.5 -4.5h-208q-19 0 -24 18q-34 135 -126.5 204t-235.5 69q-128 0 -220.5 -65.5t-141.5 -188t-49 -290.5q0 -164 51 -285.5t146 -187
t224 -65.5q116 0 200 48t129 138.5t47 215.5h-380q-10 0 -16 6t-6 16v137q0 10 6 15.5t16 5.5h619q21 0 21 -26q2 -365 -164 -553.5t-480 -188.5q-194 0 -345 91z" />
    <glyph glyph-name="H" unicode="H" horiz-adv-x="1364" 
d="M1256 696l11 -675q0 -21 -20 -21h-212q-21 0 -21 21l9 626v11h-682v-11l9 -626q0 -21 -21 -21h-211q-21 0 -21 21l11 675l-11 683q0 21 21 21h211q21 0 21 -21l-8 -538h680l-8 538q0 21 21 21h212q20 0 20 -21z" />
    <glyph glyph-name="I" unicode="I" horiz-adv-x="464" 
d="M128 0q-21 0 -21 21l12 686l-12 672q0 21 21 21h209q21 0 21 -21l-12 -672l12 -686q0 -21 -21 -21h-209z" />
    <glyph glyph-name="J" unicode="J" horiz-adv-x="1027" 
d="M150 105q-113 134 -118 377q0 21 22 21h195q21 0 21 -22q3 -158 52.5 -238t161.5 -80q80 0 126 37.5t65 110t21 188.5l3 361l-10 519q0 21 21 21h217q21 0 21 -21l-10 -519l3 -362q4 -261 -112 -394t-346 -133q-220 0 -333 134z" />
    <glyph glyph-name="K" unicode="K" horiz-adv-x="1200" 
d="M1188 26q4 -5 4 -12q0 -6 -4.5 -10t-13.5 -4h-254q-15 0 -26 14l-414 630l-138 -165l6 -458q0 -21 -21 -21h-209q-21 0 -21 21l10 690l-10 668q0 21 21 21h209q21 0 21 -21l-8 -582v-20l466 610q8 13 26 13h239q9 0 14 -3.5t5 -8.5q0 -6 -6 -14l-447 -537z" />
    <glyph glyph-name="L" unicode="L" horiz-adv-x="973" 
d="M118 0q-21 0 -21 21l12 697l-12 661q0 21 21 21h210q21 0 21 -21l-10 -648l11 -548h588q21 0 21 -21v-141q0 -10 -5.5 -15.5t-15.5 -5.5h-820z" />
    <glyph glyph-name="M" unicode="M" horiz-adv-x="1650" 
d="M118 0q-21 0 -21 21l10 672l-10 686q0 21 21 21h291q17 0 25 -17l409 -1078l393 1078q6 17 24 17h272q21 0 21 -21l-10 -686l10 -672q0 -21 -21 -21h-205q-10 0 -16 5.5t-6 15.5l1 516l10 532l-387 -1052q-6 -17 -24 -17h-158q-19 0 -25 17l-411 1083l10 -563l1 -516
q0 -10 -5.5 -15.5t-15.5 -5.5h-183z" />
    <glyph glyph-name="N" unicode="N" horiz-adv-x="1368" 
d="M118 0q-21 0 -21 21l10 685l-10 673q0 21 21 21h256q17 0 26 -15l648 -1065l-9 471l-1 588q0 10 6 15.5t16 5.5h190q21 0 21 -21l-10 -673l10 -685q0 -21 -21 -21h-267q-17 0 -26 15l-638 1054l10 -499l1 -549q0 -10 -6 -15.5t-16 -5.5h-190z" />
    <glyph glyph-name="O" unicode="O" horiz-adv-x="1485" 
d="M380.5 63.5q-155.5 90.5 -240.5 255t-85 379.5q0 221 84.5 386t240 254t362.5 89t362.5 -88.5t241 -253.5t85.5 -388q0 -215 -85.5 -379t-242 -254.5t-361.5 -90.5q-206 0 -361.5 90.5zM977 226q98 64 149.5 184.5t51.5 286.5q0 167 -51.5 288.5t-149.5 187t-235 65.5
q-138 0 -235.5 -64.5t-148.5 -186t-51 -290.5q0 -165 52 -285.5t150 -185t234 -64.5t234 64z" />
    <glyph glyph-name="P" unicode="P" horiz-adv-x="1165" 
d="M608 1400q246 0 380.5 -111t134.5 -326q0 -144 -62 -245t-178 -153t-274 -52h-267l7 -492q0 -21 -21 -21h-210q-21 0 -21 21l10 689l-10 669q0 21 21 21h490zM625 693q120 0 190.5 64.5t70.5 201.5q0 131 -69 196t-200 65h-270l-7 -504v-23h285z" />
    <glyph glyph-name="Q" unicode="Q" horiz-adv-x="1489" 
d="M1427 190q10 0 16 -5.5t6 -15.5v-148q0 -10 -6 -15.5t-16 -5.5h-481q-98 -27 -210 -27q-205 0 -361 90.5t-241 255t-85 379.5q0 221 84.5 386t240.5 254t363 89q206 0 361.5 -88.5t241 -253.5t85.5 -388q0 -161 -49.5 -291t-141.5 -221l78 5h115zM353.5 411.5
q51.5 -120.5 150 -185t234.5 -64.5t233.5 64t149 184.5t51.5 286.5q0 167 -51 288.5t-149.5 187t-235.5 65.5q-138 0 -235.5 -64.5t-148 -186t-50.5 -290.5q0 -165 51.5 -285.5z" />
    <glyph glyph-name="R" unicode="R" horiz-adv-x="1244" 
d="M1201 26q5 -8 5 -13q0 -13 -19 -13h-237q-17 0 -26 15l-156 258l-177 276h-250l8 -528q0 -21 -21 -21h-210q-21 0 -21 21l10 690l-10 668q0 21 21 21h526q255 0 394 -108t139 -316q0 -160 -86 -262t-242 -140zM346 1220l-7 -478v-13h325q126 0 201 59t75 183
q0 123 -73 186t-208 63h-313z" />
    <glyph glyph-name="S" unicode="S" horiz-adv-x="1262" 
d="M335.5 26.5q-133.5 54.5 -209 162.5t-82.5 266v2q0 20 21 20h212q21 0 23 -20q15 -148 96 -224t259 -76q152 0 235.5 55.5t83.5 172.5q0 75 -50 118.5t-124.5 65.5t-205.5 47q-166 31 -270.5 66t-178 114.5t-73.5 218.5q0 128 64.5 221t185 142t286.5 49
q249 0 396.5 -103.5t175.5 -315.5v-4q0 -19 -20 -19h-213q-20 0 -23 21q-12 115 -94 174.5t-230 59.5q-132 0 -209.5 -50.5t-77.5 -151.5q0 -68 48 -108.5t119.5 -60.5t200.5 -44q171 -31 278 -66.5t183 -117t76 -225.5q0 -143 -70 -242.5t-198 -150.5t-300 -51
q-181 0 -314.5 54.5z" />
    <glyph glyph-name="T" unicode="T" horiz-adv-x="1103" 
d="M443 0q-22 0 -21 21l14 675l-12 520h-382q-10 0 -15.5 6t-5.5 16v141q0 10 5.5 15.5t15.5 5.5h1018q10 0 16 -5.5t6 -15.5v-141q0 -22 -22 -22h-381l-12 -520l14 -675v-2q0 -19 -21 -19h-217z" />
    <glyph glyph-name="U" unicode="U" horiz-adv-x="1263" 
d="M228.5 116q-138.5 143 -136.5 409l2 412l-9 442q0 21 21 21h217q21 0 21 -21l-9 -436l2 -416q1 -173 73 -266t225 -93q161 0 237 93t76 266v411l-7 441q0 21 21 21h194q21 0 21 -21l-6 -442v-412q0 -268 -135 -410t-401 -142q-268 0 -406.5 143z" />
    <glyph glyph-name="V" unicode="V" horiz-adv-x="1256" 
d="M7 1375q-2 6 -2 9q0 16 19 16h227q20 0 24 -18l371 -1194l365 1194q5 18 24 18h197q19 0 19 -17q0 -5 -1 -8l-454 -1358q-6 -17 -24 -17h-281q-18 0 -24 17z" />
    <glyph glyph-name="W" unicode="W" horiz-adv-x="1801" 
d="M16 1376l-1 6q0 18 20 18h205q20 0 24 -19l254 -1152l242 1152q4 19 24 19h243q20 0 23 -19l250 -1164l255 1164q3 19 23 19h188q11 0 16 -6.5t3 -17.5l-340 -1357q-4 -19 -23 -19h-254q-20 0 -23 19l-252 1043l-235 -1043q-4 -19 -24 -19h-261q-20 0 -23 19z" />
    <glyph glyph-name="X" unicode="X" horiz-adv-x="1229" 
d="M34 0q-19 0 -19 13q0 5 5 13l452 712l-414 636q-4 7 -4 13q0 13 18 13h248q18 0 25 -15l274 -461l275 461q8 15 26 15h228q19 0 19 -13q0 -6 -4 -13l-409 -645l456 -703q4 -5 4 -12q0 -14 -19 -14h-248q-17 0 -26 15l-311 536l-322 -536q-8 -15 -26 -15h-228z" />
    <glyph glyph-name="Y" unicode="Y" horiz-adv-x="1181" 
d="M10 1375q-3 6 -3 11q0 6 4.5 10t13.5 4h232q18 0 25 -16l318 -686l320 686q7 16 26 16h210q8 0 13 -4t5 -10q0 -5 -3 -11l-464 -894l8 -460q0 -21 -21 -21h-210q-22 0 -21 21l9 462z" />
    <glyph glyph-name="Z" unicode="Z" horiz-adv-x="1160" 
d="M67 0q-10 0 -16 5.5t-6 15.5v165q0 14 9 26l761 1005h-695q-21 0 -21 21v141q0 10 5.5 15.5t15.5 5.5h966q10 0 16 -5.5t6 -15.5v-171q0 -14 -9 -26l-753 -999h747q21 0 21 -21v-141q0 -10 -5.5 -15.5t-15.5 -5.5h-1026z" />
    <glyph glyph-name="bracketleft" unicode="[" horiz-adv-x="539" 
d="M97 -280q-10 0 -15.5 5.5t-5.5 15.5v1698q0 10 5.5 15.5t15.5 5.5h361q10 0 16 -5.5t6 -15.5v-141q0 -10 -6 -15.5t-16 -5.5h-171v-1374h171q10 0 16 -5.5t6 -15.5v-141q0 -10 -6 -15.5t-16 -5.5h-361z" />
    <glyph glyph-name="backslash" unicode="\" horiz-adv-x="693" 
d="M487 -284q-18 0 -24 19l-414 1697l-1 6q0 8 5.5 13t14.5 5h137q19 0 23 -19l414 -1697q1 -3 1 -7q0 -8 -5.5 -12.5t-14.5 -4.5h-136z" />
    <glyph glyph-name="bracketright" unicode="]" horiz-adv-x="539" 
d="M81 -280q-10 0 -15.5 5.5t-5.5 15.5v141q0 10 5.5 15.5t15.5 5.5h171v1374h-171q-10 0 -15.5 5.5t-5.5 15.5v141q0 10 5.5 15.5t15.5 5.5h361q21 0 21 -21v-1698q0 -10 -5.5 -15.5t-15.5 -5.5h-361z" />
    <glyph glyph-name="asciicircum" unicode="^" horiz-adv-x="1058" 
d="M61 513q-19 0 -19 14q0 5 3 11l388 846q7 16 26 16h139q18 0 25 -16l389 -846q2 -4 2 -10q0 -15 -18 -15h-144q-18 0 -25 16l-299 679l-298 -679q-7 -16 -25 -16h-144z" />
    <glyph glyph-name="underscore" unicode="_" horiz-adv-x="818" 
d="M55 -340q-21 0 -21 21v129q0 21 21 21h707q10 0 15.5 -5.5t5.5 -15.5v-129q0 -10 -5.5 -15.5t-15.5 -5.5h-707z" />
    <glyph glyph-name="grave" unicode="`" horiz-adv-x="749" 
d="M614 1148q-5 -14 -19 -14q-5 0 -8 1l-466 140q-15 5 -15 19q0 6 1 9l46 140q5 14 16 14q5 0 11 -3l450 -200q14 -6 14 -19q0 -3 -2 -9z" />
    <glyph glyph-name="a" unicode="a" horiz-adv-x="1126" 
d="M1035 520l8 -499q0 -21 -21 -21h-199q-22 0 -22 21l4 128q-53 -81 -133 -124.5t-184 -43.5q-139 0 -237 69.5t-148.5 190t-50.5 272.5q0 150 53.5 272t153.5 193.5t234 71.5q102 0 181 -40.5t130 -118.5l-4 117v2q0 20 21 20h201q21 0 21 -21zM743 236.5
q67 93.5 67 278.5q0 178 -65.5 274.5t-186.5 97.5q-129 2 -195 -93t-66 -267q0 -182 64.5 -283t189.5 -101t192 93.5z" />
    <glyph glyph-name="b" unicode="b" horiz-adv-x="1126" 
d="M875 980.5q98 -69.5 148.5 -190t50.5 -272.5q0 -150 -53.5 -272.5t-153.5 -194t-234 -71.5q-102 0 -181 41t-130 119l4 -117v-2q0 -20 -21 -20h-201q-22 0 -22 21l9 716l-9 641q0 21 22 21h202q10 0 16 -5.5t6 -15.5l-4 -492q53 78 132.5 120.5t181.5 42.5
q139 0 237 -69.5zM763 240q66 96 66 267q0 179 -64.5 278.5t-189.5 99.5t-192 -92.5t-67 -273.5q0 -179 65.5 -275.5t186.5 -97.5q129 -2 195 94z" />
    <glyph glyph-name="c" unicode="c" horiz-adv-x="1064" 
d="M285 41.5q-114 65.5 -173.5 186.5t-59.5 284t60 285.5t175 189.5t274 67q126 0 222.5 -45t153.5 -127t70 -191v-4q0 -18 -20 -18h-180q-20 0 -23 20q-19 99 -78.5 150t-144.5 51q-262 -1 -262 -377q0 -189 65 -282t198 -93q96 0 158 60.5t74 171.5q3 21 22 21h184
q11 0 16.5 -5t4.5 -15q-11 -115 -71 -204.5t-162 -140t-232 -50.5q-157 0 -271 65.5z" />
    <glyph glyph-name="d" unicode="d" horiz-adv-x="1126" 
d="M1036 742l7 -721q0 -21 -21 -21h-201q-11 0 -16.5 6t-4.5 16l5 126q-54 -81 -134 -124.5t-183 -43.5q-138 0 -236.5 69.5t-149 190.5t-50.5 273q0 150 53.5 272.5t153.5 194t234 71.5q101 0 179.5 -40t129.5 -116l-4 484q0 10 5.5 15.5t15.5 5.5h203q21 0 21 -21z
M742.5 235q67.5 94 67.5 278q0 182 -67 279.5t-190 97.5q-127 0 -191.5 -96.5t-64.5 -268.5q0 -182 64.5 -283t189.5 -101q124 0 191.5 94z" />
    <glyph glyph-name="e" unicode="e" horiz-adv-x="1108" 
d="M295 474q7 -171 74.5 -253.5t196.5 -82.5q95 0 155 49t82 147q5 19 23 19h189q11 0 16.5 -4.5t4.5 -12.5q-15 -102 -75 -184t-162 -129t-236 -47q-162 0 -277.5 67.5t-174.5 189t-59 279.5q0 162 60.5 284.5t174 190t268.5 67.5q157 0 269 -67t172.5 -192.5t63.5 -298.5
q0 -22 -21 -22h-744zM384 825.5q-64 -67.5 -82 -195.5h499q-5 73 -33.5 132.5t-82 95t-128.5 35.5q-109 0 -173 -67.5z" />
    <glyph glyph-name="f" unicode="f" horiz-adv-x="730" 
d="M214 0q-21 0 -21 21l9 439v398h-138q-10 0 -15.5 6t-5.5 16v129q0 10 5.5 15.5t15.5 5.5h138v81q0 109 42.5 179t111 101.5t149.5 32.5q70 0 158 -16q19 -4 19 -24v-124q0 -11 -6 -16t-17 -3q-43 9 -100 9q-58 0 -90 -37.5t-32 -122.5v-60h223q10 0 16 -5.5t6 -15.5v-129
q0 -10 -6 -16t-16 -6h-223v-398l8 -439q0 -21 -21 -21h-210z" />
    <glyph glyph-name="g" unicode="g" horiz-adv-x="1123" 
d="M258.5 71.5q-102.5 66.5 -154.5 183t-52 264.5q0 147 53.5 267t153.5 190t236 70q101 0 179.5 -40.5t129.5 -118.5l-4 121v2q0 20 21 20h197q22 0 22 -21l-6 -501l4 -457q2 -140 -53.5 -240.5t-164.5 -153.5t-266 -53q-129 -2 -230.5 33t-164 108t-71.5 180v4q0 18 20 18
h196q19 0 22 -20q13 -80 73.5 -120.5t161.5 -40.5q119 0 185.5 71t66.5 217v118q-51 -81 -129 -124t-179 -43q-144 0 -246.5 66.5zM743.5 253.5q66.5 88.5 66.5 265.5q0 175 -65.5 270.5t-187.5 96.5q-128 2 -194.5 -92t-66.5 -266q0 -177 65.5 -270t190.5 -93t191.5 88.5z
" />
    <glyph glyph-name="h" unicode="h" horiz-adv-x="1084" 
d="M910.5 946q93.5 -108 92.5 -327l-3 -213l8 -385q0 -21 -21 -21h-206q-21 0 -21 21l8 382l-2 240q-1 117 -51.5 175t-132.5 58q-57 0 -109.5 -29t-93 -85t-61.5 -134l8 -607q0 -21 -21 -21h-199q-21 0 -21 21l9 686l-9 672q0 21 21 21h199q21 0 21 -21l-7 -494
q53 79 135 124t190 45q173 0 266.5 -108z" />
    <glyph glyph-name="i" unicode="i" horiz-adv-x="432" 
d="M113 0q-21 0 -21 21l8 502l-8 486q0 21 21 21h206q21 0 21 -21l-8 -486l8 -502q0 -21 -21 -21h-206zM115 1143q-10 0 -15.5 5.5t-5.5 15.5v188q0 10 5.5 15.5t15.5 5.5h202q10 0 15.5 -5.5t5.5 -15.5v-188q0 -10 -5.5 -15.5t-15.5 -5.5h-202z" />
    <glyph glyph-name="j" unicode="j" horiz-adv-x="432" 
d="M113 -340q-21 0 -21 21l8 661l-8 667q0 21 21 21h206q21 0 21 -21l-8 -667l8 -661q0 -21 -21 -21h-206zM115 1143q-10 0 -15.5 5.5t-5.5 15.5v188q0 10 5.5 15.5t15.5 5.5h202q10 0 15.5 -5.5t5.5 -15.5v-188q0 -10 -5.5 -15.5t-15.5 -5.5h-202z" />
    <glyph glyph-name="k" unicode="k" horiz-adv-x="983" 
d="M973 25q3 -6 3 -11q0 -6 -5 -10t-13 -4h-233q-17 0 -25 15l-268 470l-111 -129l4 -335q0 -10 -5.5 -16t-15.5 -6h-200q-21 0 -21 22l9 676l-9 682q0 21 21 21h200q21 0 21 -21l-9 -678l1 -87l347 404q11 12 26 12h217q8 0 13 -3.5t5 -8.5q0 -7 -7 -14l-317 -345z" />
    <glyph glyph-name="l" unicode="l" horiz-adv-x="427" 
d="M114 0q-21 0 -21 21l9 684l-9 674q0 21 21 21h200q20 0 20 -21l-9 -673l9 -685q0 -21 -20 -21h-200z" />
    <glyph glyph-name="m" unicode="m" horiz-adv-x="1642" 
d="M1562 388l6 -367q0 -21 -21 -21h-206q-21 0 -21 21l8 367v255q0 118 -44 175t-123 57q-49 0 -94 -34t-77.5 -99t-45.5 -155q2 -18 2 -29v-170l7 -367v-2q0 -19 -21 -19h-205q-22 0 -21 21l7 367v255q0 119 -43.5 175.5t-123.5 56.5q-52 0 -98.5 -37t-79 -108.5
t-42.5 -169.5v-172l7 -367v-2q0 -19 -21 -19h-208q-22 0 -21 21l8 367l-6 621q0 10 6 15.5t16 5.5h192q22 0 21 -22l-4 -133q116 179 307 179q226 0 295 -206q59 107 137.5 156.5t181.5 49.5q157 0 241 -100.5t84 -304.5v-261z" />
    <glyph glyph-name="n" unicode="n" horiz-adv-x="1086" 
d="M1004 439l6 -418q0 -21 -22 -21h-201q-21 0 -21 21l5 418v204q0 112 -52 172t-137 60q-62 0 -116.5 -35.5t-91 -106.5t-46.5 -173v-121l4 -418q0 -21 -22 -21h-204q-21 0 -21 21l8 460l-5 528q0 21 21 21h190q22 0 21 -22l-4 -133q53 79 140.5 129t196.5 50
q108 0 187 -47t121.5 -138t42.5 -220v-210z" />
    <glyph glyph-name="o" unicode="o" horiz-adv-x="1120" 
d="M287 42q-115 66 -175 187t-60 284t60 285t175 189t275 67t273.5 -66t173 -187t59.5 -284t-59.5 -285t-173.5 -189t-273 -67q-160 0 -275 66zM757 231.5q64 93.5 64 281.5q0 186 -65.5 282.5t-195.5 96.5q-262 -3 -262 -381q0 -373 264 -373q131 0 195 93.5z" />
    <glyph glyph-name="p" unicode="p" horiz-adv-x="1126" 
d="M874.5 981.5q98.5 -69.5 149 -190.5t50.5 -273q0 -150 -53.5 -272.5t-153.5 -194t-234 -71.5q-101 0 -178.5 39t-128.5 115l5 -453q0 -21 -22 -21h-205q-22 0 -22 21l9 754l-8 574q0 21 21 21h201q10 0 16 -6t5 -16l-5 -126q54 81 134 125t183 44q138 0 236.5 -69.5z
M763 238.5q66 94.5 66 265.5q0 181 -65 281t-191 100q-123 0 -190 -94t-67 -275q0 -178 65.5 -275t186.5 -97q129 0 195 94.5z" />
    <glyph glyph-name="q" unicode="q" horiz-adv-x="1126" 
d="M674 1008.5q79 -40.5 130 -118.5l-4 118v2q0 20 21 20h201q21 0 21 -21l-8 -629l8 -699q0 -21 -21 -21h-203q-10 0 -15.5 5.5t-5.5 15.5l2 461q-52 -77 -131 -118.5t-181 -41.5q-139 0 -237 69t-148.5 189.5t-50.5 272.5q0 149 53.5 271.5t153.5 193.5t234 71
q102 0 181 -40.5zM743 237.5q67 93.5 67 274.5q0 178 -65.5 276t-186.5 98q-127 0 -194 -93.5t-67 -268.5q0 -181 65 -280.5t191 -99.5q123 0 190 93.5z" />
    <glyph glyph-name="r" unicode="r" horiz-adv-x="767" 
d="M104 0q-21 0 -21 21l7 500l-7 488q0 21 21 21h198q22 0 21 -22l-6 -163q56 94 151 144t208 50q26 0 51 -5q19 -3 19 -24v-137q0 -22 -22 -20q-21 3 -45 3q-98 0 -176.5 -38t-126 -114t-53.5 -188l3 -495q0 -21 -21 -21h-201z" />
    <glyph glyph-name="s" unicode="s" horiz-adv-x="1037" 
d="M287.5 17q-107.5 40 -169.5 119.5t-68 194.5v2q0 19 21 19h191q21 0 21 -21q7 -103 71 -152.5t186 -49.5q102 0 159.5 40.5t57.5 114.5q0 48 -35 76t-88.5 41.5t-146.5 28.5q-130 21 -213 46.5t-142 88t-59 174.5q0 101 52 171.5t148.5 106.5t227.5 36q196 0 316 -79.5
t133 -234.5v-2q0 -20 -21 -20h-182q-20 0 -23 20q-11 82 -68.5 124.5t-157.5 42.5q-93 0 -144.5 -37t-51.5 -111q0 -46 34 -72t85 -38t143 -26q134 -21 218 -46t144.5 -89t60.5 -181q0 -101 -59 -175t-161 -113t-231 -39q-141 0 -248.5 40z" />
    <glyph glyph-name="t" unicode="t" horiz-adv-x="694" 
d="M254 56.5q-87 74.5 -87 235.5l1 443v122h-112q-10 0 -15.5 6t-5.5 16v130q0 10 5.5 15.5t15.5 5.5h111l-3 237q0 21 22 21h202q22 0 22 -21l-3 -237h228q10 0 16 -5.5t6 -15.5v-130q0 -22 -22 -22h-230v-118l2 -441q0 -78 29.5 -110t89.5 -32q53 0 105 13q3 1 8 1
q16 0 16 -19v-117q0 -20 -16 -24q-86 -28 -164 -28q-134 0 -221 74.5z" />
    <glyph glyph-name="u" unicode="u" horiz-adv-x="1086" 
d="M245.5 23q-78.5 47 -121 138t-42.5 220v210l-6 418q0 21 21 21h201q22 0 22 -21l-6 -418v-204q0 -112 52 -172t137 -60q63 0 117 35.5t90.5 106.5t46.5 173v121l-3 418q0 21 21 21h204q21 0 21 -21l-8 -460l6 -528q0 -10 -6 -15.5t-16 -5.5h-190q-21 0 -21 22l5 133
q-54 -79 -141.5 -129t-196.5 -50q-108 0 -186.5 47z" />
    <glyph glyph-name="v" unicode="v" horiz-adv-x="1012" 
d="M1 1005q-2 6 -2 9q0 16 20 16h216q18 0 24 -18l255 -821l271 821q6 18 25 18h183q9 0 14 -4t5 -11q0 -2 -2 -10l-352 -992q-6 -17 -24 -17h-257q-18 0 -24 17z" />
    <glyph glyph-name="w" unicode="w" horiz-adv-x="1435" 
d="M10 1006l-1 6q0 18 20 18h198q21 0 24 -20l157 -812l171 813q4 19 23 19h250q20 0 23 -19l173 -799l155 798q5 20 24 20h179q11 0 16 -6.5t3 -17.5l-234 -987q-4 -19 -23 -19h-245q-20 0 -23 19l-191 812l-168 -812q-4 -19 -23 -19h-243q-19 0 -23 19z" />
    <glyph glyph-name="x" unicode="x" horiz-adv-x="961" 
d="M24 0q-8 0 -13 4t-5 10t3 12l315 514l-293 464q-5 8 -5 13q0 13 19 13h223q17 0 26 -15l202 -351l194 351q8 15 25 15h196q19 0 19 -14q0 -4 -4 -12l-285 -468l311 -510q4 -8 4 -12q0 -14 -19 -14h-225q-16 0 -25 15l-214 380l-221 -380q-7 -15 -25 -15h-203z" />
    <glyph glyph-name="y" unicode="y" horiz-adv-x="988" 
d="M745 1012q5 18 24 18h200q20 0 20 -16q0 -3 -2 -9l-459 -1328q-6 -17 -24 -17h-185q-20 0 -20 16q0 3 2 9l108 309l-406 1011q-2 8 -2 10q0 7 5 11t14 4h226q18 0 24 -17l258 -712z" />
    <glyph glyph-name="z" unicode="z" horiz-adv-x="967" 
d="M85 0q-10 0 -15.5 5.5t-5.5 15.5v137q0 15 9 27l511 672h-456q-10 0 -16 6t-6 16v130q0 10 6 15.5t16 5.5h727q10 0 16 -5.5t6 -15.5v-139q0 -13 -9 -27l-516 -670h531q10 0 15.5 -6t5.5 -16v-130q0 -10 -5.5 -15.5t-15.5 -5.5h-798z" />
    <glyph glyph-name="braceleft" unicode="{" horiz-adv-x="545" 
d="M400 1277q-102 0 -102 -102q0 -51 25 -126l68 -223q13 -38 13 -78q0 -54 -30 -95.5t-93 -63.5q63 -23 92.5 -66t29.5 -97q0 -36 -12 -72l-60 -199q-30 -90 -30 -150q0 -54 25.5 -78t73.5 -24h64q10 0 16 -5.5t6 -15.5v-141q0 -10 -6 -15.5t-16 -5.5h-66q-153 0 -230.5 72
t-77.5 196q0 76 31 169l60 197q16 50 16 79q0 67 -75 67h-34q-22 0 -22 22v136q0 10 6 16t16 6h34q75 0 75 67q0 29 -16 79l-68 223q-25 74 -25 140q0 82 38 143t108 94.5t164 33.5h66q10 0 16 -5.5t6 -15.5v-141q0 -10 -6 -15.5t-16 -5.5h-64z" />
    <glyph glyph-name="bar" unicode="|" horiz-adv-x="333" 
d="M98 -280q-10 0 -15.5 5.5t-5.5 15.5v1698q0 10 5.5 15.5t15.5 5.5h137q10 0 16 -5.5t6 -15.5v-1698q0 -10 -6 -15.5t-16 -5.5h-137z" />
    <glyph glyph-name="braceright" unicode="}" horiz-adv-x="545" 
d="M478 522q0 -10 -5.5 -16t-15.5 -6h-35q-75 0 -75 -68q0 -30 16 -78l60 -197q31 -90 31 -170q0 -123 -77.5 -195t-229.5 -72h-67q-10 0 -15.5 5.5t-5.5 15.5v141q0 10 5.5 15.5t15.5 5.5h65q99 0 99 103q0 59 -30 149l-60 199q-12 36 -12 72q0 54 29.5 97t92.5 66
q-63 22 -93.5 63.5t-30.5 95.5q0 38 14 78l68 223q25 75 25 126q0 102 -102 102h-65q-10 0 -15.5 5.5t-5.5 15.5v141q0 10 5.5 15.5t15.5 5.5h67q94 0 163.5 -33.5t107.5 -94.5t38 -143q0 -66 -25 -140l-68 -223q-16 -50 -16 -78q0 -68 75 -68h35q21 0 21 -22v-136z" />
    <glyph glyph-name="asciitilde" unicode="~" horiz-adv-x="1061" 
d="M77 567q-21 0 -21 22q4 191 74.5 307.5t206.5 116.5q61 0 108.5 -25.5t80 -60.5t73.5 -90q40 -53 64.5 -76.5t53.5 -23.5q59 0 86 63t29 175q0 22 22 22h130q21 0 21 -22q-4 -191 -73.5 -300t-204.5 -109q-57 0 -102 24t-77 57t-72 86q-44 57 -72.5 83t-63.5 26
q-56 0 -82.5 -67.5t-28.5 -185.5q0 -22 -22 -22h-130z" />
    <glyph glyph-name="exclamdown" unicode="&#xa1;" horiz-adv-x="431" 
d="M317 1030q10 0 16 -5.5t6 -15.5v-202q0 -10 -6 -16t-16 -6h-203q-10 0 -16 6t-6 16v202q0 10 6 15.5t16 5.5h203zM314 634q10 0 15.5 -5.5t5.5 -15.5v-962q0 -10 -5.5 -15.5t-15.5 -5.5h-197q-21 0 -21 21v962q0 10 5.5 15.5t15.5 5.5h197z" />
    <glyph glyph-name="cent" unicode="&#xa2;" horiz-adv-x="1085" 
d="M1023 591q23 0 21 -20q-14 -144 -103.5 -246t-233.5 -135v-169q0 -10 -5.5 -15.5t-15.5 -5.5h-200q-10 0 -16 5.5t-6 15.5v165q-123 22 -210.5 92.5t-133 181t-45.5 252.5t45.5 253.5t132.5 183t211 94.5v141q0 10 6 15.5t16 5.5h200q10 0 15.5 -5.5t5.5 -15.5v-142
q139 -30 223 -122t100 -229v-4q0 -8 -5.5 -13t-15.5 -5h-180q-20 0 -23 20q-18 98 -78 149.5t-145 51.5q-131 -1 -196 -96.5t-65 -280.5q0 -189 65 -282t198 -93q96 0 158 60.5t74 171.5q2 21 22 21h184z" />
    <glyph glyph-name="sterling" unicode="&#xa3;" horiz-adv-x="1190" 
d="M1129 463q22 0 22 -26q-13 -469 -454 -456l-636 18q-10 0 -16 6t-6 16v133q0 19 18 25l40 12q152 49 152 216q0 47 -10.5 103t-30.5 127h-178q-10 0 -16 5.5t-6 15.5v125q0 10 6 16t16 6h135q-33 130 -33 209q0 120 57.5 213.5t165 146.5t252.5 53q207 0 335.5 -107.5
t155.5 -320.5v-4q0 -19 -20 -19h-196q-20 0 -23 21q-15 113 -80.5 177t-174.5 64q-71 0 -121 -30.5t-75 -81.5t-25 -112q0 -81 33 -209h289q10 0 15.5 -6t5.5 -16v-125q0 -21 -21 -21h-250q14 -62 22 -110.5t8 -93.5q0 -78 -44.5 -147.5t-131.5 -102.5l369 -12
q88 -3 137.5 27.5t69 89.5t21.5 153q0 10 6 16t16 6h201z" />
    <glyph glyph-name="currency" unicode="&#xa4;" horiz-adv-x="1105" 
d="M1033 302q7 -9 7 -15q0 -7 -8 -15l-84 -82q-7 -7 -15 -7t-15 7l-164 168q-91 -58 -201 -58t-201 58l-166 -168q-6 -7 -14 -7t-15 7l-84 82q-8 8 -8 16q0 7 7 14l162 165q-32 47 -49.5 103t-17.5 116t17.5 116t49.5 103l-157 162q-7 6 -7 13q0 8 8 16l83 83q8 8 15 8
t15 -8l161 -165q91 58 201 58t202 -59l164 166q8 8 15 8q8 0 14 -8l84 -83q8 -8 8 -15t-7 -14l-160 -164q32 -46 49 -101.5t17 -115.5q0 -122 -67 -219zM661 470q50 32 79.5 88.5t29.5 127.5q0 73 -29.5 129.5t-79.5 87.5t-108 31q-61 0 -110.5 -31t-78 -87t-28.5 -130
q0 -71 29 -128t78.5 -88.5t109.5 -31.5q58 0 108 32z" />
    <glyph glyph-name="yen" unicode="&#xa5;" horiz-adv-x="1195" 
d="M1162 1400q18 0 18 -14q0 -4 -4 -12l-413 -705h273q10 0 15.5 -5.5t5.5 -15.5v-124q0 -10 -5.5 -15.5t-15.5 -5.5h-322l2 -131h320q10 0 15.5 -5.5t5.5 -15.5v-124q0 -10 -5.5 -16t-15.5 -6h-317l4 -184q0 -21 -21 -21h-213q-21 0 -21 21l4 184h-313q-10 0 -15.5 6
t-5.5 16v124q0 10 5.5 15.5t15.5 5.5h316l3 131h-319q-21 0 -21 21v124q0 10 5.5 15.5t15.5 5.5h271l-411 705q-4 7 -4 12q0 14 18 14h232q17 0 24 -16l318 -622l320 622q7 16 25 16h210z" />
    <glyph glyph-name="brokenbar" unicode="&#xa6;" horiz-adv-x="333" 
d="M98 720q-10 0 -15.5 5.5t-5.5 15.5v698q0 10 5.5 15.5t15.5 5.5h137q10 0 16 -5.5t6 -15.5v-698q0 -10 -6 -15.5t-16 -5.5h-137zM98 -280q-10 0 -15.5 5.5t-5.5 15.5v698q0 10 5.5 15.5t15.5 5.5h137q10 0 16 -5.5t6 -15.5v-698q0 -10 -6 -15.5t-16 -5.5h-137z" />
    <glyph glyph-name="section" unicode="&#xa7;" horiz-adv-x="1216" 
d="M1083 135.5q64 -71.5 64 -189.5q0 -112 -67.5 -194t-185.5 -125t-265 -43q-159 0 -283 40.5t-196.5 121.5t-79.5 197v2q0 20 21 20h191q19 0 21 -21q8 -106 90 -157t236 -51q136 0 212 42t76 119q0 60 -45 98.5t-112.5 60.5t-185.5 50q-153 34 -249 69t-164 106t-68 190
q0 108 61.5 183t175.5 112q-112 43 -174.5 108.5t-62.5 171.5q0 117 60.5 198.5t172.5 123.5t265 42q226 0 365 -85t154 -249v-2q0 -20 -21 -20h-182q-20 0 -23 20q-13 92 -88 139.5t-208 47.5q-126 0 -196 -41.5t-70 -126.5q0 -53 40.5 -87.5t103 -55t168.5 -44.5
q167 -35 266.5 -67.5t173 -103.5t73.5 -193q0 -101 -64.5 -175.5t-177.5 -114.5q114 -45 178 -116.5zM364.5 422.5q42.5 -35.5 106 -55.5t176.5 -46l21 -5q120 18 184.5 63t64.5 114q0 59 -46 97t-113 59.5t-190 50.5q-125 -20 -185.5 -64t-60.5 -121q0 -57 42.5 -92.5z" />
    <glyph glyph-name="dieresis" unicode="&#xa8;" horiz-adv-x="771" 
d="M121 1143q-10 0 -15.5 5.5t-5.5 15.5v188q0 10 5.5 15.5t15.5 5.5h161q10 0 15.5 -5.5t5.5 -15.5v-188q0 -10 -5.5 -15.5t-15.5 -5.5h-161zM490 1143q-10 0 -16 5.5t-6 15.5v188q0 10 6 15.5t16 5.5h160q21 0 21 -21v-188q0 -10 -5.5 -15.5t-15.5 -5.5h-160z" />
    <glyph glyph-name="copyright" unicode="&#xa9;" horiz-adv-x="1490" 
d="M383 63.5q-156 90.5 -241 255t-85 379.5q0 221 84.5 386t240 254t362.5 89t362.5 -88.5t241 -253.5t85.5 -388q0 -215 -85.5 -379t-242 -254.5t-361.5 -90.5t-361 90.5zM1053.5 147q128.5 75 196 215.5t67.5 334.5t-67 336t-196 218.5t-310 76.5q-182 0 -310.5 -75.5
t-195 -217.5t-66.5 -338q0 -193 68 -333.5t197 -216t308 -75.5q180 0 308.5 75zM530.5 297.5q-96.5 56.5 -148 160.5t-51.5 243q0 140 52 244.5t148.5 161.5t225.5 57q147 0 246.5 -70.5t135.5 -229.5l1 -6q0 -8 -5.5 -13t-15.5 -5h-113q-18 0 -23 19q-20 90 -79 135.5
t-149 45.5q-124 0 -192.5 -90t-68.5 -248q0 -164 68 -251t192 -87q98 0 157.5 51.5t76.5 149.5q5 20 24 20h115q9 0 14.5 -5t5.5 -14q0 -5 -1 -8q-33 -162 -132.5 -239.5t-255.5 -77.5q-131 0 -227.5 56.5z" />
    <glyph glyph-name="ordfeminine" unicode="&#xaa;" horiz-adv-x="888" 
d="M817 1033l4 -363q0 -22 -22 -22h-166q-22 0 -22 23l2 61q-42 -49 -101.5 -75t-133.5 -26q-103 0 -176.5 52t-111.5 142.5t-38 204.5q0 108 40 197t115 141t176 52q146 0 229 -92l-2 51q0 23 21 23h168q22 0 22 -22zM573 830.5q47 67.5 47 202.5q0 122 -46.5 188
t-130.5 66q-87 0 -131.5 -68t-44.5 -190q0 -125 44.5 -195.5t127.5 -70.5q87 0 134 67.5z" />
    <glyph glyph-name="guillemotleft" unicode="&#xab;" horiz-adv-x="982" 
d="M343 168q-15 0 -25 12l-270 347q-6 8 -6 15t6 14l270 348q9 13 26 13h151q19 0 19 -13q0 -5 -6 -13l-271 -349l271 -348q6 -7 6 -13q0 -13 -19 -13h-152zM753 168q-15 0 -25 12l-270 347q-6 8 -6 15t6 14l270 348q9 13 26 13h151q19 0 19 -13q0 -5 -6 -13l-271 -349
l271 -348q6 -7 6 -13q0 -13 -19 -13h-152z" />
    <glyph glyph-name="logicalnot" unicode="&#xac;" horiz-adv-x="1085" 
d="M104 598q-22 0 -22 22v138q0 10 6 16t16 6h877q22 0 22 -22v-546q0 -10 -6 -16t-16 -6h-144q-22 0 -22 22v386h-711z" />
    <glyph glyph-name="registered" unicode="&#xae;" horiz-adv-x="760" 
d="M207 778q-75 43 -116 121t-41 179q0 105 40.5 183.5t115.5 120.5t175 42q99 0 173 -42t115 -120t41 -184q0 -101 -40.5 -179t-115 -121t-173.5 -43t-174 43zM572.5 872.5q68.5 74.5 68.5 205.5q0 132 -68.5 208t-191.5 76q-126 0 -194 -75t-68 -209q0 -131 69 -205.5
t193 -74.5q123 0 191.5 74.5zM243 885q-22 0 -22 22v349q0 10 6 15.5t16 5.5h133q78 0 121.5 -30.5t43.5 -88.5q0 -43 -24 -71.5t-68 -40.5l87 -135q5 -8 5 -13q0 -6 -5 -9.5t-13 -3.5h-54q-18 0 -26 14l-86 137h-50l1 -129q0 -10 -5.5 -16t-15.5 -6h-44zM308 1215l-1 -117
h73q35 0 55 14t20 44q0 59 -76 59h-71z" />
    <glyph glyph-name="macron" unicode="&#xaf;" horiz-adv-x="819" 
d="M121 1175q-10 0 -15.5 6t-5.5 16v121q0 10 5.5 15.5t15.5 5.5h576q10 0 16 -5.5t6 -15.5v-121q0 -10 -6 -16t-16 -6h-576z" />
    <glyph glyph-name="macron" unicode="&#x2c9;" horiz-adv-x="819" 
d="M121 1175q-10 0 -15.5 6t-5.5 16v121q0 10 5.5 15.5t15.5 5.5h576q10 0 16 -5.5t6 -15.5v-121q0 -10 -6 -16t-16 -6h-576z" />
    <glyph glyph-name="degree" unicode="&#xb0;" horiz-adv-x="720" 
d="M197 853q-73 40 -114.5 109.5t-41.5 154.5q0 86 41.5 155.5t114.5 109t163 39.5t163 -39.5t114.5 -109t41.5 -155.5q0 -85 -41.5 -154.5t-114.5 -109.5t-163 -40t-163 40zM469 995q43 46 43 122q0 78 -43 123t-109 45q-69 0 -110.5 -44.5t-41.5 -123.5q0 -77 42 -122.5
t110 -45.5q66 0 109 46z" />
    <glyph glyph-name="plusminus" unicode="&#xb1;" horiz-adv-x="1062" 
d="M969 840q22 0 22 -22v-138q0 -22 -22 -22h-343v-386q0 -22 -22 -22h-144q-22 0 -22 22v386h-345q-22 0 -22 22v138q0 22 22 22h345v388q0 22 22 22h144q22 0 22 -22v-388h343zM93 0q-22 0 -22 22v138q0 22 22 22h876q22 0 22 -22v-138q0 -22 -22 -22h-876z" />
    <glyph glyph-name="two.sups" unicode="&#xb2;" horiz-adv-x="636" 
d="M76 648q-10 0 -16 5.5t-6 15.5v84q0 81 33 135.5t78.5 86t118.5 69.5q50 25 78 43t46.5 42t18.5 55q2 53 -26 83t-80 30q-49 -2 -78.5 -35t-33.5 -95q-1 -21 -22 -21h-107q-10 0 -16 5.5t-5 15.5q3 118 69.5 182t192.5 65q124 0 188.5 -59t68.5 -167q0 -75 -33 -127
t-79 -82.5t-119 -66.5q-49 -24 -76.5 -40.5t-45.5 -38.5t-18 -50v-13h349q10 0 16 -6t6 -16v-79q0 -10 -6 -15.5t-16 -5.5h-480z" />
    <glyph glyph-name="three.sups" unicode="&#xb3;" horiz-adv-x="644" 
d="M128.5 694.5q-66.5 56.5 -78.5 167.5v4q0 18 20 18h116q19 0 22 -21q5 -56 32 -86t77 -30q52 0 83 36t31 99q0 60 -30 86.5t-95 26.5h-42q-10 0 -15.5 6t-5.5 16v61q0 10 5.5 15.5t15.5 5.5h42q56 0 84.5 28t28.5 74q0 44 -27 72.5t-68 28.5q-93 0 -105 -101
q-1 -21 -22 -21h-115q-11 0 -16 6t-4 16q11 102 81 155.5t189 53.5q73 0 128.5 -24t86.5 -68t32 -101q0 -120 -124 -162q69 -18 106 -63.5t37 -113.5q0 -74 -38.5 -129t-103.5 -83.5t-142 -28.5q-119 0 -185.5 56.5z" />
    <glyph glyph-name="acute" unicode="&#xb4;" horiz-adv-x="748" 
d="M161 1135q-3 -1 -8 -1q-13 0 -19 14l-27 78q-2 6 -2 9q0 13 14 19l449 200q6 3 10 3q11 0 18 -15l45 -139q2 -6 2 -9q0 -14 -16 -19z" />
    <glyph glyph-name="uni03BC" unicode="&#xb5;" horiz-adv-x="1092" 
d="M321 387q0 -112 52 -172t137 -60q62 0 116.5 35.5t91 106.5t46.5 173v121l-3 418q0 21 21 21h204q21 0 21 -21l-8 -460l6 -527q0 -22 -22 -22h-190q-11 0 -16.5 6t-4.5 16l5 133q-54 -79 -141.5 -129t-196.5 -50q-71 0 -113 39l3 -334q0 -21 -22 -21h-201q-21 0 -21 21
l3 910l-5 418q0 21 21 21h201q22 0 22 -21l-6 -418v-204z" />
    <glyph glyph-name="uni03BC" unicode="&#x3bc;" horiz-adv-x="1092" 
d="M321 387q0 -112 52 -172t137 -60q62 0 116.5 35.5t91 106.5t46.5 173v121l-3 418q0 21 21 21h204q21 0 21 -21l-8 -460l6 -527q0 -22 -22 -22h-190q-11 0 -16.5 6t-4.5 16l5 133q-54 -79 -141.5 -129t-196.5 -50q-71 0 -113 39l3 -334q0 -21 -22 -21h-201q-21 0 -21 21
l3 910l-5 418q0 21 21 21h201q22 0 22 -21l-6 -418v-204z" />
    <glyph glyph-name="paragraph" unicode="&#xb6;" horiz-adv-x="1355" 
d="M1251 504l13 -838q0 -21 -21 -21h-213q-21 0 -21 21l7 615l3 232h-190l2 -233l8 -614q0 -21 -21 -21h-213q-21 0 -21 21l7 611l3 236h-18q-159 0 -274.5 52t-178 153t-62.5 245q0 214 135 325.5t380 111.5h667q21 0 21 -21z" />
    <glyph glyph-name="periodcentered" unicode="&#xb7;" horiz-adv-x="382" 
d="M85 480q-21 0 -21 21v201q0 10 5.5 15.5t15.5 5.5h214q10 0 15.5 -5.5t5.5 -15.5v-201q0 -10 -5.5 -15.5t-15.5 -5.5h-214z" />
    <glyph glyph-name="periodcentered" unicode="&#x2219;" horiz-adv-x="382" 
d="M85 480q-21 0 -21 21v201q0 10 5.5 15.5t15.5 5.5h214q10 0 15.5 -5.5t5.5 -15.5v-201q0 -10 -5.5 -15.5t-15.5 -5.5h-214z" />
    <glyph glyph-name="cedilla" unicode="&#xb8;" horiz-adv-x="506" 
d="M329 -331q-4 -21 -25 -16l-181 34q-7 1 -11.5 6t-4.5 11q0 7 2 10l124 304q8 18 27 15l124 -15q22 -5 17 -26z" />
    <glyph glyph-name="one.sups" unicode="&#xb9;" horiz-adv-x="485" 
d="M236 648q-20 0 -20 21l7 365l-5 185q-50 -48 -137 -78l-9 -2q-16 0 -16 19v82q0 17 17 25q97 36 145 119q9 16 25 16h126q10 0 15.5 -5.5t4.5 -15.5l-10 -398l10 -311v-2q0 -20 -21 -20h-132z" />
    <glyph glyph-name="ordmasculine" unicode="&#xba;" horiz-adv-x="880" 
d="M230.5 674.5q-87.5 48.5 -133 138t-45.5 210.5t45.5 211.5t133.5 140t210 49.5t209 -49t132.5 -138.5t45.5 -209.5q0 -121 -45.5 -211.5t-132.5 -140t-209 -49.5q-123 0 -210.5 48.5zM569 824q42 66 42 199q0 132 -42.5 200.5t-128.5 68.5q-173 -3 -173 -271
q0 -130 44 -196.5t130 -66.5t128 66z" />
    <glyph glyph-name="guillemotright" unicode="&#xbb;" horiz-adv-x="982" 
d="M77 168q-18 0 -18 12q0 7 6 14l270 348l-271 349q-6 8 -6 13q0 13 19 13h151q17 0 27 -13l269 -348q6 -7 6 -14t-6 -15l-269 -347q-11 -12 -26 -12h-152zM487 168q-18 0 -18 12q0 7 6 14l270 348l-271 349q-6 8 -6 13q0 13 19 13h151q17 0 27 -13l269 -348q6 -7 6 -14
t-6 -15l-269 -347q-11 -12 -26 -12h-152z" />
    <glyph glyph-name="onequarter" unicode="&#xbc;" horiz-adv-x="1383" 
d="M236 648q-20 0 -20 21l7 365l-5 185q-50 -48 -137 -78l-9 -2q-16 0 -16 19v82q0 17 17 25q97 36 145 119q9 16 25 16h126q10 0 15.5 -5.5t4.5 -15.5l-10 -398l10 -311v-2q0 -20 -21 -20h-132zM132 0q-8 0 -13 3.5t-5 9.5q0 5 5 13l908 1360q8 14 26 14h124q9 0 13.5 -4
t4.5 -10q0 -7 -4 -12l-909 -1360q-8 -14 -26 -14h-124zM1318 292q10 0 15.5 -6t5.5 -16v-78q0 -21 -21 -21h-60v-151q0 -10 -5.5 -16t-15.5 -6h-122q-10 0 -15.5 6t-5.5 16v151h-315q-21 0 -21 21v103q0 14 7 27l266 416q8 14 26 14h180q10 0 15.5 -5.5t5.5 -15.5v-439h60z
M1094 292v189l5 151l-215 -340h210z" />
    <glyph glyph-name="onehalf" unicode="&#xbd;" horiz-adv-x="1437" 
d="M236 648q-20 0 -20 21l7 365l-5 185q-50 -48 -137 -78l-9 -2q-16 0 -16 19v82q0 17 17 25q97 36 145 119q9 16 25 16h126q10 0 15.5 -5.5t4.5 -15.5l-10 -398l10 -311v-2q0 -20 -21 -20h-132zM136 0q-8 0 -13 3.5t-5 9.5q0 5 5 13l908 1360q8 14 26 14h124q9 0 13.5 -4
t4.5 -10q0 -7 -4 -12l-909 -1360q-8 -14 -26 -14h-124zM877 0q-10 0 -16 5.5t-6 15.5v84q0 81 33 135.5t78.5 86t118.5 69.5q50 25 78 43t46.5 42t18.5 55q2 53 -26 83t-80 30q-49 -2 -78.5 -35t-33.5 -95q-1 -21 -22 -21h-107q-10 0 -16 5.5t-5 15.5q3 118 69.5 182
t192.5 65q124 0 188.5 -59t68.5 -167q0 -75 -33 -127t-79 -82.5t-119 -66.5q-49 -24 -76.5 -40.5t-45.5 -38.5t-18 -50v-13h349q10 0 16 -6t6 -16v-79q0 -10 -6 -15.5t-16 -5.5h-480z" />
    <glyph glyph-name="threequarters" unicode="&#xbe;" horiz-adv-x="1511" 
d="M128.5 694.5q-66.5 56.5 -78.5 167.5v4q0 18 20 18h116q19 0 22 -21q5 -56 32 -86t77 -30q52 0 83 36t31 99q0 60 -30 86.5t-95 26.5h-42q-10 0 -15.5 6t-5.5 16v61q0 10 5.5 15.5t15.5 5.5h42q56 0 84.5 28t28.5 74q0 44 -27 72.5t-68 28.5q-93 0 -105 -101
q-1 -21 -22 -21h-115q-11 0 -16 6t-4 16q11 102 81 155.5t189 53.5q73 0 128.5 -24t86.5 -68t32 -101q0 -120 -124 -162q69 -18 106 -63.5t37 -113.5q0 -74 -38.5 -129t-103.5 -83.5t-142 -28.5q-119 0 -185.5 56.5zM264 0q-8 0 -13 3.5t-5 9.5q0 5 5 13l908 1360
q8 14 26 14h124q9 0 13.5 -4t4.5 -10q0 -7 -4 -12l-909 -1360q-8 -14 -26 -14h-124zM1446 292q10 0 15.5 -6t5.5 -16v-78q0 -21 -21 -21h-60v-151q0 -10 -5.5 -16t-15.5 -6h-122q-10 0 -15.5 6t-5.5 16v151h-315q-21 0 -21 21v103q0 14 7 27l266 416q8 14 26 14h180
q10 0 15.5 -5.5t5.5 -15.5v-439h60zM1222 292v189l5 151l-215 -340h210z" />
    <glyph glyph-name="questiondown" unicode="&#xbf;" horiz-adv-x="1005" 
d="M614 1030q10 0 15.5 -5.5t5.5 -15.5v-202q0 -10 -5.5 -16t-15.5 -6h-208q-10 0 -16 6t-6 16v202q0 10 6 15.5t16 5.5h208zM608 634q21 0 21 -22q-3 -102 -34 -177t-72 -124t-107 -111q-46 -43 -72 -71.5t-43 -64t-17 -77.5q0 -100 63 -154.5t168 -54.5q116 0 172.5 62
t61.5 187q2 21 22 21h187q11 0 16.5 -6t4.5 -16q-13 -202 -136 -308t-345 -106q-130 0 -233 44.5t-161.5 131t-58.5 205.5q0 73 22.5 127.5t55.5 92.5t90 90q55 51 88.5 89.5t58 93.5t27.5 127q2 21 22 21h199z" />
    <glyph glyph-name="Agrave" unicode="&#xc0;" horiz-adv-x="1304" 
d="M1297 25q2 -6 2 -9q0 -16 -19 -16h-209q-19 0 -25 17l-124 373h-548l-121 -372q-4 -18 -24 -18h-205q-19 0 -19 16q0 3 2 9l480 1358q6 17 24 17h290q18 0 24 -17zM859 585l-215 648l-210 -648h425zM842 1518q-5 -14 -19 -14q-5 0 -8 1l-466 140q-15 5 -15 19q0 6 1 9
l46 140q5 14 16 14q5 0 11 -3l450 -200q14 -6 14 -19q0 -3 -2 -9z" />
    <glyph glyph-name="Aacute" unicode="&#xc1;" horiz-adv-x="1304" 
d="M1297 25q2 -6 2 -9q0 -16 -19 -16h-209q-19 0 -25 17l-124 373h-548l-121 -372q-4 -18 -24 -18h-205q-19 0 -19 16q0 3 2 9l480 1358q6 17 24 17h290q18 0 24 -17zM859 585l-215 648l-210 -648h425zM482 1505q-3 -1 -8 -1q-13 0 -19 14l-27 78q-2 6 -2 9q0 13 14 19
l449 200q6 3 10 3q11 0 18 -15l45 -139q2 -6 2 -9q0 -14 -16 -19z" />
    <glyph glyph-name="Acircumflex" unicode="&#xc2;" horiz-adv-x="1304" 
d="M1297 25q2 -6 2 -9q0 -16 -19 -16h-209q-19 0 -25 17l-124 373h-548l-121 -372q-4 -18 -24 -18h-205q-19 0 -19 16q0 3 2 9l480 1358q6 17 24 17h290q18 0 24 -17zM859 585l-215 648l-210 -648h425zM313 1599q-2 4 -2 11q0 12 10 19l272 179q10 8 28 8h72q17 0 27 -8
l272 -179q11 -7 11 -19q0 -7 -2 -11l-34 -79q-4 -13 -18 -13q-6 0 -10 2l-284 134l-281 -133q-6 -3 -11 -3q-11 0 -17 13z" />
    <glyph glyph-name="Atilde" unicode="&#xc3;" horiz-adv-x="1304" 
d="M1297 25q2 -6 2 -9q0 -16 -19 -16h-209q-19 0 -25 17l-124 373h-548l-121 -372q-4 -18 -24 -18h-205q-19 0 -19 16q0 3 2 9l480 1358q6 17 24 17h290q18 0 24 -17zM859 585l-215 648l-210 -648h425zM695.5 1551q-32.5 19 -69.5 54q-27 25 -43.5 36t-36.5 11
q-57 0 -62 -93q0 -22 -22 -22h-84q-10 0 -15.5 6t-4.5 16q4 105 50.5 168.5t134.5 63.5q45 0 77 -19.5t70 -55.5q26 -24 41 -34.5t32 -10.5q61 0 66 93q2 22 22 22h84q11 0 16.5 -7t4.5 -20q-5 -107 -50.5 -167t-131.5 -60q-46 0 -78.5 19z" />
    <glyph glyph-name="Adieresis" unicode="&#xc4;" horiz-adv-x="1304" 
d="M1297 25q2 -6 2 -9q0 -16 -19 -16h-209q-19 0 -25 17l-124 373h-548l-121 -372q-4 -18 -24 -18h-205q-19 0 -19 16q0 3 2 9l480 1358q6 17 24 17h290q18 0 24 -17zM859 585l-215 648l-210 -648h425zM392 1513q-10 0 -15.5 5.5t-5.5 15.5v188q0 10 5.5 15.5t15.5 5.5h161
q10 0 15.5 -5.5t5.5 -15.5v-188q0 -10 -5.5 -15.5t-15.5 -5.5h-161zM761 1513q-10 0 -16 5.5t-6 15.5v188q0 10 6 15.5t16 5.5h160q21 0 21 -21v-188q0 -10 -5.5 -15.5t-15.5 -5.5h-160z" />
    <glyph glyph-name="Aring" unicode="&#xc5;" horiz-adv-x="1304" 
d="M1297 25q2 -6 2 -9q0 -16 -19 -16h-209q-19 0 -25 17l-124 373h-548l-121 -372q-4 -18 -24 -18h-205q-19 0 -19 16q0 3 2 9l480 1358q6 17 24 17h290q18 0 24 -17zM859 585l-215 648l-210 -648h425zM535.5 1544.5q-53.5 28.5 -84.5 79t-31 113.5q0 62 31 112.5t84.5 79.5
t120.5 29t121 -29t85 -79.5t31 -112.5q0 -63 -31 -113.5t-85 -79t-121 -28.5t-120.5 28.5zM734 1641q30 35 30 96q0 62 -30 96.5t-78 34.5t-77.5 -34.5t-29.5 -96.5q0 -61 29.5 -96t77.5 -35t78 35z" />
    <glyph glyph-name="AE" unicode="&#xc6;" horiz-adv-x="1790" 
d="M1709 183q10 0 16 -5.5t6 -15.5v-141q0 -10 -6 -15.5t-16 -5.5h-804q-21 0 -21 21l6 369h-456l-181 -374q-7 -16 -25 -16h-203q-9 0 -14 4t-5 11q0 5 3 11l679 1358q7 16 25 16h980q10 0 16 -5.5t6 -15.5v-141q0 -10 -6 -15.5t-16 -5.5h-556l-11 -382h515q10 0 15.5 -6
t5.5 -16v-140q0 -10 -5.5 -15.5t-15.5 -5.5h-515l11 -469h572zM887 1232h-50l-311 -647h368l2 128z" />
    <glyph glyph-name="Ccedilla" unicode="&#xc7;" horiz-adv-x="1388" 
d="M1323 515q11 0 16 -7t3 -20q-46 -247 -187 -372.5t-365 -140.5l-68 -306q-4 -21 -25 -16l-181 34q-7 1 -11.5 6t-4.5 11q0 7 2 10l109 267q-173 24 -298 118.5t-191.5 248t-66.5 350.5q0 220 82.5 385t234.5 254.5t356 89.5q234 0 392.5 -114.5t211.5 -371.5l1 -6
q0 -8 -5.5 -13t-14.5 -5h-198q-19 0 -23 19q-31 150 -125.5 226t-241.5 76q-133 0 -227 -65t-142.5 -186t-48.5 -288q0 -173 49 -293.5t142.5 -182t224.5 -61.5q159 0 254.5 85t120.5 248q5 20 24 20h201z" />
    <glyph glyph-name="Egrave" unicode="&#xc8;" horiz-adv-x="1103" 
d="M118 0q-21 0 -21 21l11 692l-11 666q0 21 21 21h889q10 0 15.5 -5.5t5.5 -15.5v-141q0 -10 -5.5 -15.5t-15.5 -5.5h-658l-10 -382h615q21 0 21 -22v-140q0 -10 -5.5 -15.5t-15.5 -5.5h-615l10 -469h674q10 0 15.5 -5.5t5.5 -15.5v-141q0 -10 -5.5 -15.5t-15.5 -5.5h-905z
M766 1518q-5 -14 -19 -14q-5 0 -8 1l-466 140q-15 5 -15 19q0 6 1 9l46 140q5 14 16 14q5 0 11 -3l450 -200q14 -6 14 -19q0 -3 -2 -9z" />
    <glyph glyph-name="Eacute" unicode="&#xc9;" horiz-adv-x="1103" 
d="M118 0q-21 0 -21 21l11 692l-11 666q0 21 21 21h889q10 0 15.5 -5.5t5.5 -15.5v-141q0 -10 -5.5 -15.5t-15.5 -5.5h-658l-10 -382h615q21 0 21 -22v-140q0 -10 -5.5 -15.5t-15.5 -5.5h-615l10 -469h674q10 0 15.5 -5.5t5.5 -15.5v-141q0 -10 -5.5 -15.5t-15.5 -5.5h-905z
M406 1505q-3 -1 -8 -1q-13 0 -19 14l-27 78q-2 6 -2 9q0 13 14 19l449 200q6 3 10 3q11 0 18 -15l45 -139q2 -6 2 -9q0 -14 -16 -19z" />
    <glyph glyph-name="Ecircumflex" unicode="&#xca;" horiz-adv-x="1103" 
d="M118 0q-21 0 -21 21l11 692l-11 666q0 21 21 21h889q10 0 15.5 -5.5t5.5 -15.5v-141q0 -10 -5.5 -15.5t-15.5 -5.5h-658l-10 -382h615q21 0 21 -22v-140q0 -10 -5.5 -15.5t-15.5 -5.5h-615l10 -469h674q10 0 15.5 -5.5t5.5 -15.5v-141q0 -10 -5.5 -15.5t-15.5 -5.5h-905z
M237 1599q-2 4 -2 11q0 12 10 19l272 179q10 8 28 8h72q17 0 27 -8l272 -179q11 -7 11 -19q0 -7 -2 -11l-34 -79q-4 -13 -18 -13q-6 0 -10 2l-284 134l-281 -133q-6 -3 -11 -3q-11 0 -17 13z" />
    <glyph glyph-name="Edieresis" unicode="&#xcb;" horiz-adv-x="1103" 
d="M118 0q-21 0 -21 21l11 692l-11 666q0 21 21 21h889q10 0 15.5 -5.5t5.5 -15.5v-141q0 -10 -5.5 -15.5t-15.5 -5.5h-658l-10 -382h615q21 0 21 -22v-140q0 -10 -5.5 -15.5t-15.5 -5.5h-615l10 -469h674q10 0 15.5 -5.5t5.5 -15.5v-141q0 -10 -5.5 -15.5t-15.5 -5.5h-905z
M316 1513q-10 0 -15.5 5.5t-5.5 15.5v188q0 10 5.5 15.5t15.5 5.5h161q10 0 15.5 -5.5t5.5 -15.5v-188q0 -10 -5.5 -15.5t-15.5 -5.5h-161zM685 1513q-10 0 -16 5.5t-6 15.5v188q0 10 6 15.5t16 5.5h160q21 0 21 -21v-188q0 -10 -5.5 -15.5t-15.5 -5.5h-160z" />
    <glyph glyph-name="Igrave" unicode="&#xcc;" horiz-adv-x="464" 
d="M128 0q-21 0 -21 21l12 686l-12 672q0 21 21 21h209q21 0 21 -21l-12 -672l12 -686q0 -21 -21 -21h-209zM418 1518q-5 -14 -19 -14q-5 0 -8 1l-466 140q-15 5 -15 19q0 6 1 9l46 140q5 14 16 14q5 0 11 -3l450 -200q14 -6 14 -19q0 -3 -2 -9z" />
    <glyph glyph-name="Iacute" unicode="&#xcd;" horiz-adv-x="464" 
d="M128 0q-21 0 -21 21l12 686l-12 672q0 21 21 21h209q21 0 21 -21l-12 -672l12 -686q0 -21 -21 -21h-209zM58 1505q-3 -1 -8 -1q-13 0 -19 14l-27 78q-2 6 -2 9q0 13 14 19l449 200q6 3 10 3q11 0 18 -15l45 -139q2 -6 2 -9q0 -14 -16 -19z" />
    <glyph glyph-name="Icircumflex" unicode="&#xce;" horiz-adv-x="464" 
d="M128 0q-21 0 -21 21l12 686l-12 672q0 21 21 21h209q21 0 21 -21l-12 -672l12 -686q0 -21 -21 -21h-209zM-111 1599q-2 4 -2 11q0 12 10 19l272 179q10 8 28 8h72q17 0 27 -8l272 -179q11 -7 11 -19q0 -7 -2 -11l-34 -79q-4 -13 -18 -13q-6 0 -10 2l-284 134l-281 -133
q-6 -3 -11 -3q-11 0 -17 13z" />
    <glyph glyph-name="Idieresis" unicode="&#xcf;" horiz-adv-x="464" 
d="M128 0q-21 0 -21 21l12 686l-12 672q0 21 21 21h209q21 0 21 -21l-12 -672l12 -686q0 -21 -21 -21h-209zM-32 1513q-10 0 -15.5 5.5t-5.5 15.5v188q0 10 5.5 15.5t15.5 5.5h161q10 0 15.5 -5.5t5.5 -15.5v-188q0 -10 -5.5 -15.5t-15.5 -5.5h-161zM337 1513q-10 0 -16 5.5
t-6 15.5v188q0 10 6 15.5t16 5.5h160q21 0 21 -21v-188q0 -10 -5.5 -15.5t-15.5 -5.5h-160z" />
    <glyph glyph-name="Eth" unicode="&#xd0;" horiz-adv-x="1388" 
d="M608 1400q206 0 370 -79t259.5 -237.5t95.5 -387.5q0 -234 -97.5 -390t-260.5 -231t-363 -75h-471q-21 0 -21 21l11 637h-123q-10 0 -16 5.5t-6 15.5v140q0 10 6 16t16 6h121l-9 538q0 21 21 21h467zM628 183q124 0 226 54.5t164 170t62 289.5q0 171 -60 288t-164 174.5
t-236 57.5h-246l-8 -376h351q22 0 22 -22v-140q0 -10 -6 -15.5t-16 -5.5h-352l9 -475h254z" />
    <glyph glyph-name="Ntilde" unicode="&#xd1;" horiz-adv-x="1368" 
d="M118 0q-21 0 -21 21l10 685l-10 673q0 21 21 21h256q17 0 26 -15l648 -1065l-9 471l-1 588q0 10 6 15.5t16 5.5h190q21 0 21 -21l-10 -673l10 -685q0 -21 -21 -21h-267q-17 0 -26 15l-638 1054l10 -499l1 -549q0 -10 -6 -15.5t-16 -5.5h-190zM731.5 1551
q-32.5 19 -69.5 54q-27 25 -43.5 36t-36.5 11q-57 0 -62 -93q0 -22 -22 -22h-84q-10 0 -15.5 6t-4.5 16q4 105 50.5 168.5t134.5 63.5q45 0 77 -19.5t70 -55.5q26 -24 41 -34.5t32 -10.5q61 0 66 93q2 22 22 22h84q11 0 16.5 -7t4.5 -20q-5 -107 -50.5 -167t-131.5 -60
q-46 0 -78.5 19z" />
    <glyph glyph-name="Ograve" unicode="&#xd2;" horiz-adv-x="1485" 
d="M380.5 63.5q-155.5 90.5 -240.5 255t-85 379.5q0 221 84.5 386t240 254t362.5 89t362.5 -88.5t241 -253.5t85.5 -388q0 -215 -85.5 -379t-242 -254.5t-361.5 -90.5q-206 0 -361.5 90.5zM977 226q98 64 149.5 184.5t51.5 286.5q0 167 -51.5 288.5t-149.5 187t-235 65.5
q-138 0 -235.5 -64.5t-148.5 -186t-51 -290.5q0 -165 52 -285.5t150 -185t234 -64.5t234 64zM929 1518q-5 -14 -19 -14q-5 0 -8 1l-466 140q-15 5 -15 19q0 6 1 9l46 140q5 14 16 14q5 0 11 -3l450 -200q14 -6 14 -19q0 -3 -2 -9z" />
    <glyph glyph-name="Oacute" unicode="&#xd3;" horiz-adv-x="1485" 
d="M380.5 63.5q-155.5 90.5 -240.5 255t-85 379.5q0 221 84.5 386t240 254t362.5 89t362.5 -88.5t241 -253.5t85.5 -388q0 -215 -85.5 -379t-242 -254.5t-361.5 -90.5q-206 0 -361.5 90.5zM977 226q98 64 149.5 184.5t51.5 286.5q0 167 -51.5 288.5t-149.5 187t-235 65.5
q-138 0 -235.5 -64.5t-148.5 -186t-51 -290.5q0 -165 52 -285.5t150 -185t234 -64.5t234 64zM569 1505q-3 -1 -8 -1q-13 0 -19 14l-27 78q-2 6 -2 9q0 13 14 19l449 200q6 3 10 3q11 0 18 -15l45 -139q2 -6 2 -9q0 -14 -16 -19z" />
    <glyph glyph-name="Ocircumflex" unicode="&#xd4;" horiz-adv-x="1485" 
d="M380.5 63.5q-155.5 90.5 -240.5 255t-85 379.5q0 221 84.5 386t240 254t362.5 89t362.5 -88.5t241 -253.5t85.5 -388q0 -215 -85.5 -379t-242 -254.5t-361.5 -90.5q-206 0 -361.5 90.5zM977 226q98 64 149.5 184.5t51.5 286.5q0 167 -51.5 288.5t-149.5 187t-235 65.5
q-138 0 -235.5 -64.5t-148.5 -186t-51 -290.5q0 -165 52 -285.5t150 -185t234 -64.5t234 64zM400 1599q-2 4 -2 11q0 12 10 19l272 179q10 8 28 8h72q17 0 27 -8l272 -179q11 -7 11 -19q0 -7 -2 -11l-34 -79q-4 -13 -18 -13q-6 0 -10 2l-284 134l-281 -133q-6 -3 -11 -3
q-11 0 -17 13z" />
    <glyph glyph-name="Otilde" unicode="&#xd5;" horiz-adv-x="1485" 
d="M380.5 63.5q-155.5 90.5 -240.5 255t-85 379.5q0 221 84.5 386t240 254t362.5 89t362.5 -88.5t241 -253.5t85.5 -388q0 -215 -85.5 -379t-242 -254.5t-361.5 -90.5q-206 0 -361.5 90.5zM977 226q98 64 149.5 184.5t51.5 286.5q0 167 -51.5 288.5t-149.5 187t-235 65.5
q-138 0 -235.5 -64.5t-148.5 -186t-51 -290.5q0 -165 52 -285.5t150 -185t234 -64.5t234 64zM782.5 1551q-32.5 19 -69.5 54q-27 25 -43.5 36t-36.5 11q-57 0 -62 -93q0 -22 -22 -22h-84q-10 0 -15.5 6t-4.5 16q4 105 50.5 168.5t134.5 63.5q45 0 77 -19.5t70 -55.5
q26 -24 41 -34.5t32 -10.5q61 0 66 93q2 22 22 22h84q11 0 16.5 -7t4.5 -20q-5 -107 -50.5 -167t-131.5 -60q-46 0 -78.5 19z" />
    <glyph glyph-name="Odieresis" unicode="&#xd6;" horiz-adv-x="1485" 
d="M380.5 63.5q-155.5 90.5 -240.5 255t-85 379.5q0 221 84.5 386t240 254t362.5 89t362.5 -88.5t241 -253.5t85.5 -388q0 -215 -85.5 -379t-242 -254.5t-361.5 -90.5q-206 0 -361.5 90.5zM977 226q98 64 149.5 184.5t51.5 286.5q0 167 -51.5 288.5t-149.5 187t-235 65.5
q-138 0 -235.5 -64.5t-148.5 -186t-51 -290.5q0 -165 52 -285.5t150 -185t234 -64.5t234 64zM479 1513q-10 0 -15.5 5.5t-5.5 15.5v188q0 10 5.5 15.5t15.5 5.5h161q10 0 15.5 -5.5t5.5 -15.5v-188q0 -10 -5.5 -15.5t-15.5 -5.5h-161zM848 1513q-10 0 -16 5.5t-6 15.5v188
q0 10 6 15.5t16 5.5h160q21 0 21 -21v-188q0 -10 -5.5 -15.5t-15.5 -5.5h-160z" />
    <glyph glyph-name="multiply" unicode="&#xd7;" horiz-adv-x="1062" 
d="M659 689l274 -274q8 -6 8 -15q0 -7 -8 -15l-98 -98q-7 -7 -15 -7t-15 7l-274 274l-274 -274q-7 -7 -15 -7t-15 7l-98 98q-7 7 -7 15q0 9 7 15l274 274l-275 275q-7 7 -7 15t7 15l98 98q8 8 15 8q9 0 15 -8l275 -275l275 275q8 8 15 8t15 -8l98 -98q8 -8 8 -15t-8 -15z
" />
    <glyph glyph-name="Oslash" unicode="&#xd8;" horiz-adv-x="1485" 
d="M1284 1182q72 -94 109.5 -216t37.5 -269q0 -215 -85.5 -379t-242 -254.5t-361.5 -90.5q-111 0 -208.5 28t-177.5 82l-135 -159q-7 -8 -16 -8q-8 0 -15 7l-122 113q-8 8 -8 15q0 8 6 15l134 157q-71 93 -108 213.5t-37 261.5q0 221 84.5 386t240 254t362.5 89
q224 0 385 -107l137 162q7 8 16 8q8 0 15 -7l122 -113q8 -8 8 -15t-6 -15zM506.5 1173.5q-97.5 -64.5 -148.5 -186t-51 -290.5q0 -180 64 -303l638 754q-109 90 -267 90q-138 0 -235.5 -64.5zM977 226q98 64 149.5 184.5t51.5 286.5q0 185 -66 312l-639 -755
q107 -92 270 -92q136 0 234 64z" />
    <glyph glyph-name="Ugrave" unicode="&#xd9;" horiz-adv-x="1263" 
d="M228.5 116q-138.5 143 -136.5 409l2 412l-9 442q0 21 21 21h217q21 0 21 -21l-9 -436l2 -416q1 -173 73 -266t225 -93q161 0 237 93t76 266v411l-7 441q0 21 21 21h194q21 0 21 -21l-6 -442v-412q0 -268 -135 -410t-401 -142q-268 0 -406.5 143zM828 1518q-5 -14 -19 -14
q-5 0 -8 1l-466 140q-15 5 -15 19q0 6 1 9l46 140q5 14 16 14q5 0 11 -3l450 -200q14 -6 14 -19q0 -3 -2 -9z" />
    <glyph glyph-name="Uacute" unicode="&#xda;" horiz-adv-x="1263" 
d="M228.5 116q-138.5 143 -136.5 409l2 412l-9 442q0 21 21 21h217q21 0 21 -21l-9 -436l2 -416q1 -173 73 -266t225 -93q161 0 237 93t76 266v411l-7 441q0 21 21 21h194q21 0 21 -21l-6 -442v-412q0 -268 -135 -410t-401 -142q-268 0 -406.5 143zM468 1505q-3 -1 -8 -1
q-13 0 -19 14l-27 78q-2 6 -2 9q0 13 14 19l449 200q6 3 10 3q11 0 18 -15l45 -139q2 -6 2 -9q0 -14 -16 -19z" />
    <glyph glyph-name="Ucircumflex" unicode="&#xdb;" horiz-adv-x="1263" 
d="M228.5 116q-138.5 143 -136.5 409l2 412l-9 442q0 21 21 21h217q21 0 21 -21l-9 -436l2 -416q1 -173 73 -266t225 -93q161 0 237 93t76 266v411l-7 441q0 21 21 21h194q21 0 21 -21l-6 -442v-412q0 -268 -135 -410t-401 -142q-268 0 -406.5 143zM299 1599q-2 4 -2 11
q0 12 10 19l272 179q10 8 28 8h72q17 0 27 -8l272 -179q11 -7 11 -19q0 -7 -2 -11l-34 -79q-4 -13 -18 -13q-6 0 -10 2l-284 134l-281 -133q-6 -3 -11 -3q-11 0 -17 13z" />
    <glyph glyph-name="Udieresis" unicode="&#xdc;" horiz-adv-x="1263" 
d="M228.5 116q-138.5 143 -136.5 409l2 412l-9 442q0 21 21 21h217q21 0 21 -21l-9 -436l2 -416q1 -173 73 -266t225 -93q161 0 237 93t76 266v411l-7 441q0 21 21 21h194q21 0 21 -21l-6 -442v-412q0 -268 -135 -410t-401 -142q-268 0 -406.5 143zM378 1513
q-10 0 -15.5 5.5t-5.5 15.5v188q0 10 5.5 15.5t15.5 5.5h161q10 0 15.5 -5.5t5.5 -15.5v-188q0 -10 -5.5 -15.5t-15.5 -5.5h-161zM747 1513q-10 0 -16 5.5t-6 15.5v188q0 10 6 15.5t16 5.5h160q21 0 21 -21v-188q0 -10 -5.5 -15.5t-15.5 -5.5h-160z" />
    <glyph glyph-name="Yacute" unicode="&#xdd;" horiz-adv-x="1181" 
d="M10 1375q-3 6 -3 11q0 6 4.5 10t13.5 4h232q18 0 25 -16l318 -686l320 686q7 16 26 16h210q8 0 13 -4t5 -10q0 -5 -3 -11l-464 -894l8 -460q0 -21 -21 -21h-210q-22 0 -21 21l9 462zM419 1505q-3 -1 -8 -1q-13 0 -19 14l-27 78q-2 6 -2 9q0 13 14 19l449 200q6 3 10 3
q11 0 18 -15l45 -139q2 -6 2 -9q0 -14 -16 -19z" />
    <glyph glyph-name="Thorn" unicode="&#xde;" horiz-adv-x="1166" 
d="M608 1147q246 0 380.5 -111t134.5 -325q0 -144 -62 -245.5t-177.5 -153t-274.5 -51.5h-264l4 -240q0 -21 -21 -21h-210q-21 0 -21 21l10 689l-10 669q0 21 21 21h210q21 0 21 -21l-4 -232h263zM625 441q120 0 190.5 64.5t70.5 200.5q0 131 -69 196t-200 65h-274l-4 -277
l3 -249h283z" />
    <glyph glyph-name="germandbls" unicode="&#xdf;" horiz-adv-x="1153" 
d="M116 -1q-21 0 -21 21l7 439v531q0 224 129.5 328t342.5 105q138 0 236.5 -43.5t151 -125.5t53.5 -196q0 -113 -66 -187.5t-176 -100.5q160 -24 241 -116t81 -232q0 -133 -66.5 -228.5t-181 -145t-256.5 -49.5h-56q-10 0 -16 5.5t-6 15.5v133q0 10 6 15.5t16 5.5h56
q123 0 189 61.5t66 187.5q0 118 -72 179.5t-200 61.5h-39q-10 0 -16 5.5t-6 15.5v117q0 22 22 22h39q201 0 201 212q0 106 -56 159.5t-157 53.5q-106 0 -166 -63t-60 -202v-525l8 -439q0 -21 -21 -21h-207z" />
    <glyph glyph-name="agrave" unicode="&#xe0;" horiz-adv-x="1126" 
d="M1035 520l8 -499q0 -21 -21 -21h-199q-22 0 -22 21l4 128q-53 -81 -133 -124.5t-184 -43.5q-139 0 -237 69.5t-148.5 190t-50.5 272.5q0 150 53.5 272t153.5 193.5t234 71.5q102 0 181 -40.5t130 -118.5l-4 117v2q0 20 21 20h201q21 0 21 -21zM743 236.5
q67 93.5 67 278.5q0 178 -65.5 274.5t-186.5 97.5q-129 2 -195 -93t-66 -267q0 -182 64.5 -283t189.5 -101t192 93.5zM735 1148q-5 -14 -19 -14q-5 0 -8 1l-466 140q-15 5 -15 19q0 6 1 9l46 140q5 14 16 14q5 0 11 -3l450 -200q14 -6 14 -19q0 -3 -2 -9z" />
    <glyph glyph-name="aacute" unicode="&#xe1;" horiz-adv-x="1126" 
d="M1035 520l8 -499q0 -21 -21 -21h-199q-22 0 -22 21l4 128q-53 -81 -133 -124.5t-184 -43.5q-139 0 -237 69.5t-148.5 190t-50.5 272.5q0 150 53.5 272t153.5 193.5t234 71.5q102 0 181 -40.5t130 -118.5l-4 117v2q0 20 21 20h201q21 0 21 -21zM743 236.5
q67 93.5 67 278.5q0 178 -65.5 274.5t-186.5 97.5q-129 2 -195 -93t-66 -267q0 -182 64.5 -283t189.5 -101t192 93.5zM375 1135q-3 -1 -8 -1q-13 0 -19 14l-27 78q-2 6 -2 9q0 13 14 19l449 200q6 3 10 3q11 0 18 -15l45 -139q2 -6 2 -9q0 -14 -16 -19z" />
    <glyph glyph-name="acircumflex" unicode="&#xe2;" horiz-adv-x="1126" 
d="M1035 520l8 -499q0 -21 -21 -21h-199q-22 0 -22 21l4 128q-53 -81 -133 -124.5t-184 -43.5q-139 0 -237 69.5t-148.5 190t-50.5 272.5q0 150 53.5 272t153.5 193.5t234 71.5q102 0 181 -40.5t130 -118.5l-4 117v2q0 20 21 20h201q21 0 21 -21zM743 236.5
q67 93.5 67 278.5q0 178 -65.5 274.5t-186.5 97.5q-129 2 -195 -93t-66 -267q0 -182 64.5 -283t189.5 -101t192 93.5zM206 1229q-2 4 -2 11q0 12 10 19l272 179q10 8 28 8h72q17 0 27 -8l272 -179q11 -7 11 -19q0 -7 -2 -11l-34 -79q-4 -13 -18 -13q-6 0 -10 2l-284 134
l-281 -133q-6 -3 -11 -3q-11 0 -17 13z" />
    <glyph glyph-name="atilde" unicode="&#xe3;" horiz-adv-x="1126" 
d="M1035 520l8 -499q0 -21 -21 -21h-199q-22 0 -22 21l4 128q-53 -81 -133 -124.5t-184 -43.5q-139 0 -237 69.5t-148.5 190t-50.5 272.5q0 150 53.5 272t153.5 193.5t234 71.5q102 0 181 -40.5t130 -118.5l-4 117v2q0 20 21 20h201q21 0 21 -21zM743 236.5
q67 93.5 67 278.5q0 178 -65.5 274.5t-186.5 97.5q-129 2 -195 -93t-66 -267q0 -182 64.5 -283t189.5 -101t192 93.5zM588.5 1181q-32.5 19 -69.5 54q-27 25 -43.5 36t-36.5 11q-57 0 -62 -93q0 -22 -22 -22h-84q-10 0 -15.5 6t-4.5 16q4 105 50.5 168.5t134.5 63.5
q45 0 77 -19.5t70 -55.5q26 -24 41 -34.5t32 -10.5q61 0 66 93q2 22 22 22h84q11 0 16.5 -7t4.5 -20q-5 -107 -50.5 -167t-131.5 -60q-46 0 -78.5 19z" />
    <glyph glyph-name="adieresis" unicode="&#xe4;" horiz-adv-x="1126" 
d="M1035 520l8 -499q0 -21 -21 -21h-199q-22 0 -22 21l4 128q-53 -81 -133 -124.5t-184 -43.5q-139 0 -237 69.5t-148.5 190t-50.5 272.5q0 150 53.5 272t153.5 193.5t234 71.5q102 0 181 -40.5t130 -118.5l-4 117v2q0 20 21 20h201q21 0 21 -21zM743 236.5
q67 93.5 67 278.5q0 178 -65.5 274.5t-186.5 97.5q-129 2 -195 -93t-66 -267q0 -182 64.5 -283t189.5 -101t192 93.5zM285 1143q-10 0 -15.5 5.5t-5.5 15.5v188q0 10 5.5 15.5t15.5 5.5h161q10 0 15.5 -5.5t5.5 -15.5v-188q0 -10 -5.5 -15.5t-15.5 -5.5h-161zM654 1143
q-10 0 -16 5.5t-6 15.5v188q0 10 6 15.5t16 5.5h160q21 0 21 -21v-188q0 -10 -5.5 -15.5t-15.5 -5.5h-160z" />
    <glyph glyph-name="aring" unicode="&#xe5;" horiz-adv-x="1126" 
d="M1035 520l8 -499q0 -21 -21 -21h-199q-22 0 -22 21l4 128q-53 -81 -133 -124.5t-184 -43.5q-139 0 -237 69.5t-148.5 190t-50.5 272.5q0 150 53.5 272t153.5 193.5t234 71.5q102 0 181 -40.5t130 -118.5l-4 117v2q0 20 21 20h201q21 0 21 -21zM743 236.5
q67 93.5 67 278.5q0 178 -65.5 274.5t-186.5 97.5q-129 2 -195 -93t-66 -267q0 -182 64.5 -283t189.5 -101t192 93.5zM428.5 1174.5q-53.5 28.5 -84.5 79t-31 113.5q0 62 31 112.5t84.5 79.5t120.5 29t121 -29t85 -79.5t31 -112.5q0 -63 -31 -113.5t-85 -79t-121 -28.5
t-120.5 28.5zM627 1271q30 35 30 96q0 62 -30 96.5t-78 34.5t-77.5 -34.5t-29.5 -96.5q0 -61 29.5 -96t77.5 -35t78 35z" />
    <glyph glyph-name="ae" unicode="&#xe6;" horiz-adv-x="1884" 
d="M251 50.5q-98 69.5 -148.5 190t-50.5 272.5q0 150 53 272t153 193.5t234 71.5q103 0 182 -40.5t130 -118.5l-4 117v2q0 20 21 20h199q21 0 21 -21l-1 -91q56 66 134 101t173 35q152 0 261 -67t167.5 -192.5t61.5 -298.5q0 -22 -21 -22h-744q7 -169 73.5 -252.5
t197.5 -83.5q95 0 155 49t82 147q5 19 23 19h188q11 0 17 -4.5t5 -13.5q-15 -102 -73.5 -183.5t-157 -128.5t-227.5 -47q-100 0 -179.5 34.5t-134.5 98.5v-88q0 -21 -21 -21h-197q-22 0 -22 21l4 129q-53 -81 -133 -125t-184 -44q-139 0 -237 69.5zM1161 825
q-64 -68 -82 -195h499q-5 73 -33.5 132.5t-82 95t-129.5 35.5q-108 0 -172 -68zM743 237q67 94 67 278q0 178 -65.5 274.5t-186.5 97.5q-129 2 -195 -93t-66 -267q0 -182 64.5 -283t189.5 -101t192 94z" />
    <glyph glyph-name="ccedilla" unicode="&#xe7;" horiz-adv-x="1064" 
d="M1000 391q11 0 16.5 -5t4.5 -15q-10 -104 -60.5 -188t-136.5 -137t-197 -66l-69 -311q-4 -21 -25 -16l-181 34q-7 1 -11.5 6t-4.5 11q0 7 2 10l110 271q-125 21 -214 91t-135.5 181.5t-46.5 254.5q0 163 60 285.5t175 189.5t274 67q126 0 222.5 -45t153.5 -127t70 -191
v-4q0 -18 -20 -18h-180q-20 0 -23 20q-19 99 -78.5 150t-144.5 51q-262 -1 -262 -377q0 -189 65 -282t198 -93q96 0 158 60.5t74 171.5q3 21 22 21h184z" />
    <glyph glyph-name="egrave" unicode="&#xe8;" horiz-adv-x="1108" 
d="M295 474q7 -171 74.5 -253.5t196.5 -82.5q95 0 155 49t82 147q5 19 23 19h189q11 0 16.5 -4.5t4.5 -12.5q-15 -102 -75 -184t-162 -129t-236 -47q-162 0 -277.5 67.5t-174.5 189t-59 279.5q0 162 60.5 284.5t174 190t268.5 67.5q157 0 269 -67t172.5 -192.5t63.5 -298.5
q0 -22 -21 -22h-744zM384 825.5q-64 -67.5 -82 -195.5h499q-5 73 -33.5 132.5t-82 95t-128.5 35.5q-109 0 -173 -67.5zM740 1148q-5 -14 -19 -14q-5 0 -8 1l-466 140q-15 5 -15 19q0 6 1 9l46 140q5 14 16 14q5 0 11 -3l450 -200q14 -6 14 -19q0 -3 -2 -9z" />
    <glyph glyph-name="eacute" unicode="&#xe9;" horiz-adv-x="1108" 
d="M295 474q7 -171 74.5 -253.5t196.5 -82.5q95 0 155 49t82 147q5 19 23 19h189q11 0 16.5 -4.5t4.5 -12.5q-15 -102 -75 -184t-162 -129t-236 -47q-162 0 -277.5 67.5t-174.5 189t-59 279.5q0 162 60.5 284.5t174 190t268.5 67.5q157 0 269 -67t172.5 -192.5t63.5 -298.5
q0 -22 -21 -22h-744zM384 825.5q-64 -67.5 -82 -195.5h499q-5 73 -33.5 132.5t-82 95t-128.5 35.5q-109 0 -173 -67.5zM380 1135q-3 -1 -8 -1q-13 0 -19 14l-27 78q-2 6 -2 9q0 13 14 19l449 200q6 3 10 3q11 0 18 -15l45 -139q2 -6 2 -9q0 -14 -16 -19z" />
    <glyph glyph-name="ecircumflex" unicode="&#xea;" horiz-adv-x="1108" 
d="M295 474q7 -171 74.5 -253.5t196.5 -82.5q95 0 155 49t82 147q5 19 23 19h189q11 0 16.5 -4.5t4.5 -12.5q-15 -102 -75 -184t-162 -129t-236 -47q-162 0 -277.5 67.5t-174.5 189t-59 279.5q0 162 60.5 284.5t174 190t268.5 67.5q157 0 269 -67t172.5 -192.5t63.5 -298.5
q0 -22 -21 -22h-744zM384 825.5q-64 -67.5 -82 -195.5h499q-5 73 -33.5 132.5t-82 95t-128.5 35.5q-109 0 -173 -67.5zM211 1229q-2 4 -2 11q0 12 10 19l272 179q10 8 28 8h72q17 0 27 -8l272 -179q11 -7 11 -19q0 -7 -2 -11l-34 -79q-4 -13 -18 -13q-6 0 -10 2l-284 134
l-281 -133q-6 -3 -11 -3q-11 0 -17 13z" />
    <glyph glyph-name="edieresis" unicode="&#xeb;" horiz-adv-x="1108" 
d="M295 474q7 -171 74.5 -253.5t196.5 -82.5q95 0 155 49t82 147q5 19 23 19h189q11 0 16.5 -4.5t4.5 -12.5q-15 -102 -75 -184t-162 -129t-236 -47q-162 0 -277.5 67.5t-174.5 189t-59 279.5q0 162 60.5 284.5t174 190t268.5 67.5q157 0 269 -67t172.5 -192.5t63.5 -298.5
q0 -22 -21 -22h-744zM384 825.5q-64 -67.5 -82 -195.5h499q-5 73 -33.5 132.5t-82 95t-128.5 35.5q-109 0 -173 -67.5zM290 1143q-10 0 -15.5 5.5t-5.5 15.5v188q0 10 5.5 15.5t15.5 5.5h161q10 0 15.5 -5.5t5.5 -15.5v-188q0 -10 -5.5 -15.5t-15.5 -5.5h-161zM659 1143
q-10 0 -16 5.5t-6 15.5v188q0 10 6 15.5t16 5.5h160q21 0 21 -21v-188q0 -10 -5.5 -15.5t-15.5 -5.5h-160z" />
    <glyph glyph-name="igrave" unicode="&#xec;" horiz-adv-x="432" 
d="M398 1152q-6 -20 -26 -15l-400 119q-7 1 -11.5 6t-4.5 12q0 3 2 9l45 138q5 14 16 14q5 0 11 -3l382 -169q14 -7 14 -20q0 -6 -1 -9zM113 0q-21 0 -21 21l8 502l-8 486q0 21 21 21h206q21 0 21 -21l-8 -486l8 -502q0 -21 -21 -21h-206z" />
    <glyph glyph-name="iacute" unicode="&#xed;" horiz-adv-x="432" 
d="M63 1137q-2 -1 -7 -1q-14 0 -20 16l-27 82q-1 3 -1 9q0 13 14 20l382 169q6 3 11 3q12 0 17 -14l45 -138q1 -3 1 -9q0 -15 -15 -18zM113 0q-21 0 -21 21l8 502l-8 486q0 21 21 21h206q21 0 21 -21l-8 -486l8 -502q0 -21 -21 -21h-206z" />
    <glyph glyph-name="icircumflex" unicode="&#xee;" horiz-adv-x="432" 
d="M-76 1232q-3 6 -3 12q0 11 10 18l222 176q10 9 26 9h71q15 0 27 -9l222 -176q9 -7 9 -17q0 -5 -3 -13l-38 -74q-6 -12 -17 -12q-7 0 -12 4l-223 129l-222 -129q-5 -4 -13 -4q-11 0 -17 13zM113 0q-21 0 -21 21l8 502l-8 486q0 21 21 21h206q21 0 21 -21l-8 -486l8 -502
q0 -21 -21 -21h-206z" />
    <glyph glyph-name="idieresis" unicode="&#xef;" horiz-adv-x="432" 
d="M-1 1143q-21 0 -21 21v188q0 10 5.5 15.5t15.5 5.5h146q10 0 16 -5.5t6 -15.5v-188q0 -10 -6 -15.5t-16 -5.5h-146zM290 1143q-10 0 -16 5.5t-6 15.5v188q0 10 6 15.5t16 5.5h145q10 0 15.5 -5.5t5.5 -15.5v-188q0 -10 -5.5 -15.5t-15.5 -5.5h-145zM113 0q-21 0 -21 21
l8 502l-8 486q0 21 21 21h206q21 0 21 -21l-8 -486l8 -502q0 -21 -21 -21h-206z" />
    <glyph glyph-name="eth" unicode="&#xf0;" horiz-adv-x="1136" 
d="M867 1175q103 -112 155.5 -262.5t52.5 -350.5q0 -172 -61.5 -305t-179 -208.5t-279.5 -75.5q-144 0 -256 61t-175 168.5t-63 242.5q0 137 56.5 242t157.5 163t233 58q117 0 195.5 -45t123.5 -119q-12 191 -150 341l-242 -118q-6 -3 -11 -3q-11 0 -17 12l-48 98
q-3 6 -3 12q0 10 12 17l179 87q-90 62 -204 105q-14 5 -14 16q0 6 3 12l66 110q6 12 18 12q2 0 10 -2q191 -70 314 -160l254 124q6 3 11 3q11 0 17 -13l49 -98q3 -6 3 -12q0 -10 -13 -17zM751 231.5q64 81.5 64 215.5q0 88 -31.5 153t-90 100t-137.5 35q-118 0 -179 -80
t-61 -222q0 -132 67.5 -207.5t184.5 -75.5q119 0 183 81.5z" />
    <glyph glyph-name="ntilde" unicode="&#xf1;" horiz-adv-x="1086" 
d="M1004 439l6 -418q0 -21 -22 -21h-201q-21 0 -21 21l5 418v204q0 112 -52 172t-137 60q-62 0 -116.5 -35.5t-91 -106.5t-46.5 -173v-121l4 -418q0 -21 -22 -21h-204q-21 0 -21 21l8 460l-5 528q0 21 21 21h190q22 0 21 -22l-4 -133q53 79 140.5 129t196.5 50
q108 0 187 -47t121.5 -138t42.5 -220v-210zM586.5 1181q-32.5 19 -69.5 54q-27 25 -43.5 36t-36.5 11q-57 0 -62 -93q0 -22 -22 -22h-84q-10 0 -15.5 6t-4.5 16q4 105 50.5 168.5t134.5 63.5q45 0 77 -19.5t70 -55.5q26 -24 41 -34.5t32 -10.5q61 0 66 93q2 22 22 22h84
q11 0 16.5 -7t4.5 -20q-5 -107 -50.5 -167t-131.5 -60q-46 0 -78.5 19z" />
    <glyph glyph-name="ograve" unicode="&#xf2;" horiz-adv-x="1120" 
d="M287 42q-115 66 -175 187t-60 284t60 285t175 189t275 67t273.5 -66t173 -187t59.5 -284t-59.5 -285t-173.5 -189t-273 -67q-160 0 -275 66zM757 231.5q64 93.5 64 281.5q0 186 -65.5 282.5t-195.5 96.5q-262 -3 -262 -381q0 -373 264 -373q131 0 195 93.5zM746 1148
q-5 -14 -19 -14q-5 0 -8 1l-466 140q-15 5 -15 19q0 6 1 9l46 140q5 14 16 14q5 0 11 -3l450 -200q14 -6 14 -19q0 -3 -2 -9z" />
    <glyph glyph-name="oacute" unicode="&#xf3;" horiz-adv-x="1120" 
d="M287 42q-115 66 -175 187t-60 284t60 285t175 189t275 67t273.5 -66t173 -187t59.5 -284t-59.5 -285t-173.5 -189t-273 -67q-160 0 -275 66zM757 231.5q64 93.5 64 281.5q0 186 -65.5 282.5t-195.5 96.5q-262 -3 -262 -381q0 -373 264 -373q131 0 195 93.5zM386 1135
q-3 -1 -8 -1q-13 0 -19 14l-27 78q-2 6 -2 9q0 13 14 19l449 200q6 3 10 3q11 0 18 -15l45 -139q2 -6 2 -9q0 -14 -16 -19z" />
    <glyph glyph-name="ocircumflex" unicode="&#xf4;" horiz-adv-x="1120" 
d="M287 42q-115 66 -175 187t-60 284t60 285t175 189t275 67t273.5 -66t173 -187t59.5 -284t-59.5 -285t-173.5 -189t-273 -67q-160 0 -275 66zM757 231.5q64 93.5 64 281.5q0 186 -65.5 282.5t-195.5 96.5q-262 -3 -262 -381q0 -373 264 -373q131 0 195 93.5zM217 1229
q-2 4 -2 11q0 12 10 19l272 179q10 8 28 8h72q17 0 27 -8l272 -179q11 -7 11 -19q0 -7 -2 -11l-34 -79q-4 -13 -18 -13q-6 0 -10 2l-284 134l-281 -133q-6 -3 -11 -3q-11 0 -17 13z" />
    <glyph glyph-name="otilde" unicode="&#xf5;" horiz-adv-x="1120" 
d="M287 42q-115 66 -175 187t-60 284t60 285t175 189t275 67t273.5 -66t173 -187t59.5 -284t-59.5 -285t-173.5 -189t-273 -67q-160 0 -275 66zM757 231.5q64 93.5 64 281.5q0 186 -65.5 282.5t-195.5 96.5q-262 -3 -262 -381q0 -373 264 -373q131 0 195 93.5zM599.5 1181
q-32.5 19 -69.5 54q-27 25 -43.5 36t-36.5 11q-57 0 -62 -93q0 -22 -22 -22h-84q-10 0 -15.5 6t-4.5 16q4 105 50.5 168.5t134.5 63.5q45 0 77 -19.5t70 -55.5q26 -24 41 -34.5t32 -10.5q61 0 66 93q2 22 22 22h84q11 0 16.5 -7t4.5 -20q-5 -107 -50.5 -167t-131.5 -60
q-46 0 -78.5 19z" />
    <glyph glyph-name="odieresis" unicode="&#xf6;" horiz-adv-x="1120" 
d="M287 42q-115 66 -175 187t-60 284t60 285t175 189t275 67t273.5 -66t173 -187t59.5 -284t-59.5 -285t-173.5 -189t-273 -67q-160 0 -275 66zM757 231.5q64 93.5 64 281.5q0 186 -65.5 282.5t-195.5 96.5q-262 -3 -262 -381q0 -373 264 -373q131 0 195 93.5zM296 1143
q-10 0 -15.5 5.5t-5.5 15.5v188q0 10 5.5 15.5t15.5 5.5h161q10 0 15.5 -5.5t5.5 -15.5v-188q0 -10 -5.5 -15.5t-15.5 -5.5h-161zM665 1143q-10 0 -16 5.5t-6 15.5v188q0 10 6 15.5t16 5.5h160q21 0 21 -21v-188q0 -10 -5.5 -15.5t-15.5 -5.5h-160z" />
    <glyph glyph-name="divide" unicode="&#xf7;" horiz-adv-x="1062" 
d="M424 989q-21 0 -21 21v201q0 10 5.5 15.5t15.5 5.5h214q10 0 15.5 -5.5t5.5 -15.5v-201q0 -10 -5.5 -15.5t-15.5 -5.5h-214zM93 598q-22 0 -22 22v138q0 22 22 22h876q22 0 22 -22v-138q0 -22 -22 -22h-876zM424 150q-21 0 -21 21v201q0 10 5.5 15.5t15.5 5.5h214
q10 0 15.5 -5.5t5.5 -15.5v-201q0 -10 -5.5 -15.5t-15.5 -5.5h-214z" />
    <glyph glyph-name="oslash" unicode="&#xf8;" horiz-adv-x="1120" 
d="M961 879q107 -141 107 -362q0 -163 -59.5 -285t-173.5 -189t-273 -67q-166 0 -284 75l-99 -120q-7 -10 -17 -10q-7 0 -14 7l-85 80q-7 7 -7 16q0 8 6 15l95 116q-52 68 -78.5 158.5t-26.5 199.5q0 163 60 285t175 189t275 67q162 0 277 -72l100 121q8 9 16 9t15 -7
l86 -80q8 -8 8 -16q0 -6 -6 -14zM298 511q0 -102 26 -177l407 491q-64 67 -171 67q-262 -3 -262 -381zM757 231.5q64 93.5 64 281.5q0 105 -28 186l-407 -493q63 -68 176 -68q131 0 195 93.5z" />
    <glyph glyph-name="ugrave" unicode="&#xf9;" horiz-adv-x="1086" 
d="M245.5 23q-78.5 47 -121 138t-42.5 220v210l-6 418q0 21 21 21h201q22 0 22 -21l-6 -418v-204q0 -112 52 -172t137 -60q63 0 117 35.5t90.5 106.5t46.5 173v121l-3 418q0 21 21 21h204q21 0 21 -21l-8 -460l6 -528q0 -10 -6 -15.5t-16 -5.5h-190q-21 0 -21 22l5 133
q-54 -79 -141.5 -129t-196.5 -50q-108 0 -186.5 47zM723 1148q-5 -14 -19 -14q-5 0 -8 1l-466 140q-15 5 -15 19q0 6 1 9l46 140q5 14 16 14q5 0 11 -3l450 -200q14 -6 14 -19q0 -3 -2 -9z" />
    <glyph glyph-name="uacute" unicode="&#xfa;" horiz-adv-x="1086" 
d="M245.5 23q-78.5 47 -121 138t-42.5 220v210l-6 418q0 21 21 21h201q22 0 22 -21l-6 -418v-204q0 -112 52 -172t137 -60q63 0 117 35.5t90.5 106.5t46.5 173v121l-3 418q0 21 21 21h204q21 0 21 -21l-8 -460l6 -528q0 -10 -6 -15.5t-16 -5.5h-190q-21 0 -21 22l5 133
q-54 -79 -141.5 -129t-196.5 -50q-108 0 -186.5 47zM362 1135q-3 -1 -8 -1q-13 0 -19 14l-27 78q-2 6 -2 9q0 13 14 19l449 200q6 3 10 3q11 0 18 -15l45 -139q2 -6 2 -9q0 -14 -16 -19z" />
    <glyph glyph-name="ucircumflex" unicode="&#xfb;" horiz-adv-x="1086" 
d="M245.5 23q-78.5 47 -121 138t-42.5 220v210l-6 418q0 21 21 21h201q22 0 22 -21l-6 -418v-204q0 -112 52 -172t137 -60q63 0 117 35.5t90.5 106.5t46.5 173v121l-3 418q0 21 21 21h204q21 0 21 -21l-8 -460l6 -528q0 -10 -6 -15.5t-16 -5.5h-190q-21 0 -21 22l5 133
q-54 -79 -141.5 -129t-196.5 -50q-108 0 -186.5 47zM193 1229q-2 4 -2 11q0 12 10 19l272 179q10 8 28 8h72q17 0 27 -8l272 -179q11 -7 11 -19q0 -7 -2 -11l-34 -79q-4 -13 -18 -13q-6 0 -10 2l-284 134l-281 -133q-6 -3 -11 -3q-11 0 -17 13z" />
    <glyph glyph-name="udieresis" unicode="&#xfc;" horiz-adv-x="1086" 
d="M245.5 23q-78.5 47 -121 138t-42.5 220v210l-6 418q0 21 21 21h201q22 0 22 -21l-6 -418v-204q0 -112 52 -172t137 -60q63 0 117 35.5t90.5 106.5t46.5 173v121l-3 418q0 21 21 21h204q21 0 21 -21l-8 -460l6 -528q0 -10 -6 -15.5t-16 -5.5h-190q-21 0 -21 22l5 133
q-54 -79 -141.5 -129t-196.5 -50q-108 0 -186.5 47zM272 1143q-10 0 -15.5 5.5t-5.5 15.5v188q0 10 5.5 15.5t15.5 5.5h161q10 0 15.5 -5.5t5.5 -15.5v-188q0 -10 -5.5 -15.5t-15.5 -5.5h-161zM641 1143q-10 0 -16 5.5t-6 15.5v188q0 10 6 15.5t16 5.5h160q21 0 21 -21v-188
q0 -10 -5.5 -15.5t-15.5 -5.5h-160z" />
    <glyph glyph-name="yacute" unicode="&#xfd;" horiz-adv-x="988" 
d="M745 1012q5 18 24 18h200q20 0 20 -16q0 -3 -2 -9l-459 -1328q-6 -17 -24 -17h-185q-20 0 -20 16q0 3 2 9l108 309l-406 1011q-2 8 -2 10q0 7 5 11t14 4h226q18 0 24 -17l258 -712zM332 1135q-3 -1 -8 -1q-13 0 -19 14l-27 78q-2 6 -2 9q0 13 14 19l449 200q6 3 10 3
q11 0 18 -15l45 -139q2 -6 2 -9q0 -14 -16 -19z" />
    <glyph glyph-name="thorn" unicode="&#xfe;" horiz-adv-x="1126" 
d="M874.5 981.5q98.5 -69.5 149 -190.5t50.5 -273q0 -150 -53.5 -272.5t-153.5 -194t-234 -71.5q-101 0 -178.5 39t-128.5 115l5 -453q0 -21 -22 -21h-205q-22 0 -22 21l9 844l-9 854q0 21 22 21h200q22 0 22 -21l-7 -500q53 82 134 127t185 45q138 0 236.5 -69.5z
M763 238.5q66 94.5 66 265.5q0 181 -65 281t-191 100q-124 0 -190.5 -94t-66.5 -275q0 -178 65.5 -275t186.5 -97q129 0 195 94.5z" />
    <glyph glyph-name="ydieresis" unicode="&#xff;" horiz-adv-x="988" 
d="M745 1012q5 18 24 18h200q20 0 20 -16q0 -3 -2 -9l-459 -1328q-6 -17 -24 -17h-185q-20 0 -20 16q0 3 2 9l108 309l-406 1011q-2 8 -2 10q0 7 5 11t14 4h226q18 0 24 -17l258 -712zM242 1143q-10 0 -15.5 5.5t-5.5 15.5v188q0 10 5.5 15.5t15.5 5.5h161q10 0 15.5 -5.5
t5.5 -15.5v-188q0 -10 -5.5 -15.5t-15.5 -5.5h-161zM611 1143q-10 0 -16 5.5t-6 15.5v188q0 10 6 15.5t16 5.5h160q21 0 21 -21v-188q0 -10 -5.5 -15.5t-15.5 -5.5h-160z" />
    <glyph glyph-name="Amacron" unicode="&#x100;" horiz-adv-x="1304" 
d="M1297 25q2 -6 2 -9q0 -16 -19 -16h-209q-19 0 -25 17l-124 373h-548l-121 -372q-4 -18 -24 -18h-205q-19 0 -19 16q0 3 2 9l480 1358q6 17 24 17h290q18 0 24 -17zM859 585l-215 648l-210 -648h425zM367 1545q-10 0 -15.5 6t-5.5 16v121q0 10 5.5 15.5t15.5 5.5h576
q10 0 16 -5.5t6 -15.5v-121q0 -10 -6 -16t-16 -6h-576z" />
    <glyph glyph-name="amacron" unicode="&#x101;" horiz-adv-x="1126" 
d="M1035 520l8 -499q0 -21 -21 -21h-199q-22 0 -22 21l4 128q-53 -81 -133 -124.5t-184 -43.5q-139 0 -237 69.5t-148.5 190t-50.5 272.5q0 150 53.5 272t153.5 193.5t234 71.5q102 0 181 -40.5t130 -118.5l-4 117v2q0 20 21 20h201q21 0 21 -21zM743 236.5
q67 93.5 67 278.5q0 178 -65.5 274.5t-186.5 97.5q-129 2 -195 -93t-66 -267q0 -182 64.5 -283t189.5 -101t192 93.5zM260 1175q-10 0 -15.5 6t-5.5 16v121q0 10 5.5 15.5t15.5 5.5h576q10 0 16 -5.5t6 -15.5v-121q0 -10 -6 -16t-16 -6h-576z" />
    <glyph glyph-name="Abreve" unicode="&#x102;" horiz-adv-x="1304" 
d="M1297 25q2 -6 2 -9q0 -16 -19 -16h-209q-19 0 -25 17l-124 373h-548l-121 -372q-4 -18 -24 -18h-205q-19 0 -19 16q0 3 2 9l480 1358q6 17 24 17h290q18 0 24 -17zM859 585l-215 648l-210 -648h425zM497 1556.5q-70 36.5 -110 100t-45 143.5v2q0 10 5.5 15t14.5 5h118
q20 0 23 -21q6 -56 46 -89.5t109 -33.5q65 0 106.5 34t48.5 89q3 21 22 21h118q21 0 21 -19q-5 -81 -44.5 -145.5t-110 -101t-161.5 -36.5t-161 36.5z" />
    <glyph glyph-name="abreve" unicode="&#x103;" horiz-adv-x="1126" 
d="M1035 520l8 -499q0 -21 -21 -21h-199q-22 0 -22 21l4 128q-53 -81 -133 -124.5t-184 -43.5q-139 0 -237 69.5t-148.5 190t-50.5 272.5q0 150 53.5 272t153.5 193.5t234 71.5q102 0 181 -40.5t130 -118.5l-4 117v2q0 20 21 20h201q21 0 21 -21zM743 236.5
q67 93.5 67 278.5q0 178 -65.5 274.5t-186.5 97.5q-129 2 -195 -93t-66 -267q0 -182 64.5 -283t189.5 -101t192 93.5zM390 1186.5q-70 36.5 -110 100t-45 143.5v2q0 10 5.5 15t14.5 5h118q20 0 23 -21q6 -56 46 -89.5t109 -33.5q65 0 106.5 34t48.5 89q3 21 22 21h118
q21 0 21 -19q-5 -81 -44.5 -145.5t-110 -101t-161.5 -36.5t-161 36.5z" />
    <glyph glyph-name="Aogonek" unicode="&#x104;" horiz-adv-x="1304" 
d="M1313 -239q10 0 16 -6t6 -16v-117q0 -10 -6 -16t-16 -6h-106q-82 0 -144.5 25t-97 71.5t-34.5 108.5q0 124 121 203q-4 3 -6 9l-124 373h-548l-121 -372q-4 -18 -24 -18h-205q-19 0 -19 16q0 3 2 9l480 1358q6 17 24 17h290q18 0 24 -17l472 -1358q2 -6 2 -9
q0 -16 -19 -16h-85q-30 -24 -54 -65.5t-24 -85.5q0 -45 30 -66.5t81 -21.5h85zM644 1233l-210 -648h425z" />
    <glyph glyph-name="aogonek" unicode="&#x105;" horiz-adv-x="1126" 
d="M1067 -239q10 0 16 -6t6 -16v-117q0 -10 -6 -16t-16 -6h-106q-82 0 -144.5 25t-97 71.5t-34.5 108.5q0 124 120 202q-4 5 -4 14l4 128q-53 -81 -133 -124.5t-184 -43.5q-139 0 -237 69.5t-148.5 190t-50.5 272.5q0 150 53.5 272t153.5 193.5t234 71.5q102 0 181 -40.5
t130 -118.5l-4 117v2q0 20 21 20h201q21 0 21 -21l-8 -489l8 -499q0 -21 -21 -21h-73q-30 -24 -54 -65.5t-24 -85.5q0 -45 30 -66.5t81 -21.5h85zM743 236.5q67 93.5 67 278.5q0 178 -65.5 274.5t-186.5 97.5q-129 2 -195 -93t-66 -267q0 -182 64.5 -283t189.5 -101
t192 93.5z" />
    <glyph glyph-name="Cacute" unicode="&#x106;" horiz-adv-x="1388" 
d="M369 62q-152 89 -233 253t-81 383q0 220 82.5 385t234.5 254.5t356 89.5q234 0 392.5 -114.5t211.5 -371.5l1 -6q0 -8 -5.5 -13t-14.5 -5h-198q-19 0 -23 19q-31 150 -125.5 226t-241.5 76q-133 0 -227 -65t-142.5 -186t-48.5 -288q0 -173 49 -293.5t142.5 -182
t224.5 -61.5q159 0 254.5 85t120.5 248q5 20 24 20h201q11 0 16 -7t3 -20q-49 -264 -206 -389.5t-407 -125.5q-208 0 -360 89zM548 1505q-3 -1 -8 -1q-13 0 -19 14l-27 78q-2 6 -2 9q0 13 14 19l449 200q6 3 10 3q11 0 18 -15l45 -139q2 -6 2 -9q0 -14 -16 -19z" />
    <glyph glyph-name="cacute" unicode="&#x107;" horiz-adv-x="1064" 
d="M285 41.5q-114 65.5 -173.5 186.5t-59.5 284t60 285.5t175 189.5t274 67q126 0 222.5 -45t153.5 -127t70 -191v-4q0 -18 -20 -18h-180q-20 0 -23 20q-19 99 -78.5 150t-144.5 51q-262 -1 -262 -377q0 -189 65 -282t198 -93q96 0 158 60.5t74 171.5q3 21 22 21h184
q11 0 16.5 -5t4.5 -15q-11 -115 -71 -204.5t-162 -140t-232 -50.5q-157 0 -271 65.5zM370 1135q-3 -1 -8 -1q-13 0 -19 14l-27 78q-2 6 -2 9q0 13 14 19l449 200q6 3 10 3q11 0 18 -15l45 -139q2 -6 2 -9q0 -14 -16 -19z" />
    <glyph glyph-name="Ccircumflex" unicode="&#x108;" horiz-adv-x="1388" 
d="M369 62q-152 89 -233 253t-81 383q0 220 82.5 385t234.5 254.5t356 89.5q234 0 392.5 -114.5t211.5 -371.5l1 -6q0 -8 -5.5 -13t-14.5 -5h-198q-19 0 -23 19q-31 150 -125.5 226t-241.5 76q-133 0 -227 -65t-142.5 -186t-48.5 -288q0 -173 49 -293.5t142.5 -182
t224.5 -61.5q159 0 254.5 85t120.5 248q5 20 24 20h201q11 0 16 -7t3 -20q-49 -264 -206 -389.5t-407 -125.5q-208 0 -360 89zM379 1599q-2 4 -2 11q0 12 10 19l272 179q10 8 28 8h72q17 0 27 -8l272 -179q11 -7 11 -19q0 -7 -2 -11l-34 -79q-4 -13 -18 -13q-6 0 -10 2
l-284 134l-281 -133q-6 -3 -11 -3q-11 0 -17 13z" />
    <glyph glyph-name="ccircumflex" unicode="&#x109;" horiz-adv-x="1064" 
d="M285 41.5q-114 65.5 -173.5 186.5t-59.5 284t60 285.5t175 189.5t274 67q126 0 222.5 -45t153.5 -127t70 -191v-4q0 -18 -20 -18h-180q-20 0 -23 20q-19 99 -78.5 150t-144.5 51q-262 -1 -262 -377q0 -189 65 -282t198 -93q96 0 158 60.5t74 171.5q3 21 22 21h184
q11 0 16.5 -5t4.5 -15q-11 -115 -71 -204.5t-162 -140t-232 -50.5q-157 0 -271 65.5zM201 1229q-2 4 -2 11q0 12 10 19l272 179q10 8 28 8h72q17 0 27 -8l272 -179q11 -7 11 -19q0 -7 -2 -11l-34 -79q-4 -13 -18 -13q-6 0 -10 2l-284 134l-281 -133q-6 -3 -11 -3
q-11 0 -17 13z" />
    <glyph glyph-name="Cdotaccent" unicode="&#x10a;" horiz-adv-x="1388" 
d="M369 62q-152 89 -233 253t-81 383q0 220 82.5 385t234.5 254.5t356 89.5q234 0 392.5 -114.5t211.5 -371.5l1 -6q0 -8 -5.5 -13t-14.5 -5h-198q-19 0 -23 19q-31 150 -125.5 226t-241.5 76q-133 0 -227 -65t-142.5 -186t-48.5 -288q0 -173 49 -293.5t142.5 -182
t224.5 -61.5q159 0 254.5 85t120.5 248q5 20 24 20h201q11 0 16 -7t3 -20q-49 -264 -206 -389.5t-407 -125.5q-208 0 -360 89zM622 1513q-10 0 -15.5 5.5t-5.5 15.5v188q0 10 5.5 15.5t15.5 5.5h202q10 0 15.5 -5.5t5.5 -15.5v-188q0 -10 -5.5 -15.5t-15.5 -5.5h-202z" />
    <glyph glyph-name="cdotaccent" unicode="&#x10b;" horiz-adv-x="1064" 
d="M285 41.5q-114 65.5 -173.5 186.5t-59.5 284t60 285.5t175 189.5t274 67q126 0 222.5 -45t153.5 -127t70 -191v-4q0 -18 -20 -18h-180q-20 0 -23 20q-19 99 -78.5 150t-144.5 51q-262 -1 -262 -377q0 -189 65 -282t198 -93q96 0 158 60.5t74 171.5q3 21 22 21h184
q11 0 16.5 -5t4.5 -15q-11 -115 -71 -204.5t-162 -140t-232 -50.5q-157 0 -271 65.5zM444 1143q-10 0 -15.5 5.5t-5.5 15.5v188q0 10 5.5 15.5t15.5 5.5h202q10 0 15.5 -5.5t5.5 -15.5v-188q0 -10 -5.5 -15.5t-15.5 -5.5h-202z" />
    <glyph glyph-name="Ccaron" unicode="&#x10c;" horiz-adv-x="1388" 
d="M369 62q-152 89 -233 253t-81 383q0 220 82.5 385t234.5 254.5t356 89.5q234 0 392.5 -114.5t211.5 -371.5l1 -6q0 -8 -5.5 -13t-14.5 -5h-198q-19 0 -23 19q-31 150 -125.5 226t-241.5 76q-133 0 -227 -65t-142.5 -186t-48.5 -288q0 -173 49 -293.5t142.5 -182
t224.5 -61.5q159 0 254.5 85t120.5 248q5 20 24 20h201q11 0 16 -7t3 -20q-49 -264 -206 -389.5t-407 -125.5q-208 0 -360 89zM388 1700q-11 8 -11 17q0 6 3 12l33 78q6 14 18 14q4 0 10 -3l281 -133l281 134q6 3 10 3q12 0 18 -14l34 -79q2 -4 2 -11q0 -11 -11 -18
l-272 -178q-10 -7 -27 -7h-69q-18 0 -28 7z" />
    <glyph glyph-name="ccaron" unicode="&#x10d;" horiz-adv-x="1064" 
d="M285 41.5q-114 65.5 -173.5 186.5t-59.5 284t60 285.5t175 189.5t274 67q126 0 222.5 -45t153.5 -127t70 -191v-4q0 -18 -20 -18h-180q-20 0 -23 20q-19 99 -78.5 150t-144.5 51q-262 -1 -262 -377q0 -189 65 -282t198 -93q96 0 158 60.5t74 171.5q3 21 22 21h184
q11 0 16.5 -5t4.5 -15q-11 -115 -71 -204.5t-162 -140t-232 -50.5q-157 0 -271 65.5zM210 1330q-11 8 -11 17q0 6 3 12l33 78q6 14 18 14q4 0 10 -3l281 -133l281 134q6 3 10 3q12 0 18 -14l34 -79q2 -4 2 -11q0 -11 -11 -18l-272 -178q-10 -7 -27 -7h-69q-18 0 -28 7z" />
    <glyph glyph-name="Dcaron" unicode="&#x10e;" horiz-adv-x="1364" 
d="M118 0q-21 0 -21 21l12 690l-12 668q0 21 21 21h466q206 0 370 -79t259.5 -237.5t95.5 -387.5q0 -234 -97 -390t-260 -231t-364 -75h-470zM340 715l11 -532h253q124 0 226.5 54.5t164.5 170t62 289.5q0 171 -60.5 288t-164.5 174.5t-236 57.5h-245zM331 1700
q-11 8 -11 17q0 6 3 12l33 78q6 14 18 14q4 0 10 -3l281 -133l281 134q6 3 10 3q12 0 18 -14l34 -79q2 -4 2 -11q0 -11 -11 -18l-272 -178q-10 -7 -27 -7h-69q-18 0 -28 7z" />
    <glyph glyph-name="dcaron" unicode="&#x10f;" horiz-adv-x="1126" 
d="M1036 742l7 -721q0 -21 -21 -21h-201q-11 0 -16.5 6t-4.5 16l5 126q-54 -81 -134 -124.5t-183 -43.5q-138 0 -236.5 69.5t-149 190.5t-50.5 273q0 150 53.5 272.5t153.5 194t234 71.5q101 0 179.5 -40t129.5 -116l-4 484q0 10 5.5 15.5t15.5 5.5h203q21 0 21 -21z
M742.5 235q67.5 94 67.5 278q0 182 -67 279.5t-190 97.5q-127 0 -191.5 -96.5t-64.5 -268.5q0 -182 64.5 -283t189.5 -101q124 0 191.5 94zM1281 1124q-6 -19 -24 -19h-113q-11 0 -16 6.5t-4 16.5l62 397q3 20 23 20h155q11 0 16 -6.5t3 -17.5z" />
    <glyph glyph-name="Dcroat" unicode="&#x110;" horiz-adv-x="1388" 
d="M608 1400q206 0 370 -79t259.5 -237.5t95.5 -387.5q0 -234 -97.5 -390t-260.5 -231t-363 -75h-471q-21 0 -21 21l11 637h-123q-10 0 -16 5.5t-6 15.5v140q0 10 6 16t16 6h121l-9 538q0 21 21 21h467zM628 183q124 0 226 54.5t164 170t62 289.5q0 171 -60 288t-164 174.5
t-236 57.5h-246l-8 -376h351q22 0 22 -22v-140q0 -10 -6 -15.5t-16 -5.5h-352l9 -475h254z" />
    <glyph glyph-name="dcroat" unicode="&#x111;" horiz-adv-x="1126" 
d="M1118 1288q10 0 15.5 -5.5t5.5 -15.5v-126q0 -21 -21 -21h-77l-5 -378l7 -721q0 -21 -21 -21h-201q-11 0 -16.5 6t-4.5 16l5 126q-54 -81 -134 -124.5t-183 -43.5q-138 0 -236.5 69.5t-149 190.5t-50.5 273q0 150 53.5 272.5t153.5 194t234 71.5q101 0 179.5 -40
t129.5 -116l-2 225h-286q-10 0 -15.5 5.5t-5.5 15.5v126q0 21 21 21h285l-1 91q0 10 5.5 15.5t15.5 5.5h203q21 0 21 -21v-91h75zM742.5 235q67.5 94 67.5 278q0 182 -67 279.5t-190 97.5q-127 0 -191.5 -96.5t-64.5 -268.5q0 -182 64.5 -283t189.5 -101q124 0 191.5 94z
" />
    <glyph glyph-name="Emacron" unicode="&#x112;" horiz-adv-x="1103" 
d="M118 0q-21 0 -21 21l11 692l-11 666q0 21 21 21h889q10 0 15.5 -5.5t5.5 -15.5v-141q0 -10 -5.5 -15.5t-15.5 -5.5h-658l-10 -382h615q21 0 21 -22v-140q0 -10 -5.5 -15.5t-15.5 -5.5h-615l10 -469h674q10 0 15.5 -5.5t5.5 -15.5v-141q0 -10 -5.5 -15.5t-15.5 -5.5h-905z
M291 1545q-10 0 -15.5 6t-5.5 16v121q0 10 5.5 15.5t15.5 5.5h576q10 0 16 -5.5t6 -15.5v-121q0 -10 -6 -16t-16 -6h-576z" />
    <glyph glyph-name="emacron" unicode="&#x113;" horiz-adv-x="1108" 
d="M295 474q7 -171 74.5 -253.5t196.5 -82.5q95 0 155 49t82 147q5 19 23 19h189q11 0 16.5 -4.5t4.5 -12.5q-15 -102 -75 -184t-162 -129t-236 -47q-162 0 -277.5 67.5t-174.5 189t-59 279.5q0 162 60.5 284.5t174 190t268.5 67.5q157 0 269 -67t172.5 -192.5t63.5 -298.5
q0 -22 -21 -22h-744zM384 825.5q-64 -67.5 -82 -195.5h499q-5 73 -33.5 132.5t-82 95t-128.5 35.5q-109 0 -173 -67.5zM266 1175q-10 0 -15.5 6t-5.5 16v121q0 10 5.5 15.5t15.5 5.5h576q10 0 16 -5.5t6 -15.5v-121q0 -10 -6 -16t-16 -6h-576z" />
    <glyph glyph-name="Ebreve" unicode="&#x114;" horiz-adv-x="1103" 
d="M118 0q-21 0 -21 21l11 692l-11 666q0 21 21 21h889q10 0 15.5 -5.5t5.5 -15.5v-141q0 -10 -5.5 -15.5t-15.5 -5.5h-658l-10 -382h615q21 0 21 -22v-140q0 -10 -5.5 -15.5t-15.5 -5.5h-615l10 -469h674q10 0 15.5 -5.5t5.5 -15.5v-141q0 -10 -5.5 -15.5t-15.5 -5.5h-905z
M421 1556.5q-70 36.5 -110 100t-45 143.5v2q0 10 5.5 15t14.5 5h118q20 0 23 -21q6 -56 46 -89.5t109 -33.5q65 0 106.5 34t48.5 89q3 21 22 21h118q21 0 21 -19q-5 -81 -44.5 -145.5t-110 -101t-161.5 -36.5t-161 36.5z" />
    <glyph glyph-name="ebreve" unicode="&#x115;" horiz-adv-x="1108" 
d="M295 474q7 -171 74.5 -253.5t196.5 -82.5q95 0 155 49t82 147q5 19 23 19h189q11 0 16.5 -4.5t4.5 -12.5q-15 -102 -75 -184t-162 -129t-236 -47q-162 0 -277.5 67.5t-174.5 189t-59 279.5q0 162 60.5 284.5t174 190t268.5 67.5q157 0 269 -67t172.5 -192.5t63.5 -298.5
q0 -22 -21 -22h-744zM384 825.5q-64 -67.5 -82 -195.5h499q-5 73 -33.5 132.5t-82 95t-128.5 35.5q-109 0 -173 -67.5zM395 1186.5q-70 36.5 -110 100t-45 143.5v2q0 10 5.5 15t14.5 5h118q20 0 23 -21q6 -56 46 -89.5t109 -33.5q65 0 106.5 34t48.5 89q3 21 22 21h118
q21 0 21 -19q-5 -81 -44.5 -145.5t-110 -101t-161.5 -36.5t-161 36.5z" />
    <glyph glyph-name="Edotaccent" unicode="&#x116;" horiz-adv-x="1103" 
d="M118 0q-21 0 -21 21l11 692l-11 666q0 21 21 21h889q10 0 15.5 -5.5t5.5 -15.5v-141q0 -10 -5.5 -15.5t-15.5 -5.5h-658l-10 -382h615q21 0 21 -22v-140q0 -10 -5.5 -15.5t-15.5 -5.5h-615l10 -469h674q10 0 15.5 -5.5t5.5 -15.5v-141q0 -10 -5.5 -15.5t-15.5 -5.5h-905z
M480 1513q-10 0 -15.5 5.5t-5.5 15.5v188q0 10 5.5 15.5t15.5 5.5h202q10 0 15.5 -5.5t5.5 -15.5v-188q0 -10 -5.5 -15.5t-15.5 -5.5h-202z" />
    <glyph glyph-name="edotaccent" unicode="&#x117;" horiz-adv-x="1108" 
d="M295 474q7 -171 74.5 -253.5t196.5 -82.5q95 0 155 49t82 147q5 19 23 19h189q11 0 16.5 -4.5t4.5 -12.5q-15 -102 -75 -184t-162 -129t-236 -47q-162 0 -277.5 67.5t-174.5 189t-59 279.5q0 162 60.5 284.5t174 190t268.5 67.5q157 0 269 -67t172.5 -192.5t63.5 -298.5
q0 -22 -21 -22h-744zM384 825.5q-64 -67.5 -82 -195.5h499q-5 73 -33.5 132.5t-82 95t-128.5 35.5q-109 0 -173 -67.5zM454 1143q-10 0 -15.5 5.5t-5.5 15.5v188q0 10 5.5 15.5t15.5 5.5h202q10 0 15.5 -5.5t5.5 -15.5v-188q0 -10 -5.5 -15.5t-15.5 -5.5h-202z" />
    <glyph glyph-name="Eogonek" unicode="&#x118;" horiz-adv-x="1103" 
d="M1044 -239q10 0 16 -6t6 -16v-117q0 -10 -6 -16t-16 -6h-106q-82 0 -144.5 25t-97 71.5t-34.5 108.5q0 118 109 195h-653q-21 0 -21 21l11 692l-11 666q0 21 21 21h889q10 0 15.5 -5.5t5.5 -15.5v-141q0 -10 -5.5 -15.5t-15.5 -5.5h-658l-10 -382h615q21 0 21 -22v-140
q0 -10 -5.5 -15.5t-15.5 -5.5h-615l10 -469h674q10 0 15.5 -5.5t5.5 -15.5v-141q0 -10 -5.5 -15.5t-15.5 -5.5h-97q-30 -24 -54 -65.5t-24 -85.5q0 -45 30 -66.5t81 -21.5h85z" />
    <glyph glyph-name="eogonek" unicode="&#x119;" horiz-adv-x="1108" 
d="M824 987q112 -67 172.5 -192.5t63.5 -298.5q0 -22 -21 -22h-744q7 -171 74.5 -253.5t196.5 -82.5q95 0 155 49t82 147q5 19 23 19h189q11 0 16.5 -4.5t4.5 -12.5q-19 -126 -104.5 -218.5t-224.5 -125.5q-28 -25 -48.5 -64t-20.5 -79q0 -45 30 -66.5t81 -21.5h85
q10 0 16 -6t6 -16v-117q0 -10 -6 -16t-16 -6h-106q-82 0 -144.5 25t-97 71.5t-34.5 108.5q0 100 80 172q-153 6 -261 75.5t-163.5 188t-55.5 271.5q0 162 60.5 284.5t174 190t268.5 67.5q157 0 269 -67zM801 630q-5 73 -33.5 132.5t-82 95t-128.5 35.5q-109 0 -173 -67.5
t-82 -195.5h499z" />
    <glyph glyph-name="Ecaron" unicode="&#x11a;" horiz-adv-x="1103" 
d="M118 0q-21 0 -21 21l11 692l-11 666q0 21 21 21h889q10 0 15.5 -5.5t5.5 -15.5v-141q0 -10 -5.5 -15.5t-15.5 -5.5h-658l-10 -382h615q21 0 21 -22v-140q0 -10 -5.5 -15.5t-15.5 -5.5h-615l10 -469h674q10 0 15.5 -5.5t5.5 -15.5v-141q0 -10 -5.5 -15.5t-15.5 -5.5h-905z
M246 1700q-11 8 -11 17q0 6 3 12l33 78q6 14 18 14q4 0 10 -3l281 -133l281 134q6 3 10 3q12 0 18 -14l34 -79q2 -4 2 -11q0 -11 -11 -18l-272 -178q-10 -7 -27 -7h-69q-18 0 -28 7z" />
    <glyph glyph-name="ecaron" unicode="&#x11b;" horiz-adv-x="1108" 
d="M295 474q7 -171 74.5 -253.5t196.5 -82.5q95 0 155 49t82 147q5 19 23 19h189q11 0 16.5 -4.5t4.5 -12.5q-15 -102 -75 -184t-162 -129t-236 -47q-162 0 -277.5 67.5t-174.5 189t-59 279.5q0 162 60.5 284.5t174 190t268.5 67.5q157 0 269 -67t172.5 -192.5t63.5 -298.5
q0 -22 -21 -22h-744zM384 825.5q-64 -67.5 -82 -195.5h499q-5 73 -33.5 132.5t-82 95t-128.5 35.5q-109 0 -173 -67.5zM221 1330q-11 8 -11 17q0 6 3 12l33 78q6 14 18 14q4 0 10 -3l281 -133l281 134q6 3 10 3q12 0 18 -14l34 -79q2 -4 2 -11q0 -11 -11 -18l-272 -178
q-10 -7 -27 -7h-69q-18 0 -28 7z" />
    <glyph glyph-name="Gcircumflex" unicode="&#x11c;" horiz-adv-x="1421" 
d="M375 64q-151 91 -235.5 256t-84.5 381q0 219 83 383.5t233 253.5t346 89q244 0 402 -117t212 -336q1 -3 1 -7q0 -8 -5.5 -12.5t-14.5 -4.5h-208q-19 0 -24 18q-34 135 -126.5 204t-235.5 69q-128 0 -220.5 -65.5t-141.5 -188t-49 -290.5q0 -164 51 -285.5t146 -187
t224 -65.5q116 0 200 48t129 138.5t47 215.5h-380q-10 0 -16 6t-6 16v137q0 10 6 15.5t16 5.5h619q21 0 21 -26q2 -365 -164 -553.5t-480 -188.5q-194 0 -345 91zM366 1599q-2 4 -2 11q0 12 10 19l272 179q10 8 28 8h72q17 0 27 -8l272 -179q11 -7 11 -19q0 -7 -2 -11
l-34 -79q-4 -13 -18 -13q-6 0 -10 2l-284 134l-281 -133q-6 -3 -11 -3q-11 0 -17 13z" />
    <glyph glyph-name="gcircumflex" unicode="&#x11d;" horiz-adv-x="1123" 
d="M258.5 71.5q-102.5 66.5 -154.5 183t-52 264.5q0 147 53.5 267t153.5 190t236 70q101 0 179.5 -40.5t129.5 -118.5l-4 121v2q0 20 21 20h197q22 0 22 -21l-6 -501l4 -457q2 -140 -53.5 -240.5t-164.5 -153.5t-266 -53q-129 -2 -230.5 33t-164 108t-71.5 180v4q0 18 20 18
h196q19 0 22 -20q13 -80 73.5 -120.5t161.5 -40.5q119 0 185.5 71t66.5 217v118q-51 -81 -129 -124t-179 -43q-144 0 -246.5 66.5zM743.5 253.5q66.5 88.5 66.5 265.5q0 175 -65.5 270.5t-187.5 96.5q-128 2 -194.5 -92t-66.5 -266q0 -177 65.5 -270t190.5 -93t191.5 88.5z
M206 1229q-2 4 -2 11q0 12 10 19l272 179q10 8 28 8h72q17 0 27 -8l272 -179q11 -7 11 -19q0 -7 -2 -11l-34 -79q-4 -13 -18 -13q-6 0 -10 2l-284 134l-281 -133q-6 -3 -11 -3q-11 0 -17 13z" />
    <glyph glyph-name="Gbreve" unicode="&#x11e;" horiz-adv-x="1421" 
d="M375 64q-151 91 -235.5 256t-84.5 381q0 219 83 383.5t233 253.5t346 89q244 0 402 -117t212 -336q1 -3 1 -7q0 -8 -5.5 -12.5t-14.5 -4.5h-208q-19 0 -24 18q-34 135 -126.5 204t-235.5 69q-128 0 -220.5 -65.5t-141.5 -188t-49 -290.5q0 -164 51 -285.5t146 -187
t224 -65.5q116 0 200 48t129 138.5t47 215.5h-380q-10 0 -16 6t-6 16v137q0 10 6 15.5t16 5.5h619q21 0 21 -26q2 -365 -164 -553.5t-480 -188.5q-194 0 -345 91zM550 1556.5q-70 36.5 -110 100t-45 143.5v2q0 10 5.5 15t14.5 5h118q20 0 23 -21q6 -56 46 -89.5t109 -33.5
q65 0 106.5 34t48.5 89q3 21 22 21h118q21 0 21 -19q-5 -81 -44.5 -145.5t-110 -101t-161.5 -36.5t-161 36.5z" />
    <glyph glyph-name="gbreve" unicode="&#x11f;" horiz-adv-x="1123" 
d="M258.5 71.5q-102.5 66.5 -154.5 183t-52 264.5q0 147 53.5 267t153.5 190t236 70q101 0 179.5 -40.5t129.5 -118.5l-4 121v2q0 20 21 20h197q22 0 22 -21l-6 -501l4 -457q2 -140 -53.5 -240.5t-164.5 -153.5t-266 -53q-129 -2 -230.5 33t-164 108t-71.5 180v4q0 18 20 18
h196q19 0 22 -20q13 -80 73.5 -120.5t161.5 -40.5q119 0 185.5 71t66.5 217v118q-51 -81 -129 -124t-179 -43q-144 0 -246.5 66.5zM743.5 253.5q66.5 88.5 66.5 265.5q0 175 -65.5 270.5t-187.5 96.5q-128 2 -194.5 -92t-66.5 -266q0 -177 65.5 -270t190.5 -93t191.5 88.5z
M390 1186.5q-70 36.5 -110 100t-45 143.5v2q0 10 5.5 15t14.5 5h118q20 0 23 -21q6 -56 46 -89.5t109 -33.5q65 0 106.5 34t48.5 89q3 21 22 21h118q21 0 21 -19q-5 -81 -44.5 -145.5t-110 -101t-161.5 -36.5t-161 36.5z" />
    <glyph glyph-name="Gdotaccent" unicode="&#x120;" horiz-adv-x="1421" 
d="M375 64q-151 91 -235.5 256t-84.5 381q0 219 83 383.5t233 253.5t346 89q244 0 402 -117t212 -336q1 -3 1 -7q0 -8 -5.5 -12.5t-14.5 -4.5h-208q-19 0 -24 18q-34 135 -126.5 204t-235.5 69q-128 0 -220.5 -65.5t-141.5 -188t-49 -290.5q0 -164 51 -285.5t146 -187
t224 -65.5q116 0 200 48t129 138.5t47 215.5h-380q-10 0 -16 6t-6 16v137q0 10 6 15.5t16 5.5h619q21 0 21 -26q2 -365 -164 -553.5t-480 -188.5q-194 0 -345 91zM609 1513q-10 0 -15.5 5.5t-5.5 15.5v188q0 10 5.5 15.5t15.5 5.5h202q10 0 15.5 -5.5t5.5 -15.5v-188
q0 -10 -5.5 -15.5t-15.5 -5.5h-202z" />
    <glyph glyph-name="gdotaccent" unicode="&#x121;" horiz-adv-x="1123" 
d="M258.5 71.5q-102.5 66.5 -154.5 183t-52 264.5q0 147 53.5 267t153.5 190t236 70q101 0 179.5 -40.5t129.5 -118.5l-4 121v2q0 20 21 20h197q22 0 22 -21l-6 -501l4 -457q2 -140 -53.5 -240.5t-164.5 -153.5t-266 -53q-129 -2 -230.5 33t-164 108t-71.5 180v4q0 18 20 18
h196q19 0 22 -20q13 -80 73.5 -120.5t161.5 -40.5q119 0 185.5 71t66.5 217v118q-51 -81 -129 -124t-179 -43q-144 0 -246.5 66.5zM743.5 253.5q66.5 88.5 66.5 265.5q0 175 -65.5 270.5t-187.5 96.5q-128 2 -194.5 -92t-66.5 -266q0 -177 65.5 -270t190.5 -93t191.5 88.5z
M449 1143q-10 0 -15.5 5.5t-5.5 15.5v188q0 10 5.5 15.5t15.5 5.5h202q10 0 15.5 -5.5t5.5 -15.5v-188q0 -10 -5.5 -15.5t-15.5 -5.5h-202z" />
    <glyph glyph-name="uni0122" unicode="&#x122;" horiz-adv-x="1421" 
d="M375 64q-151 91 -235.5 256t-84.5 381q0 219 83 383.5t233 253.5t346 89q244 0 402 -117t212 -336q1 -3 1 -7q0 -8 -5.5 -12.5t-14.5 -4.5h-208q-19 0 -24 18q-34 135 -126.5 204t-235.5 69q-128 0 -220.5 -65.5t-141.5 -188t-49 -290.5q0 -164 51 -285.5t146 -187
t224 -65.5q116 0 200 48t129 138.5t47 215.5h-380q-10 0 -16 6t-6 16v137q0 10 6 15.5t16 5.5h619q21 0 21 -26q2 -365 -164 -553.5t-480 -188.5q-194 0 -345 91zM597 -475q-10 0 -15 6.5t-3 17.5l40 162v176q0 10 6 15.5t16 5.5h147q10 0 15.5 -5.5t5.5 -15.5v-160
q0 -14 -7 -27l-100 -160q-9 -15 -26 -15h-79z" />
    <glyph glyph-name="uni0123" unicode="&#x123;" horiz-adv-x="1123" 
d="M258.5 71.5q-102.5 66.5 -154.5 183t-52 264.5q0 147 53.5 267t153.5 190t236 70q101 0 179.5 -40.5t129.5 -118.5l-4 121v2q0 20 21 20h197q22 0 22 -21l-6 -501l4 -457q2 -140 -53.5 -240.5t-164.5 -153.5t-266 -53q-129 -2 -230.5 33t-164 108t-71.5 180v4q0 18 20 18
h196q19 0 22 -20q13 -80 73.5 -120.5t161.5 -40.5q119 0 185.5 71t66.5 217v118q-51 -81 -129 -124t-179 -43q-144 0 -246.5 66.5zM743.5 253.5q66.5 88.5 66.5 265.5q0 175 -65.5 270.5t-187.5 96.5q-128 2 -194.5 -92t-66.5 -266q0 -177 65.5 -270t190.5 -93t191.5 88.5z
M417 1143q-10 0 -15.5 5.5t-5.5 15.5v158q0 16 10 26l138 164q10 12 26 12h94q11 0 16 -6.5t2 -17.5l-43 -162v-174q0 -10 -5.5 -15.5t-15.5 -5.5h-201z" />
    <glyph glyph-name="Hcircumflex" unicode="&#x124;" horiz-adv-x="1364" 
d="M1256 696l11 -675q0 -21 -20 -21h-212q-21 0 -21 21l9 626v11h-682v-11l9 -626q0 -21 -21 -21h-211q-21 0 -21 21l11 675l-11 683q0 21 21 21h211q21 0 21 -21l-8 -538h680l-8 538q0 21 21 21h212q20 0 20 -21zM339 1599q-2 4 -2 11q0 12 10 19l272 179q10 8 28 8h72
q17 0 27 -8l272 -179q11 -7 11 -19q0 -7 -2 -11l-34 -79q-4 -13 -18 -13q-6 0 -10 2l-284 134l-281 -133q-6 -3 -11 -3q-11 0 -17 13z" />
    <glyph glyph-name="hcircumflex" unicode="&#x125;" horiz-adv-x="1084" 
d="M910.5 946q93.5 -108 92.5 -327l-3 -213l8 -385q0 -21 -21 -21h-206q-21 0 -21 21l8 382l-2 240q-1 117 -51.5 175t-132.5 58q-57 0 -109.5 -29t-93 -85t-61.5 -134l8 -607q0 -21 -21 -21h-199q-21 0 -21 21l9 686l-9 672q0 21 21 21h199q21 0 21 -21l-7 -494
q53 79 135 124t190 45q173 0 266.5 -108zM-138 1599q-2 4 -2 11q0 12 10 19l272 179q10 8 28 8h72q17 0 27 -8l272 -179q11 -7 11 -19q0 -7 -2 -11l-34 -79q-4 -13 -18 -13q-6 0 -10 2l-284 134l-281 -133q-6 -3 -11 -3q-11 0 -17 13z" />
    <glyph glyph-name="Hbar" unicode="&#x126;" horiz-adv-x="1373" 
d="M1349 1150q22 0 22 -22v-140q0 -10 -6 -15.5t-16 -5.5h-83l-2 -271l5 -675q0 -21 -21 -21h-205q-22 0 -22 21l3 521v11h-675v-11l3 -521q0 -21 -21 -21h-205q-22 0 -22 21l6 675l-2 271h-84q-10 0 -16 5.5t-6 15.5v140q0 10 6 16t16 6h82l-2 229q0 21 22 21h205
q21 0 21 -21l-1 -229h671l-1 229q0 21 22 21h205q21 0 21 -21l-2 -229h82zM349 967l-1 -231h677l-1 231h-675z" />
    <glyph glyph-name="hbar" unicode="&#x127;" horiz-adv-x="1050" 
d="M876.5 946q93.5 -108 91.5 -327l-2 -213l7 -385v-2q0 -19 -21 -19h-205q-22 0 -21 21l7 382l-2 240q-1 117 -51 175t-133 58q-57 0 -109.5 -29t-92.5 -85t-61 -134l8 -607q0 -21 -21 -21h-200q-20 0 -20 21l9 686l-6 413h-77q-10 0 -15.5 5.5t-5.5 15.5v126q0 21 21 21
h75l-1 91q0 22 20 22h200q21 0 21 -22l-1 -91h290q21 0 21 -21v-126q0 -21 -21 -21h-293l-3 -235q53 79 134.5 124t189.5 45q174 0 267.5 -108z" />
    <glyph glyph-name="Itilde" unicode="&#x128;" horiz-adv-x="464" 
d="M128 0q-21 0 -21 21l12 686l-12 672q0 21 21 21h209q21 0 21 -21l-12 -672l12 -686q0 -21 -21 -21h-209zM271.5 1551q-32.5 19 -69.5 54q-27 25 -43.5 36t-36.5 11q-57 0 -62 -93q0 -22 -22 -22h-84q-10 0 -15.5 6t-4.5 16q4 105 50.5 168.5t134.5 63.5q45 0 77 -19.5
t70 -55.5q26 -24 41 -34.5t32 -10.5q61 0 66 93q2 22 22 22h84q11 0 16.5 -7t4.5 -20q-5 -107 -50.5 -167t-131.5 -60q-46 0 -78.5 19z" />
    <glyph glyph-name="itilde" unicode="&#x129;" horiz-adv-x="432" 
d="M248.5 1182q-28.5 20 -59.5 56q-18 22 -31.5 33t-28.5 11q-41 0 -44 -93q-2 -22 -22 -22h-74q-10 0 -15.5 6t-5.5 16q4 112 41.5 172t106.5 60q42 0 70 -20t58 -55q19 -23 32.5 -34t28.5 -11q41 0 44 93q2 22 22 22h74q10 0 15.5 -10t4.5 -28q-12 -216 -146 -216
q-42 0 -70.5 20zM113 0q-21 0 -21 21l8 502l-8 486q0 21 21 21h206q21 0 21 -21l-8 -486l8 -502q0 -21 -21 -21h-206z" />
    <glyph glyph-name="Imacron" unicode="&#x12a;" horiz-adv-x="464" 
d="M128 0q-21 0 -21 21l12 686l-12 672q0 21 21 21h209q21 0 21 -21l-12 -672l12 -686q0 -21 -21 -21h-209zM-57 1545q-10 0 -15.5 6t-5.5 16v121q0 10 5.5 15.5t15.5 5.5h576q10 0 16 -5.5t6 -15.5v-121q0 -10 -6 -16t-16 -6h-576z" />
    <glyph glyph-name="imacron" unicode="&#x12b;" horiz-adv-x="432" 
d="M-20 1175q-10 0 -15.5 6t-5.5 16v121q0 10 5.5 15.5t15.5 5.5h472q10 0 15.5 -5.5t5.5 -15.5v-121q0 -10 -5.5 -16t-15.5 -6h-472zM113 0q-21 0 -21 21l8 502l-8 486q0 21 21 21h206q21 0 21 -21l-8 -486l8 -502q0 -21 -21 -21h-206z" />
    <glyph glyph-name="Ibreve" unicode="&#x12c;" horiz-adv-x="464" 
d="M128 0q-21 0 -21 21l12 686l-12 672q0 21 21 21h209q21 0 21 -21l-12 -672l12 -686q0 -21 -21 -21h-209zM73 1556.5q-70 36.5 -110 100t-45 143.5v2q0 10 5.5 15t14.5 5h118q20 0 23 -21q6 -56 46 -89.5t109 -33.5q65 0 106.5 34t48.5 89q3 21 22 21h118q21 0 21 -19
q-5 -81 -44.5 -145.5t-110 -101t-161.5 -36.5t-161 36.5z" />
    <glyph glyph-name="ibreve" unicode="&#x12d;" horiz-adv-x="432" 
d="M23.5 1223.5q-72.5 73.5 -77.5 206.5v2q0 10 5.5 15t14.5 5h109q20 0 22 -22q5 -63 35.5 -96t85.5 -33q53 0 84 33.5t35 95.5q2 22 22 22h109q10 0 15.5 -6.5t4.5 -18.5q-7 -131 -79 -204t-191 -73q-122 0 -194.5 73.5zM113 0q-21 0 -21 21l8 502l-8 486q0 21 21 21h206
q21 0 21 -21l-8 -486l8 -502q0 -21 -21 -21h-206z" />
    <glyph glyph-name="Iogonek" unicode="&#x12e;" horiz-adv-x="464" 
d="M373 -239q10 0 16 -6t6 -16v-117q0 -10 -6 -16t-16 -6h-106q-82 0 -144.5 25t-97 71.5t-34.5 108.5q0 64 32 115t88 87q-4 4 -4 14l12 686l-12 672q0 21 21 21h209q21 0 21 -21l-12 -672l12 -686q0 -21 -21 -21h-82q-30 -24 -54 -65.5t-24 -85.5q0 -45 30 -66.5t81 -21.5
h85z" />
    <glyph glyph-name="iogonek" unicode="&#x12f;" horiz-adv-x="432" 
d="M115 1143q-10 0 -15.5 5.5t-5.5 15.5v188q0 10 5.5 15.5t15.5 5.5h202q10 0 15.5 -5.5t5.5 -15.5v-188q0 -10 -5.5 -15.5t-15.5 -5.5h-202zM354 -239q10 0 16 -6t6 -16v-117q0 -10 -6 -16t-16 -6h-106q-82 0 -144.5 25t-97 71.5t-34.5 108.5q0 65 32.5 116.5t90.5 87.5
q-3 5 -3 12l8 502l-8 486q0 21 21 21h206q21 0 21 -21l-8 -486l8 -502q0 -21 -21 -21h-83q-30 -24 -54 -65.5t-24 -85.5q0 -45 30 -66.5t81 -21.5h85z" />
    <glyph glyph-name="Idotaccent" unicode="&#x130;" horiz-adv-x="464" 
d="M128 0q-21 0 -21 21l12 686l-12 672q0 21 21 21h209q21 0 21 -21l-12 -672l12 -686q0 -21 -21 -21h-209zM132 1513q-10 0 -15.5 5.5t-5.5 15.5v188q0 10 5.5 15.5t15.5 5.5h202q10 0 15.5 -5.5t5.5 -15.5v-188q0 -10 -5.5 -15.5t-15.5 -5.5h-202z" />
    <glyph glyph-name="dotlessi" unicode="&#x131;" horiz-adv-x="432" 
d="M113 0q-21 0 -21 21l8 502l-8 486q0 21 21 21h206q21 0 21 -21l-8 -486l8 -502q0 -21 -21 -21h-206z" />
    <glyph glyph-name="IJ" unicode="&#x132;" horiz-adv-x="1492" 
d="M128 0q-21 0 -21 21l12 686l-12 672q0 21 21 21h209q21 0 21 -21l-12 -672l12 -686q0 -21 -21 -21h-209zM614 105q-113 134 -118 377q0 21 22 21h195q21 0 21 -22q3 -158 52.5 -238t161.5 -80q80 0 126 37.5t65 110t21 188.5l3 361l-10 519q0 21 21 21h217q21 0 21 -21
l-10 -519l3 -362q4 -261 -112 -394t-346 -133q-220 0 -333 134z" />
    <glyph glyph-name="ij" unicode="&#x133;" horiz-adv-x="864" 
d="M113 0q-21 0 -21 21l8 502l-8 486q0 21 21 21h206q21 0 21 -21l-8 -486l8 -502q0 -21 -21 -21h-206zM115 1143q-10 0 -15.5 5.5t-5.5 15.5v188q0 10 5.5 15.5t15.5 5.5h202q10 0 15.5 -5.5t5.5 -15.5v-188q0 -10 -5.5 -15.5t-15.5 -5.5h-202zM545 -340q-21 0 -21 21
l8 661l-8 667q0 21 21 21h206q21 0 21 -21l-8 -667l8 -661q0 -21 -21 -21h-206zM547 1143q-10 0 -15.5 5.5t-5.5 15.5v188q0 10 5.5 15.5t15.5 5.5h202q10 0 15.5 -5.5t5.5 -15.5v-188q0 -10 -5.5 -15.5t-15.5 -5.5h-202z" />
    <glyph glyph-name="Jcircumflex" unicode="&#x134;" horiz-adv-x="1027" 
d="M150 105q-113 134 -118 377q0 21 22 21h195q21 0 21 -22q3 -158 52.5 -238t161.5 -80q80 0 126 37.5t65 110t21 188.5l3 361l-10 519q0 21 21 21h217q21 0 21 -21l-10 -519l3 -362q4 -261 -112 -394t-346 -133q-220 0 -333 134zM476 1599q-2 4 -2 11q0 12 10 19l272 179
q10 8 28 8h72q17 0 27 -8l272 -179q11 -7 11 -19q0 -7 -2 -11l-34 -79q-4 -13 -18 -13q-6 0 -10 2l-284 134l-281 -133q-6 -3 -11 -3q-11 0 -17 13z" />
    <glyph glyph-name="jcircumflex" unicode="&#x135;" horiz-adv-x="432" 
d="M-76 1232q-3 6 -3 12q0 11 10 18l222 176q10 9 26 9h71q15 0 27 -9l222 -176q9 -7 9 -17q0 -5 -3 -13l-38 -74q-6 -12 -17 -12q-7 0 -12 4l-223 129l-222 -129q-5 -4 -13 -4q-11 0 -17 13zM113 -340q-21 0 -21 21l8 661l-8 667q0 21 21 21h206q21 0 21 -21l-8 -667
l8 -661q0 -21 -21 -21h-206z" />
    <glyph glyph-name="uni0136" unicode="&#x136;" horiz-adv-x="1200" 
d="M1188 26q4 -5 4 -12q0 -6 -4.5 -10t-13.5 -4h-254q-15 0 -26 14l-414 630l-138 -165l6 -458q0 -21 -21 -21h-209q-21 0 -21 21l10 690l-10 668q0 21 21 21h209q21 0 21 -21l-8 -582v-20l466 610q8 13 26 13h239q9 0 14 -3.5t5 -8.5q0 -6 -6 -14l-447 -537zM497 -475
q-10 0 -15 6.5t-3 17.5l40 162v176q0 10 6 15.5t16 5.5h147q10 0 15.5 -5.5t5.5 -15.5v-160q0 -14 -7 -27l-100 -160q-9 -15 -26 -15h-79z" />
    <glyph glyph-name="uni0137" unicode="&#x137;" horiz-adv-x="983" 
d="M973 25q3 -6 3 -11q0 -6 -5 -10t-13 -4h-233q-17 0 -25 15l-268 470l-111 -129l4 -335q0 -10 -5.5 -16t-15.5 -6h-200q-21 0 -21 22l9 676l-9 682q0 21 21 21h200q21 0 21 -21l-9 -678l1 -87l347 404q11 12 26 12h217q8 0 13 -3.5t5 -8.5q0 -7 -7 -14l-317 -345z
M390 -475q-10 0 -15 6.5t-3 17.5l40 162v176q0 10 6 15.5t16 5.5h147q10 0 15.5 -5.5t5.5 -15.5v-160q0 -14 -7 -27l-100 -160q-9 -15 -26 -15h-79z" />
    <glyph glyph-name="Lacute" unicode="&#x139;" horiz-adv-x="973" 
d="M118 0q-21 0 -21 21l12 697l-12 661q0 21 21 21h210q21 0 21 -21l-10 -648l11 -548h588q21 0 21 -21v-141q0 -10 -5.5 -15.5t-15.5 -5.5h-820zM64 1505q-3 -1 -8 -1q-13 0 -19 14l-27 78q-2 6 -2 9q0 13 14 19l449 200q6 3 10 3q11 0 18 -15l45 -139q2 -6 2 -9
q0 -14 -16 -19z" />
    <glyph glyph-name="lacute" unicode="&#x13a;" horiz-adv-x="427" 
d="M114 0q-21 0 -21 21l9 684l-9 674q0 21 21 21h200q20 0 20 -21l-9 -673l9 -685q0 -21 -20 -21h-200zM39 1505q-3 -1 -8 -1q-13 0 -19 14l-27 78q-2 6 -2 9q0 13 14 19l449 200q6 3 10 3q11 0 18 -15l45 -139q2 -6 2 -9q0 -14 -16 -19z" />
    <glyph glyph-name="uni013B" unicode="&#x13b;" horiz-adv-x="973" 
d="M118 0q-21 0 -21 21l12 697l-12 661q0 21 21 21h210q21 0 21 -21l-10 -648l11 -548h588q21 0 21 -21v-141q0 -10 -5.5 -15.5t-15.5 -5.5h-820zM432 -475q-10 0 -15 6.5t-3 17.5l40 162v176q0 10 6 15.5t16 5.5h147q10 0 15.5 -5.5t5.5 -15.5v-160q0 -14 -7 -27l-100 -160
q-9 -15 -26 -15h-79z" />
    <glyph glyph-name="uni013C" unicode="&#x13c;" horiz-adv-x="427" 
d="M114 0q-21 0 -21 21l9 684l-9 674q0 21 21 21h200q20 0 20 -21l-9 -673l9 -685q0 -21 -20 -21h-200zM97 -475q-10 0 -15 6.5t-3 17.5l40 162v176q0 10 6 15.5t16 5.5h147q10 0 15.5 -5.5t5.5 -15.5v-160q0 -14 -7 -27l-100 -160q-9 -15 -26 -15h-79z" />
    <glyph glyph-name="Lcaron" unicode="&#x13d;" horiz-adv-x="973" 
d="M118 0q-21 0 -21 21l12 697l-12 661q0 21 21 21h210q21 0 21 -21l-10 -648l11 -548h588q21 0 21 -21v-141q0 -10 -5.5 -15.5t-15.5 -5.5h-820zM606 979q-6 -19 -24 -19h-113q-11 0 -16 6.5t-4 16.5l62 397q3 20 23 20h155q11 0 16 -6.5t3 -17.5z" />
    <glyph glyph-name="lcaron" unicode="&#x13e;" horiz-adv-x="427" 
d="M114 0q-21 0 -21 21l9 684l-9 674q0 21 21 21h200q20 0 20 -21l-9 -673l9 -685q0 -21 -20 -21h-200zM572 1124q-6 -19 -24 -19h-113q-11 0 -16 6.5t-4 16.5l62 397q3 20 23 20h155q11 0 16 -6.5t3 -17.5z" />
    <glyph glyph-name="Ldot" unicode="&#x13f;" horiz-adv-x="973" 
d="M118 0q-21 0 -21 21l12 697l-12 661q0 21 21 21h210q21 0 21 -21l-10 -648l11 -548h588q21 0 21 -21v-141q0 -10 -5.5 -15.5t-15.5 -5.5h-820zM624 672q-10 0 -15.5 5.5t-5.5 15.5v188q0 10 5.5 15.5t15.5 5.5h202q10 0 15.5 -5.5t5.5 -15.5v-188q0 -10 -5.5 -15.5
t-15.5 -5.5h-202z" />
    <glyph glyph-name="ldot" unicode="&#x140;" horiz-adv-x="671" 
d="M114 0q-21 0 -21 21l9 684l-9 674q0 21 21 21h200q20 0 20 -21l-9 -673l9 -685q0 -21 -20 -21h-200zM449 517q-10 0 -16 5.5t-6 15.5v188q0 10 6 15.5t16 5.5h201q10 0 15.5 -5.5t5.5 -15.5v-188q0 -10 -5.5 -15.5t-15.5 -5.5h-201z" />
    <glyph glyph-name="Lslash" unicode="&#x141;" horiz-adv-x="984" 
d="M648 893l8 2q16 0 16 -19v-141q0 -18 -17 -24l-283 -91l8 -437h589q10 0 15.5 -5.5t5.5 -15.5v-141q0 -10 -5.5 -15.5t-15.5 -5.5h-821q-21 0 -21 21l9 523l-107 -34q-6 -2 -9 -2q-16 0 -16 19v141q0 18 18 24l116 37l-11 650q0 21 21 21h211q21 0 21 -21l-9 -574z" />
    <glyph glyph-name="lslash" unicode="&#x142;" horiz-adv-x="485" 
d="M421 755q5 4 12 4q6 0 10 -5.5t4 -13.5v-137q0 -18 -16 -25l-75 -40l7 -517q0 -21 -21 -21h-199q-21 0 -21 21l5 395l-63 -34q-6 -3 -12 -3t-10 5t-4 13v137q0 18 16 25l76 40l1 106l-9 674q0 21 21 21h199q21 0 21 -21l-9 -660z" />
    <glyph glyph-name="Nacute" unicode="&#x143;" horiz-adv-x="1368" 
d="M118 0q-21 0 -21 21l10 685l-10 673q0 21 21 21h256q17 0 26 -15l648 -1065l-9 471l-1 588q0 10 6 15.5t16 5.5h190q21 0 21 -21l-10 -673l10 -685q0 -21 -21 -21h-267q-17 0 -26 15l-638 1054l10 -499l1 -549q0 -10 -6 -15.5t-16 -5.5h-190zM518 1505q-3 -1 -8 -1
q-13 0 -19 14l-27 78q-2 6 -2 9q0 13 14 19l449 200q6 3 10 3q11 0 18 -15l45 -139q2 -6 2 -9q0 -14 -16 -19z" />
    <glyph glyph-name="nacute" unicode="&#x144;" horiz-adv-x="1086" 
d="M1004 439l6 -418q0 -21 -22 -21h-201q-21 0 -21 21l5 418v204q0 112 -52 172t-137 60q-62 0 -116.5 -35.5t-91 -106.5t-46.5 -173v-121l4 -418q0 -21 -22 -21h-204q-21 0 -21 21l8 460l-5 528q0 21 21 21h190q22 0 21 -22l-4 -133q53 79 140.5 129t196.5 50
q108 0 187 -47t121.5 -138t42.5 -220v-210zM373 1135q-3 -1 -8 -1q-13 0 -19 14l-27 78q-2 6 -2 9q0 13 14 19l449 200q6 3 10 3q11 0 18 -15l45 -139q2 -6 2 -9q0 -14 -16 -19z" />
    <glyph glyph-name="uni0145" unicode="&#x145;" horiz-adv-x="1368" 
d="M118 0q-21 0 -21 21l10 685l-10 673q0 21 21 21h256q17 0 26 -15l648 -1065l-9 471l-1 588q0 10 6 15.5t16 5.5h190q21 0 21 -21l-10 -673l10 -685q0 -21 -21 -21h-267q-17 0 -26 15l-638 1054l10 -499l1 -549q0 -10 -6 -15.5t-16 -5.5h-190zM568 -475q-10 0 -15 6.5
t-3 17.5l40 162v176q0 10 6 15.5t16 5.5h147q10 0 15.5 -5.5t5.5 -15.5v-160q0 -14 -7 -27l-100 -160q-9 -15 -26 -15h-79z" />
    <glyph glyph-name="uni0146" unicode="&#x146;" horiz-adv-x="1086" 
d="M1004 439l6 -418q0 -21 -22 -21h-201q-21 0 -21 21l5 418v204q0 112 -52 172t-137 60q-62 0 -116.5 -35.5t-91 -106.5t-46.5 -173v-121l4 -418q0 -21 -22 -21h-204q-21 0 -21 21l8 460l-5 528q0 21 21 21h190q22 0 21 -22l-4 -133q53 79 140.5 129t196.5 50
q108 0 187 -47t121.5 -138t42.5 -220v-210zM432 -475q-10 0 -15 6.5t-3 17.5l40 162v176q0 10 6 15.5t16 5.5h147q10 0 15.5 -5.5t5.5 -15.5v-160q0 -14 -7 -27l-100 -160q-9 -15 -26 -15h-79z" />
    <glyph glyph-name="Ncaron" unicode="&#x147;" horiz-adv-x="1368" 
d="M118 0q-21 0 -21 21l10 685l-10 673q0 21 21 21h256q17 0 26 -15l648 -1065l-9 471l-1 588q0 10 6 15.5t16 5.5h190q21 0 21 -21l-10 -673l10 -685q0 -21 -21 -21h-267q-17 0 -26 15l-638 1054l10 -499l1 -549q0 -10 -6 -15.5t-16 -5.5h-190zM358 1700q-11 8 -11 17
q0 6 3 12l33 78q6 14 18 14q4 0 10 -3l281 -133l281 134q6 3 10 3q12 0 18 -14l34 -79q2 -4 2 -11q0 -11 -11 -18l-272 -178q-10 -7 -27 -7h-69q-18 0 -28 7z" />
    <glyph glyph-name="ncaron" unicode="&#x148;" horiz-adv-x="1086" 
d="M1004 439l6 -418q0 -21 -22 -21h-201q-21 0 -21 21l5 418v204q0 112 -52 172t-137 60q-62 0 -116.5 -35.5t-91 -106.5t-46.5 -173v-121l4 -418q0 -21 -22 -21h-204q-21 0 -21 21l8 460l-5 528q0 21 21 21h190q22 0 21 -22l-4 -133q53 79 140.5 129t196.5 50
q108 0 187 -47t121.5 -138t42.5 -220v-210zM213 1330q-11 8 -11 17q0 6 3 12l33 78q6 14 18 14q4 0 10 -3l281 -133l281 134q6 3 10 3q12 0 18 -14l34 -79q2 -4 2 -11q0 -11 -11 -18l-272 -178q-10 -7 -27 -7h-69q-18 0 -28 7z" />
    <glyph glyph-name="Eng" unicode="&#x14a;" horiz-adv-x="1362" 
d="M118 0q-21 0 -21 21l4 685l-4 673q0 21 22 21h253q18 0 26 -14l642 -971l-4 264l-1 700q0 10 6 15.5t16 5.5h187q21 0 21 -21l-4 -582l4 -846q0 -109 -41.5 -179t-108.5 -101.5t-146 -31.5q-77 0 -158 15q-20 5 -20 24v126q0 11 6.5 16t17.5 3q42 -9 99 -9q59 0 90.5 37
t31.5 121v28l-717 1087l7 -405l1 -661q0 -10 -6 -15.5t-16 -5.5h-187z" />
    <glyph glyph-name="eng" unicode="&#x14b;" horiz-adv-x="1083" 
d="M544 -344q-19 3 -19 23v125q0 11 6 16t17 2q44 -9 100 -9q122 0 122 161v669q0 112 -51 172t-136 60q-63 0 -117 -35.5t-90.5 -106.5t-46.5 -173v-121l3 -418q0 -21 -21 -21h-204q-22 0 -22 21l4 460l-1 528q0 10 6 15.5t16 5.5h190q22 0 21 -22l-5 -133q54 79 141.5 129
t196.5 50q108 0 187.5 -47t122.5 -138t43 -220v-696q0 -109 -43 -179t-111.5 -101.5t-150.5 -32.5q-70 0 -158 16z" />
    <glyph glyph-name="Omacron" unicode="&#x14c;" horiz-adv-x="1485" 
d="M380.5 63.5q-155.5 90.5 -240.5 255t-85 379.5q0 221 84.5 386t240 254t362.5 89t362.5 -88.5t241 -253.5t85.5 -388q0 -215 -85.5 -379t-242 -254.5t-361.5 -90.5q-206 0 -361.5 90.5zM977 226q98 64 149.5 184.5t51.5 286.5q0 167 -51.5 288.5t-149.5 187t-235 65.5
q-138 0 -235.5 -64.5t-148.5 -186t-51 -290.5q0 -165 52 -285.5t150 -185t234 -64.5t234 64zM454 1545q-10 0 -15.5 6t-5.5 16v121q0 10 5.5 15.5t15.5 5.5h576q10 0 16 -5.5t6 -15.5v-121q0 -10 -6 -16t-16 -6h-576z" />
    <glyph glyph-name="omacron" unicode="&#x14d;" horiz-adv-x="1120" 
d="M287 42q-115 66 -175 187t-60 284t60 285t175 189t275 67t273.5 -66t173 -187t59.5 -284t-59.5 -285t-173.5 -189t-273 -67q-160 0 -275 66zM757 231.5q64 93.5 64 281.5q0 186 -65.5 282.5t-195.5 96.5q-262 -3 -262 -381q0 -373 264 -373q131 0 195 93.5zM271 1175
q-10 0 -15.5 6t-5.5 16v121q0 10 5.5 15.5t15.5 5.5h576q10 0 16 -5.5t6 -15.5v-121q0 -10 -6 -16t-16 -6h-576z" />
    <glyph glyph-name="Obreve" unicode="&#x14e;" horiz-adv-x="1485" 
d="M380.5 63.5q-155.5 90.5 -240.5 255t-85 379.5q0 221 84.5 386t240 254t362.5 89t362.5 -88.5t241 -253.5t85.5 -388q0 -215 -85.5 -379t-242 -254.5t-361.5 -90.5q-206 0 -361.5 90.5zM977 226q98 64 149.5 184.5t51.5 286.5q0 167 -51.5 288.5t-149.5 187t-235 65.5
q-138 0 -235.5 -64.5t-148.5 -186t-51 -290.5q0 -165 52 -285.5t150 -185t234 -64.5t234 64zM584 1556.5q-70 36.5 -110 100t-45 143.5v2q0 10 5.5 15t14.5 5h118q20 0 23 -21q6 -56 46 -89.5t109 -33.5q65 0 106.5 34t48.5 89q3 21 22 21h118q21 0 21 -19
q-5 -81 -44.5 -145.5t-110 -101t-161.5 -36.5t-161 36.5z" />
    <glyph glyph-name="obreve" unicode="&#x14f;" horiz-adv-x="1120" 
d="M287 42q-115 66 -175 187t-60 284t60 285t175 189t275 67t273.5 -66t173 -187t59.5 -284t-59.5 -285t-173.5 -189t-273 -67q-160 0 -275 66zM757 231.5q64 93.5 64 281.5q0 186 -65.5 282.5t-195.5 96.5q-262 -3 -262 -381q0 -373 264 -373q131 0 195 93.5zM401 1186.5
q-70 36.5 -110 100t-45 143.5v2q0 10 5.5 15t14.5 5h118q20 0 23 -21q6 -56 46 -89.5t109 -33.5q65 0 106.5 34t48.5 89q3 21 22 21h118q21 0 21 -19q-5 -81 -44.5 -145.5t-110 -101t-161.5 -36.5t-161 36.5z" />
    <glyph glyph-name="Ohungarumlaut" unicode="&#x150;" horiz-adv-x="1485" 
d="M380.5 63.5q-155.5 90.5 -240.5 255t-85 379.5q0 221 84.5 386t240 254t362.5 89t362.5 -88.5t241 -253.5t85.5 -388q0 -215 -85.5 -379t-242 -254.5t-361.5 -90.5q-206 0 -361.5 90.5zM977 226q98 64 149.5 184.5t51.5 286.5q0 167 -51.5 288.5t-149.5 187t-235 65.5
q-138 0 -235.5 -64.5t-148.5 -186t-51 -290.5q0 -165 52 -285.5t150 -185t234 -64.5t234 64zM582 1538q-8 -8 -16 -8t-14 6l-53 45q-8 8 -8 16q0 5 5 13l228 320q6 10 15 10q8 0 15 -7l92 -89q7 -7 7 -15t-7 -16zM901 1530q-8 -8 -15 -8q-6 0 -15 7l-52 43q-8 7 -8 16
q0 8 5 14l228 319q6 11 16 11q6 0 14 -8l91 -88q8 -8 8 -15q0 -8 -7 -15z" />
    <glyph glyph-name="ohungarumlaut" unicode="&#x151;" horiz-adv-x="1120" 
d="M287 42q-115 66 -175 187t-60 284t60 285t175 189t275 67t273.5 -66t173 -187t59.5 -284t-59.5 -285t-173.5 -189t-273 -67q-160 0 -275 66zM757 231.5q64 93.5 64 281.5q0 186 -65.5 282.5t-195.5 96.5q-262 -3 -262 -381q0 -373 264 -373q131 0 195 93.5zM399 1168
q-8 -8 -16 -8t-14 6l-53 45q-8 8 -8 16q0 5 5 13l228 320q6 10 15 10q8 0 15 -7l92 -89q7 -7 7 -15t-7 -16zM718 1160q-8 -8 -15 -8q-6 0 -15 7l-52 43q-8 7 -8 16q0 8 5 14l228 319q6 11 16 11q6 0 14 -8l91 -88q8 -8 8 -15q0 -8 -7 -15z" />
    <glyph glyph-name="OE" unicode="&#x152;" horiz-adv-x="2023" 
d="M1952 183q10 0 16 -5.5t6 -15.5v-141q0 -10 -6 -15.5t-16 -5.5h-1167q-200 0 -363 75t-260.5 231t-97.5 390q0 229 95.5 387.5t259.5 237.5t370 79h1147q10 0 16 -5.5t6 -15.5v-141q0 -10 -6 -15.5t-16 -5.5h-660l-5 -382h612q10 0 16 -6t6 -16v-140q0 -10 -6 -15.5
t-16 -5.5h-612l5 -469h676zM1024 183l9 528l-9 506h-247q-132 0 -236 -57.5t-164 -174.5t-60 -288q0 -174 62 -289.5t164 -170t226 -54.5h255z" />
    <glyph glyph-name="oe" unicode="&#x153;" horiz-adv-x="1881" 
d="M278.5 42q-111.5 66 -169.5 187t-58 284t58 285t170 189t267 67q141 0 244.5 -62.5t157.5 -179.5q56 115 157.5 178.5t237.5 63.5q152 0 261 -67t167.5 -192.5t61.5 -298.5q0 -22 -21 -22h-744q7 -171 74.5 -253.5t196.5 -82.5q95 0 155 49t82 147q6 19 24 19h188
q11 0 16.5 -4.5t4.5 -13.5q-15 -102 -73.5 -183.5t-157 -128.5t-227.5 -47q-145 0 -247.5 62.5t-157.5 177.5q-55 -115 -157 -177.5t-243 -62.5q-156 0 -267.5 66zM1157.5 825.5q-64.5 -67.5 -82.5 -195.5h499q-5 73 -33.5 132.5t-82 95t-128.5 35.5q-108 0 -172.5 -67.5z
M755 231.5q64 93.5 64 281.5q0 186 -65 282.5t-195 96.5q-262 -3 -262 -381q0 -373 264 -373q130 0 194 93.5z" />
    <glyph glyph-name="Racute" unicode="&#x154;" horiz-adv-x="1244" 
d="M1201 26q5 -8 5 -13q0 -13 -19 -13h-237q-17 0 -26 15l-156 258l-177 276h-250l8 -528q0 -21 -21 -21h-210q-21 0 -21 21l10 690l-10 668q0 21 21 21h526q255 0 394 -108t139 -316q0 -160 -86 -262t-242 -140zM346 1220l-7 -478v-13h325q126 0 201 59t75 183
q0 123 -73 186t-208 63h-313zM448 1505q-3 -1 -8 -1q-13 0 -19 14l-27 78q-2 6 -2 9q0 13 14 19l449 200q6 3 10 3q11 0 18 -15l45 -139q2 -6 2 -9q0 -14 -16 -19z" />
    <glyph glyph-name="racute" unicode="&#x155;" horiz-adv-x="767" 
d="M104 0q-21 0 -21 21l7 500l-7 488q0 21 21 21h198q22 0 21 -22l-6 -163q56 94 151 144t208 50q26 0 51 -5q19 -3 19 -24v-137q0 -22 -22 -20q-21 3 -45 3q-98 0 -176.5 -38t-126 -114t-53.5 -188l3 -495q0 -21 -21 -21h-201zM240 1135q-3 -1 -8 -1q-13 0 -19 14l-27 78
q-2 6 -2 9q0 13 14 19l449 200q6 3 10 3q11 0 18 -15l45 -139q2 -6 2 -9q0 -14 -16 -19z" />
    <glyph glyph-name="uni0156" unicode="&#x156;" horiz-adv-x="1244" 
d="M1201 26q5 -8 5 -13q0 -13 -19 -13h-237q-17 0 -26 15l-156 258l-177 276h-250l8 -528q0 -21 -21 -21h-210q-21 0 -21 21l10 690l-10 668q0 21 21 21h526q255 0 394 -108t139 -316q0 -160 -86 -262t-242 -140zM346 1220l-7 -478v-13h325q126 0 201 59t75 183
q0 123 -73 186t-208 63h-313zM523 -475q-10 0 -15 6.5t-3 17.5l40 162v176q0 10 6 15.5t16 5.5h147q10 0 15.5 -5.5t5.5 -15.5v-160q0 -14 -7 -27l-100 -160q-9 -15 -26 -15h-79z" />
    <glyph glyph-name="uni0157" unicode="&#x157;" horiz-adv-x="767" 
d="M104 0q-21 0 -21 21l7 500l-7 488q0 21 21 21h198q22 0 21 -22l-6 -163q56 94 151 144t208 50q26 0 51 -5q19 -3 19 -24v-137q0 -22 -22 -20q-21 3 -45 3q-98 0 -176.5 -38t-126 -114t-53.5 -188l3 -495q0 -21 -21 -21h-201zM89 -475q-10 0 -15 6.5t-3 17.5l40 162v176
q0 10 6 15.5t16 5.5h147q10 0 15.5 -5.5t5.5 -15.5v-160q0 -14 -7 -27l-100 -160q-9 -15 -26 -15h-79z" />
    <glyph glyph-name="Rcaron" unicode="&#x158;" horiz-adv-x="1244" 
d="M1201 26q5 -8 5 -13q0 -13 -19 -13h-237q-17 0 -26 15l-156 258l-177 276h-250l8 -528q0 -21 -21 -21h-210q-21 0 -21 21l10 690l-10 668q0 21 21 21h526q255 0 394 -108t139 -316q0 -160 -86 -262t-242 -140zM346 1220l-7 -478v-13h325q126 0 201 59t75 183
q0 123 -73 186t-208 63h-313zM283 1700q-11 8 -11 17q0 6 3 12l33 78q6 14 18 14q4 0 10 -3l281 -133l281 134q6 3 10 3q12 0 18 -14l34 -79q2 -4 2 -11q0 -11 -11 -18l-272 -178q-10 -7 -27 -7h-69q-18 0 -28 7z" />
    <glyph glyph-name="rcaron" unicode="&#x159;" horiz-adv-x="767" 
d="M104 0q-21 0 -21 21l7 500l-7 488q0 21 21 21h198q22 0 21 -22l-6 -163q56 94 151 144t208 50q26 0 51 -5q19 -3 19 -24v-137q0 -22 -22 -20q-21 3 -45 3q-98 0 -176.5 -38t-126 -114t-53.5 -188l3 -495q0 -21 -21 -21h-201zM81 1330q-11 8 -11 17q0 6 3 12l33 78
q6 14 18 14q4 0 10 -3l281 -133l281 134q6 3 10 3q12 0 18 -14l34 -79q2 -4 2 -11q0 -11 -11 -18l-272 -178q-10 -7 -27 -7h-69q-18 0 -28 7z" />
    <glyph glyph-name="Sacute" unicode="&#x15a;" horiz-adv-x="1262" 
d="M335.5 26.5q-133.5 54.5 -209 162.5t-82.5 266v2q0 20 21 20h212q21 0 23 -20q15 -148 96 -224t259 -76q152 0 235.5 55.5t83.5 172.5q0 75 -50 118.5t-124.5 65.5t-205.5 47q-166 31 -270.5 66t-178 114.5t-73.5 218.5q0 128 64.5 221t185 142t286.5 49
q249 0 396.5 -103.5t175.5 -315.5v-4q0 -19 -20 -19h-213q-20 0 -23 21q-12 115 -94 174.5t-230 59.5q-132 0 -209.5 -50.5t-77.5 -151.5q0 -68 48 -108.5t119.5 -60.5t200.5 -44q171 -31 278 -66.5t183 -117t76 -225.5q0 -143 -70 -242.5t-198 -150.5t-300 -51
q-181 0 -314.5 54.5zM451 1505q-3 -1 -8 -1q-13 0 -19 14l-27 78q-2 6 -2 9q0 13 14 19l449 200q6 3 10 3q11 0 18 -15l45 -139q2 -6 2 -9q0 -14 -16 -19z" />
    <glyph glyph-name="sacute" unicode="&#x15b;" horiz-adv-x="1037" 
d="M287.5 17q-107.5 40 -169.5 119.5t-68 194.5v2q0 19 21 19h191q21 0 21 -21q7 -103 71 -152.5t186 -49.5q102 0 159.5 40.5t57.5 114.5q0 48 -35 76t-88.5 41.5t-146.5 28.5q-130 21 -213 46.5t-142 88t-59 174.5q0 101 52 171.5t148.5 106.5t227.5 36q196 0 316 -79.5
t133 -234.5v-2q0 -20 -21 -20h-182q-20 0 -23 20q-11 82 -68.5 124.5t-157.5 42.5q-93 0 -144.5 -37t-51.5 -111q0 -46 34 -72t85 -38t143 -26q134 -21 218 -46t144.5 -89t60.5 -181q0 -101 -59 -175t-161 -113t-231 -39q-141 0 -248.5 40zM343 1135q-3 -1 -8 -1
q-13 0 -19 14l-27 78q-2 6 -2 9q0 13 14 19l449 200q6 3 10 3q11 0 18 -15l45 -139q2 -6 2 -9q0 -14 -16 -19z" />
    <glyph glyph-name="Scircumflex" unicode="&#x15c;" horiz-adv-x="1262" 
d="M335.5 26.5q-133.5 54.5 -209 162.5t-82.5 266v2q0 20 21 20h212q21 0 23 -20q15 -148 96 -224t259 -76q152 0 235.5 55.5t83.5 172.5q0 75 -50 118.5t-124.5 65.5t-205.5 47q-166 31 -270.5 66t-178 114.5t-73.5 218.5q0 128 64.5 221t185 142t286.5 49
q249 0 396.5 -103.5t175.5 -315.5v-4q0 -19 -20 -19h-213q-20 0 -23 21q-12 115 -94 174.5t-230 59.5q-132 0 -209.5 -50.5t-77.5 -151.5q0 -68 48 -108.5t119.5 -60.5t200.5 -44q171 -31 278 -66.5t183 -117t76 -225.5q0 -143 -70 -242.5t-198 -150.5t-300 -51
q-181 0 -314.5 54.5zM282 1599q-2 4 -2 11q0 12 10 19l272 179q10 8 28 8h72q17 0 27 -8l272 -179q11 -7 11 -19q0 -7 -2 -11l-34 -79q-4 -13 -18 -13q-6 0 -10 2l-284 134l-281 -133q-6 -3 -11 -3q-11 0 -17 13z" />
    <glyph glyph-name="scircumflex" unicode="&#x15d;" horiz-adv-x="1037" 
d="M287.5 17q-107.5 40 -169.5 119.5t-68 194.5v2q0 19 21 19h191q21 0 21 -21q7 -103 71 -152.5t186 -49.5q102 0 159.5 40.5t57.5 114.5q0 48 -35 76t-88.5 41.5t-146.5 28.5q-130 21 -213 46.5t-142 88t-59 174.5q0 101 52 171.5t148.5 106.5t227.5 36q196 0 316 -79.5
t133 -234.5v-2q0 -20 -21 -20h-182q-20 0 -23 20q-11 82 -68.5 124.5t-157.5 42.5q-93 0 -144.5 -37t-51.5 -111q0 -46 34 -72t85 -38t143 -26q134 -21 218 -46t144.5 -89t60.5 -181q0 -101 -59 -175t-161 -113t-231 -39q-141 0 -248.5 40zM174 1229q-2 4 -2 11q0 12 10 19
l272 179q10 8 28 8h72q17 0 27 -8l272 -179q11 -7 11 -19q0 -7 -2 -11l-34 -79q-4 -13 -18 -13q-6 0 -10 2l-284 134l-281 -133q-6 -3 -11 -3q-11 0 -17 13z" />
    <glyph glyph-name="Scedilla" unicode="&#x15e;" horiz-adv-x="1262" 
d="M1156 186q-62 -96 -175 -149.5t-267 -62.5l-68 -305q-4 -21 -25 -16l-181 34q-7 1 -11.5 6t-4.5 11q0 7 2 10l108 264q-224 24 -352 145.5t-138 331.5v2q0 20 21 20h212q21 0 23 -20q15 -148 96 -224t259 -76q152 0 235.5 55.5t83.5 172.5q0 75 -50 118.5t-124.5 65.5
t-205.5 47q-166 31 -270.5 66t-178 114.5t-73.5 218.5q0 128 64.5 221t185 142t286.5 49q249 0 396.5 -103.5t175.5 -315.5v-4q0 -19 -20 -19h-213q-20 0 -23 21q-12 115 -94 174.5t-230 59.5q-132 0 -209.5 -50.5t-77.5 -151.5q0 -68 48 -108.5t119.5 -60.5t200.5 -44
q171 -31 278 -66.5t183 -117t76 -225.5q0 -134 -62 -230z" />
    <glyph glyph-name="scedilla" unicode="&#x15f;" horiz-adv-x="1037" 
d="M938.5 142.5q-48.5 -69.5 -134 -110.5t-196.5 -52l-69 -311q-4 -21 -25 -16l-181 34q-7 1 -11.5 6t-4.5 11q0 7 2 10l110 269q-170 22 -271 110.5t-108 237.5v2q0 19 21 19h191q21 0 21 -21q7 -103 71 -152.5t186 -49.5q102 0 159.5 40.5t57.5 114.5q0 48 -35 76
t-88.5 41.5t-146.5 28.5q-130 21 -213 46.5t-142 88t-59 174.5q0 101 52 171.5t148.5 106.5t227.5 36q196 0 316 -79.5t133 -234.5v-2q0 -20 -21 -20h-182q-20 0 -23 20q-11 82 -68.5 124.5t-157.5 42.5q-93 0 -144.5 -37t-51.5 -111q0 -46 34 -72t85 -38t143 -26
q134 -21 218 -46t144.5 -89t60.5 -181q0 -92 -48.5 -161.5z" />
    <glyph glyph-name="Scaron" unicode="&#x160;" horiz-adv-x="1262" 
d="M335.5 26.5q-133.5 54.5 -209 162.5t-82.5 266v2q0 20 21 20h212q21 0 23 -20q15 -148 96 -224t259 -76q152 0 235.5 55.5t83.5 172.5q0 75 -50 118.5t-124.5 65.5t-205.5 47q-166 31 -270.5 66t-178 114.5t-73.5 218.5q0 128 64.5 221t185 142t286.5 49
q249 0 396.5 -103.5t175.5 -315.5v-4q0 -19 -20 -19h-213q-20 0 -23 21q-12 115 -94 174.5t-230 59.5q-132 0 -209.5 -50.5t-77.5 -151.5q0 -68 48 -108.5t119.5 -60.5t200.5 -44q171 -31 278 -66.5t183 -117t76 -225.5q0 -143 -70 -242.5t-198 -150.5t-300 -51
q-181 0 -314.5 54.5zM291 1700q-11 8 -11 17q0 6 3 12l33 78q6 14 18 14q4 0 10 -3l281 -133l281 134q6 3 10 3q12 0 18 -14l34 -79q2 -4 2 -11q0 -11 -11 -18l-272 -178q-10 -7 -27 -7h-69q-18 0 -28 7z" />
    <glyph glyph-name="scaron" unicode="&#x161;" horiz-adv-x="1037" 
d="M287.5 17q-107.5 40 -169.5 119.5t-68 194.5v2q0 19 21 19h191q21 0 21 -21q7 -103 71 -152.5t186 -49.5q102 0 159.5 40.5t57.5 114.5q0 48 -35 76t-88.5 41.5t-146.5 28.5q-130 21 -213 46.5t-142 88t-59 174.5q0 101 52 171.5t148.5 106.5t227.5 36q196 0 316 -79.5
t133 -234.5v-2q0 -20 -21 -20h-182q-20 0 -23 20q-11 82 -68.5 124.5t-157.5 42.5q-93 0 -144.5 -37t-51.5 -111q0 -46 34 -72t85 -38t143 -26q134 -21 218 -46t144.5 -89t60.5 -181q0 -101 -59 -175t-161 -113t-231 -39q-141 0 -248.5 40zM184 1330q-11 8 -11 17q0 6 3 12
l33 78q6 14 18 14q4 0 10 -3l281 -133l281 134q6 3 10 3q12 0 18 -14l34 -79q2 -4 2 -11q0 -11 -11 -18l-272 -178q-10 -7 -27 -7h-69q-18 0 -28 7z" />
    <glyph glyph-name="uni0162" unicode="&#x162;" horiz-adv-x="1103" 
d="M1060 1400q10 0 16 -5.5t6 -15.5v-141q0 -22 -22 -22h-381l-12 -520l14 -675v-2q0 -19 -21 -19h-22l-71 -331q-4 -21 -25 -16l-181 34q-7 1 -11.5 6t-4.5 11q0 7 2 10l112 286h-16q-22 0 -21 21l14 675l-12 520h-382q-10 0 -15.5 6t-5.5 16v141q0 10 5.5 15.5t15.5 5.5
h1018z" />
    <glyph glyph-name="uni0163" unicode="&#x163;" horiz-adv-x="694" 
d="M405 857v-118l2 -441q0 -78 29.5 -110t89.5 -32q53 0 105 13q3 1 8 1q16 0 16 -19v-117q0 -20 -16 -24q-80 -25 -147 -28l-70 -313q-4 -21 -25 -16l-181 34q-7 1 -11.5 6t-4.5 11q0 7 2 10l121 297q-73 33 -114.5 102.5t-41.5 178.5l1 443v122h-112q-10 0 -15.5 6
t-5.5 16v130q0 10 5.5 15.5t15.5 5.5h111l-3 237q0 21 22 21h202q22 0 22 -21l-3 -237h228q10 0 16 -5.5t6 -15.5v-130q0 -22 -22 -22h-230z" />
    <glyph glyph-name="Tcaron" unicode="&#x164;" horiz-adv-x="1103" 
d="M443 0q-22 0 -21 21l14 675l-12 520h-382q-10 0 -15.5 6t-5.5 16v141q0 10 5.5 15.5t15.5 5.5h1018q10 0 16 -5.5t6 -15.5v-141q0 -22 -22 -22h-381l-12 -520l14 -675v-2q0 -19 -21 -19h-217zM217 1700q-11 8 -11 17q0 6 3 12l33 78q6 14 18 14q4 0 10 -3l281 -133
l281 134q6 3 10 3q12 0 18 -14l34 -79q2 -4 2 -11q0 -11 -11 -18l-272 -178q-10 -7 -27 -7h-69q-18 0 -28 7z" />
    <glyph glyph-name="tcaron" unicode="&#x165;" horiz-adv-x="694" 
d="M254 56.5q-87 74.5 -87 235.5l1 443v122h-112q-10 0 -15.5 6t-5.5 16v130q0 10 5.5 15.5t15.5 5.5h111l-3 237q0 21 22 21h202q22 0 22 -21l-3 -237h228q10 0 16 -5.5t6 -15.5v-130q0 -22 -22 -22h-230v-118l2 -441q0 -78 29.5 -110t89.5 -32q53 0 105 13q3 1 8 1
q16 0 16 -19v-117q0 -20 -16 -24q-86 -28 -164 -28q-134 0 -221 74.5zM635 1124q-6 -19 -24 -19h-113q-11 0 -16 6.5t-4 16.5l62 397q3 20 23 20h155q11 0 16 -6.5t3 -17.5z" />
    <glyph glyph-name="Tbar" unicode="&#x166;" horiz-adv-x="1103" 
d="M1060 1400q10 0 16 -5.5t6 -15.5v-141q0 -22 -22 -22h-381l-11 -467h227q10 0 15.5 -5.5t5.5 -15.5v-140q0 -10 -5.5 -16t-15.5 -6h-225l11 -545v-2q0 -19 -21 -19h-217q-22 0 -21 21l11 545h-226q-10 0 -15.5 6t-5.5 16v140q0 10 5.5 15.5t15.5 5.5h227l-10 467h-382
q-10 0 -15.5 6t-5.5 16v141q0 10 5.5 15.5t15.5 5.5h1018z" />
    <glyph glyph-name="tbar" unicode="&#x167;" horiz-adv-x="698" 
d="M408 857v-222h227q10 0 16 -6t6 -16v-129q0 -10 -6 -16t-16 -6h-227l1 -164q0 -78 29.5 -110t90.5 -32q51 0 105 13q3 1 8 1q16 0 16 -19v-117q0 -20 -16 -24q-87 -28 -165 -28q-134 0 -221 74.5t-87 235.5v170h-112q-10 0 -16 6t-6 16v129q0 22 22 22h113l1 222h-112
q-10 0 -16 6t-6 16v130q0 10 6 15.5t16 5.5h110l-3 237q0 21 22 21h202q22 0 22 -21l-3 -237h229q10 0 15.5 -5.5t5.5 -15.5v-130q0 -10 -5.5 -16t-15.5 -6h-230z" />
    <glyph glyph-name="Utilde" unicode="&#x168;" horiz-adv-x="1263" 
d="M228.5 116q-138.5 143 -136.5 409l2 412l-9 442q0 21 21 21h217q21 0 21 -21l-9 -436l2 -416q1 -173 73 -266t225 -93q161 0 237 93t76 266v411l-7 441q0 21 21 21h194q21 0 21 -21l-6 -442v-412q0 -268 -135 -410t-401 -142q-268 0 -406.5 143zM681.5 1551
q-32.5 19 -69.5 54q-27 25 -43.5 36t-36.5 11q-57 0 -62 -93q0 -22 -22 -22h-84q-10 0 -15.5 6t-4.5 16q4 105 50.5 168.5t134.5 63.5q45 0 77 -19.5t70 -55.5q26 -24 41 -34.5t32 -10.5q61 0 66 93q2 22 22 22h84q11 0 16.5 -7t4.5 -20q-5 -107 -50.5 -167t-131.5 -60
q-46 0 -78.5 19z" />
    <glyph glyph-name="utilde" unicode="&#x169;" horiz-adv-x="1086" 
d="M245.5 23q-78.5 47 -121 138t-42.5 220v210l-6 418q0 21 21 21h201q22 0 22 -21l-6 -418v-204q0 -112 52 -172t137 -60q63 0 117 35.5t90.5 106.5t46.5 173v121l-3 418q0 21 21 21h204q21 0 21 -21l-8 -460l6 -528q0 -10 -6 -15.5t-16 -5.5h-190q-21 0 -21 22l5 133
q-54 -79 -141.5 -129t-196.5 -50q-108 0 -186.5 47zM575.5 1181q-32.5 19 -69.5 54q-27 25 -43.5 36t-36.5 11q-57 0 -62 -93q0 -22 -22 -22h-84q-10 0 -15.5 6t-4.5 16q4 105 50.5 168.5t134.5 63.5q45 0 77 -19.5t70 -55.5q26 -24 41 -34.5t32 -10.5q61 0 66 93
q2 22 22 22h84q11 0 16.5 -7t4.5 -20q-5 -107 -50.5 -167t-131.5 -60q-46 0 -78.5 19z" />
    <glyph glyph-name="Umacron" unicode="&#x16a;" horiz-adv-x="1263" 
d="M228.5 116q-138.5 143 -136.5 409l2 412l-9 442q0 21 21 21h217q21 0 21 -21l-9 -436l2 -416q1 -173 73 -266t225 -93q161 0 237 93t76 266v411l-7 441q0 21 21 21h194q21 0 21 -21l-6 -442v-412q0 -268 -135 -410t-401 -142q-268 0 -406.5 143zM353 1545q-10 0 -15.5 6
t-5.5 16v121q0 10 5.5 15.5t15.5 5.5h576q10 0 16 -5.5t6 -15.5v-121q0 -10 -6 -16t-16 -6h-576z" />
    <glyph glyph-name="umacron" unicode="&#x16b;" horiz-adv-x="1086" 
d="M245.5 23q-78.5 47 -121 138t-42.5 220v210l-6 418q0 21 21 21h201q22 0 22 -21l-6 -418v-204q0 -112 52 -172t137 -60q63 0 117 35.5t90.5 106.5t46.5 173v121l-3 418q0 21 21 21h204q21 0 21 -21l-8 -460l6 -528q0 -10 -6 -15.5t-16 -5.5h-190q-21 0 -21 22l5 133
q-54 -79 -141.5 -129t-196.5 -50q-108 0 -186.5 47zM248 1175q-10 0 -15.5 6t-5.5 16v121q0 10 5.5 15.5t15.5 5.5h576q10 0 16 -5.5t6 -15.5v-121q0 -10 -6 -16t-16 -6h-576z" />
    <glyph glyph-name="Ubreve" unicode="&#x16c;" horiz-adv-x="1263" 
d="M228.5 116q-138.5 143 -136.5 409l2 412l-9 442q0 21 21 21h217q21 0 21 -21l-9 -436l2 -416q1 -173 73 -266t225 -93q161 0 237 93t76 266v411l-7 441q0 21 21 21h194q21 0 21 -21l-6 -442v-412q0 -268 -135 -410t-401 -142q-268 0 -406.5 143zM483 1556.5
q-70 36.5 -110 100t-45 143.5v2q0 10 5.5 15t14.5 5h118q20 0 23 -21q6 -56 46 -89.5t109 -33.5q65 0 106.5 34t48.5 89q3 21 22 21h118q21 0 21 -19q-5 -81 -44.5 -145.5t-110 -101t-161.5 -36.5t-161 36.5z" />
    <glyph glyph-name="ubreve" unicode="&#x16d;" horiz-adv-x="1086" 
d="M245.5 23q-78.5 47 -121 138t-42.5 220v210l-6 418q0 21 21 21h201q22 0 22 -21l-6 -418v-204q0 -112 52 -172t137 -60q63 0 117 35.5t90.5 106.5t46.5 173v121l-3 418q0 21 21 21h204q21 0 21 -21l-8 -460l6 -528q0 -10 -6 -15.5t-16 -5.5h-190q-21 0 -21 22l5 133
q-54 -79 -141.5 -129t-196.5 -50q-108 0 -186.5 47zM378 1186.5q-70 36.5 -110 100t-45 143.5v2q0 10 5.5 15t14.5 5h118q20 0 23 -21q6 -56 46 -89.5t109 -33.5q65 0 106.5 34t48.5 89q3 21 22 21h118q21 0 21 -19q-5 -81 -44.5 -145.5t-110 -101t-161.5 -36.5t-161 36.5z
" />
    <glyph glyph-name="Uring" unicode="&#x16e;" horiz-adv-x="1263" 
d="M228.5 116q-138.5 143 -136.5 409l2 412l-9 442q0 21 21 21h217q21 0 21 -21l-9 -436l2 -416q1 -173 73 -266t225 -93q161 0 237 93t76 266v411l-7 441q0 21 21 21h194q21 0 21 -21l-6 -442v-412q0 -268 -135 -410t-401 -142q-268 0 -406.5 143zM521.5 1544.5
q-53.5 28.5 -84.5 79t-31 113.5q0 62 31 112.5t84.5 79.5t120.5 29t121 -29t85 -79.5t31 -112.5q0 -63 -31 -113.5t-85 -79t-121 -28.5t-120.5 28.5zM720 1641q30 35 30 96q0 62 -30 96.5t-78 34.5t-77.5 -34.5t-29.5 -96.5q0 -61 29.5 -96t77.5 -35t78 35z" />
    <glyph glyph-name="uring" unicode="&#x16f;" horiz-adv-x="1086" 
d="M245.5 23q-78.5 47 -121 138t-42.5 220v210l-6 418q0 21 21 21h201q22 0 22 -21l-6 -418v-204q0 -112 52 -172t137 -60q63 0 117 35.5t90.5 106.5t46.5 173v121l-3 418q0 21 21 21h204q21 0 21 -21l-8 -460l6 -528q0 -10 -6 -15.5t-16 -5.5h-190q-21 0 -21 22l5 133
q-54 -79 -141.5 -129t-196.5 -50q-108 0 -186.5 47zM415.5 1174.5q-53.5 28.5 -84.5 79t-31 113.5q0 62 31 112.5t84.5 79.5t120.5 29t121 -29t85 -79.5t31 -112.5q0 -63 -31 -113.5t-85 -79t-121 -28.5t-120.5 28.5zM614 1271q30 35 30 96q0 62 -30 96.5t-78 34.5
t-77.5 -34.5t-29.5 -96.5q0 -61 29.5 -96t77.5 -35t78 35z" />
    <glyph glyph-name="Uhungarumlaut" unicode="&#x170;" horiz-adv-x="1263" 
d="M228.5 116q-138.5 143 -136.5 409l2 412l-9 442q0 21 21 21h217q21 0 21 -21l-9 -436l2 -416q1 -173 73 -266t225 -93q161 0 237 93t76 266v411l-7 441q0 21 21 21h194q21 0 21 -21l-6 -442v-412q0 -268 -135 -410t-401 -142q-268 0 -406.5 143zM481 1538q-8 -8 -16 -8
t-14 6l-53 45q-8 8 -8 16q0 5 5 13l228 320q6 10 15 10q8 0 15 -7l92 -89q7 -7 7 -15t-7 -16zM800 1530q-8 -8 -15 -8q-6 0 -15 7l-52 43q-8 7 -8 16q0 8 5 14l228 319q6 11 16 11q6 0 14 -8l91 -88q8 -8 8 -15q0 -8 -7 -15z" />
    <glyph glyph-name="uhungarumlaut" unicode="&#x171;" horiz-adv-x="1086" 
d="M245.5 23q-78.5 47 -121 138t-42.5 220v210l-6 418q0 21 21 21h201q22 0 22 -21l-6 -418v-204q0 -112 52 -172t137 -60q63 0 117 35.5t90.5 106.5t46.5 173v121l-3 418q0 21 21 21h204q21 0 21 -21l-8 -460l6 -528q0 -10 -6 -15.5t-16 -5.5h-190q-21 0 -21 22l5 133
q-54 -79 -141.5 -129t-196.5 -50q-108 0 -186.5 47zM376 1168q-8 -8 -16 -8t-14 6l-53 45q-8 8 -8 16q0 5 5 13l228 320q6 10 15 10q8 0 15 -7l92 -89q7 -7 7 -15t-7 -16zM695 1160q-8 -8 -15 -8q-6 0 -15 7l-52 43q-8 7 -8 16q0 8 5 14l228 319q6 11 16 11q6 0 14 -8
l91 -88q8 -8 8 -15q0 -8 -7 -15z" />
    <glyph glyph-name="Uogonek" unicode="&#x172;" horiz-adv-x="1263" 
d="M1156 1400q21 0 21 -21l-6 -442v-412q0 -255 -123 -396.5t-366 -154.5q-23 -25 -37.5 -58t-14.5 -67q0 -45 30 -66.5t81 -21.5h85q10 0 16 -6t6 -16v-117q0 -10 -6 -16t-16 -6h-106q-82 0 -144.5 25t-97 71.5t-34.5 108.5q0 102 83 175q-215 28 -326 167.5t-109 377.5
l2 412l-9 442q0 21 21 21h217q21 0 21 -21l-9 -436l2 -416q1 -173 73 -266t225 -93q161 0 237 93t76 266v411l-7 441q0 21 21 21h194z" />
    <glyph glyph-name="uogonek" unicode="&#x173;" horiz-adv-x="1086" 
d="M1002 -239q10 0 16 -6t6 -16v-117q0 -10 -6 -16t-16 -6h-106q-82 0 -144.5 25t-97 71.5t-34.5 108.5q0 71 39 125.5t106 91.5l5 133q-54 -79 -141.5 -129t-196.5 -50q-108 0 -186.5 47t-121 138t-42.5 220v210l-6 418q0 21 21 21h201q22 0 22 -21l-6 -418v-204
q0 -112 52 -172t137 -60q63 0 117 35.5t90.5 106.5t46.5 173v121l-3 418q0 21 21 21h204q21 0 21 -21l-8 -460l6 -528q0 -10 -6 -15.5t-16 -5.5h-92q-30 -24 -54 -65.5t-24 -85.5q0 -45 30 -66.5t81 -21.5h85z" />
    <glyph glyph-name="Wcircumflex" unicode="&#x174;" horiz-adv-x="1801" 
d="M16 1376l-1 6q0 18 20 18h205q20 0 24 -19l254 -1152l242 1152q4 19 24 19h243q20 0 23 -19l250 -1164l255 1164q3 19 23 19h188q11 0 16 -6.5t3 -17.5l-340 -1357q-4 -19 -23 -19h-254q-20 0 -23 19l-252 1043l-235 -1043q-4 -19 -24 -19h-261q-20 0 -23 19zM557 1599
q-2 4 -2 11q0 12 10 19l272 179q10 8 28 8h72q17 0 27 -8l272 -179q11 -7 11 -19q0 -7 -2 -11l-34 -79q-4 -13 -18 -13q-6 0 -10 2l-284 134l-281 -133q-6 -3 -11 -3q-11 0 -17 13z" />
    <glyph glyph-name="wcircumflex" unicode="&#x175;" horiz-adv-x="1435" 
d="M10 1006l-1 6q0 18 20 18h198q21 0 24 -20l157 -812l171 813q4 19 23 19h250q20 0 23 -19l173 -799l155 798q5 20 24 20h179q11 0 16 -6.5t3 -17.5l-234 -987q-4 -19 -23 -19h-245q-20 0 -23 19l-191 812l-168 -812q-4 -19 -23 -19h-243q-19 0 -23 19zM375 1229
q-2 4 -2 11q0 12 10 19l272 179q10 8 28 8h72q17 0 27 -8l272 -179q11 -7 11 -19q0 -7 -2 -11l-34 -79q-4 -13 -18 -13q-6 0 -10 2l-284 134l-281 -133q-6 -3 -11 -3q-11 0 -17 13z" />
    <glyph glyph-name="Ycircumflex" unicode="&#x176;" horiz-adv-x="1181" 
d="M10 1375q-3 6 -3 11q0 6 4.5 10t13.5 4h232q18 0 25 -16l318 -686l320 686q7 16 26 16h210q8 0 13 -4t5 -10q0 -5 -3 -11l-464 -894l8 -460q0 -21 -21 -21h-210q-22 0 -21 21l9 462zM250 1599q-2 4 -2 11q0 12 10 19l272 179q10 8 28 8h72q17 0 27 -8l272 -179
q11 -7 11 -19q0 -7 -2 -11l-34 -79q-4 -13 -18 -13q-6 0 -10 2l-284 134l-281 -133q-6 -3 -11 -3q-11 0 -17 13z" />
    <glyph glyph-name="ycircumflex" unicode="&#x177;" horiz-adv-x="988" 
d="M745 1012q5 18 24 18h200q20 0 20 -16q0 -3 -2 -9l-459 -1328q-6 -17 -24 -17h-185q-20 0 -20 16q0 3 2 9l108 309l-406 1011q-2 8 -2 10q0 7 5 11t14 4h226q18 0 24 -17l258 -712zM163 1229q-2 4 -2 11q0 12 10 19l272 179q10 8 28 8h72q17 0 27 -8l272 -179
q11 -7 11 -19q0 -7 -2 -11l-34 -79q-4 -13 -18 -13q-6 0 -10 2l-284 134l-281 -133q-6 -3 -11 -3q-11 0 -17 13z" />
    <glyph glyph-name="Ydieresis" unicode="&#x178;" horiz-adv-x="1181" 
d="M10 1375q-3 6 -3 11q0 6 4.5 10t13.5 4h232q18 0 25 -16l318 -686l320 686q7 16 26 16h210q8 0 13 -4t5 -10q0 -5 -3 -11l-464 -894l8 -460q0 -21 -21 -21h-210q-22 0 -21 21l9 462zM329 1513q-10 0 -15.5 5.5t-5.5 15.5v188q0 10 5.5 15.5t15.5 5.5h161q10 0 15.5 -5.5
t5.5 -15.5v-188q0 -10 -5.5 -15.5t-15.5 -5.5h-161zM698 1513q-10 0 -16 5.5t-6 15.5v188q0 10 6 15.5t16 5.5h160q21 0 21 -21v-188q0 -10 -5.5 -15.5t-15.5 -5.5h-160z" />
    <glyph glyph-name="Zacute" unicode="&#x179;" horiz-adv-x="1160" 
d="M67 0q-10 0 -16 5.5t-6 15.5v165q0 14 9 26l761 1005h-695q-21 0 -21 21v141q0 10 5.5 15.5t15.5 5.5h966q10 0 16 -5.5t6 -15.5v-171q0 -14 -9 -26l-753 -999h747q21 0 21 -21v-141q0 -10 -5.5 -15.5t-15.5 -5.5h-1026zM425 1505q-3 -1 -8 -1q-13 0 -19 14l-27 78
q-2 6 -2 9q0 13 14 19l449 200q6 3 10 3q11 0 18 -15l45 -139q2 -6 2 -9q0 -14 -16 -19z" />
    <glyph glyph-name="zacute" unicode="&#x17a;" horiz-adv-x="967" 
d="M85 0q-10 0 -15.5 5.5t-5.5 15.5v137q0 15 9 27l511 672h-456q-10 0 -16 6t-6 16v130q0 10 6 15.5t16 5.5h727q10 0 16 -5.5t6 -15.5v-139q0 -13 -9 -27l-516 -670h531q10 0 15.5 -6t5.5 -16v-130q0 -10 -5.5 -15.5t-15.5 -5.5h-798zM315 1135q-3 -1 -8 -1q-13 0 -19 14
l-27 78q-2 6 -2 9q0 13 14 19l449 200q6 3 10 3q11 0 18 -15l45 -139q2 -6 2 -9q0 -14 -16 -19z" />
    <glyph glyph-name="Zdotaccent" unicode="&#x17b;" horiz-adv-x="1160" 
d="M67 0q-10 0 -16 5.5t-6 15.5v165q0 14 9 26l761 1005h-695q-21 0 -21 21v141q0 10 5.5 15.5t15.5 5.5h966q10 0 16 -5.5t6 -15.5v-171q0 -14 -9 -26l-753 -999h747q21 0 21 -21v-141q0 -10 -5.5 -15.5t-15.5 -5.5h-1026zM499 1513q-10 0 -15.5 5.5t-5.5 15.5v188
q0 10 5.5 15.5t15.5 5.5h202q10 0 15.5 -5.5t5.5 -15.5v-188q0 -10 -5.5 -15.5t-15.5 -5.5h-202z" />
    <glyph glyph-name="zdotaccent" unicode="&#x17c;" horiz-adv-x="967" 
d="M85 0q-10 0 -15.5 5.5t-5.5 15.5v137q0 15 9 27l511 672h-456q-10 0 -16 6t-6 16v130q0 10 6 15.5t16 5.5h727q10 0 16 -5.5t6 -15.5v-139q0 -13 -9 -27l-516 -670h531q10 0 15.5 -6t5.5 -16v-130q0 -10 -5.5 -15.5t-15.5 -5.5h-798zM389 1143q-10 0 -15.5 5.5t-5.5 15.5
v188q0 10 5.5 15.5t15.5 5.5h202q10 0 15.5 -5.5t5.5 -15.5v-188q0 -10 -5.5 -15.5t-15.5 -5.5h-202z" />
    <glyph glyph-name="Zcaron" unicode="&#x17d;" horiz-adv-x="1160" 
d="M67 0q-10 0 -16 5.5t-6 15.5v165q0 14 9 26l761 1005h-695q-21 0 -21 21v141q0 10 5.5 15.5t15.5 5.5h966q10 0 16 -5.5t6 -15.5v-171q0 -14 -9 -26l-753 -999h747q21 0 21 -21v-141q0 -10 -5.5 -15.5t-15.5 -5.5h-1026zM271 1700q-11 8 -11 17q0 6 3 12l33 78
q6 14 18 14q4 0 10 -3l281 -133l281 134q6 3 10 3q12 0 18 -14l34 -79q2 -4 2 -11q0 -11 -11 -18l-272 -178q-10 -7 -27 -7h-69q-18 0 -28 7z" />
    <glyph glyph-name="zcaron" unicode="&#x17e;" horiz-adv-x="967" 
d="M85 0q-10 0 -15.5 5.5t-5.5 15.5v137q0 15 9 27l511 672h-456q-10 0 -16 6t-6 16v130q0 10 6 15.5t16 5.5h727q10 0 16 -5.5t6 -15.5v-139q0 -13 -9 -27l-516 -670h531q10 0 15.5 -6t5.5 -16v-130q0 -10 -5.5 -15.5t-15.5 -5.5h-798zM155 1330q-11 8 -11 17q0 6 3 12
l33 78q6 14 18 14q4 0 10 -3l281 -133l281 134q6 3 10 3q12 0 18 -14l34 -79q2 -4 2 -11q0 -11 -11 -18l-272 -178q-10 -7 -27 -7h-69q-18 0 -28 7z" />
    <glyph glyph-name="florin" unicode="&#x192;" horiz-adv-x="776" 
d="M497 1212.5q-32 -37.5 -32 -122.5v-60h223q10 0 16 -5.5t6 -15.5v-129q0 -22 -22 -22h-223v-905q0 -109 -42.5 -179t-110.5 -101.5t-150 -32.5q-70 0 -158 16q-19 3 -19 23v125q0 11 6 16t17 2q44 -9 100 -9q122 0 122 161v884h-138q-10 0 -15.5 6t-5.5 16v129
q0 10 5.5 15.5t15.5 5.5h138v81q0 109 42.5 179t111 101.5t149.5 32.5q72 0 158 -16q19 -4 19 -24v-124q0 -11 -6 -16t-17 -3q-42 9 -99 9q-59 0 -91 -37.5z" />
    <glyph glyph-name="Ohorn" unicode="&#x1a0;" horiz-adv-x="1485" 
d="M1175 1291q123 -94 189.5 -246t66.5 -348q0 -215 -85.5 -379t-242 -254.5t-361.5 -90.5q-206 0 -361.5 90.5t-240.5 255t-85 379.5q0 221 84.5 386t240 254t362.5 89q167 0 301 -58l2 3l168 297q6 12 16 12q8 0 13 -4l130 -72q11 -6 11 -16q0 -5 -5 -13zM977 226
q98 64 149.5 184.5t51.5 286.5q0 167 -51.5 288.5t-149.5 187t-235 65.5q-138 0 -235.5 -64.5t-148.5 -186t-51 -290.5q0 -165 52 -285.5t150 -185t234 -64.5t234 64z" />
    <glyph glyph-name="ohorn" unicode="&#x1a1;" horiz-adv-x="1120" 
d="M908 939l-1 -2q79 -71 120 -177.5t41 -242.5q0 -163 -59.5 -285t-173.5 -189t-273 -67q-160 0 -275 66t-175 187t-60 284t60 285t175 189t275 67q117 0 214 -37l147 282q6 12 16 12q8 0 13 -4l130 -72q11 -6 11 -16q0 -6 -4 -13zM757 231.5q64 93.5 64 281.5
q0 186 -65.5 282.5t-195.5 96.5q-262 -3 -262 -381q0 -373 264 -373q131 0 195 93.5z" />
    <glyph glyph-name="Uhorn" unicode="&#x1af;" horiz-adv-x="1263" 
d="M1341 1605q12 -6 12 -16q0 -5 -5 -13l-172 -256l-5 -383v-412q0 -268 -135 -410t-401 -142q-268 0 -406.5 143t-136.5 409l2 412l-9 442q0 21 21 21h217q21 0 21 -21l-9 -436l2 -416q1 -173 73 -266t225 -93q161 0 237 93t76 266v411l-7 441q0 21 21 21h84l137 269
q6 12 16 12q8 0 13 -4z" />
    <glyph glyph-name="uhorn" unicode="&#x1b0;" horiz-adv-x="1086" 
d="M999 942l-7 -393l6 -528q0 -10 -6 -15.5t-16 -5.5h-190q-21 0 -21 22l5 133q-54 -79 -141.5 -129t-196.5 -50q-108 0 -186.5 47t-121 138t-42.5 220v210l-6 418q0 21 21 21h201q22 0 22 -21l-6 -418v-204q0 -112 52 -172t137 -60q63 0 117 35.5t90.5 106.5t46.5 173v121
l-3 418q0 21 21 21h99l137 269q6 12 16 12q8 0 13 -4l129 -72q12 -6 12 -16q0 -5 -5 -13z" />
    <glyph glyph-name="uni0218" unicode="&#x218;" horiz-adv-x="1262" 
d="M335.5 26.5q-133.5 54.5 -209 162.5t-82.5 266v2q0 20 21 20h212q21 0 23 -20q15 -148 96 -224t259 -76q152 0 235.5 55.5t83.5 172.5q0 75 -50 118.5t-124.5 65.5t-205.5 47q-166 31 -270.5 66t-178 114.5t-73.5 218.5q0 128 64.5 221t185 142t286.5 49
q249 0 396.5 -103.5t175.5 -315.5v-4q0 -19 -20 -19h-213q-20 0 -23 21q-12 115 -94 174.5t-230 59.5q-132 0 -209.5 -50.5t-77.5 -151.5q0 -68 48 -108.5t119.5 -60.5t200.5 -44q171 -31 278 -66.5t183 -117t76 -225.5q0 -143 -70 -242.5t-198 -150.5t-300 -51
q-181 0 -314.5 54.5zM514 -475q-10 0 -15 6.5t-3 17.5l40 162v176q0 10 6 15.5t16 5.5h147q10 0 15.5 -5.5t5.5 -15.5v-160q0 -14 -7 -27l-100 -160q-9 -15 -26 -15h-79z" />
    <glyph glyph-name="uni0219" unicode="&#x219;" horiz-adv-x="1037" 
d="M287.5 17q-107.5 40 -169.5 119.5t-68 194.5v2q0 19 21 19h191q21 0 21 -21q7 -103 71 -152.5t186 -49.5q102 0 159.5 40.5t57.5 114.5q0 48 -35 76t-88.5 41.5t-146.5 28.5q-130 21 -213 46.5t-142 88t-59 174.5q0 101 52 171.5t148.5 106.5t227.5 36q196 0 316 -79.5
t133 -234.5v-2q0 -20 -21 -20h-182q-20 0 -23 20q-11 82 -68.5 124.5t-157.5 42.5q-93 0 -144.5 -37t-51.5 -111q0 -46 34 -72t85 -38t143 -26q134 -21 218 -46t144.5 -89t60.5 -181q0 -101 -59 -175t-161 -113t-231 -39q-141 0 -248.5 40zM407 -475q-10 0 -15 6.5t-3 17.5
l40 162v176q0 10 6 15.5t16 5.5h147q10 0 15.5 -5.5t5.5 -15.5v-160q0 -14 -7 -27l-100 -160q-9 -15 -26 -15h-79z" />
    <glyph glyph-name="uni021A" unicode="&#x21a;" horiz-adv-x="1103" 
d="M443 0q-22 0 -21 21l14 675l-12 520h-382q-10 0 -15.5 6t-5.5 16v141q0 10 5.5 15.5t15.5 5.5h1018q10 0 16 -5.5t6 -15.5v-141q0 -22 -22 -22h-381l-12 -520l14 -675v-2q0 -19 -21 -19h-217zM435 -475q-10 0 -15 6.5t-3 17.5l40 162v176q0 10 6 15.5t16 5.5h147
q10 0 15.5 -5.5t5.5 -15.5v-160q0 -14 -7 -27l-100 -160q-9 -15 -26 -15h-79z" />
    <glyph glyph-name="uni021B" unicode="&#x21b;" horiz-adv-x="694" 
d="M254 56.5q-87 74.5 -87 235.5l1 443v122h-112q-10 0 -15.5 6t-5.5 16v130q0 10 5.5 15.5t15.5 5.5h111l-3 237q0 21 22 21h202q22 0 22 -21l-3 -237h228q10 0 16 -5.5t6 -15.5v-130q0 -22 -22 -22h-230v-118l2 -441q0 -78 29.5 -110t89.5 -32q53 0 105 13q3 1 8 1
q16 0 16 -19v-117q0 -20 -16 -24q-86 -28 -164 -28q-134 0 -221 74.5zM290 -475q-10 0 -15 6.5t-3 17.5l40 162v176q0 10 6 15.5t16 5.5h147q10 0 15.5 -5.5t5.5 -15.5v-160q0 -14 -7 -27l-100 -160q-9 -15 -26 -15h-79z" />
    <glyph glyph-name="uni0237" unicode="&#x237;" horiz-adv-x="432" 
d="M113 -340q-21 0 -21 21l8 661l-8 667q0 21 21 21h206q21 0 21 -21l-8 -667l8 -661q0 -21 -21 -21h-206z" />
    <glyph glyph-name="uni0237" unicode="&#xf6be;" horiz-adv-x="432" 
d="M113 -340q-21 0 -21 21l8 661l-8 667q0 21 21 21h206q21 0 21 -21l-8 -667l8 -661q0 -21 -21 -21h-206z" />
    <glyph glyph-name="uni0259" unicode="&#x259;" horiz-adv-x="1108" 
d="M813 556q-7 171 -74.5 253.5t-196.5 82.5q-95 0 -155 -49t-82 -147q-5 -19 -23 -19h-189q-11 0 -16.5 4.5t-4.5 12.5q15 102 75 184t162 129t236 47q162 0 277.5 -67.5t174.5 -189t59 -279.5q0 -162 -60.5 -284.5t-174 -190t-268.5 -67.5q-157 0 -269 67t-172.5 192.5
t-63.5 298.5q0 22 21 22h744zM724 204.5q64 67.5 82 195.5h-499q5 -73 33.5 -132.5t82 -95t129.5 -35.5q108 0 172 67.5z" />
    <glyph glyph-name="quoteleft" unicode="&#x2bb;" horiz-adv-x="386" 
d="M325 1400q11 0 16 -6.5t2 -17.5l-53 -195v-215q0 -22 -22 -22h-190q-21 0 -21 22v199q0 14 9 26l138 195q10 14 26 14h95z" />
    <glyph glyph-name="quoteleft" unicode="&#x2018;" horiz-adv-x="386" 
d="M325 1400q11 0 16 -6.5t2 -17.5l-53 -195v-215q0 -22 -22 -22h-190q-21 0 -21 22v199q0 14 9 26l138 195q10 14 26 14h95z" />
    <glyph glyph-name="circumflex" unicode="&#x2c6;" horiz-adv-x="904" 
d="M108 1229q-2 4 -2 11q0 12 10 19l272 179q10 8 28 8h72q17 0 27 -8l272 -179q11 -7 11 -19q0 -7 -2 -11l-34 -79q-4 -13 -18 -13q-6 0 -10 2l-284 134l-281 -133q-6 -3 -11 -3q-11 0 -17 13z" />
    <glyph glyph-name="caron" unicode="&#x2c7;" horiz-adv-x="901" 
d="M116 1330q-11 8 -11 17q0 6 3 12l33 78q6 14 18 14q4 0 10 -3l281 -133l281 134q6 3 10 3q12 0 18 -14l34 -79q2 -4 2 -11q0 -11 -11 -18l-272 -178q-10 -7 -27 -7h-69q-18 0 -28 7z" />
    <glyph glyph-name="breve" unicode="&#x2d8;" horiz-adv-x="833" 
d="M256 1186.5q-70 36.5 -110 100t-45 143.5v2q0 10 5.5 15t14.5 5h118q20 0 23 -21q6 -56 46 -89.5t109 -33.5q65 0 106.5 34t48.5 89q3 21 22 21h118q21 0 21 -19q-5 -81 -44.5 -145.5t-110 -101t-161.5 -36.5t-161 36.5z" />
    <glyph glyph-name="dotaccent" unicode="&#x2d9;" horiz-adv-x="444" 
d="M121 1143q-10 0 -15.5 5.5t-5.5 15.5v188q0 10 5.5 15.5t15.5 5.5h202q10 0 15.5 -5.5t5.5 -15.5v-188q0 -10 -5.5 -15.5t-15.5 -5.5h-202z" />
    <glyph glyph-name="ring" unicode="&#x2da;" horiz-adv-x="673" 
d="M215.5 1174.5q-53.5 28.5 -84.5 79t-31 113.5q0 62 31 112.5t84.5 79.5t120.5 29t121 -29t85 -79.5t31 -112.5q0 -63 -31 -113.5t-85 -79t-121 -28.5t-120.5 28.5zM414 1271q30 35 30 96q0 62 -30 96.5t-78 34.5t-77.5 -34.5t-29.5 -96.5q0 -61 29.5 -96t77.5 -35t78 35z
" />
    <glyph glyph-name="ogonek" unicode="&#x2db;" horiz-adv-x="604" 
d="M376 -400q-82 0 -144.5 25t-97 71.5t-34.5 108.5q0 91 62 154.5t162 97.5q8 2 10 2q11 0 19 -12l15 -21q4 -8 4 -12q0 -6 -8 -14q-30 -24 -54 -65.5t-24 -85.5q0 -45 30 -66.5t81 -21.5h85q10 0 16 -6t6 -16v-117q0 -10 -6 -16t-16 -6h-106z" />
    <glyph glyph-name="tilde" unicode="&#x2dc;" horiz-adv-x="800" 
d="M438.5 1181q-32.5 19 -69.5 54q-27 25 -43.5 36t-36.5 11q-57 0 -62 -93q0 -22 -22 -22h-84q-10 0 -15.5 6t-4.5 16q4 105 50.5 168.5t134.5 63.5q45 0 77 -19.5t70 -55.5q26 -24 41 -34.5t32 -10.5q61 0 66 93q2 22 22 22h84q11 0 16.5 -7t4.5 -20q-5 -107 -50.5 -167
t-131.5 -60q-46 0 -78.5 19z" />
    <glyph glyph-name="hungarumlaut" unicode="&#x2dd;" horiz-adv-x="897" 
d="M198 1168q-8 -8 -16 -8t-14 6l-53 45q-8 8 -8 16q0 5 5 13l228 320q6 10 15 10q8 0 15 -7l92 -89q7 -7 7 -15t-7 -16zM517 1160q-8 -8 -15 -8q-6 0 -15 7l-52 43q-8 7 -8 16q0 8 5 14l228 319q6 11 16 11q6 0 14 -8l91 -88q8 -8 8 -15q0 -8 -7 -15z" />
    <glyph glyph-name="gravecomb" unicode="&#x300;" 
d="M-135 1148q-5 -14 -19 -14q-5 0 -8 1l-466 140q-15 5 -15 19q0 6 1 9l46 140q5 14 16 14q5 0 11 -3l450 -200q14 -6 14 -19q0 -3 -2 -9z" />
    <glyph glyph-name="acutecomb" unicode="&#x301;" 
d="M-587 1135q-3 -1 -8 -1q-13 0 -19 14l-27 78q-2 6 -2 9q0 13 14 19l449 200q6 3 10 3q11 0 18 -15l45 -139q2 -6 2 -9q0 -14 -16 -19z" />
    <glyph glyph-name="uni0302" unicode="&#x302;" 
d="M-796 1229q-2 4 -2 11q0 12 10 19l272 179q10 8 28 8h72q17 0 27 -8l272 -179q11 -7 11 -19q0 -7 -2 -11l-34 -79q-4 -13 -18 -13q-6 0 -10 2l-284 134l-281 -133q-6 -3 -11 -3q-11 0 -17 13z" />
    <glyph glyph-name="tildecomb" unicode="&#x303;" 
d="M-361.5 1181q-32.5 19 -69.5 54q-27 25 -43.5 36t-36.5 11q-57 0 -62 -93q0 -22 -22 -22h-84q-10 0 -15.5 6t-4.5 16q4 105 50.5 168.5t134.5 63.5q45 0 77 -19.5t70 -55.5q26 -24 41 -34.5t32 -10.5q61 0 66 93q2 22 22 22h84q11 0 16.5 -7t4.5 -20q-5 -107 -50.5 -167
t-131.5 -60q-46 0 -78.5 19z" />
    <glyph glyph-name="uni0304" unicode="&#x304;" 
d="M-698 1175q-10 0 -15.5 6t-5.5 16v121q0 10 5.5 15.5t15.5 5.5h576q10 0 16 -5.5t6 -15.5v-121q0 -10 -6 -16t-16 -6h-576z" />
    <glyph glyph-name="uni0306" unicode="&#x306;" 
d="M-577 1186.5q-70 36.5 -110 100t-45 143.5v2q0 10 5.5 15t14.5 5h118q20 0 23 -21q6 -56 46 -89.5t109 -33.5q65 0 106.5 34t48.5 89q3 21 22 21h118q21 0 21 -19q-5 -81 -44.5 -145.5t-110 -101t-161.5 -36.5t-161 36.5z" />
    <glyph glyph-name="uni0307" unicode="&#x307;" 
d="M-323 1143q-10 0 -15.5 5.5t-5.5 15.5v188q0 10 5.5 15.5t15.5 5.5h202q10 0 15.5 -5.5t5.5 -15.5v-188q0 -10 -5.5 -15.5t-15.5 -5.5h-202z" />
    <glyph glyph-name="uni0308" unicode="&#x308;" 
d="M-650 1143q-10 0 -15.5 5.5t-5.5 15.5v188q0 10 5.5 15.5t15.5 5.5h161q10 0 15.5 -5.5t5.5 -15.5v-188q0 -10 -5.5 -15.5t-15.5 -5.5h-161zM-281 1143q-10 0 -16 5.5t-6 15.5v188q0 10 6 15.5t16 5.5h160q21 0 21 -21v-188q0 -10 -5.5 -15.5t-15.5 -5.5h-160z" />
    <glyph glyph-name="hookabovecomb" unicode="&#x309;" 
d="M-420 1139q-11 0 -16.5 6t-3.5 17q6 45 32.5 70t72.5 49q35 19 50.5 32.5t15.5 34.5q0 25 -20 40t-59 15q-36 0 -58.5 -14.5t-29.5 -41.5q-5 -20 -23 -20h-119q-11 0 -16 6t-4 16q11 82 76 127.5t176 45.5q112 0 179 -46t67 -124q0 -33 -14 -57t-33 -39.5t-51 -34.5
q-31 -19 -47 -32t-22 -31q-4 -10 -9 -14.5t-14 -4.5h-130z" />
    <glyph glyph-name="uni030A" unicode="&#x30a;" 
d="M-457.5 1174.5q-53.5 28.5 -84.5 79t-31 113.5q0 62 31 112.5t84.5 79.5t120.5 29t121 -29t85 -79.5t31 -112.5q0 -63 -31 -113.5t-85 -79t-121 -28.5t-120.5 28.5zM-259 1271q30 35 30 96q0 62 -30 96.5t-78 34.5t-77.5 -34.5t-29.5 -96.5q0 -61 29.5 -96t77.5 -35
t78 35z" />
    <glyph glyph-name="uni030B" unicode="&#x30b;" 
d="M-699 1168q-8 -8 -16 -8t-14 6l-53 45q-8 8 -8 16q0 5 5 13l228 320q6 10 15 10q8 0 15 -7l92 -89q7 -7 7 -15t-7 -16zM-380 1160q-8 -8 -15 -8q-6 0 -15 7l-52 43q-8 7 -8 16q0 8 5 14l228 319q6 11 16 11q6 0 14 -8l91 -88q8 -8 8 -15q0 -8 -7 -15z" />
    <glyph glyph-name="uni030C" unicode="&#x30c;" 
d="M-785 1330q-11 8 -11 17q0 6 3 12l33 78q6 14 18 14q4 0 10 -3l281 -133l281 134q6 3 10 3q12 0 18 -14l34 -79q2 -4 2 -11q0 -11 -11 -18l-272 -178q-10 -7 -27 -7h-69q-18 0 -28 7z" />
    <glyph glyph-name="uni0312" unicode="&#x312;" 
d="M-372 1143q-10 0 -15.5 5.5t-5.5 15.5v158q0 16 10 26l138 164q10 12 26 12h94q11 0 16 -6.5t2 -17.5l-43 -162v-174q0 -10 -5.5 -15.5t-15.5 -5.5h-201z" />
    <glyph glyph-name="uni031B" unicode="&#x31b;" 
d="M-302 939q-7 -10 -16 -10q-6 0 -13 4l-99 48q-11 6 -11 17q0 6 3 12l151 289q6 12 16 12q8 0 13 -4l130 -72q11 -6 11 -16q0 -6 -4 -13z" />
    <glyph glyph-name="dotbelowcomb" unicode="&#x323;" 
d="M-323 -322q-10 0 -15.5 5.5t-5.5 15.5v188q0 10 5.5 15.5t15.5 5.5h202q10 0 15.5 -5.5t5.5 -15.5v-188q0 -10 -5.5 -15.5t-15.5 -5.5h-202z" />
    <glyph glyph-name="uni0326" unicode="&#x326;" 
d="M-312 -475q-10 0 -15 6.5t-3 17.5l40 162v176q0 10 6 15.5t16 5.5h147q10 0 15.5 -5.5t5.5 -15.5v-160q0 -14 -7 -27l-100 -160q-9 -15 -26 -15h-79z" />
    <glyph glyph-name="uni0327" unicode="&#x327;" 
d="M-177 -331q-4 -21 -25 -16l-181 34q-7 1 -11.5 6t-4.5 11q0 7 2 10l124 304q8 18 27 15l124 -15q22 -5 17 -26z" />
    <glyph glyph-name="uni0328" unicode="&#x328;" 
d="M-228 -400q-82 0 -144.5 25t-97 71.5t-34.5 108.5q0 91 62 154.5t162 97.5q8 2 10 2q11 0 19 -12l15 -21q4 -8 4 -12q0 -6 -8 -14q-30 -24 -54 -65.5t-24 -85.5q0 -45 30 -66.5t81 -21.5h85q10 0 16 -6t6 -16v-117q0 -10 -6 -16t-16 -6h-106z" />
    <glyph glyph-name="uni0394" unicode="&#x394;" horiz-adv-x="1367" 
d="M51 0q-10 0 -15.5 5.5t-5.5 15.5v160q0 15 5 27l483 1176q6 16 24 16h290q17 0 25 -16l475 -1176q5 -15 5 -27v-160q0 -10 -6 -15.5t-16 -5.5h-1264zM1083 195l-408 1048l-396 -1048h804z" />
    <glyph glyph-name="uni0394" unicode="&#x2206;" horiz-adv-x="1367" 
d="M51 0q-10 0 -15.5 5.5t-5.5 15.5v160q0 15 5 27l483 1176q6 16 24 16h290q17 0 25 -16l475 -1176q5 -15 5 -27v-160q0 -10 -6 -15.5t-16 -5.5h-1264zM1083 195l-408 1048l-396 -1048h804z" />
    <glyph glyph-name="uni03A9" unicode="&#x3a9;" horiz-adv-x="1517" 
d="M1389 184q10 0 16 -5.5t6 -15.5v-142q0 -10 -6 -15.5t-16 -5.5h-508q-10 0 -15.5 5.5t-5.5 15.5v142q0 19 18 31q147 82 231.5 215.5t84.5 327.5q0 150 -48.5 261t-141.5 173t-224 67h-43q-130 -5 -223 -67t-142 -173t-49 -261q0 -193 84.5 -327t231.5 -216
q19 -10 19 -31v-142q0 -10 -5.5 -15.5t-15.5 -5.5h-508q-10 0 -16 5.5t-6 15.5v142q0 10 6 15.5t16 5.5h211q-269 224 -269 568q0 203 82.5 354t233 234t350.5 87h43q201 -4 351.5 -87t233 -234t82.5 -354q0 -344 -269 -568h211z" />
    <glyph glyph-name="uni03A9" unicode="&#x2126;" horiz-adv-x="1517" 
d="M1389 184q10 0 16 -5.5t6 -15.5v-142q0 -10 -6 -15.5t-16 -5.5h-508q-10 0 -15.5 5.5t-5.5 15.5v142q0 19 18 31q147 82 231.5 215.5t84.5 327.5q0 150 -48.5 261t-141.5 173t-224 67h-43q-130 -5 -223 -67t-142 -173t-49 -261q0 -193 84.5 -327t231.5 -216
q19 -10 19 -31v-142q0 -10 -5.5 -15.5t-15.5 -5.5h-508q-10 0 -16 5.5t-6 15.5v142q0 10 6 15.5t16 5.5h211q-269 224 -269 568q0 203 82.5 354t233 234t350.5 87h43q201 -4 351.5 -87t233 -234t82.5 -354q0 -344 -269 -568h211z" />
    <glyph glyph-name="pi" unicode="&#x3c0;" horiz-adv-x="1081" 
d="M100 0q-22 0 -22 21l4 460l-1 528q0 10 6 15.5t16 5.5h880q21 0 21 -21l-3 -570l4 -418q0 -21 -22 -21h-202q-22 0 -22 21l4 460v376h-440l-1 -418l3 -418q0 -21 -21 -21h-204z" />
    <glyph glyph-name="Wgrave" unicode="&#x1e80;" horiz-adv-x="1801" 
d="M16 1376l-1 6q0 18 20 18h205q20 0 24 -19l254 -1152l242 1152q4 19 24 19h243q20 0 23 -19l250 -1164l255 1164q3 19 23 19h188q11 0 16 -6.5t3 -17.5l-340 -1357q-4 -19 -23 -19h-254q-20 0 -23 19l-252 1043l-235 -1043q-4 -19 -24 -19h-261q-20 0 -23 19zM1086 1518
q-5 -14 -19 -14q-5 0 -8 1l-466 140q-15 5 -15 19q0 6 1 9l46 140q5 14 16 14q5 0 11 -3l450 -200q14 -6 14 -19q0 -3 -2 -9z" />
    <glyph glyph-name="wgrave" unicode="&#x1e81;" horiz-adv-x="1435" 
d="M10 1006l-1 6q0 18 20 18h198q21 0 24 -20l157 -812l171 813q4 19 23 19h250q20 0 23 -19l173 -799l155 798q5 20 24 20h179q11 0 16 -6.5t3 -17.5l-234 -987q-4 -19 -23 -19h-245q-20 0 -23 19l-191 812l-168 -812q-4 -19 -23 -19h-243q-19 0 -23 19zM904 1148
q-5 -14 -19 -14q-5 0 -8 1l-466 140q-15 5 -15 19q0 6 1 9l46 140q5 14 16 14q5 0 11 -3l450 -200q14 -6 14 -19q0 -3 -2 -9z" />
    <glyph glyph-name="Wacute" unicode="&#x1e82;" horiz-adv-x="1801" 
d="M16 1376l-1 6q0 18 20 18h205q20 0 24 -19l254 -1152l242 1152q4 19 24 19h243q20 0 23 -19l250 -1164l255 1164q3 19 23 19h188q11 0 16 -6.5t3 -17.5l-340 -1357q-4 -19 -23 -19h-254q-20 0 -23 19l-252 1043l-235 -1043q-4 -19 -24 -19h-261q-20 0 -23 19zM726 1505
q-3 -1 -8 -1q-13 0 -19 14l-27 78q-2 6 -2 9q0 13 14 19l449 200q6 3 10 3q11 0 18 -15l45 -139q2 -6 2 -9q0 -14 -16 -19z" />
    <glyph glyph-name="wacute" unicode="&#x1e83;" horiz-adv-x="1435" 
d="M10 1006l-1 6q0 18 20 18h198q21 0 24 -20l157 -812l171 813q4 19 23 19h250q20 0 23 -19l173 -799l155 798q5 20 24 20h179q11 0 16 -6.5t3 -17.5l-234 -987q-4 -19 -23 -19h-245q-20 0 -23 19l-191 812l-168 -812q-4 -19 -23 -19h-243q-19 0 -23 19zM544 1135
q-3 -1 -8 -1q-13 0 -19 14l-27 78q-2 6 -2 9q0 13 14 19l449 200q6 3 10 3q11 0 18 -15l45 -139q2 -6 2 -9q0 -14 -16 -19z" />
    <glyph glyph-name="Wdieresis" unicode="&#x1e84;" horiz-adv-x="1801" 
d="M16 1376l-1 6q0 18 20 18h205q20 0 24 -19l254 -1152l242 1152q4 19 24 19h243q20 0 23 -19l250 -1164l255 1164q3 19 23 19h188q11 0 16 -6.5t3 -17.5l-340 -1357q-4 -19 -23 -19h-254q-20 0 -23 19l-252 1043l-235 -1043q-4 -19 -24 -19h-261q-20 0 -23 19zM636 1513
q-10 0 -15.5 5.5t-5.5 15.5v188q0 10 5.5 15.5t15.5 5.5h161q10 0 15.5 -5.5t5.5 -15.5v-188q0 -10 -5.5 -15.5t-15.5 -5.5h-161zM1005 1513q-10 0 -16 5.5t-6 15.5v188q0 10 6 15.5t16 5.5h160q21 0 21 -21v-188q0 -10 -5.5 -15.5t-15.5 -5.5h-160z" />
    <glyph glyph-name="wdieresis" unicode="&#x1e85;" horiz-adv-x="1435" 
d="M10 1006l-1 6q0 18 20 18h198q21 0 24 -20l157 -812l171 813q4 19 23 19h250q20 0 23 -19l173 -799l155 798q5 20 24 20h179q11 0 16 -6.5t3 -17.5l-234 -987q-4 -19 -23 -19h-245q-20 0 -23 19l-191 812l-168 -812q-4 -19 -23 -19h-243q-19 0 -23 19zM454 1143
q-10 0 -15.5 5.5t-5.5 15.5v188q0 10 5.5 15.5t15.5 5.5h161q10 0 15.5 -5.5t5.5 -15.5v-188q0 -10 -5.5 -15.5t-15.5 -5.5h-161zM823 1143q-10 0 -16 5.5t-6 15.5v188q0 10 6 15.5t16 5.5h160q21 0 21 -21v-188q0 -10 -5.5 -15.5t-15.5 -5.5h-160z" />
    <glyph glyph-name="uni1EA0" unicode="&#x1ea0;" horiz-adv-x="1304" 
d="M1297 25q2 -6 2 -9q0 -16 -19 -16h-209q-19 0 -25 17l-124 373h-548l-121 -372q-4 -18 -24 -18h-205q-19 0 -19 16q0 3 2 9l480 1358q6 17 24 17h290q18 0 24 -17zM859 585l-215 648l-210 -648h425zM549 -322q-10 0 -15.5 5.5t-5.5 15.5v188q0 10 5.5 15.5t15.5 5.5h202
q10 0 15.5 -5.5t5.5 -15.5v-188q0 -10 -5.5 -15.5t-15.5 -5.5h-202z" />
    <glyph glyph-name="uni1EA1" unicode="&#x1ea1;" horiz-adv-x="1126" 
d="M1035 520l8 -499q0 -21 -21 -21h-199q-22 0 -22 21l4 128q-53 -81 -133 -124.5t-184 -43.5q-139 0 -237 69.5t-148.5 190t-50.5 272.5q0 150 53.5 272t153.5 193.5t234 71.5q102 0 181 -40.5t130 -118.5l-4 117v2q0 20 21 20h201q21 0 21 -21zM743 236.5
q67 93.5 67 278.5q0 178 -65.5 274.5t-186.5 97.5q-129 2 -195 -93t-66 -267q0 -182 64.5 -283t189.5 -101t192 93.5zM462 -322q-10 0 -15.5 5.5t-5.5 15.5v188q0 10 5.5 15.5t15.5 5.5h202q10 0 15.5 -5.5t5.5 -15.5v-188q0 -10 -5.5 -15.5t-15.5 -5.5h-202z" />
    <glyph glyph-name="uni1EA2" unicode="&#x1ea2;" horiz-adv-x="1304" 
d="M1297 25q2 -6 2 -9q0 -16 -19 -16h-209q-19 0 -25 17l-124 373h-548l-121 -372q-4 -18 -24 -18h-205q-19 0 -19 16q0 3 2 9l480 1358q6 17 24 17h290q18 0 24 -17zM859 585l-215 648l-210 -648h425zM593 1509q-11 0 -16.5 6t-3.5 17q6 45 32.5 70t72.5 49
q35 19 50.5 32.5t15.5 34.5q0 25 -20 40t-59 15q-36 0 -58.5 -14.5t-29.5 -41.5q-5 -20 -23 -20h-119q-11 0 -16 6t-4 16q11 82 76 127.5t176 45.5q112 0 179 -46t67 -124q0 -33 -14 -57t-33 -39.5t-51 -34.5q-31 -19 -47 -32t-22 -31q-4 -10 -9 -14.5t-14 -4.5h-130z" />
    <glyph glyph-name="uni1EA3" unicode="&#x1ea3;" horiz-adv-x="1126" 
d="M1035 520l8 -499q0 -21 -21 -21h-199q-22 0 -22 21l4 128q-53 -81 -133 -124.5t-184 -43.5q-139 0 -237 69.5t-148.5 190t-50.5 272.5q0 150 53.5 272t153.5 193.5t234 71.5q102 0 181 -40.5t130 -118.5l-4 117v2q0 20 21 20h201q21 0 21 -21zM743 236.5
q67 93.5 67 278.5q0 178 -65.5 274.5t-186.5 97.5q-129 2 -195 -93t-66 -267q0 -182 64.5 -283t189.5 -101t192 93.5zM486 1139q-11 0 -16.5 6t-3.5 17q6 45 32.5 70t72.5 49q35 19 50.5 32.5t15.5 34.5q0 25 -20 40t-59 15q-36 0 -58.5 -14.5t-29.5 -41.5q-5 -20 -23 -20
h-119q-11 0 -16 6t-4 16q11 82 76 127.5t176 45.5q112 0 179 -46t67 -124q0 -33 -14 -57t-33 -39.5t-51 -34.5q-31 -19 -47 -32t-22 -31q-4 -10 -9 -14.5t-14 -4.5h-130z" />
    <glyph glyph-name="uni1EA4" unicode="&#x1ea4;" horiz-adv-x="1304" 
d="M1297 25q2 -6 2 -9q0 -16 -19 -16h-209q-19 0 -25 17l-124 373h-548l-121 -372q-4 -18 -24 -18h-205q-19 0 -19 16q0 3 2 9l480 1358q6 17 24 17h290q18 0 24 -17zM859 585l-215 648l-210 -648h425zM942 1725q-7 -7 -15 -7t-15 6l-63 55q-8 7 -8 17q0 8 5 14l223 287
q6 10 16 10q8 0 15 -7l95 -88q8 -8 8 -16t-7 -15zM313 1561q-2 4 -2 11q0 11 10 18l272 180q10 8 28 8h72q17 0 27 -8l272 -180q11 -7 11 -18q0 -7 -2 -11l-34 -79q-5 -14 -17 -14q-5 0 -11 3l-284 134l-281 -133q-6 -3 -11 -3q-11 0 -17 13z" />
    <glyph glyph-name="uni1EA5" unicode="&#x1ea5;" horiz-adv-x="1126" 
d="M1035 520l8 -499q0 -21 -21 -21h-199q-22 0 -22 21l4 128q-53 -81 -133 -124.5t-184 -43.5q-139 0 -237 69.5t-148.5 190t-50.5 272.5q0 150 53.5 272t153.5 193.5t234 71.5q102 0 181 -40.5t130 -118.5l-4 117v2q0 20 21 20h201q21 0 21 -21zM743 236.5
q67 93.5 67 278.5q0 178 -65.5 274.5t-186.5 97.5q-129 2 -195 -93t-66 -267q0 -182 64.5 -283t189.5 -101t192 93.5zM835 1355q-7 -7 -15 -7t-15 6l-63 55q-8 7 -8 17q0 8 5 14l223 287q6 10 16 10q8 0 15 -7l95 -88q8 -8 8 -16t-7 -15zM206 1191q-2 4 -2 11q0 11 10 18
l272 180q10 8 28 8h72q17 0 27 -8l272 -180q11 -7 11 -18q0 -7 -2 -11l-34 -79q-5 -14 -17 -14q-5 0 -11 3l-284 134l-281 -133q-6 -3 -11 -3q-11 0 -17 13z" />
    <glyph glyph-name="uni1EA6" unicode="&#x1ea6;" horiz-adv-x="1304" 
d="M1297 25q2 -6 2 -9q0 -16 -19 -16h-209q-19 0 -25 17l-124 373h-548l-121 -372q-4 -18 -24 -18h-205q-19 0 -19 16q0 3 2 9l480 1358q6 17 24 17h290q18 0 24 -17zM859 585l-215 648l-210 -648h425zM953 1723q-8 -6 -15 -6q-9 0 -16 7l-254 255q-7 7 -7 16t7 15l97 88
q7 7 15 7q9 0 15 -9l223 -288q5 -5 5 -14t-8 -16zM313 1561q-2 4 -2 11q0 11 10 18l272 180q10 8 28 8h72q17 0 27 -8l272 -180q11 -7 11 -18q0 -7 -2 -11l-34 -79q-5 -14 -17 -14q-5 0 -11 3l-284 134l-281 -133q-6 -3 -11 -3q-11 0 -17 13z" />
    <glyph glyph-name="uni1EA7" unicode="&#x1ea7;" horiz-adv-x="1126" 
d="M1035 520l8 -499q0 -21 -21 -21h-199q-22 0 -22 21l4 128q-53 -81 -133 -124.5t-184 -43.5q-139 0 -237 69.5t-148.5 190t-50.5 272.5q0 150 53.5 272t153.5 193.5t234 71.5q102 0 181 -40.5t130 -118.5l-4 117v2q0 20 21 20h201q21 0 21 -21zM743 236.5
q67 93.5 67 278.5q0 178 -65.5 274.5t-186.5 97.5q-129 2 -195 -93t-66 -267q0 -182 64.5 -283t189.5 -101t192 93.5zM846 1353q-8 -6 -15 -6q-9 0 -16 7l-254 255q-7 7 -7 16t7 15l97 88q7 7 15 7q9 0 15 -9l223 -288q5 -5 5 -14t-8 -16zM206 1191q-2 4 -2 11q0 11 10 18
l272 180q10 8 28 8h72q17 0 27 -8l272 -180q11 -7 11 -18q0 -7 -2 -11l-34 -79q-5 -14 -17 -14q-5 0 -11 3l-284 134l-281 -133q-6 -3 -11 -3q-11 0 -17 13z" />
    <glyph glyph-name="uni1EA8" unicode="&#x1ea8;" horiz-adv-x="1304" 
d="M1297 25q2 -6 2 -9q0 -16 -19 -16h-209q-19 0 -25 17l-124 373h-548l-121 -372q-4 -18 -24 -18h-205q-19 0 -19 16q0 3 2 9l480 1358q6 17 24 17h290q18 0 24 -17zM859 585l-215 648l-210 -648h425zM313 1561q-2 4 -2 11q0 12 10 19l272 179q10 8 28 8h72q17 0 27 -8
l272 -179q11 -7 11 -19q0 -7 -2 -11l-34 -79q-4 -13 -18 -13q-6 0 -10 2l-284 134l-281 -133q-6 -3 -11 -3q-11 0 -17 13zM869 1745q-11 0 -16.5 6t-3.5 17q6 45 32.5 70t72.5 49q35 19 50.5 32.5t15.5 34.5q0 25 -20 40t-59 15q-36 0 -58.5 -14.5t-29.5 -41.5
q-5 -20 -23 -20h-119q-11 0 -16 6t-4 16q11 82 76 127.5t176 45.5q112 0 179 -46t67 -124q0 -33 -14 -57t-33 -39.5t-51 -34.5q-31 -19 -47 -32t-22 -31q-4 -10 -9 -14.5t-14 -4.5h-130z" />
    <glyph glyph-name="uni1EA9" unicode="&#x1ea9;" horiz-adv-x="1126" 
d="M1035 520l8 -499q0 -21 -21 -21h-199q-22 0 -22 21l4 128q-53 -81 -133 -124.5t-184 -43.5q-139 0 -237 69.5t-148.5 190t-50.5 272.5q0 150 53.5 272t153.5 193.5t234 71.5q102 0 181 -40.5t130 -118.5l-4 117v2q0 20 21 20h201q21 0 21 -21zM743 236.5
q67 93.5 67 278.5q0 178 -65.5 274.5t-186.5 97.5q-129 2 -195 -93t-66 -267q0 -182 64.5 -283t189.5 -101t192 93.5zM206 1191q-2 4 -2 11q0 12 10 19l272 179q10 8 28 8h72q17 0 27 -8l272 -179q11 -7 11 -19q0 -7 -2 -11l-34 -79q-4 -13 -18 -13q-6 0 -10 2l-284 134
l-281 -133q-6 -3 -11 -3q-11 0 -17 13zM762 1375q-11 0 -16.5 6t-3.5 17q6 45 32.5 70t72.5 49q35 19 50.5 32.5t15.5 34.5q0 25 -20 40t-59 15q-36 0 -58.5 -14.5t-29.5 -41.5q-5 -20 -23 -20h-119q-11 0 -16 6t-4 16q11 82 76 127.5t176 45.5q112 0 179 -46t67 -124
q0 -33 -14 -57t-33 -39.5t-51 -34.5q-31 -19 -47 -32t-22 -31q-4 -10 -9 -14.5t-14 -4.5h-130z" />
    <glyph glyph-name="uni1EAA" unicode="&#x1eaa;" horiz-adv-x="1304" 
d="M1297 25q2 -6 2 -9q0 -16 -19 -16h-209q-19 0 -25 17l-124 373h-548l-121 -372q-4 -18 -24 -18h-205q-19 0 -19 16q0 3 2 9l480 1358q6 17 24 17h290q18 0 24 -17zM859 585l-215 648l-210 -648h425zM313 1561q-2 4 -2 11q0 12 10 19l272 179q10 8 28 8h72q17 0 27 -8
l272 -179q11 -7 11 -19q0 -7 -2 -11l-34 -79q-4 -13 -18 -13q-6 0 -10 2l-284 134l-281 -133q-6 -3 -11 -3q-11 0 -17 13zM695.5 1842q-32.5 19 -69.5 54q-27 25 -43.5 36t-36.5 11q-57 0 -62 -93q0 -22 -22 -22h-84q-10 0 -15.5 6t-4.5 16q4 105 50.5 168.5t134.5 63.5
q45 0 77 -19.5t70 -55.5q26 -24 41 -34.5t32 -10.5q61 0 66 93q2 22 22 22h84q11 0 16.5 -7t4.5 -20q-5 -107 -50.5 -167t-131.5 -60q-46 0 -78.5 19z" />
    <glyph glyph-name="uni1EAB" unicode="&#x1eab;" horiz-adv-x="1126" 
d="M1035 520l8 -499q0 -21 -21 -21h-199q-22 0 -22 21l4 128q-53 -81 -133 -124.5t-184 -43.5q-139 0 -237 69.5t-148.5 190t-50.5 272.5q0 150 53.5 272t153.5 193.5t234 71.5q102 0 181 -40.5t130 -118.5l-4 117v2q0 20 21 20h201q21 0 21 -21zM743 236.5
q67 93.5 67 278.5q0 178 -65.5 274.5t-186.5 97.5q-129 2 -195 -93t-66 -267q0 -182 64.5 -283t189.5 -101t192 93.5zM206 1191q-2 4 -2 11q0 12 10 19l272 179q10 8 28 8h72q17 0 27 -8l272 -179q11 -7 11 -19q0 -7 -2 -11l-34 -79q-4 -13 -18 -13q-6 0 -10 2l-284 134
l-281 -133q-6 -3 -11 -3q-11 0 -17 13zM588.5 1472q-32.5 19 -69.5 54q-27 25 -43.5 36t-36.5 11q-57 0 -62 -93q0 -22 -22 -22h-84q-10 0 -15.5 6t-4.5 16q4 105 50.5 168.5t134.5 63.5q45 0 77 -19.5t70 -55.5q26 -24 41 -34.5t32 -10.5q61 0 66 93q2 22 22 22h84
q11 0 16.5 -7t4.5 -20q-5 -107 -50.5 -167t-131.5 -60q-46 0 -78.5 19z" />
    <glyph glyph-name="uni1EAC" unicode="&#x1eac;" horiz-adv-x="1304" 
d="M1297 25q2 -6 2 -9q0 -16 -19 -16h-209q-19 0 -25 17l-124 373h-548l-121 -372q-4 -18 -24 -18h-205q-19 0 -19 16q0 3 2 9l480 1358q6 17 24 17h290q18 0 24 -17zM859 585l-215 648l-210 -648h425zM549 -322q-10 0 -15.5 5.5t-5.5 15.5v188q0 10 5.5 15.5t15.5 5.5h202
q10 0 15.5 -5.5t5.5 -15.5v-188q0 -10 -5.5 -15.5t-15.5 -5.5h-202zM313 1599q-2 4 -2 11q0 12 10 19l272 179q10 8 28 8h72q17 0 27 -8l272 -179q11 -7 11 -19q0 -7 -2 -11l-34 -79q-4 -13 -18 -13q-6 0 -10 2l-284 134l-281 -133q-6 -3 -11 -3q-11 0 -17 13z" />
    <glyph glyph-name="uni1EAD" unicode="&#x1ead;" horiz-adv-x="1126" 
d="M1035 520l8 -499q0 -21 -21 -21h-199q-22 0 -22 21l4 128q-53 -81 -133 -124.5t-184 -43.5q-139 0 -237 69.5t-148.5 190t-50.5 272.5q0 150 53.5 272t153.5 193.5t234 71.5q102 0 181 -40.5t130 -118.5l-4 117v2q0 20 21 20h201q21 0 21 -21zM743 236.5
q67 93.5 67 278.5q0 178 -65.5 274.5t-186.5 97.5q-129 2 -195 -93t-66 -267q0 -182 64.5 -283t189.5 -101t192 93.5zM462 -322q-10 0 -15.5 5.5t-5.5 15.5v188q0 10 5.5 15.5t15.5 5.5h202q10 0 15.5 -5.5t5.5 -15.5v-188q0 -10 -5.5 -15.5t-15.5 -5.5h-202zM206 1229
q-2 4 -2 11q0 12 10 19l272 179q10 8 28 8h72q17 0 27 -8l272 -179q11 -7 11 -19q0 -7 -2 -11l-34 -79q-4 -13 -18 -13q-6 0 -10 2l-284 134l-281 -133q-6 -3 -11 -3q-11 0 -17 13z" />
    <glyph glyph-name="uni1EAE" unicode="&#x1eae;" horiz-adv-x="1304" 
d="M1297 25q2 -6 2 -9q0 -16 -19 -16h-209q-19 0 -25 17l-124 373h-548l-121 -372q-4 -18 -24 -18h-205q-19 0 -19 16q0 3 2 9l480 1358q6 17 24 17h290q18 0 24 -17zM859 585l-215 648l-210 -648h425zM675 1759q-7 -7 -15 -7q-7 0 -15 6l-67 55q-8 7 -8 16q0 8 5 14
l223 292q6 9 15 9q7 0 15 -6l100 -89q8 -8 8 -15q0 -6 -7 -15zM497 1530.5q-70 36.5 -110 100.5t-45 144v2q0 9 5.5 14t14.5 5h118q20 0 23 -21q6 -56 46 -89t109 -33q65 0 106.5 33.5t48.5 88.5q3 21 22 21h118q21 0 21 -19q-5 -81 -44.5 -145.5t-110 -101t-161.5 -36.5
t-161 36.5z" />
    <glyph glyph-name="uni1EAF" unicode="&#x1eaf;" horiz-adv-x="1126" 
d="M1035 520l8 -499q0 -21 -21 -21h-199q-22 0 -22 21l4 128q-53 -81 -133 -124.5t-184 -43.5q-139 0 -237 69.5t-148.5 190t-50.5 272.5q0 150 53.5 272t153.5 193.5t234 71.5q102 0 181 -40.5t130 -118.5l-4 117v2q0 20 21 20h201q21 0 21 -21zM743 236.5
q67 93.5 67 278.5q0 178 -65.5 274.5t-186.5 97.5q-129 2 -195 -93t-66 -267q0 -182 64.5 -283t189.5 -101t192 93.5zM568 1389q-7 -7 -15 -7q-7 0 -15 6l-67 55q-8 7 -8 16q0 8 5 14l223 292q6 9 15 9q7 0 15 -6l100 -89q8 -8 8 -15q0 -6 -7 -15zM390 1160.5
q-70 36.5 -110 100.5t-45 144v2q0 9 5.5 14t14.5 5h118q20 0 23 -21q6 -56 46 -89t109 -33q65 0 106.5 33.5t48.5 88.5q3 21 22 21h118q21 0 21 -19q-5 -81 -44.5 -145.5t-110 -101t-161.5 -36.5t-161 36.5z" />
    <glyph glyph-name="uni1EB0" unicode="&#x1eb0;" horiz-adv-x="1304" 
d="M1297 25q2 -6 2 -9q0 -16 -19 -16h-209q-19 0 -25 17l-124 373h-548l-121 -372q-4 -18 -24 -18h-205q-19 0 -19 16q0 3 2 9l480 1358q6 17 24 17h290q18 0 24 -17zM859 585l-215 648l-210 -648h425zM672 1758q-8 -6 -15 -6q-8 0 -15 7l-253 260q-8 8 -8 15t8 15l100 89
q7 6 15 6q9 0 15 -9l223 -292q5 -6 5 -14q0 -9 -8 -16zM497 1530.5q-70 36.5 -110 100.5t-45 144v2q0 9 5.5 14t15.5 5h117q20 0 23 -21q6 -56 46 -89t109 -33q66 0 107 33.5t48 88.5q3 21 22 21h118q11 0 16.5 -5t4.5 -14q-5 -81 -44.5 -145.5t-110 -101t-161.5 -36.5
t-161 36.5z" />
    <glyph glyph-name="uni1EB1" unicode="&#x1eb1;" horiz-adv-x="1126" 
d="M1035 520l8 -499q0 -21 -21 -21h-199q-22 0 -22 21l4 128q-53 -81 -133 -124.5t-184 -43.5q-139 0 -237 69.5t-148.5 190t-50.5 272.5q0 150 53.5 272t153.5 193.5t234 71.5q102 0 181 -40.5t130 -118.5l-4 117v2q0 20 21 20h201q21 0 21 -21zM743 236.5
q67 93.5 67 278.5q0 178 -65.5 274.5t-186.5 97.5q-129 2 -195 -93t-66 -267q0 -182 64.5 -283t189.5 -101t192 93.5zM565 1388q-8 -6 -15 -6q-8 0 -15 7l-253 260q-8 8 -8 15t8 15l100 89q7 6 15 6q9 0 15 -9l223 -292q5 -6 5 -14q0 -9 -8 -16zM390 1160.5
q-70 36.5 -110 100.5t-45 144v2q0 9 5.5 14t15.5 5h117q20 0 23 -21q6 -56 46 -89t109 -33q66 0 107 33.5t48 88.5q3 21 22 21h118q11 0 16.5 -5t4.5 -14q-5 -81 -44.5 -145.5t-110 -101t-161.5 -36.5t-161 36.5z" />
    <glyph glyph-name="uni1EB2" unicode="&#x1eb2;" horiz-adv-x="1304" 
d="M1297 25q2 -6 2 -9q0 -16 -19 -16h-209q-19 0 -25 17l-124 373h-548l-121 -372q-4 -18 -24 -18h-205q-19 0 -19 16q0 3 2 9l480 1358q6 17 24 17h290q18 0 24 -17zM859 585l-215 648l-210 -648h425zM497 1530.5q-70 36.5 -110 100t-45 143.5v2q0 10 5.5 15t14.5 5h118
q20 0 23 -21q6 -56 46 -89.5t109 -33.5q65 0 106.5 34t48.5 89q3 21 22 21h118q21 0 21 -19q-5 -81 -44.5 -145.5t-110 -101t-161.5 -36.5t-161 36.5zM590 1789q-11 0 -16.5 6t-3.5 17q6 45 32.5 70t72.5 49q35 19 50.5 32.5t15.5 34.5q0 25 -20 40t-59 15
q-36 0 -58.5 -14.5t-29.5 -41.5q-5 -20 -23 -20h-119q-11 0 -16 6t-4 16q11 82 76 127.5t176 45.5q112 0 179 -46t67 -124q0 -33 -14 -57t-33 -39.5t-51 -34.5q-31 -19 -47 -32t-22 -31q-4 -10 -9 -14.5t-14 -4.5h-130z" />
    <glyph glyph-name="uni1EB3" unicode="&#x1eb3;" horiz-adv-x="1126" 
d="M1035 520l8 -499q0 -21 -21 -21h-199q-22 0 -22 21l4 128q-53 -81 -133 -124.5t-184 -43.5q-139 0 -237 69.5t-148.5 190t-50.5 272.5q0 150 53.5 272t153.5 193.5t234 71.5q102 0 181 -40.5t130 -118.5l-4 117v2q0 20 21 20h201q21 0 21 -21zM743 236.5
q67 93.5 67 278.5q0 178 -65.5 274.5t-186.5 97.5q-129 2 -195 -93t-66 -267q0 -182 64.5 -283t189.5 -101t192 93.5zM390 1160.5q-70 36.5 -110 100t-45 143.5v2q0 10 5.5 15t14.5 5h118q20 0 23 -21q6 -56 46 -89.5t109 -33.5q65 0 106.5 34t48.5 89q3 21 22 21h118
q21 0 21 -19q-5 -81 -44.5 -145.5t-110 -101t-161.5 -36.5t-161 36.5zM483 1419q-11 0 -16.5 6t-3.5 17q6 45 32.5 70t72.5 49q35 19 50.5 32.5t15.5 34.5q0 25 -20 40t-59 15q-36 0 -58.5 -14.5t-29.5 -41.5q-5 -20 -23 -20h-119q-11 0 -16 6t-4 16q11 82 76 127.5
t176 45.5q112 0 179 -46t67 -124q0 -33 -14 -57t-33 -39.5t-51 -34.5q-31 -19 -47 -32t-22 -31q-4 -10 -9 -14.5t-14 -4.5h-130z" />
    <glyph glyph-name="uni1EB4" unicode="&#x1eb4;" horiz-adv-x="1304" 
d="M1297 25q2 -6 2 -9q0 -16 -19 -16h-209q-19 0 -25 17l-124 373h-548l-121 -372q-4 -18 -24 -18h-205q-19 0 -19 16q0 3 2 9l480 1358q6 17 24 17h290q18 0 24 -17zM859 585l-215 648l-210 -648h425zM693 1858q-31 18 -66 51q-26 24 -42 34.5t-35 10.5q-56 0 -59 -87
q-2 -22 -22 -22h-84q-11 0 -16.5 6t-4.5 16q4 103 50 165t133 62q43 0 73.5 -18t67.5 -52q23 -22 39 -33t33 -11q31 0 45.5 22.5t16.5 64.5q0 21 22 21h84q10 0 15.5 -7t4.5 -20q-5 -104 -49.5 -162.5t-128.5 -58.5q-46 0 -77 18zM497 1530.5q-70 36.5 -110 100.5t-45 144v2
q0 9 5.5 14t14.5 5h118q20 0 23 -21q6 -56 46 -89t109 -33q65 0 106.5 33.5t48.5 88.5q3 21 22 21h118q21 0 21 -19q-5 -81 -44.5 -145.5t-110 -101t-161.5 -36.5t-161 36.5z" />
    <glyph glyph-name="uni1EB5" unicode="&#x1eb5;" horiz-adv-x="1126" 
d="M1035 520l8 -499q0 -21 -21 -21h-199q-22 0 -22 21l4 128q-53 -81 -133 -124.5t-184 -43.5q-139 0 -237 69.5t-148.5 190t-50.5 272.5q0 150 53.5 272t153.5 193.5t234 71.5q102 0 181 -40.5t130 -118.5l-4 117v2q0 20 21 20h201q21 0 21 -21zM743 236.5
q67 93.5 67 278.5q0 178 -65.5 274.5t-186.5 97.5q-129 2 -195 -93t-66 -267q0 -182 64.5 -283t189.5 -101t192 93.5zM586 1488q-31 18 -66 51q-26 24 -42 34.5t-35 10.5q-56 0 -59 -87q-2 -22 -22 -22h-84q-11 0 -16.5 6t-4.5 16q4 103 50 165t133 62q43 0 73.5 -18
t67.5 -52q23 -22 39 -33t33 -11q31 0 45.5 22.5t16.5 64.5q0 21 22 21h84q10 0 15.5 -7t4.5 -20q-5 -104 -49.5 -162.5t-128.5 -58.5q-46 0 -77 18zM390 1160.5q-70 36.5 -110 100.5t-45 144v2q0 9 5.5 14t14.5 5h118q20 0 23 -21q6 -56 46 -89t109 -33q65 0 106.5 33.5
t48.5 88.5q3 21 22 21h118q21 0 21 -19q-5 -81 -44.5 -145.5t-110 -101t-161.5 -36.5t-161 36.5z" />
    <glyph glyph-name="uni1EB6" unicode="&#x1eb6;" horiz-adv-x="1304" 
d="M1297 25q2 -6 2 -9q0 -16 -19 -16h-209q-19 0 -25 17l-124 373h-548l-121 -372q-4 -18 -24 -18h-205q-19 0 -19 16q0 3 2 9l480 1358q6 17 24 17h290q18 0 24 -17zM859 585l-215 648l-210 -648h425zM549 -322q-10 0 -15.5 5.5t-5.5 15.5v188q0 10 5.5 15.5t15.5 5.5h202
q10 0 15.5 -5.5t5.5 -15.5v-188q0 -10 -5.5 -15.5t-15.5 -5.5h-202zM497 1556.5q-70 36.5 -110 100t-45 143.5v2q0 10 5.5 15t14.5 5h118q20 0 23 -21q6 -56 46 -89.5t109 -33.5q65 0 106.5 34t48.5 89q3 21 22 21h118q21 0 21 -19q-5 -81 -44.5 -145.5t-110 -101
t-161.5 -36.5t-161 36.5z" />
    <glyph glyph-name="uni1EB7" unicode="&#x1eb7;" horiz-adv-x="1126" 
d="M1035 520l8 -499q0 -21 -21 -21h-199q-22 0 -22 21l4 128q-53 -81 -133 -124.5t-184 -43.5q-139 0 -237 69.5t-148.5 190t-50.5 272.5q0 150 53.5 272t153.5 193.5t234 71.5q102 0 181 -40.5t130 -118.5l-4 117v2q0 20 21 20h201q21 0 21 -21zM743 236.5
q67 93.5 67 278.5q0 178 -65.5 274.5t-186.5 97.5q-129 2 -195 -93t-66 -267q0 -182 64.5 -283t189.5 -101t192 93.5zM462 -322q-10 0 -15.5 5.5t-5.5 15.5v188q0 10 5.5 15.5t15.5 5.5h202q10 0 15.5 -5.5t5.5 -15.5v-188q0 -10 -5.5 -15.5t-15.5 -5.5h-202zM390 1186.5
q-70 36.5 -110 100t-45 143.5v2q0 10 5.5 15t14.5 5h118q20 0 23 -21q6 -56 46 -89.5t109 -33.5q65 0 106.5 34t48.5 89q3 21 22 21h118q21 0 21 -19q-5 -81 -44.5 -145.5t-110 -101t-161.5 -36.5t-161 36.5z" />
    <glyph glyph-name="uni1EB8" unicode="&#x1eb8;" horiz-adv-x="1103" 
d="M118 0q-21 0 -21 21l11 692l-11 666q0 21 21 21h889q10 0 15.5 -5.5t5.5 -15.5v-141q0 -10 -5.5 -15.5t-15.5 -5.5h-658l-10 -382h615q21 0 21 -22v-140q0 -10 -5.5 -15.5t-15.5 -5.5h-615l10 -469h674q10 0 15.5 -5.5t5.5 -15.5v-141q0 -10 -5.5 -15.5t-15.5 -5.5h-905z
M483 -322q-10 0 -15.5 5.5t-5.5 15.5v188q0 10 5.5 15.5t15.5 5.5h202q10 0 15.5 -5.5t5.5 -15.5v-188q0 -10 -5.5 -15.5t-15.5 -5.5h-202z" />
    <glyph glyph-name="uni1EB9" unicode="&#x1eb9;" horiz-adv-x="1108" 
d="M295 474q7 -171 74.5 -253.5t196.5 -82.5q95 0 155 49t82 147q5 19 23 19h189q11 0 16.5 -4.5t4.5 -12.5q-15 -102 -75 -184t-162 -129t-236 -47q-162 0 -277.5 67.5t-174.5 189t-59 279.5q0 162 60.5 284.5t174 190t268.5 67.5q157 0 269 -67t172.5 -192.5t63.5 -298.5
q0 -22 -21 -22h-744zM384 825.5q-64 -67.5 -82 -195.5h499q-5 73 -33.5 132.5t-82 95t-128.5 35.5q-109 0 -173 -67.5zM453 -322q-10 0 -15.5 5.5t-5.5 15.5v188q0 10 5.5 15.5t15.5 5.5h202q10 0 15.5 -5.5t5.5 -15.5v-188q0 -10 -5.5 -15.5t-15.5 -5.5h-202z" />
    <glyph glyph-name="uni1EBA" unicode="&#x1eba;" horiz-adv-x="1103" 
d="M118 0q-21 0 -21 21l11 692l-11 666q0 21 21 21h889q10 0 15.5 -5.5t5.5 -15.5v-141q0 -10 -5.5 -15.5t-15.5 -5.5h-658l-10 -382h615q21 0 21 -22v-140q0 -10 -5.5 -15.5t-15.5 -5.5h-615l10 -469h674q10 0 15.5 -5.5t5.5 -15.5v-141q0 -10 -5.5 -15.5t-15.5 -5.5h-905z
M517 1509q-11 0 -16.5 6t-3.5 17q6 45 32.5 70t72.5 49q35 19 50.5 32.5t15.5 34.5q0 25 -20 40t-59 15q-36 0 -58.5 -14.5t-29.5 -41.5q-5 -20 -23 -20h-119q-11 0 -16 6t-4 16q11 82 76 127.5t176 45.5q112 0 179 -46t67 -124q0 -33 -14 -57t-33 -39.5t-51 -34.5
q-31 -19 -47 -32t-22 -31q-4 -10 -9 -14.5t-14 -4.5h-130z" />
    <glyph glyph-name="uni1EBB" unicode="&#x1ebb;" horiz-adv-x="1108" 
d="M295 474q7 -171 74.5 -253.5t196.5 -82.5q95 0 155 49t82 147q5 19 23 19h189q11 0 16.5 -4.5t4.5 -12.5q-15 -102 -75 -184t-162 -129t-236 -47q-162 0 -277.5 67.5t-174.5 189t-59 279.5q0 162 60.5 284.5t174 190t268.5 67.5q157 0 269 -67t172.5 -192.5t63.5 -298.5
q0 -22 -21 -22h-744zM384 825.5q-64 -67.5 -82 -195.5h499q-5 73 -33.5 132.5t-82 95t-128.5 35.5q-109 0 -173 -67.5zM491 1139q-11 0 -16.5 6t-3.5 17q6 45 32.5 70t72.5 49q35 19 50.5 32.5t15.5 34.5q0 25 -20 40t-59 15q-36 0 -58.5 -14.5t-29.5 -41.5q-5 -20 -23 -20
h-119q-11 0 -16 6t-4 16q11 82 76 127.5t176 45.5q112 0 179 -46t67 -124q0 -33 -14 -57t-33 -39.5t-51 -34.5q-31 -19 -47 -32t-22 -31q-4 -10 -9 -14.5t-14 -4.5h-130z" />
    <glyph glyph-name="uni1EBC" unicode="&#x1ebc;" horiz-adv-x="1103" 
d="M118 0q-21 0 -21 21l11 692l-11 666q0 21 21 21h889q10 0 15.5 -5.5t5.5 -15.5v-141q0 -10 -5.5 -15.5t-15.5 -5.5h-658l-10 -382h615q21 0 21 -22v-140q0 -10 -5.5 -15.5t-15.5 -5.5h-615l10 -469h674q10 0 15.5 -5.5t5.5 -15.5v-141q0 -10 -5.5 -15.5t-15.5 -5.5h-905z
M619.5 1551q-32.5 19 -69.5 54q-27 25 -43.5 36t-36.5 11q-57 0 -62 -93q0 -22 -22 -22h-84q-10 0 -15.5 6t-4.5 16q4 105 50.5 168.5t134.5 63.5q45 0 77 -19.5t70 -55.5q26 -24 41 -34.5t32 -10.5q61 0 66 93q2 22 22 22h84q11 0 16.5 -7t4.5 -20q-5 -107 -50.5 -167
t-131.5 -60q-46 0 -78.5 19z" />
    <glyph glyph-name="uni1EBD" unicode="&#x1ebd;" horiz-adv-x="1108" 
d="M295 474q7 -171 74.5 -253.5t196.5 -82.5q95 0 155 49t82 147q5 19 23 19h189q11 0 16.5 -4.5t4.5 -12.5q-15 -102 -75 -184t-162 -129t-236 -47q-162 0 -277.5 67.5t-174.5 189t-59 279.5q0 162 60.5 284.5t174 190t268.5 67.5q157 0 269 -67t172.5 -192.5t63.5 -298.5
q0 -22 -21 -22h-744zM384 825.5q-64 -67.5 -82 -195.5h499q-5 73 -33.5 132.5t-82 95t-128.5 35.5q-109 0 -173 -67.5zM593.5 1181q-32.5 19 -69.5 54q-27 25 -43.5 36t-36.5 11q-57 0 -62 -93q0 -22 -22 -22h-84q-10 0 -15.5 6t-4.5 16q4 105 50.5 168.5t134.5 63.5
q45 0 77 -19.5t70 -55.5q26 -24 41 -34.5t32 -10.5q61 0 66 93q2 22 22 22h84q11 0 16.5 -7t4.5 -20q-5 -107 -50.5 -167t-131.5 -60q-46 0 -78.5 19z" />
    <glyph glyph-name="uni1EBE" unicode="&#x1ebe;" horiz-adv-x="1103" 
d="M118 0q-21 0 -21 21l11 692l-11 666q0 21 21 21h889q10 0 15.5 -5.5t5.5 -15.5v-141q0 -10 -5.5 -15.5t-15.5 -5.5h-658l-10 -382h615q21 0 21 -22v-140q0 -10 -5.5 -15.5t-15.5 -5.5h-615l10 -469h674q10 0 15.5 -5.5t5.5 -15.5v-141q0 -10 -5.5 -15.5t-15.5 -5.5h-905z
M866 1725q-7 -7 -15 -7t-15 6l-63 55q-8 7 -8 17q0 8 5 14l223 287q6 10 16 10q8 0 15 -7l95 -88q8 -8 8 -16t-7 -15zM237 1561q-2 4 -2 11q0 11 10 18l272 180q10 8 28 8h72q17 0 27 -8l272 -180q11 -7 11 -18q0 -7 -2 -11l-34 -79q-5 -14 -17 -14q-5 0 -11 3l-284 134
l-281 -133q-6 -3 -11 -3q-11 0 -17 13z" />
    <glyph glyph-name="uni1EBF" unicode="&#x1ebf;" horiz-adv-x="1108" 
d="M295 474q7 -171 74.5 -253.5t196.5 -82.5q95 0 155 49t82 147q5 19 23 19h189q11 0 16.5 -4.5t4.5 -12.5q-15 -102 -75 -184t-162 -129t-236 -47q-162 0 -277.5 67.5t-174.5 189t-59 279.5q0 162 60.5 284.5t174 190t268.5 67.5q157 0 269 -67t172.5 -192.5t63.5 -298.5
q0 -22 -21 -22h-744zM384 825.5q-64 -67.5 -82 -195.5h499q-5 73 -33.5 132.5t-82 95t-128.5 35.5q-109 0 -173 -67.5zM840 1355q-7 -7 -15 -7t-15 6l-63 55q-8 7 -8 17q0 8 5 14l223 287q6 10 16 10q8 0 15 -7l95 -88q8 -8 8 -16t-7 -15zM211 1191q-2 4 -2 11q0 11 10 18
l272 180q10 8 28 8h72q17 0 27 -8l272 -180q11 -7 11 -18q0 -7 -2 -11l-34 -79q-5 -14 -17 -14q-5 0 -11 3l-284 134l-281 -133q-6 -3 -11 -3q-11 0 -17 13z" />
    <glyph glyph-name="uni1EC0" unicode="&#x1ec0;" horiz-adv-x="1103" 
d="M118 0q-21 0 -21 21l11 692l-11 666q0 21 21 21h889q10 0 15.5 -5.5t5.5 -15.5v-141q0 -10 -5.5 -15.5t-15.5 -5.5h-658l-10 -382h615q21 0 21 -22v-140q0 -10 -5.5 -15.5t-15.5 -5.5h-615l10 -469h674q10 0 15.5 -5.5t5.5 -15.5v-141q0 -10 -5.5 -15.5t-15.5 -5.5h-905z
M877 1723q-8 -6 -15 -6q-9 0 -16 7l-254 255q-7 7 -7 16t7 15l97 88q7 7 15 7q9 0 15 -9l223 -288q5 -5 5 -14t-8 -16zM237 1561q-2 4 -2 11q0 11 10 18l272 180q10 8 28 8h72q17 0 27 -8l272 -180q11 -7 11 -18q0 -7 -2 -11l-34 -79q-5 -14 -17 -14q-5 0 -11 3l-284 134
l-281 -133q-6 -3 -11 -3q-11 0 -17 13z" />
    <glyph glyph-name="uni1EC1" unicode="&#x1ec1;" horiz-adv-x="1108" 
d="M295 474q7 -171 74.5 -253.5t196.5 -82.5q95 0 155 49t82 147q5 19 23 19h189q11 0 16.5 -4.5t4.5 -12.5q-15 -102 -75 -184t-162 -129t-236 -47q-162 0 -277.5 67.5t-174.5 189t-59 279.5q0 162 60.5 284.5t174 190t268.5 67.5q157 0 269 -67t172.5 -192.5t63.5 -298.5
q0 -22 -21 -22h-744zM384 825.5q-64 -67.5 -82 -195.5h499q-5 73 -33.5 132.5t-82 95t-128.5 35.5q-109 0 -173 -67.5zM851 1353q-8 -6 -15 -6q-9 0 -16 7l-254 255q-7 7 -7 16t7 15l97 88q7 7 15 7q9 0 15 -9l223 -288q5 -5 5 -14t-8 -16zM211 1191q-2 4 -2 11q0 11 10 18
l272 180q10 8 28 8h72q17 0 27 -8l272 -180q11 -7 11 -18q0 -7 -2 -11l-34 -79q-5 -14 -17 -14q-5 0 -11 3l-284 134l-281 -133q-6 -3 -11 -3q-11 0 -17 13z" />
    <glyph glyph-name="uni1EC2" unicode="&#x1ec2;" horiz-adv-x="1103" 
d="M118 0q-21 0 -21 21l11 692l-11 666q0 21 21 21h889q10 0 15.5 -5.5t5.5 -15.5v-141q0 -10 -5.5 -15.5t-15.5 -5.5h-658l-10 -382h615q21 0 21 -22v-140q0 -10 -5.5 -15.5t-15.5 -5.5h-615l10 -469h674q10 0 15.5 -5.5t5.5 -15.5v-141q0 -10 -5.5 -15.5t-15.5 -5.5h-905z
M237 1561q-2 4 -2 11q0 12 10 19l272 179q10 8 28 8h72q17 0 27 -8l272 -179q11 -7 11 -19q0 -7 -2 -11l-34 -79q-4 -13 -18 -13q-6 0 -10 2l-284 134l-281 -133q-6 -3 -11 -3q-11 0 -17 13zM793 1745q-11 0 -16.5 6t-3.5 17q6 45 32.5 70t72.5 49q35 19 50.5 32.5
t15.5 34.5q0 25 -20 40t-59 15q-36 0 -58.5 -14.5t-29.5 -41.5q-5 -20 -23 -20h-119q-11 0 -16 6t-4 16q11 82 76 127.5t176 45.5q112 0 179 -46t67 -124q0 -33 -14 -57t-33 -39.5t-51 -34.5q-31 -19 -47 -32t-22 -31q-4 -10 -9 -14.5t-14 -4.5h-130z" />
    <glyph glyph-name="uni1EC3" unicode="&#x1ec3;" horiz-adv-x="1108" 
d="M295 474q7 -171 74.5 -253.5t196.5 -82.5q95 0 155 49t82 147q5 19 23 19h189q11 0 16.5 -4.5t4.5 -12.5q-15 -102 -75 -184t-162 -129t-236 -47q-162 0 -277.5 67.5t-174.5 189t-59 279.5q0 162 60.5 284.5t174 190t268.5 67.5q157 0 269 -67t172.5 -192.5t63.5 -298.5
q0 -22 -21 -22h-744zM384 825.5q-64 -67.5 -82 -195.5h499q-5 73 -33.5 132.5t-82 95t-128.5 35.5q-109 0 -173 -67.5zM211 1191q-2 4 -2 11q0 12 10 19l272 179q10 8 28 8h72q17 0 27 -8l272 -179q11 -7 11 -19q0 -7 -2 -11l-34 -79q-4 -13 -18 -13q-6 0 -10 2l-284 134
l-281 -133q-6 -3 -11 -3q-11 0 -17 13zM767 1375q-11 0 -16.5 6t-3.5 17q6 45 32.5 70t72.5 49q35 19 50.5 32.5t15.5 34.5q0 25 -20 40t-59 15q-36 0 -58.5 -14.5t-29.5 -41.5q-5 -20 -23 -20h-119q-11 0 -16 6t-4 16q11 82 76 127.5t176 45.5q112 0 179 -46t67 -124
q0 -33 -14 -57t-33 -39.5t-51 -34.5q-31 -19 -47 -32t-22 -31q-4 -10 -9 -14.5t-14 -4.5h-130z" />
    <glyph glyph-name="uni1EC4" unicode="&#x1ec4;" horiz-adv-x="1103" 
d="M118 0q-21 0 -21 21l11 692l-11 666q0 21 21 21h889q10 0 15.5 -5.5t5.5 -15.5v-141q0 -10 -5.5 -15.5t-15.5 -5.5h-658l-10 -382h615q21 0 21 -22v-140q0 -10 -5.5 -15.5t-15.5 -5.5h-615l10 -469h674q10 0 15.5 -5.5t5.5 -15.5v-141q0 -10 -5.5 -15.5t-15.5 -5.5h-905z
M237 1561q-2 4 -2 11q0 12 10 19l272 179q10 8 28 8h72q17 0 27 -8l272 -179q11 -7 11 -19q0 -7 -2 -11l-34 -79q-4 -13 -18 -13q-6 0 -10 2l-284 134l-281 -133q-6 -3 -11 -3q-11 0 -17 13zM619.5 1842q-32.5 19 -69.5 54q-27 25 -43.5 36t-36.5 11q-57 0 -62 -93
q0 -22 -22 -22h-84q-10 0 -15.5 6t-4.5 16q4 105 50.5 168.5t134.5 63.5q45 0 77 -19.5t70 -55.5q26 -24 41 -34.5t32 -10.5q61 0 66 93q2 22 22 22h84q11 0 16.5 -7t4.5 -20q-5 -107 -50.5 -167t-131.5 -60q-46 0 -78.5 19z" />
    <glyph glyph-name="uni1EC5" unicode="&#x1ec5;" horiz-adv-x="1108" 
d="M295 474q7 -171 74.5 -253.5t196.5 -82.5q95 0 155 49t82 147q5 19 23 19h189q11 0 16.5 -4.5t4.5 -12.5q-15 -102 -75 -184t-162 -129t-236 -47q-162 0 -277.5 67.5t-174.5 189t-59 279.5q0 162 60.5 284.5t174 190t268.5 67.5q157 0 269 -67t172.5 -192.5t63.5 -298.5
q0 -22 -21 -22h-744zM384 825.5q-64 -67.5 -82 -195.5h499q-5 73 -33.5 132.5t-82 95t-128.5 35.5q-109 0 -173 -67.5zM211 1191q-2 4 -2 11q0 12 10 19l272 179q10 8 28 8h72q17 0 27 -8l272 -179q11 -7 11 -19q0 -7 -2 -11l-34 -79q-4 -13 -18 -13q-6 0 -10 2l-284 134
l-281 -133q-6 -3 -11 -3q-11 0 -17 13zM593.5 1472q-32.5 19 -69.5 54q-27 25 -43.5 36t-36.5 11q-57 0 -62 -93q0 -22 -22 -22h-84q-10 0 -15.5 6t-4.5 16q4 105 50.5 168.5t134.5 63.5q45 0 77 -19.5t70 -55.5q26 -24 41 -34.5t32 -10.5q61 0 66 93q2 22 22 22h84
q11 0 16.5 -7t4.5 -20q-5 -107 -50.5 -167t-131.5 -60q-46 0 -78.5 19z" />
    <glyph glyph-name="uni1EC6" unicode="&#x1ec6;" horiz-adv-x="1103" 
d="M118 0q-21 0 -21 21l11 692l-11 666q0 21 21 21h889q10 0 15.5 -5.5t5.5 -15.5v-141q0 -10 -5.5 -15.5t-15.5 -5.5h-658l-10 -382h615q21 0 21 -22v-140q0 -10 -5.5 -15.5t-15.5 -5.5h-615l10 -469h674q10 0 15.5 -5.5t5.5 -15.5v-141q0 -10 -5.5 -15.5t-15.5 -5.5h-905z
M483 -322q-10 0 -15.5 5.5t-5.5 15.5v188q0 10 5.5 15.5t15.5 5.5h202q10 0 15.5 -5.5t5.5 -15.5v-188q0 -10 -5.5 -15.5t-15.5 -5.5h-202zM237 1599q-2 4 -2 11q0 12 10 19l272 179q10 8 28 8h72q17 0 27 -8l272 -179q11 -7 11 -19q0 -7 -2 -11l-34 -79q-4 -13 -18 -13
q-6 0 -10 2l-284 134l-281 -133q-6 -3 -11 -3q-11 0 -17 13z" />
    <glyph glyph-name="uni1EC7" unicode="&#x1ec7;" horiz-adv-x="1108" 
d="M295 474q7 -171 74.5 -253.5t196.5 -82.5q95 0 155 49t82 147q5 19 23 19h189q11 0 16.5 -4.5t4.5 -12.5q-15 -102 -75 -184t-162 -129t-236 -47q-162 0 -277.5 67.5t-174.5 189t-59 279.5q0 162 60.5 284.5t174 190t268.5 67.5q157 0 269 -67t172.5 -192.5t63.5 -298.5
q0 -22 -21 -22h-744zM384 825.5q-64 -67.5 -82 -195.5h499q-5 73 -33.5 132.5t-82 95t-128.5 35.5q-109 0 -173 -67.5zM453 -322q-10 0 -15.5 5.5t-5.5 15.5v188q0 10 5.5 15.5t15.5 5.5h202q10 0 15.5 -5.5t5.5 -15.5v-188q0 -10 -5.5 -15.5t-15.5 -5.5h-202zM211 1229
q-2 4 -2 11q0 12 10 19l272 179q10 8 28 8h72q17 0 27 -8l272 -179q11 -7 11 -19q0 -7 -2 -11l-34 -79q-4 -13 -18 -13q-6 0 -10 2l-284 134l-281 -133q-6 -3 -11 -3q-11 0 -17 13z" />
    <glyph glyph-name="uni1EC8" unicode="&#x1ec8;" horiz-adv-x="464" 
d="M128 0q-21 0 -21 21l12 686l-12 672q0 21 21 21h209q21 0 21 -21l-12 -672l12 -686q0 -21 -21 -21h-209zM169 1509q-11 0 -16.5 6t-3.5 17q6 45 32.5 70t72.5 49q35 19 50.5 32.5t15.5 34.5q0 25 -20 40t-59 15q-36 0 -58.5 -14.5t-29.5 -41.5q-5 -20 -23 -20h-119
q-11 0 -16 6t-4 16q11 82 76 127.5t176 45.5q112 0 179 -46t67 -124q0 -33 -14 -57t-33 -39.5t-51 -34.5q-31 -19 -47 -32t-22 -31q-4 -10 -9 -14.5t-14 -4.5h-130z" />
    <glyph glyph-name="uni1EC9" unicode="&#x1ec9;" horiz-adv-x="432" 
d="M153 1139q-11 0 -16.5 6t-4.5 17q6 45 33 70.5t73 48.5q35 19 50.5 32.5t15.5 34.5q0 24 -20.5 39.5t-58.5 15.5q-36 0 -58.5 -14.5t-29.5 -41.5q-3 -10 -8.5 -15t-14.5 -5h-104q-11 0 -16.5 6t-4.5 16q11 83 72 128t165 45q106 0 169 -46t63 -124q0 -33 -12.5 -57
t-30.5 -39t-47 -35t-43.5 -32.5t-19.5 -30.5q-6 -19 -23 -19h-129zM113 0q-21 0 -21 21l8 502l-8 486q0 21 21 21h206q21 0 21 -21l-8 -486l8 -502q0 -21 -21 -21h-206z" />
    <glyph glyph-name="uni1ECA" unicode="&#x1eca;" horiz-adv-x="464" 
d="M128 0q-21 0 -21 21l12 686l-12 672q0 21 21 21h209q21 0 21 -21l-12 -672l12 -686q0 -21 -21 -21h-209zM131 -322q-10 0 -15.5 5.5t-5.5 15.5v188q0 10 5.5 15.5t15.5 5.5h202q10 0 15.5 -5.5t5.5 -15.5v-188q0 -10 -5.5 -15.5t-15.5 -5.5h-202z" />
    <glyph glyph-name="uni1ECB" unicode="&#x1ecb;" horiz-adv-x="432" 
d="M113 0q-21 0 -21 21l8 502l-8 486q0 21 21 21h206q21 0 21 -21l-8 -486l8 -502q0 -21 -21 -21h-206zM115 1143q-10 0 -15.5 5.5t-5.5 15.5v188q0 10 5.5 15.5t15.5 5.5h202q10 0 15.5 -5.5t5.5 -15.5v-188q0 -10 -5.5 -15.5t-15.5 -5.5h-202zM116 -322q-10 0 -15.5 5.5
t-5.5 15.5v188q0 10 5.5 15.5t15.5 5.5h202q10 0 15.5 -5.5t5.5 -15.5v-188q0 -10 -5.5 -15.5t-15.5 -5.5h-202z" />
    <glyph glyph-name="uni1ECC" unicode="&#x1ecc;" horiz-adv-x="1485" 
d="M380.5 63.5q-155.5 90.5 -240.5 255t-85 379.5q0 221 84.5 386t240 254t362.5 89t362.5 -88.5t241 -253.5t85.5 -388q0 -215 -85.5 -379t-242 -254.5t-361.5 -90.5q-206 0 -361.5 90.5zM977 226q98 64 149.5 184.5t51.5 286.5q0 167 -51.5 288.5t-149.5 187t-235 65.5
q-138 0 -235.5 -64.5t-148.5 -186t-51 -290.5q0 -165 52 -285.5t150 -185t234 -64.5t234 64zM642 -322q-10 0 -15.5 5.5t-5.5 15.5v188q0 10 5.5 15.5t15.5 5.5h202q10 0 15.5 -5.5t5.5 -15.5v-188q0 -10 -5.5 -15.5t-15.5 -5.5h-202z" />
    <glyph glyph-name="uni1ECD" unicode="&#x1ecd;" horiz-adv-x="1120" 
d="M287 42q-115 66 -175 187t-60 284t60 285t175 189t275 67t273.5 -66t173 -187t59.5 -284t-59.5 -285t-173.5 -189t-273 -67q-160 0 -275 66zM757 231.5q64 93.5 64 281.5q0 186 -65.5 282.5t-195.5 96.5q-262 -3 -262 -381q0 -373 264 -373q131 0 195 93.5zM459 -322
q-10 0 -15.5 5.5t-5.5 15.5v188q0 10 5.5 15.5t15.5 5.5h202q10 0 15.5 -5.5t5.5 -15.5v-188q0 -10 -5.5 -15.5t-15.5 -5.5h-202z" />
    <glyph glyph-name="uni1ECE" unicode="&#x1ece;" horiz-adv-x="1485" 
d="M380.5 63.5q-155.5 90.5 -240.5 255t-85 379.5q0 221 84.5 386t240 254t362.5 89t362.5 -88.5t241 -253.5t85.5 -388q0 -215 -85.5 -379t-242 -254.5t-361.5 -90.5q-206 0 -361.5 90.5zM977 226q98 64 149.5 184.5t51.5 286.5q0 167 -51.5 288.5t-149.5 187t-235 65.5
q-138 0 -235.5 -64.5t-148.5 -186t-51 -290.5q0 -165 52 -285.5t150 -185t234 -64.5t234 64zM680 1509q-11 0 -16.5 6t-3.5 17q6 45 32.5 70t72.5 49q35 19 50.5 32.5t15.5 34.5q0 25 -20 40t-59 15q-36 0 -58.5 -14.5t-29.5 -41.5q-5 -20 -23 -20h-119q-11 0 -16 6t-4 16
q11 82 76 127.5t176 45.5q112 0 179 -46t67 -124q0 -33 -14 -57t-33 -39.5t-51 -34.5q-31 -19 -47 -32t-22 -31q-4 -10 -9 -14.5t-14 -4.5h-130z" />
    <glyph glyph-name="uni1ECF" unicode="&#x1ecf;" horiz-adv-x="1120" 
d="M287 42q-115 66 -175 187t-60 284t60 285t175 189t275 67t273.5 -66t173 -187t59.5 -284t-59.5 -285t-173.5 -189t-273 -67q-160 0 -275 66zM757 231.5q64 93.5 64 281.5q0 186 -65.5 282.5t-195.5 96.5q-262 -3 -262 -381q0 -373 264 -373q131 0 195 93.5zM497 1139
q-11 0 -16.5 6t-3.5 17q6 45 32.5 70t72.5 49q35 19 50.5 32.5t15.5 34.5q0 25 -20 40t-59 15q-36 0 -58.5 -14.5t-29.5 -41.5q-5 -20 -23 -20h-119q-11 0 -16 6t-4 16q11 82 76 127.5t176 45.5q112 0 179 -46t67 -124q0 -33 -14 -57t-33 -39.5t-51 -34.5q-31 -19 -47 -32
t-22 -31q-4 -10 -9 -14.5t-14 -4.5h-130z" />
    <glyph glyph-name="uni1ED0" unicode="&#x1ed0;" horiz-adv-x="1485" 
d="M380.5 63.5q-155.5 90.5 -240.5 255t-85 379.5q0 221 84.5 386t240 254t362.5 89t362.5 -88.5t241 -253.5t85.5 -388q0 -215 -85.5 -379t-242 -254.5t-361.5 -90.5q-206 0 -361.5 90.5zM977 226q98 64 149.5 184.5t51.5 286.5q0 167 -51.5 288.5t-149.5 187t-235 65.5
q-138 0 -235.5 -64.5t-148.5 -186t-51 -290.5q0 -165 52 -285.5t150 -185t234 -64.5t234 64zM1029 1725q-7 -7 -15 -7t-15 6l-63 55q-8 7 -8 17q0 8 5 14l223 287q6 10 16 10q8 0 15 -7l95 -88q8 -8 8 -16t-7 -15zM400 1561q-2 4 -2 11q0 11 10 18l272 180q10 8 28 8h72
q17 0 27 -8l272 -180q11 -7 11 -18q0 -7 -2 -11l-34 -79q-5 -14 -17 -14q-5 0 -11 3l-284 134l-281 -133q-6 -3 -11 -3q-11 0 -17 13z" />
    <glyph glyph-name="uni1ED1" unicode="&#x1ed1;" horiz-adv-x="1120" 
d="M287 42q-115 66 -175 187t-60 284t60 285t175 189t275 67t273.5 -66t173 -187t59.5 -284t-59.5 -285t-173.5 -189t-273 -67q-160 0 -275 66zM757 231.5q64 93.5 64 281.5q0 186 -65.5 282.5t-195.5 96.5q-262 -3 -262 -381q0 -373 264 -373q131 0 195 93.5zM846 1355
q-7 -7 -15 -7t-15 6l-63 55q-8 7 -8 17q0 8 5 14l223 287q6 10 16 10q8 0 15 -7l95 -88q8 -8 8 -16t-7 -15zM217 1191q-2 4 -2 11q0 11 10 18l272 180q10 8 28 8h72q17 0 27 -8l272 -180q11 -7 11 -18q0 -7 -2 -11l-34 -79q-5 -14 -17 -14q-5 0 -11 3l-284 134l-281 -133
q-6 -3 -11 -3q-11 0 -17 13z" />
    <glyph glyph-name="uni1ED2" unicode="&#x1ed2;" horiz-adv-x="1485" 
d="M380.5 63.5q-155.5 90.5 -240.5 255t-85 379.5q0 221 84.5 386t240 254t362.5 89t362.5 -88.5t241 -253.5t85.5 -388q0 -215 -85.5 -379t-242 -254.5t-361.5 -90.5q-206 0 -361.5 90.5zM977 226q98 64 149.5 184.5t51.5 286.5q0 167 -51.5 288.5t-149.5 187t-235 65.5
q-138 0 -235.5 -64.5t-148.5 -186t-51 -290.5q0 -165 52 -285.5t150 -185t234 -64.5t234 64zM1040 1723q-8 -6 -15 -6q-9 0 -16 7l-254 255q-7 7 -7 16t7 15l97 88q7 7 15 7q9 0 15 -9l223 -288q5 -5 5 -14t-8 -16zM400 1561q-2 4 -2 11q0 11 10 18l272 180q10 8 28 8h72
q17 0 27 -8l272 -180q11 -7 11 -18q0 -7 -2 -11l-34 -79q-5 -14 -17 -14q-5 0 -11 3l-284 134l-281 -133q-6 -3 -11 -3q-11 0 -17 13z" />
    <glyph glyph-name="uni1ED3" unicode="&#x1ed3;" horiz-adv-x="1120" 
d="M287 42q-115 66 -175 187t-60 284t60 285t175 189t275 67t273.5 -66t173 -187t59.5 -284t-59.5 -285t-173.5 -189t-273 -67q-160 0 -275 66zM757 231.5q64 93.5 64 281.5q0 186 -65.5 282.5t-195.5 96.5q-262 -3 -262 -381q0 -373 264 -373q131 0 195 93.5zM857 1353
q-8 -6 -15 -6q-9 0 -16 7l-254 255q-7 7 -7 16t7 15l97 88q7 7 15 7q9 0 15 -9l223 -288q5 -5 5 -14t-8 -16zM217 1191q-2 4 -2 11q0 11 10 18l272 180q10 8 28 8h72q17 0 27 -8l272 -180q11 -7 11 -18q0 -7 -2 -11l-34 -79q-5 -14 -17 -14q-5 0 -11 3l-284 134l-281 -133
q-6 -3 -11 -3q-11 0 -17 13z" />
    <glyph glyph-name="uni1ED4" unicode="&#x1ed4;" horiz-adv-x="1485" 
d="M380.5 63.5q-155.5 90.5 -240.5 255t-85 379.5q0 221 84.5 386t240 254t362.5 89t362.5 -88.5t241 -253.5t85.5 -388q0 -215 -85.5 -379t-242 -254.5t-361.5 -90.5q-206 0 -361.5 90.5zM977 226q98 64 149.5 184.5t51.5 286.5q0 167 -51.5 288.5t-149.5 187t-235 65.5
q-138 0 -235.5 -64.5t-148.5 -186t-51 -290.5q0 -165 52 -285.5t150 -185t234 -64.5t234 64zM400 1561q-2 4 -2 11q0 12 10 19l272 179q10 8 28 8h72q17 0 27 -8l272 -179q11 -7 11 -19q0 -7 -2 -11l-34 -79q-4 -13 -18 -13q-6 0 -10 2l-284 134l-281 -133q-6 -3 -11 -3
q-11 0 -17 13zM956 1745q-11 0 -16.5 6t-3.5 17q6 45 32.5 70t72.5 49q35 19 50.5 32.5t15.5 34.5q0 25 -20 40t-59 15q-36 0 -58.5 -14.5t-29.5 -41.5q-5 -20 -23 -20h-119q-11 0 -16 6t-4 16q11 82 76 127.5t176 45.5q112 0 179 -46t67 -124q0 -33 -14 -57t-33 -39.5
t-51 -34.5q-31 -19 -47 -32t-22 -31q-4 -10 -9 -14.5t-14 -4.5h-130z" />
    <glyph glyph-name="uni1ED5" unicode="&#x1ed5;" horiz-adv-x="1120" 
d="M287 42q-115 66 -175 187t-60 284t60 285t175 189t275 67t273.5 -66t173 -187t59.5 -284t-59.5 -285t-173.5 -189t-273 -67q-160 0 -275 66zM757 231.5q64 93.5 64 281.5q0 186 -65.5 282.5t-195.5 96.5q-262 -3 -262 -381q0 -373 264 -373q131 0 195 93.5zM217 1191
q-2 4 -2 11q0 12 10 19l272 179q10 8 28 8h72q17 0 27 -8l272 -179q11 -7 11 -19q0 -7 -2 -11l-34 -79q-4 -13 -18 -13q-6 0 -10 2l-284 134l-281 -133q-6 -3 -11 -3q-11 0 -17 13zM773 1375q-11 0 -16.5 6t-3.5 17q6 45 32.5 70t72.5 49q35 19 50.5 32.5t15.5 34.5
q0 25 -20 40t-59 15q-36 0 -58.5 -14.5t-29.5 -41.5q-5 -20 -23 -20h-119q-11 0 -16 6t-4 16q11 82 76 127.5t176 45.5q112 0 179 -46t67 -124q0 -33 -14 -57t-33 -39.5t-51 -34.5q-31 -19 -47 -32t-22 -31q-4 -10 -9 -14.5t-14 -4.5h-130z" />
    <glyph glyph-name="uni1ED6" unicode="&#x1ed6;" horiz-adv-x="1485" 
d="M380.5 63.5q-155.5 90.5 -240.5 255t-85 379.5q0 221 84.5 386t240 254t362.5 89t362.5 -88.5t241 -253.5t85.5 -388q0 -215 -85.5 -379t-242 -254.5t-361.5 -90.5q-206 0 -361.5 90.5zM977 226q98 64 149.5 184.5t51.5 286.5q0 167 -51.5 288.5t-149.5 187t-235 65.5
q-138 0 -235.5 -64.5t-148.5 -186t-51 -290.5q0 -165 52 -285.5t150 -185t234 -64.5t234 64zM400 1561q-2 4 -2 11q0 12 10 19l272 179q10 8 28 8h72q17 0 27 -8l272 -179q11 -7 11 -19q0 -7 -2 -11l-34 -79q-4 -13 -18 -13q-6 0 -10 2l-284 134l-281 -133q-6 -3 -11 -3
q-11 0 -17 13zM782.5 1842q-32.5 19 -69.5 54q-27 25 -43.5 36t-36.5 11q-57 0 -62 -93q0 -22 -22 -22h-84q-10 0 -15.5 6t-4.5 16q4 105 50.5 168.5t134.5 63.5q45 0 77 -19.5t70 -55.5q26 -24 41 -34.5t32 -10.5q61 0 66 93q2 22 22 22h84q11 0 16.5 -7t4.5 -20
q-5 -107 -50.5 -167t-131.5 -60q-46 0 -78.5 19z" />
    <glyph glyph-name="uni1ED7" unicode="&#x1ed7;" horiz-adv-x="1120" 
d="M287 42q-115 66 -175 187t-60 284t60 285t175 189t275 67t273.5 -66t173 -187t59.5 -284t-59.5 -285t-173.5 -189t-273 -67q-160 0 -275 66zM757 231.5q64 93.5 64 281.5q0 186 -65.5 282.5t-195.5 96.5q-262 -3 -262 -381q0 -373 264 -373q131 0 195 93.5zM217 1191
q-2 4 -2 11q0 12 10 19l272 179q10 8 28 8h72q17 0 27 -8l272 -179q11 -7 11 -19q0 -7 -2 -11l-34 -79q-4 -13 -18 -13q-6 0 -10 2l-284 134l-281 -133q-6 -3 -11 -3q-11 0 -17 13zM599.5 1472q-32.5 19 -69.5 54q-27 25 -43.5 36t-36.5 11q-57 0 -62 -93q0 -22 -22 -22h-84
q-10 0 -15.5 6t-4.5 16q4 105 50.5 168.5t134.5 63.5q45 0 77 -19.5t70 -55.5q26 -24 41 -34.5t32 -10.5q61 0 66 93q2 22 22 22h84q11 0 16.5 -7t4.5 -20q-5 -107 -50.5 -167t-131.5 -60q-46 0 -78.5 19z" />
    <glyph glyph-name="uni1ED8" unicode="&#x1ed8;" horiz-adv-x="1485" 
d="M380.5 63.5q-155.5 90.5 -240.5 255t-85 379.5q0 221 84.5 386t240 254t362.5 89t362.5 -88.5t241 -253.5t85.5 -388q0 -215 -85.5 -379t-242 -254.5t-361.5 -90.5q-206 0 -361.5 90.5zM977 226q98 64 149.5 184.5t51.5 286.5q0 167 -51.5 288.5t-149.5 187t-235 65.5
q-138 0 -235.5 -64.5t-148.5 -186t-51 -290.5q0 -165 52 -285.5t150 -185t234 -64.5t234 64zM642 -322q-10 0 -15.5 5.5t-5.5 15.5v188q0 10 5.5 15.5t15.5 5.5h202q10 0 15.5 -5.5t5.5 -15.5v-188q0 -10 -5.5 -15.5t-15.5 -5.5h-202zM400 1599q-2 4 -2 11q0 12 10 19
l272 179q10 8 28 8h72q17 0 27 -8l272 -179q11 -7 11 -19q0 -7 -2 -11l-34 -79q-4 -13 -18 -13q-6 0 -10 2l-284 134l-281 -133q-6 -3 -11 -3q-11 0 -17 13z" />
    <glyph glyph-name="uni1ED9" unicode="&#x1ed9;" horiz-adv-x="1120" 
d="M287 42q-115 66 -175 187t-60 284t60 285t175 189t275 67t273.5 -66t173 -187t59.5 -284t-59.5 -285t-173.5 -189t-273 -67q-160 0 -275 66zM757 231.5q64 93.5 64 281.5q0 186 -65.5 282.5t-195.5 96.5q-262 -3 -262 -381q0 -373 264 -373q131 0 195 93.5zM459 -322
q-10 0 -15.5 5.5t-5.5 15.5v188q0 10 5.5 15.5t15.5 5.5h202q10 0 15.5 -5.5t5.5 -15.5v-188q0 -10 -5.5 -15.5t-15.5 -5.5h-202zM217 1229q-2 4 -2 11q0 12 10 19l272 179q10 8 28 8h72q17 0 27 -8l272 -179q11 -7 11 -19q0 -7 -2 -11l-34 -79q-4 -13 -18 -13q-6 0 -10 2
l-284 134l-281 -133q-6 -3 -11 -3q-11 0 -17 13z" />
    <glyph glyph-name="uni1EDA" unicode="&#x1eda;" horiz-adv-x="1485" 
d="M1175 1291q123 -94 189.5 -246t66.5 -348q0 -215 -85.5 -379t-242 -254.5t-361.5 -90.5q-206 0 -361.5 90.5t-240.5 255t-85 379.5q0 221 84.5 386t240 254t362.5 89q167 0 301 -58l2 3l168 297q6 12 16 12q8 0 13 -4l130 -72q11 -6 11 -16q0 -5 -5 -13zM977 226
q98 64 149.5 184.5t51.5 286.5q0 167 -51.5 288.5t-149.5 187t-235 65.5q-138 0 -235.5 -64.5t-148.5 -186t-51 -290.5q0 -165 52 -285.5t150 -185t234 -64.5t234 64zM547 1505q-3 -1 -8 -1q-13 0 -19 14l-27 78q-2 6 -2 9q0 13 14 19l449 200q6 3 10 3q11 0 18 -15l45 -139
q2 -6 2 -9q0 -14 -16 -19z" />
    </font>
</defs>
</svg>
