<?xml version="1.0" standalone="no"?>
<!DOCTYPE svg PUBLIC "-//W3C//DTD SVG 1.1//EN" "http://www.w3.org/Graphics/SVG/1.1/DTD/svg11.dtd" >
<svg xmlns="http://www.w3.org/2000/svg" xmlns:xlink="http://www.w3.org/1999/xlink" version="1.1">
<metadata>
Created by FontForge 20170731 at Wed May 12 04:41:42 2021
 By Aleksey,,,
(c) Copyright David Jonathan Ross, 2016, 2021. All rights reserved.
</metadata>
<defs>
<font id="FormaDJRText-MediumItalic" horiz-adv-x="0" >
  <font-face 
    font-family="Forma DJR Text Medium"
    font-weight="500"
    font-style="italic"
    font-stretch="normal"
    units-per-em="2000"
    panose-1="0 0 0 0 0 0 0 9 0 0"
    ascent="1500"
    descent="-500"
    x-height="1030"
    cap-height="1400"
    bbox="-793 -466 2352 2171"
    underline-thickness="50"
    underline-position="-150"
    slope="-13"
    unicode-range="U+0020-FB02"
  />
<missing-glyph horiz-adv-x="1200" 
d="M248 1388q2 5 6 8.5t9 3.5h1076q5 0 7.5 -3.5t1.5 -8.5l-396 -1716q-2 -5 -6 -8.5t-9 -3.5h-1076q-5 0 -7.5 3.5t-1.5 8.5zM442 1195l-307 -1330h623l307 1330h-623z" />
    <glyph glyph-name=".notdef" horiz-adv-x="1200" 
d="M248 1388q2 5 6 8.5t9 3.5h1076q5 0 7.5 -3.5t1.5 -8.5l-396 -1716q-2 -5 -6 -8.5t-9 -3.5h-1076q-5 0 -7.5 3.5t-1.5 8.5zM442 1195l-307 -1330h623l307 1330h-623z" />
    <glyph glyph-name=".null" 
 />
    <glyph glyph-name="nonmarkingreturn" horiz-adv-x="666" 
 />
    <glyph glyph-name="space" unicode=" " horiz-adv-x="369" 
 />
    <glyph glyph-name="space" unicode="&#xa0;" horiz-adv-x="369" 
 />
    <glyph glyph-name="exclam" unicode="!" horiz-adv-x="431" 
d="M93 396q-11 0 -15.5 6.5t-2.5 17.5l223 961q3 19 23 19h196q11 0 16 -6.5t3 -17.5l-223 -961q-3 -19 -23 -19h-197zM-2 0q-10 0 -15 6.5t-3 17.5l46 202q5 19 23 19h203q11 0 16 -6.5t3 -17.5l-46 -202q-4 -19 -24 -19h-203z" />
    <glyph glyph-name="quotedbl" unicode="&#x22;" horiz-adv-x="721" 
d="M239 944q-11 0 -16 6.5t-3 16.5l67 413q3 20 23 20h186q11 0 16.5 -6.5t2.5 -17.5l-125 -414q-4 -18 -24 -18h-127zM559 944q-11 0 -16 6.5t-3 16.5l67 413q3 20 23 20h186q11 0 16.5 -6.5t2.5 -17.5l-125 -414q-4 -18 -24 -18h-127z" />
    <glyph glyph-name="numbersign" unicode="#" horiz-adv-x="1343" 
d="M1446 1104q20 0 20 -16q0 -3 -2 -9l-50 -134q-6 -17 -25 -17h-244l-168 -448h236q9 0 14 -4t5 -11q0 -2 -2 -10l-54 -134q-8 -17 -25 -17h-240l-107 -287q-6 -17 -25 -17h-180q-19 0 -19 16l2 9l105 279h-241l-107 -287q-6 -17 -25 -17h-179q-20 0 -20 16q0 3 2 9
l105 279h-239q-19 0 -19 16q0 3 2 9l55 134q6 17 25 17h242l168 448h-235q-9 0 -14 4t-5 11q0 2 2 10l49 134q6 17 25 17h244l104 279q6 17 24 17h180q9 0 14 -4t5 -11q0 -2 -2 -10l-101 -271h240l105 279q6 17 24 17h180q9 0 14 -4t5 -11q0 -2 -2 -10l-101 -271h235z
M680 928l-168 -448h240l169 448h-241z" />
    <glyph glyph-name="dollar" unicode="$" horiz-adv-x="1159" 
d="M883 1401q138 -41 219.5 -142t82.5 -253q0 -21 -22 -21h-213q-10 0 -15.5 6t-5.5 16q-3 117 -71.5 176t-178.5 59q-70 0 -128.5 -23.5t-93.5 -70.5t-35 -113q0 -63 36 -103.5t90 -64.5t150 -55q125 -41 202.5 -79.5t132.5 -114t55 -199.5q0 -131 -66 -230.5t-182.5 -155
t-265.5 -59.5l-36 -155q-1 -9 -7.5 -14t-15.5 -5h-200q-11 0 -16 6.5t-2 17.5l41 181q-147 46 -233 153t-86 261q0 22 1 33q0 10 5.5 15.5t15.5 5.5h210q10 0 16 -6t5 -17q-1 -9 -1 -26q0 -80 34.5 -140t101 -93.5t158.5 -33.5q78 0 140 27.5t96.5 78t34.5 117.5t-37 110
t-92 67.5t-153 56.5q-122 40 -197 77t-128.5 110.5t-53.5 194.5q0 125 63.5 219t170.5 147.5t237 62.5l27 116q4 19 23 19h200q11 0 16 -6.5t3 -17.5z" />
    <glyph glyph-name="percent" unicode="%" horiz-adv-x="1709" 
d="M334.5 751.5q-69.5 32.5 -109 97.5t-39.5 157q0 101 42.5 196.5t128.5 156.5t209 61q89 0 157.5 -33.5t107 -98.5t38.5 -158q0 -101 -42 -195.5t-127 -155t-208 -60.5q-88 0 -157.5 32.5zM207 0q-18 0 -18 12q0 7 6 14l1193 1362q11 12 27 12h170q18 0 18 -12
q0 -6 -6 -14l-1195 -1362q-9 -12 -26 -12h-169zM600.5 909.5q40.5 46.5 58 108.5t17.5 112q0 70 -31.5 108.5t-84.5 38.5q-65 0 -106 -46.5t-59 -109t-18 -112.5q0 -70 32 -108t86 -38q65 0 105.5 46.5zM1073.5 12.5q-69.5 32.5 -109.5 97t-40 157.5q0 101 43 196.5
t129 156.5t209 61q89 0 157.5 -33.5t107 -98.5t38.5 -158q0 -101 -41.5 -195.5t-126.5 -155t-208 -60.5q-89 0 -158.5 32.5zM1340 169.5q41 46.5 58.5 109t17.5 112.5q0 71 -31 108.5t-85 37.5q-66 0 -107 -46.5t-58 -108.5t-17 -112q0 -70 31.5 -108.5t84.5 -38.5
q65 0 106 46.5z" />
    <glyph glyph-name="ampersand" unicode="&#x26;" horiz-adv-x="1356" 
d="M256.5 12.5q-100.5 36.5 -164 117t-63.5 204.5q0 122 58 211.5t150.5 150t221.5 115.5q-73 141 -73 258q0 106 54 189.5t148.5 130t210.5 46.5q99 0 180.5 -33.5t129.5 -97.5t48 -153q0 -94 -54 -163.5t-137 -118t-212 -103.5q39 -60 54 -81l163 -254q79 118 119 266
q5 18 24 18h175q19 0 19 -18q0 -6 -1 -9q-35 -121 -94 -228.5t-138 -196.5l152 -237q4 -7 4 -13q0 -13 -19 -13h-222q-18 0 -25 14l-68 102q-96 -68 -204 -104t-222 -36t-214.5 36.5zM628.5 1005q16.5 -49 47.5 -108q90 39 148.5 74t94 80t35.5 103q0 66 -44.5 101.5
t-111.5 35.5q-62 0 -104 -29t-62 -74t-20 -92q0 -42 16.5 -91zM668.5 174q74.5 29 140.5 82l-220 341l-24 38l-25 38q-128 -65 -198 -139t-70 -180q0 -107 69.5 -158t174.5 -51q78 0 152.5 29z" />
    <glyph glyph-name="quotesingle" unicode="'" horiz-adv-x="402" 
d="M239 944q-11 0 -16 6.5t-3 16.5l67 413q3 20 23 20h186q11 0 16.5 -6.5t2.5 -17.5l-125 -414q-4 -18 -24 -18h-127z" />
    <glyph glyph-name="parenleft" unicode="(" horiz-adv-x="514" 
d="M104 -280q-19 0 -24 18q-59 223 -59 440q0 331 119 658t335 611q8 13 26 13h143q18 0 18 -13q0 -6 -4 -13q-205 -304 -317 -634.5t-112 -665.5q0 -202 41 -390l1 -6q0 -18 -20 -18h-147z" />
    <glyph glyph-name="parenright" unicode=")" horiz-adv-x="514" 
d="M444 1460q20 0 24 -18q59 -223 59 -440q0 -331 -119 -657.5t-335 -611.5q-9 -13 -27 -13h-142q-18 0 -18 13q0 6 4 13q205 303 316.5 633.5t111.5 666.5q0 202 -41 390l-1 6q0 8 5.5 13t14.5 5h148z" />
    <glyph glyph-name="asterisk" unicode="*" horiz-adv-x="696" 
d="M395 846q-11 0 -16 6.5t-3 16.5l35 192l-186 -106q-6 -3 -12 -3q-13 0 -17 13l-32 84q-2 8 -2 10q0 12 13 18l185 89l-143 82q-12 8 -12 17q0 5 5 13l72 97q7 10 17 10q8 0 13 -4l144 -101l22 200q2 20 22 20h103q22 0 19 -23l-34 -196l194 111q8 4 12 4q12 0 16 -15
l29 -85q2 -6 2 -9q0 -12 -14 -20l-190 -94l140 -80q11 -8 11 -16q0 -5 -5 -13l-69 -99q-8 -11 -16 -11q-5 0 -13 6l-142 99l-20 -192q-1 -21 -22 -21h-106z" />
    <glyph glyph-name="plus" unicode="+" horiz-adv-x="1054" 
d="M1024 780q11 0 16 -6.5t3 -17.5l-31 -139q-5 -19 -24 -19h-346l-90 -389q-4 -19 -23 -19h-145q-23 0 -18 24l88 384h-343q-11 0 -16 7t-3 17l32 139q5 19 23 19h350l90 391q4 19 23 19h145q11 0 16 -6.5t2 -17.5l-89 -386h340z" />
    <glyph glyph-name="comma" unicode="," horiz-adv-x="374" 
d="M-122 -213q-17 0 -17 14q0 6 3 12l97 193l50 218q4 19 23 19h189q11 0 16 -6.5t2 -17.5l-45 -198q-4 -14 -13 -24l-187 -198q-11 -12 -27 -12h-91z" />
    <glyph glyph-name="hyphen" unicode="-" horiz-adv-x="519" 
d="M51 509q-11 0 -15.5 6.5t-2.5 17.5l30 128q3 19 23 19h415q11 0 16 -6.5t2 -17.5l-29 -128q-5 -19 -24 -19h-415z" />
    <glyph glyph-name="hyphen" unicode="&#x2011;" horiz-adv-x="519" 
d="M51 509q-11 0 -15.5 6.5t-2.5 17.5l30 128q3 19 23 19h415q11 0 16 -6.5t2 -17.5l-29 -128q-5 -19 -24 -19h-415z" />
    <glyph glyph-name="hyphen" unicode="&#x2010;" horiz-adv-x="519" 
d="M51 509q-11 0 -15.5 6.5t-2.5 17.5l30 128q3 19 23 19h415q11 0 16 -6.5t2 -17.5l-29 -128q-5 -19 -24 -19h-415z" />
    <glyph glyph-name="hyphen" unicode="&#xad;" horiz-adv-x="519" 
d="M51 509q-11 0 -15.5 6.5t-2.5 17.5l30 128q3 19 23 19h415q11 0 16 -6.5t2 -17.5l-29 -128q-5 -19 -24 -19h-415z" />
    <glyph glyph-name="period" unicode="." horiz-adv-x="387" 
d="M-28 0q-11 0 -16 6.5t-2 17.5l46 200q3 19 23 19h213q11 0 16 -6.5t3 -17.5l-46 -200q-4 -19 -23 -19h-214z" />
    <glyph glyph-name="slash" unicode="/" horiz-adv-x="692" 
d="M-153 -340q-18 0 -18 15q0 5 3 11l850 1698q7 16 25 16h143q18 0 18 -15q0 -5 -3 -11l-850 -1698q-7 -16 -25 -16h-143z" />
    <glyph glyph-name="zero" unicode="0" horiz-adv-x="1177" 
d="M280 40.5q-101 67.5 -152 188t-51 278.5q0 195 72.5 409t221.5 362.5t365 148.5q144 0 245.5 -67.5t153 -188t51.5 -277.5q0 -195 -72 -409.5t-221.5 -363t-367.5 -148.5q-144 0 -245 67.5zM761.5 293.5q91.5 131.5 135.5 310.5t44 315q0 151 -53.5 236t-158.5 85
q-135 0 -227 -131.5t-136 -310t-44 -315.5q0 -152 54.5 -236.5t158.5 -84.5q135 0 226.5 131.5z" />
    <glyph glyph-name="one" unicode="1" horiz-adv-x="751" 
d="M257 0q-11 0 -16.5 6.5t-2.5 17.5l170 683l90 422q-128 -97 -314 -154q-3 -1 -8 -1q-8 0 -11.5 6t-1.5 16l33 143q4 16 20 22q104 35 191.5 93t153.5 133q10 13 26 13h196q11 0 16.5 -6.5t2.5 -17.5l-167 -669l-147 -688q-4 -19 -24 -19h-207z" />
    <glyph glyph-name="two" unicode="2" horiz-adv-x="1054" 
d="M-34 0q-11 0 -16 6.5t-2 17.5l44 192q37 159 124.5 262t188.5 159t253 116q117 47 181 81t106.5 86.5t42.5 130.5q0 100 -61.5 148t-154.5 48q-237 0 -285 -305q-3 -20 -23 -20h-178q-23 0 -21 23q31 239 167.5 360.5t355.5 121.5q122 0 218.5 -38.5t153 -120
t56.5 -205.5q0 -130 -63.5 -219.5t-155.5 -144t-244 -122.5q-124 -55 -198 -95.5t-131.5 -100t-75.5 -139.5l-13 -58h654q11 0 16 -6.5t3 -17.5l-33 -141q-1 -9 -7.5 -14t-15.5 -5h-886z" />
    <glyph glyph-name="three" unicode="3" horiz-adv-x="1098" 
d="M252 20.5q-106 47.5 -163.5 138.5t-57.5 219q0 34 2 52q1 20 23 20h191q22 0 20 -22q-2 -26 -2 -37q0 -109 63 -172t182 -63q98 0 162.5 40t95 103.5t30.5 134.5q0 65 -28.5 115t-83 78.5t-130.5 28.5h-107q-11 0 -16 6.5t-3 17.5l30 124q4 19 24 19h111q61 0 129 16.5
t121 66.5t53 143q0 98 -60.5 146.5t-156.5 48.5q-106 0 -174.5 -62t-96.5 -188q-4 -20 -24 -20h-184q-11 0 -16.5 6.5t-3.5 17.5q42 214 177.5 321.5t335.5 107.5q125 0 224.5 -41.5t156.5 -120.5t57 -185q0 -84 -35.5 -155.5t-103 -121.5t-162.5 -71q100 -42 154 -123
t54 -190q0 -122 -64.5 -223.5t-187 -162t-287.5 -60.5q-143 0 -249 47.5z" />
    <glyph glyph-name="four" unicode="4" horiz-adv-x="1120" 
d="M1110 1400q11 0 15.5 -6.5t2.5 -17.5l-195 -843h128q10 0 15 -6.5t3 -17.5l-32 -140q-3 -19 -23 -19h-133l-77 -333q-4 -18 -23 -18h-202q-11 0 -15.5 6t-2.5 17l75 328h-613q-11 0 -16.5 6.5t-2.5 17.5l38 168q2 12 12 25l732 821q9 12 27 12h287zM787 965l60 226
l-582 -658h423z" />
    <glyph glyph-name="five" unicode="5" horiz-adv-x="1110" 
d="M242 21.5q-104 48.5 -159.5 140.5t-48.5 218q1 10 6.5 15.5t15.5 5.5h192q21 0 21 -23q-3 -66 21.5 -118t74.5 -81t118 -29q108 0 182 67t109.5 165.5t35.5 191.5q0 116 -57.5 179t-158.5 63q-172 0 -259 -181q-7 -16 -25 -16h-172q-19 0 -19 16q0 5 1 8l223 739
q5 18 24 18h782q11 0 15.5 -6.5t2.5 -17.5l-32 -141q-4 -19 -24 -19h-599l-101 -333q57 54 122 82t145 28q111 0 198.5 -46.5t138 -138t50.5 -221.5q0 -151 -66 -292.5t-198.5 -231.5t-319.5 -90q-135 0 -239 48.5z" />
    <glyph glyph-name="six" unicode="6" horiz-adv-x="1144" 
d="M290.5 33.5q-104.5 60.5 -159 177t-54.5 282.5q0 143 38 301q69 292 223 462.5t405 170.5q125 0 219 -44t147 -126.5t56 -196.5q0 -21 -21 -21h-191q-20 0 -22 21q-5 84 -56 137t-143 53q-136 0 -227 -118.5t-135 -327.5q60 61 140.5 93t171.5 32q117 0 211 -48
t148.5 -139t54.5 -216q0 -137 -64 -264.5t-190 -208t-300 -80.5q-147 0 -251.5 60.5zM705 208q68 52 103.5 133.5t35.5 167.5q0 81 -30.5 136.5t-83.5 83.5t-120 28q-107 0 -182.5 -65.5t-100.5 -174.5q-12 -52 -12 -102q0 -120 61.5 -189.5t167.5 -69.5q93 0 161 52z" />
    <glyph glyph-name="seven" unicode="7" horiz-adv-x="943" 
d="M163 -1q-18 0 -18 14q0 2 2 10q130 331 299 638.5t364 554.5h-594q-23 0 -18 24l32 141q5 19 24 19h840q11 0 15.5 -6.5t2.5 -17.5l-35 -150q-2 -9 -11 -24q-210 -287 -379 -581t-287 -605q-7 -17 -25 -17h-212z" />
    <glyph glyph-name="eight" unicode="8" horiz-adv-x="1138" 
d="M261 21.5q-114 48.5 -177.5 137.5t-63.5 204q0 99 46.5 185t128 144.5t182.5 76.5q-74 36 -114.5 105t-40.5 151q0 99 57 192t168 151.5t264 58.5q127 0 229 -43t160.5 -123t58.5 -187q0 -76 -33.5 -146.5t-100.5 -124t-165 -77.5q103 -44 154.5 -124.5t51.5 -183.5
q0 -128 -70 -229.5t-194 -158.5t-280 -57q-147 0 -261 48.5zM807 852.5q55 34.5 82.5 89.5t27.5 115t-27 105t-75 69t-108 24q-70 0 -127 -33t-89 -88.5t-32 -119.5q0 -90 59 -143t157 -53q77 0 132 34.5zM682.5 188q65.5 38 99.5 100.5t34 133.5q0 69 -32.5 120.5
t-89.5 78.5t-130 27q-90 0 -156.5 -39.5t-101.5 -103t-35 -133.5q0 -69 34 -119.5t92.5 -76.5t130.5 -26q89 0 154.5 38z" />
    <glyph glyph-name="nine" unicode="9" horiz-adv-x="1142" 
d="M265.5 17q-93.5 44 -146.5 126.5t-56 195.5q0 22 21 22h191q20 0 22 -22q4 -84 55.5 -136.5t143.5 -52.5q136 0 227 118.5t135 327.5q-60 -61 -140.5 -93t-171.5 -32q-117 0 -211 48t-148.5 139t-54.5 216q0 137 64 264.5t189.5 208t299.5 80.5q148 0 252.5 -60.5
t159 -177.5t54.5 -283q0 -142 -38 -301q-69 -292 -223 -462t-406 -170q-125 0 -218.5 44zM800.5 707.5q75.5 65.5 100.5 175.5q12 53 12 102q0 120 -61.5 189.5t-168.5 69.5q-93 0 -160.5 -52t-103 -133.5t-35.5 -167.5q0 -81 30.5 -137t83.5 -84t120 -28q107 0 182.5 65.5z
" />
    <glyph glyph-name="colon" unicode=":" horiz-adv-x="391" 
d="M157 787q-11 0 -16 6.5t-2 17.5l46 200q3 19 23 19h213q11 0 16 -6.5t3 -17.5l-46 -200q-4 -19 -23 -19h-214zM-28 0q-11 0 -16 6.5t-2 17.5l46 200q3 19 23 19h213q11 0 16 -6.5t3 -17.5l-46 -200q-4 -19 -23 -19h-214z" />
    <glyph glyph-name="semicolon" unicode=";" horiz-adv-x="390" 
d="M154 787q-11 0 -16 6.5t-2 17.5l46 200q3 19 23 19h213q11 0 16 -6.5t3 -17.5l-46 -200q-4 -19 -23 -19h-214zM-122 -213q-17 0 -17 14q0 6 3 12l97 193l50 218q4 19 23 19h189q11 0 16 -6.5t2 -17.5l-45 -198q-4 -14 -13 -24l-187 -198q-11 -12 -27 -12h-91z" />
    <glyph glyph-name="less" unicode="&#x3c;" horiz-adv-x="1054" 
d="M104 590q-16 9 -13 27l34 146q3 17 19 23l971 397q4 2 10 2q8 0 11 -5.5t1 -15.5l-36 -156q-4 -15 -20 -22l-788 -309l641 -310q16 -9 13 -27l-31 -133q-3 -16 -16 -16q-5 0 -11 3z" />
    <glyph glyph-name="equal" unicode="=" horiz-adv-x="1054" 
d="M168 843q-11 0 -16 6.5t-3 17.5l32 139q1 9 7.5 14t15.5 5h877q11 0 16 -7t3 -17l-32 -139q-5 -19 -23 -19h-877zM55 353q-11 0 -16 6.5t-3 17.5l32 139q1 9 7.5 14t15.5 5h877q11 0 16 -7t3 -17l-32 -139q-1 -9 -7.5 -14t-15.5 -5h-877z" />
    <glyph glyph-name="greater" unicode="&#x3e;" horiz-adv-x="1054" 
d="M20 195q-4 -2 -10 -2q-8 0 -11 5.5t-1 15.5l34 153q3 15 19 22l790 311l-642 309q-9 5 -12 11.5t-1 16.5l33 134q5 16 17 16q4 0 10 -3l785 -396q16 -9 13 -27l-33 -146q-4 -17 -19 -23z" />
    <glyph glyph-name="question" unicode="?" horiz-adv-x="1005" 
d="M374 396q-11 0 -16.5 6.5t-2.5 17.5q24 97 71.5 171t101 124t132.5 111q65 50 100 83t58.5 74t23.5 91q0 82 -58 126t-152 44q-111 0 -175 -60.5t-89 -181.5q-3 -19 -23 -19h-186q-11 0 -16.5 6t-3.5 17q42 212 171.5 316.5t334.5 104.5q123 0 221.5 -38t156 -115
t57.5 -189q0 -83 -31.5 -146.5t-78.5 -108.5t-127 -107q-68 -53 -112.5 -93t-81.5 -94t-55 -121q-4 -19 -23 -19h-197zM277 0q-11 0 -16 6.5t-3 17.5l46 202q5 19 24 19h212q10 0 15 -6.5t3 -17.5l-46 -202q-4 -19 -23 -19h-212z" />
    <glyph glyph-name="at" unicode="@" horiz-adv-x="1688" 
d="M1315 1296.5q160 -83.5 250 -241t90 -370.5q0 -153 -46 -302t-135.5 -245.5t-214.5 -96.5q-96 0 -165 45.5t-83 126.5q-60 -81 -139 -127t-177 -46t-171.5 47t-113 132.5t-39.5 199.5q0 131 53.5 268t161 229t260.5 92q101 0 171 -42.5t104 -122.5l28 130q3 18 23 18h177
q11 0 16 -6t3 -17l-140 -617q-14 -49 -14 -87q0 -48 24.5 -73.5t69.5 -25.5q64 0 113.5 85t76 209t26.5 234q0 176 -73.5 304t-205.5 196t-303 68q-241 0 -414.5 -129.5t-262 -333t-88.5 -419.5q0 -192 71.5 -332t203 -214t309.5 -74q246 0 433 150q12 9 28 8l106 -12
q18 -3 18 -14q0 -5 -6 -11q-114 -114 -262.5 -177t-325.5 -63q-209 0 -370 88t-250.5 253t-89.5 390q0 249 109.5 482t316.5 380t483 147q204 0 364 -83.5zM936 255q68 73 102.5 179t34.5 201q0 112 -49.5 171t-138.5 59q-104 0 -171 -73.5t-97 -176.5t-30 -192
q0 -109 47.5 -175t136.5 -66q97 0 165 73z" />
    <glyph glyph-name="A" unicode="A" horiz-adv-x="1304" 
d="M1184 22v-4q0 -18 -20 -18h-194q-21 0 -23 20l-38 370h-548l-208 -375q-9 -15 -26 -15h-217q-19 0 -19 14q0 4 4 12l795 1359q8 15 25 15h289q20 0 23 -20zM891 585l-66 647l-358 -647h424z" />
    <glyph glyph-name="B" unicode="B" horiz-adv-x="1257" 
d="M3 0q-11 0 -16.5 6.5t-2.5 17.5l170 685l144 672q3 19 24 19h551q224 0 325 -87.5t101 -228.5q0 -134 -84.5 -225t-238.5 -125q110 -36 163 -107.5t53 -179.5q0 -127 -68.5 -228.5t-201.5 -160t-320 -58.5h-599zM770 822q92 0 154.5 30t93.5 82t31 120q0 80 -49 126.5
t-157 46.5h-329l-103 -405h359zM631 173q103 0 174 35.5t106.5 97t35.5 141.5q0 94 -57 148t-174 54h-346l-100 -476h361z" />
    <glyph glyph-name="C" unicode="C" horiz-adv-x="1386" 
d="M372.5 44.5q-136.5 71.5 -212.5 209t-76 331.5q0 207 89.5 401t262.5 317.5t410 123.5q163 0 287 -61t195 -173.5t78 -262.5v-2q0 -20 -21 -20h-194q-19 0 -22 20q-10 149 -99 229.5t-236 80.5q-169 0 -281 -104.5t-164 -257t-52 -297.5q0 -206 98 -311.5t268 -105.5
q145 0 247.5 80.5t154.5 243.5q6 19 24 19h200q11 0 16 -7t2 -18q-71 -244 -241 -375.5t-417 -131.5q-180 0 -316.5 71.5z" />
    <glyph glyph-name="D" unicode="D" horiz-adv-x="1364" 
d="M3 0q-11 0 -16.5 6.5t-2.5 17.5l171 687l143 670q3 19 24 19h422q183 0 325 -68.5t222 -200t80 -312.5q0 -202 -94 -391t-274 -308.5t-424 -119.5h-576zM588 183q179 0 298.5 101t176 249.5t56.5 291.5q0 127 -47.5 215t-134 132.5t-202.5 44.5h-221l-128 -502l-112 -532
h314z" />
    <glyph glyph-name="E" unicode="E" horiz-adv-x="1103" 
d="M3 0q-11 0 -16.5 6.5t-2.5 17.5l171 689l143 668q3 19 24 19h888q11 0 16 -6.5t2 -17.5l-32 -140q-4 -19 -23 -19h-660l-100 -382h612q11 0 16 -6.5t3 -17.5l-33 -140q-3 -19 -23 -19h-617l-98 -469h671q11 0 16 -6.5t2 -17.5l-32 -140q-1 -9 -7.5 -14t-15.5 -5h-904z
" />
    <glyph glyph-name="F" unicode="F" horiz-adv-x="1044" 
d="M3 0q-11 0 -16.5 6.5t-2.5 17.5l168 675l146 682q3 19 24 19h860q11 0 16 -6.5t3 -17.5l-33 -140q-3 -19 -23 -19h-632l-114 -444h607q11 0 16 -6.5t2 -17.5l-32 -140q-3 -19 -23 -19h-612l-121 -571q-4 -19 -24 -19h-209z" />
    <glyph glyph-name="G" unicode="G" horiz-adv-x="1420" 
d="M358.5 48.5q-134.5 75.5 -205.5 214t-71 321.5q0 216 92.5 410t267.5 313.5t409 119.5q157 0 280.5 -56t197 -159t84.5 -240v-2q0 -20 -21 -20h-197q-20 0 -23 20q-20 129 -108 199.5t-224 70.5q-166 0 -280.5 -100t-169.5 -252t-55 -308q0 -137 43.5 -231t123.5 -141.5
t190 -47.5q168 0 282 107.5t157 291.5h-395q-10 0 -15 6.5t-3 17.5l32 140q4 19 24 19h618q11 0 16 -7.5t3 -21.5q-36 -237 -135 -403t-251.5 -251.5t-346.5 -85.5q-185 0 -319.5 75.5z" />
    <glyph glyph-name="H" unicode="H" horiz-adv-x="1366" 
d="M1449 1400q11 0 16.5 -6.5t2.5 -17.5l-170 -680l-144 -677q-3 -19 -24 -19h-210q-11 0 -16.5 6.5t-2.5 17.5l154 623l3 11h-682l-3 -11l-136 -628q-3 -19 -24 -19h-210q-11 0 -16.5 6.5t-2.5 17.5l167 672l147 685q3 19 24 19h210q11 0 16.5 -6.5t2.5 -17.5l-132 -535
h680l116 540q3 19 24 19h210z" />
    <glyph glyph-name="I" unicode="I" horiz-adv-x="465" 
d="M13 0q-11 0 -16.5 6.5t-2.5 17.5l170 683l144 674q4 19 24 19h208q11 0 16.5 -6.5t2.5 -17.5l-167 -669l-147 -688q-4 -19 -24 -19h-208z" />
    <glyph glyph-name="J" unicode="J" horiz-adv-x="1027" 
d="M118.5 73q-103.5 102 -103.5 287q0 60 10 120q3 19 24 19h195q11 0 16.5 -6.5t3.5 -17.5q-9 -57 -9 -104q0 -208 173 -208q62 0 109.5 30.5t85 102t66.5 194.5l90 370l110 521q4 19 24 19h216q11 0 16 -6.5t2 -17.5l-129 -516l-84 -372q-62 -273 -190 -395t-330 -122
q-192 0 -295.5 102z" />
    <glyph glyph-name="K" unicode="K" horiz-adv-x="1200" 
d="M298 1381q3 19 24 19h207q11 0 16.5 -6.5t2.5 -17.5l-137 -561l-4 -17l588 591q10 11 26 11h260q9 0 14 -3.5t5 -8.5q0 -6 -8 -14l-578 -543l361 -806q3 -6 3 -10q0 -7 -5 -11t-14 -4h-232q-18 0 -25 16l-273 639l-196 -186l-99 -450q-3 -19 -24 -19h-207
q-11 0 -16.5 6.5t-2.5 17.5l169 687z" />
    <glyph glyph-name="L" unicode="L" horiz-adv-x="973" 
d="M3 0q-11 0 -16.5 6.5t-2.5 17.5l172 694l142 663q3 19 24 19h209q11 0 16 -6.5t3 -17.5l-160 -645l-117 -548h586q11 0 16 -6.5t3 -17.5l-33 -140q-1 -9 -7.5 -14t-15.5 -5h-819z" />
    <glyph glyph-name="M" unicode="M" horiz-adv-x="1650" 
d="M3 0q-11 0 -16.5 6.5t-2.5 17.5l165 669l149 688q4 19 24 19h266q20 0 23 -20l160 -1076l645 1081q7 15 25 15h294q11 0 16 -6.5t2 -17.5l-168 -683l-145 -674q-4 -19 -24 -19h-205q-11 0 -15.5 6.5t-2.5 17.5l111 476l110 450l30 117l-631 -1052q-7 -15 -25 -15h-158
q-20 0 -22 20l-162 1081l-31 -155l-96 -446l-111 -481q-1 -9 -7.5 -14t-15.5 -5h-182z" />
    <glyph glyph-name="N" unicode="N" horiz-adv-x="1368" 
d="M3 0q-11 0 -16.5 6.5t-2.5 17.5l168 682l146 675q4 19 24 19h240q18 0 24 -17l415 -1067l112 513l127 552q1 9 7.5 14t15.5 5h190q11 0 16 -6.5t3 -17.5l-166 -670l-149 -687q-3 -19 -24 -19h-250q-18 0 -24 17l-410 1059l-115 -543l-118 -514q-5 -19 -23 -19h-190z" />
    <glyph glyph-name="O" unicode="O" horiz-adv-x="1487" 
d="M381.5 45q-141.5 72 -221 209.5t-79.5 327.5q0 208 94 403t273 318.5t422 123.5q181 0 321.5 -72t220 -209t79.5 -327q0 -208 -93.5 -403.5t-272 -319t-420.5 -123.5q-182 0 -323.5 72zM1008.5 266.5q118.5 104.5 174.5 258t56 300.5q0 133 -47.5 226t-132.5 140t-198 47
q-177 0 -296 -104.5t-175 -257.5t-56 -301q0 -134 47.5 -226.5t133 -139.5t199.5 -47q176 0 294.5 104.5z" />
    <glyph glyph-name="P" unicode="P" horiz-adv-x="1168" 
d="M765 1400q239 0 355.5 -105t116.5 -285q0 -146 -72 -258.5t-208.5 -175.5t-324.5 -63h-290l-106 -494q-4 -19 -24 -19h-209q-11 0 -16.5 6.5t-2.5 17.5l169 685l145 672q3 19 24 19h443zM651 693q114 0 191 39t115 107t38 156q0 104 -58.5 164.5t-189.5 60.5h-236
l-125 -506l-4 -21h269z" />
    <glyph glyph-name="Q" unicode="Q" horiz-adv-x="1496" 
d="M1364 189q11 0 16 -6.5t2 -17.5l-33 -146q-5 -19 -23 -19h-411q-103 -27 -210 -27q-182 0 -323.5 72t-221 209.5t-79.5 327.5q0 208 94 403t273 318.5t422 123.5q181 0 321.5 -72t220 -209t79.5 -327q0 -177 -69 -347.5t-198 -284.5l44 2h96zM381.5 348.5
q47.5 -92.5 133 -139.5t199.5 -47q176 0 294.5 104.5t174.5 258t56 300.5q0 133 -47.5 226t-132.5 140t-198 47q-177 0 -296 -104.5t-175 -257.5t-56 -301q0 -134 47.5 -226.5z" />
    <glyph glyph-name="R" unicode="R" horiz-adv-x="1245" 
d="M1230 817q-48 -94 -140.5 -158t-222.5 -90l222 -544q2 -4 2 -10q0 -15 -18 -15h-237q-19 0 -25 17l-95 256l-114 276h-256l-110 -530q-4 -19 -24 -19h-209q-11 0 -16.5 6.5t-2.5 17.5l169 685l145 672q3 19 24 19h501q230 0 342.5 -101t112.5 -272q0 -116 -48 -210z
M980.5 1164q-55.5 56 -179.5 56h-290l-119 -481l-2 -10h320q108 0 181 36.5t109 99.5t36 145q0 98 -55.5 154z" />
    <glyph glyph-name="S" unicode="S" horiz-adv-x="1264" 
d="M313.5 24q-133.5 52 -211.5 154t-78 247q0 20 1 31q2 21 22 21h213q21 0 21 -21q1 -139 87.5 -218.5t253.5 -79.5q108 0 179.5 32t104.5 83t33 107q0 65 -43 106.5t-106.5 66t-175.5 55.5q-143 40 -230.5 76.5t-149.5 109t-62 191.5q0 122 67 222.5t197.5 160t313.5 59.5
q151 0 271.5 -44t191.5 -138.5t71 -238.5v-2q0 -9 -6 -14t-15 -5h-214q-20 0 -22 21q-6 117 -82.5 176t-211.5 59q-90 0 -160 -25.5t-109 -73t-39 -110.5q0 -61 42 -101t105.5 -63.5t174.5 -54.5q145 -41 234 -78.5t152.5 -110.5t63.5 -191q0 -124 -67.5 -229.5
t-199.5 -168.5t-316 -63q-167 0 -300.5 52z" />
    <glyph glyph-name="T" unicode="T" horiz-adv-x="1103" 
d="M327 0q-11 0 -16.5 6.5t-2.5 17.5l170 672l109 521h-379q-11 0 -16 6.5t-3 17.5l33 140q3 19 23 19h1018q11 0 16 -6.5t2 -17.5l-32 -140q-4 -19 -23 -19h-385l-132 -521l-142 -677q-1 -9 -7.5 -14t-16.5 -5h-216z" />
    <glyph glyph-name="U" unicode="U" horiz-adv-x="1261" 
d="M300.5 26q-108.5 53 -164.5 148.5t-56 223.5q0 76 19 156l90 383l96 444q4 19 24 19h212q11 0 16 -6.5t2 -17.5l-108 -433l-91 -393q-16 -72 -16 -126q0 -119 65.5 -187.5t195.5 -68.5q138 0 227 84.5t130 258.5l99 427l93 443q4 19 24 19h197q11 0 16.5 -6.5t2.5 -17.5
l-109 -439l-99 -427q-62 -269 -210 -403t-393 -134q-154 0 -262.5 53z" />
    <glyph glyph-name="V" unicode="V" horiz-adv-x="1256" 
d="M207 1378v4q0 18 19 18h212q21 0 22 -21l92 -1202l644 1208q8 15 26 15h212q8 0 13 -4t5 -10t-3 -12l-769 -1359q-9 -15 -25 -15h-280q-20 0 -22 20z" />
    <glyph glyph-name="W" unicode="W" horiz-adv-x="1801" 
d="M257 0q-10 0 -16 5.5t-6 15.5l-19 1358v2q0 19 21 19h192q23 0 21 -21l-16 -1162l512 1167q8 16 25 16h243q11 0 16.5 -6t4.5 -16l-24 -1177l529 1183q8 16 25 16h203q9 0 14 -4t5 -11q0 -4 -3 -10l-654 -1359q-7 -16 -25 -16h-254q-10 0 -15.5 5.5t-5.5 15.5l-12 1040
l-476 -1045q-8 -16 -25 -16h-260z" />
    <glyph glyph-name="X" unicode="X" horiz-adv-x="1228" 
d="M-81 0q-8 0 -13 3.5t-5 8.5q0 7 7 14l620 719l-270 630q-3 6 -3 11q0 14 19 14h230q19 0 25 -17l183 -458l369 462q10 13 27 13h242q18 0 18 -12q0 -6 -6 -14l-562 -652l294 -697q2 -8 2 -10q0 -7 -5 -11t-14 -4h-228q-19 0 -25 17l-205 531l-430 -535q-10 -13 -27 -13
h-243z" />
    <glyph glyph-name="Y" unicode="Y" horiz-adv-x="1181" 
d="M209 1376q-1 3 -1 8q0 16 19 16h217q19 0 23 -19l167 -672l472 677q11 14 26 14h225q19 0 19 -13q0 -5 -6 -13l-670 -888l-98 -467q-4 -19 -24 -19h-211q-11 0 -16 6.5t-2 17.5l118 464z" />
    <glyph glyph-name="Z" unicode="Z" horiz-adv-x="1160" 
d="M-49 0q-11 0 -16 6.5t-3 17.5l38 163q4 12 14 24l992 1006h-690q-11 0 -16 6.5t-2 17.5l32 140q4 19 23 19h966q11 0 16 -6.5t3 -17.5l-40 -169q-2 -12 -14 -24l-984 -1000h744q23 0 18 -24l-32 -140q-1 -9 -7.5 -14t-15.5 -5h-1026z" />
    <glyph glyph-name="bracketleft" unicode="[" horiz-adv-x="542" 
d="M-83 -280q-23 0 -18 24l392 1697q3 19 23 19h360q11 0 16 -6.5t3 -17.5l-34 -140q-4 -19 -23 -19h-174l-316 -1374h168q11 0 16 -6.5t3 -17.5l-32 -140q-5 -19 -23 -19h-361z" />
    <glyph glyph-name="backslash" unicode="\" horiz-adv-x="559" 
d="M231 -340q-10 0 -15.5 5.5t-5.5 15.5l-38 1697q0 22 22 22h126q10 0 16 -5.5t6 -15.5l37 -1697q0 -22 -21 -22h-127z" />
    <glyph glyph-name="bracketright" unicode="]" horiz-adv-x="544" 
d="M-97 -280q-11 0 -16 6.5t-2 17.5l32 140q3 19 23 19h173l317 1374h-168q-11 0 -16 6.5t-3 17.5l34 140q4 19 23 19h361q11 0 15.5 -6.5t2.5 -17.5l-392 -1697q-4 -19 -23 -19h-361z" />
    <glyph glyph-name="asciicircum" unicode="^" horiz-adv-x="1066" 
d="M70 513q-19 0 -19 13q0 5 5 13l586 847q11 14 26 14h140q19 0 23 -19l192 -844l1 -6q0 -18 -20 -18h-131q-9 0 -16 5t-8 14l-143 674l-456 -679q-9 -14 -26 -14h-154z" />
    <glyph glyph-name="underscore" unicode="_" horiz-adv-x="827" 
d="M-135 -340q-11 0 -16 6.5t-2 17.5l29 128q4 19 23 19h707q11 0 15.5 -6.5t2.5 -17.5l-29 -128q-5 -19 -24 -19h-706z" />
    <glyph glyph-name="grave" unicode="`" horiz-adv-x="765" 
d="M758 1144q-4 -15 -19 -15q-5 0 -8 1l-446 151q-15 6 -15 18q0 2 2 10l51 137q6 15 18 15q5 0 11 -3l426 -203q13 -6 13 -18q0 -4 -2 -10z" />
    <glyph glyph-name="a" unicode="a" horiz-adv-x="1114" 
d="M1126 1030q11 0 16 -6.5t3 -17.5l-120 -490l-108 -497q-4 -19 -24 -19h-192q-11 0 -16 6.5t-2 17.5l22 89q-126 -129 -300 -129q-113 0 -196 51.5t-126.5 145.5t-43.5 219q0 145 58.5 295t177.5 251t290 101q112 0 189.5 -46.5t116.5 -134.5l30 145q4 19 24 19h201z
M666 224q74 80 111.5 195t37.5 218q0 122 -54 185.5t-153 63.5q-114 0 -187.5 -80t-106 -191t-32.5 -208q0 -120 53 -191.5t153 -71.5q104 0 178 80z" />
    <glyph glyph-name="b" unicode="b" horiz-adv-x="1118" 
d="M909.5 995.5q82.5 -51.5 126.5 -146t44 -218.5q0 -146 -59 -296t-178 -250.5t-289 -100.5q-114 0 -192.5 47.5t-117.5 137.5l-31 -150q-3 -18 -23 -18h-201q-11 0 -16.5 6.5t-2.5 16.5l158 647l156 710q3 19 24 19h202q11 0 16 -6.5t3 -17.5l-108 -450q124 121 292 121
q114 0 196.5 -51.5zM698 224.5q73 79.5 106 191t33 208.5q0 119 -53 190.5t-153 71.5q-104 0 -178.5 -79.5t-112 -194.5t-37.5 -218q0 -123 54 -186t154 -63q114 0 187 79.5z" />
    <glyph glyph-name="c" unicode="c" horiz-adv-x="1066" 
d="M262.5 28.5q-103.5 52.5 -160.5 155t-57 248.5q0 155 67 297.5t197 232.5t309 90q125 0 220 -45.5t148.5 -129t56.5 -195.5q0 -21 -21 -21h-185q-20 0 -22 21q-6 99 -63 152.5t-149 53.5q-104 0 -175 -72t-105.5 -179.5t-34.5 -213.5q0 -140 59 -211.5t163 -71.5
q96 0 164.5 56.5t101.5 168.5q6 18 24 18h186q19 0 19 -16q0 -5 -1 -8q-50 -183 -180.5 -283t-319.5 -100q-138 0 -241.5 52.5z" />
    <glyph glyph-name="d" unicode="d" horiz-adv-x="1122" 
d="M1209 1400q11 0 16 -6.5t2 -17.5l-182 -762l-131 -595q-3 -19 -23 -19h-189q-11 0 -16.5 6.5t-2.5 17.5l24 90q-127 -130 -302 -130q-113 0 -196 51.5t-126.5 145.5t-43.5 219q0 145 58.5 295t177.5 251t290 101q111 0 188.5 -46.5t116.5 -133.5l113 514q3 19 23 19h203z
M665.5 224q74.5 80 112 195t37.5 218q0 122 -54 185.5t-152 63.5q-114 0 -188 -80t-106.5 -191t-32.5 -208q0 -120 52.5 -191.5t152.5 -71.5q104 0 178.5 80z" />
    <glyph glyph-name="e" unicode="e" horiz-adv-x="1100" 
d="M851 999.5q100 -52.5 154.5 -148.5t54.5 -223q0 -64 -15 -135q-3 -19 -23 -19h-739q-3 -27 -3 -54q0 -139 64 -210t177 -71q95 0 161.5 50t100.5 152q6 19 25 19h184q19 0 19 -16q0 -5 -1 -8q-49 -173 -177 -265.5t-317 -92.5q-140 0 -246 52.5t-165.5 154.5t-59.5 246
q0 156 67.5 299t197.5 232.5t307 89.5q134 0 234 -52.5zM821 629q3 23 3 44q0 64 -26 114t-75.5 78t-118.5 28q-114 0 -188 -72t-109 -192h514z" />
    <glyph glyph-name="f" unicode="f" horiz-adv-x="730" 
d="M881 1400q4 -7 2 -17l-30 -127q-1 -7 -6 -11.5t-12 -4.5q-5 0 -8 1q-39 9 -98 9q-58 0 -98.5 -37.5t-59.5 -122.5l-14 -60h220q11 0 16 -6.5t3 -17.5l-31 -129q-4 -19 -23 -19h-225l-92 -398l-93 -441q-3 -19 -23 -19h-211q-11 0 -16 6.5t-3 17.5l109 436l93 398h-135
q-11 0 -16 6.5t-3 17.5l31 129q3 19 23 19h140l19 81q25 109 82.5 179t133.5 102t159 32q70 0 152 -16q10 -1 14 -8z" />
    <glyph glyph-name="g" unicode="g" horiz-adv-x="1120" 
d="M1131 1030q11 0 16.5 -6.5t2.5 -17.5l-122 -507l-99 -448q-51 -226 -184.5 -336.5t-351.5 -110.5q-130 0 -231 42t-157.5 118t-58.5 175v2q0 19 21 19h198q21 0 22 -21q3 -83 62.5 -128.5t154.5 -45.5q120 0 188.5 69t103.5 220l18 75q-128 -128 -300 -128
q-114 0 -197.5 51t-127.5 143t-44 214q0 144 58.5 292t176.5 247t288 99q114 0 193 -46.5t118 -134.5l30 145q1 9 7.5 14t15.5 5h199zM673.5 240.5q73.5 78.5 110.5 191.5t37 214q0 118 -55 179t-155 61q-113 0 -185.5 -78.5t-105 -187.5t-32.5 -204q0 -115 53.5 -184.5
t154.5 -69.5q104 0 177.5 78.5z" />
    <glyph glyph-name="h" unicode="h" horiz-adv-x="1087" 
d="M-11 0q-11 0 -16 6.5t-3 17.5l114 457l200 900q4 19 23 19h198q11 0 16 -6.5t3 -17.5l-123 -503q61 80 152 130.5t196 50.5q86 0 153.5 -34.5t106 -101.5t38.5 -161q0 -57 -15 -123l-45 -195l-92 -420q-3 -19 -23 -19h-202q-11 0 -16.5 6.5t-2.5 17.5l97 390l44 204
q10 47 10 89q0 82 -40.5 125t-115.5 43q-107 0 -186 -90.5t-123 -224.5l-36 -149l-82 -392q-5 -19 -24 -19h-206z" />
    <glyph glyph-name="i" unicode="i" horiz-adv-x="432" 
d="M-2 0q-11 0 -16 6.5t-3 17.5l122 499l106 488q4 19 24 19h204q11 0 16.5 -6.5t2.5 -17.5l-120 -482l-108 -505q-3 -19 -24 -19h-204zM265 1145q-11 0 -16.5 6.5t-2.5 17.5l44 188q6 19 24 19h199q11 0 16.5 -7t2.5 -17l-45 -188q-4 -19 -23 -19h-199z" />
    <glyph glyph-name="j" unicode="j" horiz-adv-x="432" 
d="M-81 -340q-11 0 -16 6.5t-2 17.5l159 658l147 669q3 19 23 19h205q11 0 16 -6.5t3 -17.5l-162 -664l-144 -663q-4 -19 -24 -19h-205zM265 1145q-11 0 -16.5 6.5t-2.5 17.5l44 188q6 19 24 19h199q11 0 16.5 -7t2.5 -17l-45 -188q-4 -19 -23 -19h-199z" />
    <glyph glyph-name="k" unicode="k" horiz-adv-x="982" 
d="M1023 1030q9 0 14 -3t5 -8q0 -7 -9 -15l-399 -346l226 -633q2 -8 2 -10q0 -7 -5 -11t-14 -4h-203q-19 0 -24 18l-52 171l-113 320l-168 -155l-73 -336q-4 -19 -24 -19h-198q-11 0 -16 6.5t-3 17.5l165 674l148 684q4 19 24 19h199q11 0 16 -6.5t3 -17.5l-167 -678
l-11 -47l404 368q11 11 27 11h246z" />
    <glyph glyph-name="l" unicode="l" horiz-adv-x="428" 
d="M-1 0q-11 0 -16.5 6.5t-2.5 17.5l167 681l147 676q3 19 24 19h198q11 0 16 -6.5t3 -17.5l-165 -670l-149 -687q-4 -19 -24 -19h-198z" />
    <glyph glyph-name="m" unicode="m" horiz-adv-x="1655" 
d="M1475.5 1021.5q65.5 -32.5 103 -98t37.5 -159.5q0 -62 -16 -130l-45 -195l-91 -420q-4 -19 -24 -19h-203q-11 0 -16 6.5t-2 17.5l97 390l44 204q12 57 12 100q0 80 -36.5 118.5t-98.5 38.5q-91 0 -158 -79t-113 -208l-10 -51l-22 -98l-92 -420q-3 -19 -24 -19h-202
q-11 0 -16.5 6.5t-2.5 17.5l98 390l44 204q12 57 12 100q0 79 -36.5 118t-98.5 39q-96 0 -165 -87t-116 -228l-36 -149l-82 -392q-1 -9 -7.5 -14t-16.5 -5h-206q-11 0 -16 6.5t-2 17.5l113 457l118 530q3 19 23 19h190q11 0 16.5 -6.5t2.5 -17.5l-32 -133q58 80 141 130.5
t182 50.5q94 0 162.5 -47t93.5 -136q65 82 154.5 132.5t193.5 50.5q83 0 148.5 -32.5z" />
    <glyph glyph-name="n" unicode="n" horiz-adv-x="1085" 
d="M-13 0q-11 0 -16 6.5t-2 17.5l113 457l118 530q3 19 23 19h190q11 0 16.5 -6.5t2.5 -17.5l-32 -133q61 80 151.5 130.5t195.5 50.5q86 0 153.5 -34.5t106 -101.5t38.5 -161q0 -57 -15 -123l-45 -195l-91 -420q-4 -19 -24 -19h-203q-11 0 -16 6.5t-2 17.5l97 390l44 204
q11 52 11 91q0 81 -41 123.5t-116 42.5q-107 0 -186 -90.5t-123 -224.5l-36 -149l-82 -392q-1 -9 -7.5 -14t-16.5 -5h-206z" />
    <glyph glyph-name="o" unicode="o" horiz-adv-x="1127" 
d="M265.5 31q-103.5 53 -162 155.5t-58.5 245.5q0 155 68.5 298t200 232.5t310.5 89.5q134 0 237.5 -53t162 -155t58.5 -245q0 -156 -69 -299t-200.5 -232.5t-309.5 -89.5q-134 0 -237.5 53zM693.5 213q73.5 74 109.5 183t36 214q0 135 -60.5 208t-163.5 73q-108 0 -182 -74
t-109.5 -183t-35.5 -214q0 -135 60.5 -208t163.5 -73q108 0 181.5 74z" />
    <glyph glyph-name="p" unicode="p" horiz-adv-x="1111" 
d="M902 995q83 -52 126.5 -146t43.5 -218q0 -146 -58.5 -296t-177.5 -250.5t-290 -100.5q-109 0 -186.5 44.5t-116.5 128.5l-107 -478q-3 -19 -23 -19h-205q-11 0 -16 6.5t-3 17.5l182 751l124 576q4 19 24 19h191q11 0 16 -6.5t2 -17.5l-22 -88q127 129 300 129
q113 0 196 -52zM690.5 224.5q73.5 79.5 106 191t32.5 208.5q0 119 -53 190.5t-153 71.5q-104 0 -178 -79.5t-111.5 -194.5t-37.5 -218q0 -123 54 -186t153 -63q114 0 187.5 79.5z" />
    <glyph glyph-name="q" unicode="q" horiz-adv-x="1117" 
d="M1129 1030q11 0 16 -6.5t3 -17.5l-151 -626l-155 -703q-4 -18 -24 -18l-201 1q-11 0 -16 6.5t-3 17.5l103 425q-125 -125 -296 -125q-113 0 -196 51.5t-126.5 145.5t-43.5 219q0 145 58.5 295t177.5 251t290 101q112 0 189.5 -46.5t116.5 -135.5l30 146q5 19 24 19h204z
M665.5 224q74.5 80 112 195t37.5 218q0 122 -54 185.5t-153 63.5q-114 0 -187.5 -80t-106 -191t-32.5 -208q0 -120 52.5 -191.5t152.5 -71.5q104 0 178.5 80z" />
    <glyph glyph-name="r" unicode="r" horiz-adv-x="753" 
d="M-11 0q-11 0 -16.5 6.5t-2.5 17.5l122 497l106 490q3 19 24 19h196q11 0 16.5 -6.5t2.5 -17.5l-44 -163q78 95 179 145.5t208 50.5q28 0 47 -5q10 -1 14 -8t2 -17l-32 -139q-4 -19 -25 -17q-20 3 -41 3q-87 0 -172 -41t-151 -117.5t-97 -178.5l-113 -500q-1 -9 -7.5 -14
t-15.5 -5h-200z" />
    <glyph glyph-name="s" unicode="s" horiz-adv-x="1036" 
d="M231 21.5q-106 44.5 -162.5 124.5t-56.5 186q0 22 22 22h190q20 0 22 -22q2 -96 65 -149.5t181 -53.5q70 0 118.5 20t72 52.5t23.5 71.5q0 43 -30.5 71.5t-77.5 46t-127 40.5q-111 32 -180 62t-118.5 88t-49.5 150q0 95 56.5 168t158 113.5t231.5 40.5q129 0 225.5 -38
t151.5 -109.5t62 -170.5v-2q0 -19 -21 -19h-183q-20 0 -22 20q-9 83 -66.5 126.5t-149.5 43.5q-90 0 -145.5 -39.5t-55.5 -102.5q0 -44 31 -72.5t77.5 -46t129.5 -39.5q109 -29 177 -57t116.5 -83t48.5 -145q0 -97 -56 -175t-161 -122.5t-247 -44.5q-144 0 -250 44.5z" />
    <glyph glyph-name="t" unicode="t" horiz-adv-x="694" 
d="M752 1030q11 0 16 -6.5t3 -17.5l-31 -129q-3 -19 -23 -19h-232l-128 -560q-7 -29 -7 -56q0 -45 24 -65.5t71 -20.5q45 0 105 12q3 1 8 1q8 0 11.5 -5.5t1.5 -15.5l-27 -116q-5 -18 -19 -22q-101 -28 -172 -28q-109 0 -179 52t-70 163q0 43 12 95l132 566h-110
q-11 0 -16 6.5t-3 17.5l31 129q4 19 23 19h114l52 239q3 19 23 19h203q11 0 16.5 -6.5t2.5 -17.5l-57 -234h225z" />
    <glyph glyph-name="u" unicode="u" horiz-adv-x="1085" 
d="M1095 1030q11 0 16 -6.5t3 -17.5l-114 -457l-117 -530q-4 -19 -24 -19h-190q-11 0 -16.5 6.5t-2.5 17.5l33 133q-61 -80 -152 -130.5t-196 -50.5q-87 0 -154.5 34t-106 101t-38.5 161q0 57 15 124l46 195l92 420q3 19 23 19h203q11 0 16.5 -6.5t2.5 -17.5l-98 -390
l-43 -204q-11 -52 -11 -90q0 -82 40.5 -124.5t115.5 -42.5q107 0 185 90t123 225l37 149l82 392q5 19 24 19h206z" />
    <glyph glyph-name="v" unicode="v" horiz-adv-x="1009" 
d="M115 1008v4q0 18 20 18h193q22 0 23 -21l68 -794l457 800q9 15 25 15h205q8 0 13 -4t5 -10t-3 -12l-589 -990q-9 -15 -26 -15h-241q-21 0 -24 20z" />
    <glyph glyph-name="w" unicode="w" horiz-adv-x="1425" 
d="M154 0q-21 0 -21 21l-13 987q0 10 5.5 16t15.5 6h175q22 0 21 -22l-29 -814l359 820q6 16 25 16h249q22 0 21 -22l-13 -800l343 806q6 16 25 16h200q19 0 19 -14q0 -5 -3 -11l-462 -989q-7 -16 -25 -16h-244q-21 0 -21 21l-3 813l-357 -818q-8 -16 -25 -16h-242z" />
    <glyph glyph-name="x" unicode="x" horiz-adv-x="957" 
d="M-94 0q-18 0 -18 12q0 7 6 14l455 541l-207 438q-2 4 -2 10q0 15 19 15h205q18 0 25 -16l141 -321l254 324q9 13 26 13h214q18 0 18 -12q0 -6 -6 -14l-414 -495l213 -484q3 -6 3 -10q0 -7 -5.5 -11t-13.5 -4h-207q-19 0 -25 16l-146 353l-288 -356q-10 -13 -27 -13h-220z
" />
    <glyph glyph-name="y" unicode="y" horiz-adv-x="986" 
d="M110 -340q-19 0 -19 14q0 4 4 12l188 328l-169 993v5q0 18 20 18h203q20 0 23 -20l94 -712l386 717q8 15 25 15h220q19 0 19 -14q0 -4 -4 -12l-766 -1329q-8 -15 -25 -15h-199z" />
    <glyph glyph-name="z" unicode="z" horiz-adv-x="967" 
d="M-30 0q-11 0 -16.5 7t-2.5 17l31 135q3 15 13 24l666 674h-451q-11 0 -16.5 6.5t-2.5 17.5l31 130q3 19 23 19h727q11 0 16 -6.5t3 -17.5l-32 -137q-3 -14 -14 -24l-671 -672h527q11 0 16 -7t3 -17l-30 -130q-5 -19 -23 -19h-797z" />
    <glyph glyph-name="braceleft" unicode="{" horiz-adv-x="546" 
d="M204 -280q-128 0 -192 51.5t-64 142.5q0 104 79 243l107 197q36 65 36 99q0 47 -62 47h-32q-11 0 -16 6.5t-3 17.5l33 137q1 9 7.5 14t15.5 5h37q52 0 73.5 29.5t21.5 79.5q0 11 -2 37l-17 223q-3 26 -3 49q0 106 49 188.5t136 128t198 45.5h63q11 0 16.5 -6.5t2.5 -17.5
l-34 -140q-4 -19 -23 -19h-67q-132 0 -132 -174q0 -25 3 -54l17 -223q1 -9 1 -26q0 -72 -40.5 -128.5t-125.5 -82.5q46 -19 68 -51t22 -73q0 -50 -33 -111l-107 -199q-69 -124 -69 -186q0 -66 80 -66h62q11 0 16 -6.5t2 -17.5l-32 -140q-1 -9 -7.5 -14t-15.5 -5h-69z" />
    <glyph glyph-name="bar" unicode="|" horiz-adv-x="339" 
d="M-79 -280q-23 0 -18 24l392 1697q3 19 23 19h137q11 0 16 -6.5t2 -17.5l-392 -1697q-3 -19 -23 -19h-137z" />
    <glyph glyph-name="braceright" unicode="}" horiz-adv-x="547" 
d="M-88 -280q-11 0 -16 6.5t-2 17.5l32 140q3 19 23 19h67q63 0 96.5 43t33.5 142q0 30 -3 67l-13 199q-1 8 -1 23q0 68 40 126t124 86q-91 34 -91 118q0 55 36 119l119 223q58 103 58 160q0 68 -83 68h-61q-11 0 -16 6.5t-3 17.5l34 140q4 19 23 19h69q121 0 188 -53.5
t67 -147.5t-66 -210l-119 -223q-37 -65 -37 -100q0 -46 62 -46h32q11 0 16 -6.5t2 -17.5l-32 -137q-5 -19 -23 -19h-37q-52 0 -73 -29t-21 -79q0 -12 2 -38l14 -197q3 -31 3 -61q0 -109 -42.5 -194t-128 -133.5t-209.5 -48.5h-64z" />
    <glyph glyph-name="asciitilde" unicode="~" horiz-adv-x="1054" 
d="M88 567q-10 0 -15 6t-3 17q36 191 127 307t230 116q67 0 113 -25.5t73.5 -61t58.5 -89.5q29 -52 50.5 -76t52.5 -24q65 0 105 64.5t58 174.5q3 21 23 21h129q11 0 16 -6.5t3 -17.5q-37 -191 -125 -299t-226 -108q-63 0 -107.5 24t-71.5 57.5t-59 86.5q-34 56 -58.5 82
t-62.5 26q-61 0 -101 -68.5t-57 -185.5q-3 -21 -23 -21h-130z" />
    <glyph glyph-name="exclamdown" unicode="&#xa1;" horiz-adv-x="431" 
d="M433 1030q11 0 16 -6.5t2 -17.5l-46 -202q-1 -9 -7.5 -14t-15.5 -5h-203q-11 0 -16 6.5t-2 17.5l46 202q3 19 23 19h203zM338 634q11 0 16 -6.5t2 -17.5l-222 -961q-4 -19 -23 -19h-197q-23 0 -18 24l222 961q4 19 24 19h196z" />
    <glyph glyph-name="cent" unicode="&#xa2;" horiz-adv-x="1092" 
d="M852 1222q112 -40 176 -128.5t67 -211.5q0 -21 -22 -21h-185q-21 0 -21 21q-6 99 -63 152.5t-149 53.5q-104 0 -175 -72t-105.5 -179.5t-34.5 -213.5q0 -140 58.5 -211.5t163.5 -71.5q95 0 163.5 56.5t102.5 168.5q4 18 24 18h186q19 0 19 -16q0 -5 -1 -8
q-47 -170 -162 -268.5t-284 -112.5l-36 -159q-5 -19 -24 -19h-200q-11 0 -15.5 6.5t-2.5 17.5l42 180q-131 44 -204 153.5t-73 274.5q0 147 60.5 283.5t178 228.5t280.5 106l31 136q4 19 23 19h201q11 0 15.5 -6.5t2.5 -17.5z" />
    <glyph glyph-name="sterling" unicode="&#xa3;" horiz-adv-x="1179" 
d="M998 1376q102 -50 154.5 -146.5t51.5 -233.5q0 -10 -6 -15.5t-16 -5.5h-195q-21 0 -21 21q0 114 -56 178.5t-162 64.5q-129 0 -201 -94.5t-73 -269.5q-1 -22 1 -70h289q11 0 16.5 -7t2.5 -17l-28 -125q-4 -19 -23 -19h-250v-37q-1 -166 -58 -271t-198 -146l343 -12
q11 -1 33 -1q84 0 138.5 26t89 85t57.5 162q5 20 23 20h198q9 0 14.5 -6t5.5 -17q0 -6 -1 -10q-36 -174 -112 -272.5t-183 -136.5t-252 -38h-34l-608 16q-10 0 -15 6.5t-3 17.5l30 133q4 17 21 22l46 12q105 25 162.5 124t57.5 280q0 28 -1 43h-179q-11 0 -16 6.5t-2 17.5
l29 125q5 19 23 19h138q-2 50 -2 72q0 167 59 290.5t177 191t289 67.5q144 0 246 -50z" />
    <glyph glyph-name="currency" unicode="&#xa4;" horiz-adv-x="1105" 
d="M1144 1042q6 -7 6 -14t-10 -16l-182 -145q29 -67 29 -147q0 -77 -27 -148t-76 -129l110 -157q5 -8 5 -14q0 -9 -10 -16l-97 -69q-7 -5 -12 -5q-10 0 -18 11l-106 151q-91 -44 -195 -44q-147 0 -245 81l-178 -143q-7 -6 -15 -6q-7 0 -15 9l-71 89q-5 8 -5 13q0 8 9 17
l183 145q-29 69 -29 147q0 77 26.5 148.5t76.5 128.5l-110 157q-5 8 -5 14q0 9 10 16l97 69q7 5 12 5q9 0 18 -11l106 -151q90 44 195 44q73 0 135.5 -21t109.5 -60l178 143q8 6 14 6q9 0 16 -9zM391.5 538q25.5 -50 72 -77t107.5 -27q77 0 132.5 41t84.5 106t29 136
q0 64 -24.5 114t-71 78.5t-110.5 28.5q-78 0 -133.5 -41.5t-83.5 -107t-28 -135.5q0 -66 25.5 -116z" />
    <glyph glyph-name="yen" unicode="&#xa5;" horiz-adv-x="1176" 
d="M1351 1400q19 0 19 -13q0 -5 -6 -13l-574 -705h270q11 0 16 -6.5t3 -17.5l-28 -123q-4 -19 -24 -19h-324l-28 -131h317q11 0 16 -6.5t2 -17.5l-28 -124q-1 -9 -7.5 -14t-15.5 -5h-319l-40 -186q-3 -19 -24 -19h-211q-11 0 -16 6.5t-2 17.5l45 181h-310q-11 0 -16 6.5
t-2 17.5l28 124q3 19 23 19h319l33 131h-317q-11 0 -15.5 6.5t-2.5 17.5l28 123q4 19 23 19h275l-249 706q-2 6 -2 9q0 16 20 16h207q20 0 24 -18l182 -617l463 622q9 13 27 13h221z" />
    <glyph glyph-name="brokenbar" unicode="&#xa6;" horiz-adv-x="340" 
d="M152 720q-11 0 -16 6.5t-2 17.5l162 697q3 19 23 19h137q11 0 16 -6.5t2 -17.5l-162 -697q-3 -19 -23 -19h-137zM-78 -280q-11 0 -16 6.5t-2 17.5l160 697q3 19 23 19h137q11 0 16 -6.5t2 -17.5l-160 -697q-3 -19 -23 -19h-137z" />
    <glyph glyph-name="section" unicode="&#xa7;" horiz-adv-x="1241" 
d="M1003 1357.5q112 -43.5 173.5 -126t61.5 -195.5v-2q0 -9 -6 -14t-15 -5h-182q-19 0 -21 21q-3 99 -77 152t-205 53q-84 0 -148.5 -22t-100 -63t-35.5 -97q0 -52 38.5 -86.5t96.5 -55t159 -46.5q134 -35 216.5 -67.5t141.5 -96.5t59 -169q0 -113 -74.5 -200t-206.5 -129
q67 -39 103.5 -94.5t36.5 -136.5q0 -115 -68.5 -203t-190.5 -136.5t-276 -48.5q-157 0 -278.5 49.5t-188.5 141.5t-67 216q0 24 23 24h171q10 0 15.5 -6t5.5 -16q2 -76 40 -133.5t111.5 -89t178.5 -31.5q89 0 155.5 25.5t102.5 71.5t36 104q0 56 -39.5 92t-98 56t-161.5 46
q-133 34 -214 65t-138.5 94t-57.5 168q0 115 78.5 199.5t214.5 122.5q-73 38 -113.5 95.5t-40.5 142.5q0 113 70 198t190.5 130.5t267.5 45.5q145 0 257 -43.5zM889 597q-39 37 -97.5 58.5t-158.5 46.5q-100 2 -174 -22t-113 -69.5t-39 -105.5q0 -56 38.5 -92t96.5 -57
t158 -47l45 -12q80 1 144.5 27t101.5 72.5t37 105.5q0 58 -39 95z" />
    <glyph glyph-name="dieresis" unicode="&#xa8;" horiz-adv-x="772" 
d="M270 1145q-11 0 -16 6.5t-3 17.5l45 188q4 19 23 19h160q11 0 16 -7t3 -17l-45 -188q-4 -19 -23 -19h-160zM636 1145q-11 0 -16 6.5t-3 17.5l45 188q4 19 24 19h159q11 0 16 -6.5t3 -17.5l-45 -188q-4 -19 -23 -19h-160z" />
    <glyph glyph-name="copyright" unicode="&#xa9;" horiz-adv-x="1489" 
d="M426 63.5q-156 90.5 -241 255t-85 379.5q0 221 84.5 386t240.5 254t363 89q206 0 361.5 -88.5t241 -253.5t85.5 -388q0 -215 -85.5 -379t-242 -254.5t-361.5 -90.5t-361 90.5zM1097.5 147q128.5 75 196 215.5t67.5 334.5t-67.5 336t-196.5 218.5t-310 76.5
q-183 0 -311 -75.5t-194 -217t-66 -338.5q0 -193 67.5 -333.5t196.5 -216t309 -75.5t308.5 75zM573.5 297.5q-96.5 56.5 -148 160.5t-51.5 243q0 140 52 244.5t148.5 161.5t226.5 57q146 0 245.5 -71t135.5 -229l1 -6q0 -8 -5.5 -13t-15.5 -5h-113q-18 0 -23 19
q-20 90 -79 135.5t-148 45.5q-126 0 -194 -89.5t-68 -248.5q0 -164 68 -251t192 -87q98 0 157.5 51.5t76.5 149.5q5 20 24 20h115q9 0 14.5 -5t5.5 -14q0 -5 -1 -8q-33 -162 -132 -239.5t-255 -77.5q-132 0 -228.5 56.5z" />
    <glyph glyph-name="ordfeminine" unicode="&#xaa;" horiz-adv-x="896" 
d="M1009 1403q11 0 16 -7t2 -17l-83 -353l-81 -359q-3 -19 -23 -19h-150q-11 0 -16.5 6.5t-2.5 17.5l16 62q-104 -104 -245 -104q-85 0 -147.5 38.5t-96.5 109t-34 163.5q0 108 46.5 219t141 185.5t231.5 74.5q78 0 134 -27.5t87 -80.5l14 71q3 20 23 20h168zM651.5 820.5
q53.5 57.5 80.5 140.5t27 156q0 83 -38 126.5t-106 43.5q-83 0 -136.5 -57t-77 -136t-23.5 -148q0 -84 36.5 -133.5t108.5 -49.5q75 0 128.5 57.5z" />
    <glyph glyph-name="guillemotleft" unicode="&#xab;" horiz-adv-x="974" 
d="M260 168q-17 0 -25 15l-187 342q-4 10 -4 14q0 8 8 16l338 351q10 11 26 11h166q18 0 18 -12q0 -7 -7 -14l-353 -362l189 -336q4 -5 4 -12q0 -13 -19 -13h-154zM670 168q-17 0 -25 15l-187 342q-4 10 -4 14q0 8 8 16l338 351q10 11 26 11h166q18 0 18 -12q0 -7 -7 -14
l-353 -362l189 -336q4 -5 4 -12q0 -13 -19 -13h-154z" />
    <glyph glyph-name="logicalnot" unicode="&#xac;" horiz-adv-x="1084" 
d="M1055 773.5q5 -6.5 3 -16.5v-1l-32 -139l-1 -4l-93 -404q-3 -19 -23 -19h-144q-11 0 -16 6.5t-3 17.5l88 384h-708q-11 0 -16 7t-3 17l32 139q5 19 23 19h878q10 0 15 -6.5z" />
    <glyph glyph-name="registered" unicode="&#xae;" horiz-adv-x="758" 
d="M337 778q-75 43 -116.5 121t-41.5 179q0 105 41 183.5t116 120.5t175 42q99 0 173 -42t115 -120t41 -184q0 -101 -40.5 -179t-115 -121t-173.5 -43t-174 43zM702.5 872.5q68.5 74.5 68.5 205.5q0 132 -68.5 208t-191.5 76q-126 0 -194 -75t-68 -209q0 -131 69 -205.5
t193 -74.5q123 0 191.5 74.5zM373 885q-22 0 -22 22v349q0 10 6 15.5t16 5.5h133q78 0 121.5 -30.5t43.5 -88.5q0 -43 -24 -71.5t-68 -40.5l87 -135q4 -7 4 -13q0 -13 -18 -13h-53q-18 0 -26 14l-86 137h-50l1 -129q0 -10 -5.5 -16t-15.5 -6h-44zM510 1098q35 0 55 14t20 44
q0 59 -76 59h-71l-1 -117h73z" />
    <glyph glyph-name="macron" unicode="&#xaf;" horiz-adv-x="821" 
d="M279 1175q-11 0 -16.5 6.5t-2.5 17.5l29 121q4 19 23 19h576q11 0 16.5 -6.5t2.5 -17.5l-29 -121q-4 -19 -23 -19h-576z" />
    <glyph glyph-name="macron" unicode="&#x2c9;" horiz-adv-x="821" 
d="M279 1175q-11 0 -16.5 6.5t-2.5 17.5l29 121q4 19 23 19h576q11 0 16.5 -6.5t2.5 -17.5l-29 -121q-4 -19 -23 -19h-576z" />
    <glyph glyph-name="degree" unicode="&#xb0;" horiz-adv-x="712" 
d="M317.5 848.5q-68.5 33.5 -108 94.5t-39.5 141q0 85 45.5 162.5t126.5 125.5t183 48q83 0 151.5 -34t108 -95.5t39.5 -139.5q0 -84 -45.5 -162t-127 -126t-182.5 -48q-83 0 -151.5 33.5zM570 978.5q41 29.5 63 76t22 96.5q0 62 -38.5 98t-99.5 36q-57 0 -97 -31.5
t-60.5 -78t-20.5 -91.5q0 -62 38 -98.5t99 -36.5q53 0 94 29.5z" />
    <glyph glyph-name="plusminus" unicode="&#xb1;" horiz-adv-x="1054" 
d="M1037 840q11 0 16 -6.5t3 -17.5l-31 -139q-5 -19 -24 -19h-346l-90 -389q-4 -19 -23 -19h-145q-23 0 -18 24l88 384h-343q-11 0 -16 7t-3 17l32 139q5 19 23 19h350l90 391q4 19 23 19h145q11 0 16 -6.5t2 -17.5l-89 -386h340zM-28 0q-11 0 -16 7t-3 17l32 139
q5 19 23 19h877q11 0 16 -6.5t3 -17.5l-31 -139q-5 -19 -24 -19h-877z" />
    <glyph glyph-name="two.sups" unicode="&#xb2;" horiz-adv-x="570" 
d="M83 651q-11 0 -16.5 6.5t-2.5 17.5l24 100q20 86 67 141.5t101 85t135 61.5q60 24 92 40t53 41.5t21 63.5q0 46 -27.5 70t-73.5 24q-49 0 -83.5 -32t-48.5 -100q-3 -20 -23 -20h-98q-11 0 -16 6t-4 17q18 120 92 181t190 61q107 0 173 -50.5t66 -147.5q0 -71 -35.5 -120
t-85 -78.5t-132.5 -66.5q-63 -28 -98.5 -47.5t-62 -46.5t-32.5 -63l-6 -30h323q11 0 16 -6.5t3 -17.5l-16 -72q-4 -18 -23 -18h-472z" />
    <glyph glyph-name="three.sups" unicode="&#xb3;" horiz-adv-x="616" 
d="M238 662.5q-60 28.5 -91 82.5t-27 128q2 21 23 21h105q21 0 21 -23q-2 -54 28 -87.5t88 -33.5q66 0 101.5 40t35.5 95q0 48 -30 77.5t-83 29.5h-51q-11 0 -16 6.5t-3 17.5l15 61q5 18 23 18h57q56 0 99.5 27.5t43.5 84.5q0 44 -29 68t-74 24q-46 0 -79 -26t-47 -76
q-4 -19 -23 -19h-102q-11 0 -16.5 6.5t-2.5 17.5q26 106 99 159.5t177 53.5q70 0 125.5 -23.5t87 -66.5t31.5 -100q0 -67 -41.5 -118t-115.5 -67q51 -22 79 -65t28 -99q0 -67 -36 -122.5t-103 -87.5t-155 -32q-82 0 -142 28.5z" />
    <glyph glyph-name="acute" unicode="&#xb4;" horiz-adv-x="769" 
d="M337 1137q-3 -1 -8 -1q-14 0 -19 16l-25 86q-1 3 -1 7q0 14 14 20l471 193q3 2 10 2q12 0 17 -16l38 -141q1 -3 1 -8q0 -7 -4.5 -12t-11.5 -6z" />
    <glyph glyph-name="uni03BC" unicode="&#xb5;" horiz-adv-x="1094" 
d="M200 1018q3 13 15 13h215q7 0 11 -4.5t2 -11.5l-141 -603q-12 -51 -12 -93q0 -80 41 -122t115 -42q107 0 185.5 90.5t122.5 224.5l35 150l88 398q3 13 15 13h218q7 0 10.5 -4.5t1.5 -11.5l-111 -465l-124 -537q-1 -12 -15 -12h-204q-7 0 -10 4t-2 11l35 141
q-61 -80 -152 -130t-196 -50q-40 0 -74 13t-56 37l-80 -355q-3 -12 -15 -12h-216q-7 0 -10 4.5t-2 11.5l188 801z" />
    <glyph glyph-name="uni03BC" unicode="&#x3bc;" horiz-adv-x="1094" 
d="M200 1018q3 13 15 13h215q7 0 11 -4.5t2 -11.5l-141 -603q-12 -51 -12 -93q0 -80 41 -122t115 -42q107 0 185.5 90.5t122.5 224.5l35 150l88 398q3 13 15 13h218q7 0 10.5 -4.5t1.5 -11.5l-111 -465l-124 -537q-1 -12 -15 -12h-204q-7 0 -10 4t-2 11l35 141
q-61 -80 -152 -130t-196 -50q-40 0 -74 13t-56 37l-80 -355q-3 -12 -15 -12h-216q-7 0 -10 4.5t-2 11.5l188 801z" />
    <glyph glyph-name="paragraph" unicode="&#xb6;" horiz-adv-x="1347" 
d="M1441 1400q11 0 16 -6.5t3 -17.5l-215 -872l-181 -840q-3 -19 -24 -19h-211q-11 0 -16 6.5t-3 17.5l148 612l57 232h-190l-52 -233l-134 -616q-3 -19 -23 -19h-212q-11 0 -16 6.5t-3 17.5l148 608l57 238h-10q-143 0 -240 50.5t-144 138t-47 199.5q0 146 72 258.5
t208.5 175.5t324.5 63h687z" />
    <glyph glyph-name="periodcentered" unicode="&#xb7;" horiz-adv-x="387" 
d="M83 480q-11 0 -16 6.5t-2 17.5l46 200q3 19 23 19h213q11 0 16 -6.5t3 -17.5l-46 -200q-4 -19 -23 -19h-214z" />
    <glyph glyph-name="periodcentered" unicode="&#x2219;" horiz-adv-x="387" 
d="M83 480q-11 0 -16 6.5t-2 17.5l46 200q3 19 23 19h213q11 0 16 -6.5t3 -17.5l-46 -200q-4 -19 -23 -19h-214z" />
    <glyph glyph-name="cedilla" unicode="&#xb8;" horiz-adv-x="526" 
d="M133 -338q-9 -16 -27 -13l-172 28q-8 2 -12.5 6t-4.5 10q0 4 4 12l189 318q9 16 27 13l149 -15q16 -3 16 -16q0 -5 -3 -11z" />
    <glyph glyph-name="one.sups" unicode="&#xb9;" horiz-adv-x="436" 
d="M250 651q-11 0 -16.5 6.5t-2.5 17.5l88 346l44 207q-72 -52 -155 -79q-3 -1 -8 -1q-8 0 -12 5.5t-2 15.5l16 73q4 16 20 22q112 38 178 122q12 13 27 13h111q11 0 16 -7t2 -17l-98 -385l-64 -320q-4 -19 -24 -19h-120z" />
    <glyph glyph-name="ordmasculine" unicode="&#xba;" horiz-adv-x="905" 
d="M341 665.5q-81 39.5 -127 115.5t-46 181q0 116 53 222t155 173t240 67q103 0 184.5 -39.5t127.5 -115t46 -180.5q0 -115 -54 -222t-156 -174t-239 -67q-103 0 -184 39.5zM658.5 811q51.5 53 76 131t24.5 153q0 95 -40.5 146t-109.5 51q-75 0 -126 -52.5t-76 -131
t-25 -156.5q0 -94 39.5 -144t109.5 -50q76 0 127.5 53z" />
    <glyph glyph-name="guillemotright" unicode="&#xbb;" horiz-adv-x="974" 
d="M-4 168q-8 0 -13 3.5t-5 8.5q0 7 7 14l353 360l-190 338q-3 6 -3 11q0 14 18 14h154q18 0 26 -15l187 -344q4 -10 4 -13q0 -7 -8 -17l-338 -349q-11 -11 -27 -11h-165zM406 168q-8 0 -13 3.5t-5 8.5q0 7 7 14l353 360l-190 338q-3 6 -3 11q0 14 18 14h154q18 0 26 -15
l187 -344q4 -10 4 -13q0 -7 -8 -17l-338 -349q-11 -11 -27 -11h-165z" />
    <glyph glyph-name="onequarter" unicode="&#xbc;" horiz-adv-x="1449" 
d="M250 651q-11 0 -16.5 6.5t-2.5 17.5l88 346l44 207q-72 -52 -155 -79q-3 -1 -8 -1q-8 0 -12 5.5t-2 15.5l16 73q4 16 20 22q112 38 178 122q12 13 27 13h111q11 0 16 -7t2 -17l-98 -385l-64 -320q-4 -19 -24 -19h-120zM181 0q-19 0 -19 13q0 6 6 13l988 1361q10 13 27 13
h123q8 0 13 -3.5t5 -9.5q0 -5 -5 -13l-989 -1361q-9 -13 -26 -13h-123zM1368 748q11 0 16 -6.5t2 -17.5l-100 -436h60q11 0 16 -7t2 -17l-18 -73q-4 -19 -23 -19h-63l-36 -155q-5 -19 -23 -19h-113q-10 0 -15 6.5t-3 17.5l34 150h-311q-11 0 -16 6.5t-3 17.5l22 94
q2 11 12 24l369 421q12 13 27 13h164zM1176 481l36 134l-285 -327h204z" />
    <glyph glyph-name="onehalf" unicode="&#xbd;" horiz-adv-x="1488" 
d="M852 0q-11 0 -16.5 6.5t-2.5 17.5l24 100q20 86 67 141.5t101 85t135 61.5q60 24 92 40t53 41.5t21 63.5q0 46 -27.5 70t-73.5 24q-49 0 -83.5 -32t-48.5 -100q-3 -20 -23 -20h-98q-11 0 -16 6t-4 17q18 120 92 181t190 61q107 0 173 -50.5t66 -147.5q0 -71 -35.5 -120
t-85 -78.5t-132.5 -66.5q-63 -28 -98.5 -47.5t-62 -46.5t-32.5 -63l-6 -30h323q11 0 16 -6.5t3 -17.5l-16 -72q-4 -18 -23 -18h-472zM250 651q-11 0 -16.5 6.5t-2.5 17.5l88 346l44 207q-72 -52 -155 -79q-3 -1 -8 -1q-8 0 -12 5.5t-2 15.5l16 73q4 16 20 22q112 38 178 122
q12 13 27 13h111q11 0 16 -7t2 -17l-98 -385l-64 -320q-4 -19 -24 -19h-120zM175 0q-19 0 -19 13q0 6 6 13l988 1361q10 13 27 13h123q8 0 13 -3.5t5 -9.5q0 -5 -5 -13l-989 -1361q-9 -13 -26 -13h-123z" />
    <glyph glyph-name="threequarters" unicode="&#xbe;" horiz-adv-x="1590" 
d="M238 662.5q-60 28.5 -91 82.5t-27 128q2 21 23 21h105q21 0 21 -23q-2 -54 28 -87.5t88 -33.5q66 0 101.5 40t35.5 95q0 48 -30 77.5t-83 29.5h-51q-11 0 -16 6.5t-3 17.5l15 61q5 18 23 18h57q56 0 99.5 27.5t43.5 84.5q0 44 -29 68t-74 24q-46 0 -79 -26t-47 -76
q-4 -19 -23 -19h-102q-11 0 -16.5 6.5t-2.5 17.5q26 106 99 159.5t177 53.5q70 0 125.5 -23.5t87 -66.5t31.5 -100q0 -67 -41.5 -118t-115.5 -67q51 -22 79 -65t28 -99q0 -67 -36 -122.5t-103 -87.5t-155 -32q-82 0 -142 28.5zM328 0q-19 0 -19 13q0 6 6 13l988 1361
q10 13 27 13h123q8 0 13 -3.5t5 -9.5q0 -5 -5 -13l-989 -1361q-9 -13 -26 -13h-123zM1510 748q11 0 16 -6.5t2 -17.5l-100 -436h60q11 0 16 -7t2 -17l-18 -73q-4 -19 -23 -19h-63l-36 -155q-5 -19 -23 -19h-113q-10 0 -15 6.5t-3 17.5l34 150h-311q-11 0 -16 6.5t-3 17.5
l22 94q2 11 12 24l369 421q12 13 27 13h164zM1318 481l36 134l-285 -327h204z" />
    <glyph glyph-name="questiondown" unicode="&#xbf;" horiz-adv-x="1005" 
d="M728 1030q11 0 16 -6.5t2 -17.5l-46 -202q-1 -9 -7.5 -14t-15.5 -5h-212q-11 0 -16 6.5t-2 17.5l46 202q3 19 23 19h212zM631 634q11 0 16 -6.5t2 -17.5q-24 -97 -71.5 -171t-99.5 -123t-133 -112q-65 -50 -100.5 -82.5t-59 -74t-23.5 -91.5q0 -82 58.5 -126t152.5 -44
q110 0 174 61t89 181q4 19 24 19h186q24 0 19 -23q-42 -212 -171 -316.5t-334 -104.5q-123 0 -221.5 38t-156 115t-57.5 189q0 83 31.5 146.5t78.5 108.5t127 107q68 53 112.5 93t81.5 94t55 121q4 19 23 19h197z" />
    <glyph glyph-name="Agrave" unicode="&#xc0;" horiz-adv-x="1304" 
d="M1184 22v-4q0 -18 -20 -18h-194q-21 0 -23 20l-38 370h-548l-208 -375q-9 -15 -26 -15h-217q-19 0 -19 14q0 4 4 12l795 1359q8 15 25 15h289q20 0 23 -20zM891 585l-66 647l-358 -647h424zM1090 1514q-4 -15 -19 -15q-5 0 -8 1l-446 151q-15 6 -15 18q0 2 2 10l51 137
q6 15 18 15q5 0 11 -3l426 -203q13 -6 13 -18q0 -4 -2 -10z" />
    <glyph glyph-name="Aacute" unicode="&#xc1;" horiz-adv-x="1304" 
d="M1184 22v-4q0 -18 -20 -18h-194q-21 0 -23 20l-38 370h-548l-208 -375q-9 -15 -26 -15h-217q-19 0 -19 14q0 4 4 12l795 1359q8 15 25 15h289q20 0 23 -20zM891 585l-66 647l-358 -647h424zM733 1507q-3 -1 -8 -1q-14 0 -19 16l-25 86q-1 3 -1 7q0 14 14 20l471 193
q3 2 10 2q12 0 17 -16l38 -141q1 -3 1 -8q0 -7 -4.5 -12t-11.5 -6z" />
    <glyph glyph-name="Acircumflex" unicode="&#xc2;" horiz-adv-x="1304" 
d="M1184 22v-4q0 -18 -20 -18h-194q-21 0 -23 20l-38 370h-548l-208 -375q-9 -15 -26 -15h-217q-19 0 -19 14q0 4 4 12l795 1359q8 15 25 15h289q20 0 23 -20zM891 585l-66 647l-358 -647h424zM562 1601q-2 6 -2 10q0 13 12 19l311 179q13 8 27 8h71q13 0 27 -9l243 -179
q10 -7 10 -17q0 -8 -4 -13l-47 -76q-6 -11 -17 -11q-6 0 -12 3l-257 128l-298 -130q-4 -2 -10 -2q-14 0 -18 13z" />
    <glyph glyph-name="Atilde" unicode="&#xc3;" horiz-adv-x="1304" 
d="M1184 22v-4q0 -18 -20 -18h-194q-21 0 -23 20l-38 370h-548l-208 -375q-9 -15 -26 -15h-217q-19 0 -19 14q0 4 4 12l795 1359q8 15 25 15h289q20 0 23 -20zM891 585l-66 647l-358 -647h424zM951.5 1551q-31.5 19 -67.5 54q-24 24 -40.5 35.5t-36.5 11.5
q-32 0 -49.5 -24.5t-28.5 -72.5q-6 -19 -24 -19h-84q-11 0 -16 6t-3 17q21 110 76 175.5t143 65.5q44 0 76 -19.5t68 -54.5q25 -24 41 -35t33 -11q34 0 51.5 24t28.5 71q5 20 24 20h83q11 0 16 -8t3 -22q-23 -111 -76.5 -172t-139.5 -61q-46 0 -77.5 19z" />
    <glyph glyph-name="Adieresis" unicode="&#xc4;" horiz-adv-x="1304" 
d="M1184 22v-4q0 -18 -20 -18h-194q-21 0 -23 20l-38 370h-548l-208 -375q-9 -15 -26 -15h-217q-19 0 -19 14q0 4 4 12l795 1359q8 15 25 15h289q20 0 23 -20zM891 585l-66 647l-358 -647h424zM628 1515q-11 0 -16 6.5t-3 17.5l45 188q4 19 23 19h160q11 0 16 -7t3 -17
l-45 -188q-4 -19 -23 -19h-160zM994 1515q-11 0 -16 6.5t-3 17.5l45 188q4 19 24 19h159q11 0 16 -6.5t3 -17.5l-45 -188q-4 -19 -23 -19h-160z" />
    <glyph glyph-name="Aring" unicode="&#xc5;" horiz-adv-x="1304" 
d="M1184 22v-4q0 -18 -20 -18h-194q-21 0 -23 20l-38 370h-548l-208 -375q-9 -15 -26 -15h-217q-19 0 -19 14q0 4 4 12l795 1359q8 15 25 15h289q20 0 23 -20zM891 585l-66 647l-358 -647h424zM805.5 1541q-52.5 25 -83 71.5t-30.5 107.5q0 64 33 118.5t91 87t131 32.5
q65 0 117.5 -26t82.5 -73t30 -106q0 -64 -33 -118.5t-91.5 -86.5t-131.5 -32q-63 0 -115.5 25zM1012.5 1646.5q35.5 41.5 35.5 104.5q0 55 -28.5 86t-74.5 31q-56 0 -90.5 -43.5t-34.5 -103.5q0 -54 29.5 -85t74.5 -31q53 0 88.5 41.5z" />
    <glyph glyph-name="AE" unicode="&#xc6;" horiz-adv-x="1789" 
d="M1895 1400q11 0 16 -6.5t3 -17.5l-33 -140q-3 -19 -23 -19h-560l-99 -382h512q11 0 16 -6.5t2 -17.5l-32 -140q-4 -19 -23 -19h-518l-97 -469h570q11 0 16 -6.5t3 -17.5l-32 -140q-5 -19 -23 -19h-805q-11 0 -16 6.5t-2 17.5l90 366h-442l-265 -376q-11 -14 -26 -14h-218
q-8 0 -13 3.5t-5 9.5q0 5 5 13l979 1361q10 13 27 13h993zM552 585h358l31 128l111 519h-45z" />
    <glyph glyph-name="Ccedilla" unicode="&#xc7;" horiz-adv-x="1386" 
d="M1406 928q0 -20 -21 -20h-194q-19 0 -22 20q-10 149 -99 229.5t-236 80.5q-169 0 -281 -104.5t-164 -257t-52 -297.5q0 -206 98 -311.5t268 -105.5q145 0 247.5 80.5t154.5 243.5q6 19 24 19h200q11 0 16 -7t2 -18q-68 -232 -226 -363t-388 -143l-156 -312
q-9 -16 -27 -13l-172 28q-8 2 -12.5 6t-4.5 10q0 4 4 12l168 283q-137 28 -238 106t-156 202.5t-55 288.5q0 207 89.5 401t262.5 317.5t410 123.5q163 0 287 -61t195 -173.5t78 -262.5v-2z" />
    <glyph glyph-name="Egrave" unicode="&#xc8;" horiz-adv-x="1103" 
d="M3 0q-11 0 -16.5 6.5t-2.5 17.5l171 689l143 668q3 19 24 19h888q11 0 16 -6.5t2 -17.5l-32 -140q-4 -19 -23 -19h-660l-100 -382h612q11 0 16 -6.5t3 -17.5l-33 -140q-3 -19 -23 -19h-617l-98 -469h671q11 0 16 -6.5t2 -17.5l-32 -140q-1 -9 -7.5 -14t-15.5 -5h-904z
M1030 1514q-4 -15 -19 -15q-5 0 -8 1l-446 151q-15 6 -15 18q0 2 2 10l51 137q6 15 18 15q5 0 11 -3l426 -203q13 -6 13 -18q0 -4 -2 -10z" />
    <glyph glyph-name="Eacute" unicode="&#xc9;" horiz-adv-x="1103" 
d="M3 0q-11 0 -16.5 6.5t-2.5 17.5l171 689l143 668q3 19 24 19h888q11 0 16 -6.5t2 -17.5l-32 -140q-4 -19 -23 -19h-660l-100 -382h612q11 0 16 -6.5t3 -17.5l-33 -140q-3 -19 -23 -19h-617l-98 -469h671q11 0 16 -6.5t2 -17.5l-32 -140q-1 -9 -7.5 -14t-15.5 -5h-904z
M673 1507q-3 -1 -8 -1q-14 0 -19 16l-25 86q-1 3 -1 7q0 14 14 20l471 193q3 2 10 2q12 0 17 -16l38 -141q1 -3 1 -8q0 -7 -4.5 -12t-11.5 -6z" />
    <glyph glyph-name="Ecircumflex" unicode="&#xca;" horiz-adv-x="1103" 
d="M3 0q-11 0 -16.5 6.5t-2.5 17.5l171 689l143 668q3 19 24 19h888q11 0 16 -6.5t2 -17.5l-32 -140q-4 -19 -23 -19h-660l-100 -382h612q11 0 16 -6.5t3 -17.5l-33 -140q-3 -19 -23 -19h-617l-98 -469h671q11 0 16 -6.5t2 -17.5l-32 -140q-1 -9 -7.5 -14t-15.5 -5h-904z
M501 1601q-2 6 -2 10q0 13 12 19l311 179q13 8 27 8h71q13 0 27 -9l243 -179q10 -7 10 -17q0 -8 -4 -13l-47 -76q-6 -11 -17 -11q-6 0 -12 3l-257 128l-298 -130q-4 -2 -10 -2q-14 0 -18 13z" />
    <glyph glyph-name="Edieresis" unicode="&#xcb;" horiz-adv-x="1103" 
d="M3 0q-11 0 -16.5 6.5t-2.5 17.5l171 689l143 668q3 19 24 19h888q11 0 16 -6.5t2 -17.5l-32 -140q-4 -19 -23 -19h-660l-100 -382h612q11 0 16 -6.5t3 -17.5l-33 -140q-3 -19 -23 -19h-617l-98 -469h671q11 0 16 -6.5t2 -17.5l-32 -140q-1 -9 -7.5 -14t-15.5 -5h-904z
M568 1515q-11 0 -16 6.5t-3 17.5l45 188q4 19 23 19h160q11 0 16 -7t3 -17l-45 -188q-4 -19 -23 -19h-160zM934 1515q-11 0 -16 6.5t-3 17.5l45 188q4 19 24 19h159q11 0 16 -6.5t3 -17.5l-45 -188q-4 -19 -23 -19h-160z" />
    <glyph glyph-name="Igrave" unicode="&#xcc;" horiz-adv-x="465" 
d="M13 0q-11 0 -16.5 6.5t-2.5 17.5l170 683l144 674q4 19 24 19h208q11 0 16.5 -6.5t2.5 -17.5l-167 -669l-147 -688q-4 -19 -24 -19h-208zM666 1514q-4 -15 -19 -15q-5 0 -8 1l-446 151q-15 6 -15 18q0 2 2 10l51 137q6 15 18 15q5 0 11 -3l426 -203q13 -6 13 -18
q0 -4 -2 -10z" />
    <glyph glyph-name="Iacute" unicode="&#xcd;" horiz-adv-x="465" 
d="M13 0q-11 0 -16.5 6.5t-2.5 17.5l170 683l144 674q4 19 24 19h208q11 0 16.5 -6.5t2.5 -17.5l-167 -669l-147 -688q-4 -19 -24 -19h-208zM309 1507q-3 -1 -8 -1q-14 0 -19 16l-25 86q-1 3 -1 7q0 14 14 20l471 193q3 2 10 2q12 0 17 -16l38 -141q1 -3 1 -8q0 -7 -4.5 -12
t-11.5 -6z" />
    <glyph glyph-name="Icircumflex" unicode="&#xce;" horiz-adv-x="465" 
d="M13 0q-11 0 -16.5 6.5t-2.5 17.5l170 683l144 674q4 19 24 19h208q11 0 16.5 -6.5t2.5 -17.5l-167 -669l-147 -688q-4 -19 -24 -19h-208zM137 1601q-2 6 -2 10q0 13 12 19l311 179q13 8 27 8h71q13 0 27 -9l243 -179q10 -7 10 -17q0 -8 -4 -13l-47 -76q-6 -11 -17 -11
q-6 0 -12 3l-257 128l-298 -130q-4 -2 -10 -2q-14 0 -18 13z" />
    <glyph glyph-name="Idieresis" unicode="&#xcf;" horiz-adv-x="465" 
d="M13 0q-11 0 -16.5 6.5t-2.5 17.5l170 683l144 674q4 19 24 19h208q11 0 16.5 -6.5t2.5 -17.5l-167 -669l-147 -688q-4 -19 -24 -19h-208zM204 1515q-11 0 -16 6.5t-3 17.5l45 188q4 19 23 19h160q11 0 16 -7t3 -17l-45 -188q-4 -19 -23 -19h-160zM570 1515q-11 0 -16 6.5
t-3 17.5l45 188q4 19 24 19h159q11 0 16 -6.5t3 -17.5l-45 -188q-4 -19 -23 -19h-160z" />
    <glyph glyph-name="Eth" unicode="&#xd0;" horiz-adv-x="1381" 
d="M761 1400q183 0 325 -68.5t222 -200t80 -312.5q0 -202 -94 -391t-274 -308.5t-424 -119.5h-577q-11 0 -16 6.5t-2 17.5l157 634h-117q-11 0 -15.5 6.5t-2.5 17.5l32 140q5 19 24 19h120l116 540q3 19 23 19h423zM605 183q179 0 298.5 101t175.5 249.5t56 291.5
q0 127 -47.5 215t-133.5 132.5t-202 44.5h-221l-96 -376h353q10 0 15 -6.5t3 -17.5l-32 -140q-4 -19 -24 -19h-359l-100 -475h314z" />
    <glyph glyph-name="Ntilde" unicode="&#xd1;" horiz-adv-x="1368" 
d="M3 0q-11 0 -16.5 6.5t-2.5 17.5l168 682l146 675q4 19 24 19h240q18 0 24 -17l415 -1067l112 513l127 552q1 9 7.5 14t15.5 5h190q11 0 16 -6.5t3 -17.5l-166 -670l-149 -687q-3 -19 -24 -19h-250q-18 0 -24 17l-410 1059l-115 -543l-118 -514q-5 -19 -23 -19h-190z
M978.5 1551q-31.5 19 -67.5 54q-24 24 -40.5 35.5t-36.5 11.5q-32 0 -49.5 -24.5t-28.5 -72.5q-6 -19 -24 -19h-84q-11 0 -16 6t-3 17q21 110 76 175.5t143 65.5q44 0 76 -19.5t68 -54.5q25 -24 41 -35t33 -11q34 0 51.5 24t28.5 71q5 20 24 20h83q11 0 16 -8t3 -22
q-23 -111 -76.5 -172t-139.5 -61q-46 0 -77.5 19z" />
    <glyph glyph-name="Ograve" unicode="&#xd2;" horiz-adv-x="1487" 
d="M381.5 45q-141.5 72 -221 209.5t-79.5 327.5q0 208 94 403t273 318.5t422 123.5q181 0 321.5 -72t220 -209t79.5 -327q0 -208 -93.5 -403.5t-272 -319t-420.5 -123.5q-182 0 -323.5 72zM1008.5 266.5q118.5 104.5 174.5 258t56 300.5q0 133 -47.5 226t-132.5 140t-198 47
q-177 0 -296 -104.5t-175 -257.5t-56 -301q0 -134 47.5 -226.5t133 -139.5t199.5 -47q176 0 294.5 104.5zM1137 1514q-4 -15 -19 -15q-5 0 -8 1l-446 151q-15 6 -15 18q0 2 2 10l51 137q6 15 18 15q5 0 11 -3l426 -203q13 -6 13 -18q0 -4 -2 -10z" />
    <glyph glyph-name="Oacute" unicode="&#xd3;" horiz-adv-x="1487" 
d="M381.5 45q-141.5 72 -221 209.5t-79.5 327.5q0 208 94 403t273 318.5t422 123.5q181 0 321.5 -72t220 -209t79.5 -327q0 -208 -93.5 -403.5t-272 -319t-420.5 -123.5q-182 0 -323.5 72zM1008.5 266.5q118.5 104.5 174.5 258t56 300.5q0 133 -47.5 226t-132.5 140t-198 47
q-177 0 -296 -104.5t-175 -257.5t-56 -301q0 -134 47.5 -226.5t133 -139.5t199.5 -47q176 0 294.5 104.5zM780 1507q-3 -1 -8 -1q-14 0 -19 16l-25 86q-1 3 -1 7q0 14 14 20l471 193q3 2 10 2q12 0 17 -16l38 -141q1 -3 1 -8q0 -7 -4.5 -12t-11.5 -6z" />
    <glyph glyph-name="Ocircumflex" unicode="&#xd4;" horiz-adv-x="1487" 
d="M381.5 45q-141.5 72 -221 209.5t-79.5 327.5q0 208 94 403t273 318.5t422 123.5q181 0 321.5 -72t220 -209t79.5 -327q0 -208 -93.5 -403.5t-272 -319t-420.5 -123.5q-182 0 -323.5 72zM1008.5 266.5q118.5 104.5 174.5 258t56 300.5q0 133 -47.5 226t-132.5 140t-198 47
q-177 0 -296 -104.5t-175 -257.5t-56 -301q0 -134 47.5 -226.5t133 -139.5t199.5 -47q176 0 294.5 104.5zM608 1601q-2 6 -2 10q0 13 12 19l311 179q13 8 27 8h71q13 0 27 -9l243 -179q10 -7 10 -17q0 -8 -4 -13l-47 -76q-6 -11 -17 -11q-6 0 -12 3l-257 128l-298 -130
q-4 -2 -10 -2q-14 0 -18 13z" />
    <glyph glyph-name="Otilde" unicode="&#xd5;" horiz-adv-x="1487" 
d="M381.5 45q-141.5 72 -221 209.5t-79.5 327.5q0 208 94 403t273 318.5t422 123.5q181 0 321.5 -72t220 -209t79.5 -327q0 -208 -93.5 -403.5t-272 -319t-420.5 -123.5q-182 0 -323.5 72zM1008.5 266.5q118.5 104.5 174.5 258t56 300.5q0 133 -47.5 226t-132.5 140t-198 47
q-177 0 -296 -104.5t-175 -257.5t-56 -301q0 -134 47.5 -226.5t133 -139.5t199.5 -47q176 0 294.5 104.5zM998.5 1551q-31.5 19 -67.5 54q-24 24 -40.5 35.5t-36.5 11.5q-32 0 -49.5 -24.5t-28.5 -72.5q-6 -19 -24 -19h-84q-11 0 -16 6t-3 17q21 110 76 175.5t143 65.5
q44 0 76 -19.5t68 -54.5q25 -24 41 -35t33 -11q34 0 51.5 24t28.5 71q5 20 24 20h83q11 0 16 -8t3 -22q-23 -111 -76.5 -172t-139.5 -61q-46 0 -77.5 19z" />
    <glyph glyph-name="Odieresis" unicode="&#xd6;" horiz-adv-x="1487" 
d="M381.5 45q-141.5 72 -221 209.5t-79.5 327.5q0 208 94 403t273 318.5t422 123.5q181 0 321.5 -72t220 -209t79.5 -327q0 -208 -93.5 -403.5t-272 -319t-420.5 -123.5q-182 0 -323.5 72zM1008.5 266.5q118.5 104.5 174.5 258t56 300.5q0 133 -47.5 226t-132.5 140t-198 47
q-177 0 -296 -104.5t-175 -257.5t-56 -301q0 -134 47.5 -226.5t133 -139.5t199.5 -47q176 0 294.5 104.5zM674 1515q-11 0 -16 6.5t-3 17.5l45 188q4 19 23 19h160q11 0 16 -7t3 -17l-45 -188q-4 -19 -23 -19h-160zM1040 1515q-11 0 -16 6.5t-3 17.5l45 188q4 19 24 19h159
q11 0 16 -6.5t3 -17.5l-45 -188q-4 -19 -23 -19h-160z" />
    <glyph glyph-name="multiply" unicode="&#xd7;" horiz-adv-x="1054" 
d="M1039 994q6 -7 6 -14q0 -8 -8 -16l-341 -276l209 -271q5 -6 5 -14q0 -9 -8 -16l-109 -99q-6 -6 -14 -6q-10 0 -16 9l-215 277l-349 -283q-7 -6 -14 -6q-9 0 -16 9l-86 97q-6 8 -6 15q0 8 8 16l358 289l-200 258q-5 5 -5 14t8 16l110 98q7 6 15 6q9 0 15 -9l204 -264
l332 269q8 6 14 6q8 0 16 -9z" />
    <glyph glyph-name="Oslash" unicode="&#xd8;" horiz-adv-x="1485" 
d="M1615 1366q6 -6 6 -13t-8 -17l-203 -187q81 -140 81 -330q0 -208 -93.5 -403.5t-272 -319t-420.5 -123.5q-125 0 -232 35.5t-186 103.5l-206 -189q-9 -7 -15 -7q-8 0 -16 9l-92 109q-6 8 -6 14q0 8 8 16l203 187q-82 139 -82 331q0 208 94 403t273 318.5t422 123.5
q125 0 231 -35.5t185 -103.5l206 189q9 7 15 7q7 0 15 -9zM565 1133.5q-119 -104.5 -175 -257.5t-56 -301q0 -88 25 -161l777 715q-48 54 -118.5 81.5t-156.5 27.5q-177 0 -296 -104.5zM1008.5 266.5q118.5 104.5 174.5 258t56 300.5q0 88 -25 161l-778 -714q49 -54 120 -82
t158 -28q176 0 294.5 104.5z" />
    <glyph glyph-name="Ugrave" unicode="&#xd9;" horiz-adv-x="1261" 
d="M300.5 26q-108.5 53 -164.5 148.5t-56 223.5q0 76 19 156l90 383l96 444q4 19 24 19h212q11 0 16 -6.5t2 -17.5l-108 -433l-91 -393q-16 -72 -16 -126q0 -119 65.5 -187.5t195.5 -68.5q138 0 227 84.5t130 258.5l99 427l93 443q4 19 24 19h197q11 0 16.5 -6.5t2.5 -17.5
l-109 -439l-99 -427q-62 -269 -210 -403t-393 -134q-154 0 -262.5 53zM1073 1514q-4 -15 -19 -15q-5 0 -8 1l-446 151q-15 6 -15 18q0 2 2 10l51 137q6 15 18 15q5 0 11 -3l426 -203q13 -6 13 -18q0 -4 -2 -10z" />
    <glyph glyph-name="Uacute" unicode="&#xda;" horiz-adv-x="1261" 
d="M300.5 26q-108.5 53 -164.5 148.5t-56 223.5q0 76 19 156l90 383l96 444q4 19 24 19h212q11 0 16 -6.5t2 -17.5l-108 -433l-91 -393q-16 -72 -16 -126q0 -119 65.5 -187.5t195.5 -68.5q138 0 227 84.5t130 258.5l99 427l93 443q4 19 24 19h197q11 0 16.5 -6.5t2.5 -17.5
l-109 -439l-99 -427q-62 -269 -210 -403t-393 -134q-154 0 -262.5 53zM716 1507q-3 -1 -8 -1q-14 0 -19 16l-25 86q-1 3 -1 7q0 14 14 20l471 193q3 2 10 2q12 0 17 -16l38 -141q1 -3 1 -8q0 -7 -4.5 -12t-11.5 -6z" />
    <glyph glyph-name="Ucircumflex" unicode="&#xdb;" horiz-adv-x="1261" 
d="M300.5 26q-108.5 53 -164.5 148.5t-56 223.5q0 76 19 156l90 383l96 444q4 19 24 19h212q11 0 16 -6.5t2 -17.5l-108 -433l-91 -393q-16 -72 -16 -126q0 -119 65.5 -187.5t195.5 -68.5q138 0 227 84.5t130 258.5l99 427l93 443q4 19 24 19h197q11 0 16.5 -6.5t2.5 -17.5
l-109 -439l-99 -427q-62 -269 -210 -403t-393 -134q-154 0 -262.5 53zM545 1601q-2 6 -2 10q0 13 12 19l311 179q13 8 27 8h71q13 0 27 -9l243 -179q10 -7 10 -17q0 -8 -4 -13l-47 -76q-6 -11 -17 -11q-6 0 -12 3l-257 128l-298 -130q-4 -2 -10 -2q-14 0 -18 13z" />
    <glyph glyph-name="Udieresis" unicode="&#xdc;" horiz-adv-x="1261" 
d="M300.5 26q-108.5 53 -164.5 148.5t-56 223.5q0 76 19 156l90 383l96 444q4 19 24 19h212q11 0 16 -6.5t2 -17.5l-108 -433l-91 -393q-16 -72 -16 -126q0 -119 65.5 -187.5t195.5 -68.5q138 0 227 84.5t130 258.5l99 427l93 443q4 19 24 19h197q11 0 16.5 -6.5t2.5 -17.5
l-109 -439l-99 -427q-62 -269 -210 -403t-393 -134q-154 0 -262.5 53zM611 1515q-11 0 -16 6.5t-3 17.5l45 188q4 19 23 19h160q11 0 16 -7t3 -17l-45 -188q-4 -19 -23 -19h-160zM977 1515q-11 0 -16 6.5t-3 17.5l45 188q4 19 24 19h159q11 0 16 -6.5t3 -17.5l-45 -188
q-4 -19 -23 -19h-160z" />
    <glyph glyph-name="Yacute" unicode="&#xdd;" horiz-adv-x="1181" 
d="M209 1376q-1 3 -1 8q0 16 19 16h217q19 0 23 -19l167 -672l472 677q11 14 26 14h225q19 0 19 -13q0 -5 -6 -13l-670 -888l-98 -467q-4 -19 -24 -19h-211q-11 0 -16 6.5t-2 17.5l118 464zM661 1507q-3 -1 -8 -1q-14 0 -19 16l-25 86q-1 3 -1 7q0 14 14 20l471 193
q3 2 10 2q12 0 17 -16l38 -141q1 -3 1 -8q0 -7 -4.5 -12t-11.5 -6z" />
    <glyph glyph-name="Thorn" unicode="&#xde;" horiz-adv-x="1171" 
d="M710 1147q239 0 355.5 -105t116.5 -285q0 -146 -72 -258t-208.5 -175t-324.5 -63h-285l-52 -242q-4 -19 -24 -19h-209q-11 0 -16.5 6.5t-2.5 17.5l169 686l145 671q1 9 8 14t16 5h209q11 0 16.5 -6.5t2.5 -17.5l-57 -229h213zM596 441q114 0 191 39t115 107t38 156
q0 104 -58.5 164t-189.5 60h-239l-69 -277l-54 -249h266z" />
    <glyph glyph-name="germandbls" unicode="&#xdf;" horiz-adv-x="1133" 
d="M-8 -1q-11 0 -16 6.5t-3 17.5l107 436l125 540q49 216 179 319.5t340 103.5q134 0 225 -42.5t135.5 -115.5t44.5 -166q0 -127 -80.5 -217t-227.5 -124q127 -33 189 -111.5t62 -197.5q0 -128 -67 -229.5t-200 -160t-324 -58.5h-78q-11 0 -16 6.5t-3 17.5l32 130
q4 19 24 19h51q109 0 184.5 36.5t112.5 100t37 144.5q0 100 -61.5 156.5t-177.5 56.5h-27q-11 0 -15.5 6.5t-2.5 17.5l26 115q4 19 23 19h20q90 0 153.5 29.5t96 83t32.5 123.5q0 86 -49 136t-145 50q-100 0 -164.5 -60.5t-94.5 -189.5l-125 -538l-94 -441q-3 -19 -24 -19
h-204z" />
    <glyph glyph-name="agrave" unicode="&#xe0;" horiz-adv-x="1114" 
d="M1126 1030q11 0 16 -6.5t3 -17.5l-120 -490l-108 -497q-4 -19 -24 -19h-192q-11 0 -16 6.5t-2 17.5l22 89q-126 -129 -300 -129q-113 0 -196 51.5t-126.5 145.5t-43.5 219q0 145 58.5 295t177.5 251t290 101q112 0 189.5 -46.5t116.5 -134.5l30 145q4 19 24 19h201z
M666 224q74 80 111.5 195t37.5 218q0 122 -54 185.5t-153 63.5q-114 0 -187.5 -80t-106 -191t-32.5 -208q0 -120 53 -191.5t153 -71.5q104 0 178 80zM900 1144q-4 -15 -19 -15q-5 0 -8 1l-446 151q-15 6 -15 18q0 2 2 10l51 137q6 15 18 15q5 0 11 -3l426 -203q13 -6 13 -18
q0 -4 -2 -10z" />
    <glyph glyph-name="aacute" unicode="&#xe1;" horiz-adv-x="1114" 
d="M1126 1030q11 0 16 -6.5t3 -17.5l-120 -490l-108 -497q-4 -19 -24 -19h-192q-11 0 -16 6.5t-2 17.5l22 89q-126 -129 -300 -129q-113 0 -196 51.5t-126.5 145.5t-43.5 219q0 145 58.5 295t177.5 251t290 101q112 0 189.5 -46.5t116.5 -134.5l30 145q4 19 24 19h201z
M666 224q74 80 111.5 195t37.5 218q0 122 -54 185.5t-153 63.5q-114 0 -187.5 -80t-106 -191t-32.5 -208q0 -120 53 -191.5t153 -71.5q104 0 178 80zM543 1137q-3 -1 -8 -1q-14 0 -19 16l-25 86q-1 3 -1 7q0 14 14 20l471 193q3 2 10 2q12 0 17 -16l38 -141q1 -3 1 -8
q0 -7 -4.5 -12t-11.5 -6z" />
    <glyph glyph-name="acircumflex" unicode="&#xe2;" horiz-adv-x="1114" 
d="M1126 1030q11 0 16 -6.5t3 -17.5l-120 -490l-108 -497q-4 -19 -24 -19h-192q-11 0 -16 6.5t-2 17.5l22 89q-126 -129 -300 -129q-113 0 -196 51.5t-126.5 145.5t-43.5 219q0 145 58.5 295t177.5 251t290 101q112 0 189.5 -46.5t116.5 -134.5l30 145q4 19 24 19h201z
M666 224q74 80 111.5 195t37.5 218q0 122 -54 185.5t-153 63.5q-114 0 -187.5 -80t-106 -191t-32.5 -208q0 -120 53 -191.5t153 -71.5q104 0 178 80zM371 1231q-2 6 -2 10q0 13 12 19l311 179q13 8 27 8h71q13 0 27 -9l243 -179q10 -7 10 -17q0 -8 -4 -13l-47 -76
q-6 -11 -17 -11q-6 0 -12 3l-257 128l-298 -130q-4 -2 -10 -2q-14 0 -18 13z" />
    <glyph glyph-name="atilde" unicode="&#xe3;" horiz-adv-x="1114" 
d="M1126 1030q11 0 16 -6.5t3 -17.5l-120 -490l-108 -497q-4 -19 -24 -19h-192q-11 0 -16 6.5t-2 17.5l22 89q-126 -129 -300 -129q-113 0 -196 51.5t-126.5 145.5t-43.5 219q0 145 58.5 295t177.5 251t290 101q112 0 189.5 -46.5t116.5 -134.5l30 145q4 19 24 19h201z
M666 224q74 80 111.5 195t37.5 218q0 122 -54 185.5t-153 63.5q-114 0 -187.5 -80t-106 -191t-32.5 -208q0 -120 53 -191.5t153 -71.5q104 0 178 80zM761.5 1181q-31.5 19 -67.5 54q-24 24 -40.5 35.5t-36.5 11.5q-32 0 -49.5 -24.5t-28.5 -72.5q-6 -19 -24 -19h-84
q-11 0 -16 6t-3 17q21 110 76 175.5t143 65.5q44 0 76 -19.5t68 -54.5q25 -24 41 -35t33 -11q34 0 51.5 24t28.5 71q5 20 24 20h83q11 0 16 -8t3 -22q-23 -111 -76.5 -172t-139.5 -61q-46 0 -77.5 19z" />
    <glyph glyph-name="adieresis" unicode="&#xe4;" horiz-adv-x="1114" 
d="M1126 1030q11 0 16 -6.5t3 -17.5l-120 -490l-108 -497q-4 -19 -24 -19h-192q-11 0 -16 6.5t-2 17.5l22 89q-126 -129 -300 -129q-113 0 -196 51.5t-126.5 145.5t-43.5 219q0 145 58.5 295t177.5 251t290 101q112 0 189.5 -46.5t116.5 -134.5l30 145q4 19 24 19h201z
M666 224q74 80 111.5 195t37.5 218q0 122 -54 185.5t-153 63.5q-114 0 -187.5 -80t-106 -191t-32.5 -208q0 -120 53 -191.5t153 -71.5q104 0 178 80zM438 1145q-11 0 -16 6.5t-3 17.5l45 188q4 19 23 19h160q11 0 16 -7t3 -17l-45 -188q-4 -19 -23 -19h-160zM804 1145
q-11 0 -16 6.5t-3 17.5l45 188q4 19 24 19h159q11 0 16 -6.5t3 -17.5l-45 -188q-4 -19 -23 -19h-160z" />
    <glyph glyph-name="aring" unicode="&#xe5;" horiz-adv-x="1114" 
d="M1126 1030q11 0 16 -6.5t3 -17.5l-120 -490l-108 -497q-4 -19 -24 -19h-192q-11 0 -16 6.5t-2 17.5l22 89q-126 -129 -300 -129q-113 0 -196 51.5t-126.5 145.5t-43.5 219q0 145 58.5 295t177.5 251t290 101q112 0 189.5 -46.5t116.5 -134.5l30 145q4 19 24 19h201z
M666 224q74 80 111.5 195t37.5 218q0 122 -54 185.5t-153 63.5q-114 0 -187.5 -80t-106 -191t-32.5 -208q0 -120 53 -191.5t153 -71.5q104 0 178 80zM615.5 1171q-52.5 25 -83 71.5t-30.5 107.5q0 64 33 118.5t91 87t131 32.5q65 0 117.5 -26t82.5 -73t30 -106
q0 -64 -33 -118.5t-91.5 -86.5t-131.5 -32q-63 0 -115.5 25zM822.5 1276.5q35.5 41.5 35.5 104.5q0 55 -28.5 86t-74.5 31q-56 0 -90.5 -43.5t-34.5 -103.5q0 -54 29.5 -85t74.5 -31q53 0 88.5 41.5z" />
    <glyph glyph-name="ae" unicode="&#xe6;" horiz-adv-x="1856" 
d="M1620 1000q95 -52 146.5 -146.5t51.5 -219.5q0 -70 -16 -141q-4 -19 -23 -19h-739q-3 -19 -3 -37q0 -154 62.5 -226t176.5 -72q96 0 163 50t100 152q7 19 25 19h185q11 0 16 -7t2 -17q-47 -171 -173.5 -264.5t-307.5 -93.5q-114 0 -202 41.5t-141 120.5l-26 -121
q-4 -19 -23 -19h-190q-11 0 -16 6.5t-3 17.5l25 97q-59 -65 -135.5 -101t-169.5 -36q-113 0 -196 51.5t-126.5 145.5t-43.5 219q0 145 58.5 295t177.5 251t290 101q98 0 169.5 -38t113.5 -110l24 112q3 19 23 19h189q11 0 16 -6.5t3 -17.5l-20 -84q125 130 315 130
q127 0 222 -52zM1578 629q3 23 3 44q0 64 -26.5 113.5t-76 77t-118.5 27.5q-112 0 -187 -72.5t-109 -189.5h514zM665.5 224q74.5 80 112 195t37.5 218q0 122 -54 185.5t-154 63.5q-114 0 -187 -80t-105.5 -191t-32.5 -208q0 -120 52.5 -191.5t152.5 -71.5q104 0 178.5 80z
" />
    <glyph glyph-name="ccedilla" unicode="&#xe7;" horiz-adv-x="1066" 
d="M838 1006.5q95 -45.5 148.5 -129t56.5 -195.5q0 -21 -21 -21h-185q-20 0 -22 21q-6 99 -63 152.5t-149 53.5q-104 0 -175 -72t-105.5 -179.5t-34.5 -213.5q0 -140 59 -211.5t163 -71.5q96 0 164.5 56.5t101.5 168.5q6 18 24 18h186q19 0 19 -16q0 -5 -1 -8
q-48 -175 -169 -274t-297 -108l-157 -315q-9 -16 -27 -13l-172 28q-8 2 -12.5 6t-4.5 10q0 4 4 12l174 292q-140 41 -219 152t-79 283q0 155 67 297.5t197 232.5t309 90q125 0 220 -45.5z" />
    <glyph glyph-name="egrave" unicode="&#xe8;" horiz-adv-x="1100" 
d="M851 999.5q100 -52.5 154.5 -148.5t54.5 -223q0 -64 -15 -135q-3 -19 -23 -19h-739q-3 -27 -3 -54q0 -139 64 -210t177 -71q95 0 161.5 50t100.5 152q6 19 25 19h184q19 0 19 -16q0 -5 -1 -8q-49 -173 -177 -265.5t-317 -92.5q-140 0 -246 52.5t-165.5 154.5t-59.5 246
q0 156 67.5 299t197.5 232.5t307 89.5q134 0 234 -52.5zM821 629q3 23 3 44q0 64 -26 114t-75.5 78t-118.5 28q-114 0 -188 -72t-109 -192h514zM894 1144q-4 -15 -19 -15q-5 0 -8 1l-446 151q-15 6 -15 18q0 2 2 10l51 137q6 15 18 15q5 0 11 -3l426 -203q13 -6 13 -18
q0 -4 -2 -10z" />
    <glyph glyph-name="eacute" unicode="&#xe9;" horiz-adv-x="1100" 
d="M851 999.5q100 -52.5 154.5 -148.5t54.5 -223q0 -64 -15 -135q-3 -19 -23 -19h-739q-3 -27 -3 -54q0 -139 64 -210t177 -71q95 0 161.5 50t100.5 152q6 19 25 19h184q19 0 19 -16q0 -5 -1 -8q-49 -173 -177 -265.5t-317 -92.5q-140 0 -246 52.5t-165.5 154.5t-59.5 246
q0 156 67.5 299t197.5 232.5t307 89.5q134 0 234 -52.5zM821 629q3 23 3 44q0 64 -26 114t-75.5 78t-118.5 28q-114 0 -188 -72t-109 -192h514zM537 1137q-3 -1 -8 -1q-14 0 -19 16l-25 86q-1 3 -1 7q0 14 14 20l471 193q3 2 10 2q12 0 17 -16l38 -141q1 -3 1 -8
q0 -7 -4.5 -12t-11.5 -6z" />
    <glyph glyph-name="ecircumflex" unicode="&#xea;" horiz-adv-x="1100" 
d="M851 999.5q100 -52.5 154.5 -148.5t54.5 -223q0 -64 -15 -135q-3 -19 -23 -19h-739q-3 -27 -3 -54q0 -139 64 -210t177 -71q95 0 161.5 50t100.5 152q6 19 25 19h184q19 0 19 -16q0 -5 -1 -8q-49 -173 -177 -265.5t-317 -92.5q-140 0 -246 52.5t-165.5 154.5t-59.5 246
q0 156 67.5 299t197.5 232.5t307 89.5q134 0 234 -52.5zM821 629q3 23 3 44q0 64 -26 114t-75.5 78t-118.5 28q-114 0 -188 -72t-109 -192h514zM366 1231q-2 6 -2 10q0 13 12 19l311 179q13 8 27 8h71q13 0 27 -9l243 -179q10 -7 10 -17q0 -8 -4 -13l-47 -76q-6 -11 -17 -11
q-6 0 -12 3l-257 128l-298 -130q-4 -2 -10 -2q-14 0 -18 13z" />
    <glyph glyph-name="edieresis" unicode="&#xeb;" horiz-adv-x="1100" 
d="M851 999.5q100 -52.5 154.5 -148.5t54.5 -223q0 -64 -15 -135q-3 -19 -23 -19h-739q-3 -27 -3 -54q0 -139 64 -210t177 -71q95 0 161.5 50t100.5 152q6 19 25 19h184q19 0 19 -16q0 -5 -1 -8q-49 -173 -177 -265.5t-317 -92.5q-140 0 -246 52.5t-165.5 154.5t-59.5 246
q0 156 67.5 299t197.5 232.5t307 89.5q134 0 234 -52.5zM821 629q3 23 3 44q0 64 -26 114t-75.5 78t-118.5 28q-114 0 -188 -72t-109 -192h514zM432 1145q-11 0 -16 6.5t-3 17.5l45 188q4 19 23 19h160q11 0 16 -7t3 -17l-45 -188q-4 -19 -23 -19h-160zM798 1145
q-11 0 -16 6.5t-3 17.5l45 188q4 19 24 19h159q11 0 16 -6.5t3 -17.5l-45 -188q-4 -19 -23 -19h-160z" />
    <glyph glyph-name="igrave" unicode="&#xec;" horiz-adv-x="435" 
d="M546 1147q-6 -13 -19 -13q-6 0 -9 1l-373 121q-15 5 -15 17q0 5 3 11l59 138q7 13 18 13q5 0 11 -3l350 -172q13 -6 13 -17q0 -5 -3 -11zM-2 0q-11 0 -16 6.5t-3 17.5l122 499l106 488q4 19 24 19h204q11 0 16.5 -6.5t2.5 -17.5l-120 -482l-108 -505q-3 -19 -24 -19h-204
z" />
    <glyph glyph-name="iacute" unicode="&#xed;" horiz-adv-x="435" 
d="M206 1134q-3 -1 -8 -1q-14 0 -19 15l-25 86q-1 3 -1 8q0 14 14 20l419 173q8 2 10 2q13 0 18 -16l37 -141q1 -3 1 -8q0 -7 -4.5 -12t-11.5 -6zM-2 0q-11 0 -16 6.5t-3 17.5l122 499l106 488q4 19 24 19h204q11 0 16.5 -6.5t2.5 -17.5l-120 -482l-108 -505q-3 -19 -24 -19
h-204z" />
    <glyph glyph-name="icircumflex" unicode="&#xee;" horiz-adv-x="434" 
d="M91 1234q-3 6 -3 11q0 10 11 18l257 175q10 9 26 9h70q16 0 27 -11l194 -174q8 -7 8 -16q0 -8 -5 -14l-53 -78q-6 -11 -17 -11q-5 0 -12 5l-200 127l-242 -127q-6 -3 -12 -3q-12 0 -16 13zM-2 0q-11 0 -16 6.5t-3 17.5l122 499l106 488q4 19 24 19h204q11 0 16.5 -6.5
t2.5 -17.5l-120 -482l-108 -505q-3 -19 -24 -19h-204z" />
    <glyph glyph-name="idieresis" unicode="&#xef;" horiz-adv-x="434" 
d="M149 1145q-23 0 -18 24l43 188q1 9 7.5 14t15.5 5h146q11 0 16 -6.5t3 -17.5l-43 -188q-4 -19 -24 -19h-146zM440 1145q-11 0 -15.5 6.5t-2.5 17.5l43 188q5 19 23 19h145q11 0 15.5 -6.5t2.5 -17.5l-43 -188q-3 -19 -23 -19h-145zM-2 0q-11 0 -16 6.5t-3 17.5l122 499
l106 488q4 19 24 19h204q11 0 16.5 -6.5t2.5 -17.5l-120 -482l-108 -505q-3 -19 -24 -19h-204z" />
    <glyph glyph-name="eth" unicode="&#xf0;" horiz-adv-x="1145" 
d="M1192 1312q3 1 8 1q16 0 19 -16l22 -92q1 -2 1 -7q0 -14 -16 -19l-211 -64q100 -168 100 -394q0 -196 -66 -366t-204 -274.5t-342 -104.5q-136 0 -242 48.5t-166 142t-60 223.5q0 139 66.5 257.5t183 188.5t260.5 70q130 0 221.5 -59t126.5 -160q5 52 5 108
q0 141 -77 260l-274 -83q-3 -1 -9 -1q-15 0 -18 15l-23 92q-1 3 -1 8q0 14 15 18l210 65q-79 76 -195 135q-13 6 -13 16q0 7 6 14l97 104q8 9 18 9q6 0 12 -3q177 -98 282 -213zM673.5 191.5q67.5 52.5 102.5 134t35 168.5q0 114 -62.5 179t-167.5 65q-94 0 -160.5 -52
t-100 -133t-33.5 -167q0 -116 60.5 -181.5t164.5 -65.5q94 0 161.5 52.5z" />
    <glyph glyph-name="ntilde" unicode="&#xf1;" horiz-adv-x="1085" 
d="M-13 0q-11 0 -16 6.5t-2 17.5l113 457l118 530q3 19 23 19h190q11 0 16.5 -6.5t2.5 -17.5l-32 -133q61 80 151.5 130.5t195.5 50.5q86 0 153.5 -34.5t106 -101.5t38.5 -161q0 -57 -15 -123l-45 -195l-91 -420q-4 -19 -24 -19h-203q-11 0 -16 6.5t-2 17.5l97 390l44 204
q11 52 11 91q0 81 -41 123.5t-116 42.5q-107 0 -186 -90.5t-123 -224.5l-36 -149l-82 -392q-1 -9 -7.5 -14t-16.5 -5h-206zM760.5 1181q-31.5 19 -67.5 54q-24 24 -40.5 35.5t-36.5 11.5q-32 0 -49.5 -24.5t-28.5 -72.5q-6 -19 -24 -19h-84q-11 0 -16 6t-3 17
q21 110 76 175.5t143 65.5q44 0 76 -19.5t68 -54.5q25 -24 41 -35t33 -11q34 0 51.5 24t28.5 71q5 20 24 20h83q11 0 16 -8t3 -22q-23 -111 -76.5 -172t-139.5 -61q-46 0 -77.5 19z" />
    <glyph glyph-name="ograve" unicode="&#xf2;" horiz-adv-x="1127" 
d="M265.5 31q-103.5 53 -162 155.5t-58.5 245.5q0 155 68.5 298t200 232.5t310.5 89.5q134 0 237.5 -53t162 -155t58.5 -245q0 -156 -69 -299t-200.5 -232.5t-309.5 -89.5q-134 0 -237.5 53zM693.5 213q73.5 74 109.5 183t36 214q0 135 -60.5 208t-163.5 73q-108 0 -182 -74
t-109.5 -183t-35.5 -214q0 -135 60.5 -208t163.5 -73q108 0 181.5 74zM907 1144q-4 -15 -19 -15q-5 0 -8 1l-446 151q-15 6 -15 18q0 2 2 10l51 137q6 15 18 15q5 0 11 -3l426 -203q13 -6 13 -18q0 -4 -2 -10z" />
    <glyph glyph-name="oacute" unicode="&#xf3;" horiz-adv-x="1127" 
d="M265.5 31q-103.5 53 -162 155.5t-58.5 245.5q0 155 68.5 298t200 232.5t310.5 89.5q134 0 237.5 -53t162 -155t58.5 -245q0 -156 -69 -299t-200.5 -232.5t-309.5 -89.5q-134 0 -237.5 53zM693.5 213q73.5 74 109.5 183t36 214q0 135 -60.5 208t-163.5 73q-108 0 -182 -74
t-109.5 -183t-35.5 -214q0 -135 60.5 -208t163.5 -73q108 0 181.5 74zM550 1137q-3 -1 -8 -1q-14 0 -19 16l-25 86q-1 3 -1 7q0 14 14 20l471 193q3 2 10 2q12 0 17 -16l38 -141q1 -3 1 -8q0 -7 -4.5 -12t-11.5 -6z" />
    <glyph glyph-name="ocircumflex" unicode="&#xf4;" horiz-adv-x="1127" 
d="M265.5 31q-103.5 53 -162 155.5t-58.5 245.5q0 155 68.5 298t200 232.5t310.5 89.5q134 0 237.5 -53t162 -155t58.5 -245q0 -156 -69 -299t-200.5 -232.5t-309.5 -89.5q-134 0 -237.5 53zM693.5 213q73.5 74 109.5 183t36 214q0 135 -60.5 208t-163.5 73q-108 0 -182 -74
t-109.5 -183t-35.5 -214q0 -135 60.5 -208t163.5 -73q108 0 181.5 74zM378 1231q-2 6 -2 10q0 13 12 19l311 179q13 8 27 8h71q13 0 27 -9l243 -179q10 -7 10 -17q0 -8 -4 -13l-47 -76q-6 -11 -17 -11q-6 0 -12 3l-257 128l-298 -130q-4 -2 -10 -2q-14 0 -18 13z" />
    <glyph glyph-name="otilde" unicode="&#xf5;" horiz-adv-x="1127" 
d="M265.5 31q-103.5 53 -162 155.5t-58.5 245.5q0 155 68.5 298t200 232.5t310.5 89.5q134 0 237.5 -53t162 -155t58.5 -245q0 -156 -69 -299t-200.5 -232.5t-309.5 -89.5q-134 0 -237.5 53zM693.5 213q73.5 74 109.5 183t36 214q0 135 -60.5 208t-163.5 73q-108 0 -182 -74
t-109.5 -183t-35.5 -214q0 -135 60.5 -208t163.5 -73q108 0 181.5 74zM768.5 1181q-31.5 19 -67.5 54q-24 24 -40.5 35.5t-36.5 11.5q-32 0 -49.5 -24.5t-28.5 -72.5q-6 -19 -24 -19h-84q-11 0 -16 6t-3 17q21 110 76 175.5t143 65.5q44 0 76 -19.5t68 -54.5q25 -24 41 -35
t33 -11q34 0 51.5 24t28.5 71q5 20 24 20h83q11 0 16 -8t3 -22q-23 -111 -76.5 -172t-139.5 -61q-46 0 -77.5 19z" />
    <glyph glyph-name="odieresis" unicode="&#xf6;" horiz-adv-x="1127" 
d="M265.5 31q-103.5 53 -162 155.5t-58.5 245.5q0 155 68.5 298t200 232.5t310.5 89.5q134 0 237.5 -53t162 -155t58.5 -245q0 -156 -69 -299t-200.5 -232.5t-309.5 -89.5q-134 0 -237.5 53zM693.5 213q73.5 74 109.5 183t36 214q0 135 -60.5 208t-163.5 73q-108 0 -182 -74
t-109.5 -183t-35.5 -214q0 -135 60.5 -208t163.5 -73q108 0 181.5 74zM445 1145q-11 0 -16 6.5t-3 17.5l45 188q4 19 23 19h160q11 0 16 -7t3 -17l-45 -188q-4 -19 -23 -19h-160zM811 1145q-11 0 -16 6.5t-3 17.5l45 188q4 19 24 19h159q11 0 16 -6.5t3 -17.5l-45 -188
q-4 -19 -23 -19h-160z" />
    <glyph glyph-name="divide" unicode="&#xf7;" horiz-adv-x="1054" 
d="M533 989q-11 0 -16 6.5t-2 17.5l46 200q3 19 23 19h213q11 0 16 -6.5t3 -17.5l-46 -200q-4 -19 -23 -19h-214zM111 598q-11 0 -16 7t-3 17l32 139q5 19 23 19h877q11 0 16 -6.5t3 -17.5l-31 -139q-5 -19 -24 -19h-877zM340 150q-11 0 -16 6.5t-2 17.5l46 200q3 19 23 19
h213q11 0 16 -6.5t3 -17.5l-46 -200q-4 -19 -23 -19h-214z" />
    <glyph glyph-name="oslash" unicode="&#xf8;" horiz-adv-x="1125" 
d="M345 0.5q-73 22.5 -129 66.5l-146 -137q-7 -7 -15 -7q-7 0 -15 9l-65 79q-6 8 -6 14q0 9 7 16l137 129q-68 111 -68 262q0 155 68.5 298t200 232.5t310.5 89.5q83 0 156 -22t129 -65l144 135q7 7 15 7t15 -9l65 -79q6 -7 6 -14q0 -8 -8 -16l-134 -127q70 -111 70 -263
q0 -156 -69 -299t-200.5 -232.5t-309.5 -89.5q-85 0 -158 22.5zM433 817q-74 -74 -109.5 -183t-35.5 -214q0 -43 11 -82l478 481q-28 35 -70 53.5t-92 18.5q-108 0 -182 -74zM693.5 213q73.5 74 109.5 183t36 214q0 46 -13 85l-478 -482q28 -36 70.5 -55t93.5 -19
q108 0 181.5 74z" />
    <glyph glyph-name="ugrave" unicode="&#xf9;" horiz-adv-x="1085" 
d="M1095 1030q11 0 16 -6.5t3 -17.5l-114 -457l-117 -530q-4 -19 -24 -19h-190q-11 0 -16.5 6.5t-2.5 17.5l33 133q-61 -80 -152 -130.5t-196 -50.5q-87 0 -154.5 34t-106 101t-38.5 161q0 57 15 124l46 195l92 420q3 19 23 19h203q11 0 16.5 -6.5t2.5 -17.5l-98 -390
l-43 -204q-11 -52 -11 -90q0 -82 40.5 -124.5t115.5 -42.5q107 0 185 90t123 225l37 149l82 392q5 19 24 19h206zM882 1144q-4 -15 -19 -15q-5 0 -8 1l-446 151q-15 6 -15 18q0 2 2 10l51 137q6 15 18 15q5 0 11 -3l426 -203q13 -6 13 -18q0 -4 -2 -10z" />
    <glyph glyph-name="uacute" unicode="&#xfa;" horiz-adv-x="1085" 
d="M1095 1030q11 0 16 -6.5t3 -17.5l-114 -457l-117 -530q-4 -19 -24 -19h-190q-11 0 -16.5 6.5t-2.5 17.5l33 133q-61 -80 -152 -130.5t-196 -50.5q-87 0 -154.5 34t-106 101t-38.5 161q0 57 15 124l46 195l92 420q3 19 23 19h203q11 0 16.5 -6.5t2.5 -17.5l-98 -390
l-43 -204q-11 -52 -11 -90q0 -82 40.5 -124.5t115.5 -42.5q107 0 185 90t123 225l37 149l82 392q5 19 24 19h206zM526 1137q-3 -1 -8 -1q-14 0 -19 16l-25 86q-1 3 -1 7q0 14 14 20l471 193q3 2 10 2q12 0 17 -16l38 -141q1 -3 1 -8q0 -7 -4.5 -12t-11.5 -6z" />
    <glyph glyph-name="ucircumflex" unicode="&#xfb;" horiz-adv-x="1085" 
d="M1095 1030q11 0 16 -6.5t3 -17.5l-114 -457l-117 -530q-4 -19 -24 -19h-190q-11 0 -16.5 6.5t-2.5 17.5l33 133q-61 -80 -152 -130.5t-196 -50.5q-87 0 -154.5 34t-106 101t-38.5 161q0 57 15 124l46 195l92 420q3 19 23 19h203q11 0 16.5 -6.5t2.5 -17.5l-98 -390
l-43 -204q-11 -52 -11 -90q0 -82 40.5 -124.5t115.5 -42.5q107 0 185 90t123 225l37 149l82 392q5 19 24 19h206zM354 1231q-2 6 -2 10q0 13 12 19l311 179q13 8 27 8h71q13 0 27 -9l243 -179q10 -7 10 -17q0 -8 -4 -13l-47 -76q-6 -11 -17 -11q-6 0 -12 3l-257 128
l-298 -130q-4 -2 -10 -2q-14 0 -18 13z" />
    <glyph glyph-name="udieresis" unicode="&#xfc;" horiz-adv-x="1085" 
d="M1095 1030q11 0 16 -6.5t3 -17.5l-114 -457l-117 -530q-4 -19 -24 -19h-190q-11 0 -16.5 6.5t-2.5 17.5l33 133q-61 -80 -152 -130.5t-196 -50.5q-87 0 -154.5 34t-106 101t-38.5 161q0 57 15 124l46 195l92 420q3 19 23 19h203q11 0 16.5 -6.5t2.5 -17.5l-98 -390
l-43 -204q-11 -52 -11 -90q0 -82 40.5 -124.5t115.5 -42.5q107 0 185 90t123 225l37 149l82 392q5 19 24 19h206zM420 1145q-11 0 -16 6.5t-3 17.5l45 188q4 19 23 19h160q11 0 16 -7t3 -17l-45 -188q-4 -19 -23 -19h-160zM786 1145q-11 0 -16 6.5t-3 17.5l45 188
q4 19 24 19h159q11 0 16 -6.5t3 -17.5l-45 -188q-4 -19 -23 -19h-160z" />
    <glyph glyph-name="yacute" unicode="&#xfd;" horiz-adv-x="986" 
d="M110 -340q-19 0 -19 14q0 4 4 12l188 328l-169 993v5q0 18 20 18h203q20 0 23 -20l94 -712l386 717q8 15 25 15h220q19 0 19 -14q0 -4 -4 -12l-766 -1329q-8 -15 -25 -15h-199zM473 1137q-3 -1 -8 -1q-14 0 -19 16l-25 86q-1 3 -1 7q0 14 14 20l471 193q3 2 10 2
q12 0 17 -16l38 -141q1 -3 1 -8q0 -7 -4.5 -12t-11.5 -6z" />
    <glyph glyph-name="thorn" unicode="&#xfe;" horiz-adv-x="1114" 
d="M905.5 995.5q82.5 -51.5 126.5 -146t44 -218.5q0 -146 -59 -296t-178 -250.5t-289 -100.5q-110 0 -187 44.5t-117 128.5l-106 -478q-4 -19 -24 -19h-205q-11 0 -16 6.5t-2 17.5l209 879l181 818q4 19 23 19h199q11 0 16 -6.5t3 -17.5l-112 -456q125 127 297 127
q114 0 196.5 -51.5zM693 220.5q74 80.5 107 193t33 210.5q0 121 -53 194t-152 73q-105 0 -179.5 -80.5t-112 -197t-37.5 -219.5q0 -125 54 -189.5t152 -64.5q114 0 188 80.5z" />
    <glyph glyph-name="ydieresis" unicode="&#xff;" horiz-adv-x="986" 
d="M110 -340q-19 0 -19 14q0 4 4 12l188 328l-169 993v5q0 18 20 18h203q20 0 23 -20l94 -712l386 717q8 15 25 15h220q19 0 19 -14q0 -4 -4 -12l-766 -1329q-8 -15 -25 -15h-199zM368 1145q-11 0 -16 6.5t-3 17.5l45 188q4 19 23 19h160q11 0 16 -7t3 -17l-45 -188
q-4 -19 -23 -19h-160zM734 1145q-11 0 -16 6.5t-3 17.5l45 188q4 19 24 19h159q11 0 16 -6.5t3 -17.5l-45 -188q-4 -19 -23 -19h-160z" />
    <glyph glyph-name="Amacron" unicode="&#x100;" horiz-adv-x="1304" 
d="M1184 22v-4q0 -18 -20 -18h-194q-21 0 -23 20l-38 370h-548l-208 -375q-9 -15 -26 -15h-217q-19 0 -19 14q0 4 4 12l795 1359q8 15 25 15h289q20 0 23 -20zM891 585l-66 647l-358 -647h424zM611 1545q-11 0 -16.5 6.5t-2.5 17.5l29 121q4 19 23 19h576q11 0 16.5 -6.5
t2.5 -17.5l-29 -121q-4 -19 -23 -19h-576z" />
    <glyph glyph-name="amacron" unicode="&#x101;" horiz-adv-x="1114" 
d="M1126 1030q11 0 16 -6.5t3 -17.5l-120 -490l-108 -497q-4 -19 -24 -19h-192q-11 0 -16 6.5t-2 17.5l22 89q-126 -129 -300 -129q-113 0 -196 51.5t-126.5 145.5t-43.5 219q0 145 58.5 295t177.5 251t290 101q112 0 189.5 -46.5t116.5 -134.5l30 145q4 19 24 19h201z
M666 224q74 80 111.5 195t37.5 218q0 122 -54 185.5t-153 63.5q-114 0 -187.5 -80t-106 -191t-32.5 -208q0 -120 53 -191.5t153 -71.5q104 0 178 80zM421 1175q-11 0 -16.5 6.5t-2.5 17.5l29 121q4 19 23 19h576q11 0 16.5 -6.5t2.5 -17.5l-29 -121q-4 -19 -23 -19h-576z
" />
    <glyph glyph-name="Abreve" unicode="&#x102;" horiz-adv-x="1304" 
d="M1184 22v-4q0 -18 -20 -18h-194q-21 0 -23 20l-38 370h-548l-208 -375q-9 -15 -26 -15h-217q-19 0 -19 14q0 4 4 12l795 1359q8 15 25 15h289q20 0 23 -20zM891 585l-66 647l-358 -647h424zM766 1553q-63 33 -96.5 91t-33.5 131q0 17 1 26q1 21 23 21h115q21 0 21 -23
q-3 -55 30.5 -88.5t97.5 -33.5q63 0 106.5 34t61.5 92q6 19 23 19h118q11 0 16.5 -6t4.5 -16q-17 -81 -63 -144.5t-117.5 -99.5t-160.5 -36q-84 0 -147 33z" />
    <glyph glyph-name="abreve" unicode="&#x103;" horiz-adv-x="1114" 
d="M1126 1030q11 0 16 -6.5t3 -17.5l-120 -490l-108 -497q-4 -19 -24 -19h-192q-11 0 -16 6.5t-2 17.5l22 89q-126 -129 -300 -129q-113 0 -196 51.5t-126.5 145.5t-43.5 219q0 145 58.5 295t177.5 251t290 101q112 0 189.5 -46.5t116.5 -134.5l30 145q4 19 24 19h201z
M666 224q74 80 111.5 195t37.5 218q0 122 -54 185.5t-153 63.5q-114 0 -187.5 -80t-106 -191t-32.5 -208q0 -120 53 -191.5t153 -71.5q104 0 178 80zM576 1183q-63 33 -96.5 91t-33.5 131q0 17 1 26q1 21 23 21h115q21 0 21 -23q-3 -55 30.5 -88.5t97.5 -33.5q63 0 106.5 34
t61.5 92q6 19 23 19h118q11 0 16.5 -6t4.5 -16q-17 -81 -63 -144.5t-117.5 -99.5t-160.5 -36q-84 0 -147 33z" />
    <glyph glyph-name="Aogonek" unicode="&#x104;" horiz-adv-x="1304" 
d="M1184 22v-4q0 -18 -20 -18h-121q-45 -24 -79 -70t-34 -92q0 -77 109 -77h69q11 0 16 -6.5t3 -17.5l-28 -118q-1 -9 -7.5 -14t-15.5 -5h-94q-79 0 -135.5 24t-85 66.5t-28.5 97.5q0 80 59 142.5t154 98.5l-37 361h-548l-208 -375q-9 -15 -26 -15h-217q-19 0 -19 14
q0 4 4 12l795 1359q8 15 25 15h289q20 0 23 -20zM825 1232l-358 -647h424z" />
    <glyph glyph-name="aogonek" unicode="&#x105;" horiz-adv-x="1114" 
d="M1126 1030q11 0 16 -6.5t3 -17.5l-120 -490l-108 -497q-4 -19 -24 -19h-67q-45 -24 -79 -70t-34 -92q0 -77 109 -77h69q11 0 16 -6.5t3 -17.5l-28 -118q-1 -9 -7.5 -14t-15.5 -5h-94q-79 0 -135.5 24t-85 66.5t-28.5 97.5q0 70 45.5 127t121.5 94q-2 9 0 15l22 89
q-126 -129 -300 -129q-113 0 -196 51.5t-126.5 145.5t-43.5 219q0 145 58.5 295t177.5 251t290 101q112 0 189.5 -46.5t116.5 -134.5l30 145q4 19 24 19h201zM666 224q74 80 111.5 195t37.5 218q0 122 -54 185.5t-153 63.5q-114 0 -187.5 -80t-106 -191t-32.5 -208
q0 -120 53 -191.5t153 -71.5q104 0 178 80z" />
    <glyph glyph-name="Cacute" unicode="&#x106;" horiz-adv-x="1386" 
d="M372.5 44.5q-136.5 71.5 -212.5 209t-76 331.5q0 207 89.5 401t262.5 317.5t410 123.5q163 0 287 -61t195 -173.5t78 -262.5v-2q0 -20 -21 -20h-194q-19 0 -22 20q-10 149 -99 229.5t-236 80.5q-169 0 -281 -104.5t-164 -257t-52 -297.5q0 -206 98 -311.5t268 -105.5
q145 0 247.5 80.5t154.5 243.5q6 19 24 19h200q11 0 16 -7t2 -18q-71 -244 -241 -375.5t-417 -131.5q-180 0 -316.5 71.5zM734 1507q-3 -1 -8 -1q-14 0 -19 16l-25 86q-1 3 -1 7q0 14 14 20l471 193q3 2 10 2q12 0 17 -16l38 -141q1 -3 1 -8q0 -7 -4.5 -12t-11.5 -6z" />
    <glyph glyph-name="cacute" unicode="&#x107;" horiz-adv-x="1066" 
d="M262.5 28.5q-103.5 52.5 -160.5 155t-57 248.5q0 155 67 297.5t197 232.5t309 90q125 0 220 -45.5t148.5 -129t56.5 -195.5q0 -21 -21 -21h-185q-20 0 -22 21q-6 99 -63 152.5t-149 53.5q-104 0 -175 -72t-105.5 -179.5t-34.5 -213.5q0 -140 59 -211.5t163 -71.5
q96 0 164.5 56.5t101.5 168.5q6 18 24 18h186q19 0 19 -16q0 -5 -1 -8q-50 -183 -180.5 -283t-319.5 -100q-138 0 -241.5 52.5zM525 1137q-3 -1 -8 -1q-14 0 -19 16l-25 86q-1 3 -1 7q0 14 14 20l471 193q3 2 10 2q12 0 17 -16l38 -141q1 -3 1 -8q0 -7 -4.5 -12t-11.5 -6z
" />
    <glyph glyph-name="Ccircumflex" unicode="&#x108;" horiz-adv-x="1386" 
d="M372.5 44.5q-136.5 71.5 -212.5 209t-76 331.5q0 207 89.5 401t262.5 317.5t410 123.5q163 0 287 -61t195 -173.5t78 -262.5v-2q0 -20 -21 -20h-194q-19 0 -22 20q-10 149 -99 229.5t-236 80.5q-169 0 -281 -104.5t-164 -257t-52 -297.5q0 -206 98 -311.5t268 -105.5
q145 0 247.5 80.5t154.5 243.5q6 19 24 19h200q11 0 16 -7t2 -18q-71 -244 -241 -375.5t-417 -131.5q-180 0 -316.5 71.5zM562 1601q-2 6 -2 10q0 13 12 19l311 179q13 8 27 8h71q13 0 27 -9l243 -179q10 -7 10 -17q0 -8 -4 -13l-47 -76q-6 -11 -17 -11q-6 0 -12 3l-257 128
l-298 -130q-4 -2 -10 -2q-14 0 -18 13z" />
    <glyph glyph-name="ccircumflex" unicode="&#x109;" horiz-adv-x="1066" 
d="M262.5 28.5q-103.5 52.5 -160.5 155t-57 248.5q0 155 67 297.5t197 232.5t309 90q125 0 220 -45.5t148.5 -129t56.5 -195.5q0 -21 -21 -21h-185q-20 0 -22 21q-6 99 -63 152.5t-149 53.5q-104 0 -175 -72t-105.5 -179.5t-34.5 -213.5q0 -140 59 -211.5t163 -71.5
q96 0 164.5 56.5t101.5 168.5q6 18 24 18h186q19 0 19 -16q0 -5 -1 -8q-50 -183 -180.5 -283t-319.5 -100q-138 0 -241.5 52.5zM354 1231q-2 6 -2 10q0 13 12 19l311 179q13 8 27 8h71q13 0 27 -9l243 -179q10 -7 10 -17q0 -8 -4 -13l-47 -76q-6 -11 -17 -11q-6 0 -12 3
l-257 128l-298 -130q-4 -2 -10 -2q-14 0 -18 13z" />
    <glyph glyph-name="Cdotaccent" unicode="&#x10a;" horiz-adv-x="1386" 
d="M372.5 44.5q-136.5 71.5 -212.5 209t-76 331.5q0 207 89.5 401t262.5 317.5t410 123.5q163 0 287 -61t195 -173.5t78 -262.5v-2q0 -20 -21 -20h-194q-19 0 -22 20q-10 149 -99 229.5t-236 80.5q-169 0 -281 -104.5t-164 -257t-52 -297.5q0 -206 98 -311.5t268 -105.5
q145 0 247.5 80.5t154.5 243.5q6 19 24 19h200q11 0 16 -7t2 -18q-71 -244 -241 -375.5t-417 -131.5q-180 0 -316.5 71.5zM793 1515q-11 0 -16.5 6.5t-2.5 17.5l44 188q6 19 24 19h199q11 0 16.5 -7t2.5 -17l-45 -188q-4 -19 -23 -19h-199z" />
    <glyph glyph-name="cdotaccent" unicode="&#x10b;" horiz-adv-x="1066" 
d="M262.5 28.5q-103.5 52.5 -160.5 155t-57 248.5q0 155 67 297.5t197 232.5t309 90q125 0 220 -45.5t148.5 -129t56.5 -195.5q0 -21 -21 -21h-185q-20 0 -22 21q-6 99 -63 152.5t-149 53.5q-104 0 -175 -72t-105.5 -179.5t-34.5 -213.5q0 -140 59 -211.5t163 -71.5
q96 0 164.5 56.5t101.5 168.5q6 18 24 18h186q19 0 19 -16q0 -5 -1 -8q-50 -183 -180.5 -283t-319.5 -100q-138 0 -241.5 52.5zM584 1145q-11 0 -16.5 6.5t-2.5 17.5l44 188q6 19 24 19h199q11 0 16.5 -7t2.5 -17l-45 -188q-4 -19 -23 -19h-199z" />
    <glyph glyph-name="Ccaron" unicode="&#x10c;" horiz-adv-x="1386" 
d="M372.5 44.5q-136.5 71.5 -212.5 209t-76 331.5q0 207 89.5 401t262.5 317.5t410 123.5q163 0 287 -61t195 -173.5t78 -262.5v-2q0 -20 -21 -20h-194q-19 0 -22 20q-10 149 -99 229.5t-236 80.5q-169 0 -281 -104.5t-164 -257t-52 -297.5q0 -206 98 -311.5t268 -105.5
q145 0 247.5 80.5t154.5 243.5q6 19 24 19h200q11 0 16 -7t2 -18q-71 -244 -241 -375.5t-417 -131.5q-180 0 -316.5 71.5zM584 1702q-9 8 -9 17q0 8 4 13l46 76q7 12 18 12q5 0 11 -3l258 -129l298 130q6 3 11 3q12 0 17 -14l35 -77q3 -6 3 -11q0 -12 -12 -18l-311 -179
q-11 -7 -27 -7h-71q-15 0 -27 8z" />
    <glyph glyph-name="ccaron" unicode="&#x10d;" horiz-adv-x="1066" 
d="M262.5 28.5q-103.5 52.5 -160.5 155t-57 248.5q0 155 67 297.5t197 232.5t309 90q125 0 220 -45.5t148.5 -129t56.5 -195.5q0 -21 -21 -21h-185q-20 0 -22 21q-6 99 -63 152.5t-149 53.5q-104 0 -175 -72t-105.5 -179.5t-34.5 -213.5q0 -140 59 -211.5t163 -71.5
q96 0 164.5 56.5t101.5 168.5q6 18 24 18h186q19 0 19 -16q0 -5 -1 -8q-50 -183 -180.5 -283t-319.5 -100q-138 0 -241.5 52.5zM375 1332q-9 8 -9 17q0 8 4 13l46 76q7 12 18 12q5 0 11 -3l258 -129l298 130q6 3 11 3q12 0 17 -14l35 -77q3 -6 3 -11q0 -12 -12 -18
l-311 -179q-11 -7 -27 -7h-71q-15 0 -27 8z" />
    <glyph glyph-name="Dcaron" unicode="&#x10e;" horiz-adv-x="1364" 
d="M3 0q-11 0 -16.5 6.5t-2.5 17.5l171 687l143 670q3 19 24 19h422q183 0 325 -68.5t222 -200t80 -312.5q0 -202 -94 -391t-274 -308.5t-424 -119.5h-576zM588 183q179 0 298.5 101t176 249.5t56.5 291.5q0 127 -47.5 215t-134 132.5t-202.5 44.5h-221l-128 -502l-112 -532
h314zM558 1702q-9 8 -9 17q0 8 4 13l46 76q7 12 18 12q5 0 11 -3l258 -129l298 130q6 3 11 3q12 0 17 -14l35 -77q3 -6 3 -11q0 -12 -12 -18l-311 -179q-11 -7 -27 -7h-71q-15 0 -27 8z" />
    <glyph glyph-name="dcaron" unicode="&#x10f;" horiz-adv-x="1122" 
d="M1209 1400q11 0 16 -6.5t2 -17.5l-182 -762l-131 -595q-3 -19 -23 -19h-189q-11 0 -16.5 6.5t-2.5 17.5l24 90q-127 -130 -302 -130q-113 0 -196 51.5t-126.5 145.5t-43.5 219q0 145 58.5 295t177.5 251t290 101q111 0 188.5 -46.5t116.5 -133.5l113 514q3 19 23 19h203z
M665.5 224q74.5 80 112 195t37.5 218q0 122 -54 185.5t-152 63.5q-114 0 -188 -80t-106.5 -191t-32.5 -208q0 -120 52.5 -191.5t152.5 -71.5q104 0 178.5 80zM1385 1118q-8 -16 -25 -16h-112q-19 0 -19 15q0 2 2 10l155 398q6 17 24 17h155q9 0 14 -4t5 -11q0 -5 -3 -11z
" />
    <glyph glyph-name="Dcroat" unicode="&#x110;" horiz-adv-x="1381" 
d="M761 1400q183 0 325 -68.5t222 -200t80 -312.5q0 -202 -94 -391t-274 -308.5t-424 -119.5h-577q-11 0 -16 6.5t-2 17.5l157 634h-117q-11 0 -15.5 6.5t-2.5 17.5l32 140q5 19 24 19h120l116 540q3 19 23 19h423zM605 183q179 0 298.5 101t175.5 249.5t56 291.5
q0 127 -47.5 215t-133.5 132.5t-202 44.5h-221l-96 -376h353q10 0 15 -6.5t3 -17.5l-32 -140q-4 -19 -24 -19h-359l-100 -475h314z" />
    <glyph glyph-name="dcroat" unicode="&#x111;" horiz-adv-x="1124" 
d="M1280 1288q11 0 15.5 -6.5t2.5 -17.5l-29 -125q-4 -19 -23 -19h-79l-121 -506l-131 -595q-4 -19 -23 -19h-190q-11 0 -16 6.5t-2 17.5l23 91q-126 -131 -302 -131q-113 0 -196 51.5t-126.5 145.5t-43.5 218q0 146 58.5 296t177.5 251t289 101q112 0 189.5 -46.5
t116.5 -135.5l56 255h-284q-11 0 -16 6.5t-3 17.5l30 125q3 19 23 19h287l20 93q4 19 23 19h203q11 0 16 -6.5t3 -17.5l-21 -88h73zM665.5 223q74.5 80 112 195t37.5 218q0 124 -54 187.5t-153 63.5q-114 0 -187.5 -80.5t-106 -192t-32.5 -208.5q0 -120 52.5 -191.5
t152.5 -71.5q104 0 178.5 80z" />
    <glyph glyph-name="Emacron" unicode="&#x112;" horiz-adv-x="1103" 
d="M3 0q-11 0 -16.5 6.5t-2.5 17.5l171 689l143 668q3 19 24 19h888q11 0 16 -6.5t2 -17.5l-32 -140q-4 -19 -23 -19h-660l-100 -382h612q11 0 16 -6.5t3 -17.5l-33 -140q-3 -19 -23 -19h-617l-98 -469h671q11 0 16 -6.5t2 -17.5l-32 -140q-1 -9 -7.5 -14t-15.5 -5h-904z
M551 1545q-11 0 -16.5 6.5t-2.5 17.5l29 121q4 19 23 19h576q11 0 16.5 -6.5t2.5 -17.5l-29 -121q-4 -19 -23 -19h-576z" />
    <glyph glyph-name="emacron" unicode="&#x113;" horiz-adv-x="1100" 
d="M851 999.5q100 -52.5 154.5 -148.5t54.5 -223q0 -64 -15 -135q-3 -19 -23 -19h-739q-3 -27 -3 -54q0 -139 64 -210t177 -71q95 0 161.5 50t100.5 152q6 19 25 19h184q19 0 19 -16q0 -5 -1 -8q-49 -173 -177 -265.5t-317 -92.5q-140 0 -246 52.5t-165.5 154.5t-59.5 246
q0 156 67.5 299t197.5 232.5t307 89.5q134 0 234 -52.5zM821 629q3 23 3 44q0 64 -26 114t-75.5 78t-118.5 28q-114 0 -188 -72t-109 -192h514zM415 1175q-11 0 -16.5 6.5t-2.5 17.5l29 121q4 19 23 19h576q11 0 16.5 -6.5t2.5 -17.5l-29 -121q-4 -19 -23 -19h-576z" />
    <glyph glyph-name="Ebreve" unicode="&#x114;" horiz-adv-x="1103" 
d="M3 0q-11 0 -16.5 6.5t-2.5 17.5l171 689l143 668q3 19 24 19h888q11 0 16 -6.5t2 -17.5l-32 -140q-4 -19 -23 -19h-660l-100 -382h612q11 0 16 -6.5t3 -17.5l-33 -140q-3 -19 -23 -19h-617l-98 -469h671q11 0 16 -6.5t2 -17.5l-32 -140q-1 -9 -7.5 -14t-15.5 -5h-904z
M706 1553q-63 33 -96.5 91t-33.5 131q0 17 1 26q1 21 23 21h115q21 0 21 -23q-3 -55 30.5 -88.5t97.5 -33.5q63 0 106.5 34t61.5 92q6 19 23 19h118q11 0 16.5 -6t4.5 -16q-17 -81 -63 -144.5t-117.5 -99.5t-160.5 -36q-84 0 -147 33z" />
    <glyph glyph-name="ebreve" unicode="&#x115;" horiz-adv-x="1100" 
d="M851 999.5q100 -52.5 154.5 -148.5t54.5 -223q0 -64 -15 -135q-3 -19 -23 -19h-739q-3 -27 -3 -54q0 -139 64 -210t177 -71q95 0 161.5 50t100.5 152q6 19 25 19h184q19 0 19 -16q0 -5 -1 -8q-49 -173 -177 -265.5t-317 -92.5q-140 0 -246 52.5t-165.5 154.5t-59.5 246
q0 156 67.5 299t197.5 232.5t307 89.5q134 0 234 -52.5zM821 629q3 23 3 44q0 64 -26 114t-75.5 78t-118.5 28q-114 0 -188 -72t-109 -192h514zM570 1183q-63 33 -96.5 91t-33.5 131q0 17 1 26q1 21 23 21h115q21 0 21 -23q-3 -55 30.5 -88.5t97.5 -33.5q63 0 106.5 34
t61.5 92q6 19 23 19h118q11 0 16.5 -6t4.5 -16q-17 -81 -63 -144.5t-117.5 -99.5t-160.5 -36q-84 0 -147 33z" />
    <glyph glyph-name="Edotaccent" unicode="&#x116;" horiz-adv-x="1103" 
d="M3 0q-11 0 -16.5 6.5t-2.5 17.5l171 689l143 668q3 19 24 19h888q11 0 16 -6.5t2 -17.5l-32 -140q-4 -19 -23 -19h-660l-100 -382h612q11 0 16 -6.5t3 -17.5l-33 -140q-3 -19 -23 -19h-617l-98 -469h671q11 0 16 -6.5t2 -17.5l-32 -140q-1 -9 -7.5 -14t-15.5 -5h-904z
M732 1515q-11 0 -16.5 6.5t-2.5 17.5l44 188q6 19 24 19h199q11 0 16.5 -7t2.5 -17l-45 -188q-4 -19 -23 -19h-199z" />
    <glyph glyph-name="edotaccent" unicode="&#x117;" horiz-adv-x="1100" 
d="M851 999.5q100 -52.5 154.5 -148.5t54.5 -223q0 -64 -15 -135q-3 -19 -23 -19h-739q-3 -27 -3 -54q0 -139 64 -210t177 -71q95 0 161.5 50t100.5 152q6 19 25 19h184q19 0 19 -16q0 -5 -1 -8q-49 -173 -177 -265.5t-317 -92.5q-140 0 -246 52.5t-165.5 154.5t-59.5 246
q0 156 67.5 299t197.5 232.5t307 89.5q134 0 234 -52.5zM821 629q3 23 3 44q0 64 -26 114t-75.5 78t-118.5 28q-114 0 -188 -72t-109 -192h514zM596 1145q-11 0 -16.5 6.5t-2.5 17.5l44 188q6 19 24 19h199q11 0 16.5 -7t2.5 -17l-45 -188q-4 -19 -23 -19h-199z" />
    <glyph glyph-name="Eogonek" unicode="&#x118;" horiz-adv-x="1103" 
d="M1210 1400q11 0 16 -6.5t2 -17.5l-32 -140q-4 -19 -23 -19h-660l-100 -382h612q11 0 16 -6.5t3 -17.5l-33 -140q-3 -19 -23 -19h-617l-98 -469h671q11 0 16 -6.5t2 -17.5l-32 -140q-1 -9 -7.5 -14t-15.5 -5h-126q-45 -24 -79 -70t-34 -92q0 -77 109 -77h69q11 0 16 -6.5
t3 -17.5l-28 -118q-1 -9 -7.5 -14t-15.5 -5h-94q-79 0 -135.5 24t-85 66.5t-28.5 97.5q0 66 40.5 120t109.5 92h-618q-11 0 -16.5 6.5t-2.5 17.5l171 689l143 668q3 19 24 19h888z" />
    <glyph glyph-name="eogonek" unicode="&#x119;" horiz-adv-x="1100" 
d="M851 999.5q100 -52.5 154.5 -148.5t54.5 -223q0 -64 -15 -135q-3 -19 -23 -19h-739q-3 -27 -3 -54q0 -139 64 -210t177 -71q95 0 161.5 50t100.5 152q6 19 25 19h184q19 0 19 -16q0 -5 -1 -8q-45 -156 -154.5 -247t-270.5 -108q-36 -27 -60.5 -66t-24.5 -77
q0 -77 109 -77h69q11 0 16 -6.5t3 -17.5l-28 -118q-1 -9 -7.5 -14t-15.5 -5h-94q-79 0 -135.5 24t-85 66.5t-28.5 97.5q0 58 33 108t90 88q-115 16 -201 72.5t-133 151.5t-47 223q0 156 67.5 299t197.5 232.5t307 89.5q134 0 234 -52.5zM821 629q3 23 3 44q0 64 -26 114
t-75.5 78t-118.5 28q-114 0 -188 -72t-109 -192h514z" />
    <glyph glyph-name="Ecaron" unicode="&#x11a;" horiz-adv-x="1103" 
d="M3 0q-11 0 -16.5 6.5t-2.5 17.5l171 689l143 668q3 19 24 19h888q11 0 16 -6.5t2 -17.5l-32 -140q-4 -19 -23 -19h-660l-100 -382h612q11 0 16 -6.5t3 -17.5l-33 -140q-3 -19 -23 -19h-617l-98 -469h671q11 0 16 -6.5t2 -17.5l-32 -140q-1 -9 -7.5 -14t-15.5 -5h-904z
M523 1702q-9 8 -9 17q0 8 4 13l46 76q7 12 18 12q5 0 11 -3l258 -129l298 130q6 3 11 3q12 0 17 -14l35 -77q3 -6 3 -11q0 -12 -12 -18l-311 -179q-11 -7 -27 -7h-71q-15 0 -27 8z" />
    <glyph glyph-name="ecaron" unicode="&#x11b;" horiz-adv-x="1100" 
d="M851 999.5q100 -52.5 154.5 -148.5t54.5 -223q0 -64 -15 -135q-3 -19 -23 -19h-739q-3 -27 -3 -54q0 -139 64 -210t177 -71q95 0 161.5 50t100.5 152q6 19 25 19h184q19 0 19 -16q0 -5 -1 -8q-49 -173 -177 -265.5t-317 -92.5q-140 0 -246 52.5t-165.5 154.5t-59.5 246
q0 156 67.5 299t197.5 232.5t307 89.5q134 0 234 -52.5zM821 629q3 23 3 44q0 64 -26 114t-75.5 78t-118.5 28q-114 0 -188 -72t-109 -192h514zM387 1332q-9 8 -9 17q0 8 4 13l46 76q7 12 18 12q5 0 11 -3l258 -129l298 130q6 3 11 3q12 0 17 -14l35 -77q3 -6 3 -11
q0 -12 -12 -18l-311 -179q-11 -7 -27 -7h-71q-15 0 -27 8z" />
    <glyph glyph-name="Gcircumflex" unicode="&#x11c;" horiz-adv-x="1420" 
d="M358.5 48.5q-134.5 75.5 -205.5 214t-71 321.5q0 216 92.5 410t267.5 313.5t409 119.5q157 0 280.5 -56t197 -159t84.5 -240v-2q0 -20 -21 -20h-197q-20 0 -23 20q-20 129 -108 199.5t-224 70.5q-166 0 -280.5 -100t-169.5 -252t-55 -308q0 -137 43.5 -231t123.5 -141.5
t190 -47.5q168 0 282 107.5t157 291.5h-395q-10 0 -15 6.5t-3 17.5l32 140q4 19 24 19h618q11 0 16 -7.5t3 -21.5q-36 -237 -135 -403t-251.5 -251.5t-346.5 -85.5q-185 0 -319.5 75.5zM587 1601q-2 6 -2 10q0 13 12 19l311 179q13 8 27 8h71q13 0 27 -9l243 -179
q10 -7 10 -17q0 -8 -4 -13l-47 -76q-6 -11 -17 -11q-6 0 -12 3l-257 128l-298 -130q-4 -2 -10 -2q-14 0 -18 13z" />
    <glyph glyph-name="gcircumflex" unicode="&#x11d;" horiz-adv-x="1120" 
d="M1131 1030q11 0 16.5 -6.5t2.5 -17.5l-122 -507l-99 -448q-51 -226 -184.5 -336.5t-351.5 -110.5q-130 0 -231 42t-157.5 118t-58.5 175v2q0 19 21 19h198q21 0 22 -21q3 -83 62.5 -128.5t154.5 -45.5q120 0 188.5 69t103.5 220l18 75q-128 -128 -300 -128
q-114 0 -197.5 51t-127.5 143t-44 214q0 144 58.5 292t176.5 247t288 99q114 0 193 -46.5t118 -134.5l30 145q1 9 7.5 14t15.5 5h199zM673.5 240.5q73.5 78.5 110.5 191.5t37 214q0 118 -55 179t-155 61q-113 0 -185.5 -78.5t-105 -187.5t-32.5 -204q0 -115 53.5 -184.5
t154.5 -69.5q104 0 177.5 78.5zM370 1231q-2 6 -2 10q0 13 12 19l311 179q13 8 27 8h71q13 0 27 -9l243 -179q10 -7 10 -17q0 -8 -4 -13l-47 -76q-6 -11 -17 -11q-6 0 -12 3l-257 128l-298 -130q-4 -2 -10 -2q-14 0 -18 13z" />
    <glyph glyph-name="Gbreve" unicode="&#x11e;" horiz-adv-x="1420" 
d="M358.5 48.5q-134.5 75.5 -205.5 214t-71 321.5q0 216 92.5 410t267.5 313.5t409 119.5q157 0 280.5 -56t197 -159t84.5 -240v-2q0 -20 -21 -20h-197q-20 0 -23 20q-20 129 -108 199.5t-224 70.5q-166 0 -280.5 -100t-169.5 -252t-55 -308q0 -137 43.5 -231t123.5 -141.5
t190 -47.5q168 0 282 107.5t157 291.5h-395q-10 0 -15 6.5t-3 17.5l32 140q4 19 24 19h618q11 0 16 -7.5t3 -21.5q-36 -237 -135 -403t-251.5 -251.5t-346.5 -85.5q-185 0 -319.5 75.5zM791 1553q-63 33 -96.5 91t-33.5 131q0 17 1 26q1 21 23 21h115q21 0 21 -23
q-3 -55 30.5 -88.5t97.5 -33.5q63 0 106.5 34t61.5 92q6 19 23 19h118q11 0 16.5 -6t4.5 -16q-17 -81 -63 -144.5t-117.5 -99.5t-160.5 -36q-84 0 -147 33z" />
    <glyph glyph-name="gbreve" unicode="&#x11f;" horiz-adv-x="1120" 
d="M1131 1030q11 0 16.5 -6.5t2.5 -17.5l-122 -507l-99 -448q-51 -226 -184.5 -336.5t-351.5 -110.5q-130 0 -231 42t-157.5 118t-58.5 175v2q0 19 21 19h198q21 0 22 -21q3 -83 62.5 -128.5t154.5 -45.5q120 0 188.5 69t103.5 220l18 75q-128 -128 -300 -128
q-114 0 -197.5 51t-127.5 143t-44 214q0 144 58.5 292t176.5 247t288 99q114 0 193 -46.5t118 -134.5l30 145q1 9 7.5 14t15.5 5h199zM673.5 240.5q73.5 78.5 110.5 191.5t37 214q0 118 -55 179t-155 61q-113 0 -185.5 -78.5t-105 -187.5t-32.5 -204q0 -115 53.5 -184.5
t154.5 -69.5q104 0 177.5 78.5zM575 1183q-63 33 -96.5 91t-33.5 131q0 17 1 26q1 21 23 21h115q21 0 21 -23q-3 -55 30.5 -88.5t97.5 -33.5q63 0 106.5 34t61.5 92q6 19 23 19h118q11 0 16.5 -6t4.5 -16q-17 -81 -63 -144.5t-117.5 -99.5t-160.5 -36q-84 0 -147 33z" />
    <glyph glyph-name="Gdotaccent" unicode="&#x120;" horiz-adv-x="1420" 
d="M358.5 48.5q-134.5 75.5 -205.5 214t-71 321.5q0 216 92.5 410t267.5 313.5t409 119.5q157 0 280.5 -56t197 -159t84.5 -240v-2q0 -20 -21 -20h-197q-20 0 -23 20q-20 129 -108 199.5t-224 70.5q-166 0 -280.5 -100t-169.5 -252t-55 -308q0 -137 43.5 -231t123.5 -141.5
t190 -47.5q168 0 282 107.5t157 291.5h-395q-10 0 -15 6.5t-3 17.5l32 140q4 19 24 19h618q11 0 16 -7.5t3 -21.5q-36 -237 -135 -403t-251.5 -251.5t-346.5 -85.5q-185 0 -319.5 75.5zM817 1515q-11 0 -16.5 6.5t-2.5 17.5l44 188q6 19 24 19h199q11 0 16.5 -7t2.5 -17
l-45 -188q-4 -19 -23 -19h-199z" />
    <glyph glyph-name="gdotaccent" unicode="&#x121;" horiz-adv-x="1120" 
d="M1131 1030q11 0 16.5 -6.5t2.5 -17.5l-122 -507l-99 -448q-51 -226 -184.5 -336.5t-351.5 -110.5q-130 0 -231 42t-157.5 118t-58.5 175v2q0 19 21 19h198q21 0 22 -21q3 -83 62.5 -128.5t154.5 -45.5q120 0 188.5 69t103.5 220l18 75q-128 -128 -300 -128
q-114 0 -197.5 51t-127.5 143t-44 214q0 144 58.5 292t176.5 247t288 99q114 0 193 -46.5t118 -134.5l30 145q1 9 7.5 14t15.5 5h199zM673.5 240.5q73.5 78.5 110.5 191.5t37 214q0 118 -55 179t-155 61q-113 0 -185.5 -78.5t-105 -187.5t-32.5 -204q0 -115 53.5 -184.5
t154.5 -69.5q104 0 177.5 78.5zM601 1145q-11 0 -16.5 6.5t-2.5 17.5l44 188q6 19 24 19h199q11 0 16.5 -7t2.5 -17l-45 -188q-4 -19 -23 -19h-199z" />
    <glyph glyph-name="uni0122" unicode="&#x122;" horiz-adv-x="1420" 
d="M358.5 48.5q-134.5 75.5 -205.5 214t-71 321.5q0 216 92.5 410t267.5 313.5t409 119.5q157 0 280.5 -56t197 -159t84.5 -240v-2q0 -20 -21 -20h-197q-20 0 -23 20q-20 129 -108 199.5t-224 70.5q-166 0 -280.5 -100t-169.5 -252t-55 -308q0 -137 43.5 -231t123.5 -141.5
t190 -47.5q168 0 282 107.5t157 291.5h-395q-10 0 -15 6.5t-3 17.5l32 140q4 19 24 19h618q11 0 16 -7.5t3 -21.5q-36 -237 -135 -403t-251.5 -251.5t-346.5 -85.5q-185 0 -319.5 75.5zM426 -466q-18 0 -18 15q0 5 3 11l76 160l41 178q1 9 7.5 14t15.5 5h201q11 0 16 -6.5
t3 -17.5l-36 -157q-3 -14 -14 -24l-179 -167q-13 -11 -27 -11h-89z" />
    <glyph glyph-name="uni0123" unicode="&#x123;" horiz-adv-x="1120" 
d="M1131 1030q11 0 16.5 -6.5t2.5 -17.5l-122 -507l-99 -448q-51 -226 -184.5 -336.5t-351.5 -110.5q-130 0 -231 42t-157.5 118t-58.5 175v2q0 19 21 19h198q21 0 22 -21q3 -83 62.5 -128.5t154.5 -45.5q120 0 188.5 69t103.5 220l18 75q-128 -128 -300 -128
q-114 0 -197.5 51t-127.5 143t-44 214q0 144 58.5 292t176.5 247t288 99q114 0 193 -46.5t118 -134.5l30 145q1 9 7.5 14t15.5 5h199zM673.5 240.5q73.5 78.5 110.5 191.5t37 214q0 118 -55 179t-155 61q-113 0 -185.5 -78.5t-105 -187.5t-32.5 -204q0 -115 53.5 -184.5
t154.5 -69.5q104 0 177.5 78.5zM605 1165q-11 0 -16 6.5t-3 17.5l37 157q2 13 13 24l180 167q13 11 27 11h90q9 0 14 -4t5 -11q0 -5 -3 -11l-79 -160l-42 -178q-1 -9 -7.5 -14t-15.5 -5h-200z" />
    <glyph glyph-name="Hcircumflex" unicode="&#x124;" horiz-adv-x="1366" 
d="M1449 1400q11 0 16.5 -6.5t2.5 -17.5l-170 -680l-144 -677q-3 -19 -24 -19h-210q-11 0 -16.5 6.5t-2.5 17.5l154 623l3 11h-682l-3 -11l-136 -628q-3 -19 -24 -19h-210q-11 0 -16.5 6.5t-2.5 17.5l167 672l147 685q3 19 24 19h210q11 0 16.5 -6.5t2.5 -17.5l-132 -535
h680l116 540q3 19 24 19h210zM587 1601q-2 6 -2 10q0 13 12 19l311 179q13 8 27 8h71q13 0 27 -9l243 -179q10 -7 10 -17q0 -8 -4 -13l-47 -76q-6 -11 -17 -11q-6 0 -12 3l-257 128l-298 -130q-4 -2 -10 -2q-14 0 -18 13z" />
    <glyph glyph-name="hcircumflex" unicode="&#x125;" horiz-adv-x="1087" 
d="M-11 0q-11 0 -16 6.5t-3 17.5l114 457l200 900q4 19 23 19h198q11 0 16 -6.5t3 -17.5l-123 -503q61 80 152 130.5t196 50.5q86 0 153.5 -34.5t106 -101.5t38.5 -161q0 -57 -15 -123l-45 -195l-92 -420q-3 -19 -23 -19h-202q-11 0 -16.5 6.5t-2.5 17.5l97 390l44 204
q10 47 10 89q0 82 -40.5 125t-115.5 43q-107 0 -186 -90.5t-123 -224.5l-36 -149l-82 -392q-5 -19 -24 -19h-206zM109 1601q-2 6 -2 10q0 13 12 19l311 179q13 8 27 8h71q13 0 27 -9l243 -179q10 -7 10 -17q0 -8 -4 -13l-47 -76q-6 -11 -17 -11q-6 0 -12 3l-257 128
l-298 -130q-4 -2 -10 -2q-14 0 -18 13z" />
    <glyph glyph-name="Hbar" unicode="&#x126;" horiz-adv-x="1373" 
d="M1492 1150q10 0 15 -6.5t3 -17.5l-32 -140q-4 -19 -23 -19h-83l-67 -271l-145 -677q-3 -19 -24 -19h-210q-11 0 -16.5 6.5t-2.5 17.5l127 518l3 11h-678l-3 -11l-113 -523q-3 -19 -24 -19h-210q-11 0 -16.5 6.5t-2.5 17.5l167 672l59 271h-84q-11 0 -16 6.5t-3 17.5
l33 140q1 9 7.5 14t15.5 5h85l50 231q3 19 24 19h210q11 0 16.5 -6.5t2.5 -17.5l-56 -226h670l50 231q3 19 24 19h210q11 0 16.5 -6.5t2.5 -17.5l-56 -226h74zM456 967l-57 -231h683l50 231h-676z" />
    <glyph glyph-name="hbar" unicode="&#x127;" horiz-adv-x="1113" 
d="M927.5 1014.5q67.5 -34.5 106 -101.5t38.5 -161q0 -57 -15 -123l-44 -190l-92 -420q-3 -19 -23 -19h-202q-11 0 -16.5 6.5t-2.5 17.5l97 391l43 198q10 47 10 89q0 82 -40.5 125t-115.5 43q-107 0 -186 -90.5t-123 -224.5l-35 -144l-82 -392q-5 -19 -24 -19h-206
q-11 0 -16 6.5t-3 17.5l114 457l142 639h-74q-11 0 -16 6.5t-3 17.5l29 125q4 19 23 19h78l21 93q4 19 24 19h197q11 0 16 -6.5t3 -17.5l-21 -88h286q11 0 16 -6.5t2 -17.5l-29 -125q-3 -19 -23 -19h-294l-61 -252q61 80 152 130.5t196 50.5q86 0 153.5 -34.5z" />
    <glyph glyph-name="Itilde" unicode="&#x128;" horiz-adv-x="465" 
d="M13 0q-11 0 -16.5 6.5t-2.5 17.5l170 683l144 674q4 19 24 19h208q11 0 16.5 -6.5t2.5 -17.5l-167 -669l-147 -688q-4 -19 -24 -19h-208zM527.5 1551q-31.5 19 -67.5 54q-24 24 -40.5 35.5t-36.5 11.5q-32 0 -49.5 -24.5t-28.5 -72.5q-6 -19 -24 -19h-84q-11 0 -16 6
t-3 17q21 110 76 175.5t143 65.5q44 0 76 -19.5t68 -54.5q25 -24 41 -35t33 -11q34 0 51.5 24t28.5 71q5 20 24 20h83q11 0 16 -8t3 -22q-23 -111 -76.5 -172t-139.5 -61q-46 0 -77.5 19z" />
    <glyph glyph-name="itilde" unicode="&#x129;" horiz-adv-x="434" 
d="M412 1182q-25 20 -51 56q-16 23 -27.5 33.5t-26.5 10.5q-45 0 -66 -95q-5 -20 -24 -20h-72q-11 0 -16.5 6.5t-2.5 17.5q25 119 73.5 174.5t116.5 55.5q44 0 69 -20t51 -56q16 -23 27.5 -33.5t26.5 -10.5q44 0 66 95q5 20 23 20h73q17 0 17 -24q0 -10 -3 -22
q-25 -108 -72.5 -158t-112.5 -50q-44 0 -69 20zM-2 0q-11 0 -16 6.5t-3 17.5l122 499l106 488q4 19 24 19h204q11 0 16.5 -6.5t2.5 -17.5l-120 -482l-108 -505q-3 -19 -24 -19h-204z" />
    <glyph glyph-name="Imacron" unicode="&#x12a;" horiz-adv-x="465" 
d="M13 0q-11 0 -16.5 6.5t-2.5 17.5l170 683l144 674q4 19 24 19h208q11 0 16.5 -6.5t2.5 -17.5l-167 -669l-147 -688q-4 -19 -24 -19h-208zM187 1545q-11 0 -16.5 6.5t-2.5 17.5l29 121q4 19 23 19h576q11 0 16.5 -6.5t2.5 -17.5l-29 -121q-4 -19 -23 -19h-576z" />
    <glyph glyph-name="imacron" unicode="&#x12b;" horiz-adv-x="434" 
d="M137 1175q-11 0 -16 6.5t-3 17.5l28 121q4 19 24 19h471q11 0 15.5 -6.5t2.5 -17.5l-28 -121q-3 -19 -23 -19h-471zM-2 0q-11 0 -16 6.5t-3 17.5l122 499l106 488q4 19 24 19h204q11 0 16.5 -6.5t2.5 -17.5l-120 -482l-108 -505q-3 -19 -24 -19h-204z" />
    <glyph glyph-name="Ibreve" unicode="&#x12c;" horiz-adv-x="465" 
d="M13 0q-11 0 -16.5 6.5t-2.5 17.5l170 683l144 674q4 19 24 19h208q11 0 16.5 -6.5t2.5 -17.5l-167 -669l-147 -688q-4 -19 -24 -19h-208zM342 1553q-63 33 -96.5 91t-33.5 131q0 17 1 26q1 21 23 21h115q21 0 21 -23q-3 -55 30.5 -88.5t97.5 -33.5q63 0 106.5 34t61.5 92
q6 19 23 19h118q11 0 16.5 -6t4.5 -16q-17 -81 -63 -144.5t-117.5 -99.5t-160.5 -36q-84 0 -147 33z" />
    <glyph glyph-name="ibreve" unicode="&#x12d;" horiz-adv-x="432" 
d="M261.5 1180.5q-54.5 30.5 -83.5 86t-29 127.5q0 11 2 37q3 21 23 21h109q21 0 19 -23q-4 -60 22.5 -94t78.5 -34q54 0 90 34t50 97q5 20 23 20h110q11 0 16.5 -6.5t3.5 -18.5q-27 -127 -107.5 -202t-199.5 -75q-73 0 -127.5 30.5zM-2 0q-11 0 -16 6.5t-3 17.5l122 499
l106 488q4 19 24 19h204q11 0 16.5 -6.5t2.5 -17.5l-120 -482l-108 -505q-3 -19 -24 -19h-204z" />
    <glyph glyph-name="Iogonek" unicode="&#x12e;" horiz-adv-x="465" 
d="M540 1400q11 0 16.5 -6.5t2.5 -17.5l-167 -669l-147 -688q-4 -19 -24 -19h-96q-45 -24 -79 -70t-34 -92q0 -77 109 -77h69q11 0 16 -6.5t3 -17.5l-28 -118q-1 -9 -7.5 -14t-15.5 -5h-94q-79 0 -135.5 24t-85 66.5t-28.5 97.5q0 73 48.5 131t129.5 95q0 6 1 10l170 683
l144 674q4 19 24 19h208z" />
    <glyph glyph-name="iogonek" unicode="&#x12f;" horiz-adv-x="432" 
d="M513 1376q11 0 16.5 -7t2.5 -17l-45 -188q-4 -19 -23 -19h-199q-11 0 -16.5 6.5t-2.5 17.5l44 188q6 19 24 19h199zM435 1030q11 0 16.5 -6.5t2.5 -17.5l-120 -482l-108 -505q-3 -19 -24 -19h-79q-45 -24 -79 -70t-34 -92q0 -77 109 -77h69q11 0 16 -6.5t3 -17.5
l-28 -118q-1 -9 -7.5 -14t-15.5 -5h-94q-79 0 -135.5 24t-85 66.5t-28.5 97.5q0 70 45.5 126.5t121.5 94.5q-3 5 -1 15l122 499l106 488q4 19 24 19h204z" />
    <glyph glyph-name="Idotaccent" unicode="&#x130;" horiz-adv-x="465" 
d="M13 0q-11 0 -16.5 6.5t-2.5 17.5l170 683l144 674q4 19 24 19h208q11 0 16.5 -6.5t2.5 -17.5l-167 -669l-147 -688q-4 -19 -24 -19h-208zM368 1515q-11 0 -16.5 6.5t-2.5 17.5l44 188q6 19 24 19h199q11 0 16.5 -7t2.5 -17l-45 -188q-4 -19 -23 -19h-199z" />
    <glyph glyph-name="dotlessi" unicode="&#x131;" horiz-adv-x="432" 
d="M-2 0q-11 0 -16 6.5t-3 17.5l122 499l106 488q4 19 24 19h204q11 0 16.5 -6.5t2.5 -17.5l-120 -482l-108 -505q-3 -19 -24 -19h-204z" />
    <glyph glyph-name="IJ" unicode="&#x132;" horiz-adv-x="1492" 
d="M13 0q-11 0 -16.5 6.5t-2.5 17.5l170 683l144 674q4 19 24 19h208q11 0 16.5 -6.5t2.5 -17.5l-167 -669l-147 -688q-4 -19 -24 -19h-208zM583.5 73q-103.5 102 -103.5 287q0 60 10 120q3 19 24 19h195q11 0 16.5 -6.5t3.5 -17.5q-9 -57 -9 -104q0 -208 173 -208
q62 0 109.5 30.5t85 102t66.5 194.5l90 370l110 521q4 19 24 19h216q11 0 16 -6.5t2 -17.5l-129 -516l-84 -372q-62 -273 -190 -395t-330 -122q-192 0 -295.5 102z" />
    <glyph glyph-name="ij" unicode="&#x133;" horiz-adv-x="864" 
d="M-2 0q-11 0 -16 6.5t-3 17.5l122 499l106 488q4 19 24 19h204q11 0 16.5 -6.5t2.5 -17.5l-120 -482l-108 -505q-3 -19 -24 -19h-204zM265 1145q-11 0 -16.5 6.5t-2.5 17.5l44 188q6 19 24 19h199q11 0 16.5 -7t2.5 -17l-45 -188q-4 -19 -23 -19h-199zM351 -340
q-11 0 -16 6.5t-2 17.5l159 658l147 669q3 19 23 19h205q11 0 16 -6.5t3 -17.5l-162 -664l-144 -663q-4 -19 -24 -19h-205zM698 1145q-11 0 -16.5 6.5t-2.5 17.5l44 188q6 19 24 19h199q11 0 16.5 -7t2.5 -17l-45 -188q-4 -19 -23 -19h-199z" />
    <glyph glyph-name="Jcircumflex" unicode="&#x134;" horiz-adv-x="1027" 
d="M118.5 73q-103.5 102 -103.5 287q0 60 10 120q3 19 24 19h195q11 0 16.5 -6.5t3.5 -17.5q-9 -57 -9 -104q0 -208 173 -208q62 0 109.5 30.5t85 102t66.5 194.5l90 370l110 521q4 19 24 19h216q11 0 16 -6.5t2 -17.5l-129 -516l-84 -372q-62 -273 -190 -395t-330 -122
q-192 0 -295.5 102zM724 1601q-2 6 -2 10q0 13 12 19l311 179q13 8 27 8h71q13 0 27 -9l243 -179q10 -7 10 -17q0 -8 -4 -13l-47 -76q-6 -11 -17 -11q-6 0 -12 3l-257 128l-298 -130q-4 -2 -10 -2q-14 0 -18 13z" />
    <glyph glyph-name="jcircumflex" unicode="&#x135;" horiz-adv-x="432" 
d="M90 1234q-2 4 -2 10q0 12 11 19l256 175q10 9 26 9h71q15 0 26 -11l194 -174q9 -7 9 -16q0 -6 -5 -14l-53 -78q-8 -11 -17 -11q-5 0 -13 5l-199 127l-242 -127q-6 -3 -12 -3q-11 0 -17 13zM-81 -340q-11 0 -16 6.5t-2 17.5l159 658l147 669q3 19 23 19h205q11 0 16 -6.5
t3 -17.5l-162 -664l-144 -663q-4 -19 -24 -19h-205z" />
    <glyph glyph-name="uni0136" unicode="&#x136;" horiz-adv-x="1200" 
d="M298 1381q3 19 24 19h207q11 0 16.5 -6.5t2.5 -17.5l-137 -561l-4 -17l588 591q10 11 26 11h260q9 0 14 -3.5t5 -8.5q0 -6 -8 -14l-578 -543l361 -806q3 -6 3 -10q0 -7 -5 -11t-14 -4h-232q-18 0 -25 16l-273 639l-196 -186l-99 -450q-3 -19 -24 -19h-207
q-11 0 -16.5 6.5t-2.5 17.5l169 687zM281 -466q-18 0 -18 15q0 5 3 11l76 160l41 178q1 9 7.5 14t15.5 5h201q11 0 16 -6.5t3 -17.5l-36 -157q-3 -14 -14 -24l-179 -167q-13 -11 -27 -11h-89z" />
    <glyph glyph-name="uni0137" unicode="&#x137;" horiz-adv-x="982" 
d="M1023 1030q9 0 14 -3t5 -8q0 -7 -9 -15l-399 -346l226 -633q2 -8 2 -10q0 -7 -5 -11t-14 -4h-203q-19 0 -24 18l-52 171l-113 320l-168 -155l-73 -336q-4 -19 -24 -19h-198q-11 0 -16 6.5t-3 17.5l165 674l148 684q4 19 24 19h199q11 0 16 -6.5t3 -17.5l-167 -678
l-11 -47l404 368q11 11 27 11h246zM172 -466q-18 0 -18 15q0 5 3 11l76 160l41 178q1 9 7.5 14t15.5 5h201q11 0 16 -6.5t3 -17.5l-36 -157q-3 -14 -14 -24l-179 -167q-13 -11 -27 -11h-89z" />
    <glyph glyph-name="Lacute" unicode="&#x139;" horiz-adv-x="973" 
d="M3 0q-11 0 -16.5 6.5t-2.5 17.5l172 694l142 663q3 19 24 19h209q11 0 16 -6.5t3 -17.5l-160 -645l-117 -548h586q11 0 16 -6.5t3 -17.5l-33 -140q-1 -9 -7.5 -14t-15.5 -5h-819zM300 1507q-3 -1 -8 -1q-14 0 -19 16l-25 86q-1 3 -1 7q0 14 14 20l471 193q3 2 10 2
q12 0 17 -16l38 -141q1 -3 1 -8q0 -7 -4.5 -12t-11.5 -6z" />
    <glyph glyph-name="lacute" unicode="&#x13a;" horiz-adv-x="428" 
d="M-1 0q-11 0 -16.5 6.5t-2.5 17.5l167 681l147 676q3 19 24 19h198q11 0 16 -6.5t3 -17.5l-165 -670l-149 -687q-4 -19 -24 -19h-198zM290 1507q-3 -1 -8 -1q-14 0 -19 16l-25 86q-1 3 -1 7q0 14 14 20l471 193q3 2 10 2q12 0 17 -16l38 -141q1 -3 1 -8q0 -7 -4.5 -12
t-11.5 -6z" />
    <glyph glyph-name="uni013B" unicode="&#x13b;" horiz-adv-x="973" 
d="M3 0q-11 0 -16.5 6.5t-2.5 17.5l172 694l142 663q3 19 24 19h209q11 0 16 -6.5t3 -17.5l-160 -645l-117 -548h586q11 0 16 -6.5t3 -17.5l-33 -140q-1 -9 -7.5 -14t-15.5 -5h-819zM172 -466q-18 0 -18 15q0 5 3 11l76 160l41 178q1 9 7.5 14t15.5 5h201q11 0 16 -6.5
t3 -17.5l-36 -157q-3 -14 -14 -24l-179 -167q-13 -11 -27 -11h-89z" />
    <glyph glyph-name="uni013C" unicode="&#x13c;" horiz-adv-x="428" 
d="M-1 0q-11 0 -16.5 6.5t-2.5 17.5l167 681l147 676q3 19 24 19h198q11 0 16 -6.5t3 -17.5l-165 -670l-149 -687q-4 -19 -24 -19h-198zM-145 -466q-18 0 -18 15q0 5 3 11l76 160l41 178q1 9 7.5 14t15.5 5h201q11 0 16 -6.5t3 -17.5l-36 -157q-3 -14 -14 -24l-179 -167
q-13 -11 -27 -11h-89z" />
    <glyph glyph-name="Lcaron" unicode="&#x13d;" horiz-adv-x="973" 
d="M3 0q-11 0 -16.5 6.5t-2.5 17.5l172 694l142 663q3 19 24 19h209q11 0 16 -6.5t3 -17.5l-160 -645l-117 -548h586q11 0 16 -6.5t3 -17.5l-33 -140q-1 -9 -7.5 -14t-15.5 -5h-819zM714 976q-8 -16 -25 -16h-112q-19 0 -19 15q0 2 2 10l155 398q6 17 24 17h155q9 0 14 -4
t5 -11q0 -5 -3 -11z" />
    <glyph glyph-name="lcaron" unicode="&#x13e;" horiz-adv-x="428" 
d="M-1 0q-11 0 -16.5 6.5t-2.5 17.5l167 681l147 676q3 19 24 19h198q11 0 16 -6.5t3 -17.5l-165 -670l-149 -687q-4 -19 -24 -19h-198zM702 1121q-8 -16 -25 -16h-112q-19 0 -19 15q0 2 2 10l155 398q6 17 24 17h155q9 0 14 -4t5 -11q0 -5 -3 -11z" />
    <glyph glyph-name="Ldot" unicode="&#x13f;" horiz-adv-x="973" 
d="M3 0q-11 0 -16.5 6.5t-2.5 17.5l172 694l142 663q3 19 24 19h209q11 0 16 -6.5t3 -17.5l-160 -645l-117 -548h586q11 0 16 -6.5t3 -17.5l-33 -140q-1 -9 -7.5 -14t-15.5 -5h-819zM635 641q-11 0 -16.5 6.5t-2.5 17.5l44 188q6 19 24 19h199q11 0 16.5 -7t2.5 -17
l-45 -188q-4 -19 -23 -19h-199z" />
    <glyph glyph-name="ldot" unicode="&#x140;" horiz-adv-x="601" 
d="M-1 0q-11 0 -16.5 6.5t-2.5 17.5l167 681l147 676q3 19 24 19h198q11 0 16 -6.5t3 -17.5l-165 -670l-149 -687q-4 -19 -24 -19h-198zM425 556q-11 0 -16 6.5t-2 17.5l44 187q4 19 23 19h200q11 0 16 -6.5t3 -17.5l-45 -187q-4 -19 -23 -19h-200z" />
    <glyph glyph-name="Lslash" unicode="&#x141;" horiz-adv-x="999" 
d="M885 183q11 0 15.5 -6.5t2.5 -17.5l-32 -140q-5 -19 -23 -19h-820q-11 0 -16.5 6.5t-2.5 17.5l129 518l-108 -32q-3 -1 -8 -1q-8 0 -11.5 6t-1.5 16l32 139q3 16 20 21l122 37l140 653q4 19 24 19h209q11 0 16.5 -6.5t2.5 -17.5l-141 -573l301 90q3 1 8 1q8 0 12 -6
t2 -16l-34 -139q-3 -16 -20 -21l-312 -94l-92 -435h586z" />
    <glyph glyph-name="lslash" unicode="&#x142;" horiz-adv-x="499" 
d="M552 1400q11 0 16 -6.5t3 -17.5l-162 -652l76 37q6 3 11 3q8 0 11 -5.5t1 -15.5l-31 -133q-3 -15 -18 -23l-89 -44l-113 -524q-4 -19 -24 -19h-199q-11 0 -16 6.5t-2 17.5l96 393l-72 -36q-6 -3 -11 -3q-8 0 -11 5.5t-1 15.5l31 134q3 15 18 23l91 45l26 104l147 676
q3 19 23 19h199z" />
    <glyph glyph-name="Nacute" unicode="&#x143;" horiz-adv-x="1368" 
d="M3 0q-11 0 -16.5 6.5t-2.5 17.5l168 682l146 675q4 19 24 19h240q18 0 24 -17l415 -1067l112 513l127 552q1 9 7.5 14t15.5 5h190q11 0 16 -6.5t3 -17.5l-166 -670l-149 -687q-3 -19 -24 -19h-250q-18 0 -24 17l-410 1059l-115 -543l-118 -514q-5 -19 -23 -19h-190z
M760 1507q-3 -1 -8 -1q-14 0 -19 16l-25 86q-1 3 -1 7q0 14 14 20l471 193q3 2 10 2q12 0 17 -16l38 -141q1 -3 1 -8q0 -7 -4.5 -12t-11.5 -6z" />
    <glyph glyph-name="nacute" unicode="&#x144;" horiz-adv-x="1085" 
d="M-13 0q-11 0 -16 6.5t-2 17.5l113 457l118 530q3 19 23 19h190q11 0 16.5 -6.5t2.5 -17.5l-32 -133q61 80 151.5 130.5t195.5 50.5q86 0 153.5 -34.5t106 -101.5t38.5 -161q0 -57 -15 -123l-45 -195l-91 -420q-4 -19 -24 -19h-203q-11 0 -16 6.5t-2 17.5l97 390l44 204
q11 52 11 91q0 81 -41 123.5t-116 42.5q-107 0 -186 -90.5t-123 -224.5l-36 -149l-82 -392q-1 -9 -7.5 -14t-16.5 -5h-206zM542 1137q-3 -1 -8 -1q-14 0 -19 16l-25 86q-1 3 -1 7q0 14 14 20l471 193q3 2 10 2q12 0 17 -16l38 -141q1 -3 1 -8q0 -7 -4.5 -12t-11.5 -6z" />
    <glyph glyph-name="uni0145" unicode="&#x145;" horiz-adv-x="1368" 
d="M3 0q-11 0 -16.5 6.5t-2.5 17.5l168 682l146 675q4 19 24 19h240q18 0 24 -17l415 -1067l112 513l127 552q1 9 7.5 14t15.5 5h190q11 0 16 -6.5t3 -17.5l-166 -670l-149 -687q-3 -19 -24 -19h-250q-18 0 -24 17l-410 1059l-115 -543l-118 -514q-5 -19 -23 -19h-190z
M327 -466q-18 0 -18 15q0 5 3 11l76 160l41 178q1 9 7.5 14t15.5 5h201q11 0 16 -6.5t3 -17.5l-36 -157q-3 -14 -14 -24l-179 -167q-13 -11 -27 -11h-89z" />
    <glyph glyph-name="uni0146" unicode="&#x146;" horiz-adv-x="1085" 
d="M-13 0q-11 0 -16 6.5t-2 17.5l113 457l118 530q3 19 23 19h190q11 0 16.5 -6.5t2.5 -17.5l-32 -133q61 80 151.5 130.5t195.5 50.5q86 0 153.5 -34.5t106 -101.5t38.5 -161q0 -57 -15 -123l-45 -195l-91 -420q-4 -19 -24 -19h-203q-11 0 -16 6.5t-2 17.5l97 390l44 204
q11 52 11 91q0 81 -41 123.5t-116 42.5q-107 0 -186 -90.5t-123 -224.5l-36 -149l-82 -392q-1 -9 -7.5 -14t-16.5 -5h-206zM187 -466q-18 0 -18 15q0 5 3 11l76 160l41 178q1 9 7.5 14t15.5 5h201q11 0 16 -6.5t3 -17.5l-36 -157q-3 -14 -14 -24l-179 -167q-13 -11 -27 -11
h-89z" />
    <glyph glyph-name="Ncaron" unicode="&#x147;" horiz-adv-x="1368" 
d="M3 0q-11 0 -16.5 6.5t-2.5 17.5l168 682l146 675q4 19 24 19h240q18 0 24 -17l415 -1067l112 513l127 552q1 9 7.5 14t15.5 5h190q11 0 16 -6.5t3 -17.5l-166 -670l-149 -687q-3 -19 -24 -19h-250q-18 0 -24 17l-410 1059l-115 -543l-118 -514q-5 -19 -23 -19h-190z
M609 1702q-9 8 -9 17q0 8 4 13l46 76q7 12 18 12q5 0 11 -3l258 -129l298 130q6 3 11 3q12 0 17 -14l35 -77q3 -6 3 -11q0 -12 -12 -18l-311 -179q-11 -7 -27 -7h-71q-15 0 -27 8z" />
    <glyph glyph-name="ncaron" unicode="&#x148;" horiz-adv-x="1085" 
d="M-13 0q-11 0 -16 6.5t-2 17.5l113 457l118 530q3 19 23 19h190q11 0 16.5 -6.5t2.5 -17.5l-32 -133q61 80 151.5 130.5t195.5 50.5q86 0 153.5 -34.5t106 -101.5t38.5 -161q0 -57 -15 -123l-45 -195l-91 -420q-4 -19 -24 -19h-203q-11 0 -16 6.5t-2 17.5l97 390l44 204
q11 52 11 91q0 81 -41 123.5t-116 42.5q-107 0 -186 -90.5t-123 -224.5l-36 -149l-82 -392q-1 -9 -7.5 -14t-16.5 -5h-206zM391 1332q-9 8 -9 17q0 8 4 13l46 76q7 12 18 12q5 0 11 -3l258 -129l298 130q6 3 11 3q12 0 17 -14l35 -77q3 -6 3 -11q0 -12 -12 -18l-311 -179
q-11 -7 -27 -7h-71q-15 0 -27 8z" />
    <glyph glyph-name="Eng" unicode="&#x14a;" horiz-adv-x="1368" 
d="M3 0q-11 0 -16.5 6.5t-2.5 17.5l168 682l147 675q4 19 24 19h253q19 0 25 -16l417 -998l93 433l129 562q1 9 7.5 14t15.5 5h190q11 0 16.5 -6.5t2.5 -17.5l-161 -647l-176 -778q-24 -109 -81 -179t-131.5 -101.5t-155.5 -31.5q-73 0 -150 15q-10 1 -14 8t-2 17l29 129
q1 7 6 11.5t12 4.5q5 0 8 -1q41 -9 98 -9q127 0 158 158l6 29l-461 1106l-91 -425l-150 -663q-5 -19 -23 -19h-190z" />
    <glyph glyph-name="eng" unicode="&#x14b;" horiz-adv-x="1083" 
d="M387 -346q-21 4 -16 26l30 126q1 7 6 11.5t12 4.5q5 0 8 -1q36 -9 68 -9q56 0 91.5 36t55.5 120l150 656q11 45 11 88q0 79 -41 121t-114 42q-104 0 -186 -89t-127 -226l-33 -142l-85 -399q-1 -9 -7.5 -14t-15.5 -5h-207q-11 0 -16 6.5t-2 17.5l113 457l118 530
q3 19 23 19h191q11 0 16 -6.5t3 -17.5l-34 -132q63 80 153 130t193 50q89 0 156.5 -35t105.5 -102t38 -161q0 -53 -14 -118l-156 -691q-24 -108 -80.5 -177t-130.5 -100t-155 -31q-49 0 -122 15z" />
    <glyph glyph-name="Omacron" unicode="&#x14c;" horiz-adv-x="1487" 
d="M381.5 45q-141.5 72 -221 209.5t-79.5 327.5q0 208 94 403t273 318.5t422 123.5q181 0 321.5 -72t220 -209t79.5 -327q0 -208 -93.5 -403.5t-272 -319t-420.5 -123.5q-182 0 -323.5 72zM1008.5 266.5q118.5 104.5 174.5 258t56 300.5q0 133 -47.5 226t-132.5 140t-198 47
q-177 0 -296 -104.5t-175 -257.5t-56 -301q0 -134 47.5 -226.5t133 -139.5t199.5 -47q176 0 294.5 104.5zM658 1545q-11 0 -16.5 6.5t-2.5 17.5l29 121q4 19 23 19h576q11 0 16.5 -6.5t2.5 -17.5l-29 -121q-4 -19 -23 -19h-576z" />
    <glyph glyph-name="omacron" unicode="&#x14d;" horiz-adv-x="1127" 
d="M265.5 31q-103.5 53 -162 155.5t-58.5 245.5q0 155 68.5 298t200 232.5t310.5 89.5q134 0 237.5 -53t162 -155t58.5 -245q0 -156 -69 -299t-200.5 -232.5t-309.5 -89.5q-134 0 -237.5 53zM693.5 213q73.5 74 109.5 183t36 214q0 135 -60.5 208t-163.5 73q-108 0 -182 -74
t-109.5 -183t-35.5 -214q0 -135 60.5 -208t163.5 -73q108 0 181.5 74zM428 1175q-11 0 -16.5 6.5t-2.5 17.5l29 121q4 19 23 19h576q11 0 16.5 -6.5t2.5 -17.5l-29 -121q-4 -19 -23 -19h-576z" />
    <glyph glyph-name="Obreve" unicode="&#x14e;" horiz-adv-x="1487" 
d="M381.5 45q-141.5 72 -221 209.5t-79.5 327.5q0 208 94 403t273 318.5t422 123.5q181 0 321.5 -72t220 -209t79.5 -327q0 -208 -93.5 -403.5t-272 -319t-420.5 -123.5q-182 0 -323.5 72zM1008.5 266.5q118.5 104.5 174.5 258t56 300.5q0 133 -47.5 226t-132.5 140t-198 47
q-177 0 -296 -104.5t-175 -257.5t-56 -301q0 -134 47.5 -226.5t133 -139.5t199.5 -47q176 0 294.5 104.5zM813 1553q-63 33 -96.5 91t-33.5 131q0 17 1 26q1 21 23 21h115q21 0 21 -23q-3 -55 30.5 -88.5t97.5 -33.5q63 0 106.5 34t61.5 92q6 19 23 19h118q11 0 16.5 -6
t4.5 -16q-17 -81 -63 -144.5t-117.5 -99.5t-160.5 -36q-84 0 -147 33z" />
    <glyph glyph-name="obreve" unicode="&#x14f;" horiz-adv-x="1127" 
d="M265.5 31q-103.5 53 -162 155.5t-58.5 245.5q0 155 68.5 298t200 232.5t310.5 89.5q134 0 237.5 -53t162 -155t58.5 -245q0 -156 -69 -299t-200.5 -232.5t-309.5 -89.5q-134 0 -237.5 53zM693.5 213q73.5 74 109.5 183t36 214q0 135 -60.5 208t-163.5 73q-108 0 -182 -74
t-109.5 -183t-35.5 -214q0 -135 60.5 -208t163.5 -73q108 0 181.5 74zM583 1183q-63 33 -96.5 91t-33.5 131q0 17 1 26q1 21 23 21h115q21 0 21 -23q-3 -55 30.5 -88.5t97.5 -33.5q63 0 106.5 34t61.5 92q6 19 23 19h118q11 0 16.5 -6t4.5 -16q-17 -81 -63 -144.5
t-117.5 -99.5t-160.5 -36q-84 0 -147 33z" />
    <glyph glyph-name="Ohungarumlaut" unicode="&#x150;" horiz-adv-x="1487" 
d="M381.5 45q-141.5 72 -221 209.5t-79.5 327.5q0 208 94 403t273 318.5t422 123.5q181 0 321.5 -72t220 -209t79.5 -327q0 -208 -93.5 -403.5t-272 -319t-420.5 -123.5q-182 0 -323.5 72zM1008.5 266.5q118.5 104.5 174.5 258t56 300.5q0 133 -47.5 226t-132.5 140t-198 47
q-177 0 -296 -104.5t-175 -257.5t-56 -301q0 -134 47.5 -226.5t133 -139.5t199.5 -47q176 0 294.5 104.5zM770 1536q-7 -6 -15 -6q-7 0 -15 8l-42 43q-7 7 -7 16q0 8 6 15l305 323q8 8 15 8t15 -9l72 -89q6 -7 6 -14q0 -8 -9 -16zM1104 1529q-7 -7 -15 -7t-16 8l-42 42
q-7 7 -7 16q0 8 7 15l306 323q8 8 16 8t15 -9l71 -87q6 -7 6 -15q0 -7 -9 -15z" />
    <glyph glyph-name="ohungarumlaut" unicode="&#x151;" horiz-adv-x="1127" 
d="M265.5 31q-103.5 53 -162 155.5t-58.5 245.5q0 155 68.5 298t200 232.5t310.5 89.5q134 0 237.5 -53t162 -155t58.5 -245q0 -156 -69 -299t-200.5 -232.5t-309.5 -89.5q-134 0 -237.5 53zM693.5 213q73.5 74 109.5 183t36 214q0 135 -60.5 208t-163.5 73q-108 0 -182 -74
t-109.5 -183t-35.5 -214q0 -135 60.5 -208t163.5 -73q108 0 181.5 74zM540 1166q-7 -6 -15 -6q-7 0 -15 8l-42 43q-7 7 -7 16q0 8 6 15l305 323q8 8 15 8t15 -9l72 -89q6 -7 6 -14q0 -8 -9 -16zM874 1159q-7 -7 -15 -7t-16 8l-42 42q-7 7 -7 16q0 8 7 15l306 323q8 8 16 8
t15 -9l71 -87q6 -7 6 -15q0 -7 -9 -15z" />
    <glyph glyph-name="OE" unicode="&#x152;" horiz-adv-x="2020" 
d="M707 0q-183 0 -325 68.5t-222 200t-80 312.5q0 202 94 391t274 308.5t424 119.5h1254q11 0 16 -6.5t2 -17.5l-32 -140q-4 -19 -23 -19h-661l-95 -382h609q10 0 15 -6.5t3 -17.5l-32 -140q-4 -19 -24 -19h-615l-101 -469h672q11 0 16 -6.5t3 -17.5l-33 -140
q-1 -9 -7.5 -14t-15.5 -5h-1116zM379.5 360q47.5 -88 134 -132.5t202.5 -44.5h222l126 506l114 528h-315q-179 0 -298.5 -101t-176 -249.5t-56.5 -291.5q0 -127 47.5 -215z" />
    <glyph glyph-name="oe" unicode="&#x153;" horiz-adv-x="1882" 
d="M1637 999q100 -53 154.5 -148.5t54.5 -221.5q0 -65 -15 -136q-3 -19 -23 -19h-735q-1 -17 -1 -49q0 -138 60.5 -212t172.5 -74q98 0 164.5 52t97.5 150q6 18 24 18h184q19 0 19 -16q0 -5 -1 -8q-48 -169 -175 -263t-317 -94q-131 0 -230 52.5t-154 148.5
q-74 -94 -180.5 -147.5t-236.5 -53.5q-134 0 -237 54t-160.5 156.5t-57.5 243.5q0 160 71 302.5t203 230t306 87.5q125 0 221.5 -51t150.5 -145q73 91 176.5 143.5t230.5 52.5q133 0 233 -53zM687 210.5q74 71.5 111 180.5t37 217q0 136 -58 209.5t-161 73.5
q-105 0 -179.5 -72t-111.5 -180.5t-37 -216.5q0 -136 58 -209.5t163 -73.5q104 0 178 71.5zM1607 629q3 23 3 43q0 64 -26.5 113.5t-76 77.5t-118.5 28q-110 0 -184 -71.5t-107 -190.5h509z" />
    <glyph glyph-name="Racute" unicode="&#x154;" horiz-adv-x="1245" 
d="M1230 817q-48 -94 -140.5 -158t-222.5 -90l222 -544q2 -4 2 -10q0 -15 -18 -15h-237q-19 0 -25 17l-95 256l-114 276h-256l-110 -530q-4 -19 -24 -19h-209q-11 0 -16.5 6.5t-2.5 17.5l169 685l145 672q3 19 24 19h501q230 0 342.5 -101t112.5 -272q0 -116 -48 -210z
M980.5 1164q-55.5 56 -179.5 56h-290l-119 -481l-2 -10h320q108 0 181 36.5t109 99.5t36 145q0 98 -55.5 154zM651 1507q-3 -1 -8 -1q-14 0 -19 16l-25 86q-1 3 -1 7q0 14 14 20l471 193q3 2 10 2q12 0 17 -16l38 -141q1 -3 1 -8q0 -7 -4.5 -12t-11.5 -6z" />
    <glyph glyph-name="racute" unicode="&#x155;" horiz-adv-x="753" 
d="M-11 0q-11 0 -16.5 6.5t-2.5 17.5l122 497l106 490q3 19 24 19h196q11 0 16.5 -6.5t2.5 -17.5l-44 -163q78 95 179 145.5t208 50.5q28 0 47 -5q10 -1 14 -8t2 -17l-32 -139q-4 -19 -25 -17q-20 3 -41 3q-87 0 -172 -41t-151 -117.5t-97 -178.5l-113 -500q-1 -9 -7.5 -14
t-15.5 -5h-200zM384 1137q-3 -1 -8 -1q-14 0 -19 16l-25 86q-1 3 -1 7q0 14 14 20l471 193q3 2 10 2q12 0 17 -16l38 -141q1 -3 1 -8q0 -7 -4.5 -12t-11.5 -6z" />
    <glyph glyph-name="uni0156" unicode="&#x156;" horiz-adv-x="1245" 
d="M1230 817q-48 -94 -140.5 -158t-222.5 -90l222 -544q2 -4 2 -10q0 -15 -18 -15h-237q-19 0 -25 17l-95 256l-114 276h-256l-110 -530q-4 -19 -24 -19h-209q-11 0 -16.5 6.5t-2.5 17.5l169 685l145 672q3 19 24 19h501q230 0 342.5 -101t112.5 -272q0 -116 -48 -210z
M980.5 1164q-55.5 56 -179.5 56h-290l-119 -481l-2 -10h320q108 0 181 36.5t109 99.5t36 145q0 98 -55.5 154zM289 -466q-18 0 -18 15q0 5 3 11l76 160l41 178q1 9 7.5 14t15.5 5h201q11 0 16 -6.5t3 -17.5l-36 -157q-3 -14 -14 -24l-179 -167q-13 -11 -27 -11h-89z" />
    <glyph glyph-name="uni0157" unicode="&#x157;" horiz-adv-x="753" 
d="M-11 0q-11 0 -16.5 6.5t-2.5 17.5l122 497l106 490q3 19 24 19h196q11 0 16.5 -6.5t2.5 -17.5l-44 -163q78 95 179 145.5t208 50.5q28 0 47 -5q10 -1 14 -8t2 -17l-32 -139q-4 -19 -25 -17q-20 3 -41 3q-87 0 -172 -41t-151 -117.5t-97 -178.5l-113 -500q-1 -9 -7.5 -14
t-15.5 -5h-200zM-154 -466q-18 0 -18 15q0 5 3 11l76 160l41 178q1 9 7.5 14t15.5 5h201q11 0 16 -6.5t3 -17.5l-36 -157q-3 -14 -14 -24l-179 -167q-13 -11 -27 -11h-89z" />
    <glyph glyph-name="Rcaron" unicode="&#x158;" horiz-adv-x="1245" 
d="M1230 817q-48 -94 -140.5 -158t-222.5 -90l222 -544q2 -4 2 -10q0 -15 -18 -15h-237q-19 0 -25 17l-95 256l-114 276h-256l-110 -530q-4 -19 -24 -19h-209q-11 0 -16.5 6.5t-2.5 17.5l169 685l145 672q3 19 24 19h501q230 0 342.5 -101t112.5 -272q0 -116 -48 -210z
M980.5 1164q-55.5 56 -179.5 56h-290l-119 -481l-2 -10h320q108 0 181 36.5t109 99.5t36 145q0 98 -55.5 154zM501 1702q-9 8 -9 17q0 8 4 13l46 76q7 12 18 12q5 0 11 -3l258 -129l298 130q6 3 11 3q12 0 17 -14l35 -77q3 -6 3 -11q0 -12 -12 -18l-311 -179q-11 -7 -27 -7
h-71q-15 0 -27 8z" />
    <glyph glyph-name="rcaron" unicode="&#x159;" horiz-adv-x="753" 
d="M-11 0q-11 0 -16.5 6.5t-2.5 17.5l122 497l106 490q3 19 24 19h196q11 0 16.5 -6.5t2.5 -17.5l-44 -163q78 95 179 145.5t208 50.5q28 0 47 -5q10 -1 14 -8t2 -17l-32 -139q-4 -19 -25 -17q-20 3 -41 3q-87 0 -172 -41t-151 -117.5t-97 -178.5l-113 -500q-1 -9 -7.5 -14
t-15.5 -5h-200zM234 1332q-9 8 -9 17q0 8 4 13l46 76q7 12 18 12q5 0 11 -3l258 -129l298 130q6 3 11 3q12 0 17 -14l35 -77q3 -6 3 -11q0 -12 -12 -18l-311 -179q-11 -7 -27 -7h-71q-15 0 -27 8z" />
    <glyph glyph-name="Sacute" unicode="&#x15a;" horiz-adv-x="1264" 
d="M313.5 24q-133.5 52 -211.5 154t-78 247q0 20 1 31q2 21 22 21h213q21 0 21 -21q1 -139 87.5 -218.5t253.5 -79.5q108 0 179.5 32t104.5 83t33 107q0 65 -43 106.5t-106.5 66t-175.5 55.5q-143 40 -230.5 76.5t-149.5 109t-62 191.5q0 122 67 222.5t197.5 160t313.5 59.5
q151 0 271.5 -44t191.5 -138.5t71 -238.5v-2q0 -9 -6 -14t-15 -5h-214q-20 0 -22 21q-6 117 -82.5 176t-211.5 59q-90 0 -160 -25.5t-109 -73t-39 -110.5q0 -61 42 -101t105.5 -63.5t174.5 -54.5q145 -41 234 -78.5t152.5 -110.5t63.5 -191q0 -124 -67.5 -229.5
t-199.5 -168.5t-316 -63q-167 0 -300.5 52zM672 1507q-3 -1 -8 -1q-14 0 -19 16l-25 86q-1 3 -1 7q0 14 14 20l471 193q3 2 10 2q12 0 17 -16l38 -141q1 -3 1 -8q0 -7 -4.5 -12t-11.5 -6z" />
    <glyph glyph-name="sacute" unicode="&#x15b;" horiz-adv-x="1036" 
d="M231 21.5q-106 44.5 -162.5 124.5t-56.5 186q0 22 22 22h190q20 0 22 -22q2 -96 65 -149.5t181 -53.5q70 0 118.5 20t72 52.5t23.5 71.5q0 43 -30.5 71.5t-77.5 46t-127 40.5q-111 32 -180 62t-118.5 88t-49.5 150q0 95 56.5 168t158 113.5t231.5 40.5q129 0 225.5 -38
t151.5 -109.5t62 -170.5v-2q0 -19 -21 -19h-183q-20 0 -22 20q-9 83 -66.5 126.5t-149.5 43.5q-90 0 -145.5 -39.5t-55.5 -102.5q0 -44 31 -72.5t77.5 -46t129.5 -39.5q109 -29 177 -57t116.5 -83t48.5 -145q0 -97 -56 -175t-161 -122.5t-247 -44.5q-144 0 -250 44.5z
M511 1137q-3 -1 -8 -1q-14 0 -19 16l-25 86q-1 3 -1 7q0 14 14 20l471 193q3 2 10 2q12 0 17 -16l38 -141q1 -3 1 -8q0 -7 -4.5 -12t-11.5 -6z" />
    <glyph glyph-name="Scircumflex" unicode="&#x15c;" horiz-adv-x="1264" 
d="M313.5 24q-133.5 52 -211.5 154t-78 247q0 20 1 31q2 21 22 21h213q21 0 21 -21q1 -139 87.5 -218.5t253.5 -79.5q108 0 179.5 32t104.5 83t33 107q0 65 -43 106.5t-106.5 66t-175.5 55.5q-143 40 -230.5 76.5t-149.5 109t-62 191.5q0 122 67 222.5t197.5 160t313.5 59.5
q151 0 271.5 -44t191.5 -138.5t71 -238.5v-2q0 -9 -6 -14t-15 -5h-214q-20 0 -22 21q-6 117 -82.5 176t-211.5 59q-90 0 -160 -25.5t-109 -73t-39 -110.5q0 -61 42 -101t105.5 -63.5t174.5 -54.5q145 -41 234 -78.5t152.5 -110.5t63.5 -191q0 -124 -67.5 -229.5
t-199.5 -168.5t-316 -63q-167 0 -300.5 52zM501 1601q-2 6 -2 10q0 13 12 19l311 179q13 8 27 8h71q13 0 27 -9l243 -179q10 -7 10 -17q0 -8 -4 -13l-47 -76q-6 -11 -17 -11q-6 0 -12 3l-257 128l-298 -130q-4 -2 -10 -2q-14 0 -18 13z" />
    <glyph glyph-name="scircumflex" unicode="&#x15d;" horiz-adv-x="1036" 
d="M231 21.5q-106 44.5 -162.5 124.5t-56.5 186q0 22 22 22h190q20 0 22 -22q2 -96 65 -149.5t181 -53.5q70 0 118.5 20t72 52.5t23.5 71.5q0 43 -30.5 71.5t-77.5 46t-127 40.5q-111 32 -180 62t-118.5 88t-49.5 150q0 95 56.5 168t158 113.5t231.5 40.5q129 0 225.5 -38
t151.5 -109.5t62 -170.5v-2q0 -19 -21 -19h-183q-20 0 -22 20q-9 83 -66.5 126.5t-149.5 43.5q-90 0 -145.5 -39.5t-55.5 -102.5q0 -44 31 -72.5t77.5 -46t129.5 -39.5q109 -29 177 -57t116.5 -83t48.5 -145q0 -97 -56 -175t-161 -122.5t-247 -44.5q-144 0 -250 44.5z
M339 1231q-2 6 -2 10q0 13 12 19l311 179q13 8 27 8h71q13 0 27 -9l243 -179q10 -7 10 -17q0 -8 -4 -13l-47 -76q-6 -11 -17 -11q-6 0 -12 3l-257 128l-298 -130q-4 -2 -10 -2q-14 0 -18 13z" />
    <glyph glyph-name="Scedilla" unicode="&#x15e;" horiz-adv-x="1264" 
d="M1284 1004q0 -9 -6 -14t-15 -5h-214q-20 0 -22 21q-6 117 -82.5 176t-211.5 59q-90 0 -160 -25.5t-109 -73t-39 -110.5q0 -61 42 -101t105.5 -63.5t174.5 -54.5q145 -41 234 -78.5t152.5 -110.5t63.5 -191q0 -117 -60 -217.5t-177 -165.5t-282 -76l-156 -312
q-9 -16 -27 -13l-172 28q-8 2 -12.5 6t-4.5 10q0 4 4 12l165 277q-133 19 -234.5 76t-159 150t-57.5 217q0 21 1 31q2 21 22 21h213q21 0 21 -21q1 -139 87.5 -218.5t253.5 -79.5q108 0 179.5 32t104.5 83t33 107q0 65 -43 106.5t-106.5 66t-175.5 55.5q-143 40 -230.5 76.5
t-149.5 109t-62 191.5q0 122 67 222.5t197.5 160t313.5 59.5q151 0 271.5 -44t191.5 -138.5t71 -238.5v-2z" />
    <glyph glyph-name="scedilla" unicode="&#x15f;" horiz-adv-x="1036" 
d="M1008 733q0 -19 -21 -19h-183q-20 0 -22 20q-9 83 -66.5 126.5t-149.5 43.5q-90 0 -145.5 -39.5t-55.5 -102.5q0 -44 31 -72.5t77.5 -46t129.5 -39.5q109 -29 177 -57t116.5 -83t48.5 -145q0 -92 -50.5 -167t-145.5 -121t-224 -53l-158 -316q-9 -16 -27 -13l-172 28
q-8 2 -12.5 6t-4.5 10q0 4 4 12l171 287q-149 31 -231 121t-83 219q0 22 22 22h190q20 0 22 -22q2 -96 65 -149.5t181 -53.5q70 0 118.5 20t72 52.5t23.5 71.5q0 43 -30.5 71.5t-77.5 46t-127 40.5q-111 32 -180 62t-118.5 88t-49.5 150q0 95 56.5 168t158 113.5t231.5 40.5
q129 0 225.5 -38t151.5 -109.5t62 -170.5v-2z" />
    <glyph glyph-name="Scaron" unicode="&#x160;" horiz-adv-x="1264" 
d="M313.5 24q-133.5 52 -211.5 154t-78 247q0 20 1 31q2 21 22 21h213q21 0 21 -21q1 -139 87.5 -218.5t253.5 -79.5q108 0 179.5 32t104.5 83t33 107q0 65 -43 106.5t-106.5 66t-175.5 55.5q-143 40 -230.5 76.5t-149.5 109t-62 191.5q0 122 67 222.5t197.5 160t313.5 59.5
q151 0 271.5 -44t191.5 -138.5t71 -238.5v-2q0 -9 -6 -14t-15 -5h-214q-20 0 -22 21q-6 117 -82.5 176t-211.5 59q-90 0 -160 -25.5t-109 -73t-39 -110.5q0 -61 42 -101t105.5 -63.5t174.5 -54.5q145 -41 234 -78.5t152.5 -110.5t63.5 -191q0 -124 -67.5 -229.5
t-199.5 -168.5t-316 -63q-167 0 -300.5 52zM522 1702q-9 8 -9 17q0 8 4 13l46 76q7 12 18 12q5 0 11 -3l258 -129l298 130q6 3 11 3q12 0 17 -14l35 -77q3 -6 3 -11q0 -12 -12 -18l-311 -179q-11 -7 -27 -7h-71q-15 0 -27 8z" />
    <glyph glyph-name="scaron" unicode="&#x161;" horiz-adv-x="1036" 
d="M231 21.5q-106 44.5 -162.5 124.5t-56.5 186q0 22 22 22h190q20 0 22 -22q2 -96 65 -149.5t181 -53.5q70 0 118.5 20t72 52.5t23.5 71.5q0 43 -30.5 71.5t-77.5 46t-127 40.5q-111 32 -180 62t-118.5 88t-49.5 150q0 95 56.5 168t158 113.5t231.5 40.5q129 0 225.5 -38
t151.5 -109.5t62 -170.5v-2q0 -19 -21 -19h-183q-20 0 -22 20q-9 83 -66.5 126.5t-149.5 43.5q-90 0 -145.5 -39.5t-55.5 -102.5q0 -44 31 -72.5t77.5 -46t129.5 -39.5q109 -29 177 -57t116.5 -83t48.5 -145q0 -97 -56 -175t-161 -122.5t-247 -44.5q-144 0 -250 44.5z
M361 1332q-9 8 -9 17q0 8 4 13l46 76q7 12 18 12q5 0 11 -3l258 -129l298 130q6 3 11 3q12 0 17 -14l35 -77q3 -6 3 -11q0 -12 -12 -18l-311 -179q-11 -7 -27 -7h-71q-15 0 -27 8z" />
    <glyph glyph-name="uni0162" unicode="&#x162;" horiz-adv-x="1094" 
d="M1263 1400q11 0 16 -6.5t2 -17.5l-32 -140q-4 -19 -23 -19h-385l-132 -521l-142 -677q-1 -9 -7.5 -14t-16.5 -5h-11q0 -2 -2 -6l-167 -329q-9 -18 -27 -14l-171 34q-16 5 -16 16q0 7 4 12l173 287q-11 0 -16 6.5t-2 17.5l170 672l109 521h-379q-11 0 -16 6.5t-3 17.5
l33 140q3 19 23 19h1018z" />
    <glyph glyph-name="uni0163" unicode="&#x163;" horiz-adv-x="694" 
d="M752 1030q11 0 16 -6.5t3 -17.5l-31 -129q-3 -19 -23 -19h-232l-128 -560q-7 -29 -7 -56q0 -45 24 -65.5t71 -20.5q45 0 105 12q3 1 8 1q8 0 11.5 -5.5t1.5 -15.5l-27 -116q-5 -18 -19 -22q-81 -22 -139 -27l-162 -321q-9 -16 -27 -13l-172 28q-16 3 -16 16q0 7 4 12
l185 313q-94 54 -94 179q0 43 12 95l132 566h-110q-11 0 -16 6.5t-3 17.5l31 129q4 19 23 19h114l52 239q3 19 23 19h203q11 0 16.5 -6.5t2.5 -17.5l-57 -234h225z" />
    <glyph glyph-name="Tcaron" unicode="&#x164;" horiz-adv-x="1103" 
d="M327 0q-11 0 -16.5 6.5t-2.5 17.5l170 672l109 521h-379q-11 0 -16 6.5t-3 17.5l33 140q3 19 23 19h1018q11 0 16 -6.5t2 -17.5l-32 -140q-4 -19 -23 -19h-385l-132 -521l-142 -677q-1 -9 -7.5 -14t-16.5 -5h-216zM477 1702q-9 8 -9 17q0 8 4 13l46 76q7 12 18 12
q5 0 11 -3l258 -129l298 130q6 3 11 3q12 0 17 -14l35 -77q3 -6 3 -11q0 -12 -12 -18l-311 -179q-11 -7 -27 -7h-71q-15 0 -27 8z" />
    <glyph glyph-name="tcaron" unicode="&#x165;" horiz-adv-x="694" 
d="M752 1030q11 0 16 -6.5t3 -17.5l-31 -129q-3 -19 -23 -19h-232l-128 -560q-7 -29 -7 -56q0 -45 24 -65.5t71 -20.5q45 0 105 12q3 1 8 1q8 0 11.5 -5.5t1.5 -15.5l-27 -116q-5 -18 -19 -22q-101 -28 -172 -28q-109 0 -179 52t-70 163q0 43 12 95l132 566h-110
q-11 0 -16 6.5t-3 17.5l31 129q4 19 23 19h114l52 239q3 19 23 19h203q11 0 16.5 -6.5t2.5 -17.5l-57 -234h225zM781 1121q-8 -16 -25 -16h-112q-19 0 -19 15q0 2 2 10l155 398q6 17 24 17h155q9 0 14 -4t5 -11q0 -5 -3 -11z" />
    <glyph glyph-name="Tbar" unicode="&#x166;" horiz-adv-x="1103" 
d="M1263 1400q11 0 16 -6.5t2 -17.5l-32 -140q-4 -19 -23 -19h-385l-118 -467h223q11 0 15.5 -6.5t2.5 -17.5l-32 -141q-4 -19 -24 -19h-226l-115 -547q-1 -9 -7.5 -14t-16.5 -5h-216q-11 0 -16.5 6.5t-2.5 17.5l137 542h-224q-11 0 -15.5 6.5t-2.5 17.5l32 141q5 19 24 19
h230l98 467h-379q-11 0 -16 6.5t-3 17.5l33 140q3 19 23 19h1018z" />
    <glyph glyph-name="tbar" unicode="&#x167;" horiz-adv-x="700" 
d="M757 1030q11 0 16.5 -6.5t2.5 -17.5l-30 -129q-4 -19 -23 -19h-232l-51 -223h220q11 0 16 -6.5t3 -17.5l-29 -129q-4 -19 -24 -19h-225l-38 -165q-8 -35 -8 -57q0 -44 24.5 -64.5t71.5 -20.5q43 0 105 12q3 1 8 1q8 0 11 -5.5t1 -15.5l-27 -116q-3 -18 -19 -22
q-99 -28 -172 -28q-109 0 -179 52t-70 163q0 43 12 95l40 171h-113q-11 0 -16.5 6.5t-2.5 17.5l29 129q4 19 24 19h120l52 223h-110q-11 0 -16 6.5t-3 17.5l31 129q3 19 23 19h114l51 239q4 19 24 19h203q11 0 16 -6.5t3 -17.5l-58 -234h225z" />
    <glyph glyph-name="Utilde" unicode="&#x168;" horiz-adv-x="1261" 
d="M300.5 26q-108.5 53 -164.5 148.5t-56 223.5q0 76 19 156l90 383l96 444q4 19 24 19h212q11 0 16 -6.5t2 -17.5l-108 -433l-91 -393q-16 -72 -16 -126q0 -119 65.5 -187.5t195.5 -68.5q138 0 227 84.5t130 258.5l99 427l93 443q4 19 24 19h197q11 0 16.5 -6.5t2.5 -17.5
l-109 -439l-99 -427q-62 -269 -210 -403t-393 -134q-154 0 -262.5 53zM935.5 1551q-31.5 19 -67.5 54q-24 24 -40.5 35.5t-36.5 11.5q-32 0 -49.5 -24.5t-28.5 -72.5q-6 -19 -24 -19h-84q-11 0 -16 6t-3 17q21 110 76 175.5t143 65.5q44 0 76 -19.5t68 -54.5q25 -24 41 -35
t33 -11q34 0 51.5 24t28.5 71q5 20 24 20h83q11 0 16 -8t3 -22q-23 -111 -76.5 -172t-139.5 -61q-46 0 -77.5 19z" />
    <glyph glyph-name="utilde" unicode="&#x169;" horiz-adv-x="1085" 
d="M1095 1030q11 0 16 -6.5t3 -17.5l-114 -457l-117 -530q-4 -19 -24 -19h-190q-11 0 -16.5 6.5t-2.5 17.5l33 133q-61 -80 -152 -130.5t-196 -50.5q-87 0 -154.5 34t-106 101t-38.5 161q0 57 15 124l46 195l92 420q3 19 23 19h203q11 0 16.5 -6.5t2.5 -17.5l-98 -390
l-43 -204q-11 -52 -11 -90q0 -82 40.5 -124.5t115.5 -42.5q107 0 185 90t123 225l37 149l82 392q5 19 24 19h206zM744.5 1181q-31.5 19 -67.5 54q-24 24 -40.5 35.5t-36.5 11.5q-32 0 -49.5 -24.5t-28.5 -72.5q-6 -19 -24 -19h-84q-11 0 -16 6t-3 17q21 110 76 175.5
t143 65.5q44 0 76 -19.5t68 -54.5q25 -24 41 -35t33 -11q34 0 51.5 24t28.5 71q5 20 24 20h83q11 0 16 -8t3 -22q-23 -111 -76.5 -172t-139.5 -61q-46 0 -77.5 19z" />
    <glyph glyph-name="Umacron" unicode="&#x16a;" horiz-adv-x="1261" 
d="M300.5 26q-108.5 53 -164.5 148.5t-56 223.5q0 76 19 156l90 383l96 444q4 19 24 19h212q11 0 16 -6.5t2 -17.5l-108 -433l-91 -393q-16 -72 -16 -126q0 -119 65.5 -187.5t195.5 -68.5q138 0 227 84.5t130 258.5l99 427l93 443q4 19 24 19h197q11 0 16.5 -6.5t2.5 -17.5
l-109 -439l-99 -427q-62 -269 -210 -403t-393 -134q-154 0 -262.5 53zM595 1545q-11 0 -16.5 6.5t-2.5 17.5l29 121q4 19 23 19h576q11 0 16.5 -6.5t2.5 -17.5l-29 -121q-4 -19 -23 -19h-576z" />
    <glyph glyph-name="umacron" unicode="&#x16b;" horiz-adv-x="1085" 
d="M1095 1030q11 0 16 -6.5t3 -17.5l-114 -457l-117 -530q-4 -19 -24 -19h-190q-11 0 -16.5 6.5t-2.5 17.5l33 133q-61 -80 -152 -130.5t-196 -50.5q-87 0 -154.5 34t-106 101t-38.5 161q0 57 15 124l46 195l92 420q3 19 23 19h203q11 0 16.5 -6.5t2.5 -17.5l-98 -390
l-43 -204q-11 -52 -11 -90q0 -82 40.5 -124.5t115.5 -42.5q107 0 185 90t123 225l37 149l82 392q5 19 24 19h206zM404 1175q-11 0 -16.5 6.5t-2.5 17.5l29 121q4 19 23 19h576q11 0 16.5 -6.5t2.5 -17.5l-29 -121q-4 -19 -23 -19h-576z" />
    <glyph glyph-name="Ubreve" unicode="&#x16c;" horiz-adv-x="1261" 
d="M300.5 26q-108.5 53 -164.5 148.5t-56 223.5q0 76 19 156l90 383l96 444q4 19 24 19h212q11 0 16 -6.5t2 -17.5l-108 -433l-91 -393q-16 -72 -16 -126q0 -119 65.5 -187.5t195.5 -68.5q138 0 227 84.5t130 258.5l99 427l93 443q4 19 24 19h197q11 0 16.5 -6.5t2.5 -17.5
l-109 -439l-99 -427q-62 -269 -210 -403t-393 -134q-154 0 -262.5 53zM750 1553q-63 33 -96.5 91t-33.5 131q0 17 1 26q1 21 23 21h115q21 0 21 -23q-3 -55 30.5 -88.5t97.5 -33.5q63 0 106.5 34t61.5 92q6 19 23 19h118q11 0 16.5 -6t4.5 -16q-17 -81 -63 -144.5
t-117.5 -99.5t-160.5 -36q-84 0 -147 33z" />
    <glyph glyph-name="ubreve" unicode="&#x16d;" horiz-adv-x="1085" 
d="M1095 1030q11 0 16 -6.5t3 -17.5l-114 -457l-117 -530q-4 -19 -24 -19h-190q-11 0 -16.5 6.5t-2.5 17.5l33 133q-61 -80 -152 -130.5t-196 -50.5q-87 0 -154.5 34t-106 101t-38.5 161q0 57 15 124l46 195l92 420q3 19 23 19h203q11 0 16.5 -6.5t2.5 -17.5l-98 -390
l-43 -204q-11 -52 -11 -90q0 -82 40.5 -124.5t115.5 -42.5q107 0 185 90t123 225l37 149l82 392q5 19 24 19h206zM559 1183q-63 33 -96.5 91t-33.5 131q0 17 1 26q1 21 23 21h115q21 0 21 -23q-3 -55 30.5 -88.5t97.5 -33.5q63 0 106.5 34t61.5 92q6 19 23 19h118
q11 0 16.5 -6t4.5 -16q-17 -81 -63 -144.5t-117.5 -99.5t-160.5 -36q-84 0 -147 33z" />
    <glyph glyph-name="Uring" unicode="&#x16e;" horiz-adv-x="1261" 
d="M300.5 26q-108.5 53 -164.5 148.5t-56 223.5q0 76 19 156l90 383l96 444q4 19 24 19h212q11 0 16 -6.5t2 -17.5l-108 -433l-91 -393q-16 -72 -16 -126q0 -119 65.5 -187.5t195.5 -68.5q138 0 227 84.5t130 258.5l99 427l93 443q4 19 24 19h197q11 0 16.5 -6.5t2.5 -17.5
l-109 -439l-99 -427q-62 -269 -210 -403t-393 -134q-154 0 -262.5 53zM789.5 1541q-52.5 25 -83 71.5t-30.5 107.5q0 64 33 118.5t91 87t131 32.5q65 0 117.5 -26t82.5 -73t30 -106q0 -64 -33 -118.5t-91.5 -86.5t-131.5 -32q-63 0 -115.5 25zM996.5 1646.5
q35.5 41.5 35.5 104.5q0 55 -28.5 86t-74.5 31q-56 0 -90.5 -43.5t-34.5 -103.5q0 -54 29.5 -85t74.5 -31q53 0 88.5 41.5z" />
    <glyph glyph-name="uring" unicode="&#x16f;" horiz-adv-x="1085" 
d="M1095 1030q11 0 16 -6.5t3 -17.5l-114 -457l-117 -530q-4 -19 -24 -19h-190q-11 0 -16.5 6.5t-2.5 17.5l33 133q-61 -80 -152 -130.5t-196 -50.5q-87 0 -154.5 34t-106 101t-38.5 161q0 57 15 124l46 195l92 420q3 19 23 19h203q11 0 16.5 -6.5t2.5 -17.5l-98 -390
l-43 -204q-11 -52 -11 -90q0 -82 40.5 -124.5t115.5 -42.5q107 0 185 90t123 225l37 149l82 392q5 19 24 19h206zM598.5 1171q-52.5 25 -83 71.5t-30.5 107.5q0 64 33 118.5t91 87t131 32.5q65 0 117.5 -26t82.5 -73t30 -106q0 -64 -33 -118.5t-91.5 -86.5t-131.5 -32
q-63 0 -115.5 25zM805.5 1276.5q35.5 41.5 35.5 104.5q0 55 -28.5 86t-74.5 31q-56 0 -90.5 -43.5t-34.5 -103.5q0 -54 29.5 -85t74.5 -31q53 0 88.5 41.5z" />
    <glyph glyph-name="Uhungarumlaut" unicode="&#x170;" horiz-adv-x="1261" 
d="M300.5 26q-108.5 53 -164.5 148.5t-56 223.5q0 76 19 156l90 383l96 444q4 19 24 19h212q11 0 16 -6.5t2 -17.5l-108 -433l-91 -393q-16 -72 -16 -126q0 -119 65.5 -187.5t195.5 -68.5q138 0 227 84.5t130 258.5l99 427l93 443q4 19 24 19h197q11 0 16.5 -6.5t2.5 -17.5
l-109 -439l-99 -427q-62 -269 -210 -403t-393 -134q-154 0 -262.5 53zM706 1536q-7 -6 -15 -6q-7 0 -15 8l-42 43q-7 7 -7 16q0 8 6 15l305 323q8 8 15 8t15 -9l72 -89q6 -7 6 -14q0 -8 -9 -16zM1040 1529q-7 -7 -15 -7t-16 8l-42 42q-7 7 -7 16q0 8 7 15l306 323q8 8 16 8
t15 -9l71 -87q6 -7 6 -15q0 -7 -9 -15z" />
    <glyph glyph-name="uhungarumlaut" unicode="&#x171;" horiz-adv-x="1085" 
d="M1095 1030q11 0 16 -6.5t3 -17.5l-114 -457l-117 -530q-4 -19 -24 -19h-190q-11 0 -16.5 6.5t-2.5 17.5l33 133q-61 -80 -152 -130.5t-196 -50.5q-87 0 -154.5 34t-106 101t-38.5 161q0 57 15 124l46 195l92 420q3 19 23 19h203q11 0 16.5 -6.5t2.5 -17.5l-98 -390
l-43 -204q-11 -52 -11 -90q0 -82 40.5 -124.5t115.5 -42.5q107 0 185 90t123 225l37 149l82 392q5 19 24 19h206zM515 1166q-7 -6 -15 -6q-7 0 -15 8l-42 43q-7 7 -7 16q0 8 6 15l305 323q8 8 15 8t15 -9l72 -89q6 -7 6 -14q0 -8 -9 -16zM849 1159q-7 -7 -15 -7t-16 8
l-42 42q-7 7 -7 16q0 8 7 15l306 323q8 8 16 8t15 -9l71 -87q6 -7 6 -15q0 -7 -9 -15z" />
    <glyph glyph-name="Uogonek" unicode="&#x172;" horiz-adv-x="1261" 
d="M1355 1400q11 0 16.5 -6.5t2.5 -17.5l-109 -439l-99 -427q-62 -269 -210 -403t-393 -134h-20q-33 -27 -54 -63t-21 -72q0 -77 109 -77h69q11 0 16 -6.5t3 -17.5l-28 -118q-1 -9 -7.5 -14t-15.5 -5h-94q-79 0 -135.5 24t-85 66.5t-28.5 97.5q0 61 35.5 112.5t97.5 89.5
q-157 36 -240.5 143.5t-83.5 264.5q0 76 19 156l90 383l96 444q4 19 24 19h212q11 0 16 -6.5t2 -17.5l-108 -433l-91 -393q-16 -72 -16 -126q0 -119 65.5 -187.5t195.5 -68.5q138 0 227 84.5t130 258.5l99 427l93 443q4 19 24 19h197z" />
    <glyph glyph-name="uogonek" unicode="&#x173;" horiz-adv-x="1085" 
d="M1095 1030q11 0 16 -6.5t3 -17.5l-114 -457l-117 -530q-4 -19 -24 -19h-66q-45 -24 -79 -70t-34 -92q0 -77 109 -77h69q11 0 16 -6.5t3 -17.5l-28 -118q-1 -9 -7.5 -14t-15.5 -5h-94q-79 0 -135.5 24t-85 66.5t-28.5 97.5q0 70 45.5 127t122.5 94q-4 7 -1 15l33 133
q-61 -80 -152 -130.5t-196 -50.5q-87 0 -154.5 34t-106 101t-38.5 161q0 57 15 124l46 195l92 420q3 19 23 19h203q11 0 16.5 -6.5t2.5 -17.5l-98 -390l-43 -204q-11 -52 -11 -90q0 -82 40.5 -124.5t115.5 -42.5q107 0 185 90t123 225l37 149l82 392q5 19 24 19h206z" />
    <glyph glyph-name="Wcircumflex" unicode="&#x174;" horiz-adv-x="1801" 
d="M257 0q-10 0 -16 5.5t-6 15.5l-19 1358v2q0 19 21 19h192q23 0 21 -21l-16 -1162l512 1167q8 16 25 16h243q11 0 16.5 -6t4.5 -16l-24 -1177l529 1183q8 16 25 16h203q9 0 14 -4t5 -11q0 -4 -3 -10l-654 -1359q-7 -16 -25 -16h-254q-10 0 -15.5 5.5t-5.5 15.5l-12 1040
l-476 -1045q-8 -16 -25 -16h-260zM794 1601q-2 6 -2 10q0 13 12 19l311 179q13 8 27 8h71q13 0 27 -9l243 -179q10 -7 10 -17q0 -8 -4 -13l-47 -76q-6 -11 -17 -11q-6 0 -12 3l-257 128l-298 -130q-4 -2 -10 -2q-14 0 -18 13z" />
    <glyph glyph-name="wcircumflex" unicode="&#x175;" horiz-adv-x="1425" 
d="M154 0q-21 0 -21 21l-13 987q0 10 5.5 16t15.5 6h175q22 0 21 -22l-29 -814l359 820q6 16 25 16h249q22 0 21 -22l-13 -800l343 806q6 16 25 16h200q19 0 19 -14q0 -5 -3 -11l-462 -989q-7 -16 -25 -16h-244q-21 0 -21 21l-3 813l-357 -818q-8 -16 -25 -16h-242z
M518 1231q-2 6 -2 10q0 13 12 19l311 179q13 8 27 8h71q13 0 27 -9l243 -179q10 -7 10 -17q0 -8 -4 -13l-47 -76q-6 -11 -17 -11q-6 0 -12 3l-257 128l-298 -130q-4 -2 -10 -2q-14 0 -18 13z" />
    <glyph glyph-name="Ycircumflex" unicode="&#x176;" horiz-adv-x="1181" 
d="M209 1376q-1 3 -1 8q0 16 19 16h217q19 0 23 -19l167 -672l472 677q11 14 26 14h225q19 0 19 -13q0 -5 -6 -13l-670 -888l-98 -467q-4 -19 -24 -19h-211q-11 0 -16 6.5t-2 17.5l118 464zM489 1601q-2 6 -2 10q0 13 12 19l311 179q13 8 27 8h71q13 0 27 -9l243 -179
q10 -7 10 -17q0 -8 -4 -13l-47 -76q-6 -11 -17 -11q-6 0 -12 3l-257 128l-298 -130q-4 -2 -10 -2q-14 0 -18 13z" />
    <glyph glyph-name="ycircumflex" unicode="&#x177;" horiz-adv-x="986" 
d="M110 -340q-19 0 -19 14q0 4 4 12l188 328l-169 993v5q0 18 20 18h203q20 0 23 -20l94 -712l386 717q8 15 25 15h220q19 0 19 -14q0 -4 -4 -12l-766 -1329q-8 -15 -25 -15h-199zM302 1231q-2 6 -2 10q0 13 12 19l311 179q13 8 27 8h71q13 0 27 -9l243 -179q10 -7 10 -17
q0 -8 -4 -13l-47 -76q-6 -11 -17 -11q-6 0 -12 3l-257 128l-298 -130q-4 -2 -10 -2q-14 0 -18 13z" />
    <glyph glyph-name="Ydieresis" unicode="&#x178;" horiz-adv-x="1181" 
d="M209 1376q-1 3 -1 8q0 16 19 16h217q19 0 23 -19l167 -672l472 677q11 14 26 14h225q19 0 19 -13q0 -5 -6 -13l-670 -888l-98 -467q-4 -19 -24 -19h-211q-11 0 -16 6.5t-2 17.5l118 464zM555 1515q-11 0 -16 6.5t-3 17.5l45 188q4 19 23 19h160q11 0 16 -7t3 -17
l-45 -188q-4 -19 -23 -19h-160zM921 1515q-11 0 -16 6.5t-3 17.5l45 188q4 19 24 19h159q11 0 16 -6.5t3 -17.5l-45 -188q-4 -19 -23 -19h-160z" />
    <glyph glyph-name="Zacute" unicode="&#x179;" horiz-adv-x="1160" 
d="M-49 0q-11 0 -16 6.5t-3 17.5l38 163q4 12 14 24l992 1006h-690q-11 0 -16 6.5t-2 17.5l32 140q4 19 23 19h966q11 0 16 -6.5t3 -17.5l-40 -169q-2 -12 -14 -24l-984 -1000h744q23 0 18 -24l-32 -140q-1 -9 -7.5 -14t-15.5 -5h-1026zM654 1507q-3 -1 -8 -1q-14 0 -19 16
l-25 86q-1 3 -1 7q0 14 14 20l471 193q3 2 10 2q12 0 17 -16l38 -141q1 -3 1 -8q0 -7 -4.5 -12t-11.5 -6z" />
    <glyph glyph-name="zacute" unicode="&#x17a;" horiz-adv-x="967" 
d="M-30 0q-11 0 -16.5 7t-2.5 17l31 135q3 15 13 24l666 674h-451q-11 0 -16.5 6.5t-2.5 17.5l31 130q3 19 23 19h727q11 0 16 -6.5t3 -17.5l-32 -137q-3 -14 -14 -24l-671 -672h527q11 0 16 -7t3 -17l-30 -130q-5 -19 -23 -19h-797zM479 1137q-3 -1 -8 -1q-14 0 -19 16
l-25 86q-1 3 -1 7q0 14 14 20l471 193q3 2 10 2q12 0 17 -16l38 -141q1 -3 1 -8q0 -7 -4.5 -12t-11.5 -6z" />
    <glyph glyph-name="Zdotaccent" unicode="&#x17b;" horiz-adv-x="1160" 
d="M-49 0q-11 0 -16 6.5t-3 17.5l38 163q4 12 14 24l992 1006h-690q-11 0 -16 6.5t-2 17.5l32 140q4 19 23 19h966q11 0 16 -6.5t3 -17.5l-40 -169q-2 -12 -14 -24l-984 -1000h744q23 0 18 -24l-32 -140q-1 -9 -7.5 -14t-15.5 -5h-1026zM713 1515q-11 0 -16.5 6.5t-2.5 17.5
l44 188q6 19 24 19h199q11 0 16.5 -7t2.5 -17l-45 -188q-4 -19 -23 -19h-199z" />
    <glyph glyph-name="zdotaccent" unicode="&#x17c;" horiz-adv-x="967" 
d="M-30 0q-11 0 -16.5 7t-2.5 17l31 135q3 15 13 24l666 674h-451q-11 0 -16.5 6.5t-2.5 17.5l31 130q3 19 23 19h727q11 0 16 -6.5t3 -17.5l-32 -137q-3 -14 -14 -24l-671 -672h527q11 0 16 -7t3 -17l-30 -130q-5 -19 -23 -19h-797zM538 1145q-11 0 -16.5 6.5t-2.5 17.5
l44 188q6 19 24 19h199q11 0 16.5 -7t2.5 -17l-45 -188q-4 -19 -23 -19h-199z" />
    <glyph glyph-name="Zcaron" unicode="&#x17d;" horiz-adv-x="1160" 
d="M-49 0q-11 0 -16 6.5t-3 17.5l38 163q4 12 14 24l992 1006h-690q-11 0 -16 6.5t-2 17.5l32 140q4 19 23 19h966q11 0 16 -6.5t3 -17.5l-40 -169q-2 -12 -14 -24l-984 -1000h744q23 0 18 -24l-32 -140q-1 -9 -7.5 -14t-15.5 -5h-1026zM504 1702q-9 8 -9 17q0 8 4 13l46 76
q7 12 18 12q5 0 11 -3l258 -129l298 130q6 3 11 3q12 0 17 -14l35 -77q3 -6 3 -11q0 -12 -12 -18l-311 -179q-11 -7 -27 -7h-71q-15 0 -27 8z" />
    <glyph glyph-name="zcaron" unicode="&#x17e;" horiz-adv-x="967" 
d="M-30 0q-11 0 -16.5 7t-2.5 17l31 135q3 15 13 24l666 674h-451q-11 0 -16.5 6.5t-2.5 17.5l31 130q3 19 23 19h727q11 0 16 -6.5t3 -17.5l-32 -137q-3 -14 -14 -24l-671 -672h527q11 0 16 -7t3 -17l-30 -130q-5 -19 -23 -19h-797zM328 1332q-9 8 -9 17q0 8 4 13l46 76
q7 12 18 12q5 0 11 -3l258 -129l298 130q6 3 11 3q12 0 17 -14l35 -77q3 -6 3 -11q0 -12 -12 -18l-311 -179q-11 -7 -27 -7h-71q-15 0 -27 8z" />
    <glyph glyph-name="florin" unicode="&#x192;" horiz-adv-x="767" 
d="M909 1400q4 -7 2 -17l-30 -127q-1 -7 -6 -11.5t-12 -4.5q-5 0 -8 1q-39 9 -98 9q-58 0 -98 -37.5t-60 -122.5l-13 -60h220q11 0 16.5 -6.5t2.5 -17.5l-31 -129q-3 -19 -23 -19h-225l-57 -242l-153 -663q-25 -110 -82.5 -180t-133 -101.5t-159.5 -31.5q-73 0 -152 15
q-21 4 -16 26l30 126q5 21 26 16q37 -10 98 -10q121 0 158 161l150 649l54 235h-133q-11 0 -16 6.5t-3 17.5l31 129q1 9 7.5 14t15.5 5h138l19 81q25 109 82.5 179t133.5 102t159 32q68 0 152 -16q10 -1 14 -8z" />
    <glyph glyph-name="Ohorn" unicode="&#x1a0;" horiz-adv-x="1487" 
d="M1562 1534q9 -6 9 -15q0 -8 -7 -15l-233 -251q77 -79 118.5 -188.5t41.5 -245.5q0 -208 -93.5 -403.5t-272 -319t-420.5 -123.5q-182 0 -323.5 72t-221 209.5t-79.5 327.5q0 208 94 403t273 318.5t422 123.5q199 0 346 -85l206 271q6 9 15 9q8 0 14 -6zM1008.5 266.5
q118.5 104.5 174.5 258t56 300.5q0 133 -47.5 226t-132.5 140t-198 47q-177 0 -296 -104.5t-175 -257.5t-56 -301q0 -134 47.5 -226.5t133 -139.5t199.5 -47q176 0 294.5 104.5z" />
    <glyph glyph-name="ohorn" unicode="&#x1a1;" horiz-adv-x="1127" 
d="M1192 1164q9 -9 9 -17q0 -7 -6 -13l-212 -231q99 -118 99 -304q0 -156 -69 -299t-200.5 -232.5t-309.5 -89.5q-134 0 -237.5 53t-162 155.5t-58.5 245.5q0 155 68.5 298t200 232.5t310.5 89.5q144 0 251 -61q2 5 4 7l172 244q8 10 17 10q6 0 14 -6zM693.5 213
q73.5 74 109.5 183t36 214q0 135 -60.5 208t-163.5 73q-108 0 -182 -74t-109.5 -183t-35.5 -214q0 -135 60.5 -208t163.5 -73q108 0 181.5 74z" />
    <glyph glyph-name="Uhorn" unicode="&#x1af;" horiz-adv-x="1261" 
d="M1528 1534q9 -7 9 -15q0 -6 -7 -15l-168 -175l-97 -392l-99 -427q-62 -269 -210 -403t-393 -134q-154 0 -262.5 53t-164.5 148.5t-56 223.5q0 76 19 156l90 383l96 444q4 19 24 19h212q11 0 16 -6.5t2 -17.5l-108 -433l-91 -393q-16 -72 -16 -126q0 -119 65.5 -187.5
t195.5 -68.5q138 0 227 84.5t130 258.5l99 427l93 443q4 19 24 19h85l144 211q8 11 17 11q7 0 14 -6z" />
    <glyph glyph-name="uhorn" unicode="&#x1b0;" horiz-adv-x="1085" 
d="M1273 1164q9 -7 9 -15q0 -6 -7 -15l-174 -182l-101 -403l-117 -530q-4 -19 -24 -19h-190q-11 0 -16.5 6.5t-2.5 17.5l33 133q-61 -80 -152 -130.5t-196 -50.5q-87 0 -154.5 34t-106 101t-38.5 161q0 57 15 124l46 195l92 420q3 19 23 19h203q11 0 16.5 -6.5t2.5 -17.5
l-98 -390l-43 -204q-11 -52 -11 -90q0 -82 40.5 -124.5t115.5 -42.5q107 0 185 90t123 225l37 149l82 392q5 19 24 19h99l144 211q8 11 17 11q7 0 14 -6z" />
    <glyph glyph-name="uni0218" unicode="&#x218;" horiz-adv-x="1264" 
d="M313.5 24q-133.5 52 -211.5 154t-78 247q0 20 1 31q2 21 22 21h213q21 0 21 -21q1 -139 87.5 -218.5t253.5 -79.5q108 0 179.5 32t104.5 83t33 107q0 65 -43 106.5t-106.5 66t-175.5 55.5q-143 40 -230.5 76.5t-149.5 109t-62 191.5q0 122 67 222.5t197.5 160t313.5 59.5
q151 0 271.5 -44t191.5 -138.5t71 -238.5v-2q0 -9 -6 -14t-15 -5h-214q-20 0 -22 21q-6 117 -82.5 176t-211.5 59q-90 0 -160 -25.5t-109 -73t-39 -110.5q0 -61 42 -101t105.5 -63.5t174.5 -54.5q145 -41 234 -78.5t152.5 -110.5t63.5 -191q0 -124 -67.5 -229.5
t-199.5 -168.5t-316 -63q-167 0 -300.5 52zM326 -466q-18 0 -18 15q0 5 3 11l76 160l41 178q1 9 7.5 14t15.5 5h201q11 0 16 -6.5t3 -17.5l-36 -157q-3 -14 -14 -24l-179 -167q-13 -11 -27 -11h-89z" />
    <glyph glyph-name="uni0219" unicode="&#x219;" horiz-adv-x="1036" 
d="M231 21.5q-106 44.5 -162.5 124.5t-56.5 186q0 22 22 22h190q20 0 22 -22q2 -96 65 -149.5t181 -53.5q70 0 118.5 20t72 52.5t23.5 71.5q0 43 -30.5 71.5t-77.5 46t-127 40.5q-111 32 -180 62t-118.5 88t-49.5 150q0 95 56.5 168t158 113.5t231.5 40.5q129 0 225.5 -38
t151.5 -109.5t62 -170.5v-2q0 -19 -21 -19h-183q-20 0 -22 20q-9 83 -66.5 126.5t-149.5 43.5q-90 0 -145.5 -39.5t-55.5 -102.5q0 -44 31 -72.5t77.5 -46t129.5 -39.5q109 -29 177 -57t116.5 -83t48.5 -145q0 -97 -56 -175t-161 -122.5t-247 -44.5q-144 0 -250 44.5z
M172 -466q-18 0 -18 15q0 5 3 11l76 160l41 178q1 9 7.5 14t15.5 5h201q11 0 16 -6.5t3 -17.5l-36 -157q-3 -14 -14 -24l-179 -167q-13 -11 -27 -11h-89z" />
    <glyph glyph-name="uni021A" unicode="&#x21a;" horiz-adv-x="1103" 
d="M327 0q-11 0 -16.5 6.5t-2.5 17.5l170 672l109 521h-379q-11 0 -16 6.5t-3 17.5l33 140q3 19 23 19h1018q11 0 16 -6.5t2 -17.5l-32 -140q-4 -19 -23 -19h-385l-132 -521l-142 -677q-1 -9 -7.5 -14t-16.5 -5h-216zM192 -466q-18 0 -18 15q0 5 3 11l76 160l41 178
q1 9 7.5 14t15.5 5h201q11 0 16 -6.5t3 -17.5l-36 -157q-3 -14 -14 -24l-179 -167q-13 -11 -27 -11h-89z" />
    <glyph glyph-name="uni021B" unicode="&#x21b;" horiz-adv-x="694" 
d="M752 1030q11 0 16 -6.5t3 -17.5l-31 -129q-3 -19 -23 -19h-232l-128 -560q-7 -29 -7 -56q0 -45 24 -65.5t71 -20.5q45 0 105 12q3 1 8 1q8 0 11.5 -5.5t1.5 -15.5l-27 -116q-5 -18 -19 -22q-101 -28 -172 -28q-109 0 -179 52t-70 163q0 43 12 95l132 566h-110
q-11 0 -16 6.5t-3 17.5l31 129q4 19 23 19h114l52 239q3 19 23 19h203q11 0 16.5 -6.5t2.5 -17.5l-57 -234h225zM35 -466q-18 0 -18 15q0 5 3 11l76 160l41 178q1 9 7.5 14t15.5 5h201q11 0 16 -6.5t3 -17.5l-36 -157q-3 -14 -14 -24l-179 -167q-13 -11 -27 -11h-89z" />
    <glyph glyph-name="uni0237" unicode="&#x237;" horiz-adv-x="432" 
d="M-81 -340q-11 0 -16 6.5t-2 17.5l159 658l147 669q3 19 23 19h205q11 0 16 -6.5t3 -17.5l-162 -664l-144 -663q-4 -19 -24 -19h-205z" />
    <glyph glyph-name="uni0259" unicode="&#x259;" horiz-adv-x="1100" 
d="M249 30.5q-100 52.5 -154.5 148.5t-54.5 223q0 65 15 135q3 19 23 19h739q3 27 3 54q0 139 -64 210t-177 71q-95 0 -161.5 -50t-100.5 -152q-6 -19 -25 -19h-184q-19 0 -19 16q0 5 1 8q49 173 177 265.5t317 92.5q140 0 246 -52.5t165.5 -154.5t59.5 -246
q0 -156 -67.5 -299t-197.5 -232.5t-307 -89.5q-134 0 -234 52.5zM279 401q-3 -22 -3 -44q0 -64 26 -114t75.5 -78t118.5 -28q114 0 188 72t109 192h-514z" />
    <glyph glyph-name="quoteleft" unicode="&#x2bb;" horiz-adv-x="384" 
d="M526 1400q17 0 17 -14q0 -5 -3 -11l-97 -194l-50 -218q-5 -19 -23 -19h-189q-11 0 -16 6.5t-2 17.5l45 198q4 14 13 24l187 198q9 12 27 12h91z" />
    <glyph glyph-name="quoteleft" unicode="&#x2018;" horiz-adv-x="384" 
d="M526 1400q17 0 17 -14q0 -5 -3 -11l-97 -194l-50 -218q-5 -19 -23 -19h-189q-11 0 -16 6.5t-2 17.5l45 198q4 14 13 24l187 198q9 12 27 12h91z" />
    <glyph glyph-name="quoteright" unicode="&#x2bc;" horiz-adv-x="384" 
d="M162 944q-8 0 -12.5 3.5t-4.5 10.5q0 2 4 12l97 193l50 218q1 9 7.5 14t15.5 5h189q23 0 18 -24l-45 -198q-4 -14 -13 -24l-187 -198q-12 -12 -27 -12h-92z" />
    <glyph glyph-name="quoteright" unicode="&#x2019;" horiz-adv-x="384" 
d="M162 944q-8 0 -12.5 3.5t-4.5 10.5q0 2 4 12l97 193l50 218q1 9 7.5 14t15.5 5h189q23 0 18 -24l-45 -198q-4 -14 -13 -24l-187 -198q-12 -12 -27 -12h-92z" />
    <glyph glyph-name="circumflex" unicode="&#x2c6;" horiz-adv-x="921" 
d="M268 1231q-2 6 -2 10q0 13 12 19l311 179q13 8 27 8h71q13 0 27 -9l243 -179q10 -7 10 -17q0 -8 -4 -13l-47 -76q-6 -11 -17 -11q-6 0 -12 3l-257 128l-298 -130q-4 -2 -10 -2q-14 0 -18 13z" />
    <glyph glyph-name="caron" unicode="&#x2c7;" horiz-adv-x="922" 
d="M303 1332q-9 8 -9 17q0 8 4 13l46 76q7 12 18 12q5 0 11 -3l258 -129l298 130q6 3 11 3q12 0 17 -14l35 -77q3 -6 3 -11q0 -12 -12 -18l-311 -179q-11 -7 -27 -7h-71q-15 0 -27 8z" />
    <glyph glyph-name="breve" unicode="&#x2d8;" horiz-adv-x="829" 
d="M428 1183q-63 33 -96.5 91t-33.5 131q0 17 1 26q1 21 23 21h115q21 0 21 -23q-3 -55 30.5 -88.5t97.5 -33.5q63 0 106.5 34t61.5 92q6 19 23 19h118q11 0 16.5 -6t4.5 -16q-17 -81 -63 -144.5t-117.5 -99.5t-160.5 -36q-84 0 -147 33z" />
    <glyph glyph-name="dotaccent" unicode="&#x2d9;" horiz-adv-x="444" 
d="M270 1145q-11 0 -16.5 6.5t-2.5 17.5l44 188q6 19 24 19h199q11 0 16.5 -7t2.5 -17l-45 -188q-4 -19 -23 -19h-199z" />
    <glyph glyph-name="ring" unicode="&#x2da;" horiz-adv-x="682" 
d="M413.5 1171q-52.5 25 -83 71.5t-30.5 107.5q0 64 33 118.5t91 87t131 32.5q65 0 117.5 -26t82.5 -73t30 -106q0 -64 -33 -118.5t-91.5 -86.5t-131.5 -32q-63 0 -115.5 25zM620.5 1276.5q35.5 41.5 35.5 104.5q0 55 -28.5 86t-74.5 31q-56 0 -90.5 -43.5t-34.5 -103.5
q0 -54 29.5 -85t74.5 -31q53 0 88.5 41.5z" />
    <glyph glyph-name="ogonek" unicode="&#x2db;" horiz-adv-x="605" 
d="M179 -400q-79 0 -135.5 24t-85 66.5t-28.5 97.5q0 64 39 118t104.5 90.5t143.5 53.5h6q15 0 21 -13l5 -9q3 -6 3 -11q0 -9 -12 -17q-45 -24 -79 -70t-34 -92q0 -77 109 -77h69q11 0 16 -6.5t3 -17.5l-28 -118q-1 -9 -7.5 -14t-15.5 -5h-94z" />
    <glyph glyph-name="tilde" unicode="&#x2dc;" horiz-adv-x="799" 
d="M607.5 1181q-31.5 19 -67.5 54q-24 24 -40.5 35.5t-36.5 11.5q-32 0 -49.5 -24.5t-28.5 -72.5q-6 -19 -24 -19h-84q-11 0 -16 6t-3 17q21 110 76 175.5t143 65.5q44 0 76 -19.5t68 -54.5q25 -24 41 -35t33 -11q34 0 51.5 24t28.5 71q5 20 24 20h83q11 0 16 -8t3 -22
q-23 -111 -76.5 -172t-139.5 -61q-46 0 -77.5 19z" />
    <glyph glyph-name="hungarumlaut" unicode="&#x2dd;" horiz-adv-x="918" 
d="M351 1166q-7 -6 -15 -6q-7 0 -15 8l-42 43q-7 7 -7 16q0 8 6 15l305 323q8 8 15 8t15 -9l72 -89q6 -7 6 -14q0 -8 -9 -16zM685 1159q-7 -7 -15 -7t-16 8l-42 42q-7 7 -7 16q0 8 7 15l306 323q8 8 16 8t15 -9l71 -87q6 -7 6 -15q0 -7 -9 -15z" />
    <glyph glyph-name="gravecomb" unicode="&#x300;" 
d="M-7 1144q-4 -15 -19 -15q-5 0 -8 1l-446 151q-15 6 -15 18q0 2 2 10l51 137q6 15 18 15q5 0 11 -3l426 -203q13 -6 13 -18q0 -4 -2 -10z" />
    <glyph glyph-name="acutecomb" unicode="&#x301;" 
d="M-432 1137q-3 -1 -8 -1q-14 0 -19 16l-25 86q-1 3 -1 7q0 14 14 20l471 193q3 2 10 2q12 0 17 -16l38 -141q1 -3 1 -8q0 -7 -4.5 -12t-11.5 -6z" />
    <glyph glyph-name="uni0302" unicode="&#x302;" 
d="M-653 1231q-2 6 -2 10q0 13 12 19l311 179q13 8 27 8h71q13 0 27 -9l243 -179q10 -7 10 -17q0 -8 -4 -13l-47 -76q-6 -11 -17 -11q-6 0 -12 3l-257 128l-298 -130q-4 -2 -10 -2q-14 0 -18 13z" />
    <glyph glyph-name="tildecomb" unicode="&#x303;" 
d="M-191.5 1181q-31.5 19 -67.5 54q-24 24 -40.5 35.5t-36.5 11.5q-32 0 -49.5 -24.5t-28.5 -72.5q-6 -19 -24 -19h-84q-11 0 -16 6t-3 17q21 110 76 175.5t143 65.5q44 0 76 -19.5t68 -54.5q25 -24 41 -35t33 -11q34 0 51.5 24t28.5 71q5 20 24 20h83q11 0 16 -8t3 -22
q-23 -111 -76.5 -172t-139.5 -61q-46 0 -77.5 19z" />
    <glyph glyph-name="uni0304" unicode="&#x304;" 
d="M-542 1175q-11 0 -16.5 6.5t-2.5 17.5l29 121q4 19 23 19h576q11 0 16.5 -6.5t2.5 -17.5l-29 -121q-4 -19 -23 -19h-576z" />
    <glyph glyph-name="uni0306" unicode="&#x306;" 
d="M-401 1183q-63 33 -96.5 91t-33.5 131q0 17 1 26q1 21 23 21h115q21 0 21 -23q-3 -55 30.5 -88.5t97.5 -33.5q63 0 106.5 34t61.5 92q6 19 23 19h118q11 0 16.5 -6t4.5 -16q-17 -81 -63 -144.5t-117.5 -99.5t-160.5 -36q-84 0 -147 33z" />
    <glyph glyph-name="uni0307" unicode="&#x307;" 
d="M-174 1145q-11 0 -16.5 6.5t-2.5 17.5l44 188q6 19 24 19h199q11 0 16.5 -7t2.5 -17l-45 -188q-4 -19 -23 -19h-199z" />
    <glyph glyph-name="uni0308" unicode="&#x308;" 
d="M-502 1145q-11 0 -16 6.5t-3 17.5l45 188q4 19 23 19h160q11 0 16 -7t3 -17l-45 -188q-4 -19 -23 -19h-160zM-136 1145q-11 0 -16 6.5t-3 17.5l45 188q4 19 24 19h159q11 0 16 -6.5t3 -17.5l-45 -188q-4 -19 -23 -19h-160z" />
    <glyph glyph-name="hookabovecomb" unicode="&#x309;" 
d="M-264 1154q-11 0 -16.5 6.5t-2.5 17.5q10 35 32 59t46.5 37.5t62.5 29.5q40 16 58.5 29.5t18.5 35.5q0 23 -21.5 36t-57.5 13q-73 0 -93 -57q-7 -19 -24 -19h-121q-11 0 -16.5 6.5t-2.5 16.5q23 84 90 128t176 44q107 0 174.5 -41t67.5 -116q0 -42 -18 -70.5t-44.5 -45
t-67.5 -35.5q-35 -16 -54.5 -29t-30.5 -30q-9 -16 -25 -16h-131z" />
    <glyph glyph-name="uni030A" unicode="&#x30a;" 
d="M-268.5 1171q-52.5 25 -83 71.5t-30.5 107.5q0 64 33 118.5t91 87t131 32.5q65 0 117.5 -26t82.5 -73t30 -106q0 -64 -33 -118.5t-91.5 -86.5t-131.5 -32q-63 0 -115.5 25zM-61.5 1276.5q35.5 41.5 35.5 104.5q0 55 -28.5 86t-74.5 31q-56 0 -90.5 -43.5t-34.5 -103.5
q0 -54 29.5 -85t74.5 -31q53 0 88.5 41.5z" />
    <glyph glyph-name="uni030B" unicode="&#x30b;" 
d="M-567 1166q-7 -6 -15 -6q-7 0 -15 8l-42 43q-7 7 -7 16q0 8 6 15l305 323q8 8 15 8t15 -9l72 -89q6 -7 6 -14q0 -8 -9 -16zM-233 1159q-7 -7 -15 -7t-16 8l-42 42q-7 7 -7 16q0 8 7 15l306 323q8 8 16 8t15 -9l71 -87q6 -7 6 -15q0 -7 -9 -15z" />
    <glyph glyph-name="uni030C" unicode="&#x30c;" 
d="M-619 1332q-9 8 -9 17q0 8 4 13l46 76q7 12 18 12q5 0 11 -3l258 -129l298 130q6 3 11 3q12 0 17 -14l35 -77q3 -6 3 -11q0 -12 -12 -18l-311 -179q-11 -7 -27 -7h-71q-15 0 -27 8z" />
    <glyph glyph-name="uni0312" unicode="&#x312;" 
d="M-218 1165q-11 0 -16 6.5t-3 17.5l37 157q2 13 13 24l180 167q13 11 27 11h90q9 0 14 -4t5 -11q0 -5 -3 -11l-79 -160l-42 -178q-1 -9 -7.5 -14t-15.5 -5h-200z" />
    <glyph glyph-name="uni031B" unicode="&#x31b;" 
d="M-197 884q-6 -8 -14 -8q-9 0 -16 10l-57 82q-5 6 -5 15t5 15l172 244q8 10 17 10q7 0 14 -6l110 -82q9 -9 9 -17q0 -7 -6 -13z" />
    <glyph glyph-name="dotbelowcomb" unicode="&#x323;" 
d="M-515 -325q-11 0 -16.5 6.5t-2.5 17.5l45 187q4 19 23 19h200q11 0 16.5 -6.5t2.5 -17.5l-45 -187q-4 -19 -23 -19h-200z" />
    <glyph glyph-name="uni0326" unicode="&#x326;" 
d="M-590 -466q-18 0 -18 15q0 5 3 11l76 160l41 178q1 9 7.5 14t15.5 5h201q11 0 16 -6.5t3 -17.5l-36 -157q-3 -14 -14 -24l-179 -167q-13 -11 -27 -11h-89z" />
    <glyph glyph-name="uni0327" unicode="&#x327;" 
d="M-393 -338q-9 -16 -27 -13l-172 28q-8 2 -12.5 6t-4.5 10q0 4 4 12l189 318q9 16 27 13l149 -15q16 -3 16 -16q0 -5 -3 -11z" />
    <glyph glyph-name="uni0328" unicode="&#x328;" 
d="M-426 -400q-79 0 -135.5 24t-85 66.5t-28.5 97.5q0 64 39 118t104.5 90.5t143.5 53.5h6q15 0 21 -13l5 -9q3 -6 3 -11q0 -9 -12 -17q-45 -24 -79 -70t-34 -92q0 -77 109 -77h69q11 0 16 -6.5t3 -17.5l-28 -118q-1 -9 -7.5 -14t-15.5 -5h-94z" />
    <glyph glyph-name="uni0394" unicode="&#x394;" horiz-adv-x="1366" 
d="M-65 0q-23 0 -18 24l36 158q4 13 11 25l756 1179q8 14 26 14h290q20 0 23 -19l202 -1173q1 -5 1 -13t-2 -13l-38 -163q-1 -9 -7.5 -14t-15.5 -5h-1264zM868 1243l-639 -1048h805z" />
    <glyph glyph-name="uni0394" unicode="&#x2206;" horiz-adv-x="1366" 
d="M-65 0q-23 0 -18 24l36 158q4 13 11 25l756 1179q8 14 26 14h290q20 0 23 -19l202 -1173q1 -5 1 -13t-2 -13l-38 -163q-1 -9 -7.5 -14t-15.5 -5h-1264zM868 1243l-639 -1048h805z" />
    <glyph glyph-name="uni03A9" unicode="&#x3a9;" horiz-adv-x="1512" 
d="M1323 184q11 0 15.5 -6.5t2.5 -17.5l-33 -141q-1 -9 -7.5 -14t-15.5 -5h-499q-11 0 -16 6.5t-2 17.5l32 141q4 19 24 26q135 55 233.5 154t151 224.5t52.5 258.5q0 130 -50.5 222.5t-140.5 140t-208 47.5q-172 0 -286.5 -95t-168 -236.5t-53.5 -282.5q0 -261 192 -428
q7 -6 10 -16.5t1 -19.5l-33 -141q-1 -9 -7.5 -14t-15.5 -5h-486q-10 0 -15 6.5t-3 17.5l33 141q3 19 23 19h233q-182 194 -182 472q0 194 88 371t261.5 288.5t415.5 111.5q189 0 336 -71t229.5 -202.5t82.5 -307.5q0 -198 -102 -372.5t-287 -289.5h195z" />
    <glyph glyph-name="uni03A9" unicode="&#x2126;" horiz-adv-x="1512" 
d="M1323 184q11 0 15.5 -6.5t2.5 -17.5l-33 -141q-1 -9 -7.5 -14t-15.5 -5h-499q-11 0 -16 6.5t-2 17.5l32 141q4 19 24 26q135 55 233.5 154t151 224.5t52.5 258.5q0 130 -50.5 222.5t-140.5 140t-208 47.5q-172 0 -286.5 -95t-168 -236.5t-53.5 -282.5q0 -261 192 -428
q7 -6 10 -16.5t1 -19.5l-33 -141q-1 -9 -7.5 -14t-15.5 -5h-486q-10 0 -15 6.5t-3 17.5l33 141q3 19 23 19h233q-182 194 -182 472q0 194 88 371t261.5 288.5t415.5 111.5q189 0 336 -71t229.5 -202.5t82.5 -307.5q0 -198 -102 -372.5t-287 -289.5h195z" />
    <glyph glyph-name="pi" unicode="&#x3c0;" horiz-adv-x="1080" 
d="M-19 0q-11 0 -16 6.5t-2 17.5l113 457l118 530q3 19 23 19h884q11 0 16 -6.5t3 -17.5l-138 -567l-90 -420q-3 -19 -24 -19h-206q-11 0 -16 6.5t-2 17.5l113 457l84 377h-440l-99 -419l-89 -420q-4 -19 -24 -19h-208z" />
    <glyph glyph-name="Wgrave" unicode="&#x1e80;" horiz-adv-x="1801" 
d="M257 0q-10 0 -16 5.5t-6 15.5l-19 1358v2q0 19 21 19h192q23 0 21 -21l-16 -1162l512 1167q8 16 25 16h243q11 0 16.5 -6t4.5 -16l-24 -1177l529 1183q8 16 25 16h203q9 0 14 -4t5 -11q0 -4 -3 -10l-654 -1359q-7 -16 -25 -16h-254q-10 0 -15.5 5.5t-5.5 15.5l-12 1040
l-476 -1045q-8 -16 -25 -16h-260zM1323 1514q-4 -15 -19 -15q-5 0 -8 1l-446 151q-15 6 -15 18q0 2 2 10l51 137q6 15 18 15q5 0 11 -3l426 -203q13 -6 13 -18q0 -4 -2 -10z" />
    <glyph glyph-name="wgrave" unicode="&#x1e81;" horiz-adv-x="1425" 
d="M154 0q-21 0 -21 21l-13 987q0 10 5.5 16t15.5 6h175q22 0 21 -22l-29 -814l359 820q6 16 25 16h249q22 0 21 -22l-13 -800l343 806q6 16 25 16h200q19 0 19 -14q0 -5 -3 -11l-462 -989q-7 -16 -25 -16h-244q-21 0 -21 21l-3 813l-357 -818q-8 -16 -25 -16h-242z
M1047 1144q-4 -15 -19 -15q-5 0 -8 1l-446 151q-15 6 -15 18q0 2 2 10l51 137q6 15 18 15q5 0 11 -3l426 -203q13 -6 13 -18q0 -4 -2 -10z" />
    <glyph glyph-name="Wacute" unicode="&#x1e82;" horiz-adv-x="1801" 
d="M257 0q-10 0 -16 5.5t-6 15.5l-19 1358v2q0 19 21 19h192q23 0 21 -21l-16 -1162l512 1167q8 16 25 16h243q11 0 16.5 -6t4.5 -16l-24 -1177l529 1183q8 16 25 16h203q9 0 14 -4t5 -11q0 -4 -3 -10l-654 -1359q-7 -16 -25 -16h-254q-10 0 -15.5 5.5t-5.5 15.5l-12 1040
l-476 -1045q-8 -16 -25 -16h-260zM966 1507q-3 -1 -8 -1q-14 0 -19 16l-25 86q-1 3 -1 7q0 14 14 20l471 193q3 2 10 2q12 0 17 -16l38 -141q1 -3 1 -8q0 -7 -4.5 -12t-11.5 -6z" />
    <glyph glyph-name="wacute" unicode="&#x1e83;" horiz-adv-x="1425" 
d="M154 0q-21 0 -21 21l-13 987q0 10 5.5 16t15.5 6h175q22 0 21 -22l-29 -814l359 820q6 16 25 16h249q22 0 21 -22l-13 -800l343 806q6 16 25 16h200q19 0 19 -14q0 -5 -3 -11l-462 -989q-7 -16 -25 -16h-244q-21 0 -21 21l-3 813l-357 -818q-8 -16 -25 -16h-242z
M690 1137q-3 -1 -8 -1q-14 0 -19 16l-25 86q-1 3 -1 7q0 14 14 20l471 193q3 2 10 2q12 0 17 -16l38 -141q1 -3 1 -8q0 -7 -4.5 -12t-11.5 -6z" />
    <glyph glyph-name="Wdieresis" unicode="&#x1e84;" horiz-adv-x="1801" 
d="M257 0q-10 0 -16 5.5t-6 15.5l-19 1358v2q0 19 21 19h192q23 0 21 -21l-16 -1162l512 1167q8 16 25 16h243q11 0 16.5 -6t4.5 -16l-24 -1177l529 1183q8 16 25 16h203q9 0 14 -4t5 -11q0 -4 -3 -10l-654 -1359q-7 -16 -25 -16h-254q-10 0 -15.5 5.5t-5.5 15.5l-12 1040
l-476 -1045q-8 -16 -25 -16h-260zM861 1515q-11 0 -16 6.5t-3 17.5l45 188q4 19 23 19h160q11 0 16 -7t3 -17l-45 -188q-4 -19 -23 -19h-160zM1227 1515q-11 0 -16 6.5t-3 17.5l45 188q4 19 24 19h159q11 0 16 -6.5t3 -17.5l-45 -188q-4 -19 -23 -19h-160z" />
    <glyph glyph-name="wdieresis" unicode="&#x1e85;" horiz-adv-x="1425" 
d="M154 0q-21 0 -21 21l-13 987q0 10 5.5 16t15.5 6h175q22 0 21 -22l-29 -814l359 820q6 16 25 16h249q22 0 21 -22l-13 -800l343 806q6 16 25 16h200q19 0 19 -14q0 -5 -3 -11l-462 -989q-7 -16 -25 -16h-244q-21 0 -21 21l-3 813l-357 -818q-8 -16 -25 -16h-242z
M585 1145q-11 0 -16 6.5t-3 17.5l45 188q4 19 23 19h160q11 0 16 -7t3 -17l-45 -188q-4 -19 -23 -19h-160zM951 1145q-11 0 -16 6.5t-3 17.5l45 188q4 19 24 19h159q11 0 16 -6.5t3 -17.5l-45 -188q-4 -19 -23 -19h-160z" />
    <glyph glyph-name="uni1EA0" unicode="&#x1ea0;" horiz-adv-x="1304" 
d="M1184 22v-4q0 -18 -20 -18h-194q-21 0 -23 20l-38 370h-548l-208 -375q-9 -15 -26 -15h-217q-19 0 -19 14q0 4 4 12l795 1359q8 15 25 15h289q20 0 23 -20zM891 585l-66 647l-358 -647h424zM380 -325q-11 0 -16.5 6.5t-2.5 17.5l45 187q4 19 23 19h200q11 0 16.5 -6.5
t2.5 -17.5l-45 -187q-4 -19 -23 -19h-200z" />
    <glyph glyph-name="uni1EA1" unicode="&#x1ea1;" horiz-adv-x="1114" 
d="M1126 1030q11 0 16 -6.5t3 -17.5l-120 -490l-108 -497q-4 -19 -24 -19h-192q-11 0 -16 6.5t-2 17.5l22 89q-126 -129 -300 -129q-113 0 -196 51.5t-126.5 145.5t-43.5 219q0 145 58.5 295t177.5 251t290 101q112 0 189.5 -46.5t116.5 -134.5l30 145q4 19 24 19h201z
M666 224q74 80 111.5 195t37.5 218q0 122 -54 185.5t-153 63.5q-114 0 -187.5 -80t-106 -191t-32.5 -208q0 -120 53 -191.5t153 -71.5q104 0 178 80zM302 -335q-11 0 -16.5 6.5t-2.5 17.5l45 187q4 19 23 19h200q11 0 16.5 -6.5t2.5 -17.5l-45 -187q-4 -19 -23 -19h-200z
" />
    <glyph glyph-name="uni1EA2" unicode="&#x1ea2;" horiz-adv-x="1304" 
d="M1184 22v-4q0 -18 -20 -18h-194q-21 0 -23 20l-38 370h-548l-208 -375q-9 -15 -26 -15h-217q-19 0 -19 14q0 4 4 12l795 1359q8 15 25 15h289q20 0 23 -20zM891 585l-66 647l-358 -647h424zM828 1524q-11 0 -16.5 6.5t-2.5 17.5q10 35 32 59t46.5 37.5t62.5 29.5
q40 16 58.5 29.5t18.5 35.5q0 23 -21.5 36t-57.5 13q-73 0 -93 -57q-7 -19 -24 -19h-121q-11 0 -16.5 6.5t-2.5 16.5q23 84 90 128t176 44q107 0 174.5 -41t67.5 -116q0 -42 -18 -70.5t-44.5 -45t-67.5 -35.5q-35 -16 -54.5 -29t-30.5 -30q-9 -16 -25 -16h-131z" />
    <glyph glyph-name="uni1EA3" unicode="&#x1ea3;" horiz-adv-x="1114" 
d="M1126 1030q11 0 16 -6.5t3 -17.5l-120 -490l-108 -497q-4 -19 -24 -19h-192q-11 0 -16 6.5t-2 17.5l22 89q-126 -129 -300 -129q-113 0 -196 51.5t-126.5 145.5t-43.5 219q0 145 58.5 295t177.5 251t290 101q112 0 189.5 -46.5t116.5 -134.5l30 145q4 19 24 19h201z
M666 224q74 80 111.5 195t37.5 218q0 122 -54 185.5t-153 63.5q-114 0 -187.5 -80t-106 -191t-32.5 -208q0 -120 53 -191.5t153 -71.5q104 0 178 80zM638 1154q-11 0 -16.5 6.5t-2.5 17.5q10 35 32 59t46.5 37.5t62.5 29.5q40 16 58.5 29.5t18.5 35.5q0 23 -21.5 36
t-57.5 13q-73 0 -93 -57q-7 -19 -24 -19h-121q-11 0 -16.5 6.5t-2.5 16.5q23 84 90 128t176 44q107 0 174.5 -41t67.5 -116q0 -42 -18 -70.5t-44.5 -45t-67.5 -35.5q-35 -16 -54.5 -29t-30.5 -30q-9 -16 -25 -16h-131z" />
    <glyph glyph-name="uni1EA4" unicode="&#x1ea4;" horiz-adv-x="1304" 
d="M1184 22v-4q0 -18 -20 -18h-194q-21 0 -23 20l-38 370h-548l-208 -375q-9 -15 -26 -15h-217q-19 0 -19 14q0 4 4 12l795 1359q8 15 25 15h289q20 0 23 -20zM891 585l-66 647l-358 -647h424zM1198 1720q-7 -6 -15 -6q-7 0 -15 8l-61 65q-7 7 -7 15t7 15l271 273q8 8 15 8
q9 0 16 -9l85 -93q6 -7 6 -15t-8 -16zM546 1560q-3 5 -3 10q0 11 13 19l311 179q11 7 26 7h72q16 0 26 -9l244 -179q10 -7 10 -16q0 -5 -4 -13l-47 -77q-6 -11 -17 -11q-6 0 -12 3l-257 129l-298 -130q-6 -3 -11 -3q-12 0 -18 14z" />
    <glyph glyph-name="uni1EA5" unicode="&#x1ea5;" horiz-adv-x="1114" 
d="M1126 1030q11 0 16 -6.5t3 -17.5l-120 -490l-108 -497q-4 -19 -24 -19h-192q-11 0 -16 6.5t-2 17.5l22 89q-126 -129 -300 -129q-113 0 -196 51.5t-126.5 145.5t-43.5 219q0 145 58.5 295t177.5 251t290 101q112 0 189.5 -46.5t116.5 -134.5l30 145q4 19 24 19h201z
M666 224q74 80 111.5 195t37.5 218q0 122 -54 185.5t-153 63.5q-114 0 -187.5 -80t-106 -191t-32.5 -208q0 -120 53 -191.5t153 -71.5q104 0 178 80zM1008 1350q-7 -6 -15 -6q-7 0 -15 8l-61 65q-7 7 -7 15t7 15l271 273q8 8 15 8q9 0 16 -9l85 -93q6 -7 6 -15t-8 -16z
M356 1190q-3 5 -3 10q0 11 13 19l311 179q11 7 26 7h72q16 0 26 -9l244 -179q10 -7 10 -16q0 -5 -4 -13l-47 -77q-6 -11 -17 -11q-6 0 -12 3l-257 129l-298 -130q-6 -3 -11 -3q-12 0 -18 14z" />
    <glyph glyph-name="uni1EA6" unicode="&#x1ea6;" horiz-adv-x="1304" 
d="M1184 22v-4q0 -18 -20 -18h-194q-21 0 -23 20l-38 370h-548l-208 -375q-9 -15 -26 -15h-217q-19 0 -19 14q0 4 4 12l795 1359q8 15 25 15h289q20 0 23 -20zM891 585l-66 647l-358 -647h424zM1209 1719q-7 -4 -14 -4q-9 0 -16 9l-201 266q-5 7 -5 13q0 9 10 16l112 80
q7 5 13 5q11 0 17 -12l164 -295q4 -5 4 -12q0 -11 -11 -17zM546 1559q-3 5 -3 10q0 12 13 18l311 180q14 7 26 7h72q14 0 26 -9l244 -179q10 -7 10 -17q0 -3 -4 -13l-47 -76q-6 -11 -17 -11q-6 0 -12 3l-257 129l-298 -130q-6 -3 -11 -3q-12 0 -18 14z" />
    <glyph glyph-name="uni1EA7" unicode="&#x1ea7;" horiz-adv-x="1114" 
d="M1126 1030q11 0 16 -6.5t3 -17.5l-120 -490l-108 -497q-4 -19 -24 -19h-192q-11 0 -16 6.5t-2 17.5l22 89q-126 -129 -300 -129q-113 0 -196 51.5t-126.5 145.5t-43.5 219q0 145 58.5 295t177.5 251t290 101q112 0 189.5 -46.5t116.5 -134.5l30 145q4 19 24 19h201z
M666 224q74 80 111.5 195t37.5 218q0 122 -54 185.5t-153 63.5q-114 0 -187.5 -80t-106 -191t-32.5 -208q0 -120 53 -191.5t153 -71.5q104 0 178 80zM1019 1349q-7 -4 -14 -4q-9 0 -16 9l-201 266q-5 7 -5 13q0 9 10 16l112 80q7 5 13 5q11 0 17 -12l164 -295q4 -5 4 -12
q0 -11 -11 -17zM356 1189q-3 5 -3 10q0 12 13 18l311 180q14 7 26 7h72q14 0 26 -9l244 -179q10 -7 10 -17q0 -3 -4 -13l-47 -76q-6 -11 -17 -11q-6 0 -12 3l-257 129l-298 -130q-6 -3 -11 -3q-12 0 -18 14z" />
    <glyph glyph-name="uni1EA8" unicode="&#x1ea8;" horiz-adv-x="1304" 
d="M1184 22v-4q0 -18 -20 -18h-194q-21 0 -23 20l-38 370h-548l-208 -375q-9 -15 -26 -15h-217q-19 0 -19 14q0 4 4 12l795 1359q8 15 25 15h289q20 0 23 -20zM891 585l-66 647l-358 -647h424zM546 1559q-2 6 -2 10q0 13 12 19l311 179q13 8 27 8h71q13 0 27 -9l243 -179
q10 -7 10 -17q0 -8 -4 -13l-47 -76q-6 -11 -17 -11q-6 0 -12 3l-257 128l-298 -130q-4 -2 -10 -2q-14 0 -18 13zM1143 1737q-11 0 -16.5 6.5t-2.5 17.5q10 35 32 59t46.5 37.5t62.5 29.5q40 16 58.5 29.5t18.5 35.5q0 23 -21.5 36t-57.5 13q-73 0 -93 -57q-7 -19 -24 -19
h-121q-11 0 -16.5 6.5t-2.5 16.5q23 84 90 128t176 44q107 0 174.5 -41t67.5 -116q0 -42 -18 -70.5t-44.5 -45t-67.5 -35.5q-35 -16 -54.5 -29t-30.5 -30q-9 -16 -25 -16h-131z" />
    <glyph glyph-name="uni1EA9" unicode="&#x1ea9;" horiz-adv-x="1114" 
d="M1126 1030q11 0 16 -6.5t3 -17.5l-120 -490l-108 -497q-4 -19 -24 -19h-192q-11 0 -16 6.5t-2 17.5l22 89q-126 -129 -300 -129q-113 0 -196 51.5t-126.5 145.5t-43.5 219q0 145 58.5 295t177.5 251t290 101q112 0 189.5 -46.5t116.5 -134.5l30 145q4 19 24 19h201z
M666 224q74 80 111.5 195t37.5 218q0 122 -54 185.5t-153 63.5q-114 0 -187.5 -80t-106 -191t-32.5 -208q0 -120 53 -191.5t153 -71.5q104 0 178 80zM356 1189q-2 6 -2 10q0 13 12 19l311 179q13 8 27 8h71q13 0 27 -9l243 -179q10 -7 10 -17q0 -8 -4 -13l-47 -76
q-6 -11 -17 -11q-6 0 -12 3l-257 128l-298 -130q-4 -2 -10 -2q-14 0 -18 13zM953 1367q-11 0 -16.5 6.5t-2.5 17.5q10 35 32 59t46.5 37.5t62.5 29.5q40 16 58.5 29.5t18.5 35.5q0 23 -21.5 36t-57.5 13q-73 0 -93 -57q-7 -19 -24 -19h-121q-11 0 -16.5 6.5t-2.5 16.5
q23 84 90 128t176 44q107 0 174.5 -41t67.5 -116q0 -42 -18 -70.5t-44.5 -45t-67.5 -35.5q-35 -16 -54.5 -29t-30.5 -30q-9 -16 -25 -16h-131z" />
    <glyph glyph-name="uni1EAA" unicode="&#x1eaa;" horiz-adv-x="1304" 
d="M1184 22v-4q0 -18 -20 -18h-194q-21 0 -23 20l-38 370h-548l-208 -375q-9 -15 -26 -15h-217q-19 0 -19 14q0 4 4 12l795 1359q8 15 25 15h289q20 0 23 -20zM891 585l-66 647l-358 -647h424zM546 1559q-2 6 -2 10q0 13 12 19l311 179q13 8 27 8h71q13 0 27 -9l243 -179
q10 -7 10 -17q0 -8 -4 -13l-47 -76q-6 -11 -17 -11q-6 0 -12 3l-257 128l-298 -130q-4 -2 -10 -2q-14 0 -18 13zM1024.5 1842q-31.5 19 -67.5 54q-24 24 -40.5 35.5t-36.5 11.5q-32 0 -49.5 -24.5t-28.5 -72.5q-6 -19 -24 -19h-84q-11 0 -16 6t-3 17q21 110 76 175.5
t143 65.5q44 0 76 -19.5t68 -54.5q25 -24 41 -35t33 -11q34 0 51.5 24t28.5 71q5 20 24 20h83q11 0 16 -8t3 -22q-23 -111 -76.5 -172t-139.5 -61q-46 0 -77.5 19z" />
    <glyph glyph-name="uni1EAB" unicode="&#x1eab;" horiz-adv-x="1114" 
d="M1126 1030q11 0 16 -6.5t3 -17.5l-120 -490l-108 -497q-4 -19 -24 -19h-192q-11 0 -16 6.5t-2 17.5l22 89q-126 -129 -300 -129q-113 0 -196 51.5t-126.5 145.5t-43.5 219q0 145 58.5 295t177.5 251t290 101q112 0 189.5 -46.5t116.5 -134.5l30 145q4 19 24 19h201z
M666 224q74 80 111.5 195t37.5 218q0 122 -54 185.5t-153 63.5q-114 0 -187.5 -80t-106 -191t-32.5 -208q0 -120 53 -191.5t153 -71.5q104 0 178 80zM356 1189q-2 6 -2 10q0 13 12 19l311 179q13 8 27 8h71q13 0 27 -9l243 -179q10 -7 10 -17q0 -8 -4 -13l-47 -76
q-6 -11 -17 -11q-6 0 -12 3l-257 128l-298 -130q-4 -2 -10 -2q-14 0 -18 13zM834.5 1472q-31.5 19 -67.5 54q-24 24 -40.5 35.5t-36.5 11.5q-32 0 -49.5 -24.5t-28.5 -72.5q-6 -19 -24 -19h-84q-11 0 -16 6t-3 17q21 110 76 175.5t143 65.5q44 0 76 -19.5t68 -54.5
q25 -24 41 -35t33 -11q34 0 51.5 24t28.5 71q5 20 24 20h83q11 0 16 -8t3 -22q-23 -111 -76.5 -172t-139.5 -61q-46 0 -77.5 19z" />
    <glyph glyph-name="uni1EAC" unicode="&#x1eac;" horiz-adv-x="1304" 
d="M1184 22v-4q0 -18 -20 -18h-194q-21 0 -23 20l-38 370h-548l-208 -375q-9 -15 -26 -15h-217q-19 0 -19 14q0 4 4 12l795 1359q8 15 25 15h289q20 0 23 -20zM891 585l-66 647l-358 -647h424zM380 -325q-11 0 -16.5 6.5t-2.5 17.5l45 187q4 19 23 19h200q11 0 16.5 -6.5
t2.5 -17.5l-45 -187q-4 -19 -23 -19h-200zM562 1601q-2 6 -2 10q0 13 12 19l311 179q13 8 27 8h71q13 0 27 -9l243 -179q10 -7 10 -17q0 -8 -4 -13l-47 -76q-6 -11 -17 -11q-6 0 -12 3l-257 128l-298 -130q-4 -2 -10 -2q-14 0 -18 13z" />
    <glyph glyph-name="uni1EAD" unicode="&#x1ead;" horiz-adv-x="1114" 
d="M1126 1030q11 0 16 -6.5t3 -17.5l-120 -490l-108 -497q-4 -19 -24 -19h-192q-11 0 -16 6.5t-2 17.5l22 89q-126 -129 -300 -129q-113 0 -196 51.5t-126.5 145.5t-43.5 219q0 145 58.5 295t177.5 251t290 101q112 0 189.5 -46.5t116.5 -134.5l30 145q4 19 24 19h201z
M666 224q74 80 111.5 195t37.5 218q0 122 -54 185.5t-153 63.5q-114 0 -187.5 -80t-106 -191t-32.5 -208q0 -120 53 -191.5t153 -71.5q104 0 178 80zM302 -335q-11 0 -16.5 6.5t-2.5 17.5l45 187q4 19 23 19h200q11 0 16.5 -6.5t2.5 -17.5l-45 -187q-4 -19 -23 -19h-200z
M371 1231q-2 6 -2 10q0 13 12 19l311 179q13 8 27 8h71q13 0 27 -9l243 -179q10 -7 10 -17q0 -8 -4 -13l-47 -76q-6 -11 -17 -11q-6 0 -12 3l-257 128l-298 -130q-4 -2 -10 -2q-14 0 -18 13z" />
    <glyph glyph-name="uni1EAE" unicode="&#x1eae;" horiz-adv-x="1304" 
d="M1184 22v-4q0 -18 -20 -18h-194q-21 0 -23 20l-38 370h-548l-208 -375q-9 -15 -26 -15h-217q-19 0 -19 14q0 4 4 12l795 1359q8 15 25 15h289q20 0 23 -20zM891 585l-66 647l-358 -647h424zM944 1749q-8 -6 -14 -6q-8 0 -16 8l-60 64q-7 9 -7 15q0 8 8 16l269 273
q8 8 15 8t15 -9l86 -95q6 -7 6 -15q0 -7 -8 -15zM760 1527q-63 33 -97 91.5t-34 131.5q0 17 1 26q3 20 23 20h116q22 0 20 -22q-2 -55 31.5 -89t97.5 -34q63 0 106.5 34.5t60.5 92.5q6 18 24 18h118q11 0 16.5 -6t3.5 -16q-16 -81 -62.5 -144.5t-118 -99.5t-159.5 -36
q-84 0 -147 33z" />
    <glyph glyph-name="uni1EAF" unicode="&#x1eaf;" horiz-adv-x="1114" 
d="M1126 1030q11 0 16 -6.5t3 -17.5l-120 -490l-108 -497q-4 -19 -24 -19h-192q-11 0 -16 6.5t-2 17.5l22 89q-126 -129 -300 -129q-113 0 -196 51.5t-126.5 145.5t-43.5 219q0 145 58.5 295t177.5 251t290 101q112 0 189.5 -46.5t116.5 -134.5l30 145q4 19 24 19h201z
M666 224q74 80 111.5 195t37.5 218q0 122 -54 185.5t-153 63.5q-114 0 -187.5 -80t-106 -191t-32.5 -208q0 -120 53 -191.5t153 -71.5q104 0 178 80zM754 1379q-8 -6 -14 -6q-8 0 -16 8l-60 64q-7 9 -7 15q0 8 8 16l269 273q8 8 15 8t15 -9l86 -95q6 -7 6 -15q0 -7 -8 -15z
M570 1157q-63 33 -97 91.5t-34 131.5q0 17 1 26q3 20 23 20h116q22 0 20 -22q-2 -55 31.5 -89t97.5 -34q63 0 106.5 34.5t60.5 92.5q6 18 24 18h118q11 0 16.5 -6t3.5 -16q-16 -81 -62.5 -144.5t-118 -99.5t-159.5 -36q-84 0 -147 33z" />
    <glyph glyph-name="uni1EB0" unicode="&#x1eb0;" horiz-adv-x="1304" 
d="M1184 22v-4q0 -18 -20 -18h-194q-21 0 -23 20l-38 370h-548l-208 -375q-9 -15 -26 -15h-217q-19 0 -19 14q0 4 4 12l795 1359q8 15 25 15h289q20 0 23 -20zM891 585l-66 647l-358 -647h424zM946 1747q-7 -4 -14 -4q-9 0 -16 9l-201 266q-5 8 -5 14q0 7 9 15l113 80
q7 5 12 5q11 0 17 -12l163 -296q3 -6 3 -11q0 -10 -11 -18zM760 1527q-63 33 -96.5 91.5t-33.5 131.5q0 17 1 26q1 10 7 15t16 5h115q21 0 21 -22q-2 -55 31.5 -89t97.5 -34q62 0 105.5 34.5t61.5 92.5q6 18 24 18h118q11 0 16 -6t4 -16q-17 -81 -63 -144.5t-117.5 -99.5
t-159.5 -36q-85 0 -148 33z" />
    <glyph glyph-name="uni1EB1" unicode="&#x1eb1;" horiz-adv-x="1114" 
d="M1126 1030q11 0 16 -6.5t3 -17.5l-120 -490l-108 -497q-4 -19 -24 -19h-192q-11 0 -16 6.5t-2 17.5l22 89q-126 -129 -300 -129q-113 0 -196 51.5t-126.5 145.5t-43.5 219q0 145 58.5 295t177.5 251t290 101q112 0 189.5 -46.5t116.5 -134.5l30 145q4 19 24 19h201z
M666 224q74 80 111.5 195t37.5 218q0 122 -54 185.5t-153 63.5q-114 0 -187.5 -80t-106 -191t-32.5 -208q0 -120 53 -191.5t153 -71.5q104 0 178 80zM756 1377q-7 -4 -14 -4q-9 0 -16 9l-201 266q-5 8 -5 14q0 7 9 15l113 80q7 5 12 5q11 0 17 -12l163 -296q3 -6 3 -11
q0 -10 -11 -18zM570 1157q-63 33 -96.5 91.5t-33.5 131.5q0 17 1 26q1 10 7 15t16 5h115q21 0 21 -22q-2 -55 31.5 -89t97.5 -34q62 0 105.5 34.5t61.5 92.5q6 18 24 18h118q11 0 16 -6t4 -16q-17 -81 -63 -144.5t-117.5 -99.5t-159.5 -36q-85 0 -148 33z" />
    <glyph glyph-name="uni1EB2" unicode="&#x1eb2;" horiz-adv-x="1304" 
d="M1184 22v-4q0 -18 -20 -18h-194q-21 0 -23 20l-38 370h-548l-208 -375q-9 -15 -26 -15h-217q-19 0 -19 14q0 4 4 12l795 1359q8 15 25 15h289q20 0 23 -20zM891 585l-66 647l-358 -647h424zM761 1527q-63 33 -96.5 91t-33.5 131q0 17 1 26q1 21 23 21h115q21 0 21 -23
q-3 -55 30.5 -88.5t97.5 -33.5q63 0 106.5 34t61.5 92q6 19 23 19h118q11 0 16.5 -6t4.5 -16q-17 -81 -63 -144.5t-117.5 -99.5t-160.5 -36q-84 0 -147 33zM875 1788q-11 0 -16.5 6.5t-2.5 17.5q10 35 32 59t46.5 37.5t62.5 29.5q40 16 58.5 29.5t18.5 35.5q0 23 -21.5 36
t-57.5 13q-73 0 -93 -57q-7 -19 -24 -19h-121q-11 0 -16.5 6.5t-2.5 16.5q23 84 90 128t176 44q107 0 174.5 -41t67.5 -116q0 -42 -18 -70.5t-44.5 -45t-67.5 -35.5q-35 -16 -54.5 -29t-30.5 -30q-9 -16 -25 -16h-131z" />
    <glyph glyph-name="uni1EB3" unicode="&#x1eb3;" horiz-adv-x="1114" 
d="M1126 1030q11 0 16 -6.5t3 -17.5l-120 -490l-108 -497q-4 -19 -24 -19h-192q-11 0 -16 6.5t-2 17.5l22 89q-126 -129 -300 -129q-113 0 -196 51.5t-126.5 145.5t-43.5 219q0 145 58.5 295t177.5 251t290 101q112 0 189.5 -46.5t116.5 -134.5l30 145q4 19 24 19h201z
M666 224q74 80 111.5 195t37.5 218q0 122 -54 185.5t-153 63.5q-114 0 -187.5 -80t-106 -191t-32.5 -208q0 -120 53 -191.5t153 -71.5q104 0 178 80zM570 1157q-63 33 -96.5 91t-33.5 131q0 17 1 26q1 21 23 21h115q21 0 21 -23q-3 -55 30.5 -88.5t97.5 -33.5q63 0 106.5 34
t61.5 92q6 19 23 19h118q11 0 16.5 -6t4.5 -16q-17 -81 -63 -144.5t-117.5 -99.5t-160.5 -36q-84 0 -147 33zM684 1418q-11 0 -16.5 6.5t-2.5 17.5q10 35 32 59t46.5 37.5t62.5 29.5q40 16 58.5 29.5t18.5 35.5q0 23 -21.5 36t-57.5 13q-73 0 -93 -57q-7 -19 -24 -19h-121
q-11 0 -16.5 6.5t-2.5 16.5q23 84 90 128t176 44q107 0 174.5 -41t67.5 -116q0 -42 -18 -70.5t-44.5 -45t-67.5 -35.5q-35 -16 -54.5 -29t-30.5 -30q-9 -16 -25 -16h-131z" />
    <glyph glyph-name="uni1EB4" unicode="&#x1eb4;" horiz-adv-x="1304" 
d="M1184 22v-4q0 -18 -20 -18h-194q-21 0 -23 20l-38 370h-548l-208 -375q-9 -15 -26 -15h-217q-19 0 -19 14q0 4 4 12l795 1359q8 15 25 15h289q20 0 23 -20zM891 585l-66 647l-358 -647h424zM1015 1862q-31 17 -70 49q-27 22 -42.5 32t-34.5 10q-27 0 -42.5 -22.5
t-25.5 -63.5q-5 -19 -24 -19h-112q-11 0 -16 6t-3 17q22 104 78 167t145 63q45 0 77 -17.5t69 -49.5q26 -22 40.5 -31.5t31.5 -9.5q29 0 45 21t25 62q3 20 23 20h112q19 0 19 -19q0 -6 -1 -9q-22 -106 -76.5 -164.5t-141.5 -58.5q-45 0 -76 17zM761 1527q-63 33 -97 91.5
t-34 131.5q0 17 1 26q3 20 23 20h115q21 0 21 -22q-2 -55 31.5 -89t97.5 -34q62 0 105.5 34.5t61.5 92.5q6 18 24 18h118q11 0 16 -6t4 -16q-17 -81 -63 -144.5t-117.5 -99.5t-159.5 -36q-84 0 -147 33z" />
    <glyph glyph-name="uni1EB5" unicode="&#x1eb5;" horiz-adv-x="1114" 
d="M1126 1030q11 0 16 -6.5t3 -17.5l-120 -490l-108 -497q-4 -19 -24 -19h-192q-11 0 -16 6.5t-2 17.5l22 89q-126 -129 -300 -129q-113 0 -196 51.5t-126.5 145.5t-43.5 219q0 145 58.5 295t177.5 251t290 101q112 0 189.5 -46.5t116.5 -134.5l30 145q4 19 24 19h201z
M666 224q74 80 111.5 195t37.5 218q0 122 -54 185.5t-153 63.5q-114 0 -187.5 -80t-106 -191t-32.5 -208q0 -120 53 -191.5t153 -71.5q104 0 178 80zM825 1492q-31 17 -70 49q-27 22 -42.5 32t-34.5 10q-27 0 -42.5 -22.5t-25.5 -63.5q-5 -19 -24 -19h-112q-11 0 -16 6
t-3 17q22 104 78 167t145 63q45 0 77 -17.5t69 -49.5q26 -22 40.5 -31.5t31.5 -9.5q29 0 45 21t25 62q3 20 23 20h112q19 0 19 -19q0 -6 -1 -9q-22 -106 -76.5 -164.5t-141.5 -58.5q-45 0 -76 17zM571 1157q-63 33 -97 91.5t-34 131.5q0 17 1 26q3 20 23 20h115q21 0 21 -22
q-2 -55 31.5 -89t97.5 -34q62 0 105.5 34.5t61.5 92.5q6 18 24 18h118q11 0 16 -6t4 -16q-17 -81 -63 -144.5t-117.5 -99.5t-159.5 -36q-84 0 -147 33z" />
    <glyph glyph-name="uni1EB6" unicode="&#x1eb6;" horiz-adv-x="1304" 
d="M1184 22v-4q0 -18 -20 -18h-194q-21 0 -23 20l-38 370h-548l-208 -375q-9 -15 -26 -15h-217q-19 0 -19 14q0 4 4 12l795 1359q8 15 25 15h289q20 0 23 -20zM891 585l-66 647l-358 -647h424zM380 -325q-11 0 -16.5 6.5t-2.5 17.5l45 187q4 19 23 19h200q11 0 16.5 -6.5
t2.5 -17.5l-45 -187q-4 -19 -23 -19h-200zM766 1553q-63 33 -96.5 91t-33.5 131q0 17 1 26q1 21 23 21h115q21 0 21 -23q-3 -55 30.5 -88.5t97.5 -33.5q63 0 106.5 34t61.5 92q6 19 23 19h118q11 0 16.5 -6t4.5 -16q-17 -81 -63 -144.5t-117.5 -99.5t-160.5 -36
q-84 0 -147 33z" />
    <glyph glyph-name="uni1EB7" unicode="&#x1eb7;" horiz-adv-x="1114" 
d="M1126 1030q11 0 16 -6.5t3 -17.5l-120 -490l-108 -497q-4 -19 -24 -19h-192q-11 0 -16 6.5t-2 17.5l22 89q-126 -129 -300 -129q-113 0 -196 51.5t-126.5 145.5t-43.5 219q0 145 58.5 295t177.5 251t290 101q112 0 189.5 -46.5t116.5 -134.5l30 145q4 19 24 19h201z
M666 224q74 80 111.5 195t37.5 218q0 122 -54 185.5t-153 63.5q-114 0 -187.5 -80t-106 -191t-32.5 -208q0 -120 53 -191.5t153 -71.5q104 0 178 80zM302 -335q-11 0 -16.5 6.5t-2.5 17.5l45 187q4 19 23 19h200q11 0 16.5 -6.5t2.5 -17.5l-45 -187q-4 -19 -23 -19h-200z
M576 1183q-63 33 -96.5 91t-33.5 131q0 17 1 26q1 21 23 21h115q21 0 21 -23q-3 -55 30.5 -88.5t97.5 -33.5q63 0 106.5 34t61.5 92q6 19 23 19h118q11 0 16.5 -6t4.5 -16q-17 -81 -63 -144.5t-117.5 -99.5t-160.5 -36q-84 0 -147 33z" />
    <glyph glyph-name="uni1EB8" unicode="&#x1eb8;" horiz-adv-x="1103" 
d="M3 0q-11 0 -16.5 6.5t-2.5 17.5l171 689l143 668q3 19 24 19h888q11 0 16 -6.5t2 -17.5l-32 -140q-4 -19 -23 -19h-660l-100 -382h612q11 0 16 -6.5t3 -17.5l-33 -140q-3 -19 -23 -19h-617l-98 -469h671q11 0 16 -6.5t2 -17.5l-32 -140q-1 -9 -7.5 -14t-15.5 -5h-904z
M306 -325q-11 0 -16.5 6.5t-2.5 17.5l45 187q4 19 23 19h200q11 0 16.5 -6.5t2.5 -17.5l-45 -187q-4 -19 -23 -19h-200z" />
    <glyph glyph-name="uni1EB9" unicode="&#x1eb9;" horiz-adv-x="1100" 
d="M851 999.5q100 -52.5 154.5 -148.5t54.5 -223q0 -64 -15 -135q-3 -19 -23 -19h-739q-3 -27 -3 -54q0 -139 64 -210t177 -71q95 0 161.5 50t100.5 152q6 19 25 19h184q19 0 19 -16q0 -5 -1 -8q-49 -173 -177 -265.5t-317 -92.5q-140 0 -246 52.5t-165.5 154.5t-59.5 246
q0 156 67.5 299t197.5 232.5t307 89.5q134 0 234 -52.5zM821 629q3 23 3 44q0 64 -26 114t-75.5 78t-118.5 28q-114 0 -188 -72t-109 -192h514zM298 -325q-11 0 -16.5 6.5t-2.5 17.5l45 187q4 19 23 19h200q11 0 16.5 -6.5t2.5 -17.5l-45 -187q-4 -19 -23 -19h-200z" />
    <glyph glyph-name="uni1EBA" unicode="&#x1eba;" horiz-adv-x="1103" 
d="M3 0q-11 0 -16.5 6.5t-2.5 17.5l171 689l143 668q3 19 24 19h888q11 0 16 -6.5t2 -17.5l-32 -140q-4 -19 -23 -19h-660l-100 -382h612q11 0 16 -6.5t3 -17.5l-33 -140q-3 -19 -23 -19h-617l-98 -469h671q11 0 16 -6.5t2 -17.5l-32 -140q-1 -9 -7.5 -14t-15.5 -5h-904z
M768 1524q-11 0 -16.5 6.5t-2.5 17.5q10 35 32 59t46.5 37.5t62.5 29.5q40 16 58.5 29.5t18.5 35.5q0 23 -21.5 36t-57.5 13q-73 0 -93 -57q-7 -19 -24 -19h-121q-11 0 -16.5 6.5t-2.5 16.5q23 84 90 128t176 44q107 0 174.5 -41t67.5 -116q0 -42 -18 -70.5t-44.5 -45
t-67.5 -35.5q-35 -16 -54.5 -29t-30.5 -30q-9 -16 -25 -16h-131z" />
    <glyph glyph-name="uni1EBB" unicode="&#x1ebb;" horiz-adv-x="1100" 
d="M851 999.5q100 -52.5 154.5 -148.5t54.5 -223q0 -64 -15 -135q-3 -19 -23 -19h-739q-3 -27 -3 -54q0 -139 64 -210t177 -71q95 0 161.5 50t100.5 152q6 19 25 19h184q19 0 19 -16q0 -5 -1 -8q-49 -173 -177 -265.5t-317 -92.5q-140 0 -246 52.5t-165.5 154.5t-59.5 246
q0 156 67.5 299t197.5 232.5t307 89.5q134 0 234 -52.5zM821 629q3 23 3 44q0 64 -26 114t-75.5 78t-118.5 28q-114 0 -188 -72t-109 -192h514zM632 1154q-11 0 -16.5 6.5t-2.5 17.5q10 35 32 59t46.5 37.5t62.5 29.5q40 16 58.5 29.5t18.5 35.5q0 23 -21.5 36t-57.5 13
q-73 0 -93 -57q-7 -19 -24 -19h-121q-11 0 -16.5 6.5t-2.5 16.5q23 84 90 128t176 44q107 0 174.5 -41t67.5 -116q0 -42 -18 -70.5t-44.5 -45t-67.5 -35.5q-35 -16 -54.5 -29t-30.5 -30q-9 -16 -25 -16h-131z" />
    <glyph glyph-name="uni1EBC" unicode="&#x1ebc;" horiz-adv-x="1103" 
d="M3 0q-11 0 -16.5 6.5t-2.5 17.5l171 689l143 668q3 19 24 19h888q11 0 16 -6.5t2 -17.5l-32 -140q-4 -19 -23 -19h-660l-100 -382h612q11 0 16 -6.5t3 -17.5l-33 -140q-3 -19 -23 -19h-617l-98 -469h671q11 0 16 -6.5t2 -17.5l-32 -140q-1 -9 -7.5 -14t-15.5 -5h-904z
M891.5 1551q-31.5 19 -67.5 54q-24 24 -40.5 35.5t-36.5 11.5q-32 0 -49.5 -24.5t-28.5 -72.5q-6 -19 -24 -19h-84q-11 0 -16 6t-3 17q21 110 76 175.5t143 65.5q44 0 76 -19.5t68 -54.5q25 -24 41 -35t33 -11q34 0 51.5 24t28.5 71q5 20 24 20h83q11 0 16 -8t3 -22
q-23 -111 -76.5 -172t-139.5 -61q-46 0 -77.5 19z" />
    <glyph glyph-name="uni1EBD" unicode="&#x1ebd;" horiz-adv-x="1100" 
d="M851 999.5q100 -52.5 154.5 -148.5t54.5 -223q0 -64 -15 -135q-3 -19 -23 -19h-739q-3 -27 -3 -54q0 -139 64 -210t177 -71q95 0 161.5 50t100.5 152q6 19 25 19h184q19 0 19 -16q0 -5 -1 -8q-49 -173 -177 -265.5t-317 -92.5q-140 0 -246 52.5t-165.5 154.5t-59.5 246
q0 156 67.5 299t197.5 232.5t307 89.5q134 0 234 -52.5zM821 629q3 23 3 44q0 64 -26 114t-75.5 78t-118.5 28q-114 0 -188 -72t-109 -192h514zM755.5 1181q-31.5 19 -67.5 54q-24 24 -40.5 35.5t-36.5 11.5q-32 0 -49.5 -24.5t-28.5 -72.5q-6 -19 -24 -19h-84q-11 0 -16 6
t-3 17q21 110 76 175.5t143 65.5q44 0 76 -19.5t68 -54.5q25 -24 41 -35t33 -11q34 0 51.5 24t28.5 71q5 20 24 20h83q11 0 16 -8t3 -22q-23 -111 -76.5 -172t-139.5 -61q-46 0 -77.5 19z" />
    <glyph glyph-name="uni1EBE" unicode="&#x1ebe;" horiz-adv-x="1103" 
d="M3 0q-11 0 -16.5 6.5t-2.5 17.5l171 689l143 668q3 19 24 19h888q11 0 16 -6.5t2 -17.5l-32 -140q-4 -19 -23 -19h-660l-100 -382h612q11 0 16 -6.5t3 -17.5l-33 -140q-3 -19 -23 -19h-617l-98 -469h671q11 0 16 -6.5t2 -17.5l-32 -140q-1 -9 -7.5 -14t-15.5 -5h-904z
M1138 1720q-7 -6 -15 -6q-7 0 -15 8l-61 65q-7 7 -7 15t7 15l271 273q8 8 15 8q9 0 16 -9l85 -93q6 -7 6 -15t-8 -16zM486 1560q-3 5 -3 10q0 11 13 19l311 179q11 7 26 7h72q16 0 26 -9l244 -179q10 -7 10 -16q0 -5 -4 -13l-47 -77q-6 -11 -17 -11q-6 0 -12 3l-257 129
l-298 -130q-6 -3 -11 -3q-12 0 -18 14z" />
    <glyph glyph-name="uni1EBF" unicode="&#x1ebf;" horiz-adv-x="1100" 
d="M851 999.5q100 -52.5 154.5 -148.5t54.5 -223q0 -64 -15 -135q-3 -19 -23 -19h-739q-3 -27 -3 -54q0 -139 64 -210t177 -71q95 0 161.5 50t100.5 152q6 19 25 19h184q19 0 19 -16q0 -5 -1 -8q-49 -173 -177 -265.5t-317 -92.5q-140 0 -246 52.5t-165.5 154.5t-59.5 246
q0 156 67.5 299t197.5 232.5t307 89.5q134 0 234 -52.5zM821 629q3 23 3 44q0 64 -26 114t-75.5 78t-118.5 28q-114 0 -188 -72t-109 -192h514zM1002 1350q-7 -6 -15 -6q-7 0 -15 8l-61 65q-7 7 -7 15t7 15l271 273q8 8 15 8q9 0 16 -9l85 -93q6 -7 6 -15t-8 -16zM350 1190
q-3 5 -3 10q0 11 13 19l311 179q11 7 26 7h72q16 0 26 -9l244 -179q10 -7 10 -16q0 -5 -4 -13l-47 -77q-6 -11 -17 -11q-6 0 -12 3l-257 129l-298 -130q-6 -3 -11 -3q-12 0 -18 14z" />
    <glyph glyph-name="uni1EC0" unicode="&#x1ec0;" horiz-adv-x="1103" 
d="M3 0q-11 0 -16.5 6.5t-2.5 17.5l171 689l143 668q3 19 24 19h888q11 0 16 -6.5t2 -17.5l-32 -140q-4 -19 -23 -19h-660l-100 -382h612q11 0 16 -6.5t3 -17.5l-33 -140q-3 -19 -23 -19h-617l-98 -469h671q11 0 16 -6.5t2 -17.5l-32 -140q-1 -9 -7.5 -14t-15.5 -5h-904z
M1149 1719q-7 -4 -14 -4q-9 0 -16 9l-201 266q-5 7 -5 13q0 9 10 16l112 80q7 5 13 5q11 0 17 -12l164 -295q4 -5 4 -12q0 -11 -11 -17zM486 1559q-3 5 -3 10q0 12 13 18l311 180q14 7 26 7h72q14 0 26 -9l244 -179q10 -7 10 -17q0 -3 -4 -13l-47 -76q-6 -11 -17 -11
q-6 0 -12 3l-257 129l-298 -130q-6 -3 -11 -3q-12 0 -18 14z" />
    <glyph glyph-name="uni1EC1" unicode="&#x1ec1;" horiz-adv-x="1100" 
d="M851 999.5q100 -52.5 154.5 -148.5t54.5 -223q0 -64 -15 -135q-3 -19 -23 -19h-739q-3 -27 -3 -54q0 -139 64 -210t177 -71q95 0 161.5 50t100.5 152q6 19 25 19h184q19 0 19 -16q0 -5 -1 -8q-49 -173 -177 -265.5t-317 -92.5q-140 0 -246 52.5t-165.5 154.5t-59.5 246
q0 156 67.5 299t197.5 232.5t307 89.5q134 0 234 -52.5zM821 629q3 23 3 44q0 64 -26 114t-75.5 78t-118.5 28q-114 0 -188 -72t-109 -192h514zM1013 1349q-7 -4 -14 -4q-9 0 -16 9l-201 266q-5 7 -5 13q0 9 10 16l112 80q7 5 13 5q11 0 17 -12l164 -295q4 -5 4 -12
q0 -11 -11 -17zM350 1189q-3 5 -3 10q0 12 13 18l311 180q14 7 26 7h72q14 0 26 -9l244 -179q10 -7 10 -17q0 -3 -4 -13l-47 -76q-6 -11 -17 -11q-6 0 -12 3l-257 129l-298 -130q-6 -3 -11 -3q-12 0 -18 14z" />
    <glyph glyph-name="uni1EC2" unicode="&#x1ec2;" horiz-adv-x="1103" 
d="M3 0q-11 0 -16.5 6.5t-2.5 17.5l171 689l143 668q3 19 24 19h888q11 0 16 -6.5t2 -17.5l-32 -140q-4 -19 -23 -19h-660l-100 -382h612q11 0 16 -6.5t3 -17.5l-33 -140q-3 -19 -23 -19h-617l-98 -469h671q11 0 16 -6.5t2 -17.5l-32 -140q-1 -9 -7.5 -14t-15.5 -5h-904z
M486 1559q-2 6 -2 10q0 13 12 19l311 179q13 8 27 8h71q13 0 27 -9l243 -179q10 -7 10 -17q0 -8 -4 -13l-47 -76q-6 -11 -17 -11q-6 0 -12 3l-257 128l-298 -130q-4 -2 -10 -2q-14 0 -18 13zM1083 1737q-11 0 -16.5 6.5t-2.5 17.5q10 35 32 59t46.5 37.5t62.5 29.5
q40 16 58.5 29.5t18.5 35.5q0 23 -21.5 36t-57.5 13q-73 0 -93 -57q-7 -19 -24 -19h-121q-11 0 -16.5 6.5t-2.5 16.5q23 84 90 128t176 44q107 0 174.5 -41t67.5 -116q0 -42 -18 -70.5t-44.5 -45t-67.5 -35.5q-35 -16 -54.5 -29t-30.5 -30q-9 -16 -25 -16h-131z" />
    <glyph glyph-name="uni1EC3" unicode="&#x1ec3;" horiz-adv-x="1100" 
d="M851 999.5q100 -52.5 154.5 -148.5t54.5 -223q0 -64 -15 -135q-3 -19 -23 -19h-739q-3 -27 -3 -54q0 -139 64 -210t177 -71q95 0 161.5 50t100.5 152q6 19 25 19h184q19 0 19 -16q0 -5 -1 -8q-49 -173 -177 -265.5t-317 -92.5q-140 0 -246 52.5t-165.5 154.5t-59.5 246
q0 156 67.5 299t197.5 232.5t307 89.5q134 0 234 -52.5zM821 629q3 23 3 44q0 64 -26 114t-75.5 78t-118.5 28q-114 0 -188 -72t-109 -192h514zM350 1189q-2 6 -2 10q0 13 12 19l311 179q13 8 27 8h71q13 0 27 -9l243 -179q10 -7 10 -17q0 -8 -4 -13l-47 -76q-6 -11 -17 -11
q-6 0 -12 3l-257 128l-298 -130q-4 -2 -10 -2q-14 0 -18 13zM947 1367q-11 0 -16.5 6.5t-2.5 17.5q10 35 32 59t46.5 37.5t62.5 29.5q40 16 58.5 29.5t18.5 35.5q0 23 -21.5 36t-57.5 13q-73 0 -93 -57q-7 -19 -24 -19h-121q-11 0 -16.5 6.5t-2.5 16.5q23 84 90 128t176 44
q107 0 174.5 -41t67.5 -116q0 -42 -18 -70.5t-44.5 -45t-67.5 -35.5q-35 -16 -54.5 -29t-30.5 -30q-9 -16 -25 -16h-131z" />
    <glyph glyph-name="uni1EC4" unicode="&#x1ec4;" horiz-adv-x="1103" 
d="M3 0q-11 0 -16.5 6.5t-2.5 17.5l171 689l143 668q3 19 24 19h888q11 0 16 -6.5t2 -17.5l-32 -140q-4 -19 -23 -19h-660l-100 -382h612q11 0 16 -6.5t3 -17.5l-33 -140q-3 -19 -23 -19h-617l-98 -469h671q11 0 16 -6.5t2 -17.5l-32 -140q-1 -9 -7.5 -14t-15.5 -5h-904z
M486 1559q-2 6 -2 10q0 13 12 19l311 179q13 8 27 8h71q13 0 27 -9l243 -179q10 -7 10 -17q0 -8 -4 -13l-47 -76q-6 -11 -17 -11q-6 0 -12 3l-257 128l-298 -130q-4 -2 -10 -2q-14 0 -18 13zM964.5 1842q-31.5 19 -67.5 54q-24 24 -40.5 35.5t-36.5 11.5q-32 0 -49.5 -24.5
t-28.5 -72.5q-6 -19 -24 -19h-84q-11 0 -16 6t-3 17q21 110 76 175.5t143 65.5q44 0 76 -19.5t68 -54.5q25 -24 41 -35t33 -11q34 0 51.5 24t28.5 71q5 20 24 20h83q11 0 16 -8t3 -22q-23 -111 -76.5 -172t-139.5 -61q-46 0 -77.5 19z" />
    <glyph glyph-name="uni1EC5" unicode="&#x1ec5;" horiz-adv-x="1100" 
d="M851 999.5q100 -52.5 154.5 -148.5t54.5 -223q0 -64 -15 -135q-3 -19 -23 -19h-739q-3 -27 -3 -54q0 -139 64 -210t177 -71q95 0 161.5 50t100.5 152q6 19 25 19h184q19 0 19 -16q0 -5 -1 -8q-49 -173 -177 -265.5t-317 -92.5q-140 0 -246 52.5t-165.5 154.5t-59.5 246
q0 156 67.5 299t197.5 232.5t307 89.5q134 0 234 -52.5zM821 629q3 23 3 44q0 64 -26 114t-75.5 78t-118.5 28q-114 0 -188 -72t-109 -192h514zM350 1189q-2 6 -2 10q0 13 12 19l311 179q13 8 27 8h71q13 0 27 -9l243 -179q10 -7 10 -17q0 -8 -4 -13l-47 -76q-6 -11 -17 -11
q-6 0 -12 3l-257 128l-298 -130q-4 -2 -10 -2q-14 0 -18 13zM828.5 1472q-31.5 19 -67.5 54q-24 24 -40.5 35.5t-36.5 11.5q-32 0 -49.5 -24.5t-28.5 -72.5q-6 -19 -24 -19h-84q-11 0 -16 6t-3 17q21 110 76 175.5t143 65.5q44 0 76 -19.5t68 -54.5q25 -24 41 -35t33 -11
q34 0 51.5 24t28.5 71q5 20 24 20h83q11 0 16 -8t3 -22q-23 -111 -76.5 -172t-139.5 -61q-46 0 -77.5 19z" />
    <glyph glyph-name="uni1EC6" unicode="&#x1ec6;" horiz-adv-x="1103" 
d="M3 0q-11 0 -16.5 6.5t-2.5 17.5l171 689l143 668q3 19 24 19h888q11 0 16 -6.5t2 -17.5l-32 -140q-4 -19 -23 -19h-660l-100 -382h612q11 0 16 -6.5t3 -17.5l-33 -140q-3 -19 -23 -19h-617l-98 -469h671q11 0 16 -6.5t2 -17.5l-32 -140q-1 -9 -7.5 -14t-15.5 -5h-904z
M306 -325q-11 0 -16.5 6.5t-2.5 17.5l45 187q4 19 23 19h200q11 0 16.5 -6.5t2.5 -17.5l-45 -187q-4 -19 -23 -19h-200zM501 1601q-2 6 -2 10q0 13 12 19l311 179q13 8 27 8h71q13 0 27 -9l243 -179q10 -7 10 -17q0 -8 -4 -13l-47 -76q-6 -11 -17 -11q-6 0 -12 3l-257 128
l-298 -130q-4 -2 -10 -2q-14 0 -18 13z" />
    <glyph glyph-name="uni1EC7" unicode="&#x1ec7;" horiz-adv-x="1100" 
d="M851 999.5q100 -52.5 154.5 -148.5t54.5 -223q0 -64 -15 -135q-3 -19 -23 -19h-739q-3 -27 -3 -54q0 -139 64 -210t177 -71q95 0 161.5 50t100.5 152q6 19 25 19h184q19 0 19 -16q0 -5 -1 -8q-49 -173 -177 -265.5t-317 -92.5q-140 0 -246 52.5t-165.5 154.5t-59.5 246
q0 156 67.5 299t197.5 232.5t307 89.5q134 0 234 -52.5zM821 629q3 23 3 44q0 64 -26 114t-75.5 78t-118.5 28q-114 0 -188 -72t-109 -192h514zM298 -325q-11 0 -16.5 6.5t-2.5 17.5l45 187q4 19 23 19h200q11 0 16.5 -6.5t2.5 -17.5l-45 -187q-4 -19 -23 -19h-200z
M366 1231q-2 6 -2 10q0 13 12 19l311 179q13 8 27 8h71q13 0 27 -9l243 -179q10 -7 10 -17q0 -8 -4 -13l-47 -76q-6 -11 -17 -11q-6 0 -12 3l-257 128l-298 -130q-4 -2 -10 -2q-14 0 -18 13z" />
    <glyph glyph-name="uni1EC8" unicode="&#x1ec8;" horiz-adv-x="465" 
d="M13 0q-11 0 -16.5 6.5t-2.5 17.5l170 683l144 674q4 19 24 19h208q11 0 16.5 -6.5t2.5 -17.5l-167 -669l-147 -688q-4 -19 -24 -19h-208zM404 1524q-11 0 -16.5 6.5t-2.5 17.5q10 35 32 59t46.5 37.5t62.5 29.5q40 16 58.5 29.5t18.5 35.5q0 23 -21.5 36t-57.5 13
q-73 0 -93 -57q-7 -19 -24 -19h-121q-11 0 -16.5 6.5t-2.5 16.5q23 84 90 128t176 44q107 0 174.5 -41t67.5 -116q0 -42 -18 -70.5t-44.5 -45t-67.5 -35.5q-35 -16 -54.5 -29t-30.5 -30q-9 -16 -25 -16h-131z" />
    <glyph glyph-name="uni1EC9" unicode="&#x1ec9;" horiz-adv-x="434" 
d="M302 1154q-11 0 -16.5 6.5t-2.5 17.5q10 35 32 59t46.5 37.5t62.5 29.5q40 16 58.5 29.5t18.5 35.5q0 23 -21.5 36t-57.5 13q-73 0 -93 -57q-7 -19 -24 -19h-106q-11 0 -16.5 6.5t-3.5 16.5q21 84 85 128t167 44q100 0 163.5 -41t63.5 -116q0 -42 -17 -70.5t-41 -45
t-62 -35.5q-33 -16 -51.5 -29t-28.5 -30q-9 -16 -25 -16h-131zM-2 0q-11 0 -16 6.5t-3 17.5l122 499l106 488q4 19 24 19h204q11 0 16.5 -6.5t2.5 -17.5l-120 -482l-108 -505q-3 -19 -24 -19h-204z" />
    </font>
</defs>
</svg>
