<?xml version="1.0" standalone="no"?>
<!DOCTYPE svg PUBLIC "-//W3C//DTD SVG 1.1//EN" "http://www.w3.org/Graphics/SVG/1.1/DTD/svg11.dtd" >
<svg xmlns="http://www.w3.org/2000/svg" xmlns:xlink="http://www.w3.org/1999/xlink" version="1.1">
<metadata>
Created by FontForge 20170731 at Wed May 12 04:41:42 2021
 By Aleksey,,,
(c) Copyright David Jonathan Ross, 2016, 2021. All rights reserved.
</metadata>
<defs>
<font id="FormaDJRText-Regular" horiz-adv-x="0" >
  <font-face 
    font-family="Forma DJR Text"
    font-weight="400"
    font-stretch="normal"
    units-per-em="2000"
    panose-1="0 0 0 0 0 0 0 9 0 0"
    ascent="1500"
    descent="-500"
    x-height="1030"
    cap-height="1400"
    bbox="-934 -450 2231 2116"
    underline-thickness="50"
    underline-position="-150"
    unicode-range="U+0020-FB01"
  />
<missing-glyph horiz-adv-x="1200" 
d="M50 1388q0 5 3.5 8.5t8.5 3.5h1076q5 0 8.5 -3.5t3.5 -8.5v-1716q0 -5 -3.5 -8.5t-8.5 -3.5h-1076q-5 0 -8.5 3.5t-3.5 8.5v1716zM971 1244h-742v-1428h742v1428z" />
    <glyph glyph-name=".notdef" horiz-adv-x="1200" 
d="M50 1388q0 5 3.5 8.5t8.5 3.5h1076q5 0 8.5 -3.5t3.5 -8.5v-1716q0 -5 -3.5 -8.5t-8.5 -3.5h-1076q-5 0 -8.5 3.5t-3.5 8.5v1716zM971 1244h-742v-1428h742v1428z" />
    <glyph glyph-name=".null" 
 />
    <glyph glyph-name="nonmarkingreturn" horiz-adv-x="666" 
 />
    <glyph glyph-name="space" unicode=" " horiz-adv-x="372" 
 />
    <glyph glyph-name="space" unicode="&#xa0;" horiz-adv-x="372" 
 />
    <glyph glyph-name="exclam" unicode="!" horiz-adv-x="405" 
d="M131 386q-9 0 -14.5 5.5t-5.5 14.5v974q0 9 5.5 14.5t14.5 5.5h144q9 0 14 -5.5t5 -14.5v-974q0 -9 -5 -14.5t-14 -5.5h-144zM124 0q-9 0 -14 5.5t-5 14.5v163q0 20 19 20h157q9 0 14 -5.5t5 -14.5v-163q0 -20 -19 -20h-157z" />
    <glyph glyph-name="quotedbl" unicode="&#x22;" horiz-adv-x="641" 
d="M137 1006q-20 0 -21 19l-22 355v2q0 18 18 18h141q21 0 19 -20l-23 -355q0 -19 -20 -19h-92zM413 1006q-20 0 -21 19l-22 355v2q0 18 18 18h141q21 0 19 -20l-23 -355q0 -19 -20 -19h-92z" />
    <glyph glyph-name="numbersign" unicode="#" horiz-adv-x="1349" 
d="M1316 1084q20 0 18 -21l-14 -97q-3 -18 -21 -18h-278l-70 -488h277q21 0 18 -21l-17 -97q-3 -18 -21 -18h-277l-44 -306q-1 -18 -20 -18h-132q-10 0 -14.5 5.5t-3.5 15.5l44 303h-280l-44 -306q-3 -18 -20 -18h-132q-10 0 -14.5 5.5t-3.5 15.5l43 303h-277q-21 0 -18 21
l17 97q3 18 21 18h277l70 488h-276q-19 0 -18 21l14 97q3 18 21 18h278l43 298q2 18 20 18h132q10 0 14.5 -5.5t3.5 -15.5l-42 -295h280l42 298q3 18 20 18h132q10 0 14.5 -5.5t3.5 -15.5l-42 -295h276zM570 948l-70 -488h280l70 488h-280z" />
    <glyph glyph-name="dollar" unicode="$" horiz-adv-x="1148" 
d="M1024.5 187.5q-51.5 -92.5 -145 -144.5t-218.5 -64v-159q0 -20 -19 -20h-145q-10 0 -15 5.5t-5 14.5v164q-187 29 -291 151t-113 327v2q0 18 19 18h156q20 0 21 -19q14 -170 88.5 -256.5t238.5 -86.5q138 0 217 65t79 202q0 87 -46.5 136.5t-115 72t-188.5 46.5
q-144 29 -231 61t-148.5 108t-61.5 213q0 171 99.5 273.5t272.5 122.5v120q0 10 5.5 15t14.5 5h145q9 0 14 -5.5t5 -14.5v-122q349 -46 386 -413v-2q0 -9 -5 -14t-13 -5h-155q-18 0 -20 19q-18 276 -298 276q-124 0 -196.5 -59t-72.5 -180q0 -78 44 -123t110 -66t182 -44
q147 -29 237.5 -62t155 -113t64.5 -224q0 -128 -51.5 -220.5z" />
    <glyph glyph-name="percent" unicode="%" horiz-adv-x="1592" 
d="M218 779q-71 39 -109.5 115t-38.5 184q0 107 38.5 184t110 117.5t166.5 40.5t166 -40.5t109.5 -117.5t38.5 -185q0 -107 -39 -182.5t-110 -115t-166 -39.5t-166 39zM274 0q-7 0 -11.5 3.5t-4.5 8.5q0 7 4 12l910 1364q9 12 23 12h117q17 0 17 -13q0 -6 -4 -11l-910 -1364
q-9 -12 -24 -12h-117zM498.5 910q40.5 57 40.5 167q0 111 -41.5 170t-114.5 59t-113.5 -58.5t-40.5 -170.5q0 -109 40.5 -166.5t114.5 -57.5t114.5 57zM1041.5 20.5q-70.5 40.5 -109 118.5t-38.5 185t38.5 182.5t109.5 114.5t166 39q96 0 166.5 -39t109.5 -114.5t39 -183.5
q0 -107 -39 -184.5t-110.5 -118t-166.5 -40.5t-165.5 40.5zM1322 152q41 58 41 171q0 108 -41 166t-115 58q-75 0 -115 -57t-40 -167q0 -113 41 -171t115 -58q73 0 114 58z" />
    <glyph glyph-name="ampersand" unicode="&#x26;" horiz-adv-x="1331" 
d="M1296 24q6 -6 6 -12q0 -5 -5 -8.5t-13 -3.5h-175q-16 0 -24 11l-127 140q-82 -84 -188.5 -129t-229.5 -45q-127 0 -236 45.5t-175 134.5t-66 214q0 103 44.5 181.5t115 135.5t170.5 112q-77 93 -115.5 171.5t-38.5 162.5q0 82 42 149.5t123.5 108t194.5 40.5
q98 0 177.5 -35.5t126 -102t47.5 -155.5q0 -83 -43 -147t-108.5 -110.5t-169.5 -103.5l168 -190l168 -183q63 131 72 304q0 9 5.5 14t14.5 5h129q21 0 19 -23q-9 -122 -42.5 -230.5t-89.5 -197.5zM443 1016.5q29 -54.5 101 -139.5q81 44 132.5 80t84 81.5t32.5 102.5
q0 81 -52 128.5t-141 47.5q-88 0 -137 -47t-49 -140q0 -59 29 -113.5zM729 147q80 39 140 111l-289 330q-18 21 -36 39l-61 69q-114 -68 -176 -141t-62 -177q0 -85 38.5 -146t108 -92.5t162.5 -31.5q95 0 175 39z" />
    <glyph glyph-name="quotesingle" unicode="'" horiz-adv-x="366" 
d="M137 1006q-20 0 -21 19l-22 355v2q0 18 18 18h141q21 0 19 -20l-23 -355q0 -19 -20 -19h-92z" />
    <glyph glyph-name="parenleft" unicode="(" horiz-adv-x="483" 
d="M289 -280q-17 0 -23 14q-103 207 -156 417t-53 449q0 449 206 846q7 14 24 14h105q17 0 17 -13q0 -6 -2 -10q-182 -406 -182 -837q0 -444 184 -857q2 -4 2 -10q0 -13 -17 -13h-105z" />
    <glyph glyph-name="parenright" unicode=")" horiz-adv-x="483" 
d="M89 -280q-17 0 -17 14l2 9q184 413 184 857q0 430 -181 837q-2 4 -2 10q0 13 16 13h106q16 0 23 -14q207 -396 207 -846q0 -239 -53 -449t-156 -417q-8 -14 -23 -14h-106z" />
    <glyph glyph-name="asterisk" unicode="*" horiz-adv-x="684" 
d="M299 866q-9 0 -14.5 5t-4.5 15l6 207l-177 -111q-5 -4 -11 -4q-9 0 -16 10l-40 65q-4 5 -4 11q0 10 11 16l180 97l-182 91q-11 6 -11 16q0 7 2 10l37 73q4 11 15 11q5 0 11 -3l184 -109l-7 214v2q0 9 5 13.5t14 4.5h77q19 0 19 -20l-6 -213l184 117q7 5 11 5q10 0 16 -11
l38 -66q4 -5 4 -11q0 -10 -11 -16l-185 -102l179 -90q11 -5 11 -16q0 -7 -2 -10l-34 -73q-4 -12 -15 -12q-5 0 -11 3l-182 108l7 -207v-2q0 -9 -5 -13.5t-14 -4.5h-79z" />
    <glyph glyph-name="plus" unicode="+" horiz-adv-x="1016" 
d="M939 760q19 0 19 -19v-104q0 -19 -19 -19h-357v-399q0 -19 -19 -19h-108q-19 0 -19 19v399h-359q-19 0 -19 19v104q0 19 19 19h359v401q0 19 19 19h108q19 0 19 -19v-401h357z" />
    <glyph glyph-name="comma" unicode="," horiz-adv-x="322" 
d="M40 -192q-10 0 -14 5.5t-2 15.5l48 175v178q0 9 5.5 14.5t14.5 5.5h143q9 0 14 -5.5t5 -14.5v-164q0 -11 -8 -24l-116 -173q-9 -13 -23 -13h-67z" />
    <glyph glyph-name="hyphen" unicode="-" horiz-adv-x="530" 
d="M59 524q-19 0 -19 19v97q0 19 19 19h411q19 0 19 -19v-97q0 -19 -19 -19h-411z" />
    <glyph glyph-name="hyphen" unicode="&#x2011;" horiz-adv-x="530" 
d="M59 524q-19 0 -19 19v97q0 19 19 19h411q19 0 19 -19v-97q0 -19 -19 -19h-411z" />
    <glyph glyph-name="hyphen" unicode="&#x2010;" horiz-adv-x="530" 
d="M59 524q-19 0 -19 19v97q0 19 19 19h411q19 0 19 -19v-97q0 -19 -19 -19h-411z" />
    <glyph glyph-name="hyphen" unicode="&#xad;" horiz-adv-x="530" 
d="M59 524q-19 0 -19 19v97q0 19 19 19h411q19 0 19 -19v-97q0 -19 -19 -19h-411z" />
    <glyph glyph-name="period" unicode="." horiz-adv-x="332" 
d="M85 0q-10 0 -15 5.5t-5 14.5v162q0 20 20 20h163q10 0 15 -5.5t5 -14.5v-162q0 -10 -5.5 -15t-14.5 -5h-163z" />
    <glyph glyph-name="slash" unicode="/" horiz-adv-x="651" 
d="M65 -287q-10 0 -14.5 5.5t-2.5 15.5l415 1701q3 18 21 18h101q10 0 14.5 -6t2.5 -16l-415 -1701q-3 -17 -21 -17h-101z" />
    <glyph glyph-name="zero" unicode="0" horiz-adv-x="1145" 
d="M306 61q-114 86 -176 249t-62 389q0 230 62 393.5t175.5 248t266.5 84.5t267 -84t176 -247.5t62 -395.5q0 -226 -62.5 -389t-176.5 -248.5t-267 -85.5q-151 0 -265 86zM801.5 269.5q81.5 146.5 81.5 428.5q0 189 -37 318.5t-107 195t-168 65.5q-149 0 -229.5 -147
t-80.5 -432q0 -187 37.5 -316t107 -194t166.5 -65q148 0 229.5 146.5z" />
    <glyph glyph-name="one" unicode="1" horiz-adv-x="696" 
d="M366 0q-19 0 -19 20l7 668l-4 504q-108 -99 -279 -157q-3 -1 -7 -1q-15 0 -15 17v107q0 17 15 22q88 34 162 88t123 119q9 13 24 13h148q19 0 19 -20l-9 -724l9 -636q0 -20 -19 -20h-155z" />
    <glyph glyph-name="two" unicode="2" horiz-adv-x="1023" 
d="M89 0q-9 0 -14 5.5t-5 14.5v162q0 139 58 233.5t140.5 151.5t215.5 126q105 55 165 93.5t100 94.5t40 132q2 121 -66 195.5t-200 74.5q-131 0 -205 -86.5t-81 -252.5q0 -10 -5.5 -15t-14.5 -5h-131q-19 0 -19 20q5 232 121.5 355t334.5 124q140 0 238 -48.5t149.5 -139.5
t53.5 -217q0 -125 -55.5 -211.5t-134 -140.5t-208.5 -121q-108 -56 -171.5 -97t-106 -100.5t-42.5 -140.5v-63h689q9 0 14 -5.5t5 -14.5v-104q0 -9 -5 -14.5t-14 -5.5h-846z" />
    <glyph glyph-name="three" unicode="3" horiz-adv-x="1082" 
d="M192 91.5q-118 111.5 -133 328.5v2q0 8 5.5 13t13.5 5h144q18 0 20 -20q7 -149 77 -228t208 -79q145 0 221.5 82.5t76.5 223.5q0 131 -83.5 197.5t-249.5 66.5h-63q-20 0 -20 19v89q0 19 20 19h63q151 0 227.5 62.5t76.5 172.5q0 74 -32.5 129t-89.5 84t-130 29
q-265 0 -285 -288q-2 -20 -20 -20h-139q-10 0 -15 5.5t-4 14.5q7 135 67 229.5t163 143t241 48.5q123 0 220.5 -43.5t153.5 -125t56 -191.5q0 -119 -64.5 -194t-176.5 -111q131 -28 203 -116.5t72 -221.5q0 -131 -62.5 -230t-174 -153t-254.5 -54q-215 0 -333 111.5z" />
    <glyph glyph-name="four" unicode="4" horiz-adv-x="1081" 
d="M1015 524q19 0 19 -19v-105q0 -9 -5 -14.5t-14 -5.5h-131v-361q0 -19 -19 -19h-147q-20 0 -20 19v361h-630q-9 0 -14.5 5.5t-5.5 14.5v124q0 13 7 24l561 839q9 13 24 13h225q9 0 14 -5.5t5 -14.5v-856h131zM698 524v507l5 234l-494 -741h489z" />
    <glyph glyph-name="five" unicode="5" horiz-adv-x="1079" 
d="M206.5 78.5q-115.5 104.5 -135.5 288.5v4q0 17 18 17h148q18 0 20 -19q9 -120 78.5 -190t191.5 -70q90 0 156 46t101.5 133.5t35.5 208.5q0 179 -72.5 273t-208.5 94q-106 0 -174 -53.5t-94 -153.5q-5 -17 -21 -17h-128q-21 0 -19 20l47 721q1 19 20 19h737q9 0 14 -5.5
t5 -14.5v-104q0 -9 -5 -14.5t-14 -5.5h-595l-30 -387q57 66 131.5 99t173.5 33q124 0 222 -60t153.5 -171.5t55.5 -261.5q0 -161 -61.5 -282t-172.5 -186.5t-256 -65.5q-206 0 -321.5 104.5z" />
    <glyph glyph-name="six" unicode="6" horiz-adv-x="1108" 
d="M203 155.5q-130 180.5 -130 536.5q0 231 62.5 396t179 251t274.5 86q177 0 278.5 -86t124.5 -252v-3q0 -18 -19 -18h-146q-19 0 -20 19q-13 95 -70.5 149.5t-160.5 54.5q-97 0 -166.5 -64t-106.5 -183t-37 -282q48 85 135.5 130t205.5 45q130 0 228 -54.5t152.5 -156.5
t54.5 -240q0 -143 -61 -259.5t-168.5 -183t-241.5 -66.5q-238 0 -368 180.5zM716 157q64 42 98 120.5t34 186.5q-2 155 -73 244t-204 89q-91 0 -156.5 -38.5t-100.5 -112t-35 -174.5q0 -102 34 -183t98 -127.5t151 -46.5q90 0 154 42z" />
    <glyph glyph-name="seven" unicode="7" horiz-adv-x="918" 
d="M292 0q-21 0 -18 21q58 340 160 654.5t247 580.5h-624q-9 0 -14.5 5.5t-5.5 14.5v104q0 9 5.5 14.5t14.5 5.5h804q10 0 15 -5.5t5 -14.5v-112q0 -12 -6 -24q-148 -296 -251 -600.5t-151 -625.5q-3 -18 -21 -18h-160z" />
    <glyph glyph-name="eight" unicode="8" horiz-adv-x="1117" 
d="M308.5 29q-111.5 50 -175 142.5t-63.5 215.5q0 129 73.5 224.5t204.5 132.5q-111 42 -169.5 121.5t-58.5 183.5q0 114 54 199t153.5 130.5t232.5 45.5q134 0 234 -45.5t154 -130t54 -198.5q0 -98 -61.5 -180.5t-172.5 -125.5q134 -37 209 -132.5t75 -224.5
q0 -123 -64 -215.5t-176 -142.5t-252 -50t-251.5 50zM697 834q59 33 90.5 87.5t31.5 118.5q0 78 -32.5 135t-91 87.5t-135.5 30.5t-135.5 -30.5t-90.5 -88.5t-32 -138q0 -67 31.5 -120.5t90 -84t136.5 -30.5t137 33zM719.5 145q69.5 36 107.5 99t38 144q0 86 -36.5 151
t-105.5 101.5t-163 37.5q-94 -1 -162.5 -37.5t-105 -102t-36.5 -150.5q0 -81 38 -144t107 -99t159 -36t159.5 36z" />
    <glyph glyph-name="nine" unicode="9" horiz-adv-x="1108" 
d="M243.5 61q-101.5 86 -124.5 252v4q0 17 18 17h146q18 0 21 -19q11 -97 70 -150.5t161 -53.5q99 0 168 62.5t105 180.5t36 284q-48 -84 -135 -128.5t-205 -44.5q-130 0 -228 54.5t-152.5 156.5t-54.5 240q0 145 60 261t167 182t244 66q237 0 367 -180t130 -537
q0 -231 -62.5 -396t-178.5 -251t-274 -86q-177 0 -278.5 86zM754 689q77 86 77 239q0 102 -33.5 183t-97.5 127.5t-152 46.5q-89 0 -153 -42t-98 -120.5t-34 -186.5q2 -155 72.5 -244t204.5 -89q137 0 214 86z" />
    <glyph glyph-name="colon" unicode=":" horiz-adv-x="333" 
d="M85 0q-10 0 -15 5.5t-5 14.5v162q0 20 20 20h163q10 0 15 -5.5t5 -14.5v-162q0 -10 -5.5 -15t-14.5 -5h-163zM85 829q-10 0 -15 5.5t-5 14.5v162q0 20 20 20h163q10 0 15 -5.5t5 -14.5v-162q0 -10 -5.5 -15t-14.5 -5h-163z" />
    <glyph glyph-name="semicolon" unicode=";" horiz-adv-x="328" 
d="M40 -192q-10 0 -14 5.5t-2 15.5l48 175v178q0 9 5.5 14.5t14.5 5.5h143q9 0 14 -5.5t5 -14.5v-164q0 -11 -8 -24l-116 -173q-9 -13 -23 -13h-67zM81 828q-10 0 -15 5.5t-5 14.5v162q0 20 20 20h163q10 0 15 -5.5t5 -14.5v-162q0 -10 -5.5 -15t-14.5 -5h-163z" />
    <glyph glyph-name="less" unicode="&#x3c;" horiz-adv-x="1016" 
d="M72 611q-14 8 -14 23v110q0 15 14 23l863 393q4 2 10 2q13 0 13 -16v-107q0 -15 -15 -23l-737 -326l737 -328q15 -7 15 -23v-107q0 -16 -13 -16q-6 0 -10 2z" />
    <glyph glyph-name="equal" unicode="=" horiz-adv-x="1016" 
d="M77 848q-19 0 -19 19v104q0 9 5 14.5t14 5.5h862q9 0 14 -5.5t5 -14.5v-104q0 -19 -19 -19h-862zM77 387q-9 0 -14 5.5t-5 14.5v104q0 19 19 19h862q19 0 19 -19v-104q0 -9 -5 -14.5t-14 -5.5h-862z" />
    <glyph glyph-name="greater" unicode="&#x3e;" horiz-adv-x="1016" 
d="M80 218q-3 -2 -9 -2q-13 0 -13 16v107q0 15 14 23l737 328l-737 326q-14 8 -14 23v107q0 16 13 16q6 0 9 -2l863 -393q15 -7 15 -23v-110q0 -15 -15 -23z" />
    <glyph glyph-name="question" unicode="?" horiz-adv-x="974" 
d="M408 386q-9 0 -14 5.5t-5 15.5q3 100 33 174.5t71 125t105 111.5q49 48 76 80t45.5 72t18.5 88q0 109 -71 169t-188 60q-134 0 -198.5 -71t-70.5 -214q0 -10 -5.5 -15t-14.5 -5h-137q-9 0 -14.5 5.5t-4.5 14.5q11 204 128.5 310t328.5 106q123 0 220 -43t152.5 -126
t55.5 -197q0 -72 -22.5 -127.5t-56 -95t-88.5 -91.5q-56 -53 -91 -94.5t-60.5 -100.5t-28.5 -137q0 -10 -5.5 -15t-14.5 -5h-144zM399 0q-9 0 -14 5.5t-5 14.5v163q0 20 19 20h160q9 0 14 -5.5t5 -14.5v-163q0 -20 -19 -20h-160z" />
    <glyph glyph-name="at" unicode="@" horiz-adv-x="1689" 
d="M937.5 964.5q74.5 -42.5 121.5 -124.5l-5 130q0 20 20 20h128q10 0 15 -5.5t5 -14.5v-648q0 -105 30.5 -146.5t84.5 -41.5q51 0 92 40.5t64.5 123t23.5 202.5q0 245 -83.5 422t-237.5 270.5t-363 93.5q-202 0 -351.5 -94t-230.5 -271t-81 -421q0 -238 81.5 -410.5
t231 -264t350.5 -91.5q169 0 294 49.5t198 161.5q9 13 23 13h74q18 0 18 -12q0 -2 -4 -10q-90 -151 -244.5 -223.5t-358.5 -72.5q-230 0 -404.5 104.5t-270 299.5t-95.5 458q0 270 96 468.5t270.5 304t405.5 105.5q237 0 415.5 -105.5t276.5 -304.5t98 -470q0 -144 -39 -248
t-104.5 -158t-144.5 -54q-89 0 -162 47.5t-93 151.5q-47 -100 -128.5 -155t-190.5 -55q-123 0 -210.5 63.5t-132 173.5t-44.5 249q0 137 46.5 249.5t134.5 177.5t208 65q98 0 172.5 -42.5zM995.5 241.5q68.5 92.5 68.5 274.5q0 176 -67 273t-188 98q-129 2 -195 -95.5
t-66 -263.5q0 -175 64.5 -277t190.5 -102q124 0 192.5 92.5z" />
    <glyph glyph-name="A" unicode="A" horiz-adv-x="1258" 
d="M1243 23q2 -6 2 -9q0 -14 -17 -14h-155q-16 0 -22 16l-140 407h-571l-138 -407q-4 -16 -22 -16h-149q-18 0 -18 14q0 3 2 9l489 1361q4 16 21 16h213q16 0 22 -16zM862 573l-239 695l-235 -695h474z" />
    <glyph glyph-name="B" unicode="B" horiz-adv-x="1247" 
d="M126 0q-19 0 -19 20l9 703l-9 657q0 20 19 20h530q143 0 251 -38.5t168.5 -114t60.5 -183.5q0 -129 -64.5 -205t-193.5 -110q151 -36 224.5 -122t75.5 -213q0 -142 -69.5 -234.5t-186.5 -136t-263 -43.5h-533zM300 1264l-8 -456h363q293 0 293 225q0 115 -79 173t-214 58
h-355zM292 673l8 -536h355q333 0 333 276q0 132 -94 196t-239 64h-363z" />
    <glyph glyph-name="C" unicode="C" horiz-adv-x="1365" 
d="M366 62q-147 87 -225 250.5t-78 389.5q0 219 79.5 382.5t227 252t347.5 88.5q225 0 380 -115t203 -369l1 -6q0 -7 -5 -11.5t-13 -4.5h-146q-18 0 -21 18q-31 172 -136.5 257t-265.5 85q-145 0 -248 -70.5t-156.5 -200.5t-53.5 -306q0 -190 54.5 -320t157 -195.5
t245.5 -65.5q175 0 282.5 95.5t128.5 276.5q3 19 21 19h148q10 0 14.5 -6.5t2.5 -17.5q-39 -256 -193.5 -384.5t-399.5 -128.5q-204 0 -351 87z" />
    <glyph glyph-name="D" unicode="D" horiz-adv-x="1341" 
d="M126 0q-19 0 -19 20l9 701l-9 659q0 20 19 20h444q203 0 363.5 -81.5t252.5 -239t92 -378.5q0 -229 -95 -387t-255 -236t-354 -78h-448zM294 724l8 -582h288q130 0 242.5 60t182.5 185.5t70 313.5q0 181 -66.5 306.5t-180.5 188t-256 62.5h-280z" />
    <glyph glyph-name="E" unicode="E" horiz-adv-x="1071" 
d="M126 0q-19 0 -19 20l9 705l-9 655q0 20 19 20h844q9 0 14.5 -5.5t5.5 -14.5v-102q0 -9 -5.5 -14.5t-14.5 -5.5h-670l-8 -440h630q9 0 14.5 -5t5.5 -14v-103q0 -9 -5.5 -14t-14.5 -5h-630l8 -535h686q10 0 15 -5.5t5 -14.5v-102q0 -9 -5.5 -14.5t-14.5 -5.5h-860z" />
    <glyph glyph-name="F" unicode="F" horiz-adv-x="1016" 
d="M126 0q-19 0 -19 20l9 679l-9 681q0 20 19 20h819q9 0 14.5 -5.5t5.5 -14.5v-102q0 -9 -5.5 -14.5t-14.5 -5.5h-645l-8 -502h620q20 0 20 -19v-103q0 -9 -5.5 -14t-14.5 -5h-620l8 -595q0 -20 -19 -20h-155z" />
    <glyph glyph-name="G" unicode="G" horiz-adv-x="1388" 
d="M372 65q-146 90 -227.5 254.5t-81.5 381.5q0 219 81 383t226 252.5t332 88.5q234 0 386 -115.5t202 -333.5q1 -2 1 -7q0 -15 -18 -15h-152q-18 0 -22 17q-34 152 -136.5 231t-259.5 79q-135 0 -236 -69.5t-156 -201t-55 -312.5q0 -177 56.5 -307.5t159 -201t238.5 -70.5
q132 0 225.5 56.5t142 161.5t50.5 248h-418q-9 0 -14 5.5t-5 14.5v100q0 9 5 14.5t14 5.5h595q19 0 19 -24q2 -234 -69 -396.5t-210 -246t-340 -83.5q-187 0 -333 90z" />
    <glyph glyph-name="H" unicode="H" horiz-adv-x="1334" 
d="M1217 692l10 -672q0 -20 -20 -20h-155q-19 0 -19 20l7 639v22h-747v-22l8 -639q0 -20 -19 -20h-156q-19 0 -19 20l9 672l-9 688q0 20 19 20h156q19 0 19 -20l-7 -558h745l-6 558q0 20 19 20h155q20 0 20 -20z" />
    <glyph glyph-name="I" unicode="I" horiz-adv-x="426" 
d="M136 0q-19 0 -19 20l9 694l-9 666q0 20 19 20h154q19 0 19 -20l-9 -666l9 -694q0 -20 -19 -20h-154z" />
    <glyph glyph-name="J" unicode="J" horiz-adv-x="986" 
d="M148.5 104q-104.5 132 -109.5 377q0 20 20 20h143q19 0 19 -20q3 -180 57.5 -270.5t186.5 -90.5q92 0 145 43.5t74 125.5t22 208l2 399l-7 484q0 20 19 20h159q19 0 19 -20l-7 -484l2 -400q5 -524 -429 -524q-211 0 -315.5 132z" />
    <glyph glyph-name="K" unicode="K" horiz-adv-x="1138" 
d="M1119 24q4 -5 4 -11q0 -13 -17 -13h-186q-15 0 -24 13l-445 682l-156 -184l4 -491q0 -20 -19 -20h-154q-19 0 -19 20l9 701l-9 659q0 20 20 20h153q19 0 19 -20l-6 -601v-40l518 649q8 12 24 12h177q7 0 11.5 -3t4.5 -8t-5 -13l-451 -534z" />
    <glyph glyph-name="L" unicode="L" horiz-adv-x="955" 
d="M126 0q-19 0 -19 20l9 716l-9 644q0 20 19 20h155q19 0 19 -20l-8 -636l8 -602h616q10 0 15 -5.5t5 -14.5v-102q0 -9 -5.5 -14.5t-14.5 -5.5h-790z" />
    <glyph glyph-name="M" unicode="M" horiz-adv-x="1600" 
d="M126 0q-19 0 -19 20l8 666l-7 694q0 20 19 20h219q16 0 22 -16l445 -1148l433 1148q6 16 22 16h205q19 0 19 -20l-7 -694l8 -666q0 -20 -19 -20h-151q-9 0 -14.5 5t-5.5 15l2 561l7 569l-430 -1134q-6 -16 -23 -16h-117q-17 0 -23 16l-447 1153l8 -588l2 -561
q0 -10 -5.5 -15t-14.5 -5h-136z" />
    <glyph glyph-name="N" unicode="N" horiz-adv-x="1346" 
d="M126 0q-19 0 -19 20l8 692l-7 668q0 20 19 20h185q16 0 23 -13l732 -1138l-5 520l-2 611q0 20 19 20h141q19 0 19 -20l-8 -668l7 -692q0 -20 -19 -20h-194q-17 0 -24 13l-722 1124l6 -517l2 -600q0 -10 -5.5 -15t-14.5 -5h-141z" />
    <glyph glyph-name="O" unicode="O" horiz-adv-x="1465" 
d="M380.5 64.5q-151.5 89.5 -234.5 253.5t-83 381q0 221 82.5 385t234 252.5t353.5 88.5q201 0 352 -88t234 -252t83 -387q0 -217 -83.5 -381t-235 -253t-351.5 -89t-351.5 89.5zM987.5 190q107.5 69 164.5 199t57 309t-57 310t-164.5 201t-255.5 70t-255.5 -69.5t-164 -200
t-56.5 -311.5q0 -178 57.5 -308t165 -199.5t254.5 -69.5t254.5 69z" />
    <glyph glyph-name="P" unicode="P" horiz-adv-x="1126" 
d="M583 1400q235 0 367 -108.5t132 -315.5q0 -143 -61 -240.5t-172.5 -146.5t-262.5 -49h-292l6 -520q0 -20 -19 -20h-155q-19 0 -19 20l8 699l-8 661q0 20 19 20h457zM597 679q143 0 222.5 70.5t79.5 223.5q0 144 -80 215.5t-230 71.5h-291l-6 -537v-44h305z" />
    <glyph glyph-name="Q" unicode="Q" horiz-adv-x="1468" 
d="M1397 148q9 0 14 -5.5t5 -14.5v-108q0 -9 -5 -14.5t-14 -5.5h-472q-90 -25 -197 -25q-200 0 -351 89.5t-234 253.5t-83 381q0 221 82.5 385t234 252.5t352.5 88.5t352 -88t234 -252t83 -387q0 -184 -61 -326.5t-174 -230.5l89 7h145zM310 390q57 -130 164.5 -199.5
t254.5 -69.5q148 0 255 69t164 199t57 309q0 180 -57 310.5t-164.5 200.5t-255.5 70t-255 -69.5t-163.5 -200t-56.5 -311.5q0 -178 57 -308z" />
    <glyph glyph-name="R" unicode="R" horiz-adv-x="1206" 
d="M1151 24q4 -5 4 -12q0 -5 -4.5 -8.5t-12.5 -3.5h-175q-16 0 -23 13l-135 222l-216 342h-295l6 -557q0 -20 -19 -20h-155q-19 0 -19 20l8 702l-8 658q0 20 19 20h489q244 0 379.5 -104.5t135.5 -304.5q0 -165 -90.5 -264.5t-253.5 -131.5zM298 1260l-6 -518v-26h343
q146 0 229 66.5t83 205.5q0 133 -82.5 202.5t-232.5 69.5h-334z" />
    <glyph glyph-name="S" unicode="S" horiz-adv-x="1234" 
d="M331 32q-127 56 -197.5 165t-77.5 265v2q0 18 19 18h155q18 0 21 -19q13 -169 103.5 -256t285.5 -87q165 0 260 65t95 202q0 85 -53.5 134.5t-133.5 73.5t-218 50q-165 31 -265 64t-170.5 108t-70.5 208q0 126 63 215.5t178.5 136.5t270.5 47q244 0 385.5 -104.5
t164.5 -314.5v-2q0 -19 -19 -19h-155q-18 0 -21 19q-12 138 -101.5 207t-257.5 69q-150 0 -238 -59.5t-88 -178.5q0 -77 51 -122t127 -67t210 -46q170 -31 274 -65t177.5 -113.5t73.5 -219.5t-68.5 -237t-191.5 -146t-284 -49q-177 0 -304 56z" />
    <glyph glyph-name="T" unicode="T" horiz-adv-x="1052" 
d="M446 0q-19 0 -19 20l11 673l-9 564h-385q-9 0 -14.5 5t-5.5 14v104q0 9 5.5 14.5t14.5 5.5h965q9 0 14 -5.5t5 -14.5v-104q0 -19 -19 -19h-386l-9 -564l11 -673q0 -20 -19 -20h-160z" />
    <glyph glyph-name="U" unicode="U" horiz-adv-x="1242" 
d="M235 119q-132 144 -131 411l2 442l-7 408q0 20 19 20h159q19 0 19 -20l-6 -404l1 -445q1 -192 81 -299t251 -107q177 0 260 107.5t83 298.5v442l-5 407q0 20 19 20h144q19 0 19 -20l-5 -408v-442q0 -268 -129.5 -411.5t-385.5 -143.5t-388 144z" />
    <glyph glyph-name="V" unicode="V" horiz-adv-x="1226" 
d="M15 1377q-2 6 -2 9q0 14 18 14h166q17 0 22 -16l407 -1237l403 1237q4 16 22 16h144q18 0 18 -14q0 -3 -2 -9l-471 -1361q-4 -16 -21 -16h-207q-17 0 -21 16z" />
    <glyph glyph-name="W" unicode="W" horiz-adv-x="1760" 
d="M24 1378q-1 2 -1 6q0 16 18 16h150q18 0 21 -17l288 -1198l274 1198q3 17 21 17h179q17 0 21 -17l278 -1206l288 1206q3 17 21 17h137q10 0 14.5 -6t2.5 -16l-353 -1361q-4 -17 -22 -17h-184q-18 0 -22 17l-280 1124l-270 -1124q-3 -17 -21 -17h-190q-17 0 -21 17z" />
    <glyph glyph-name="X" unicode="X" horiz-adv-x="1194" 
d="M45 0q-8 0 -12.5 3.5t-4.5 8.5q0 7 4 12l455 715l-413 637q-4 5 -4 12q0 5 4.5 8.5t12.5 3.5h181q16 0 23 -13l310 -505l308 505q7 13 23 13h165q8 0 12.5 -3.5t4.5 -8.5q0 -7 -4 -12l-406 -644l458 -708q4 -8 4 -11q0 -6 -4.5 -9.5t-12.5 -3.5h-181q-17 0 -24 13
l-352 583l-358 -583q-7 -13 -23 -13h-166z" />
    <glyph glyph-name="Y" unicode="Y" horiz-adv-x="1134" 
d="M18 1377q-3 6 -3 11t4.5 8.5t12.5 3.5h170q17 0 23 -15l349 -726l351 726q5 15 23 15h154q17 0 17 -13q0 -4 -3 -10l-461 -888l6 -469q0 -20 -19 -20h-155q-19 0 -19 20l7 473z" />
    <glyph glyph-name="Z" unicode="Z" horiz-adv-x="1139" 
d="M73 0q-9 0 -14 5.5t-5 14.5v122q0 12 8 24l790 1092h-726q-9 0 -14 5.5t-5 14.5v102q0 9 5 14.5t14 5.5h929q9 0 14 -5.5t5 -14.5v-126q0 -12 -8 -24l-785 -1088h785q9 0 14 -5.5t5 -14.5v-102q0 -9 -5 -14.5t-14 -5.5h-993z" />
    <glyph glyph-name="bracketleft" unicode="[" horiz-adv-x="500" 
d="M111 -280q-9 0 -14.5 5.5t-5.5 14.5v1700q0 10 5.5 15t14.5 5h310q9 0 14 -5.5t5 -14.5v-102q0 -9 -5 -14.5t-14 -5.5h-166v-1456h166q9 0 14 -5.5t5 -14.5v-102q0 -9 -5 -14.5t-14 -5.5h-310z" />
    <glyph glyph-name="backslash" unicode="\" horiz-adv-x="652" 
d="M484 -287q-18 0 -21 17l-415 1701l-1 6q0 7 5 11.5t13 4.5h102q18 0 21 -18l415 -1701l1 -6q0 -7 -5 -11t-13 -4h-102z" />
    <glyph glyph-name="bracketright" unicode="]" horiz-adv-x="500" 
d="M79 -280q-9 0 -14 5.5t-5 14.5v102q0 9 5 14.5t14 5.5h166v1456h-166q-9 0 -14 5.5t-5 14.5v102q0 9 5 14.5t14 5.5h310q10 0 15 -5.5t5 -14.5v-1700q0 -10 -5.5 -15t-14.5 -5h-310z" />
    <glyph glyph-name="asciicircum" unicode="^" horiz-adv-x="1008" 
d="M69 564q-8 0 -12.5 3.5t-4.5 8.5t3 11l377 798q5 15 23 15h97q17 0 24 -15l377 -798q2 -4 2 -10q0 -13 -17 -13h-106q-15 0 -23 15l-306 666l-305 -666q-6 -15 -23 -15h-106z" />
    <glyph glyph-name="underscore" unicode="_" horiz-adv-x="801" 
d="M60 -340q-9 0 -14.5 5.5t-5.5 14.5v96q0 9 5.5 14.5t14.5 5.5h680q9 0 14.5 -5.5t5.5 -14.5v-96q0 -10 -5.5 -15t-14.5 -5h-680z" />
    <glyph glyph-name="grave" unicode="`" horiz-adv-x="715" 
d="M587 1153q-4 -13 -17 -13q-5 0 -8 1l-443 156q-8 3 -11.5 9.5t-0.5 15.5l36 103q5 13 15 13q4 0 10 -3l429 -200q13 -6 13 -17q0 -3 -2 -9z" />
    <glyph glyph-name="a" unicode="a" horiz-adv-x="1089" 
d="M987 526l7 -506q0 -20 -19 -20h-145q-20 0 -20 20l4 157q-51 -94 -134.5 -145t-194.5 -51q-135 0 -231 69.5t-145.5 190t-49.5 272.5q0 150 51 272.5t148.5 193.5t229.5 71q110 0 192.5 -47.5t132.5 -139.5l-4 147q0 20 20 20h146q19 0 19 -20zM742.5 210.5
q76.5 102.5 76.5 302.5q0 197 -75.5 303.5t-212.5 106.5q-142 0 -214.5 -107.5t-72.5 -289.5q0 -192 72.5 -305t212.5 -113q137 0 213.5 102.5z" />
    <glyph glyph-name="b" unicode="b" horiz-adv-x="1089" 
d="M835 981.5q96 -69.5 145.5 -190.5t49.5 -273q0 -150 -51.5 -272.5t-148.5 -194t-229 -71.5q-110 0 -193 48t-133 141l5 -148q0 -20 -20 -20h-146q-19 0 -19 20l7 753l-7 606q0 20 19 20h148q9 0 14.5 -5t5.5 -15l-4 -517q52 90 134.5 139t191.5 49q135 0 231 -69.5z
M771.5 217q72.5 108 72.5 290q0 191 -72 303t-212 112q-135 0 -212.5 -102.5t-77.5 -299.5t75.5 -304t212.5 -107q141 0 213.5 108z" />
    <glyph glyph-name="c" unicode="c" horiz-adv-x="1038" 
d="M280.5 42.5q-108.5 65.5 -165 186.5t-56.5 283q0 163 56.5 285t166 189t263.5 67q124 0 217.5 -44.5t148.5 -125.5t67 -189v-4q0 -16 -18 -16h-131q-18 0 -21 18q-20 114 -90 173.5t-173 59.5q-150 -1 -224 -107.5t-74 -304.5q0 -201 74 -305t225 -104q115 0 188 69
t86 194q2 19 20 19h133q10 0 15 -5t4 -13q-11 -114 -68 -202.5t-155 -138.5t-228 -50q-152 0 -260.5 65.5z" />
    <glyph glyph-name="d" unicode="d" horiz-adv-x="1089" 
d="M988 783l6 -763q0 -20 -19 -20h-146q-20 0 -20 20l5 155q-51 -93 -135 -144t-194 -51q-135 0 -231 69.5t-145.5 190.5t-49.5 273q0 150 51.5 272.5t148.5 194t229 71.5q109 0 190.5 -46.5t132.5 -136.5l-4 512q0 20 20 20h148q19 0 19 -20zM742 209q77 103 77 304
q0 197 -75.5 305t-212.5 108q-142 0 -214.5 -109t-72.5 -292q0 -192 72.5 -305.5t212.5 -113.5q136 0 213 103z" />
    <glyph glyph-name="e" unicode="e" horiz-adv-x="1077" 
d="M244 493q9 -389 309 -389q113 0 181.5 60.5t91.5 175.5q5 18 22 18h136q10 0 15 -4.5t4 -12.5q-16 -108 -73.5 -190t-153.5 -128t-225 -46q-157 0 -268 67t-167.5 188t-56.5 280q0 161 57.5 283t166.5 190t258 68q148 0 254.5 -64.5t164 -185.5t60.5 -290q0 -20 -19 -20
h-757zM341.5 846q-73.5 -81 -91.5 -230h573q-3 87 -35.5 157.5t-95 112t-150.5 41.5q-127 0 -200.5 -81z" />
    <glyph glyph-name="f" unicode="f" horiz-adv-x="671" 
d="M216 0q-19 0 -19 20l6 445v432h-142q-9 0 -14.5 5.5t-5.5 14.5v93q0 10 5.5 15t14.5 5h142v93q0 106 38.5 174t100 98.5t133.5 31.5q65 0 134 -15q17 -4 17 -21v-90q0 -10 -5.5 -14.5t-15.5 -2.5q-36 9 -91 9q-132 0 -132 -184v-79h224q9 0 14 -5.5t5 -14.5v-93
q0 -20 -19 -20h-224v-432l6 -445q0 -20 -19 -20h-153z" />
    <glyph glyph-name="g" unicode="g" horiz-adv-x="1084" 
d="M259 71q-99 66 -149.5 181.5t-50.5 264.5q0 148 51.5 269t149.5 191t232 70q109 0 190.5 -48.5t130.5 -140.5l-4 152q0 20 20 20h143q9 0 14.5 -5t5.5 -15l-6 -494l4 -442q1 -225 -117.5 -345.5t-340.5 -120.5q-122 -1 -218.5 33t-156.5 105t-69 178v2q0 18 19 18h142
q18 0 21 -18q13 -96 83.5 -143.5t181.5 -47.5q135 0 209 83.5t74 257.5v117q-49 -91 -130.5 -139.5t-189.5 -48.5q-140 0 -239 66zM742.5 226q75.5 97 75.5 290q0 194 -75.5 300.5t-212.5 106.5q-139 0 -213 -107.5t-74 -292.5q0 -190 74 -292t217 -102q133 0 208.5 97z" />
    <glyph glyph-name="h" unicode="h" horiz-adv-x="1050" 
d="M869 947.5q91 -106.5 90 -323.5l-2 -206l6 -398q0 -20 -19 -20h-150q-21 0 -19 20l5 396l-1 221q-1 143 -58.5 211.5t-156.5 68.5q-96 0 -173 -70.5t-118 -196.5l7 -630q0 -20 -19 -20h-146q-19 0 -19 20l7 691l-7 670q0 20 19 20h146q19 0 19 -20l-6 -524
q52 88 136.5 142.5t198.5 54.5q169 0 260 -106.5z" />
    <glyph glyph-name="i" unicode="i" horiz-adv-x="397" 
d="M124 0q-20 0 -20 20l6 512l-6 478q0 20 20 20h150q19 0 19 -20l-6 -478l6 -512q0 -20 -19 -20h-150zM127 1155q-20 0 -20 19v154q0 9 5.5 14t14.5 5h146q9 0 14.5 -5t5.5 -14v-154q0 -9 -5.5 -14t-14.5 -5h-146z" />
    <glyph glyph-name="j" unicode="j" horiz-adv-x="397" 
d="M124 -340q-20 0 -20 20l6 650l-6 680q0 20 20 20h150q19 0 19 -20l-6 -680l6 -650q0 -20 -19 -20h-150zM127 1155q-20 0 -20 19v154q0 9 5.5 14t14.5 5h146q9 0 14.5 -5t5.5 -14v-154q0 -9 -5.5 -14t-14.5 -5h-146z" />
    <glyph glyph-name="k" unicode="k" horiz-adv-x="934" 
d="M911 23q3 -6 3 -10q0 -6 -4.5 -10t-12.5 -4h-171q-15 0 -23 14l-301 513l-126 -138l4 -369q0 -10 -5.5 -15t-14.5 -5h-146q-19 0 -19 20l8 675l-8 686q0 20 19 20h146q9 0 14.5 -5t5.5 -15l-7 -683v-112l393 434q8 11 24 11h161q17 0 17 -11q0 -4 -7 -13l-330 -347z" />
    <glyph glyph-name="l" unicode="l" horiz-adv-x="394" 
d="M124 0q-19 0 -19 20l8 689l-8 671q0 20 19 20h146q19 0 19 -20l-7 -669l7 -691q0 -20 -19 -20h-146z" />
    <glyph glyph-name="m" unicode="m" horiz-adv-x="1623" 
d="M1533 406l4 -386q0 -20 -19 -20h-150q-21 0 -19 20l5 386v231q0 144 -52 211t-146 67q-85 0 -151 -74t-97 -207q2 -32 2 -51v-177l6 -386q0 -20 -19 -20h-150q-9 0 -14.5 5t-4.5 15l5 386v231q0 278 -198 278q-90 0 -158 -82t-97 -228v-199l5 -386v-2q0 -9 -5 -13.5
t-14 -4.5h-152q-19 0 -19 20l7 386l-5 604q0 20 19 20h141q20 0 20 -20l-5 -160q53 93 131.5 148.5t186.5 55.5q112 0 187.5 -54t108.5 -165q115 219 325 219q155 0 238.5 -101.5t83.5 -308.5v-238z" />
    <glyph glyph-name="n" unicode="n" horiz-adv-x="1051" 
d="M960 440l4 -420q0 -20 -19 -20h-147q-20 0 -20 20l5 420v197q0 139 -59 208.5t-159 69.5q-103 0 -178.5 -81t-105.5 -229v-165l3 -420q0 -20 -19 -20h-149q-20 0 -20 20l7 448l-5 542q0 20 20 20h139q20 0 20 -20l-5 -160q53 88 140.5 146t202.5 58q162 0 253.5 -105
t91.5 -305v-204z" />
    <glyph glyph-name="o" unicode="o" horiz-adv-x="1094" 
d="M284 43q-110 66 -167.5 187t-57.5 283t57.5 284t167.5 189t264 67t264 -66t167 -187.5t57 -283.5q0 -163 -57 -284.5t-167 -188t-264 -66.5t-264 66zM772.5 209q74.5 105 74.5 304q0 198 -75.5 305.5t-224.5 107.5q-149 -1 -225 -108t-76 -306q0 -198 76.5 -303
t225.5 -105q150 0 224.5 105z" />
    <glyph glyph-name="p" unicode="p" horiz-adv-x="1089" 
d="M835 981.5q96 -69.5 145.5 -190.5t49.5 -273q0 -150 -51.5 -272.5t-148.5 -194t-229 -71.5q-109 0 -190 46.5t-132 136.5l5 -483q0 -10 -5.5 -15t-14.5 -5h-150q-19 0 -19 20l7 772l-7 558q0 20 19 20h146q20 0 20 -20l-5 -154q51 93 135 144t194 51q135 0 231 -69.5z
M771.5 215.5q73.5 107.5 73.5 289.5q0 192 -72.5 304.5t-214.5 112.5q-135 0 -211.5 -103.5t-76.5 -300.5q0 -196 74.5 -303t209.5 -107q144 0 217.5 107.5z" />
    <glyph glyph-name="q" unicode="q" horiz-adv-x="1089" 
d="M681 1000.5q82 -47.5 132 -139.5l-4 149q0 20 20 20h146q19 0 19 -20l-7 -601l7 -729q0 -20 -19 -20h-148q-20 0 -20 20l3 488q-51 -88 -133.5 -136.5t-191.5 -48.5q-135 0 -231 69t-145.5 189t-49.5 272q0 150 51 271.5t148.5 192.5t229.5 71q111 0 193 -47.5z
M742.5 212.5q76.5 102.5 76.5 298.5q0 129 -33.5 221.5t-97.5 141t-153 48.5q-142 0 -216.5 -107t-74.5 -291q0 -191 72.5 -302.5t214.5 -111.5q135 0 211.5 102.5z" />
    <glyph glyph-name="r" unicode="r" horiz-adv-x="723" 
d="M114 0q-19 0 -19 20l6 506l-6 484q0 20 19 20h145q20 0 20 -20l-7 -176q54 99 147 152.5t203 53.5q33 0 60 -6q8 -1 12.5 -7.5t4.5 -14.5v-100q0 -21 -21 -18q-21 4 -56 4q-89 0 -162.5 -35.5t-122 -109t-60.5 -181.5l4 -552q0 -10 -5.5 -15t-14.5 -5h-147z" />
    <glyph glyph-name="s" unicode="s" horiz-adv-x="1002" 
d="M186 70q-124 92 -131 269q0 19 19 19h139q19 0 19 -19q6 -123 78 -182t210 -59q116 0 184.5 48t68.5 135q0 59 -39 92.5t-97 49.5t-160 34q-128 22 -207.5 46.5t-135.5 83.5t-56 165q0 96 50.5 163.5t142 102t214.5 34.5q186 0 302 -78.5t127 -232.5v-2q0 -9 -5 -13.5
t-14 -4.5h-133q-19 0 -20 19q-10 97 -77.5 145.5t-181.5 48.5q-108 0 -169 -43t-61 -128q0 -54 37 -84.5t92.5 -45t153.5 -30.5q132 -21 213.5 -46.5t140 -87.5t58.5 -175q0 -97 -56 -169t-154 -109.5t-220 -37.5q-208 0 -332 92z" />
    <glyph glyph-name="t" unicode="t" horiz-adv-x="651" 
d="M252 54q-77 71 -77 228l1 494v120h-113q-9 0 -14.5 5t-5.5 14v95q0 10 5.5 15t14.5 5h112l-2 238q0 20 19 20h148q20 0 20 -20l-3 -238h235q9 0 14 -5.5t5 -14.5v-95q0 -19 -19 -19h-236v-117l1 -493q0 -92 30.5 -129t98.5 -37q60 0 102 11q2 1 7 1q15 0 15 -18v-87
q0 -17 -14 -21q-80 -23 -143 -23q-124 0 -201 71z" />
    <glyph glyph-name="u" unicode="u" horiz-adv-x="1051" 
d="M182.5 81q-91.5 105 -91.5 305v204l-4 420q0 20 19 20h147q20 0 20 -20l-5 -420v-197q0 -139 59 -208.5t159 -69.5q103 0 178.5 81t105.5 229v165l-3 420q0 20 19 20h149q19 0 19 -20l-6 -448l5 -542q0 -20 -20 -20h-139q-20 0 -20 20l5 160q-53 -88 -140.5 -146
t-202.5 -58q-162 0 -253.5 105z" />
    <glyph glyph-name="v" unicode="v" horiz-adv-x="981" 
d="M12 1007q-2 6 -2 9q0 14 17 14h159q16 0 22 -16l290 -867l298 867q5 16 22 16h136q17 0 17 -14q0 -3 -2 -9l-359 -995q-6 -15 -22 -15h-191q-16 0 -22 15z" />
    <glyph glyph-name="w" unicode="w" horiz-adv-x="1412" 
d="M20 1008q-1 2 -1 7q0 7 5 11t13 4h145q18 0 21 -17l200 -856l198 856q3 17 21 17h183q18 0 21 -17l206 -845l191 845q3 17 21 17h131q10 0 14.5 -6t2.5 -16l-251 -991q-4 -17 -22 -17h-179q-18 0 -22 17l-218 860l-195 -860q-5 -17 -21 -17h-178q-18 0 -21 17z" />
    <glyph glyph-name="x" unicode="x" horiz-adv-x="938" 
d="M34 0q-17 0 -17 13q0 5 3 11l331 518l-303 464q-4 5 -4 12q0 5 5 8.5t12 3.5h164q15 0 24 -13l231 -375l224 374q6 14 23 14h144q16 0 16 -13q0 -5 -3 -11l-294 -467l327 -515q4 -8 4 -11q0 -6 -4.5 -9.5t-12.5 -3.5h-164q-17 0 -24 13l-253 414l-257 -414
q-7 -13 -23 -13h-149z" />
    <glyph glyph-name="y" unicode="y" horiz-adv-x="951" 
d="M754 1014q5 16 22 16h148q17 0 17 -15q0 -5 -1 -8l-463 -1331q-6 -16 -22 -16h-134q-8 0 -13 4t-5 11l2 8l111 314l-404 1010q-2 6 -2 9q0 14 18 14h165q16 0 22 -16l291 -779z" />
    <glyph glyph-name="z" unicode="z" horiz-adv-x="933" 
d="M81 0q-9 0 -14.5 5.5t-5.5 14.5v102q0 13 8 24l557 750h-502q-20 0 -20 19v95q0 10 5.5 15t14.5 5h704q9 0 14.5 -5.5t5.5 -14.5v-102q0 -12 -9 -24l-560 -750h574q9 0 14.5 -5t5.5 -14v-95q0 -10 -5.5 -15t-14.5 -5h-772z" />
    <glyph glyph-name="braceleft" unicode="{" horiz-adv-x="511" 
d="M374 1318q-53 0 -79 -24t-26 -77q0 -52 23 -127l78 -284q12 -39 12 -75q0 -107 -113 -142q112 -36 112 -144q0 -33 -11 -71l-70 -260q-28 -94 -28 -151q0 -54 25.5 -77.5t76.5 -23.5h55q9 0 14 -5.5t5 -14.5v-102q0 -9 -5 -14.5t-14 -5.5h-57q-132 0 -197.5 60.5
t-65.5 172.5q0 70 28 163l70 258q15 48 15 79q0 32 -19 49.5t-64 17.5h-32q-20 0 -20 19v102q0 9 5.5 14t14.5 5h32q45 0 64 17.5t19 49.5q0 31 -15 79l-78 284q-22 70 -22 133q0 112 70.5 174.5t194.5 62.5h57q9 0 14 -5.5t5 -14.5v-102q0 -9 -5 -14.5t-14 -5.5h-55z" />
    <glyph glyph-name="bar" unicode="|" horiz-adv-x="277" 
d="M87 -280q-9 0 -14 5.5t-5 14.5v1700q0 20 19 20h103q9 0 14.5 -5.5t5.5 -14.5v-1700q0 -10 -5.5 -15t-14.5 -5h-103z" />
    <glyph glyph-name="braceright" unicode="}" horiz-adv-x="511" 
d="M423 539q0 -19 -19 -19h-33q-44 0 -63 -17.5t-19 -49.5q0 -31 15 -79l69 -258q28 -88 28 -164q0 -111 -65.5 -171.5t-196.5 -60.5h-57q-9 0 -14.5 5.5t-5.5 14.5v102q0 9 5.5 14.5t14.5 5.5h55q51 0 76.5 23.5t25.5 77.5q0 57 -28 151l-70 260q-12 43 -12 72q0 50 27 87
t85 56q-112 35 -112 142q0 36 12 75l78 284q23 75 23 127q0 53 -26 77t-79 24h-55q-9 0 -14.5 5.5t-5.5 14.5v102q0 9 5.5 14.5t14.5 5.5h57q123 0 194 -62.5t71 -174.5q0 -58 -23 -133l-77 -284q-15 -48 -15 -79q0 -32 19 -49.5t63 -17.5h33q19 0 19 -19v-102z" />
    <glyph glyph-name="asciitilde" unicode="~" horiz-adv-x="1013" 
d="M76 582q-20 0 -20 20q4 178 70 287t190 109q56 0 100 -25t75 -60.5t70 -90.5q42 -58 69.5 -85.5t61.5 -27.5q66 0 96.5 68t32.5 185q0 10 5.5 15t14.5 5h97q19 0 19 -20q-3 -177 -68 -281.5t-190 -104.5q-53 0 -95.5 24t-72.5 57.5t-69 87.5q-44 61 -74.5 90.5
t-69.5 29.5q-121 0 -126 -263q0 -10 -5.5 -15t-14.5 -5h-96z" />
    <glyph glyph-name="exclamdown" unicode="&#xa1;" horiz-adv-x="405" 
d="M281 1030q9 0 14 -5.5t5 -14.5v-163q0 -20 -19 -20h-157q-9 0 -14 5.5t-5 14.5v163q0 20 19 20h157zM274 644q9 0 14 -5.5t5 -14.5v-974q0 -9 -5 -14.5t-14 -5.5h-144q-9 0 -14.5 5.5t-5.5 14.5v974q0 9 5.5 14.5t14.5 5.5h144z" />
    <glyph glyph-name="cent" unicode="&#xa2;" horiz-adv-x="1053" 
d="M988 586q10 0 15 -5t4 -13q-14 -150 -106 -252.5t-243 -129.5v-166q0 -20 -19 -20h-145q-10 0 -15 5.5t-5 14.5v162q-127 17 -217 86.5t-136.5 183t-46.5 260.5t46.5 261t136 185t217.5 89v143q0 10 5.5 15t14.5 5h145q9 0 14 -5.5t5 -14.5v-145q145 -25 232.5 -117.5
t102.5 -233.5v-4q0 -16 -18 -16h-131q-18 0 -20 18q-20 114 -90.5 173.5t-173.5 59.5q-150 -1 -224 -107.5t-74 -304.5q0 -201 74 -305t225 -104q115 0 188 69t86 194q2 19 20 19h133z" />
    <glyph glyph-name="sterling" unicode="&#xa3;" horiz-adv-x="1144" 
d="M1079 438q19 0 19 -23q-6 -229 -116.5 -335t-318.5 -99l-608 18q-9 0 -14 6t-5 15v95q0 16 16 22l42 15q90 32 128.5 90.5t38.5 137.5q0 53 -13 114t-38 145h-181q-9 0 -14.5 5t-5.5 14v93q0 9 5.5 14.5t14.5 5.5h147q-20 72 -31.5 131.5t-11.5 113.5q0 118 55.5 211
t157 145t235.5 52q198 0 319 -110t146 -315v-4q0 -17 -18 -17h-144q-18 0 -21 19q-16 130 -88.5 205.5t-195.5 75.5q-79 0 -136.5 -35t-88 -95t-30.5 -132q0 -96 43 -245h311q10 0 15 -5.5t5 -14.5v-93q0 -9 -5.5 -14t-14.5 -5h-279q20 -76 31 -133t11 -109
q0 -81 -47.5 -151t-137.5 -104l394 -15q97 -3 154 28.5t81 96.5t26 167q0 19 20 19h148z" />
    <glyph glyph-name="currency" unicode="&#xa4;" horiz-adv-x="1039" 
d="M968 298q6 -6 6 -13t-7 -14l-63 -63q-6 -6 -13 -6t-14 7l-160 168q-88 -66 -197 -66q-108 0 -197 65l-161 -168q-6 -6 -13 -6q-6 0 -14 6l-64 63q-6 8 -6 14q0 7 6 13l160 167q-67 99 -67 221q0 61 17.5 118t49.5 104l-151 159q-6 6 -6 13q0 8 7 15l63 63q7 7 13 7t14 -8
l153 -160q86 64 196 64t199 -68l158 164q7 7 15 7q7 0 13 -6l63 -63q7 -7 7 -14t-7 -14l-157 -164q64 -95 64 -217q0 -62 -17 -118t-49 -102zM631.5 457q50.5 34 80.5 94t30 135q0 77 -29.5 137t-80.5 93t-112 33q-63 0 -113.5 -32.5t-79.5 -92.5t-29 -138q0 -76 29 -136
t79.5 -93.5t113.5 -33.5q61 0 111.5 34z" />
    <glyph glyph-name="yen" unicode="&#xa5;" horiz-adv-x="1153" 
d="M1110 1400q17 0 17 -13q0 -4 -3 -10l-447 -776h330q20 0 20 -19v-94q0 -19 -20 -19h-342l1 -133h341q10 0 15 -5.5t5 -14.5v-93q0 -9 -5 -14.5t-15 -5.5h-339l3 -183q0 -20 -19 -20h-156q-19 0 -19 20l3 183h-334q-9 0 -14 5.5t-5 14.5v93q0 9 5 14.5t14 5.5h336l1 133
h-337q-19 0 -19 19v94q0 19 19 19h327l-444 776q-4 8 -4 11q0 5 5 8.5t12 3.5h171q15 0 23 -14l348 -665l350 665q8 14 23 14h153z" />
    <glyph glyph-name="brokenbar" unicode="&#xa6;" horiz-adv-x="277" 
d="M87 720q-9 0 -14 5.5t-5 14.5v700q0 20 19 20h103q9 0 14.5 -5.5t5.5 -14.5v-700q0 -10 -5.5 -15t-14.5 -5h-103zM87 -280q-9 0 -14 5.5t-5 14.5v700q0 20 19 20h103q9 0 14.5 -5.5t5.5 -14.5v-700q0 -10 -5.5 -15t-14.5 -5h-103z" />
    <glyph glyph-name="section" unicode="&#xa7;" horiz-adv-x="1165" 
d="M1019 125.5q70 -72.5 70 -195.5q0 -107 -64 -185t-174.5 -119.5t-249.5 -41.5q-153 0 -269 41.5t-183 124.5t-73 205q0 20 20 20h138q17 0 19 -19q7 -128 94.5 -190t253.5 -62q144 0 228.5 50.5t84.5 142.5q0 69 -47 113.5t-117 70.5t-190 57q-148 37 -240 72t-156.5 104
t-64.5 182q0 109 66.5 183.5t185.5 106.5q-119 44 -185.5 110t-66.5 174q0 109 57.5 185.5t163 115.5t246.5 39q213 0 345 -84t144 -247v-2q0 -9 -5 -13.5t-14 -4.5h-132q-18 0 -21 19q-10 107 -94 160.5t-225 53.5q-136 0 -213 -47.5t-77 -143.5q0 -59 42.5 -98t108 -62.5
t174.5 -50.5q162 -39 256.5 -73t164 -104t69.5 -187q0 -102 -71 -174.5t-193 -106.5q124 -47 194 -119.5zM321 416q47 -41 114.5 -63.5t195.5 -54.5q134 14 208.5 64t74.5 131q0 69 -49 113t-119.5 68t-199.5 57q-272 -29 -272 -209q0 -65 47 -106z" />
    <glyph glyph-name="dieresis" unicode="&#xa8;" horiz-adv-x="682" 
d="M120 1155q-9 0 -14.5 5t-5.5 14v154q0 9 5.5 14t14.5 5h124q20 0 20 -19v-154q0 -9 -5.5 -14t-14.5 -5h-124zM437 1155q-19 0 -19 19v154q0 19 19 19h125q9 0 14.5 -5t5.5 -14v-154q0 -9 -5.5 -14t-14.5 -5h-125z" />
    <glyph glyph-name="copyright" unicode="&#xa9;" horiz-adv-x="1474" 
d="M385 64.5q-151 89.5 -234 253.5t-83 381q0 221 82.5 385t234 252.5t352.5 88.5t352 -88t234 -252t83 -387q0 -217 -83.5 -381t-235 -253t-351.5 -89t-351 89.5zM1043.5 136.5q128.5 76.5 196.5 220t68 341.5t-68 342.5t-197 222t-307 77.5q-179 0 -307.5 -77t-196 -221.5
t-67.5 -343.5q0 -197 68.5 -340.5t197.5 -220.5t306 -77q178 0 306.5 76.5zM525.5 295.5q-93.5 55.5 -143 159.5t-49.5 248q0 141 50.5 245t144.5 160t221 56q142 0 240 -71.5t130 -228.5l1 -6q0 -7 -5 -11.5t-13 -4.5h-87q-16 0 -21 18q-20 102 -85 152.5t-162 50.5
q-89 0 -153 -44t-97 -125.5t-33 -190.5q0 -178 73.5 -270.5t208.5 -92.5q107 0 173 57.5t81 166.5q3 18 21 18h88q10 0 14.5 -6.5t3.5 -17.5q-27 -159 -125.5 -238.5t-252.5 -79.5q-130 0 -223.5 55.5z" />
    <glyph glyph-name="ordfeminine" unicode="&#xaa;" horiz-adv-x="865" 
d="M788 1033l3 -366q0 -10 -5.5 -15t-14.5 -5h-122q-20 0 -20 20l2 84q-41 -58 -103.5 -89t-143.5 -31q-103 0 -176.5 51.5t-111.5 141.5t-38 204q0 109 39 198.5t114 141.5t176 52q80 0 141.5 -28.5t101.5 -84.5l-1 76v2q0 18 19 18h123q9 0 14.5 -5t5.5 -15zM582 810
q55 74 55 219q0 136 -54.5 210.5t-151.5 74.5q-103 0 -155 -77t-52 -207q0 -135 51.5 -214.5t151.5 -79.5t155 74z" />
    <glyph glyph-name="guillemotleft" unicode="&#xab;" horiz-adv-x="875" 
d="M316 200q-13 0 -24 12l-244 339q-5 8 -5 14t5 13l244 330q9 12 24 12h111q8 0 12.5 -3.5t4.5 -8.5t-5 -12l-246 -331l246 -341q4 -5 4 -12q0 -12 -16 -12h-111zM682 200q-13 0 -24 12l-244 339q-5 8 -5 14t5 13l244 330q9 12 24 12h111q8 0 12.5 -3.5t4.5 -8.5t-5 -12
l-246 -331l246 -341q4 -5 4 -12q0 -12 -16 -12h-111z" />
    <glyph glyph-name="logicalnot" unicode="&#xac;" horiz-adv-x="1031" 
d="M85 618q-20 0 -20 19v104q0 9 5.5 14t14.5 5h862q9 0 14.5 -5t5.5 -14v-522q0 -9 -5.5 -14t-14.5 -5h-108q-19 0 -19 19v399h-735z" />
    <glyph glyph-name="registered" unicode="&#xae;" horiz-adv-x="734" 
d="M203 803q-71 41 -110.5 116t-39.5 173q0 101 39 176t110 115.5t166 40.5q94 0 165 -40t109.5 -115t38.5 -177q0 -99 -38.5 -173.5t-109.5 -115.5t-165 -41t-165 41zM555 888.5q67 73.5 67 203.5q0 131 -67 205.5t-187 74.5q-121 0 -188.5 -74.5t-67.5 -205.5
q0 -130 68 -203.5t188 -73.5t187 73.5zM239 898q-20 0 -20 19v353q0 10 5.5 15t14.5 5h126q75 0 117 -30t42 -87q0 -44 -25 -72t-70 -39l90 -141q4 -5 4 -11q0 -5 -4.5 -8.5t-11.5 -3.5h-41q-16 0 -23 13l-91 143h-63l2 -137q0 -19 -19 -19h-33zM291 1238l-2 -131h80
q40 0 62 15.5t22 48.5q0 67 -85 67h-77z" />
    <glyph glyph-name="macron" unicode="&#xaf;" horiz-adv-x="785" 
d="M120 1190q-20 0 -20 19v91q0 9 5.5 14t14.5 5h545q9 0 14.5 -5t5.5 -14v-91q0 -9 -5.5 -14t-14.5 -5h-545z" />
    <glyph glyph-name="macron" unicode="&#x2c9;" horiz-adv-x="785" 
d="M120 1190q-20 0 -20 19v91q0 9 5.5 14t14.5 5h545q9 0 14.5 -5t5.5 -14v-91q0 -9 -5.5 -14t-14.5 -5h-545z" />
    <glyph glyph-name="degree" unicode="&#xb0;" horiz-adv-x="695" 
d="M195 880q-69 38 -108.5 104.5t-39.5 147.5t39.5 147.5t108 104.5t153.5 38t153.5 -38t107.5 -104.5t39 -147.5t-39.5 -147.5t-108 -104.5t-152.5 -38t-153 38zM436 971.5q39 22.5 61 64.5t22 96q0 84 -48 133t-123 49q-78 0 -125 -49t-47 -133q0 -83 47.5 -133t124.5 -50
q49 0 88 22.5z" />
    <glyph glyph-name="plusminus" unicode="&#xb1;" horiz-adv-x="1016" 
d="M939 800q19 0 19 -19v-104q0 -19 -19 -19h-357v-399q0 -19 -19 -19h-108q-19 0 -19 19v399h-359q-19 0 -19 19v104q0 19 19 19h359v401q0 19 19 19h108q19 0 19 -19v-401h357zM77 0q-19 0 -19 19v104q0 19 19 19h862q19 0 19 -19v-104q0 -19 -19 -19h-862z" />
    <glyph glyph-name="two.sups" unicode="&#xb2;" horiz-adv-x="607" 
d="M77 665q-19 0 -19 19v80q0 76 31.5 127.5t75.5 82.5t114 67q52 27 81.5 45.5t49 45t19.5 61.5q2 57 -29.5 91.5t-90.5 34.5q-58 0 -92 -38.5t-39 -110.5q0 -9 -5.5 -14t-14.5 -5h-78q-20 0 -20 20q4 116 66.5 178.5t180.5 63.5q115 0 177.5 -57t64.5 -160
q0 -69 -30.5 -116.5t-73 -76.5t-112.5 -65q-53 -27 -83.5 -46t-50.5 -45.5t-20 -61.5v-23h348q9 0 14.5 -5t5.5 -14v-59q0 -9 -5.5 -14t-14.5 -5h-450z" />
    <glyph glyph-name="three.sups" unicode="&#xb3;" horiz-adv-x="626" 
d="M128 711q-63 56 -74 164v4q0 17 18 17h87q18 0 20 -20q10 -133 128 -133q64 0 99 39t35 107q0 64 -35.5 94.5t-107.5 30.5h-38q-20 0 -20 19v45q0 10 5.5 15t14.5 5h38q64 0 97 30t33 81q0 52 -32 83t-81 31q-113 0 -125 -122q-2 -19 -20 -19h-86q-9 0 -14 5.5t-4 14.5
q9 101 76 155t179 54q68 0 120.5 -23.5t82.5 -66t30 -99.5q0 -118 -124 -159q69 -17 106 -62t37 -113q0 -71 -35.5 -123.5t-96.5 -81t-136 -28.5q-114 0 -177 56z" />
    <glyph glyph-name="acute" unicode="&#xb4;" horiz-adv-x="714" 
d="M152 1141q-3 -1 -7 -1q-12 0 -18 13l-20 55q-2 6 -2 9q0 11 12 17l430 200q6 3 10 3q10 0 15 -13l35 -102q2 -6 2 -9q0 -11 -14 -16z" />
    <glyph glyph-name="uni03BC" unicode="&#xb5;" horiz-adv-x="1059" 
d="M276 393q0 -140 58.5 -209t159.5 -69q103 0 178.5 81t105.5 229v165l-3 421q0 19 19 19h149q19 0 19 -19l-6 -449l5 -542q0 -10 -5.5 -15t-14.5 -5h-139q-20 0 -20 20l5 160q-53 -88 -140.5 -146t-202.5 -58q-110 0 -164 72l2 -368q0 -20 -19 -20h-147q-20 0 -20 20
l3 910l-4 421q0 19 19 19h147q20 0 20 -19l-5 -421v-197z" />
    <glyph glyph-name="uni03BC" unicode="&#x3bc;" horiz-adv-x="1059" 
d="M276 393q0 -140 58.5 -209t159.5 -69q103 0 178.5 81t105.5 229v165l-3 421q0 19 19 19h149q19 0 19 -19l-6 -449l5 -542q0 -10 -5.5 -15t-14.5 -5h-139q-20 0 -20 20l5 160q-53 -88 -140.5 -146t-202.5 -58q-110 0 -164 72l2 -368q0 -20 -19 -20h-147q-20 0 -20 20
l3 910l-4 421q0 19 19 19h147q20 0 20 -19l-5 -421v-197z" />
    <glyph glyph-name="paragraph" unicode="&#xb6;" horiz-adv-x="1291" 
d="M1184 450l10 -800q0 -20 -20 -20h-156q-19 0 -19 20l6 650l2 240h-231v-241l7 -649q0 -20 -19 -20h-156q-9 0 -14.5 5t-5.5 15l6 647l2 243h-33q-151 0 -262.5 49t-172.5 146.5t-61 240.5q0 207 132 315.5t367 108.5h608q19 0 19 -20z" />
    <glyph glyph-name="periodcentered" unicode="&#xb7;" horiz-adv-x="332" 
d="M85 500q-10 0 -15 5.5t-5 14.5v162q0 20 20 20h163q10 0 15 -5.5t5 -14.5v-162q0 -10 -5.5 -15t-14.5 -5h-163z" />
    <glyph glyph-name="periodcentered" unicode="&#x2219;" horiz-adv-x="332" 
d="M85 500q-10 0 -15 5.5t-5 14.5v162q0 20 20 20h163q10 0 15 -5.5t5 -14.5v-162q0 -10 -5.5 -15t-14.5 -5h-163z" />
    <glyph glyph-name="cedilla" unicode="&#xb8;" horiz-adv-x="459" 
d="M275 -325q-1 -9 -7.5 -12.5t-15.5 -1.5l-131 26q-15 3 -15 16q0 3 2 9l119 303q8 18 25 12l88 -12q9 -2 12.5 -8.5t1.5 -15.5z" />
    <glyph glyph-name="one.sups" unicode="&#xb9;" horiz-adv-x="452" 
d="M230 665q-20 0 -20 19l6 351l-3 222q-51 -48 -136 -78l-8 -2q-7 0 -11 5t-4 13v60q0 17 16 23q93 35 140 109q9 13 23 13h95q21 0 19 -20l-7 -380l7 -315v-2q0 -9 -5 -13.5t-14 -4.5h-98z" />
    <glyph glyph-name="ordmasculine" unicode="&#xba;" horiz-adv-x="852" 
d="M227 675.5q-83 48.5 -126 138t-43 209.5t43 210.5t126 140t200 49.5q116 0 199 -49t126 -138.5t43 -209.5t-43 -210t-126 -139.5t-199 -49.5q-117 0 -200 48.5zM577.5 807.5q50.5 74.5 50.5 215.5t-51 217.5t-151 76.5q-100 -1 -151 -77.5t-51 -217.5q0 -139 51.5 -214
t151.5 -75t150.5 74.5z" />
    <glyph glyph-name="guillemotright" unicode="&#xbb;" horiz-adv-x="875" 
d="M82 200q-16 0 -16 12q0 7 4 12l246 341l-246 331q-4 5 -4 12q0 12 16 12h111q15 0 24 -12l244 -330q5 -5 5 -13t-5 -14l-244 -339q-9 -12 -24 -12h-111zM448 200q-16 0 -16 12q0 7 4 12l246 341l-246 331q-4 5 -4 12q0 12 16 12h111q15 0 24 -12l244 -330q5 -5 5 -13
t-5 -14l-244 -339q-9 -12 -24 -12h-111z" />
    <glyph glyph-name="onequarter" unicode="&#xbc;" horiz-adv-x="1293" 
d="M230 665q-20 0 -20 19l6 351l-3 222q-51 -48 -136 -78l-8 -2q-7 0 -11 5t-4 13v60q0 17 16 23q93 35 140 109q9 13 23 13h95q21 0 19 -20l-7 -380l7 -315v-2q0 -9 -5 -13.5t-14 -4.5h-98zM125 0q-17 0 -17 13q0 6 4 11l846 1363q9 13 24 13h92q17 0 17 -13q0 -6 -4 -11
l-846 -1363q-9 -13 -24 -13h-92zM1226 280q10 0 15 -5.5t5 -14.5v-57q0 -9 -5.5 -14.5t-14.5 -5.5h-58v-165q0 -9 -5.5 -14t-14.5 -5h-90q-9 0 -14.5 5t-5.5 14v165h-315q-10 0 -15 5.5t-5 14.5v76q0 13 7 24l274 419q9 13 24 13h140q9 0 14.5 -5.5t5.5 -14.5v-435h58z
M1038 280v225l4 136l-235 -361h231z" />
    <glyph glyph-name="onehalf" unicode="&#xbd;" horiz-adv-x="1348" 
d="M230 665q-20 0 -20 19l6 351l-3 222q-51 -48 -136 -78l-8 -2q-7 0 -11 5t-4 13v60q0 17 16 23q93 35 140 109q9 13 23 13h95q21 0 19 -20l-7 -380l7 -315v-2q0 -9 -5 -13.5t-14 -4.5h-98zM132 0q-17 0 -17 13q0 6 4 11l846 1363q9 13 24 13h92q17 0 17 -13q0 -6 -4 -11
l-846 -1363q-9 -13 -24 -13h-92zM818 0q-19 0 -19 19v80q0 76 31.5 127.5t75.5 82.5t114 67q52 27 81.5 45.5t49 45t19.5 61.5q2 57 -29.5 91.5t-90.5 34.5q-58 0 -92 -38.5t-39 -110.5q0 -9 -5.5 -14t-14.5 -5h-78q-20 0 -20 20q4 116 66.5 178.5t180.5 63.5
q115 0 177.5 -57t64.5 -160q0 -69 -30.5 -116.5t-73 -76.5t-112.5 -65q-53 -27 -83.5 -46t-50.5 -45.5t-20 -61.5v-23h348q9 0 14.5 -5t5.5 -14v-59q0 -9 -5.5 -14t-14.5 -5h-450z" />
    <glyph glyph-name="threequarters" unicode="&#xbe;" horiz-adv-x="1447" 
d="M128 711q-63 56 -74 164v4q0 17 18 17h87q18 0 20 -20q10 -133 128 -133q64 0 99 39t35 107q0 64 -35.5 94.5t-107.5 30.5h-38q-20 0 -20 19v45q0 10 5.5 15t14.5 5h38q64 0 97 30t33 81q0 52 -32 83t-81 31q-113 0 -125 -122q-2 -19 -20 -19h-86q-9 0 -14 5.5t-4 14.5
q9 101 76 155t179 54q68 0 120.5 -23.5t82.5 -66t30 -99.5q0 -118 -124 -159q69 -17 106 -62t37 -113q0 -71 -35.5 -123.5t-96.5 -81t-136 -28.5q-114 0 -177 56zM286 0q-17 0 -17 13q0 6 4 11l846 1363q9 13 24 13h92q17 0 17 -13q0 -6 -4 -11l-846 -1363q-9 -13 -24 -13
h-92zM1379 280q10 0 15 -5.5t5 -14.5v-57q0 -9 -5.5 -14.5t-14.5 -5.5h-58v-165q0 -9 -5.5 -14t-14.5 -5h-90q-9 0 -14.5 5t-5.5 14v165h-315q-10 0 -15 5.5t-5 14.5v76q0 13 7 24l274 419q9 13 24 13h140q9 0 14.5 -5.5t5.5 -14.5v-435h58zM1191 280v225l4 136l-235 -361
h231z" />
    <glyph glyph-name="questiondown" unicode="&#xbf;" horiz-adv-x="974" 
d="M575 1030q9 0 14 -5.5t5 -14.5v-163q0 -20 -19 -20h-160q-9 0 -14 5.5t-5 14.5v163q0 20 19 20h160zM566 644q9 0 14.5 -5.5t4.5 -15.5q-3 -100 -33 -174.5t-71 -125t-105 -111.5q-49 -48 -76 -80t-45.5 -72t-18.5 -88q0 -109 71 -169t188 -60q134 0 198.5 71t70.5 214
q2 20 20 20h137q9 0 14.5 -5.5t4.5 -14.5q-11 -204 -128.5 -310t-328.5 -106q-123 0 -220 43t-152.5 126t-55.5 197q0 72 22.5 127.5t56 95t88.5 91.5q56 53 91 94.5t60.5 100.5t28.5 137q2 20 20 20h144z" />
    <glyph glyph-name="Agrave" unicode="&#xc0;" horiz-adv-x="1258" 
d="M1243 23q2 -6 2 -9q0 -14 -17 -14h-155q-16 0 -22 16l-140 407h-571l-138 -407q-4 -16 -22 -16h-149q-18 0 -18 14q0 3 2 9l489 1361q4 16 21 16h213q16 0 22 -16zM862 573l-239 695l-235 -695h474zM811 1523q-4 -13 -17 -13q-5 0 -8 1l-443 156q-8 3 -11.5 9.5
t-0.5 15.5l36 103q5 13 15 13q4 0 10 -3l429 -200q13 -6 13 -17q0 -3 -2 -9z" />
    <glyph glyph-name="Aacute" unicode="&#xc1;" horiz-adv-x="1258" 
d="M1243 23q2 -6 2 -9q0 -14 -17 -14h-155q-16 0 -22 16l-140 407h-571l-138 -407q-4 -16 -22 -16h-149q-18 0 -18 14q0 3 2 9l489 1361q4 16 21 16h213q16 0 22 -16zM862 573l-239 695l-235 -695h474zM465 1511q-3 -1 -7 -1q-12 0 -18 13l-20 55q-2 6 -2 9q0 11 12 17
l430 200q6 3 10 3q10 0 15 -13l35 -102q2 -6 2 -9q0 -11 -14 -16z" />
    <glyph glyph-name="Acircumflex" unicode="&#xc2;" horiz-adv-x="1258" 
d="M1243 23q2 -6 2 -9q0 -14 -17 -14h-155q-16 0 -22 16l-140 407h-571l-138 -407q-4 -16 -22 -16h-149q-18 0 -18 14q0 3 2 9l489 1361q4 16 21 16h213q16 0 22 -16zM862 573l-239 695l-235 -695h474zM310 1583q-2 4 -2 10q0 11 10 17l263 160q10 6 24 6h54q15 0 25 -6
l263 -160q10 -6 10 -17q0 -6 -2 -10l-25 -57q-4 -12 -15 -12q-7 0 -10 2l-274 125l-272 -124q-4 -3 -10 -3q-10 0 -15 13z" />
    <glyph glyph-name="Atilde" unicode="&#xc3;" horiz-adv-x="1258" 
d="M1243 23q2 -6 2 -9q0 -14 -17 -14h-155q-16 0 -22 16l-140 407h-571l-138 -407q-4 -16 -22 -16h-149q-18 0 -18 14q0 3 2 9l489 1361q4 16 21 16h213q16 0 22 -16zM862 573l-239 695l-235 -695h474zM669 1553.5q-30 20.5 -66 59.5q-25 28 -42 41t-38 13q-63 0 -68 -106
q-2 -19 -20 -19h-63q-20 0 -20 20q4 97 47 156t122 59q46 0 76.5 -21t65.5 -61q22 -26 38.5 -39t35.5 -13q68 0 73 106q0 19 20 19h63q20 0 19 -24q-5 -98 -47 -154.5t-121 -56.5q-45 0 -75 20.5z" />
    <glyph glyph-name="Adieresis" unicode="&#xc4;" horiz-adv-x="1258" 
d="M1243 23q2 -6 2 -9q0 -14 -17 -14h-155q-16 0 -22 16l-140 407h-571l-138 -407q-4 -16 -22 -16h-149q-18 0 -18 14q0 3 2 9l489 1361q4 16 21 16h213q16 0 22 -16zM862 573l-239 695l-235 -695h474zM412 1525q-9 0 -14.5 5t-5.5 14v154q0 9 5.5 14t14.5 5h124
q20 0 20 -19v-154q0 -9 -5.5 -14t-14.5 -5h-124zM729 1525q-19 0 -19 19v154q0 19 19 19h125q9 0 14.5 -5t5.5 -14v-154q0 -9 -5.5 -14t-14.5 -5h-125z" />
    <glyph glyph-name="Aring" unicode="&#xc5;" horiz-adv-x="1258" 
d="M1243 23q2 -6 2 -9q0 -14 -17 -14h-155q-16 0 -22 16l-140 407h-571l-138 -407q-4 -16 -22 -16h-149q-18 0 -18 14q0 3 2 9l489 1361q4 16 21 16h213q16 0 22 -16zM862 573l-239 695l-235 -695h474zM521 1544q-49 27 -77 73.5t-28 104.5t28 105t77 74t110 27t110.5 -27
t77.5 -74t28 -105t-28 -104.5t-77.5 -73.5t-110.5 -27t-110 27zM712.5 1627.5q31.5 35.5 31.5 94.5q0 60 -31.5 95t-81.5 35q-51 0 -81.5 -34.5t-30.5 -95.5q0 -60 30.5 -95t81.5 -35q50 0 81.5 35.5z" />
    <glyph glyph-name="AE" unicode="&#xc6;" horiz-adv-x="1736" 
d="M1651 142q9 0 14.5 -5.5t5.5 -14.5v-102q0 -9 -5.5 -14.5t-14.5 -5.5h-760q-19 0 -19 20l5 403h-472l-204 -409q-7 -14 -24 -14h-148q-17 0 -17 13q0 4 3 10l693 1363q8 14 23 14h904q9 0 14.5 -5.5t5.5 -14.5v-102q0 -9 -5.5 -14.5t-14.5 -5.5h-570l-8 -440h530
q19 0 19 -19v-103q0 -19 -19 -19h-530l8 -535h586zM874 1268h-52l-346 -695h403l2 152z" />
    <glyph glyph-name="Ccedilla" unicode="&#xc7;" horiz-adv-x="1365" 
d="M1293 512q10 0 14.5 -6.5t2.5 -17.5q-37 -245 -179.5 -372.5t-369.5 -139.5l-75 -301q-1 -9 -7.5 -12.5t-15.5 -1.5l-131 26q-15 3 -15 16q0 3 2 9l105 268q-176 19 -302 111t-192.5 247.5t-66.5 363.5q0 219 79.5 382.5t227 252t347.5 88.5q225 0 380 -115t203 -369
l1 -6q0 -7 -5 -11.5t-13 -4.5h-146q-18 0 -21 18q-31 172 -136.5 257t-265.5 85q-145 0 -248 -70.5t-156.5 -200.5t-53.5 -306q0 -190 54.5 -320t157 -195.5t245.5 -65.5q175 0 282.5 95.5t128.5 276.5q3 19 21 19h148z" />
    <glyph glyph-name="Egrave" unicode="&#xc8;" horiz-adv-x="1071" 
d="M126 0q-19 0 -19 20l9 705l-9 655q0 20 19 20h844q9 0 14.5 -5.5t5.5 -14.5v-102q0 -9 -5.5 -14.5t-14.5 -5.5h-670l-8 -440h630q9 0 14.5 -5t5.5 -14v-103q0 -9 -5.5 -14t-14.5 -5h-630l8 -535h686q10 0 15 -5.5t5 -14.5v-102q0 -9 -5.5 -14.5t-14.5 -5.5h-860z
M744 1523q-4 -13 -17 -13q-5 0 -8 1l-443 156q-8 3 -11.5 9.5t-0.5 15.5l36 103q5 13 15 13q4 0 10 -3l429 -200q13 -6 13 -17q0 -3 -2 -9z" />
    <glyph glyph-name="Eacute" unicode="&#xc9;" horiz-adv-x="1071" 
d="M126 0q-19 0 -19 20l9 705l-9 655q0 20 19 20h844q9 0 14.5 -5.5t5.5 -14.5v-102q0 -9 -5.5 -14.5t-14.5 -5.5h-670l-8 -440h630q9 0 14.5 -5t5.5 -14v-103q0 -9 -5.5 -14t-14.5 -5h-630l8 -535h686q10 0 15 -5.5t5 -14.5v-102q0 -9 -5.5 -14.5t-14.5 -5.5h-860z
M398 1511q-3 -1 -7 -1q-12 0 -18 13l-20 55q-2 6 -2 9q0 11 12 17l430 200q6 3 10 3q10 0 15 -13l35 -102q2 -6 2 -9q0 -11 -14 -16z" />
    <glyph glyph-name="Ecircumflex" unicode="&#xca;" horiz-adv-x="1071" 
d="M126 0q-19 0 -19 20l9 705l-9 655q0 20 19 20h844q9 0 14.5 -5.5t5.5 -14.5v-102q0 -9 -5.5 -14.5t-14.5 -5.5h-670l-8 -440h630q9 0 14.5 -5t5.5 -14v-103q0 -9 -5.5 -14t-14.5 -5h-630l8 -535h686q10 0 15 -5.5t5 -14.5v-102q0 -9 -5.5 -14.5t-14.5 -5.5h-860z
M243 1583q-2 4 -2 10q0 11 10 17l263 160q10 6 24 6h54q15 0 25 -6l263 -160q10 -6 10 -17q0 -6 -2 -10l-25 -57q-4 -12 -15 -12q-7 0 -10 2l-274 125l-272 -124q-4 -3 -10 -3q-10 0 -15 13z" />
    <glyph glyph-name="Edieresis" unicode="&#xcb;" horiz-adv-x="1071" 
d="M126 0q-19 0 -19 20l9 705l-9 655q0 20 19 20h844q9 0 14.5 -5.5t5.5 -14.5v-102q0 -9 -5.5 -14.5t-14.5 -5.5h-670l-8 -440h630q9 0 14.5 -5t5.5 -14v-103q0 -9 -5.5 -14t-14.5 -5h-630l8 -535h686q10 0 15 -5.5t5 -14.5v-102q0 -9 -5.5 -14.5t-14.5 -5.5h-860z
M345 1525q-9 0 -14.5 5t-5.5 14v154q0 9 5.5 14t14.5 5h124q20 0 20 -19v-154q0 -9 -5.5 -14t-14.5 -5h-124zM662 1525q-19 0 -19 19v154q0 19 19 19h125q9 0 14.5 -5t5.5 -14v-154q0 -9 -5.5 -14t-14.5 -5h-125z" />
    <glyph glyph-name="Igrave" unicode="&#xcc;" horiz-adv-x="426" 
d="M136 0q-19 0 -19 20l9 694l-9 666q0 20 19 20h154q19 0 19 -20l-9 -666l9 -694q0 -20 -19 -20h-154zM392 1523q-4 -13 -17 -13q-5 0 -8 1l-443 156q-8 3 -11.5 9.5t-0.5 15.5l36 103q5 13 15 13q4 0 10 -3l429 -200q13 -6 13 -17q0 -3 -2 -9z" />
    <glyph glyph-name="Iacute" unicode="&#xcd;" horiz-adv-x="426" 
d="M136 0q-19 0 -19 20l9 694l-9 666q0 20 19 20h154q19 0 19 -20l-9 -666l9 -694q0 -20 -19 -20h-154zM46 1511q-3 -1 -7 -1q-12 0 -18 13l-20 55q-2 6 -2 9q0 11 12 17l430 200q6 3 10 3q10 0 15 -13l35 -102q2 -6 2 -9q0 -11 -14 -16z" />
    <glyph glyph-name="Icircumflex" unicode="&#xce;" horiz-adv-x="426" 
d="M136 0q-19 0 -19 20l9 694l-9 666q0 20 19 20h154q19 0 19 -20l-9 -666l9 -694q0 -20 -19 -20h-154zM-109 1583q-2 4 -2 10q0 11 10 17l263 160q10 6 24 6h54q15 0 25 -6l263 -160q10 -6 10 -17q0 -6 -2 -10l-25 -57q-4 -12 -15 -12q-7 0 -10 2l-274 125l-272 -124
q-4 -3 -10 -3q-10 0 -15 13z" />
    <glyph glyph-name="Idieresis" unicode="&#xcf;" horiz-adv-x="426" 
d="M136 0q-19 0 -19 20l9 694l-9 666q0 20 19 20h154q19 0 19 -20l-9 -666l9 -694q0 -20 -19 -20h-154zM-7 1525q-9 0 -14.5 5t-5.5 14v154q0 9 5.5 14t14.5 5h124q20 0 20 -19v-154q0 -9 -5.5 -14t-14.5 -5h-124zM310 1525q-19 0 -19 19v154q0 19 19 19h125q9 0 14.5 -5
t5.5 -14v-154q0 -9 -5.5 -14t-14.5 -5h-125z" />
    <glyph glyph-name="Eth" unicode="&#xd0;" horiz-adv-x="1363" 
d="M591 1400q204 0 364.5 -81.5t252.5 -239.5t92 -378q0 -229 -95.5 -387t-255.5 -236t-354 -78h-447q-19 0 -19 20l8 661h-129q-19 0 -19 19v103q0 19 19 19h129l-8 558q0 20 19 20h443zM611 142q130 0 243 60t183 185.5t70 313.5q0 181 -66.5 306.5t-181 188t-256.5 62.5
h-279l-6 -436h372q20 0 20 -19v-103q0 -9 -5.5 -14t-14.5 -5h-374l8 -539h287z" />
    <glyph glyph-name="Ntilde" unicode="&#xd1;" horiz-adv-x="1346" 
d="M126 0q-19 0 -19 20l8 692l-7 668q0 20 19 20h185q16 0 23 -13l732 -1138l-5 520l-2 611q0 20 19 20h141q19 0 19 -20l-8 -668l7 -692q0 -20 -19 -20h-194q-17 0 -24 13l-722 1124l6 -517l2 -600q0 -10 -5.5 -15t-14.5 -5h-141zM718 1553.5q-30 20.5 -66 59.5
q-25 28 -42 41t-38 13q-63 0 -68 -106q-2 -19 -20 -19h-63q-20 0 -20 20q4 97 47 156t122 59q46 0 76.5 -21t65.5 -61q22 -26 38.5 -39t35.5 -13q68 0 73 106q0 19 20 19h63q20 0 19 -24q-5 -98 -47 -154.5t-121 -56.5q-45 0 -75 20.5z" />
    <glyph glyph-name="Ograve" unicode="&#xd2;" horiz-adv-x="1465" 
d="M380.5 64.5q-151.5 89.5 -234.5 253.5t-83 381q0 221 82.5 385t234 252.5t353.5 88.5q201 0 352 -88t234 -252t83 -387q0 -217 -83.5 -381t-235 -253t-351.5 -89t-351.5 89.5zM987.5 190q107.5 69 164.5 199t57 309t-57 310t-164.5 201t-255.5 70t-255.5 -69.5t-164 -200
t-56.5 -311.5q0 -178 57.5 -308t165 -199.5t254.5 -69.5t254.5 69zM912 1523q-4 -13 -17 -13q-5 0 -8 1l-443 156q-8 3 -11.5 9.5t-0.5 15.5l36 103q5 13 15 13q4 0 10 -3l429 -200q13 -6 13 -17q0 -3 -2 -9z" />
    <glyph glyph-name="Oacute" unicode="&#xd3;" horiz-adv-x="1465" 
d="M380.5 64.5q-151.5 89.5 -234.5 253.5t-83 381q0 221 82.5 385t234 252.5t353.5 88.5q201 0 352 -88t234 -252t83 -387q0 -217 -83.5 -381t-235 -253t-351.5 -89t-351.5 89.5zM987.5 190q107.5 69 164.5 199t57 309t-57 310t-164.5 201t-255.5 70t-255.5 -69.5t-164 -200
t-56.5 -311.5q0 -178 57.5 -308t165 -199.5t254.5 -69.5t254.5 69zM566 1511q-3 -1 -7 -1q-12 0 -18 13l-20 55q-2 6 -2 9q0 11 12 17l430 200q6 3 10 3q10 0 15 -13l35 -102q2 -6 2 -9q0 -11 -14 -16z" />
    <glyph glyph-name="Ocircumflex" unicode="&#xd4;" horiz-adv-x="1465" 
d="M380.5 64.5q-151.5 89.5 -234.5 253.5t-83 381q0 221 82.5 385t234 252.5t353.5 88.5q201 0 352 -88t234 -252t83 -387q0 -217 -83.5 -381t-235 -253t-351.5 -89t-351.5 89.5zM987.5 190q107.5 69 164.5 199t57 309t-57 310t-164.5 201t-255.5 70t-255.5 -69.5t-164 -200
t-56.5 -311.5q0 -178 57.5 -308t165 -199.5t254.5 -69.5t254.5 69zM411 1583q-2 4 -2 10q0 11 10 17l263 160q10 6 24 6h54q15 0 25 -6l263 -160q10 -6 10 -17q0 -6 -2 -10l-25 -57q-4 -12 -15 -12q-7 0 -10 2l-274 125l-272 -124q-4 -3 -10 -3q-10 0 -15 13z" />
    <glyph glyph-name="Otilde" unicode="&#xd5;" horiz-adv-x="1465" 
d="M380.5 64.5q-151.5 89.5 -234.5 253.5t-83 381q0 221 82.5 385t234 252.5t353.5 88.5q201 0 352 -88t234 -252t83 -387q0 -217 -83.5 -381t-235 -253t-351.5 -89t-351.5 89.5zM987.5 190q107.5 69 164.5 199t57 309t-57 310t-164.5 201t-255.5 70t-255.5 -69.5t-164 -200
t-56.5 -311.5q0 -178 57.5 -308t165 -199.5t254.5 -69.5t254.5 69zM770 1553.5q-30 20.5 -66 59.5q-25 28 -42 41t-38 13q-63 0 -68 -106q-2 -19 -20 -19h-63q-20 0 -20 20q4 97 47 156t122 59q46 0 76.5 -21t65.5 -61q22 -26 38.5 -39t35.5 -13q68 0 73 106q0 19 20 19h63
q20 0 19 -24q-5 -98 -47 -154.5t-121 -56.5q-45 0 -75 20.5z" />
    <glyph glyph-name="Odieresis" unicode="&#xd6;" horiz-adv-x="1465" 
d="M380.5 64.5q-151.5 89.5 -234.5 253.5t-83 381q0 221 82.5 385t234 252.5t353.5 88.5q201 0 352 -88t234 -252t83 -387q0 -217 -83.5 -381t-235 -253t-351.5 -89t-351.5 89.5zM987.5 190q107.5 69 164.5 199t57 309t-57 310t-164.5 201t-255.5 70t-255.5 -69.5t-164 -200
t-56.5 -311.5q0 -178 57.5 -308t165 -199.5t254.5 -69.5t254.5 69zM513 1525q-9 0 -14.5 5t-5.5 14v154q0 9 5.5 14t14.5 5h124q20 0 20 -19v-154q0 -9 -5.5 -14t-14.5 -5h-124zM830 1525q-19 0 -19 19v154q0 19 19 19h125q9 0 14.5 -5t5.5 -14v-154q0 -9 -5.5 -14t-14.5 -5
h-125z" />
    <glyph glyph-name="multiply" unicode="&#xd7;" horiz-adv-x="1016" 
d="M608 689l282 -282q7 -6 7 -14q0 -7 -7 -14l-72 -73q-6 -6 -14 -6q-6 0 -14 6l-282 283l-282 -283q-6 -6 -14 -6q-7 0 -14 6l-73 73q-6 8 -6 14q0 8 6 14l282 282l-283 283q-6 8 -6 14q0 7 6 14l73 73q6 6 14 6q7 0 14 -6l283 -284l283 284q8 6 14 6q8 0 14 -6l73 -73
q6 -7 6 -14t-7 -14z" />
    <glyph glyph-name="Oslash" unicode="&#xd8;" horiz-adv-x="1465" 
d="M1253 1191q72 -94 110.5 -218.5t38.5 -274.5q0 -217 -83.5 -381t-235 -253t-351.5 -89q-119 0 -221 33.5t-182 97.5l-142 -166q-8 -8 -14 -8q-7 0 -14 7l-88 82q-7 7 -7 14q0 6 5 14l142 166q-72 93 -110 216t-38 268q0 221 82.5 385t234 252.5t353.5 88.5
q118 0 219.5 -32.5t181.5 -94.5l144 168q6 8 14 8q6 0 13 -7l89 -82q7 -7 7 -14q0 -6 -6 -14zM476.5 1209.5q-107.5 -69.5 -164 -200t-56.5 -311.5q0 -211 85 -353l699 821q-59 55 -137 84t-171 29q-148 0 -255.5 -69.5zM987.5 190q107.5 69 164.5 199t57 309q0 215 -86 360
l-701 -822q59 -56 137.5 -85.5t173.5 -29.5q147 0 254.5 69z" />
    <glyph glyph-name="Ugrave" unicode="&#xd9;" horiz-adv-x="1242" 
d="M235 119q-132 144 -131 411l2 442l-7 408q0 20 19 20h159q19 0 19 -20l-6 -404l1 -445q1 -192 81 -299t251 -107q177 0 260 107.5t83 298.5v442l-5 407q0 20 19 20h144q19 0 19 -20l-5 -408v-442q0 -268 -129.5 -411.5t-385.5 -143.5t-388 144zM807 1523q-4 -13 -17 -13
q-5 0 -8 1l-443 156q-8 3 -11.5 9.5t-0.5 15.5l36 103q5 13 15 13q4 0 10 -3l429 -200q13 -6 13 -17q0 -3 -2 -9z" />
    <glyph glyph-name="Uacute" unicode="&#xda;" horiz-adv-x="1242" 
d="M235 119q-132 144 -131 411l2 442l-7 408q0 20 19 20h159q19 0 19 -20l-6 -404l1 -445q1 -192 81 -299t251 -107q177 0 260 107.5t83 298.5v442l-5 407q0 20 19 20h144q19 0 19 -20l-5 -408v-442q0 -268 -129.5 -411.5t-385.5 -143.5t-388 144zM461 1511q-3 -1 -7 -1
q-12 0 -18 13l-20 55q-2 6 -2 9q0 11 12 17l430 200q6 3 10 3q10 0 15 -13l35 -102q2 -6 2 -9q0 -11 -14 -16z" />
    <glyph glyph-name="Ucircumflex" unicode="&#xdb;" horiz-adv-x="1242" 
d="M235 119q-132 144 -131 411l2 442l-7 408q0 20 19 20h159q19 0 19 -20l-6 -404l1 -445q1 -192 81 -299t251 -107q177 0 260 107.5t83 298.5v442l-5 407q0 20 19 20h144q19 0 19 -20l-5 -408v-442q0 -268 -129.5 -411.5t-385.5 -143.5t-388 144zM306 1583q-2 4 -2 10
q0 11 10 17l263 160q10 6 24 6h54q15 0 25 -6l263 -160q10 -6 10 -17q0 -6 -2 -10l-25 -57q-4 -12 -15 -12q-7 0 -10 2l-274 125l-272 -124q-4 -3 -10 -3q-10 0 -15 13z" />
    <glyph glyph-name="Udieresis" unicode="&#xdc;" horiz-adv-x="1242" 
d="M235 119q-132 144 -131 411l2 442l-7 408q0 20 19 20h159q19 0 19 -20l-6 -404l1 -445q1 -192 81 -299t251 -107q177 0 260 107.5t83 298.5v442l-5 407q0 20 19 20h144q19 0 19 -20l-5 -408v-442q0 -268 -129.5 -411.5t-385.5 -143.5t-388 144zM408 1525q-9 0 -14.5 5
t-5.5 14v154q0 9 5.5 14t14.5 5h124q20 0 20 -19v-154q0 -9 -5.5 -14t-14.5 -5h-124zM725 1525q-19 0 -19 19v154q0 19 19 19h125q9 0 14.5 -5t5.5 -14v-154q0 -9 -5.5 -14t-14.5 -5h-125z" />
    <glyph glyph-name="Yacute" unicode="&#xdd;" horiz-adv-x="1134" 
d="M18 1377q-3 6 -3 11t4.5 8.5t12.5 3.5h170q17 0 23 -15l349 -726l351 726q5 15 23 15h154q17 0 17 -13q0 -4 -3 -10l-461 -888l6 -469q0 -20 -19 -20h-155q-19 0 -19 20l7 473zM402 1511q-3 -1 -7 -1q-12 0 -18 13l-20 55q-2 6 -2 9q0 11 12 17l430 200q6 3 10 3
q10 0 15 -13l35 -102q2 -6 2 -9q0 -11 -14 -16z" />
    <glyph glyph-name="Thorn" unicode="&#xde;" horiz-adv-x="1128" 
d="M583 1135q235 0 367 -108.5t132 -315.5q0 -143 -61 -240.5t-172.5 -146.5t-262.5 -49h-289l3 -255q0 -20 -19 -20h-155q-19 0 -19 20l8 699l-8 661q0 20 19 20h155q19 0 19 -20l-3 -245h286zM597 414q143 0 222.5 70.5t79.5 223.5q0 145 -80 216.5t-230 71.5h-294
l-3 -290l3 -292h302z" />
    <glyph glyph-name="germandbls" unicode="&#xdf;" horiz-adv-x="1116" 
d="M124 -2q-19 0 -19 20l6 445v538q0 148 58 242.5t156.5 137.5t223.5 44q128 0 221.5 -42.5t145 -125t51.5 -200.5q0 -114 -63.5 -190t-170.5 -104q155 -24 236.5 -116.5t81.5 -231.5q0 -127 -62.5 -221.5t-173.5 -145t-253 -50.5h-60q-9 0 -14 5.5t-5 14.5v98q0 9 5 14.5
t14 5.5h60q146 0 222.5 72t76.5 208q0 128 -82 196.5t-227 68.5h-50q-19 0 -19 19v89q0 19 19 19h50q117 0 173.5 61.5t56.5 172.5q0 125 -64 187t-176 62q-115 0 -184 -72t-69 -222v-534l6 -445q0 -20 -19 -20h-152z" />
    <glyph glyph-name="agrave" unicode="&#xe0;" horiz-adv-x="1089" 
d="M987 526l7 -506q0 -20 -19 -20h-145q-20 0 -20 20l4 157q-51 -94 -134.5 -145t-194.5 -51q-135 0 -231 69.5t-145.5 190t-49.5 272.5q0 150 51 272.5t148.5 193.5t229.5 71q110 0 192.5 -47.5t132.5 -139.5l-4 147q0 20 20 20h146q19 0 19 -20zM742.5 210.5
q76.5 102.5 76.5 302.5q0 197 -75.5 303.5t-212.5 106.5q-142 0 -214.5 -107.5t-72.5 -289.5q0 -192 72.5 -305t212.5 -113q137 0 213.5 102.5zM707 1153q-4 -13 -17 -13q-5 0 -8 1l-443 156q-8 3 -11.5 9.5t-0.5 15.5l36 103q5 13 15 13q4 0 10 -3l429 -200q13 -6 13 -17
q0 -3 -2 -9z" />
    <glyph glyph-name="aacute" unicode="&#xe1;" horiz-adv-x="1089" 
d="M987 526l7 -506q0 -20 -19 -20h-145q-20 0 -20 20l4 157q-51 -94 -134.5 -145t-194.5 -51q-135 0 -231 69.5t-145.5 190t-49.5 272.5q0 150 51 272.5t148.5 193.5t229.5 71q110 0 192.5 -47.5t132.5 -139.5l-4 147q0 20 20 20h146q19 0 19 -20zM742.5 210.5
q76.5 102.5 76.5 302.5q0 197 -75.5 303.5t-212.5 106.5q-142 0 -214.5 -107.5t-72.5 -289.5q0 -192 72.5 -305t212.5 -113q137 0 213.5 102.5zM361 1141q-3 -1 -7 -1q-12 0 -18 13l-20 55q-2 6 -2 9q0 11 12 17l430 200q6 3 10 3q10 0 15 -13l35 -102q2 -6 2 -9
q0 -11 -14 -16z" />
    <glyph glyph-name="acircumflex" unicode="&#xe2;" horiz-adv-x="1089" 
d="M987 526l7 -506q0 -20 -19 -20h-145q-20 0 -20 20l4 157q-51 -94 -134.5 -145t-194.5 -51q-135 0 -231 69.5t-145.5 190t-49.5 272.5q0 150 51 272.5t148.5 193.5t229.5 71q110 0 192.5 -47.5t132.5 -139.5l-4 147q0 20 20 20h146q19 0 19 -20zM742.5 210.5
q76.5 102.5 76.5 302.5q0 197 -75.5 303.5t-212.5 106.5q-142 0 -214.5 -107.5t-72.5 -289.5q0 -192 72.5 -305t212.5 -113q137 0 213.5 102.5zM206 1213q-2 4 -2 10q0 11 10 17l263 160q10 6 24 6h54q15 0 25 -6l263 -160q10 -6 10 -17q0 -6 -2 -10l-25 -57q-4 -12 -15 -12
q-7 0 -10 2l-274 125l-272 -124q-4 -3 -10 -3q-10 0 -15 13z" />
    <glyph glyph-name="atilde" unicode="&#xe3;" horiz-adv-x="1089" 
d="M987 526l7 -506q0 -20 -19 -20h-145q-20 0 -20 20l4 157q-51 -94 -134.5 -145t-194.5 -51q-135 0 -231 69.5t-145.5 190t-49.5 272.5q0 150 51 272.5t148.5 193.5t229.5 71q110 0 192.5 -47.5t132.5 -139.5l-4 147q0 20 20 20h146q19 0 19 -20zM742.5 210.5
q76.5 102.5 76.5 302.5q0 197 -75.5 303.5t-212.5 106.5q-142 0 -214.5 -107.5t-72.5 -289.5q0 -192 72.5 -305t212.5 -113q137 0 213.5 102.5zM565 1183.5q-30 20.5 -66 59.5q-25 28 -42 41t-38 13q-63 0 -68 -106q-2 -19 -20 -19h-63q-20 0 -20 20q4 97 47 156t122 59
q46 0 76.5 -21t65.5 -61q22 -26 38.5 -39t35.5 -13q68 0 73 106q0 19 20 19h63q20 0 19 -24q-5 -98 -47 -154.5t-121 -56.5q-45 0 -75 20.5z" />
    <glyph glyph-name="adieresis" unicode="&#xe4;" horiz-adv-x="1089" 
d="M987 526l7 -506q0 -20 -19 -20h-145q-20 0 -20 20l4 157q-51 -94 -134.5 -145t-194.5 -51q-135 0 -231 69.5t-145.5 190t-49.5 272.5q0 150 51 272.5t148.5 193.5t229.5 71q110 0 192.5 -47.5t132.5 -139.5l-4 147q0 20 20 20h146q19 0 19 -20zM742.5 210.5
q76.5 102.5 76.5 302.5q0 197 -75.5 303.5t-212.5 106.5q-142 0 -214.5 -107.5t-72.5 -289.5q0 -192 72.5 -305t212.5 -113q137 0 213.5 102.5zM308 1155q-9 0 -14.5 5t-5.5 14v154q0 9 5.5 14t14.5 5h124q20 0 20 -19v-154q0 -9 -5.5 -14t-14.5 -5h-124zM625 1155
q-19 0 -19 19v154q0 19 19 19h125q9 0 14.5 -5t5.5 -14v-154q0 -9 -5.5 -14t-14.5 -5h-125z" />
    <glyph glyph-name="aring" unicode="&#xe5;" horiz-adv-x="1089" 
d="M987 526l7 -506q0 -20 -19 -20h-145q-20 0 -20 20l4 157q-51 -94 -134.5 -145t-194.5 -51q-135 0 -231 69.5t-145.5 190t-49.5 272.5q0 150 51 272.5t148.5 193.5t229.5 71q110 0 192.5 -47.5t132.5 -139.5l-4 147q0 20 20 20h146q19 0 19 -20zM742.5 210.5
q76.5 102.5 76.5 302.5q0 197 -75.5 303.5t-212.5 106.5q-142 0 -214.5 -107.5t-72.5 -289.5q0 -192 72.5 -305t212.5 -113q137 0 213.5 102.5zM417 1174q-49 27 -77 73.5t-28 104.5t28 105t77 74t110 27t110.5 -27t77.5 -74t28 -105t-28 -104.5t-77.5 -73.5t-110.5 -27
t-110 27zM608.5 1257.5q31.5 35.5 31.5 94.5q0 60 -31.5 95t-81.5 35q-51 0 -81.5 -34.5t-30.5 -95.5q0 -60 30.5 -95t81.5 -35q50 0 81.5 35.5z" />
    <glyph glyph-name="ae" unicode="&#xe6;" horiz-adv-x="1844" 
d="M253 50.5q-96 69.5 -145.5 190t-49.5 272.5q0 150 51.5 272.5t149 193.5t229.5 71q110 0 192.5 -47.5t132.5 -138.5l-4 146v2q0 9 5 13.5t14 4.5h145q19 0 19 -20l-1 -135q54 85 138 131.5t190 46.5q145 0 249.5 -64.5t160.5 -185.5t59 -290q0 -20 -19 -20h-756
q9 -389 308 -389q113 0 181.5 60.5t92.5 175.5q3 18 21 18h136q10 0 15 -4.5t4 -13.5q-16 -108 -72 -189.5t-150 -127.5t-220 -46q-113 0 -198.5 44.5t-138.5 126.5v-128q0 -20 -19 -20h-144q-9 0 -14.5 5t-4.5 15l3 158q-51 -94 -134 -145.5t-194 -51.5q-136 0 -232 69.5z
M1110 844.5q-74 -82.5 -92 -228.5h573q-3 87 -36 157.5t-95 112t-150 41.5q-126 0 -200 -82.5zM742 210.5q76 102.5 76 303.5q0 196 -75 302.5t-212 106.5q-142 0 -215 -107.5t-73 -289.5q0 -192 72.5 -305t213.5 -113q137 0 213 102.5z" />
    <glyph glyph-name="ccedilla" unicode="&#xe7;" horiz-adv-x="1038" 
d="M973 386q10 0 15 -5t4 -13q-10 -106 -59.5 -189.5t-135 -135.5t-198.5 -63l-76 -305q-1 -9 -7.5 -12.5t-15.5 -1.5l-131 26q-15 3 -15 16q0 3 2 9l106 270q-128 16 -218.5 85.5t-137.5 183t-47 261.5q0 163 56.5 285t166 189t263.5 67q124 0 217.5 -44.5t148.5 -125.5
t67 -189v-4q0 -16 -18 -16h-131q-18 0 -21 18q-20 114 -90 173.5t-173 59.5q-150 -1 -224 -107.5t-74 -304.5q0 -201 74 -305t225 -104q115 0 188 69t86 194q2 19 20 19h133z" />
    <glyph glyph-name="egrave" unicode="&#xe8;" horiz-adv-x="1077" 
d="M244 493q9 -389 309 -389q113 0 181.5 60.5t91.5 175.5q5 18 22 18h136q10 0 15 -4.5t4 -12.5q-16 -108 -73.5 -190t-153.5 -128t-225 -46q-157 0 -268 67t-167.5 188t-56.5 280q0 161 57.5 283t166.5 190t258 68q148 0 254.5 -64.5t164 -185.5t60.5 -290q0 -20 -19 -20
h-757zM341.5 846q-73.5 -81 -91.5 -230h573q-3 87 -35.5 157.5t-95 112t-150.5 41.5q-127 0 -200.5 -81zM719 1153q-4 -13 -17 -13q-5 0 -8 1l-443 156q-8 3 -11.5 9.5t-0.5 15.5l36 103q5 13 15 13q4 0 10 -3l429 -200q13 -6 13 -17q0 -3 -2 -9z" />
    <glyph glyph-name="eacute" unicode="&#xe9;" horiz-adv-x="1077" 
d="M244 493q9 -389 309 -389q113 0 181.5 60.5t91.5 175.5q5 18 22 18h136q10 0 15 -4.5t4 -12.5q-16 -108 -73.5 -190t-153.5 -128t-225 -46q-157 0 -268 67t-167.5 188t-56.5 280q0 161 57.5 283t166.5 190t258 68q148 0 254.5 -64.5t164 -185.5t60.5 -290q0 -20 -19 -20
h-757zM341.5 846q-73.5 -81 -91.5 -230h573q-3 87 -35.5 157.5t-95 112t-150.5 41.5q-127 0 -200.5 -81zM373 1141q-3 -1 -7 -1q-12 0 -18 13l-20 55q-2 6 -2 9q0 11 12 17l430 200q6 3 10 3q10 0 15 -13l35 -102q2 -6 2 -9q0 -11 -14 -16z" />
    <glyph glyph-name="ecircumflex" unicode="&#xea;" horiz-adv-x="1077" 
d="M244 493q9 -389 309 -389q113 0 181.5 60.5t91.5 175.5q5 18 22 18h136q10 0 15 -4.5t4 -12.5q-16 -108 -73.5 -190t-153.5 -128t-225 -46q-157 0 -268 67t-167.5 188t-56.5 280q0 161 57.5 283t166.5 190t258 68q148 0 254.5 -64.5t164 -185.5t60.5 -290q0 -20 -19 -20
h-757zM341.5 846q-73.5 -81 -91.5 -230h573q-3 87 -35.5 157.5t-95 112t-150.5 41.5q-127 0 -200.5 -81zM219 1213q-2 4 -2 10q0 11 10 17l263 160q10 6 24 6h54q15 0 25 -6l263 -160q10 -6 10 -17q0 -6 -2 -10l-25 -57q-4 -12 -15 -12q-7 0 -10 2l-274 125l-272 -124
q-4 -3 -10 -3q-10 0 -15 13z" />
    <glyph glyph-name="edieresis" unicode="&#xeb;" horiz-adv-x="1077" 
d="M244 493q9 -389 309 -389q113 0 181.5 60.5t91.5 175.5q5 18 22 18h136q10 0 15 -4.5t4 -12.5q-16 -108 -73.5 -190t-153.5 -128t-225 -46q-157 0 -268 67t-167.5 188t-56.5 280q0 161 57.5 283t166.5 190t258 68q148 0 254.5 -64.5t164 -185.5t60.5 -290q0 -20 -19 -20
h-757zM341.5 846q-73.5 -81 -91.5 -230h573q-3 87 -35.5 157.5t-95 112t-150.5 41.5q-127 0 -200.5 -81zM320 1155q-9 0 -14.5 5t-5.5 14v154q0 9 5.5 14t14.5 5h124q20 0 20 -19v-154q0 -9 -5.5 -14t-14.5 -5h-124zM637 1155q-19 0 -19 19v154q0 19 19 19h125q9 0 14.5 -5
t5.5 -14v-154q0 -9 -5.5 -14t-14.5 -5h-125z" />
    <glyph glyph-name="igrave" unicode="&#xec;" horiz-adv-x="397" 
d="M369 1158q-8 -18 -25 -12l-373 128q-13 5 -13 17q0 5 1 8l35 101q5 13 16 13q4 0 10 -3l358 -166q12 -6 12 -17q0 -3 -2 -9zM124 0q-20 0 -20 20l6 512l-6 478q0 20 20 20h150q19 0 19 -20l-6 -478l6 -512q0 -20 -19 -20h-150z" />
    <glyph glyph-name="iacute" unicode="&#xed;" horiz-adv-x="397" 
d="M55 1146q-3 -1 -8 -1q-11 0 -17 13l-20 60q-2 6 -2 9q0 11 13 17l358 166q6 3 10 3q11 0 16 -13l34 -101q2 -6 2 -9q0 -11 -13 -16zM124 0q-20 0 -20 20l6 512l-6 478q0 20 20 20h150q19 0 19 -20l-6 -478l6 -512q0 -20 -19 -20h-150z" />
    <glyph glyph-name="icircumflex" unicode="&#xee;" horiz-adv-x="397" 
d="M-73 1215q-3 6 -3 11q0 9 10 16l214 157q9 8 24 8h52q15 0 24 -8l214 -157q10 -7 10 -16q0 -5 -3 -11l-28 -54q-6 -11 -16 -11q-5 0 -11 3l-215 122l-217 -121q-6 -3 -11 -3q-11 0 -16 11zM124 0q-20 0 -20 20l6 512l-6 478q0 20 20 20h150q19 0 19 -20l-6 -478l6 -512
q0 -20 -19 -20h-150z" />
    <glyph glyph-name="idieresis" unicode="&#xef;" horiz-adv-x="397" 
d="M16 1155q-9 0 -14.5 5t-5.5 14v154q0 9 5.5 14t14.5 5h115q19 0 19 -19v-154q0 -19 -19 -19h-115zM269 1155q-19 0 -19 19v154q0 19 19 19h114q19 0 19 -19v-154q0 -19 -19 -19h-114zM124 0q-20 0 -20 20l6 512l-6 478q0 20 20 20h150q19 0 19 -20l-6 -478l6 -512
q0 -20 -19 -20h-150z" />
    <glyph glyph-name="eth" unicode="&#xf0;" horiz-adv-x="1105" 
d="M817 1179q107 -114 162 -267t55 -358q0 -168 -58 -299t-170 -205.5t-269 -74.5q-141 0 -247.5 60t-165 167t-58.5 243q0 141 55.5 247.5t155 164.5t229.5 58q131 0 217.5 -60.5t124.5 -150.5q-5 118 -50.5 220t-124.5 186l-251 -125q-3 -2 -10 -2q-12 0 -16 11l-36 72
q-3 6 -3 10q0 10 11 16l203 102q-102 78 -229 126q-13 4 -13 16q0 4 3 10l48 81q6 12 17 12q3 0 9 -2q187 -75 313 -172l252 125q4 3 10 3q11 0 15 -12l37 -73q3 -6 3 -10q0 -10 -12 -16zM705.5 158.5q64.5 44.5 96.5 120.5t32 172q0 98 -36 172.5t-103 115.5t-157 41
q-135 0 -206 -91.5t-71 -253.5q0 -150 75.5 -235.5t210.5 -85.5q94 0 158.5 44.5z" />
    <glyph glyph-name="ntilde" unicode="&#xf1;" horiz-adv-x="1051" 
d="M960 440l4 -420q0 -20 -19 -20h-147q-20 0 -20 20l5 420v197q0 139 -59 208.5t-159 69.5q-103 0 -178.5 -81t-105.5 -229v-165l3 -420q0 -20 -19 -20h-149q-20 0 -20 20l7 448l-5 542q0 20 20 20h139q20 0 20 -20l-5 -160q53 88 140.5 146t202.5 58q162 0 253.5 -105
t91.5 -305v-204zM567 1183.5q-30 20.5 -66 59.5q-25 28 -42 41t-38 13q-63 0 -68 -106q-2 -19 -20 -19h-63q-20 0 -20 20q4 97 47 156t122 59q46 0 76.5 -21t65.5 -61q22 -26 38.5 -39t35.5 -13q68 0 73 106q0 19 20 19h63q20 0 19 -24q-5 -98 -47 -154.5t-121 -56.5
q-45 0 -75 20.5z" />
    <glyph glyph-name="ograve" unicode="&#xf2;" horiz-adv-x="1094" 
d="M284 43q-110 66 -167.5 187t-57.5 283t57.5 284t167.5 189t264 67t264 -66t167 -187.5t57 -283.5q0 -163 -57 -284.5t-167 -188t-264 -66.5t-264 66zM772.5 209q74.5 105 74.5 304q0 198 -75.5 305.5t-224.5 107.5q-149 -1 -225 -108t-76 -306q0 -198 76.5 -303
t225.5 -105q150 0 224.5 105zM726 1153q-4 -13 -17 -13q-5 0 -8 1l-443 156q-8 3 -11.5 9.5t-0.5 15.5l36 103q5 13 15 13q4 0 10 -3l429 -200q13 -6 13 -17q0 -3 -2 -9z" />
    <glyph glyph-name="oacute" unicode="&#xf3;" horiz-adv-x="1094" 
d="M284 43q-110 66 -167.5 187t-57.5 283t57.5 284t167.5 189t264 67t264 -66t167 -187.5t57 -283.5q0 -163 -57 -284.5t-167 -188t-264 -66.5t-264 66zM772.5 209q74.5 105 74.5 304q0 198 -75.5 305.5t-224.5 107.5q-149 -1 -225 -108t-76 -306q0 -198 76.5 -303
t225.5 -105q150 0 224.5 105zM380 1141q-3 -1 -7 -1q-12 0 -18 13l-20 55q-2 6 -2 9q0 11 12 17l430 200q6 3 10 3q10 0 15 -13l35 -102q2 -6 2 -9q0 -11 -14 -16z" />
    <glyph glyph-name="ocircumflex" unicode="&#xf4;" horiz-adv-x="1094" 
d="M284 43q-110 66 -167.5 187t-57.5 283t57.5 284t167.5 189t264 67t264 -66t167 -187.5t57 -283.5q0 -163 -57 -284.5t-167 -188t-264 -66.5t-264 66zM772.5 209q74.5 105 74.5 304q0 198 -75.5 305.5t-224.5 107.5q-149 -1 -225 -108t-76 -306q0 -198 76.5 -303
t225.5 -105q150 0 224.5 105zM225 1213q-2 4 -2 10q0 11 10 17l263 160q10 6 24 6h54q15 0 25 -6l263 -160q10 -6 10 -17q0 -6 -2 -10l-25 -57q-4 -12 -15 -12q-7 0 -10 2l-274 125l-272 -124q-4 -3 -10 -3q-10 0 -15 13z" />
    <glyph glyph-name="otilde" unicode="&#xf5;" horiz-adv-x="1094" 
d="M284 43q-110 66 -167.5 187t-57.5 283t57.5 284t167.5 189t264 67t264 -66t167 -187.5t57 -283.5q0 -163 -57 -284.5t-167 -188t-264 -66.5t-264 66zM772.5 209q74.5 105 74.5 304q0 198 -75.5 305.5t-224.5 107.5q-149 -1 -225 -108t-76 -306q0 -198 76.5 -303
t225.5 -105q150 0 224.5 105zM584 1183.5q-30 20.5 -66 59.5q-25 28 -42 41t-38 13q-63 0 -68 -106q-2 -19 -20 -19h-63q-20 0 -20 20q4 97 47 156t122 59q46 0 76.5 -21t65.5 -61q22 -26 38.5 -39t35.5 -13q68 0 73 106q0 19 20 19h63q20 0 19 -24q-5 -98 -47 -154.5
t-121 -56.5q-45 0 -75 20.5z" />
    <glyph glyph-name="odieresis" unicode="&#xf6;" horiz-adv-x="1094" 
d="M284 43q-110 66 -167.5 187t-57.5 283t57.5 284t167.5 189t264 67t264 -66t167 -187.5t57 -283.5q0 -163 -57 -284.5t-167 -188t-264 -66.5t-264 66zM772.5 209q74.5 105 74.5 304q0 198 -75.5 305.5t-224.5 107.5q-149 -1 -225 -108t-76 -306q0 -198 76.5 -303
t225.5 -105q150 0 224.5 105zM327 1155q-9 0 -14.5 5t-5.5 14v154q0 9 5.5 14t14.5 5h124q20 0 20 -19v-154q0 -9 -5.5 -14t-14.5 -5h-124zM644 1155q-19 0 -19 19v154q0 19 19 19h125q9 0 14.5 -5t5.5 -14v-154q0 -9 -5.5 -14t-14.5 -5h-125z" />
    <glyph glyph-name="divide" unicode="&#xf7;" horiz-adv-x="1016" 
d="M427 1007q-10 0 -15 5.5t-5 14.5v162q0 20 20 20h163q10 0 15 -5.5t5 -14.5v-162q0 -10 -5.5 -15t-14.5 -5h-163zM77 618q-19 0 -19 19v104q0 19 19 19h862q19 0 19 -19v-104q0 -19 -19 -19h-862zM427 173q-10 0 -15 5.5t-5 14.5v162q0 20 20 20h163q10 0 15 -5.5
t5 -14.5v-162q0 -10 -5.5 -15t-14.5 -5h-163z" />
    <glyph glyph-name="oslash" unicode="&#xf8;" horiz-adv-x="1094" 
d="M930 881q52 -69 79 -161.5t27 -203.5q0 -163 -57 -284.5t-167 -188t-264 -66.5q-174 0 -292 90l-103 -124q-6 -8 -14 -8q-6 0 -14 6l-62 59q-7 7 -7 14q0 6 5 13l102 125q-52 68 -78 159.5t-26 201.5q0 162 57.5 284t167.5 189t264 67q173 0 288 -89l102 125q6 7 15 7
q8 0 13 -5l64 -60q7 -7 7 -14q0 -6 -5 -13zM322 818q-76 -107 -76 -306q0 -132 43 -224l462 556q-74 82 -204 82q-149 -1 -225 -108zM772.5 209q74.5 105 74.5 304q0 138 -44 231l-462 -557q75 -83 207 -83q150 0 224.5 105z" />
    <glyph glyph-name="ugrave" unicode="&#xf9;" horiz-adv-x="1051" 
d="M182.5 81q-91.5 105 -91.5 305v204l-4 420q0 20 19 20h147q20 0 20 -20l-5 -420v-197q0 -139 59 -208.5t159 -69.5q103 0 178.5 81t105.5 229v165l-3 420q0 20 19 20h149q19 0 19 -20l-6 -448l5 -542q0 -20 -20 -20h-139q-20 0 -20 20l5 160q-53 -88 -140.5 -146
t-202.5 -58q-162 0 -253.5 105zM698 1153q-4 -13 -17 -13q-5 0 -8 1l-443 156q-8 3 -11.5 9.5t-0.5 15.5l36 103q5 13 15 13q4 0 10 -3l429 -200q13 -6 13 -17q0 -3 -2 -9z" />
    <glyph glyph-name="uacute" unicode="&#xfa;" horiz-adv-x="1051" 
d="M182.5 81q-91.5 105 -91.5 305v204l-4 420q0 20 19 20h147q20 0 20 -20l-5 -420v-197q0 -139 59 -208.5t159 -69.5q103 0 178.5 81t105.5 229v165l-3 420q0 20 19 20h149q19 0 19 -20l-6 -448l5 -542q0 -20 -20 -20h-139q-20 0 -20 20l5 160q-53 -88 -140.5 -146
t-202.5 -58q-162 0 -253.5 105zM353 1141q-3 -1 -7 -1q-12 0 -18 13l-20 55q-2 6 -2 9q0 11 12 17l430 200q6 3 10 3q10 0 15 -13l35 -102q2 -6 2 -9q0 -11 -14 -16z" />
    <glyph glyph-name="ucircumflex" unicode="&#xfb;" horiz-adv-x="1051" 
d="M182.5 81q-91.5 105 -91.5 305v204l-4 420q0 20 19 20h147q20 0 20 -20l-5 -420v-197q0 -139 59 -208.5t159 -69.5q103 0 178.5 81t105.5 229v165l-3 420q0 20 19 20h149q19 0 19 -20l-6 -448l5 -542q0 -20 -20 -20h-139q-20 0 -20 20l5 160q-53 -88 -140.5 -146
t-202.5 -58q-162 0 -253.5 105zM198 1213q-2 4 -2 10q0 11 10 17l263 160q10 6 24 6h54q15 0 25 -6l263 -160q10 -6 10 -17q0 -6 -2 -10l-25 -57q-4 -12 -15 -12q-7 0 -10 2l-274 125l-272 -124q-4 -3 -10 -3q-10 0 -15 13z" />
    <glyph glyph-name="udieresis" unicode="&#xfc;" horiz-adv-x="1051" 
d="M182.5 81q-91.5 105 -91.5 305v204l-4 420q0 20 19 20h147q20 0 20 -20l-5 -420v-197q0 -139 59 -208.5t159 -69.5q103 0 178.5 81t105.5 229v165l-3 420q0 20 19 20h149q19 0 19 -20l-6 -448l5 -542q0 -20 -20 -20h-139q-20 0 -20 20l5 160q-53 -88 -140.5 -146
t-202.5 -58q-162 0 -253.5 105zM300 1155q-9 0 -14.5 5t-5.5 14v154q0 9 5.5 14t14.5 5h124q20 0 20 -19v-154q0 -9 -5.5 -14t-14.5 -5h-124zM617 1155q-19 0 -19 19v154q0 19 19 19h125q9 0 14.5 -5t5.5 -14v-154q0 -9 -5.5 -14t-14.5 -5h-125z" />
    <glyph glyph-name="yacute" unicode="&#xfd;" horiz-adv-x="951" 
d="M754 1014q5 16 22 16h148q17 0 17 -15q0 -5 -1 -8l-463 -1331q-6 -16 -22 -16h-134q-8 0 -13 4t-5 11l2 8l111 314l-404 1010q-2 6 -2 9q0 14 18 14h165q16 0 22 -16l291 -779zM317 1141q-3 -1 -7 -1q-12 0 -18 13l-20 55q-2 6 -2 9q0 11 12 17l430 200q6 3 10 3
q10 0 15 -13l35 -102q2 -6 2 -9q0 -11 -14 -16z" />
    <glyph glyph-name="thorn" unicode="&#xfe;" horiz-adv-x="1089" 
d="M835 981.5q96 -69.5 145.5 -190.5t49.5 -273q0 -150 -51.5 -272.5t-148.5 -194t-229 -71.5q-109 0 -190 46.5t-132 136.5l5 -483q0 -10 -5.5 -15t-14.5 -5h-150q-19 0 -19 20l7 832l-7 868q0 20 19 20h146q9 0 14.5 -5t5.5 -15l-7 -528q51 94 136 146.5t195 52.5
q135 0 231 -69.5zM771.5 215.5q73.5 107.5 73.5 289.5q0 192 -72.5 304.5t-214.5 112.5q-136 0 -212 -103t-76 -301q0 -196 74.5 -303t209.5 -107q144 0 217.5 107.5z" />
    <glyph glyph-name="ydieresis" unicode="&#xff;" horiz-adv-x="951" 
d="M754 1014q5 16 22 16h148q17 0 17 -15q0 -5 -1 -8l-463 -1331q-6 -16 -22 -16h-134q-8 0 -13 4t-5 11l2 8l111 314l-404 1010q-2 6 -2 9q0 14 18 14h165q16 0 22 -16l291 -779zM264 1155q-9 0 -14.5 5t-5.5 14v154q0 9 5.5 14t14.5 5h124q20 0 20 -19v-154q0 -9 -5.5 -14
t-14.5 -5h-124zM581 1155q-19 0 -19 19v154q0 19 19 19h125q9 0 14.5 -5t5.5 -14v-154q0 -9 -5.5 -14t-14.5 -5h-125z" />
    <glyph glyph-name="Amacron" unicode="&#x100;" horiz-adv-x="1258" 
d="M1243 23q2 -6 2 -9q0 -14 -17 -14h-155q-16 0 -22 16l-140 407h-571l-138 -407q-4 -16 -22 -16h-149q-18 0 -18 14q0 3 2 9l489 1361q4 16 21 16h213q16 0 22 -16zM862 573l-239 695l-235 -695h474zM359 1560q-20 0 -20 19v91q0 9 5.5 14t14.5 5h545q9 0 14.5 -5t5.5 -14
v-91q0 -9 -5.5 -14t-14.5 -5h-545z" />
    <glyph glyph-name="amacron" unicode="&#x101;" horiz-adv-x="1089" 
d="M987 526l7 -506q0 -20 -19 -20h-145q-20 0 -20 20l4 157q-51 -94 -134.5 -145t-194.5 -51q-135 0 -231 69.5t-145.5 190t-49.5 272.5q0 150 51 272.5t148.5 193.5t229.5 71q110 0 192.5 -47.5t132.5 -139.5l-4 147q0 20 20 20h146q19 0 19 -20zM742.5 210.5
q76.5 102.5 76.5 302.5q0 197 -75.5 303.5t-212.5 106.5q-142 0 -214.5 -107.5t-72.5 -289.5q0 -192 72.5 -305t212.5 -113q137 0 213.5 102.5zM255 1190q-20 0 -20 19v91q0 9 5.5 14t14.5 5h545q9 0 14.5 -5t5.5 -14v-91q0 -9 -5.5 -14t-14.5 -5h-545z" />
    <glyph glyph-name="Abreve" unicode="&#x102;" horiz-adv-x="1258" 
d="M1243 23q2 -6 2 -9q0 -14 -17 -14h-155q-16 0 -22 16l-140 407h-571l-138 -407q-4 -16 -22 -16h-149q-18 0 -18 14q0 3 2 9l489 1361q4 16 21 16h213q16 0 22 -16zM862 573l-239 695l-235 -695h474zM490.5 1552.5q-62.5 32.5 -98 90t-40.5 130.5v2q0 8 5 13t14 5h86
q18 0 21 -20q5 -59 46 -94t110 -35q66 0 107.5 35.5t47.5 93.5q3 20 21 20h87q9 0 14 -5t4 -13q-4 -73 -39.5 -131t-98 -91t-143.5 -33t-143.5 32.5z" />
    <glyph glyph-name="abreve" unicode="&#x103;" horiz-adv-x="1089" 
d="M987 526l7 -506q0 -20 -19 -20h-145q-20 0 -20 20l4 157q-51 -94 -134.5 -145t-194.5 -51q-135 0 -231 69.5t-145.5 190t-49.5 272.5q0 150 51 272.5t148.5 193.5t229.5 71q110 0 192.5 -47.5t132.5 -139.5l-4 147q0 20 20 20h146q19 0 19 -20zM742.5 210.5
q76.5 102.5 76.5 302.5q0 197 -75.5 303.5t-212.5 106.5q-142 0 -214.5 -107.5t-72.5 -289.5q0 -192 72.5 -305t212.5 -113q137 0 213.5 102.5zM386.5 1182.5q-62.5 32.5 -98 90t-40.5 130.5v2q0 8 5 13t14 5h86q18 0 21 -20q5 -59 46 -94t110 -35q66 0 107.5 35.5
t47.5 93.5q3 20 21 20h87q9 0 14 -5t4 -13q-4 -73 -39.5 -131t-98 -91t-143.5 -33t-143.5 32.5z" />
    <glyph glyph-name="Aogonek" unicode="&#x104;" horiz-adv-x="1258" 
d="M1277 -254q9 0 14.5 -5t5.5 -14v-88q0 -9 -5.5 -14t-14.5 -5h-97q-73 0 -129.5 23.5t-87.5 66t-31 98.5q0 63 33 113.5t90 86.5l-4 8l-140 407h-571l-138 -407q-4 -16 -22 -16h-149q-18 0 -18 14q0 3 2 9l489 1361q4 16 21 16h213q16 0 22 -16l483 -1361q2 -6 2 -9
q0 -14 -17 -14h-56q-37 -24 -66 -66.5t-29 -91.5q0 -48 32 -72t86 -24h82zM623 1268l-235 -695h474z" />
    <glyph glyph-name="aogonek" unicode="&#x105;" horiz-adv-x="1089" 
d="M1031 -254q9 0 14.5 -5t5.5 -14v-88q0 -9 -5.5 -14t-14.5 -5h-97q-73 0 -129.5 23.5t-87.5 66t-31 98.5q0 64 34 115t92 87q-2 4 -2 10l4 157q-51 -94 -134.5 -145t-194.5 -51q-135 0 -231 69.5t-145.5 190t-49.5 272.5q0 150 51 272.5t148.5 193.5t229.5 71
q110 0 192.5 -47.5t132.5 -139.5l-4 147q0 20 20 20h146q19 0 19 -20l-7 -484l7 -506q0 -20 -19 -20h-49q-37 -24 -66 -66.5t-29 -91.5q0 -48 32 -72t86 -24h82zM742.5 210.5q76.5 102.5 76.5 302.5q0 197 -75.5 303.5t-212.5 106.5q-142 0 -214.5 -107.5t-72.5 -289.5
q0 -192 72.5 -305t212.5 -113q137 0 213.5 102.5z" />
    <glyph glyph-name="Cacute" unicode="&#x106;" horiz-adv-x="1365" 
d="M366 62q-147 87 -225 250.5t-78 389.5q0 219 79.5 382.5t227 252t347.5 88.5q225 0 380 -115t203 -369l1 -6q0 -7 -5 -11.5t-13 -4.5h-146q-18 0 -21 18q-31 172 -136.5 257t-265.5 85q-145 0 -248 -70.5t-156.5 -200.5t-53.5 -306q0 -190 54.5 -320t157 -195.5
t245.5 -65.5q175 0 282.5 95.5t128.5 276.5q3 19 21 19h148q10 0 14.5 -6.5t2.5 -17.5q-39 -256 -193.5 -384.5t-399.5 -128.5q-204 0 -351 87zM542 1511q-3 -1 -7 -1q-12 0 -18 13l-20 55q-2 6 -2 9q0 11 12 17l430 200q6 3 10 3q10 0 15 -13l35 -102q2 -6 2 -9
q0 -11 -14 -16z" />
    <glyph glyph-name="cacute" unicode="&#x107;" horiz-adv-x="1038" 
d="M280.5 42.5q-108.5 65.5 -165 186.5t-56.5 283q0 163 56.5 285t166 189t263.5 67q124 0 217.5 -44.5t148.5 -125.5t67 -189v-4q0 -16 -18 -16h-131q-18 0 -21 18q-20 114 -90 173.5t-173 59.5q-150 -1 -224 -107.5t-74 -304.5q0 -201 74 -305t225 -104q115 0 188 69
t86 194q2 19 20 19h133q10 0 15 -5t4 -13q-11 -114 -68 -202.5t-155 -138.5t-228 -50q-152 0 -260.5 65.5zM366 1141q-3 -1 -7 -1q-12 0 -18 13l-20 55q-2 6 -2 9q0 11 12 17l430 200q6 3 10 3q10 0 15 -13l35 -102q2 -6 2 -9q0 -11 -14 -16z" />
    <glyph glyph-name="Ccircumflex" unicode="&#x108;" horiz-adv-x="1365" 
d="M366 62q-147 87 -225 250.5t-78 389.5q0 219 79.5 382.5t227 252t347.5 88.5q225 0 380 -115t203 -369l1 -6q0 -7 -5 -11.5t-13 -4.5h-146q-18 0 -21 18q-31 172 -136.5 257t-265.5 85q-145 0 -248 -70.5t-156.5 -200.5t-53.5 -306q0 -190 54.5 -320t157 -195.5
t245.5 -65.5q175 0 282.5 95.5t128.5 276.5q3 19 21 19h148q10 0 14.5 -6.5t2.5 -17.5q-39 -256 -193.5 -384.5t-399.5 -128.5q-204 0 -351 87zM387 1583q-2 4 -2 10q0 11 10 17l263 160q10 6 24 6h54q15 0 25 -6l263 -160q10 -6 10 -17q0 -6 -2 -10l-25 -57q-4 -12 -15 -12
q-7 0 -10 2l-274 125l-272 -124q-4 -3 -10 -3q-10 0 -15 13z" />
    <glyph glyph-name="ccircumflex" unicode="&#x109;" horiz-adv-x="1038" 
d="M280.5 42.5q-108.5 65.5 -165 186.5t-56.5 283q0 163 56.5 285t166 189t263.5 67q124 0 217.5 -44.5t148.5 -125.5t67 -189v-4q0 -16 -18 -16h-131q-18 0 -21 18q-20 114 -90 173.5t-173 59.5q-150 -1 -224 -107.5t-74 -304.5q0 -201 74 -305t225 -104q115 0 188 69
t86 194q2 19 20 19h133q10 0 15 -5t4 -13q-11 -114 -68 -202.5t-155 -138.5t-228 -50q-152 0 -260.5 65.5zM212 1213q-2 4 -2 10q0 11 10 17l263 160q10 6 24 6h54q15 0 25 -6l263 -160q10 -6 10 -17q0 -6 -2 -10l-25 -57q-4 -12 -15 -12q-7 0 -10 2l-274 125l-272 -124
q-4 -3 -10 -3q-10 0 -15 13z" />
    <glyph glyph-name="Cdotaccent" unicode="&#x10a;" horiz-adv-x="1365" 
d="M366 62q-147 87 -225 250.5t-78 389.5q0 219 79.5 382.5t227 252t347.5 88.5q225 0 380 -115t203 -369l1 -6q0 -7 -5 -11.5t-13 -4.5h-146q-18 0 -21 18q-31 172 -136.5 257t-265.5 85q-145 0 -248 -70.5t-156.5 -200.5t-53.5 -306q0 -190 54.5 -320t157 -195.5
t245.5 -65.5q175 0 282.5 95.5t128.5 276.5q3 19 21 19h148q10 0 14.5 -6.5t2.5 -17.5q-39 -256 -193.5 -384.5t-399.5 -128.5q-204 0 -351 87zM637 1525q-20 0 -20 19v154q0 9 5.5 14t14.5 5h146q9 0 14.5 -5t5.5 -14v-154q0 -9 -5.5 -14t-14.5 -5h-146z" />
    <glyph glyph-name="cdotaccent" unicode="&#x10b;" horiz-adv-x="1038" 
d="M280.5 42.5q-108.5 65.5 -165 186.5t-56.5 283q0 163 56.5 285t166 189t263.5 67q124 0 217.5 -44.5t148.5 -125.5t67 -189v-4q0 -16 -18 -16h-131q-18 0 -21 18q-20 114 -90 173.5t-173 59.5q-150 -1 -224 -107.5t-74 -304.5q0 -201 74 -305t225 -104q115 0 188 69
t86 194q2 19 20 19h133q10 0 15 -5t4 -13q-11 -114 -68 -202.5t-155 -138.5t-228 -50q-152 0 -260.5 65.5zM461 1155q-20 0 -20 19v154q0 9 5.5 14t14.5 5h146q9 0 14.5 -5t5.5 -14v-154q0 -9 -5.5 -14t-14.5 -5h-146z" />
    <glyph glyph-name="Ccaron" unicode="&#x10c;" horiz-adv-x="1365" 
d="M366 62q-147 87 -225 250.5t-78 389.5q0 219 79.5 382.5t227 252t347.5 88.5q225 0 380 -115t203 -369l1 -6q0 -7 -5 -11.5t-13 -4.5h-146q-18 0 -21 18q-31 172 -136.5 257t-265.5 85q-145 0 -248 -70.5t-156.5 -200.5t-53.5 -306q0 -190 54.5 -320t157 -195.5
t245.5 -65.5q175 0 282.5 95.5t128.5 276.5q3 19 21 19h148q10 0 14.5 -6.5t2.5 -17.5q-39 -256 -193.5 -384.5t-399.5 -128.5q-204 0 -351 87zM396 1680q-11 6 -11 15q0 5 3 11l24 57q4 12 15 12q5 0 10 -3l272 -123l272 124q5 3 10 3q11 0 15 -12l25 -58q2 -4 2 -10
q0 -10 -10 -16l-263 -158q-9 -7 -25 -7h-52q-15 0 -24 7z" />
    <glyph glyph-name="ccaron" unicode="&#x10d;" horiz-adv-x="1038" 
d="M280.5 42.5q-108.5 65.5 -165 186.5t-56.5 283q0 163 56.5 285t166 189t263.5 67q124 0 217.5 -44.5t148.5 -125.5t67 -189v-4q0 -16 -18 -16h-131q-18 0 -21 18q-20 114 -90 173.5t-173 59.5q-150 -1 -224 -107.5t-74 -304.5q0 -201 74 -305t225 -104q115 0 188 69
t86 194q2 19 20 19h133q10 0 15 -5t4 -13q-11 -114 -68 -202.5t-155 -138.5t-228 -50q-152 0 -260.5 65.5zM221 1310q-11 6 -11 15q0 5 3 11l24 57q4 12 15 12q5 0 10 -3l272 -123l272 124q5 3 10 3q11 0 15 -12l25 -58q2 -4 2 -10q0 -10 -10 -16l-263 -158q-9 -7 -25 -7
h-52q-15 0 -24 7z" />
    <glyph glyph-name="Dcaron" unicode="&#x10e;" horiz-adv-x="1341" 
d="M126 0q-19 0 -19 20l9 701l-9 659q0 20 19 20h444q203 0 363.5 -81.5t252.5 -239t92 -378.5q0 -229 -95 -387t-255 -236t-354 -78h-448zM294 724l8 -582h288q130 0 242.5 60t182.5 185.5t70 313.5q0 181 -66.5 306.5t-180.5 188t-256 62.5h-280zM334 1680q-11 6 -11 15
q0 5 3 11l24 57q4 12 15 12q5 0 10 -3l272 -123l272 124q5 3 10 3q11 0 15 -12l25 -58q2 -4 2 -10q0 -10 -10 -16l-263 -158q-9 -7 -25 -7h-52q-15 0 -24 7z" />
    <glyph glyph-name="dcaron" unicode="&#x10f;" horiz-adv-x="1089" 
d="M988 783l6 -763q0 -20 -19 -20h-146q-20 0 -20 20l5 155q-51 -93 -135 -144t-194 -51q-135 0 -231 69.5t-145.5 190.5t-49.5 273q0 150 51.5 272.5t148.5 194t229 71.5q109 0 190.5 -46.5t132.5 -136.5l-4 512q0 20 20 20h148q19 0 19 -20zM742 209q77 103 77 304
q0 197 -75.5 305t-212.5 108q-142 0 -214.5 -109t-72.5 -292q0 -192 72.5 -305.5t212.5 -113.5q136 0 213 103zM1194 1126q-5 -17 -22 -17h-82q-10 0 -15 6t-3 16l71 372q3 17 21 17h116q10 0 14.5 -6t1.5 -16z" />
    <glyph glyph-name="Dcroat" unicode="&#x110;" horiz-adv-x="1363" 
d="M591 1400q204 0 364.5 -81.5t252.5 -239.5t92 -378q0 -229 -95.5 -387t-255.5 -236t-354 -78h-447q-19 0 -19 20l8 661h-129q-19 0 -19 19v103q0 19 19 19h129l-8 558q0 20 19 20h443zM611 142q130 0 243 60t183 185.5t70 313.5q0 181 -66.5 306.5t-181 188t-256.5 62.5
h-279l-6 -436h372q20 0 20 -19v-103q0 -9 -5.5 -14t-14.5 -5h-374l8 -539h287z" />
    <glyph glyph-name="dcroat" unicode="&#x111;" horiz-adv-x="1089" 
d="M1083 1267q19 0 19 -19v-92q0 -19 -19 -19h-92l-3 -354l6 -763q0 -20 -19 -20h-146q-20 0 -20 20l5 155q-51 -93 -135 -144t-194 -51q-135 0 -231 69.5t-145.5 190.5t-49.5 273q0 150 51.5 272.5t148.5 194t229 71.5q109 0 190.5 -46.5t132.5 -136.5l-2 269h-302
q-19 0 -19 19v92q0 19 19 19h300v113q0 20 20 20h148q19 0 19 -20l-1 -113h90zM741.5 209.5q77.5 103.5 77.5 303.5q0 197 -75.5 305t-212.5 108q-142 0 -214.5 -109t-72.5 -292q0 -192 72.5 -305.5t212.5 -113.5q135 0 212.5 103.5z" />
    <glyph glyph-name="Emacron" unicode="&#x112;" horiz-adv-x="1071" 
d="M126 0q-19 0 -19 20l9 705l-9 655q0 20 19 20h844q9 0 14.5 -5.5t5.5 -14.5v-102q0 -9 -5.5 -14.5t-14.5 -5.5h-670l-8 -440h630q9 0 14.5 -5t5.5 -14v-103q0 -9 -5.5 -14t-14.5 -5h-630l8 -535h686q10 0 15 -5.5t5 -14.5v-102q0 -9 -5.5 -14.5t-14.5 -5.5h-860z
M292 1560q-20 0 -20 19v91q0 9 5.5 14t14.5 5h545q9 0 14.5 -5t5.5 -14v-91q0 -9 -5.5 -14t-14.5 -5h-545z" />
    <glyph glyph-name="emacron" unicode="&#x113;" horiz-adv-x="1077" 
d="M244 493q9 -389 309 -389q113 0 181.5 60.5t91.5 175.5q5 18 22 18h136q10 0 15 -4.5t4 -12.5q-16 -108 -73.5 -190t-153.5 -128t-225 -46q-157 0 -268 67t-167.5 188t-56.5 280q0 161 57.5 283t166.5 190t258 68q148 0 254.5 -64.5t164 -185.5t60.5 -290q0 -20 -19 -20
h-757zM341.5 846q-73.5 -81 -91.5 -230h573q-3 87 -35.5 157.5t-95 112t-150.5 41.5q-127 0 -200.5 -81zM268 1190q-20 0 -20 19v91q0 9 5.5 14t14.5 5h545q9 0 14.5 -5t5.5 -14v-91q0 -9 -5.5 -14t-14.5 -5h-545z" />
    <glyph glyph-name="Ebreve" unicode="&#x114;" horiz-adv-x="1071" 
d="M126 0q-19 0 -19 20l9 705l-9 655q0 20 19 20h844q9 0 14.5 -5.5t5.5 -14.5v-102q0 -9 -5.5 -14.5t-14.5 -5.5h-670l-8 -440h630q9 0 14.5 -5t5.5 -14v-103q0 -9 -5.5 -14t-14.5 -5h-630l8 -535h686q10 0 15 -5.5t5 -14.5v-102q0 -9 -5.5 -14.5t-14.5 -5.5h-860z
M423.5 1552.5q-62.5 32.5 -98 90t-40.5 130.5v2q0 8 5 13t14 5h86q18 0 21 -20q5 -59 46 -94t110 -35q66 0 107.5 35.5t47.5 93.5q3 20 21 20h87q9 0 14 -5t4 -13q-4 -73 -39.5 -131t-98 -91t-143.5 -33t-143.5 32.5z" />
    <glyph glyph-name="ebreve" unicode="&#x115;" horiz-adv-x="1077" 
d="M244 493q9 -389 309 -389q113 0 181.5 60.5t91.5 175.5q5 18 22 18h136q10 0 15 -4.5t4 -12.5q-16 -108 -73.5 -190t-153.5 -128t-225 -46q-157 0 -268 67t-167.5 188t-56.5 280q0 161 57.5 283t166.5 190t258 68q148 0 254.5 -64.5t164 -185.5t60.5 -290q0 -20 -19 -20
h-757zM341.5 846q-73.5 -81 -91.5 -230h573q-3 87 -35.5 157.5t-95 112t-150.5 41.5q-127 0 -200.5 -81zM398.5 1182.5q-62.5 32.5 -98 90t-40.5 130.5v2q0 8 5 13t14 5h86q18 0 21 -20q5 -59 46 -94t110 -35q66 0 107.5 35.5t47.5 93.5q3 20 21 20h87q9 0 14 -5t4 -13
q-4 -73 -39.5 -131t-98 -91t-143.5 -33t-143.5 32.5z" />
    <glyph glyph-name="Edotaccent" unicode="&#x116;" horiz-adv-x="1071" 
d="M126 0q-19 0 -19 20l9 705l-9 655q0 20 19 20h844q9 0 14.5 -5.5t5.5 -14.5v-102q0 -9 -5.5 -14.5t-14.5 -5.5h-670l-8 -440h630q9 0 14.5 -5t5.5 -14v-103q0 -9 -5.5 -14t-14.5 -5h-630l8 -535h686q10 0 15 -5.5t5 -14.5v-102q0 -9 -5.5 -14.5t-14.5 -5.5h-860z
M493 1525q-20 0 -20 19v154q0 9 5.5 14t14.5 5h146q9 0 14.5 -5t5.5 -14v-154q0 -9 -5.5 -14t-14.5 -5h-146z" />
    <glyph glyph-name="edotaccent" unicode="&#x117;" horiz-adv-x="1077" 
d="M244 493q9 -389 309 -389q113 0 181.5 60.5t91.5 175.5q5 18 22 18h136q10 0 15 -4.5t4 -12.5q-16 -108 -73.5 -190t-153.5 -128t-225 -46q-157 0 -268 67t-167.5 188t-56.5 280q0 161 57.5 283t166.5 190t258 68q148 0 254.5 -64.5t164 -185.5t60.5 -290q0 -20 -19 -20
h-757zM341.5 846q-73.5 -81 -91.5 -230h573q-3 87 -35.5 157.5t-95 112t-150.5 41.5q-127 0 -200.5 -81zM468 1155q-20 0 -20 19v154q0 9 5.5 14t14.5 5h146q9 0 14.5 -5t5.5 -14v-154q0 -9 -5.5 -14t-14.5 -5h-146z" />
    <glyph glyph-name="Eogonek" unicode="&#x118;" horiz-adv-x="1071" 
d="M1000 -254q9 0 14.5 -5t5.5 -14v-88q0 -9 -5.5 -14t-14.5 -5h-97q-73 0 -129.5 23.5t-87.5 66t-31 98.5q0 114 111 192h-640q-19 0 -19 20l9 705l-9 655q0 20 19 20h844q9 0 14.5 -5.5t5.5 -14.5v-102q0 -9 -5.5 -14.5t-14.5 -5.5h-670l-8 -440h630q9 0 14.5 -5t5.5 -14
v-103q0 -9 -5.5 -14t-14.5 -5h-630l8 -535h686q10 0 15 -5.5t5 -14.5v-102q0 -9 -5.5 -14.5t-14.5 -5.5h-91q-37 -24 -66 -66.5t-29 -91.5q0 -48 32 -72t86 -24h82z" />
    <glyph glyph-name="eogonek" unicode="&#x119;" horiz-adv-x="1077" 
d="M1001 493h-757q9 -389 309 -389q113 0 181.5 60.5t91.5 175.5q5 18 22 18h136q10 0 15 -4.5t4 -12.5q-21 -135 -104.5 -228t-221.5 -123q-33 -26 -57 -65t-24 -83q0 -48 32 -72t86 -24h82q9 0 14.5 -5t5.5 -14v-88q0 -9 -5.5 -14t-14.5 -5h-97q-73 0 -129.5 23.5
t-87.5 66t-31 98.5q0 99 82 169q-151 4 -258 72t-161.5 187.5t-54.5 275.5q0 161 57.5 283t166.5 190t258 68q148 0 254.5 -64.5t164 -185.5t60.5 -290q0 -20 -19 -20zM823 616q-3 87 -35.5 157.5t-95 112t-150.5 41.5q-127 0 -200.5 -81t-91.5 -230h573z" />
    <glyph glyph-name="Ecaron" unicode="&#x11a;" horiz-adv-x="1071" 
d="M126 0q-19 0 -19 20l9 705l-9 655q0 20 19 20h844q9 0 14.5 -5.5t5.5 -14.5v-102q0 -9 -5.5 -14.5t-14.5 -5.5h-670l-8 -440h630q9 0 14.5 -5t5.5 -14v-103q0 -9 -5.5 -14t-14.5 -5h-630l8 -535h686q10 0 15 -5.5t5 -14.5v-102q0 -9 -5.5 -14.5t-14.5 -5.5h-860z
M252 1680q-11 6 -11 15q0 5 3 11l24 57q4 12 15 12q5 0 10 -3l272 -123l272 124q5 3 10 3q11 0 15 -12l25 -58q2 -4 2 -10q0 -10 -10 -16l-263 -158q-9 -7 -25 -7h-52q-15 0 -24 7z" />
    <glyph glyph-name="ecaron" unicode="&#x11b;" horiz-adv-x="1077" 
d="M244 493q9 -389 309 -389q113 0 181.5 60.5t91.5 175.5q5 18 22 18h136q10 0 15 -4.5t4 -12.5q-16 -108 -73.5 -190t-153.5 -128t-225 -46q-157 0 -268 67t-167.5 188t-56.5 280q0 161 57.5 283t166.5 190t258 68q148 0 254.5 -64.5t164 -185.5t60.5 -290q0 -20 -19 -20
h-757zM341.5 846q-73.5 -81 -91.5 -230h573q-3 87 -35.5 157.5t-95 112t-150.5 41.5q-127 0 -200.5 -81zM228 1310q-11 6 -11 15q0 5 3 11l24 57q4 12 15 12q5 0 10 -3l272 -123l272 124q5 3 10 3q11 0 15 -12l25 -58q2 -4 2 -10q0 -10 -10 -16l-263 -158q-9 -7 -25 -7h-52
q-15 0 -24 7z" />
    <glyph glyph-name="Gcircumflex" unicode="&#x11c;" horiz-adv-x="1388" 
d="M372 65q-146 90 -227.5 254.5t-81.5 381.5q0 219 81 383t226 252.5t332 88.5q234 0 386 -115.5t202 -333.5q1 -2 1 -7q0 -15 -18 -15h-152q-18 0 -22 17q-34 152 -136.5 231t-259.5 79q-135 0 -236 -69.5t-156 -201t-55 -312.5q0 -177 56.5 -307.5t159 -201t238.5 -70.5
q132 0 225.5 56.5t142 161.5t50.5 248h-418q-9 0 -14 5.5t-5 14.5v100q0 9 5 14.5t14 5.5h595q19 0 19 -24q2 -234 -69 -396.5t-210 -246t-340 -83.5q-187 0 -333 90zM371 1583q-2 4 -2 10q0 11 10 17l263 160q10 6 24 6h54q15 0 25 -6l263 -160q10 -6 10 -17q0 -6 -2 -10
l-25 -57q-4 -12 -15 -12q-7 0 -10 2l-274 125l-272 -124q-4 -3 -10 -3q-10 0 -15 13z" />
    <glyph glyph-name="gcircumflex" unicode="&#x11d;" horiz-adv-x="1084" 
d="M259 71q-99 66 -149.5 181.5t-50.5 264.5q0 148 51.5 269t149.5 191t232 70q109 0 190.5 -48.5t130.5 -140.5l-4 152q0 20 20 20h143q9 0 14.5 -5t5.5 -15l-6 -494l4 -442q1 -225 -117.5 -345.5t-340.5 -120.5q-122 -1 -218.5 33t-156.5 105t-69 178v2q0 18 19 18h142
q18 0 21 -18q13 -96 83.5 -143.5t181.5 -47.5q135 0 209 83.5t74 257.5v117q-49 -91 -130.5 -139.5t-189.5 -48.5q-140 0 -239 66zM742.5 226q75.5 97 75.5 290q0 194 -75.5 300.5t-212.5 106.5q-139 0 -213 -107.5t-74 -292.5q0 -190 74 -292t217 -102q133 0 208.5 97z
M206 1213q-2 4 -2 10q0 11 10 17l263 160q10 6 24 6h54q15 0 25 -6l263 -160q10 -6 10 -17q0 -6 -2 -10l-25 -57q-4 -12 -15 -12q-7 0 -10 2l-274 125l-272 -124q-4 -3 -10 -3q-10 0 -15 13z" />
    <glyph glyph-name="Gbreve" unicode="&#x11e;" horiz-adv-x="1388" 
d="M372 65q-146 90 -227.5 254.5t-81.5 381.5q0 219 81 383t226 252.5t332 88.5q234 0 386 -115.5t202 -333.5q1 -2 1 -7q0 -15 -18 -15h-152q-18 0 -22 17q-34 152 -136.5 231t-259.5 79q-135 0 -236 -69.5t-156 -201t-55 -312.5q0 -177 56.5 -307.5t159 -201t238.5 -70.5
q132 0 225.5 56.5t142 161.5t50.5 248h-418q-9 0 -14 5.5t-5 14.5v100q0 9 5 14.5t14 5.5h595q19 0 19 -24q2 -234 -69 -396.5t-210 -246t-340 -83.5q-187 0 -333 90zM551.5 1552.5q-62.5 32.5 -98 90t-40.5 130.5v2q0 8 5 13t14 5h86q18 0 21 -20q5 -59 46 -94t110 -35
q66 0 107.5 35.5t47.5 93.5q3 20 21 20h87q9 0 14 -5t4 -13q-4 -73 -39.5 -131t-98 -91t-143.5 -33t-143.5 32.5z" />
    <glyph glyph-name="gbreve" unicode="&#x11f;" horiz-adv-x="1084" 
d="M259 71q-99 66 -149.5 181.5t-50.5 264.5q0 148 51.5 269t149.5 191t232 70q109 0 190.5 -48.5t130.5 -140.5l-4 152q0 20 20 20h143q9 0 14.5 -5t5.5 -15l-6 -494l4 -442q1 -225 -117.5 -345.5t-340.5 -120.5q-122 -1 -218.5 33t-156.5 105t-69 178v2q0 18 19 18h142
q18 0 21 -18q13 -96 83.5 -143.5t181.5 -47.5q135 0 209 83.5t74 257.5v117q-49 -91 -130.5 -139.5t-189.5 -48.5q-140 0 -239 66zM742.5 226q75.5 97 75.5 290q0 194 -75.5 300.5t-212.5 106.5q-139 0 -213 -107.5t-74 -292.5q0 -190 74 -292t217 -102q133 0 208.5 97z
M386.5 1182.5q-62.5 32.5 -98 90t-40.5 130.5v2q0 8 5 13t14 5h86q18 0 21 -20q5 -59 46 -94t110 -35q66 0 107.5 35.5t47.5 93.5q3 20 21 20h87q9 0 14 -5t4 -13q-4 -73 -39.5 -131t-98 -91t-143.5 -33t-143.5 32.5z" />
    <glyph glyph-name="Gdotaccent" unicode="&#x120;" horiz-adv-x="1388" 
d="M372 65q-146 90 -227.5 254.5t-81.5 381.5q0 219 81 383t226 252.5t332 88.5q234 0 386 -115.5t202 -333.5q1 -2 1 -7q0 -15 -18 -15h-152q-18 0 -22 17q-34 152 -136.5 231t-259.5 79q-135 0 -236 -69.5t-156 -201t-55 -312.5q0 -177 56.5 -307.5t159 -201t238.5 -70.5
q132 0 225.5 56.5t142 161.5t50.5 248h-418q-9 0 -14 5.5t-5 14.5v100q0 9 5 14.5t14 5.5h595q19 0 19 -24q2 -234 -69 -396.5t-210 -246t-340 -83.5q-187 0 -333 90zM621 1525q-20 0 -20 19v154q0 9 5.5 14t14.5 5h146q9 0 14.5 -5t5.5 -14v-154q0 -9 -5.5 -14t-14.5 -5
h-146z" />
    <glyph glyph-name="gdotaccent" unicode="&#x121;" horiz-adv-x="1084" 
d="M259 71q-99 66 -149.5 181.5t-50.5 264.5q0 148 51.5 269t149.5 191t232 70q109 0 190.5 -48.5t130.5 -140.5l-4 152q0 20 20 20h143q9 0 14.5 -5t5.5 -15l-6 -494l4 -442q1 -225 -117.5 -345.5t-340.5 -120.5q-122 -1 -218.5 33t-156.5 105t-69 178v2q0 18 19 18h142
q18 0 21 -18q13 -96 83.5 -143.5t181.5 -47.5q135 0 209 83.5t74 257.5v117q-49 -91 -130.5 -139.5t-189.5 -48.5q-140 0 -239 66zM742.5 226q75.5 97 75.5 290q0 194 -75.5 300.5t-212.5 106.5q-139 0 -213 -107.5t-74 -292.5q0 -190 74 -292t217 -102q133 0 208.5 97z
M456 1155q-20 0 -20 19v154q0 9 5.5 14t14.5 5h146q9 0 14.5 -5t5.5 -14v-154q0 -9 -5.5 -14t-14.5 -5h-146z" />
    <glyph glyph-name="uni0122" unicode="&#x122;" horiz-adv-x="1388" 
d="M372 65q-146 90 -227.5 254.5t-81.5 381.5q0 219 81 383t226 252.5t332 88.5q234 0 386 -115.5t202 -333.5q1 -2 1 -7q0 -15 -18 -15h-152q-18 0 -22 17q-34 152 -136.5 231t-259.5 79q-135 0 -236 -69.5t-156 -201t-55 -312.5q0 -177 56.5 -307.5t159 -201t238.5 -70.5
q132 0 225.5 56.5t142 161.5t50.5 248h-418q-9 0 -14 5.5t-5 14.5v100q0 9 5 14.5t14 5.5h595q19 0 19 -24q2 -234 -69 -396.5t-210 -246t-340 -83.5q-187 0 -333 90zM604 -450q-9 0 -13 6t-2 16l39 152v151q0 9 5.5 14t14.5 5h113q20 0 20 -19v-137q0 -13 -7 -24l-91 -151
q-7 -13 -23 -13h-56z" />
    <glyph glyph-name="uni0123" unicode="&#x123;" horiz-adv-x="1084" 
d="M259 71q-99 66 -149.5 181.5t-50.5 264.5q0 148 51.5 269t149.5 191t232 70q109 0 190.5 -48.5t130.5 -140.5l-4 152q0 20 20 20h143q9 0 14.5 -5t5.5 -15l-6 -494l4 -442q1 -225 -117.5 -345.5t-340.5 -120.5q-122 -1 -218.5 33t-156.5 105t-69 178v2q0 18 19 18h142
q18 0 21 -18q13 -96 83.5 -143.5t181.5 -47.5q135 0 209 83.5t74 257.5v117q-49 -91 -130.5 -139.5t-189.5 -48.5q-140 0 -239 66zM742.5 226q75.5 97 75.5 290q0 194 -75.5 300.5t-212.5 106.5q-139 0 -213 -107.5t-74 -292.5q0 -190 74 -292t217 -102q133 0 208.5 97z
M429 1155q-9 0 -14.5 5t-5.5 14v135q0 14 9 24l116 152q9 12 23 12h68q22 0 17 -22l-45 -152v-149q0 -9 -5.5 -14t-14.5 -5h-148z" />
    <glyph glyph-name="Hcircumflex" unicode="&#x124;" horiz-adv-x="1334" 
d="M1217 692l10 -672q0 -20 -20 -20h-155q-19 0 -19 20l7 639v22h-747v-22l8 -639q0 -20 -19 -20h-156q-19 0 -19 20l9 672l-9 688q0 20 19 20h156q19 0 19 -20l-7 -558h745l-6 558q0 20 19 20h155q20 0 20 -20zM345 1583q-2 4 -2 10q0 11 10 17l263 160q10 6 24 6h54
q15 0 25 -6l263 -160q10 -6 10 -17q0 -6 -2 -10l-25 -57q-4 -12 -15 -12q-7 0 -10 2l-274 125l-272 -124q-4 -3 -10 -3q-10 0 -15 13z" />
    <glyph glyph-name="hcircumflex" unicode="&#x125;" horiz-adv-x="1050" 
d="M869 947.5q91 -106.5 90 -323.5l-2 -206l6 -398q0 -20 -19 -20h-150q-21 0 -19 20l5 396l-1 221q-1 143 -58.5 211.5t-156.5 68.5q-96 0 -173 -70.5t-118 -196.5l7 -630q0 -20 -19 -20h-146q-19 0 -19 20l7 691l-7 670q0 20 19 20h146q19 0 19 -20l-6 -524
q52 88 136.5 142.5t198.5 54.5q169 0 260 -106.5zM-134 1584q-2 4 -2 10q0 11 10 17l263 160q10 6 24 6h54q15 0 25 -6l263 -160q10 -6 10 -17q0 -6 -2 -10l-25 -57q-4 -12 -15 -12q-7 0 -10 2l-274 125l-272 -124q-4 -3 -10 -3q-10 0 -15 13z" />
    <glyph glyph-name="Hbar" unicode="&#x126;" horiz-adv-x="1347" 
d="M1333 1128q19 0 19 -19v-103q0 -19 -19 -19h-104l-2 -295l5 -672q0 -20 -20 -20h-151q-19 0 -19 20l3 568v22h-743v-22l4 -568q0 -20 -20 -20h-151q-19 0 -19 20l5 672l-2 295h-104q-9 0 -14.5 5t-5.5 14v103q0 9 5.5 14t14.5 5h103l-2 252q0 20 19 20h151q20 0 20 -20
l-2 -252h739l-1 252q0 20 19 20h151q20 0 20 -20l-2 -252h103zM303 987l-1 -235h743l-1 235h-741z" />
    <glyph glyph-name="hbar" unicode="&#x127;" horiz-adv-x="1027" 
d="M845.5 947.5q91.5 -106.5 90.5 -323.5l-2 -206l6 -398q0 -20 -19 -20h-150q-20 0 -20 20l6 396l-1 221q-1 143 -58.5 211.5t-156.5 68.5q-96 0 -173 -70.5t-118 -196.5l7 -630q0 -20 -19 -20h-146q-20 0 -20 20l8 691l-5 426h-90q-9 0 -14.5 5t-5.5 14v92q0 9 5.5 14
t14.5 5h88l-1 114q0 20 20 20h146q19 0 19 -20l-1 -114h304q19 0 19 -19v-92q0 -19 -19 -19h-306l-3 -280q52 88 136.5 142.5t197.5 54.5q169 0 260.5 -106.5z" />
    <glyph glyph-name="Itilde" unicode="&#x128;" horiz-adv-x="426" 
d="M136 0q-19 0 -19 20l9 694l-9 666q0 20 19 20h154q19 0 19 -20l-9 -666l9 -694q0 -20 -19 -20h-154zM250 1553.5q-30 20.5 -66 59.5q-25 28 -42 41t-38 13q-63 0 -68 -106q-2 -19 -20 -19h-63q-20 0 -20 20q4 97 47 156t122 59q46 0 76.5 -21t65.5 -61q22 -26 38.5 -39
t35.5 -13q68 0 73 106q0 19 20 19h63q20 0 19 -24q-5 -98 -47 -154.5t-121 -56.5q-45 0 -75 20.5z" />
    <glyph glyph-name="itilde" unicode="&#x129;" horiz-adv-x="397" 
d="M228.5 1185q-26.5 22 -54.5 61q-19 27 -32 39.5t-29 12.5q-43 0 -48 -106q0 -20 -19 -20h-57q-19 0 -19 20q3 103 37.5 159t97.5 56q40 0 66.5 -22t54.5 -61q18 -26 31 -39t29 -13q43 0 48 106q0 10 5.5 15t14.5 5h56q19 0 19 -34q-5 -99 -39 -150t-95 -51
q-40 0 -66.5 22zM124 0q-20 0 -20 20l6 512l-6 478q0 20 20 20h150q19 0 19 -20l-6 -478l6 -512q0 -20 -19 -20h-150z" />
    <glyph glyph-name="Imacron" unicode="&#x12a;" horiz-adv-x="426" 
d="M136 0q-19 0 -19 20l9 694l-9 666q0 20 19 20h154q19 0 19 -20l-9 -666l9 -694q0 -20 -19 -20h-154zM-60 1560q-20 0 -20 19v91q0 9 5.5 14t14.5 5h545q9 0 14.5 -5t5.5 -14v-91q0 -9 -5.5 -14t-14.5 -5h-545z" />
    <glyph glyph-name="imacron" unicode="&#x12b;" horiz-adv-x="397" 
d="M-23 1190q-19 0 -19 19v91q0 19 19 19h443q19 0 19 -19v-91q0 -19 -19 -19h-443zM124 0q-20 0 -20 20l6 512l-6 478q0 20 20 20h150q19 0 19 -20l-6 -478l6 -512q0 -20 -19 -20h-150z" />
    <glyph glyph-name="Ibreve" unicode="&#x12c;" horiz-adv-x="426" 
d="M136 0q-19 0 -19 20l9 694l-9 666q0 20 19 20h154q19 0 19 -20l-9 -666l9 -694q0 -20 -19 -20h-154zM71.5 1552.5q-62.5 32.5 -98 90t-40.5 130.5v2q0 8 5 13t14 5h86q18 0 21 -20q5 -59 46 -94t110 -35q66 0 107.5 35.5t47.5 93.5q3 20 21 20h87q9 0 14 -5t4 -13
q-4 -73 -39.5 -131t-98 -91t-143.5 -33t-143.5 32.5z" />
    <glyph glyph-name="ibreve" unicode="&#x12d;" horiz-adv-x="397" 
d="M25 1217.5q-66 67.5 -71 185.5q0 9 5 14.5t14 5.5h81q18 0 20 -20q4 -63 36.5 -98.5t89.5 -35.5q55 0 87.5 35.5t37.5 98.5q2 20 20 20h81q9 0 14.5 -6.5t4.5 -16.5q-6 -116 -71.5 -183t-173.5 -67q-109 0 -175 67.5zM124 0q-20 0 -20 20l6 512l-6 478q0 20 20 20h150
q19 0 19 -20l-6 -478l6 -512q0 -20 -19 -20h-150z" />
    <glyph glyph-name="Iogonek" unicode="&#x12e;" horiz-adv-x="426" 
d="M341 -254q9 0 14.5 -5t5.5 -14v-88q0 -9 -5.5 -14t-14.5 -5h-97q-73 0 -129.5 23.5t-87.5 66t-31 98.5q0 63 33.5 113.5t90.5 86.5q-3 5 -3 12l9 694l-9 666q0 20 19 20h154q19 0 19 -20l-9 -666l9 -694q0 -20 -19 -20h-54q-37 -24 -66 -66.5t-29 -91.5q0 -48 32 -72
t86 -24h82z" />
    <glyph glyph-name="iogonek" unicode="&#x12f;" horiz-adv-x="397" 
d="M127 1155q-20 0 -20 19v154q0 9 5.5 14t14.5 5h146q9 0 14.5 -5t5.5 -14v-154q0 -9 -5.5 -14t-14.5 -5h-146zM323 -254q9 0 14.5 -5t5.5 -14v-88q0 -9 -5.5 -14t-14.5 -5h-97q-73 0 -129.5 23.5t-87.5 66t-31 98.5q0 65 34.5 116t93.5 87q-2 4 -2 9l6 512l-6 478
q0 20 20 20h150q19 0 19 -20l-6 -478l6 -512q0 -20 -19 -20h-56q-37 -24 -66 -66.5t-29 -91.5q0 -48 32 -72t86 -24h82z" />
    <glyph glyph-name="Idotaccent" unicode="&#x130;" horiz-adv-x="426" 
d="M136 0q-19 0 -19 20l9 694l-9 666q0 20 19 20h154q19 0 19 -20l-9 -666l9 -694q0 -20 -19 -20h-154zM141 1525q-20 0 -20 19v154q0 9 5.5 14t14.5 5h146q9 0 14.5 -5t5.5 -14v-154q0 -9 -5.5 -14t-14.5 -5h-146z" />
    <glyph glyph-name="dotlessi" unicode="&#x131;" horiz-adv-x="397" 
d="M124 0q-20 0 -20 20l6 512l-6 478q0 20 20 20h150q19 0 19 -20l-6 -478l6 -512q0 -20 -19 -20h-150z" />
    <glyph glyph-name="IJ" unicode="&#x132;" horiz-adv-x="1412" 
d="M136 0q-19 0 -19 20l9 694l-9 666q0 20 19 20h154q19 0 19 -20l-9 -666l9 -694q0 -20 -19 -20h-154zM574.5 104q-104.5 132 -109.5 377q0 20 20 20h143q19 0 19 -20q3 -180 57.5 -270.5t186.5 -90.5q92 0 145 43.5t74 125.5t22 208l2 399l-7 484q0 20 19 20h159
q19 0 19 -20l-7 -484l2 -400q5 -524 -429 -524q-211 0 -315.5 132z" />
    <glyph glyph-name="ij" unicode="&#x133;" horiz-adv-x="794" 
d="M124 0q-20 0 -20 20l6 512l-6 478q0 20 20 20h150q19 0 19 -20l-6 -478l6 -512q0 -20 -19 -20h-150zM127 1155q-20 0 -20 19v154q0 9 5.5 14t14.5 5h146q9 0 14.5 -5t5.5 -14v-154q0 -9 -5.5 -14t-14.5 -5h-146zM521 -340q-20 0 -20 20l6 650l-6 680q0 20 20 20h150
q19 0 19 -20l-6 -680l6 -650q0 -20 -19 -20h-150zM524 1155q-20 0 -20 19v154q0 9 5.5 14t14.5 5h146q9 0 14.5 -5t5.5 -14v-154q0 -9 -5.5 -14t-14.5 -5h-146z" />
    <glyph glyph-name="Jcircumflex" unicode="&#x134;" horiz-adv-x="986" 
d="M148.5 104q-104.5 132 -109.5 377q0 20 20 20h143q19 0 19 -20q3 -180 57.5 -270.5t186.5 -90.5q92 0 145 43.5t74 125.5t22 208l2 399l-7 484q0 20 19 20h159q19 0 19 -20l-7 -484l2 -400q5 -524 -429 -524q-211 0 -315.5 132zM478 1583q-2 4 -2 10q0 11 10 17l263 160
q10 6 24 6h54q15 0 25 -6l263 -160q10 -6 10 -17q0 -6 -2 -10l-25 -57q-4 -12 -15 -12q-7 0 -10 2l-274 125l-272 -124q-4 -3 -10 -3q-10 0 -15 13z" />
    <glyph glyph-name="jcircumflex" unicode="&#x135;" horiz-adv-x="397" 
d="M-73 1215q-3 6 -3 11q0 9 10 16l214 157q9 8 24 8h52q15 0 24 -8l214 -157q10 -7 10 -16q0 -5 -3 -11l-28 -54q-6 -11 -16 -11q-5 0 -11 3l-215 122l-217 -121q-6 -3 -11 -3q-11 0 -16 11zM124 -340q-20 0 -20 20l6 650l-6 680q0 20 20 20h150q19 0 19 -20l-6 -680
l6 -650q0 -20 -19 -20h-150z" />
    <glyph glyph-name="uni0136" unicode="&#x136;" horiz-adv-x="1138" 
d="M1119 24q4 -5 4 -11q0 -13 -17 -13h-186q-15 0 -24 13l-445 682l-156 -184l4 -491q0 -20 -19 -20h-154q-19 0 -19 20l9 701l-9 659q0 20 20 20h153q19 0 19 -20l-6 -601v-40l518 649q8 12 24 12h177q7 0 11.5 -3t4.5 -8t-5 -13l-451 -534zM482 -450q-9 0 -13 6t-2 16
l39 152v151q0 9 5.5 14t14.5 5h113q20 0 20 -19v-137q0 -13 -7 -24l-91 -151q-7 -13 -23 -13h-56z" />
    <glyph glyph-name="uni0137" unicode="&#x137;" horiz-adv-x="934" 
d="M911 23q3 -6 3 -10q0 -6 -4.5 -10t-12.5 -4h-171q-15 0 -23 14l-301 513l-126 -138l4 -369q0 -10 -5.5 -15t-14.5 -5h-146q-19 0 -19 20l8 675l-8 686q0 20 19 20h146q9 0 14.5 -5t5.5 -15l-7 -683v-112l393 434q8 11 24 11h161q17 0 17 -11q0 -4 -7 -13l-330 -347z
M380 -450q-9 0 -13 6t-2 16l39 152v151q0 9 5.5 14t14.5 5h113q20 0 20 -19v-137q0 -13 -7 -24l-91 -151q-7 -13 -23 -13h-56z" />
    <glyph glyph-name="Lacute" unicode="&#x139;" horiz-adv-x="955" 
d="M126 0q-19 0 -19 20l9 716l-9 644q0 20 19 20h155q19 0 19 -20l-8 -636l8 -602h616q10 0 15 -5.5t5 -14.5v-102q0 -9 -5.5 -14.5t-14.5 -5.5h-790zM65 1511q-3 -1 -7 -1q-12 0 -18 13l-20 55q-2 6 -2 9q0 11 12 17l430 200q6 3 10 3q10 0 15 -13l35 -102q2 -6 2 -9
q0 -11 -14 -16z" />
    <glyph glyph-name="lacute" unicode="&#x13a;" horiz-adv-x="394" 
d="M124 0q-19 0 -19 20l8 689l-8 671q0 20 19 20h146q19 0 19 -20l-7 -669l7 -691q0 -20 -19 -20h-146zM30 1511q-3 -1 -7 -1q-12 0 -18 13l-20 55q-2 6 -2 9q0 11 12 17l430 200q6 3 10 3q10 0 15 -13l35 -102q2 -6 2 -9q0 -11 -14 -16z" />
    <glyph glyph-name="uni013B" unicode="&#x13b;" horiz-adv-x="955" 
d="M126 0q-19 0 -19 20l9 716l-9 644q0 20 19 20h155q19 0 19 -20l-8 -636l8 -602h616q10 0 15 -5.5t5 -14.5v-102q0 -9 -5.5 -14.5t-14.5 -5.5h-790zM443 -450q-9 0 -13 6t-2 16l39 152v151q0 9 5.5 14t14.5 5h113q20 0 20 -19v-137q0 -13 -7 -24l-91 -151q-7 -13 -23 -13
h-56z" />
    <glyph glyph-name="uni013C" unicode="&#x13c;" horiz-adv-x="394" 
d="M124 0q-19 0 -19 20l8 689l-8 671q0 20 19 20h146q19 0 19 -20l-7 -669l7 -691q0 -20 -19 -20h-146zM98 -450q-9 0 -13 6t-2 16l39 152v151q0 9 5.5 14t14.5 5h113q20 0 20 -19v-137q0 -13 -7 -24l-91 -151q-7 -13 -23 -13h-56z" />
    <glyph glyph-name="Lcaron" unicode="&#x13d;" horiz-adv-x="955" 
d="M126 0q-19 0 -19 20l9 716l-9 644q0 20 19 20h155q19 0 19 -20l-8 -636l8 -602h616q10 0 15 -5.5t5 -14.5v-102q0 -9 -5.5 -14.5t-14.5 -5.5h-790zM539 1006q-5 -17 -22 -17h-82q-10 0 -15 6t-3 16l71 372q3 17 21 17h116q10 0 14.5 -6t1.5 -16z" />
    <glyph glyph-name="lcaron" unicode="&#x13e;" horiz-adv-x="394" 
d="M124 0q-19 0 -19 20l8 689l-8 671q0 20 19 20h146q19 0 19 -20l-7 -669l7 -691q0 -20 -19 -20h-146zM490 1126q-5 -17 -22 -17h-82q-10 0 -15 6t-3 16l71 372q3 17 21 17h116q10 0 14.5 -6t1.5 -16z" />
    <glyph glyph-name="Ldot" unicode="&#x13f;" horiz-adv-x="955" 
d="M126 0q-19 0 -19 20l9 716l-9 644q0 20 19 20h155q19 0 19 -20l-8 -636l8 -602h616q10 0 15 -5.5t5 -14.5v-102q0 -9 -5.5 -14.5t-14.5 -5.5h-790zM614 697q-20 0 -20 19v154q0 9 5.5 14t14.5 5h146q9 0 14.5 -5t5.5 -14v-154q0 -9 -5.5 -14t-14.5 -5h-146z" />
    <glyph glyph-name="ldot" unicode="&#x140;" horiz-adv-x="580" 
d="M124 0q-19 0 -19 20l8 689l-8 671q0 20 19 20h146q19 0 19 -20l-7 -669l7 -691q0 -20 -19 -20h-146zM414 547q-20 0 -20 20v153q0 9 5.5 14.5t14.5 5.5h147q9 0 14 -5.5t5 -14.5v-153q0 -20 -19 -20h-147z" />
    <glyph glyph-name="Lslash" unicode="&#x141;" horiz-adv-x="966" 
d="M632 864l8 2q7 0 11 -5t4 -13v-104q0 -17 -16 -22l-322 -102l7 -478h616q9 0 14.5 -5.5t5.5 -14.5v-102q0 -9 -5.5 -14.5t-14.5 -5.5h-790q-19 0 -19 20l7 542l-119 -38l-8 -2q-7 0 -11 5t-4 13v105q0 16 16 22l127 40l-8 673q0 20 19 20h155q19 0 19 -20l-7 -616z" />
    <glyph glyph-name="lslash" unicode="&#x142;" horiz-adv-x="440" 
d="M393 753q6 3 10 3q13 0 13 -17v-99q0 -16 -13 -23l-97 -53l6 -544q0 -20 -19 -20h-146q-19 0 -19 20l5 449l-86 -47q-6 -3 -10 -3q-13 0 -13 17v99q0 16 13 23l97 53l1 98l-7 671q0 20 19 20h146q19 0 19 -20l-8 -669v-7z" />
    <glyph glyph-name="Nacute" unicode="&#x143;" horiz-adv-x="1346" 
d="M126 0q-19 0 -19 20l8 692l-7 668q0 20 19 20h185q16 0 23 -13l732 -1138l-5 520l-2 611q0 20 19 20h141q19 0 19 -20l-8 -668l7 -692q0 -20 -19 -20h-194q-17 0 -24 13l-722 1124l6 -517l2 -600q0 -10 -5.5 -15t-14.5 -5h-141zM514 1511q-3 -1 -7 -1q-12 0 -18 13
l-20 55q-2 6 -2 9q0 11 12 17l430 200q6 3 10 3q10 0 15 -13l35 -102q2 -6 2 -9q0 -11 -14 -16z" />
    <glyph glyph-name="nacute" unicode="&#x144;" horiz-adv-x="1051" 
d="M960 440l4 -420q0 -20 -19 -20h-147q-20 0 -20 20l5 420v197q0 139 -59 208.5t-159 69.5q-103 0 -178.5 -81t-105.5 -229v-165l3 -420q0 -20 -19 -20h-149q-20 0 -20 20l7 448l-5 542q0 20 20 20h139q20 0 20 -20l-5 -160q53 88 140.5 146t202.5 58q162 0 253.5 -105
t91.5 -305v-204zM363 1141q-3 -1 -7 -1q-12 0 -18 13l-20 55q-2 6 -2 9q0 11 12 17l430 200q6 3 10 3q10 0 15 -13l35 -102q2 -6 2 -9q0 -11 -14 -16z" />
    <glyph glyph-name="uni0145" unicode="&#x145;" horiz-adv-x="1346" 
d="M126 0q-19 0 -19 20l8 692l-7 668q0 20 19 20h185q16 0 23 -13l732 -1138l-5 520l-2 611q0 20 19 20h141q19 0 19 -20l-8 -668l7 -692q0 -20 -19 -20h-194q-17 0 -24 13l-722 1124l6 -517l2 -600q0 -10 -5.5 -15t-14.5 -5h-141zM575 -450q-9 0 -13 6t-2 16l39 152v151
q0 9 5.5 14t14.5 5h113q20 0 20 -19v-137q0 -13 -7 -24l-91 -151q-7 -13 -23 -13h-56z" />
    <glyph glyph-name="uni0146" unicode="&#x146;" horiz-adv-x="1051" 
d="M960 440l4 -420q0 -20 -19 -20h-147q-20 0 -20 20l5 420v197q0 139 -59 208.5t-159 69.5q-103 0 -178.5 -81t-105.5 -229v-165l3 -420q0 -20 -19 -20h-149q-20 0 -20 20l7 448l-5 542q0 20 20 20h139q20 0 20 -20l-5 -160q53 88 140.5 146t202.5 58q162 0 253.5 -105
t91.5 -305v-204zM432 -450q-9 0 -13 6t-2 16l39 152v151q0 9 5.5 14t14.5 5h113q20 0 20 -19v-137q0 -13 -7 -24l-91 -151q-7 -13 -23 -13h-56z" />
    <glyph glyph-name="Ncaron" unicode="&#x147;" horiz-adv-x="1346" 
d="M126 0q-19 0 -19 20l8 692l-7 668q0 20 19 20h185q16 0 23 -13l732 -1138l-5 520l-2 611q0 20 19 20h141q19 0 19 -20l-8 -668l7 -692q0 -20 -19 -20h-194q-17 0 -24 13l-722 1124l6 -517l2 -600q0 -10 -5.5 -15t-14.5 -5h-141zM368 1680q-11 6 -11 15q0 5 3 11l24 57
q4 12 15 12q5 0 10 -3l272 -123l272 124q5 3 10 3q11 0 15 -12l25 -58q2 -4 2 -10q0 -10 -10 -16l-263 -158q-9 -7 -25 -7h-52q-15 0 -24 7z" />
    <glyph glyph-name="ncaron" unicode="&#x148;" horiz-adv-x="1051" 
d="M960 440l4 -420q0 -20 -19 -20h-147q-20 0 -20 20l5 420v197q0 139 -59 208.5t-159 69.5q-103 0 -178.5 -81t-105.5 -229v-165l3 -420q0 -20 -19 -20h-149q-20 0 -20 20l7 448l-5 542q0 20 20 20h139q20 0 20 -20l-5 -160q53 88 140.5 146t202.5 58q162 0 253.5 -105
t91.5 -305v-204zM217 1310q-11 6 -11 15q0 5 3 11l24 57q4 12 15 12q5 0 10 -3l272 -123l272 124q5 3 10 3q11 0 15 -12l25 -58q2 -4 2 -10q0 -10 -10 -16l-263 -158q-9 -7 -25 -7h-52q-15 0 -24 7z" />
    <glyph glyph-name="Eng" unicode="&#x14a;" horiz-adv-x="1343" 
d="M126 0q-19 0 -19 20l4 692l-3 668q0 20 19 20h183q15 0 24 -13l728 -1073l-2 380l-2 686q0 20 19 20h139q20 0 20 -20l-4 -607l3 -830q0 -106 -38.5 -174t-99 -98.5t-130.5 -31.5q-64 0 -135 15q-16 4 -16 21v94q0 10 5.5 14.5t15.5 2.5q36 -9 91 -9q64 0 98 42.5
t34 137.5v40l-781 1152l4 -453l2 -676q0 -10 -5.5 -15t-14.5 -5h-139z" />
    <glyph glyph-name="eng" unicode="&#x14b;" horiz-adv-x="1048" 
d="M554 -345q-17 5 -17 21v90q0 10 6 14.5t16 2.5q35 -9 91 -9q131 0 131 184v679q0 140 -57.5 209t-158.5 69q-103 0 -178.5 -81t-105.5 -229v-165l3 -420q0 -20 -19 -20h-149q-9 0 -14.5 5t-5.5 15l4 448l-2 542q0 10 5.5 15t14.5 5h139q20 0 20 -20l-5 -160
q53 88 140.5 146t202.5 58q162 0 254 -105t92 -305v-700q0 -106 -39 -174t-100.5 -98.5t-132.5 -31.5q-64 0 -135 15z" />
    <glyph glyph-name="Omacron" unicode="&#x14c;" horiz-adv-x="1465" 
d="M380.5 64.5q-151.5 89.5 -234.5 253.5t-83 381q0 221 82.5 385t234 252.5t353.5 88.5q201 0 352 -88t234 -252t83 -387q0 -217 -83.5 -381t-235 -253t-351.5 -89t-351.5 89.5zM987.5 190q107.5 69 164.5 199t57 309t-57 310t-164.5 201t-255.5 70t-255.5 -69.5t-164 -200
t-56.5 -311.5q0 -178 57.5 -308t165 -199.5t254.5 -69.5t254.5 69zM460 1560q-20 0 -20 19v91q0 9 5.5 14t14.5 5h545q9 0 14.5 -5t5.5 -14v-91q0 -9 -5.5 -14t-14.5 -5h-545z" />
    <glyph glyph-name="omacron" unicode="&#x14d;" horiz-adv-x="1094" 
d="M284 43q-110 66 -167.5 187t-57.5 283t57.5 284t167.5 189t264 67t264 -66t167 -187.5t57 -283.5q0 -163 -57 -284.5t-167 -188t-264 -66.5t-264 66zM772.5 209q74.5 105 74.5 304q0 198 -75.5 305.5t-224.5 107.5q-149 -1 -225 -108t-76 -306q0 -198 76.5 -303
t225.5 -105q150 0 224.5 105zM274 1190q-20 0 -20 19v91q0 9 5.5 14t14.5 5h545q9 0 14.5 -5t5.5 -14v-91q0 -9 -5.5 -14t-14.5 -5h-545z" />
    <glyph glyph-name="Obreve" unicode="&#x14e;" horiz-adv-x="1465" 
d="M380.5 64.5q-151.5 89.5 -234.5 253.5t-83 381q0 221 82.5 385t234 252.5t353.5 88.5q201 0 352 -88t234 -252t83 -387q0 -217 -83.5 -381t-235 -253t-351.5 -89t-351.5 89.5zM987.5 190q107.5 69 164.5 199t57 309t-57 310t-164.5 201t-255.5 70t-255.5 -69.5t-164 -200
t-56.5 -311.5q0 -178 57.5 -308t165 -199.5t254.5 -69.5t254.5 69zM591.5 1552.5q-62.5 32.5 -98 90t-40.5 130.5v2q0 8 5 13t14 5h86q18 0 21 -20q5 -59 46 -94t110 -35q66 0 107.5 35.5t47.5 93.5q3 20 21 20h87q9 0 14 -5t4 -13q-4 -73 -39.5 -131t-98 -91t-143.5 -33
t-143.5 32.5z" />
    <glyph glyph-name="obreve" unicode="&#x14f;" horiz-adv-x="1094" 
d="M284 43q-110 66 -167.5 187t-57.5 283t57.5 284t167.5 189t264 67t264 -66t167 -187.5t57 -283.5q0 -163 -57 -284.5t-167 -188t-264 -66.5t-264 66zM772.5 209q74.5 105 74.5 304q0 198 -75.5 305.5t-224.5 107.5q-149 -1 -225 -108t-76 -306q0 -198 76.5 -303
t225.5 -105q150 0 224.5 105zM405.5 1182.5q-62.5 32.5 -98 90t-40.5 130.5v2q0 8 5 13t14 5h86q18 0 21 -20q5 -59 46 -94t110 -35q66 0 107.5 35.5t47.5 93.5q3 20 21 20h87q9 0 14 -5t4 -13q-4 -73 -39.5 -131t-98 -91t-143.5 -33t-143.5 32.5z" />
    <glyph glyph-name="Ohungarumlaut" unicode="&#x150;" horiz-adv-x="1465" 
d="M380.5 64.5q-151.5 89.5 -234.5 253.5t-83 381q0 221 82.5 385t234 252.5t353.5 88.5q201 0 352 -88t234 -252t83 -387q0 -217 -83.5 -381t-235 -253t-351.5 -89t-351.5 89.5zM987.5 190q107.5 69 164.5 199t57 309t-57 310t-164.5 201t-255.5 70t-255.5 -69.5t-164 -200
t-56.5 -311.5q0 -178 57.5 -308t165 -199.5t254.5 -69.5t254.5 69zM586 1545q-6 -7 -14 -7q-7 0 -13 6l-37 32q-8 8 -8 14t5 13l226 301q6 9 13 9q5 0 14 -7l68 -67q7 -7 7 -13q0 -5 -7 -14zM867 1540q-6 -7 -14 -7q-7 0 -13 6l-38 31q-7 6 -7 14q0 5 5 13l225 301q6 9 14 9
q7 0 14 -7l67 -66q7 -6 7 -14q0 -7 -6 -13z" />
    <glyph glyph-name="ohungarumlaut" unicode="&#x151;" horiz-adv-x="1094" 
d="M284 43q-110 66 -167.5 187t-57.5 283t57.5 284t167.5 189t264 67t264 -66t167 -187.5t57 -283.5q0 -163 -57 -284.5t-167 -188t-264 -66.5t-264 66zM772.5 209q74.5 105 74.5 304q0 198 -75.5 305.5t-224.5 107.5q-149 -1 -225 -108t-76 -306q0 -198 76.5 -303
t225.5 -105q150 0 224.5 105zM400 1175q-6 -7 -14 -7q-7 0 -13 6l-37 32q-8 8 -8 14t5 13l226 301q6 9 13 9q5 0 14 -7l68 -67q7 -7 7 -13q0 -5 -7 -14zM681 1170q-6 -7 -14 -7q-7 0 -13 6l-38 31q-7 6 -7 14q0 5 5 13l225 301q6 9 14 9q7 0 14 -7l67 -66q7 -6 7 -14
q0 -7 -6 -13z" />
    <glyph glyph-name="OE" unicode="&#x152;" horiz-adv-x="2019" 
d="M1940 142q9 0 14 -5.5t5 -14.5v-102q0 -9 -5 -14.5t-14 -5.5h-1154q-194 0 -354 78t-255 236t-95 387q0 221 92 378.5t252.5 239t363.5 81.5h1134q9 0 14 -5.5t5 -14.5v-102q0 -9 -5 -14.5t-14 -5.5h-672l-4 -440h628q19 0 19 -19v-103q0 -19 -19 -19h-628l4 -535h688z
M1058 142l8 579l-8 537h-280q-142 0 -256 -62.5t-180.5 -188t-66.5 -306.5q0 -188 69.5 -313.5t182.5 -185.5t243 -60h288z" />
    <glyph glyph-name="oe" unicode="&#x153;" horiz-adv-x="1867" 
d="M278 43q-108 66 -164 187t-56 283q0 163 56 284.5t164 188.5t259 67q149 0 254.5 -74t152.5 -212q49 135 152.5 210.5t245.5 75.5q145 0 249.5 -64.5t161 -185.5t59.5 -290q0 -20 -20 -20h-756q9 -389 308 -389q113 0 181.5 60.5t92.5 175.5q5 18 21 18h136q10 0 15 -4.5
t4 -13.5q-16 -108 -72 -189.5t-150 -127.5t-220 -46q-154 0 -258 74t-152 208q-48 -134 -151.5 -208t-253.5 -74q-151 0 -259 66zM1133.5 846q-74.5 -81 -92.5 -230h574q-3 87 -36 157.5t-95.5 112t-150.5 41.5q-125 0 -199.5 -81zM771 209q75 105 75 304q0 198 -75.5 305.5
t-224.5 107.5q-149 -1 -224.5 -108t-75.5 -306q0 -198 76 -303t225 -105t224 105z" />
    <glyph glyph-name="Racute" unicode="&#x154;" horiz-adv-x="1206" 
d="M1151 24q4 -5 4 -12q0 -5 -4.5 -8.5t-12.5 -3.5h-175q-16 0 -23 13l-135 222l-216 342h-295l6 -557q0 -20 -19 -20h-155q-19 0 -19 20l8 702l-8 658q0 20 19 20h489q244 0 379.5 -104.5t135.5 -304.5q0 -165 -90.5 -264.5t-253.5 -131.5zM298 1260l-6 -518v-26h343
q146 0 229 66.5t83 205.5q0 133 -82.5 202.5t-232.5 69.5h-334zM444 1511q-3 -1 -7 -1q-12 0 -18 13l-20 55q-2 6 -2 9q0 11 12 17l430 200q6 3 10 3q10 0 15 -13l35 -102q2 -6 2 -9q0 -11 -14 -16z" />
    <glyph glyph-name="racute" unicode="&#x155;" horiz-adv-x="723" 
d="M114 0q-19 0 -19 20l6 506l-6 484q0 20 19 20h145q20 0 20 -20l-7 -176q54 99 147 152.5t203 53.5q33 0 60 -6q8 -1 12.5 -7.5t4.5 -14.5v-100q0 -21 -21 -18q-21 4 -56 4q-89 0 -162.5 -35.5t-122 -109t-60.5 -181.5l4 -552q0 -10 -5.5 -15t-14.5 -5h-147zM230 1141
q-3 -1 -7 -1q-12 0 -18 13l-20 55q-2 6 -2 9q0 11 12 17l430 200q6 3 10 3q10 0 15 -13l35 -102q2 -6 2 -9q0 -11 -14 -16z" />
    <glyph glyph-name="uni0156" unicode="&#x156;" horiz-adv-x="1206" 
d="M1151 24q4 -5 4 -12q0 -5 -4.5 -8.5t-12.5 -3.5h-175q-16 0 -23 13l-135 222l-216 342h-295l6 -557q0 -20 -19 -20h-155q-19 0 -19 20l8 702l-8 658q0 20 19 20h489q244 0 379.5 -104.5t135.5 -304.5q0 -165 -90.5 -264.5t-253.5 -131.5zM298 1260l-6 -518v-26h343
q146 0 229 66.5t83 205.5q0 133 -82.5 202.5t-232.5 69.5h-334zM520 -450q-9 0 -13 6t-2 16l39 152v151q0 9 5.5 14t14.5 5h113q20 0 20 -19v-137q0 -13 -7 -24l-91 -151q-7 -13 -23 -13h-56z" />
    <glyph glyph-name="uni0157" unicode="&#x157;" horiz-adv-x="723" 
d="M114 0q-19 0 -19 20l6 506l-6 484q0 20 19 20h145q20 0 20 -20l-7 -176q54 99 147 152.5t203 53.5q33 0 60 -6q8 -1 12.5 -7.5t4.5 -14.5v-100q0 -21 -21 -18q-21 4 -56 4q-89 0 -162.5 -35.5t-122 -109t-60.5 -181.5l4 -552q0 -10 -5.5 -15t-14.5 -5h-147zM89 -450
q-9 0 -13 6t-2 16l39 152v151q0 9 5.5 14t14.5 5h113q20 0 20 -19v-137q0 -13 -7 -24l-91 -151q-7 -13 -23 -13h-56z" />
    <glyph glyph-name="Rcaron" unicode="&#x158;" horiz-adv-x="1206" 
d="M1151 24q4 -5 4 -12q0 -5 -4.5 -8.5t-12.5 -3.5h-175q-16 0 -23 13l-135 222l-216 342h-295l6 -557q0 -20 -19 -20h-155q-19 0 -19 20l8 702l-8 658q0 20 19 20h489q244 0 379.5 -104.5t135.5 -304.5q0 -165 -90.5 -264.5t-253.5 -131.5zM298 1260l-6 -518v-26h343
q146 0 229 66.5t83 205.5q0 133 -82.5 202.5t-232.5 69.5h-334zM287 1680q-11 6 -11 15q0 5 3 11l24 57q4 12 15 12q5 0 10 -3l272 -123l272 124q5 3 10 3q11 0 15 -12l25 -58q2 -4 2 -10q0 -10 -10 -16l-263 -158q-9 -7 -25 -7h-52q-15 0 -24 7z" />
    <glyph glyph-name="rcaron" unicode="&#x159;" horiz-adv-x="723" 
d="M114 0q-19 0 -19 20l6 506l-6 484q0 20 19 20h145q20 0 20 -20l-7 -176q54 99 147 152.5t203 53.5q33 0 60 -6q8 -1 12.5 -7.5t4.5 -14.5v-100q0 -21 -21 -18q-21 4 -56 4q-89 0 -162.5 -35.5t-122 -109t-60.5 -181.5l4 -552q0 -10 -5.5 -15t-14.5 -5h-147zM84 1310
q-11 6 -11 15q0 5 3 11l24 57q4 12 15 12q5 0 10 -3l272 -123l272 124q5 3 10 3q11 0 15 -12l25 -58q2 -4 2 -10q0 -10 -10 -16l-263 -158q-9 -7 -25 -7h-52q-15 0 -24 7z" />
    <glyph glyph-name="Sacute" unicode="&#x15a;" horiz-adv-x="1234" 
d="M331 32q-127 56 -197.5 165t-77.5 265v2q0 18 19 18h155q18 0 21 -19q13 -169 103.5 -256t285.5 -87q165 0 260 65t95 202q0 85 -53.5 134.5t-133.5 73.5t-218 50q-165 31 -265 64t-170.5 108t-70.5 208q0 126 63 215.5t178.5 136.5t270.5 47q244 0 385.5 -104.5
t164.5 -314.5v-2q0 -19 -19 -19h-155q-18 0 -21 19q-12 138 -101.5 207t-257.5 69q-150 0 -238 -59.5t-88 -178.5q0 -77 51 -122t127 -67t210 -46q170 -31 274 -65t177.5 -113.5t73.5 -219.5t-68.5 -237t-191.5 -146t-284 -49q-177 0 -304 56zM447 1511q-3 -1 -7 -1
q-12 0 -18 13l-20 55q-2 6 -2 9q0 11 12 17l430 200q6 3 10 3q10 0 15 -13l35 -102q2 -6 2 -9q0 -11 -14 -16z" />
    <glyph glyph-name="sacute" unicode="&#x15b;" horiz-adv-x="1002" 
d="M186 70q-124 92 -131 269q0 19 19 19h139q19 0 19 -19q6 -123 78 -182t210 -59q116 0 184.5 48t68.5 135q0 59 -39 92.5t-97 49.5t-160 34q-128 22 -207.5 46.5t-135.5 83.5t-56 165q0 96 50.5 163.5t142 102t214.5 34.5q186 0 302 -78.5t127 -232.5v-2q0 -9 -5 -13.5
t-14 -4.5h-133q-19 0 -20 19q-10 97 -77.5 145.5t-181.5 48.5q-108 0 -169 -43t-61 -128q0 -54 37 -84.5t92.5 -45t153.5 -30.5q132 -21 213.5 -46.5t140 -87.5t58.5 -175q0 -97 -56 -169t-154 -109.5t-220 -37.5q-208 0 -332 92zM334 1141q-3 -1 -7 -1q-12 0 -18 13l-20 55
q-2 6 -2 9q0 11 12 17l430 200q6 3 10 3q10 0 15 -13l35 -102q2 -6 2 -9q0 -11 -14 -16z" />
    <glyph glyph-name="Scircumflex" unicode="&#x15c;" horiz-adv-x="1234" 
d="M331 32q-127 56 -197.5 165t-77.5 265v2q0 18 19 18h155q18 0 21 -19q13 -169 103.5 -256t285.5 -87q165 0 260 65t95 202q0 85 -53.5 134.5t-133.5 73.5t-218 50q-165 31 -265 64t-170.5 108t-70.5 208q0 126 63 215.5t178.5 136.5t270.5 47q244 0 385.5 -104.5
t164.5 -314.5v-2q0 -19 -19 -19h-155q-18 0 -21 19q-12 138 -101.5 207t-257.5 69q-150 0 -238 -59.5t-88 -178.5q0 -77 51 -122t127 -67t210 -46q170 -31 274 -65t177.5 -113.5t73.5 -219.5t-68.5 -237t-191.5 -146t-284 -49q-177 0 -304 56zM292 1583q-2 4 -2 10
q0 11 10 17l263 160q10 6 24 6h54q15 0 25 -6l263 -160q10 -6 10 -17q0 -6 -2 -10l-25 -57q-4 -12 -15 -12q-7 0 -10 2l-274 125l-272 -124q-4 -3 -10 -3q-10 0 -15 13z" />
    <glyph glyph-name="scircumflex" unicode="&#x15d;" horiz-adv-x="1002" 
d="M186 70q-124 92 -131 269q0 19 19 19h139q19 0 19 -19q6 -123 78 -182t210 -59q116 0 184.5 48t68.5 135q0 59 -39 92.5t-97 49.5t-160 34q-128 22 -207.5 46.5t-135.5 83.5t-56 165q0 96 50.5 163.5t142 102t214.5 34.5q186 0 302 -78.5t127 -232.5v-2q0 -9 -5 -13.5
t-14 -4.5h-133q-19 0 -20 19q-10 97 -77.5 145.5t-181.5 48.5q-108 0 -169 -43t-61 -128q0 -54 37 -84.5t92.5 -45t153.5 -30.5q132 -21 213.5 -46.5t140 -87.5t58.5 -175q0 -97 -56 -169t-154 -109.5t-220 -37.5q-208 0 -332 92zM179 1213q-2 4 -2 10q0 11 10 17l263 160
q10 6 24 6h54q15 0 25 -6l263 -160q10 -6 10 -17q0 -6 -2 -10l-25 -57q-4 -12 -15 -12q-7 0 -10 2l-274 125l-272 -124q-4 -3 -10 -3q-10 0 -15 13z" />
    <glyph glyph-name="Scedilla" unicode="&#x15e;" horiz-adv-x="1234" 
d="M1117.5 182q-61.5 -94 -172.5 -145.5t-258 -59.5l-76 -302q-1 -9 -7.5 -12.5t-15.5 -1.5l-131 26q-15 3 -15 16q0 3 2 9l105 268q-228 20 -355.5 143.5t-137.5 338.5v2q0 18 19 18h155q18 0 21 -19q13 -169 103.5 -256t285.5 -87q165 0 260 65t95 202q0 85 -53.5 134.5
t-133.5 73.5t-218 50q-165 31 -265 64t-170.5 108t-70.5 208q0 126 63 215.5t178.5 136.5t270.5 47q244 0 385.5 -104.5t164.5 -314.5v-2q0 -19 -19 -19h-155q-18 0 -21 19q-12 138 -101.5 207t-257.5 69q-150 0 -238 -59.5t-88 -178.5q0 -77 51 -122t127 -67t210 -46
q170 -31 274 -65t177.5 -113.5t73.5 -219.5q0 -132 -61.5 -226z" />
    <glyph glyph-name="scedilla" unicode="&#x15f;" horiz-adv-x="1002" 
d="M899 134.5q-49 -68.5 -135.5 -108t-196.5 -46.5l-76 -305q-1 -9 -7.5 -12.5t-15.5 -1.5l-131 26q-15 3 -15 16q0 3 2 9l106 271q-170 18 -269 108t-106 248q0 19 19 19h139q19 0 19 -19q6 -123 78 -182t210 -59q116 0 184.5 48t68.5 135q0 59 -39 92.5t-97 49.5t-160 34
q-128 22 -207.5 46.5t-135.5 83.5t-56 165q0 96 50.5 163.5t142 102t214.5 34.5q186 0 302 -78.5t127 -232.5v-2q0 -9 -5 -13.5t-14 -4.5h-133q-19 0 -20 19q-10 97 -77.5 145.5t-181.5 48.5q-108 0 -169 -43t-61 -128q0 -54 37 -84.5t92.5 -45t153.5 -30.5
q132 -21 213.5 -46.5t140 -87.5t58.5 -175q0 -91 -49 -159.5z" />
    <glyph glyph-name="Scaron" unicode="&#x160;" horiz-adv-x="1234" 
d="M331 32q-127 56 -197.5 165t-77.5 265v2q0 18 19 18h155q18 0 21 -19q13 -169 103.5 -256t285.5 -87q165 0 260 65t95 202q0 85 -53.5 134.5t-133.5 73.5t-218 50q-165 31 -265 64t-170.5 108t-70.5 208q0 126 63 215.5t178.5 136.5t270.5 47q244 0 385.5 -104.5
t164.5 -314.5v-2q0 -19 -19 -19h-155q-18 0 -21 19q-12 138 -101.5 207t-257.5 69q-150 0 -238 -59.5t-88 -178.5q0 -77 51 -122t127 -67t210 -46q170 -31 274 -65t177.5 -113.5t73.5 -219.5t-68.5 -237t-191.5 -146t-284 -49q-177 0 -304 56zM301 1680q-11 6 -11 15
q0 5 3 11l24 57q4 12 15 12q5 0 10 -3l272 -123l272 124q5 3 10 3q11 0 15 -12l25 -58q2 -4 2 -10q0 -10 -10 -16l-263 -158q-9 -7 -25 -7h-52q-15 0 -24 7z" />
    <glyph glyph-name="scaron" unicode="&#x161;" horiz-adv-x="1002" 
d="M186 70q-124 92 -131 269q0 19 19 19h139q19 0 19 -19q6 -123 78 -182t210 -59q116 0 184.5 48t68.5 135q0 59 -39 92.5t-97 49.5t-160 34q-128 22 -207.5 46.5t-135.5 83.5t-56 165q0 96 50.5 163.5t142 102t214.5 34.5q186 0 302 -78.5t127 -232.5v-2q0 -9 -5 -13.5
t-14 -4.5h-133q-19 0 -20 19q-10 97 -77.5 145.5t-181.5 48.5q-108 0 -169 -43t-61 -128q0 -54 37 -84.5t92.5 -45t153.5 -30.5q132 -21 213.5 -46.5t140 -87.5t58.5 -175q0 -97 -56 -169t-154 -109.5t-220 -37.5q-208 0 -332 92zM188 1310q-11 6 -11 15q0 5 3 11l24 57
q4 12 15 12q5 0 10 -3l272 -123l272 124q5 3 10 3q11 0 15 -12l25 -58q2 -4 2 -10q0 -10 -10 -16l-263 -158q-9 -7 -25 -7h-52q-15 0 -24 7z" />
    <glyph glyph-name="uni0162" unicode="&#x162;" horiz-adv-x="1052" 
d="M1009 1400q9 0 14 -5.5t5 -14.5v-104q0 -19 -19 -19h-386l-9 -564l11 -673q0 -20 -19 -20h-14l-78 -325q-2 -9 -8.5 -12.5t-15.5 -1.5l-131 26q-15 3 -15 16q0 3 2 9l109 288h-9q-19 0 -19 20l11 673l-9 564h-385q-9 0 -14.5 5t-5.5 14v104q0 9 5.5 14.5t14.5 5.5h965z
" />
    <glyph glyph-name="uni0163" unicode="&#x163;" horiz-adv-x="651" 
d="M356 896v-117l1 -493q0 -92 30.5 -129t98.5 -37q60 0 102 11q2 1 7 1q15 0 15 -18v-87q0 -17 -14 -21q-74 -22 -138 -23l-77 -308q-1 -9 -7.5 -12.5t-15.5 -1.5l-131 26q-15 3 -15 16q0 3 2 9l115 292q-72 29 -113 97t-41 181l1 494v120h-113q-9 0 -14.5 5t-5.5 14v95
q0 10 5.5 15t14.5 5h112l-2 238q0 20 19 20h148q20 0 20 -20l-3 -238h235q9 0 14 -5.5t5 -14.5v-95q0 -19 -19 -19h-236z" />
    <glyph glyph-name="Tcaron" unicode="&#x164;" horiz-adv-x="1052" 
d="M446 0q-19 0 -19 20l11 673l-9 564h-385q-9 0 -14.5 5t-5.5 14v104q0 9 5.5 14.5t14.5 5.5h965q9 0 14 -5.5t5 -14.5v-104q0 -19 -19 -19h-386l-9 -564l11 -673q0 -20 -19 -20h-160zM213 1680q-11 6 -11 15q0 5 3 11l24 57q4 12 15 12q5 0 10 -3l272 -123l272 124
q5 3 10 3q11 0 15 -12l25 -58q2 -4 2 -10q0 -10 -10 -16l-263 -158q-9 -7 -25 -7h-52q-15 0 -24 7z" />
    <glyph glyph-name="tcaron" unicode="&#x165;" horiz-adv-x="651" 
d="M252 54q-77 71 -77 228l1 494v120h-113q-9 0 -14.5 5t-5.5 14v95q0 10 5.5 15t14.5 5h112l-2 238q0 20 19 20h148q20 0 20 -20l-3 -238h235q9 0 14 -5.5t5 -14.5v-95q0 -19 -19 -19h-236v-117l1 -493q0 -92 30.5 -129t98.5 -37q60 0 102 11q2 1 7 1q15 0 15 -18v-87
q0 -17 -14 -21q-80 -23 -143 -23q-124 0 -201 71zM557 1126q-5 -17 -22 -17h-82q-10 0 -15 6t-3 16l71 372q3 17 21 17h116q10 0 14.5 -6t1.5 -16z" />
    <glyph glyph-name="Tbar" unicode="&#x166;" horiz-adv-x="1052" 
d="M1009 1400q9 0 14 -5.5t5 -14.5v-104q0 -19 -19 -19h-386l-8 -530h233q9 0 14.5 -5t5.5 -14v-103q0 -9 -5.5 -14t-14.5 -5h-232l9 -566q0 -20 -19 -20h-160q-19 0 -19 20l9 566h-230q-20 0 -20 19v103q0 9 5.5 14t14.5 5h231l-8 530h-385q-9 0 -14.5 5t-5.5 14v104
q0 9 5.5 14.5t14.5 5.5h965z" />
    <glyph glyph-name="tbar" unicode="&#x167;" horiz-adv-x="656" 
d="M358 896v-276h234q19 0 19 -19v-96q0 -19 -19 -19h-234l1 -200q0 -92 30.5 -129t98.5 -37q58 0 102 11q2 1 7 1q15 0 15 -18v-87q0 -16 -14 -21q-82 -23 -144 -23q-124 0 -200.5 71t-76.5 228v204h-114q-19 0 -19 19v96q0 19 19 19h114l1 276h-114q-19 0 -19 19v95
q0 20 19 20h113l-3 238q0 20 20 20h148q19 0 19 -20l-2 -238h234q9 0 14.5 -5.5t5.5 -14.5v-95q0 -9 -5.5 -14t-14.5 -5h-235z" />
    <glyph glyph-name="Utilde" unicode="&#x168;" horiz-adv-x="1242" 
d="M235 119q-132 144 -131 411l2 442l-7 408q0 20 19 20h159q19 0 19 -20l-6 -404l1 -445q1 -192 81 -299t251 -107q177 0 260 107.5t83 298.5v442l-5 407q0 20 19 20h144q19 0 19 -20l-5 -408v-442q0 -268 -129.5 -411.5t-385.5 -143.5t-388 144zM665 1553.5
q-30 20.5 -66 59.5q-25 28 -42 41t-38 13q-63 0 -68 -106q-2 -19 -20 -19h-63q-20 0 -20 20q4 97 47 156t122 59q46 0 76.5 -21t65.5 -61q22 -26 38.5 -39t35.5 -13q68 0 73 106q0 19 20 19h63q20 0 19 -24q-5 -98 -47 -154.5t-121 -56.5q-45 0 -75 20.5z" />
    <glyph glyph-name="utilde" unicode="&#x169;" horiz-adv-x="1051" 
d="M182.5 81q-91.5 105 -91.5 305v204l-4 420q0 20 19 20h147q20 0 20 -20l-5 -420v-197q0 -139 59 -208.5t159 -69.5q103 0 178.5 81t105.5 229v165l-3 420q0 20 19 20h149q19 0 19 -20l-6 -448l5 -542q0 -20 -20 -20h-139q-20 0 -20 20l5 160q-53 -88 -140.5 -146
t-202.5 -58q-162 0 -253.5 105zM557 1183.5q-30 20.5 -66 59.5q-25 28 -42 41t-38 13q-63 0 -68 -106q-2 -19 -20 -19h-63q-20 0 -20 20q4 97 47 156t122 59q46 0 76.5 -21t65.5 -61q22 -26 38.5 -39t35.5 -13q68 0 73 106q0 19 20 19h63q20 0 19 -24q-5 -98 -47 -154.5
t-121 -56.5q-45 0 -75 20.5z" />
    <glyph glyph-name="Umacron" unicode="&#x16a;" horiz-adv-x="1242" 
d="M235 119q-132 144 -131 411l2 442l-7 408q0 20 19 20h159q19 0 19 -20l-6 -404l1 -445q1 -192 81 -299t251 -107q177 0 260 107.5t83 298.5v442l-5 407q0 20 19 20h144q19 0 19 -20l-5 -408v-442q0 -268 -129.5 -411.5t-385.5 -143.5t-388 144zM355 1560q-20 0 -20 19v91
q0 9 5.5 14t14.5 5h545q9 0 14.5 -5t5.5 -14v-91q0 -9 -5.5 -14t-14.5 -5h-545z" />
    <glyph glyph-name="umacron" unicode="&#x16b;" horiz-adv-x="1051" 
d="M182.5 81q-91.5 105 -91.5 305v204l-4 420q0 20 19 20h147q20 0 20 -20l-5 -420v-197q0 -139 59 -208.5t159 -69.5q103 0 178.5 81t105.5 229v165l-3 420q0 20 19 20h149q19 0 19 -20l-6 -448l5 -542q0 -20 -20 -20h-139q-20 0 -20 20l5 160q-53 -88 -140.5 -146
t-202.5 -58q-162 0 -253.5 105zM247 1190q-20 0 -20 19v91q0 9 5.5 14t14.5 5h545q9 0 14.5 -5t5.5 -14v-91q0 -9 -5.5 -14t-14.5 -5h-545z" />
    <glyph glyph-name="Ubreve" unicode="&#x16c;" horiz-adv-x="1242" 
d="M235 119q-132 144 -131 411l2 442l-7 408q0 20 19 20h159q19 0 19 -20l-6 -404l1 -445q1 -192 81 -299t251 -107q177 0 260 107.5t83 298.5v442l-5 407q0 20 19 20h144q19 0 19 -20l-5 -408v-442q0 -268 -129.5 -411.5t-385.5 -143.5t-388 144zM486.5 1552.5
q-62.5 32.5 -98 90t-40.5 130.5v2q0 8 5 13t14 5h86q18 0 21 -20q5 -59 46 -94t110 -35q66 0 107.5 35.5t47.5 93.5q3 20 21 20h87q9 0 14 -5t4 -13q-4 -73 -39.5 -131t-98 -91t-143.5 -33t-143.5 32.5z" />
    <glyph glyph-name="ubreve" unicode="&#x16d;" horiz-adv-x="1051" 
d="M182.5 81q-91.5 105 -91.5 305v204l-4 420q0 20 19 20h147q20 0 20 -20l-5 -420v-197q0 -139 59 -208.5t159 -69.5q103 0 178.5 81t105.5 229v165l-3 420q0 20 19 20h149q19 0 19 -20l-6 -448l5 -542q0 -20 -20 -20h-139q-20 0 -20 20l5 160q-53 -88 -140.5 -146
t-202.5 -58q-162 0 -253.5 105zM377.5 1182.5q-62.5 32.5 -98 90t-40.5 130.5v2q0 8 5 13t14 5h86q18 0 21 -20q5 -59 46 -94t110 -35q66 0 107.5 35.5t47.5 93.5q3 20 21 20h87q9 0 14 -5t4 -13q-4 -73 -39.5 -131t-98 -91t-143.5 -33t-143.5 32.5z" />
    <glyph glyph-name="Uring" unicode="&#x16e;" horiz-adv-x="1242" 
d="M235 119q-132 144 -131 411l2 442l-7 408q0 20 19 20h159q19 0 19 -20l-6 -404l1 -445q1 -192 81 -299t251 -107q177 0 260 107.5t83 298.5v442l-5 407q0 20 19 20h144q19 0 19 -20l-5 -408v-442q0 -268 -129.5 -411.5t-385.5 -143.5t-388 144zM517 1544q-49 27 -77 73.5
t-28 104.5t28 105t77 74t110 27t110.5 -27t77.5 -74t28 -105t-28 -104.5t-77.5 -73.5t-110.5 -27t-110 27zM708.5 1627.5q31.5 35.5 31.5 94.5q0 60 -31.5 95t-81.5 35q-51 0 -81.5 -34.5t-30.5 -95.5q0 -60 30.5 -95t81.5 -35q50 0 81.5 35.5z" />
    <glyph glyph-name="uring" unicode="&#x16f;" horiz-adv-x="1051" 
d="M182.5 81q-91.5 105 -91.5 305v204l-4 420q0 20 19 20h147q20 0 20 -20l-5 -420v-197q0 -139 59 -208.5t159 -69.5q103 0 178.5 81t105.5 229v165l-3 420q0 20 19 20h149q19 0 19 -20l-6 -448l5 -542q0 -20 -20 -20h-139q-20 0 -20 20l5 160q-53 -88 -140.5 -146
t-202.5 -58q-162 0 -253.5 105zM409 1174q-49 27 -77 73.5t-28 104.5t28 105t77 74t110 27t110.5 -27t77.5 -74t28 -105t-28 -104.5t-77.5 -73.5t-110.5 -27t-110 27zM600.5 1257.5q31.5 35.5 31.5 94.5q0 60 -31.5 95t-81.5 35q-51 0 -81.5 -34.5t-30.5 -95.5
q0 -60 30.5 -95t81.5 -35q50 0 81.5 35.5z" />
    <glyph glyph-name="Uhungarumlaut" unicode="&#x170;" horiz-adv-x="1242" 
d="M235 119q-132 144 -131 411l2 442l-7 408q0 20 19 20h159q19 0 19 -20l-6 -404l1 -445q1 -192 81 -299t251 -107q177 0 260 107.5t83 298.5v442l-5 407q0 20 19 20h144q19 0 19 -20l-5 -408v-442q0 -268 -129.5 -411.5t-385.5 -143.5t-388 144zM481 1545q-6 -7 -14 -7
q-7 0 -13 6l-37 32q-8 8 -8 14t5 13l226 301q6 9 13 9q5 0 14 -7l68 -67q7 -7 7 -13q0 -5 -7 -14zM762 1540q-6 -7 -14 -7q-7 0 -13 6l-38 31q-7 6 -7 14q0 5 5 13l225 301q6 9 14 9q7 0 14 -7l67 -66q7 -6 7 -14q0 -7 -6 -13z" />
    <glyph glyph-name="uhungarumlaut" unicode="&#x171;" horiz-adv-x="1051" 
d="M182.5 81q-91.5 105 -91.5 305v204l-4 420q0 20 19 20h147q20 0 20 -20l-5 -420v-197q0 -139 59 -208.5t159 -69.5q103 0 178.5 81t105.5 229v165l-3 420q0 20 19 20h149q19 0 19 -20l-6 -448l5 -542q0 -20 -20 -20h-139q-20 0 -20 20l5 160q-53 -88 -140.5 -146
t-202.5 -58q-162 0 -253.5 105zM373 1175q-6 -7 -14 -7q-7 0 -13 6l-37 32q-8 8 -8 14t5 13l226 301q6 9 13 9q5 0 14 -7l68 -67q7 -7 7 -13q0 -5 -7 -14zM654 1170q-6 -7 -14 -7q-7 0 -13 6l-38 31q-7 6 -7 14q0 5 5 13l225 301q6 9 14 9q7 0 14 -7l67 -66q7 -6 7 -14
q0 -7 -6 -13z" />
    <glyph glyph-name="Uogonek" unicode="&#x172;" horiz-adv-x="1242" 
d="M1124 1400q19 0 19 -20l-5 -408v-442q0 -257 -119 -400t-356 -154q-28 -26 -46.5 -61t-18.5 -73q0 -48 32 -72t86 -24h82q9 0 14.5 -5t5.5 -14v-88q0 -9 -5.5 -14t-14.5 -5h-97q-73 0 -129.5 23.5t-87.5 66t-31 98.5q0 101 85 171q-215 24 -325 166t-109 385l2 442
l-7 408q0 20 19 20h159q19 0 19 -20l-6 -404l1 -445q1 -192 81 -299t251 -107q177 0 260 107.5t83 298.5v442l-5 407q0 20 19 20h144z" />
    <glyph glyph-name="uogonek" unicode="&#x173;" horiz-adv-x="1051" 
d="M977 -254q9 0 14.5 -5t5.5 -14v-88q0 -9 -5.5 -14t-14.5 -5h-97q-73 0 -129.5 23.5t-87.5 66t-31 98.5q0 69 38.5 121.5t103.5 89.5v1l5 160q-53 -88 -140.5 -146t-202.5 -58q-162 0 -253.5 105t-91.5 305v204l-4 420q0 20 19 20h147q20 0 20 -20l-5 -420v-197
q0 -139 59 -208.5t159 -69.5q103 0 178.5 81t105.5 229v165l-3 420q0 20 19 20h149q19 0 19 -20l-6 -448l5 -542q0 -20 -20 -20h-61q-37 -24 -66 -66.5t-29 -91.5q0 -48 32 -72t86 -24h82z" />
    <glyph glyph-name="Wcircumflex" unicode="&#x174;" horiz-adv-x="1760" 
d="M24 1378q-1 2 -1 6q0 16 18 16h150q18 0 21 -17l288 -1198l274 1198q3 17 21 17h179q17 0 21 -17l278 -1206l288 1206q3 17 21 17h137q10 0 14.5 -6t2.5 -16l-353 -1361q-4 -17 -22 -17h-184q-18 0 -22 17l-280 1124l-270 -1124q-3 -17 -21 -17h-190q-17 0 -21 17z
M557 1583q-2 4 -2 10q0 11 10 17l263 160q10 6 24 6h54q15 0 25 -6l263 -160q10 -6 10 -17q0 -6 -2 -10l-25 -57q-4 -12 -15 -12q-7 0 -10 2l-274 125l-272 -124q-4 -3 -10 -3q-10 0 -15 13z" />
    <glyph glyph-name="wcircumflex" unicode="&#x175;" horiz-adv-x="1412" 
d="M20 1008q-1 2 -1 7q0 7 5 11t13 4h145q18 0 21 -17l200 -856l198 856q3 17 21 17h183q18 0 21 -17l206 -845l191 845q3 17 21 17h131q10 0 14.5 -6t2.5 -16l-251 -991q-4 -17 -22 -17h-179q-18 0 -22 17l-218 860l-195 -860q-5 -17 -21 -17h-178q-18 0 -21 17zM385 1213
q-2 4 -2 10q0 11 10 17l263 160q10 6 24 6h54q15 0 25 -6l263 -160q10 -6 10 -17q0 -6 -2 -10l-25 -57q-4 -12 -15 -12q-7 0 -10 2l-274 125l-272 -124q-4 -3 -10 -3q-10 0 -15 13z" />
    <glyph glyph-name="Ycircumflex" unicode="&#x176;" horiz-adv-x="1134" 
d="M18 1377q-3 6 -3 11t4.5 8.5t12.5 3.5h170q17 0 23 -15l349 -726l351 726q5 15 23 15h154q17 0 17 -13q0 -4 -3 -10l-461 -888l6 -469q0 -20 -19 -20h-155q-19 0 -19 20l7 473zM247 1583q-2 4 -2 10q0 11 10 17l263 160q10 6 24 6h54q15 0 25 -6l263 -160q10 -6 10 -17
q0 -6 -2 -10l-25 -57q-4 -12 -15 -12q-7 0 -10 2l-274 125l-272 -124q-4 -3 -10 -3q-10 0 -15 13z" />
    <glyph glyph-name="ycircumflex" unicode="&#x177;" horiz-adv-x="951" 
d="M754 1014q5 16 22 16h148q17 0 17 -15q0 -5 -1 -8l-463 -1331q-6 -16 -22 -16h-134q-8 0 -13 4t-5 11l2 8l111 314l-404 1010q-2 6 -2 9q0 14 18 14h165q16 0 22 -16l291 -779zM162 1213q-2 4 -2 10q0 11 10 17l263 160q10 6 24 6h54q15 0 25 -6l263 -160q10 -6 10 -17
q0 -6 -2 -10l-25 -57q-4 -12 -15 -12q-7 0 -10 2l-274 125l-272 -124q-4 -3 -10 -3q-10 0 -15 13z" />
    <glyph glyph-name="Ydieresis" unicode="&#x178;" horiz-adv-x="1134" 
d="M18 1377q-3 6 -3 11t4.5 8.5t12.5 3.5h170q17 0 23 -15l349 -726l351 726q5 15 23 15h154q17 0 17 -13q0 -4 -3 -10l-461 -888l6 -469q0 -20 -19 -20h-155q-19 0 -19 20l7 473zM349 1525q-9 0 -14.5 5t-5.5 14v154q0 9 5.5 14t14.5 5h124q20 0 20 -19v-154q0 -9 -5.5 -14
t-14.5 -5h-124zM666 1525q-19 0 -19 19v154q0 19 19 19h125q9 0 14.5 -5t5.5 -14v-154q0 -9 -5.5 -14t-14.5 -5h-125z" />
    <glyph glyph-name="Zacute" unicode="&#x179;" horiz-adv-x="1139" 
d="M73 0q-9 0 -14 5.5t-5 14.5v122q0 12 8 24l790 1092h-726q-9 0 -14 5.5t-5 14.5v102q0 9 5 14.5t14 5.5h929q9 0 14 -5.5t5 -14.5v-126q0 -12 -8 -24l-785 -1088h785q9 0 14 -5.5t5 -14.5v-102q0 -9 -5 -14.5t-14 -5.5h-993zM416 1511q-3 -1 -7 -1q-12 0 -18 13l-20 55
q-2 6 -2 9q0 11 12 17l430 200q6 3 10 3q10 0 15 -13l35 -102q2 -6 2 -9q0 -11 -14 -16z" />
    <glyph glyph-name="zacute" unicode="&#x17a;" horiz-adv-x="933" 
d="M81 0q-9 0 -14.5 5.5t-5.5 14.5v102q0 13 8 24l557 750h-502q-20 0 -20 19v95q0 10 5.5 15t14.5 5h704q9 0 14.5 -5.5t5.5 -14.5v-102q0 -12 -9 -24l-560 -750h574q9 0 14.5 -5t5.5 -14v-95q0 -10 -5.5 -15t-14.5 -5h-772zM303 1141q-3 -1 -7 -1q-12 0 -18 13l-20 55
q-2 6 -2 9q0 11 12 17l430 200q6 3 10 3q10 0 15 -13l35 -102q2 -6 2 -9q0 -11 -14 -16z" />
    <glyph glyph-name="Zdotaccent" unicode="&#x17b;" horiz-adv-x="1139" 
d="M73 0q-9 0 -14 5.5t-5 14.5v122q0 12 8 24l790 1092h-726q-9 0 -14 5.5t-5 14.5v102q0 9 5 14.5t14 5.5h929q9 0 14 -5.5t5 -14.5v-126q0 -12 -8 -24l-785 -1088h785q9 0 14 -5.5t5 -14.5v-102q0 -9 -5 -14.5t-14 -5.5h-993zM511 1525q-20 0 -20 19v154q0 9 5.5 14
t14.5 5h146q9 0 14.5 -5t5.5 -14v-154q0 -9 -5.5 -14t-14.5 -5h-146z" />
    <glyph glyph-name="zdotaccent" unicode="&#x17c;" horiz-adv-x="933" 
d="M81 0q-9 0 -14.5 5.5t-5.5 14.5v102q0 13 8 24l557 750h-502q-20 0 -20 19v95q0 10 5.5 15t14.5 5h704q9 0 14.5 -5.5t5.5 -14.5v-102q0 -12 -9 -24l-560 -750h574q9 0 14.5 -5t5.5 -14v-95q0 -10 -5.5 -15t-14.5 -5h-772zM398 1155q-20 0 -20 19v154q0 9 5.5 14t14.5 5
h146q9 0 14.5 -5t5.5 -14v-154q0 -9 -5.5 -14t-14.5 -5h-146z" />
    <glyph glyph-name="Zcaron" unicode="&#x17d;" horiz-adv-x="1139" 
d="M73 0q-9 0 -14 5.5t-5 14.5v122q0 12 8 24l790 1092h-726q-9 0 -14 5.5t-5 14.5v102q0 9 5 14.5t14 5.5h929q9 0 14 -5.5t5 -14.5v-126q0 -12 -8 -24l-785 -1088h785q9 0 14 -5.5t5 -14.5v-102q0 -9 -5 -14.5t-14 -5.5h-993zM281 1680q-11 6 -11 15q0 5 3 11l24 57
q4 12 15 12q5 0 10 -3l272 -123l272 124q5 3 10 3q11 0 15 -12l25 -58q2 -4 2 -10q0 -10 -10 -16l-263 -158q-9 -7 -25 -7h-52q-15 0 -24 7z" />
    <glyph glyph-name="zcaron" unicode="&#x17e;" horiz-adv-x="933" 
d="M81 0q-9 0 -14.5 5.5t-5.5 14.5v102q0 13 8 24l557 750h-502q-20 0 -20 19v95q0 10 5.5 15t14.5 5h704q9 0 14.5 -5.5t5.5 -14.5v-102q0 -12 -9 -24l-560 -750h574q9 0 14.5 -5t5.5 -14v-95q0 -10 -5.5 -15t-14.5 -5h-772zM157 1310q-11 6 -11 15q0 5 3 11l24 57
q4 12 15 12q5 0 10 -3l272 -123l272 124q5 3 10 3q11 0 15 -12l25 -58q2 -4 2 -10q0 -10 -10 -16l-263 -158q-9 -7 -25 -7h-52q-15 0 -24 7z" />
    <glyph glyph-name="florin" unicode="&#x192;" horiz-adv-x="706" 
d="M405 1109v-79h224q9 0 14 -5.5t5 -14.5v-93q0 -20 -19 -20h-224v-953q0 -106 -38.5 -174t-100 -98.5t-133.5 -31.5q-65 0 -134 15q-17 4 -17 21v90q0 10 5.5 14.5t15.5 2.5q36 -9 91 -9q132 0 132 184v939h-142q-9 0 -14.5 5.5t-5.5 14.5v93q0 10 5.5 15t14.5 5h142v93
q0 106 38.5 174t100 98.5t133.5 31.5q65 0 134 -15q17 -4 17 -21v-90q0 -10 -5.5 -14.5t-15.5 -2.5q-36 9 -91 9q-132 0 -132 -184z" />
    <glyph glyph-name="Ohorn" unicode="&#x1a0;" horiz-adv-x="1465" 
d="M1135 1304q128 -93 197.5 -248t69.5 -358q0 -217 -83.5 -381t-235 -253t-351.5 -89t-351.5 89.5t-234.5 253.5t-83 381q0 221 82.5 385t234 252.5t353.5 88.5q164 0 296 -59l183 297q6 11 15 11q6 0 11 -4l96 -54q10 -6 10 -14q0 -6 -5 -13zM987.5 190
q107.5 69 164.5 199t57 309t-57 310t-164.5 201t-255.5 70t-255.5 -69.5t-164 -200t-56.5 -311.5q0 -178 57.5 -308t165 -199.5t254.5 -69.5t254.5 69z" />
    <glyph glyph-name="ohorn" unicode="&#x1a1;" horiz-adv-x="1094" 
d="M1043 1246q10 -6 10 -15q0 -7 -4 -12l-183 -271q83 -70 126.5 -180.5t43.5 -251.5q0 -163 -57 -284.5t-167 -188t-264 -66.5t-264 66t-167.5 187t-57.5 283t57.5 284t167.5 189t264 67q120 0 214 -41l159 281q6 10 15 10q6 0 12 -3zM772.5 209q74.5 105 74.5 304
q0 198 -75.5 305.5t-224.5 107.5q-149 -1 -225 -108t-76 -306q0 -198 76.5 -303t225.5 -105q150 0 224.5 105z" />
    <glyph glyph-name="Uhorn" unicode="&#x1af;" horiz-adv-x="1242" 
d="M1299 1616q11 -6 11 -16q0 -6 -4 -11l-163 -245l-5 -372v-442q0 -268 -129.5 -411.5t-385.5 -143.5t-388 144t-131 411l2 442l-7 408q0 20 19 20h159q19 0 19 -20l-6 -404l1 -445q1 -192 81 -299t251 -107q177 0 260 107.5t83 298.5v442l-5 407q0 20 19 20h53l144 263
q6 11 15 11q4 0 12 -4z" />
    <glyph glyph-name="uhorn" unicode="&#x1b0;" horiz-adv-x="1051" 
d="M953 968l-5 -406l5 -542q0 -20 -20 -20h-139q-20 0 -20 20l5 160q-53 -88 -140.5 -146t-202.5 -58q-162 0 -253.5 105t-91.5 305v204l-4 420q0 20 19 20h147q20 0 20 -20l-5 -420v-197q0 -139 59 -208.5t159 -69.5q103 0 178.5 81t105.5 229v165l-3 420q0 20 19 20h62
l144 263q6 11 15 11q4 0 12 -4l95 -54q11 -6 11 -16q0 -6 -4 -11z" />
    <glyph glyph-name="uni0218" unicode="&#x218;" horiz-adv-x="1234" 
d="M331 32q-127 56 -197.5 165t-77.5 265v2q0 18 19 18h155q18 0 21 -19q13 -169 103.5 -256t285.5 -87q165 0 260 65t95 202q0 85 -53.5 134.5t-133.5 73.5t-218 50q-165 31 -265 64t-170.5 108t-70.5 208q0 126 63 215.5t178.5 136.5t270.5 47q244 0 385.5 -104.5
t164.5 -314.5v-2q0 -19 -19 -19h-155q-18 0 -21 19q-12 138 -101.5 207t-257.5 69q-150 0 -238 -59.5t-88 -178.5q0 -77 51 -122t127 -67t210 -46q170 -31 274 -65t177.5 -113.5t73.5 -219.5t-68.5 -237t-191.5 -146t-284 -49q-177 0 -304 56zM525 -450q-9 0 -13 6t-2 16
l39 152v151q0 9 5.5 14t14.5 5h113q20 0 20 -19v-137q0 -13 -7 -24l-91 -151q-7 -13 -23 -13h-56z" />
    <glyph glyph-name="uni0219" unicode="&#x219;" horiz-adv-x="1002" 
d="M186 70q-124 92 -131 269q0 19 19 19h139q19 0 19 -19q6 -123 78 -182t210 -59q116 0 184.5 48t68.5 135q0 59 -39 92.5t-97 49.5t-160 34q-128 22 -207.5 46.5t-135.5 83.5t-56 165q0 96 50.5 163.5t142 102t214.5 34.5q186 0 302 -78.5t127 -232.5v-2q0 -9 -5 -13.5
t-14 -4.5h-133q-19 0 -20 19q-10 97 -77.5 145.5t-181.5 48.5q-108 0 -169 -43t-61 -128q0 -54 37 -84.5t92.5 -45t153.5 -30.5q132 -21 213.5 -46.5t140 -87.5t58.5 -175q0 -97 -56 -169t-154 -109.5t-220 -37.5q-208 0 -332 92zM405 -450q-9 0 -13 6t-2 16l39 152v151
q0 9 5.5 14t14.5 5h113q20 0 20 -19v-137q0 -13 -7 -24l-91 -151q-7 -13 -23 -13h-56z" />
    <glyph glyph-name="uni021A" unicode="&#x21a;" horiz-adv-x="1052" 
d="M446 0q-19 0 -19 20l11 673l-9 564h-385q-9 0 -14.5 5t-5.5 14v104q0 9 5.5 14.5t14.5 5.5h965q9 0 14 -5.5t5 -14.5v-104q0 -19 -19 -19h-386l-9 -564l11 -673q0 -20 -19 -20h-160zM427 -450q-9 0 -13 6t-2 16l39 152v151q0 9 5.5 14t14.5 5h113q20 0 20 -19v-137
q0 -13 -7 -24l-91 -151q-7 -13 -23 -13h-56z" />
    <glyph glyph-name="uni021B" unicode="&#x21b;" horiz-adv-x="651" 
d="M252 54q-77 71 -77 228l1 494v120h-113q-9 0 -14.5 5t-5.5 14v95q0 10 5.5 15t14.5 5h112l-2 238q0 20 19 20h148q20 0 20 -20l-3 -238h235q9 0 14 -5.5t5 -14.5v-95q0 -19 -19 -19h-236v-117l1 -493q0 -92 30.5 -129t98.5 -37q60 0 102 11q2 1 7 1q15 0 15 -18v-87
q0 -17 -14 -21q-80 -23 -143 -23q-124 0 -201 71zM295 -450q-9 0 -13 6t-2 16l39 152v151q0 9 5.5 14t14.5 5h113q20 0 20 -19v-137q0 -13 -7 -24l-91 -151q-7 -13 -23 -13h-56z" />
    <glyph glyph-name="uni0237" unicode="&#x237;" horiz-adv-x="397" 
d="M124 -340q-20 0 -20 20l6 650l-6 680q0 20 20 20h150q19 0 19 -20l-6 -680l6 -650q0 -20 -19 -20h-150z" />
    <glyph glyph-name="uni0237" unicode="&#xf6be;" horiz-adv-x="397" 
d="M124 -340q-20 0 -20 20l6 650l-6 680q0 20 20 20h150q19 0 19 -20l-6 -680l6 -650q0 -20 -19 -20h-150z" />
    <glyph glyph-name="uni0259" unicode="&#x259;" horiz-adv-x="1077" 
d="M833 537q-9 389 -309 389q-113 0 -181.5 -60.5t-91.5 -175.5q-4 -18 -22 -18h-136q-10 0 -15 4.5t-4 12.5q16 108 73.5 190t153.5 128t225 46q157 0 268 -67t167.5 -188t56.5 -280q0 -161 -57.5 -283t-166.5 -190t-258 -68q-148 0 -254.5 64.5t-164 185.5t-60.5 290
q0 20 19 20h757zM735.5 184q73.5 81 91.5 230h-573q3 -87 35.5 -157.5t95 -112t150.5 -41.5q127 0 200.5 81z" />
    <glyph glyph-name="quoteleft" unicode="&#x2bb;" horiz-adv-x="334" 
d="M277 1400q10 0 14 -6t1 -16l-48 -174v-179q0 -19 -19 -19h-143q-9 0 -14.5 5t-5.5 14v164q0 13 8 24l116 174q9 13 24 13h67z" />
    <glyph glyph-name="quoteleft" unicode="&#x2018;" horiz-adv-x="334" 
d="M277 1400q10 0 14 -6t1 -16l-48 -174v-179q0 -19 -19 -19h-143q-9 0 -14.5 5t-5.5 14v164q0 13 8 24l116 174q9 13 24 13h67z" />
    <glyph glyph-name="circumflex" unicode="&#x2c6;" horiz-adv-x="861" 
d="M108 1213q-2 4 -2 10q0 11 10 17l263 160q10 6 24 6h54q15 0 25 -6l263 -160q10 -6 10 -17q0 -6 -2 -10l-25 -57q-4 -12 -15 -12q-7 0 -10 2l-274 125l-272 -124q-4 -3 -10 -3q-10 0 -15 13z" />
    <glyph glyph-name="caron" unicode="&#x2c7;" horiz-adv-x="859" 
d="M116 1310q-11 6 -11 15q0 5 3 11l24 57q4 12 15 12q5 0 10 -3l272 -123l272 124q5 3 10 3q11 0 15 -12l25 -58q2 -4 2 -10q0 -10 -10 -16l-263 -158q-9 -7 -25 -7h-52q-15 0 -24 7z" />
    <glyph glyph-name="breve" unicode="&#x2d8;" horiz-adv-x="765" 
d="M239.5 1182.5q-62.5 32.5 -98 90t-40.5 130.5v2q0 8 5 13t14 5h86q18 0 21 -20q5 -59 46 -94t110 -35q66 0 107.5 35.5t47.5 93.5q3 20 21 20h87q9 0 14 -5t4 -13q-4 -73 -39.5 -131t-98 -91t-143.5 -33t-143.5 32.5z" />
    <glyph glyph-name="dotaccent" unicode="&#x2d9;" horiz-adv-x="386" 
d="M120 1155q-20 0 -20 19v154q0 9 5.5 14t14.5 5h146q9 0 14.5 -5t5.5 -14v-154q0 -9 -5.5 -14t-14.5 -5h-146z" />
    <glyph glyph-name="ring" unicode="&#x2da;" horiz-adv-x="631" 
d="M205 1174q-49 27 -77 73.5t-28 104.5t28 105t77 74t110 27t110.5 -27t77.5 -74t28 -105t-28 -104.5t-77.5 -73.5t-110.5 -27t-110 27zM396.5 1257.5q31.5 35.5 31.5 94.5q0 60 -31.5 95t-81.5 35q-51 0 -81.5 -34.5t-30.5 -95.5q0 -60 30.5 -95t81.5 -35q50 0 81.5 35.5z
" />
    <glyph glyph-name="ogonek" unicode="&#x2db;" horiz-adv-x="565" 
d="M348 -380q-73 0 -129.5 23.5t-87.5 66t-31 98.5q0 85 58 146t149 95q6 2 9 2q11 0 17 -11l11 -15q4 -8 4 -12q0 -7 -8 -13q-37 -24 -66 -66.5t-29 -91.5q0 -48 32 -72t86 -24h82q9 0 14.5 -5t5.5 -14v-88q0 -9 -5.5 -14t-14.5 -5h-97z" />
    <glyph glyph-name="tilde" unicode="&#x2dc;" horiz-adv-x="761" 
d="M417 1183.5q-30 20.5 -66 59.5q-25 28 -42 41t-38 13q-63 0 -68 -106q-2 -19 -20 -19h-63q-20 0 -20 20q4 97 47 156t122 59q46 0 76.5 -21t65.5 -61q22 -26 38.5 -39t35.5 -13q68 0 73 106q0 19 20 19h63q20 0 19 -24q-5 -98 -47 -154.5t-121 -56.5q-45 0 -75 20.5z" />
    <glyph glyph-name="hungarumlaut" unicode="&#x2dd;" horiz-adv-x="826" 
d="M178 1175q-6 -7 -14 -7q-7 0 -13 6l-37 32q-8 8 -8 14t5 13l226 301q6 9 13 9q5 0 14 -7l68 -67q7 -7 7 -13q0 -5 -7 -14zM459 1170q-6 -7 -14 -7q-7 0 -13 6l-38 31q-7 6 -7 14q0 5 5 13l225 301q6 9 14 9q7 0 14 -7l67 -66q7 -6 7 -14q0 -7 -6 -13z" />
    <glyph glyph-name="gravecomb" unicode="&#x300;" 
d="M-128 1153q-4 -13 -17 -13q-5 0 -8 1l-443 156q-8 3 -11.5 9.5t-0.5 15.5l36 103q5 13 15 13q4 0 10 -3l429 -200q13 -6 13 -17q0 -3 -2 -9z" />
    <glyph glyph-name="acutecomb" unicode="&#x301;" 
d="M-562 1141q-3 -1 -7 -1q-12 0 -18 13l-20 55q-2 6 -2 9q0 11 12 17l430 200q6 3 10 3q10 0 15 -13l35 -102q2 -6 2 -9q0 -11 -14 -16z" />
    <glyph glyph-name="uni0302" unicode="&#x302;" 
d="M-753 1213q-2 4 -2 10q0 11 10 17l263 160q10 6 24 6h54q15 0 25 -6l263 -160q10 -6 10 -17q0 -6 -2 -10l-25 -57q-4 -12 -15 -12q-7 0 -10 2l-274 125l-272 -124q-4 -3 -10 -3q-10 0 -15 13z" />
    <glyph glyph-name="tildecomb" unicode="&#x303;" 
d="M-344 1183.5q-30 20.5 -66 59.5q-25 28 -42 41t-38 13q-63 0 -68 -106q-2 -19 -20 -19h-63q-20 0 -20 20q4 97 47 156t122 59q46 0 76.5 -21t65.5 -61q22 -26 38.5 -39t35.5 -13q68 0 73 106q0 19 20 19h63q20 0 19 -24q-5 -98 -47 -154.5t-121 -56.5q-45 0 -75 20.5z
" />
    <glyph glyph-name="uni0304" unicode="&#x304;" 
d="M-665 1190q-20 0 -20 19v91q0 9 5.5 14t14.5 5h545q9 0 14.5 -5t5.5 -14v-91q0 -9 -5.5 -14t-14.5 -5h-545z" />
    <glyph glyph-name="uni0306" unicode="&#x306;" 
d="M-525.5 1182.5q-62.5 32.5 -98 90t-40.5 130.5v2q0 8 5 13t14 5h86q18 0 21 -20q5 -59 46 -94t110 -35q66 0 107.5 35.5t47.5 93.5q3 20 21 20h87q9 0 14 -5t4 -13q-4 -73 -39.5 -131t-98 -91t-143.5 -33t-143.5 32.5z" />
    <glyph glyph-name="uni0307" unicode="&#x307;" 
d="M-266 1155q-20 0 -20 19v154q0 9 5.5 14t14.5 5h146q9 0 14.5 -5t5.5 -14v-154q0 -9 -5.5 -14t-14.5 -5h-146z" />
    <glyph glyph-name="uni0308" unicode="&#x308;" 
d="M-562 1155q-9 0 -14.5 5t-5.5 14v154q0 9 5.5 14t14.5 5h124q20 0 20 -19v-154q0 -9 -5.5 -14t-14.5 -5h-124zM-245 1155q-19 0 -19 19v154q0 19 19 19h125q9 0 14.5 -5t5.5 -14v-154q0 -9 -5.5 -14t-14.5 -5h-125z" />
    <glyph glyph-name="hookabovecomb" unicode="&#x309;" 
d="M-372 1152q-9 0 -14.5 6t-3.5 15q5 40 28.5 63t65.5 48q34 19 49.5 34t15.5 38q0 27 -22.5 44t-63.5 17q-40 0 -64 -16.5t-31 -45.5q-5 -19 -21 -19h-87q-9 0 -14 5.5t-4 15.5q10 74 68 115.5t155 41.5q98 0 156.5 -42t58.5 -113q0 -46 -24 -72.5t-68 -54.5
q-29 -19 -44.5 -32t-20.5 -30q-5 -18 -20 -18h-95z" />
    <glyph glyph-name="uni030A" unicode="&#x30a;" 
d="M-426 1174q-49 27 -77 73.5t-28 104.5t28 105t77 74t110 27t110.5 -27t77.5 -74t28 -105t-28 -104.5t-77.5 -73.5t-110.5 -27t-110 27zM-234.5 1257.5q31.5 35.5 31.5 94.5q0 60 -31.5 95t-81.5 35q-51 0 -81.5 -34.5t-30.5 -95.5q0 -60 30.5 -95t81.5 -35
q50 0 81.5 35.5z" />
    <glyph glyph-name="uni030B" unicode="&#x30b;" 
d="M-648 1175q-6 -7 -14 -7q-7 0 -13 6l-37 32q-8 8 -8 14t5 13l226 301q6 9 13 9q5 0 14 -7l68 -67q7 -7 7 -13q0 -5 -7 -14zM-367 1170q-6 -7 -14 -7q-7 0 -13 6l-38 31q-7 6 -7 14q0 5 5 13l225 301q6 9 14 9q7 0 14 -7l67 -66q7 -6 7 -14q0 -7 -6 -13z" />
    <glyph glyph-name="uni030C" unicode="&#x30c;" 
d="M-743 1310q-11 6 -11 15q0 5 3 11l24 57q4 12 15 12q5 0 10 -3l272 -123l272 124q5 3 10 3q11 0 15 -12l25 -58q2 -4 2 -10q0 -10 -10 -16l-263 -158q-9 -7 -25 -7h-52q-15 0 -24 7z" />
    <glyph glyph-name="uni0312" unicode="&#x312;" 
d="M-319 1155q-9 0 -14.5 5t-5.5 14v135q0 14 9 24l116 152q9 12 23 12h68q22 0 17 -22l-45 -152v-149q0 -9 -5.5 -14t-14.5 -5h-148z" />
    <glyph glyph-name="uni031B" unicode="&#x31b;" 
d="M-320 947q-7 -10 -15 -10q-4 0 -11 5l-73 42q-8 5 -8 15q0 5 3 11l160 283q6 10 15 10q6 0 12 -3l95 -54q10 -6 10 -15q0 -7 -4 -12z" />
    <glyph glyph-name="dotbelowcomb" unicode="&#x323;" 
d="M-266 -298q-20 0 -20 19v154q0 9 5.5 14t14.5 5h146q9 0 14.5 -5t5.5 -14v-154q0 -9 -5.5 -14t-14.5 -5h-146z" />
    <glyph glyph-name="uni0326" unicode="&#x326;" 
d="M-277 -450q-9 0 -13 6t-2 16l39 152v151q0 9 5.5 14t14.5 5h113q20 0 20 -19v-137q0 -13 -7 -24l-91 -151q-7 -13 -23 -13h-56z" />
    <glyph glyph-name="uni0327" unicode="&#x327;" 
d="M-184 -325q-1 -9 -7.5 -12.5t-15.5 -1.5l-131 26q-15 3 -15 16q0 3 2 9l119 303q8 18 25 12l88 -12q9 -2 12.5 -8.5t1.5 -15.5z" />
    <glyph glyph-name="uni0328" unicode="&#x328;" 
d="M-217 -380q-73 0 -129.5 23.5t-87.5 66t-31 98.5q0 85 58 146t149 95q6 2 9 2q11 0 17 -11l11 -15q4 -8 4 -12q0 -7 -8 -13q-37 -24 -66 -66.5t-29 -91.5q0 -48 32 -72t86 -24h82q9 0 14.5 -5t5.5 -14v-88q0 -9 -5.5 -14t-14.5 -5h-97z" />
    <glyph glyph-name="uni0394" unicode="&#x394;" horiz-adv-x="1304" 
d="M50 0q-10 0 -15 5.5t-5 14.5v117q0 14 5 24l491 1224q6 15 22 15h213q16 0 22 -15l487 -1224q4 -11 4 -24v-117q0 -9 -5 -14.5t-14 -5.5h-1205zM1079 150l-433 1124l-426 -1124h859z" />
    <glyph glyph-name="uni0394" unicode="&#x2206;" horiz-adv-x="1304" 
d="M50 0q-10 0 -15 5.5t-5 14.5v117q0 14 5 24l491 1224q6 15 22 15h213q16 0 22 -15l487 -1224q4 -11 4 -24v-117q0 -9 -5 -14.5t-14 -5.5h-1205zM1079 150l-433 1124l-426 -1124h859z" />
    <glyph glyph-name="uni03A9" unicode="&#x3a9;" horiz-adv-x="1499" 
d="M1371 144q9 0 14 -5.5t5 -14.5v-104q0 -20 -19 -20h-473q-9 0 -14 5.5t-5 14.5v104q0 17 16 28q156 99 243.5 240t87.5 346q0 163 -54.5 283.5t-157 187t-244.5 70.5h-39q-142 -4 -244.5 -70.5t-157 -186.5t-54.5 -284q0 -205 87.5 -345.5t242.5 -240.5q17 -9 17 -28
v-104q0 -9 -5.5 -14.5t-14.5 -5.5h-473q-9 0 -14 5.5t-5 14.5v104q0 9 5 14.5t14 5.5h244q-139 112 -215.5 260.5t-76.5 343.5q0 204 80 355.5t227 234.5t343 87h39q195 -4 342 -87t227 -234.5t80 -355.5q0 -195 -76.5 -343.5t-215.5 -260.5h244z" />
    <glyph glyph-name="uni03A9" unicode="&#x2126;" horiz-adv-x="1499" 
d="M1371 144q9 0 14 -5.5t5 -14.5v-104q0 -20 -19 -20h-473q-9 0 -14 5.5t-5 14.5v104q0 17 16 28q156 99 243.5 240t87.5 346q0 163 -54.5 283.5t-157 187t-244.5 70.5h-39q-142 -4 -244.5 -70.5t-157 -186.5t-54.5 -284q0 -205 87.5 -345.5t242.5 -240.5q17 -9 17 -28
v-104q0 -9 -5.5 -14.5t-14.5 -5.5h-473q-9 0 -14 5.5t-5 14.5v104q0 9 5 14.5t14 5.5h244q-139 112 -215.5 260.5t-76.5 343.5q0 204 80 355.5t227 234.5t343 87h39q195 -4 342 -87t227 -234.5t80 -355.5q0 -195 -76.5 -343.5t-215.5 -260.5h244z" />
    <glyph glyph-name="pi" unicode="&#x3c0;" horiz-adv-x="1049" 
d="M111 0q-19 0 -19 20l4 448l-2 542q0 20 19 20h827q20 0 20 -20l-2 -570l3 -420q0 -20 -20 -20h-148q-19 0 -19 20l3 448v427h-499l-1 -455l3 -420q0 -20 -20 -20h-149z" />
    <glyph glyph-name="Wgrave" unicode="&#x1e80;" horiz-adv-x="1760" 
d="M24 1378q-1 2 -1 6q0 16 18 16h150q18 0 21 -17l288 -1198l274 1198q3 17 21 17h179q17 0 21 -17l278 -1206l288 1206q3 17 21 17h137q10 0 14.5 -6t2.5 -16l-353 -1361q-4 -17 -22 -17h-184q-18 0 -22 17l-280 1124l-270 -1124q-3 -17 -21 -17h-190q-17 0 -21 17z
M1058 1523q-4 -13 -17 -13q-5 0 -8 1l-443 156q-8 3 -11.5 9.5t-0.5 15.5l36 103q5 13 15 13q4 0 10 -3l429 -200q13 -6 13 -17q0 -3 -2 -9z" />
    <glyph glyph-name="wgrave" unicode="&#x1e81;" horiz-adv-x="1412" 
d="M20 1008q-1 2 -1 7q0 7 5 11t13 4h145q18 0 21 -17l200 -856l198 856q3 17 21 17h183q18 0 21 -17l206 -845l191 845q3 17 21 17h131q10 0 14.5 -6t2.5 -16l-251 -991q-4 -17 -22 -17h-179q-18 0 -22 17l-218 860l-195 -860q-5 -17 -21 -17h-178q-18 0 -21 17zM885 1153
q-4 -13 -17 -13q-5 0 -8 1l-443 156q-8 3 -11.5 9.5t-0.5 15.5l36 103q5 13 15 13q4 0 10 -3l429 -200q13 -6 13 -17q0 -3 -2 -9z" />
    <glyph glyph-name="Wacute" unicode="&#x1e82;" horiz-adv-x="1760" 
d="M24 1378q-1 2 -1 6q0 16 18 16h150q18 0 21 -17l288 -1198l274 1198q3 17 21 17h179q17 0 21 -17l278 -1206l288 1206q3 17 21 17h137q10 0 14.5 -6t2.5 -16l-353 -1361q-4 -17 -22 -17h-184q-18 0 -22 17l-280 1124l-270 -1124q-3 -17 -21 -17h-190q-17 0 -21 17z
M712 1511q-3 -1 -7 -1q-12 0 -18 13l-20 55q-2 6 -2 9q0 11 12 17l430 200q6 3 10 3q10 0 15 -13l35 -102q2 -6 2 -9q0 -11 -14 -16z" />
    <glyph glyph-name="wacute" unicode="&#x1e83;" horiz-adv-x="1412" 
d="M20 1008q-1 2 -1 7q0 7 5 11t13 4h145q18 0 21 -17l200 -856l198 856q3 17 21 17h183q18 0 21 -17l206 -845l191 845q3 17 21 17h131q10 0 14.5 -6t2.5 -16l-251 -991q-4 -17 -22 -17h-179q-18 0 -22 17l-218 860l-195 -860q-5 -17 -21 -17h-178q-18 0 -21 17zM539 1141
q-3 -1 -7 -1q-12 0 -18 13l-20 55q-2 6 -2 9q0 11 12 17l430 200q6 3 10 3q10 0 15 -13l35 -102q2 -6 2 -9q0 -11 -14 -16z" />
    <glyph glyph-name="Wdieresis" unicode="&#x1e84;" horiz-adv-x="1760" 
d="M24 1378q-1 2 -1 6q0 16 18 16h150q18 0 21 -17l288 -1198l274 1198q3 17 21 17h179q17 0 21 -17l278 -1206l288 1206q3 17 21 17h137q10 0 14.5 -6t2.5 -16l-353 -1361q-4 -17 -22 -17h-184q-18 0 -22 17l-280 1124l-270 -1124q-3 -17 -21 -17h-190q-17 0 -21 17z
M659 1525q-9 0 -14.5 5t-5.5 14v154q0 9 5.5 14t14.5 5h124q20 0 20 -19v-154q0 -9 -5.5 -14t-14.5 -5h-124zM976 1525q-19 0 -19 19v154q0 19 19 19h125q9 0 14.5 -5t5.5 -14v-154q0 -9 -5.5 -14t-14.5 -5h-125z" />
    <glyph glyph-name="wdieresis" unicode="&#x1e85;" horiz-adv-x="1412" 
d="M20 1008q-1 2 -1 7q0 7 5 11t13 4h145q18 0 21 -17l200 -856l198 856q3 17 21 17h183q18 0 21 -17l206 -845l191 845q3 17 21 17h131q10 0 14.5 -6t2.5 -16l-251 -991q-4 -17 -22 -17h-179q-18 0 -22 17l-218 860l-195 -860q-5 -17 -21 -17h-178q-18 0 -21 17zM486 1155
q-9 0 -14.5 5t-5.5 14v154q0 9 5.5 14t14.5 5h124q20 0 20 -19v-154q0 -9 -5.5 -14t-14.5 -5h-124zM803 1155q-19 0 -19 19v154q0 19 19 19h125q9 0 14.5 -5t5.5 -14v-154q0 -9 -5.5 -14t-14.5 -5h-125z" />
    <glyph glyph-name="uni1EA0" unicode="&#x1ea0;" horiz-adv-x="1258" 
d="M1243 23q2 -6 2 -9q0 -14 -17 -14h-155q-16 0 -22 16l-140 407h-571l-138 -407q-4 -16 -22 -16h-149q-18 0 -18 14q0 3 2 9l489 1361q4 16 21 16h213q16 0 22 -16zM862 573l-239 695l-235 -695h474zM553 -298q-20 0 -20 19v154q0 9 5.5 14t14.5 5h146q9 0 14.5 -5
t5.5 -14v-154q0 -9 -5.5 -14t-14.5 -5h-146z" />
    <glyph glyph-name="uni1EA1" unicode="&#x1ea1;" horiz-adv-x="1089" 
d="M987 526l7 -506q0 -20 -19 -20h-145q-20 0 -20 20l4 157q-51 -94 -134.5 -145t-194.5 -51q-135 0 -231 69.5t-145.5 190t-49.5 272.5q0 150 51 272.5t148.5 193.5t229.5 71q110 0 192.5 -47.5t132.5 -139.5l-4 147q0 20 20 20h146q19 0 19 -20zM742.5 210.5
q76.5 102.5 76.5 302.5q0 197 -75.5 303.5t-212.5 106.5q-142 0 -214.5 -107.5t-72.5 -289.5q0 -192 72.5 -305t212.5 -113q137 0 213.5 102.5zM471 -298q-20 0 -20 19v154q0 9 5.5 14t14.5 5h146q9 0 14.5 -5t5.5 -14v-154q0 -9 -5.5 -14t-14.5 -5h-146z" />
    <glyph glyph-name="uni1EA2" unicode="&#x1ea2;" horiz-adv-x="1258" 
d="M1243 23q2 -6 2 -9q0 -14 -17 -14h-155q-16 0 -22 16l-140 407h-571l-138 -407q-4 -16 -22 -16h-149q-18 0 -18 14q0 3 2 9l489 1361q4 16 21 16h213q16 0 22 -16zM862 573l-239 695l-235 -695h474zM586 1522q-9 0 -14.5 6t-3.5 15q5 40 28.5 63t65.5 48q34 19 49.5 34
t15.5 38q0 27 -22.5 44t-63.5 17q-40 0 -64 -16.5t-31 -45.5q-5 -19 -21 -19h-87q-9 0 -14 5.5t-4 15.5q10 74 68 115.5t155 41.5q98 0 156.5 -42t58.5 -113q0 -46 -24 -72.5t-68 -54.5q-29 -19 -44.5 -32t-20.5 -30q-5 -18 -20 -18h-95z" />
    <glyph glyph-name="uni1EA3" unicode="&#x1ea3;" horiz-adv-x="1089" 
d="M987 526l7 -506q0 -20 -19 -20h-145q-20 0 -20 20l4 157q-51 -94 -134.5 -145t-194.5 -51q-135 0 -231 69.5t-145.5 190t-49.5 272.5q0 150 51 272.5t148.5 193.5t229.5 71q110 0 192.5 -47.5t132.5 -139.5l-4 147q0 20 20 20h146q19 0 19 -20zM742.5 210.5
q76.5 102.5 76.5 302.5q0 197 -75.5 303.5t-212.5 106.5q-142 0 -214.5 -107.5t-72.5 -289.5q0 -192 72.5 -305t212.5 -113q137 0 213.5 102.5zM482 1152q-9 0 -14.5 6t-3.5 15q5 40 28.5 63t65.5 48q34 19 49.5 34t15.5 38q0 27 -22.5 44t-63.5 17q-40 0 -64 -16.5
t-31 -45.5q-5 -19 -21 -19h-87q-9 0 -14 5.5t-4 15.5q10 74 68 115.5t155 41.5q98 0 156.5 -42t58.5 -113q0 -46 -24 -72.5t-68 -54.5q-29 -19 -44.5 -32t-20.5 -30q-5 -18 -20 -18h-95z" />
    <glyph glyph-name="uni1EA4" unicode="&#x1ea4;" horiz-adv-x="1258" 
d="M1243 23q2 -6 2 -9q0 -14 -17 -14h-155q-16 0 -22 16l-140 407h-571l-138 -407q-4 -16 -22 -16h-149q-18 0 -18 14q0 3 2 9l489 1361q4 16 21 16h213q16 0 22 -16zM862 573l-239 695l-235 -695h474zM889 1708q-7 -7 -14 -7q-6 0 -14 6l-45 40q-8 8 -8 15q0 6 5 13
l216 272q6 9 14 9q7 0 14 -7l70 -64q7 -7 7 -15q0 -7 -6 -13zM310 1545q-2 4 -2 10q0 10 10 16l263 160q11 7 24 7h54q14 0 25 -7l263 -160q10 -6 10 -16q0 -6 -2 -10l-25 -58q-5 -12 -15 -12q-7 0 -10 2l-274 125l-272 -124q-4 -3 -9 -3q-10 0 -16 13z" />
    <glyph glyph-name="uni1EA5" unicode="&#x1ea5;" horiz-adv-x="1089" 
d="M987 526l7 -506q0 -20 -19 -20h-145q-20 0 -20 20l4 157q-51 -94 -134.5 -145t-194.5 -51q-135 0 -231 69.5t-145.5 190t-49.5 272.5q0 150 51 272.5t148.5 193.5t229.5 71q110 0 192.5 -47.5t132.5 -139.5l-4 147q0 20 20 20h146q19 0 19 -20zM742.5 210.5
q76.5 102.5 76.5 302.5q0 197 -75.5 303.5t-212.5 106.5q-142 0 -214.5 -107.5t-72.5 -289.5q0 -192 72.5 -305t212.5 -113q137 0 213.5 102.5zM785 1338q-7 -7 -14 -7q-6 0 -14 6l-45 40q-8 8 -8 15q0 6 5 13l216 272q6 9 14 9q7 0 14 -7l70 -64q7 -7 7 -15q0 -7 -6 -13z
M206 1175q-2 4 -2 10q0 10 10 16l263 160q11 7 24 7h54q14 0 25 -7l263 -160q10 -6 10 -16q0 -6 -2 -10l-25 -58q-5 -12 -15 -12q-7 0 -10 2l-274 125l-272 -124q-4 -3 -9 -3q-10 0 -16 13z" />
    <glyph glyph-name="uni1EA6" unicode="&#x1ea6;" horiz-adv-x="1258" 
d="M1243 23q2 -6 2 -9q0 -14 -17 -14h-155q-16 0 -22 16l-140 407h-571l-138 -407q-4 -16 -22 -16h-149q-18 0 -18 14q0 3 2 9l489 1361q4 16 21 16h213q16 0 22 -16zM862 573l-239 695l-235 -695h474zM903 1706q-6 -6 -13 -6q-6 0 -15 7l-239 249q-6 6 -6 14q0 7 7 14
l70 64q9 7 14 7q8 0 14 -9l216 -272q5 -6 5 -13q0 -9 -7 -15zM310 1545q-2 4 -2 10q0 10 10 16l263 160q11 7 24 7h54q14 0 25 -7l263 -160q10 -6 10 -16q0 -6 -2 -10l-25 -58q-4 -12 -15 -12q-7 0 -10 2l-274 125l-272 -124q-5 -3 -9 -3q-10 0 -16 13z" />
    <glyph glyph-name="uni1EA7" unicode="&#x1ea7;" horiz-adv-x="1089" 
d="M987 526l7 -506q0 -20 -19 -20h-145q-20 0 -20 20l4 157q-51 -94 -134.5 -145t-194.5 -51q-135 0 -231 69.5t-145.5 190t-49.5 272.5q0 150 51 272.5t148.5 193.5t229.5 71q110 0 192.5 -47.5t132.5 -139.5l-4 147q0 20 20 20h146q19 0 19 -20zM742.5 210.5
q76.5 102.5 76.5 302.5q0 197 -75.5 303.5t-212.5 106.5q-142 0 -214.5 -107.5t-72.5 -289.5q0 -192 72.5 -305t212.5 -113q137 0 213.5 102.5zM799 1336q-6 -6 -13 -6q-6 0 -15 7l-239 249q-6 6 -6 14q0 7 7 14l70 64q9 7 14 7q8 0 14 -9l216 -272q5 -6 5 -13q0 -9 -7 -15z
M206 1175q-2 4 -2 10q0 10 10 16l263 160q11 7 24 7h54q14 0 25 -7l263 -160q10 -6 10 -16q0 -6 -2 -10l-25 -58q-4 -12 -15 -12q-7 0 -10 2l-274 125l-272 -124q-5 -3 -9 -3q-10 0 -16 13z" />
    <glyph glyph-name="uni1EA8" unicode="&#x1ea8;" horiz-adv-x="1258" 
d="M1243 23q2 -6 2 -9q0 -14 -17 -14h-155q-16 0 -22 16l-140 407h-571l-138 -407q-4 -16 -22 -16h-149q-18 0 -18 14q0 3 2 9l489 1361q4 16 21 16h213q16 0 22 -16zM862 573l-239 695l-235 -695h474zM310 1544q-2 4 -2 10q0 11 10 17l263 160q10 6 24 6h54q15 0 25 -6
l263 -160q10 -6 10 -17q0 -6 -2 -10l-25 -57q-4 -12 -15 -12q-7 0 -10 2l-274 125l-272 -124q-4 -3 -10 -3q-10 0 -15 13zM830 1721q-9 0 -14.5 6t-3.5 15q5 40 28.5 63t65.5 48q34 19 49.5 34t15.5 38q0 27 -22.5 44t-63.5 17q-40 0 -64 -16.5t-31 -45.5q-5 -19 -21 -19
h-87q-9 0 -14 5.5t-4 15.5q10 74 68 115.5t155 41.5q98 0 156.5 -42t58.5 -113q0 -46 -24 -72.5t-68 -54.5q-29 -19 -44.5 -32t-20.5 -30q-5 -18 -20 -18h-95z" />
    <glyph glyph-name="uni1EA9" unicode="&#x1ea9;" horiz-adv-x="1089" 
d="M987 526l7 -506q0 -20 -19 -20h-145q-20 0 -20 20l4 157q-51 -94 -134.5 -145t-194.5 -51q-135 0 -231 69.5t-145.5 190t-49.5 272.5q0 150 51 272.5t148.5 193.5t229.5 71q110 0 192.5 -47.5t132.5 -139.5l-4 147q0 20 20 20h146q19 0 19 -20zM742.5 210.5
q76.5 102.5 76.5 302.5q0 197 -75.5 303.5t-212.5 106.5q-142 0 -214.5 -107.5t-72.5 -289.5q0 -192 72.5 -305t212.5 -113q137 0 213.5 102.5zM206 1174q-2 4 -2 10q0 11 10 17l263 160q10 6 24 6h54q15 0 25 -6l263 -160q10 -6 10 -17q0 -6 -2 -10l-25 -57q-4 -12 -15 -12
q-7 0 -10 2l-274 125l-272 -124q-4 -3 -10 -3q-10 0 -15 13zM726 1351q-9 0 -14.5 6t-3.5 15q5 40 28.5 63t65.5 48q34 19 49.5 34t15.5 38q0 27 -22.5 44t-63.5 17q-40 0 -64 -16.5t-31 -45.5q-5 -19 -21 -19h-87q-9 0 -14 5.5t-4 15.5q10 74 68 115.5t155 41.5
q98 0 156.5 -42t58.5 -113q0 -46 -24 -72.5t-68 -54.5q-29 -19 -44.5 -32t-20.5 -30q-5 -18 -20 -18h-95z" />
    <glyph glyph-name="uni1EAA" unicode="&#x1eaa;" horiz-adv-x="1258" 
d="M1243 23q2 -6 2 -9q0 -14 -17 -14h-155q-16 0 -22 16l-140 407h-571l-138 -407q-4 -16 -22 -16h-149q-18 0 -18 14q0 3 2 9l489 1361q4 16 21 16h213q16 0 22 -16zM862 573l-239 695l-235 -695h474zM310 1544q-2 4 -2 10q0 11 10 17l263 160q10 6 24 6h54q15 0 25 -6
l263 -160q10 -6 10 -17q0 -6 -2 -10l-25 -57q-4 -12 -15 -12q-7 0 -10 2l-274 125l-272 -124q-4 -3 -10 -3q-10 0 -15 13zM669 1801.5q-30 20.5 -66 59.5q-25 28 -42 41t-38 13q-63 0 -68 -106q-2 -19 -20 -19h-63q-20 0 -20 20q4 97 47 156t122 59q46 0 76.5 -21t65.5 -61
q22 -26 38.5 -39t35.5 -13q68 0 73 106q0 19 20 19h63q20 0 19 -24q-5 -98 -47 -154.5t-121 -56.5q-45 0 -75 20.5z" />
    <glyph glyph-name="uni1EAB" unicode="&#x1eab;" horiz-adv-x="1089" 
d="M987 526l7 -506q0 -20 -19 -20h-145q-20 0 -20 20l4 157q-51 -94 -134.5 -145t-194.5 -51q-135 0 -231 69.5t-145.5 190t-49.5 272.5q0 150 51 272.5t148.5 193.5t229.5 71q110 0 192.5 -47.5t132.5 -139.5l-4 147q0 20 20 20h146q19 0 19 -20zM742.5 210.5
q76.5 102.5 76.5 302.5q0 197 -75.5 303.5t-212.5 106.5q-142 0 -214.5 -107.5t-72.5 -289.5q0 -192 72.5 -305t212.5 -113q137 0 213.5 102.5zM206 1174q-2 4 -2 10q0 11 10 17l263 160q10 6 24 6h54q15 0 25 -6l263 -160q10 -6 10 -17q0 -6 -2 -10l-25 -57q-4 -12 -15 -12
q-7 0 -10 2l-274 125l-272 -124q-4 -3 -10 -3q-10 0 -15 13zM565 1431.5q-30 20.5 -66 59.5q-25 28 -42 41t-38 13q-63 0 -68 -106q-2 -19 -20 -19h-63q-20 0 -20 20q4 97 47 156t122 59q46 0 76.5 -21t65.5 -61q22 -26 38.5 -39t35.5 -13q68 0 73 106q0 19 20 19h63
q20 0 19 -24q-5 -98 -47 -154.5t-121 -56.5q-45 0 -75 20.5z" />
    <glyph glyph-name="uni1EAC" unicode="&#x1eac;" horiz-adv-x="1258" 
d="M1243 23q2 -6 2 -9q0 -14 -17 -14h-155q-16 0 -22 16l-140 407h-571l-138 -407q-4 -16 -22 -16h-149q-18 0 -18 14q0 3 2 9l489 1361q4 16 21 16h213q16 0 22 -16zM862 573l-239 695l-235 -695h474zM553 -298q-20 0 -20 19v154q0 9 5.5 14t14.5 5h146q9 0 14.5 -5
t5.5 -14v-154q0 -9 -5.5 -14t-14.5 -5h-146zM310 1583q-2 4 -2 10q0 11 10 17l263 160q10 6 24 6h54q15 0 25 -6l263 -160q10 -6 10 -17q0 -6 -2 -10l-25 -57q-4 -12 -15 -12q-7 0 -10 2l-274 125l-272 -124q-4 -3 -10 -3q-10 0 -15 13z" />
    <glyph glyph-name="uni1EAD" unicode="&#x1ead;" horiz-adv-x="1089" 
d="M987 526l7 -506q0 -20 -19 -20h-145q-20 0 -20 20l4 157q-51 -94 -134.5 -145t-194.5 -51q-135 0 -231 69.5t-145.5 190t-49.5 272.5q0 150 51 272.5t148.5 193.5t229.5 71q110 0 192.5 -47.5t132.5 -139.5l-4 147q0 20 20 20h146q19 0 19 -20zM742.5 210.5
q76.5 102.5 76.5 302.5q0 197 -75.5 303.5t-212.5 106.5q-142 0 -214.5 -107.5t-72.5 -289.5q0 -192 72.5 -305t212.5 -113q137 0 213.5 102.5zM471 -298q-20 0 -20 19v154q0 9 5.5 14t14.5 5h146q9 0 14.5 -5t5.5 -14v-154q0 -9 -5.5 -14t-14.5 -5h-146zM206 1213
q-2 4 -2 10q0 11 10 17l263 160q10 6 24 6h54q15 0 25 -6l263 -160q10 -6 10 -17q0 -6 -2 -10l-25 -57q-4 -12 -15 -12q-7 0 -10 2l-274 125l-272 -124q-4 -3 -10 -3q-10 0 -15 13z" />
    <glyph glyph-name="uni1EAE" unicode="&#x1eae;" horiz-adv-x="1258" 
d="M1243 23q2 -6 2 -9q0 -14 -17 -14h-155q-16 0 -22 16l-140 407h-571l-138 -407q-4 -16 -22 -16h-149q-18 0 -18 14q0 3 2 9l489 1361q4 16 21 16h213q16 0 22 -16zM862 573l-239 695l-235 -695h474zM645 1734q-7 -7 -14 -7q-6 0 -14 6l-48 40q-8 6 -8 14q0 6 5 13
l216 276q6 8 14 8q6 0 14 -6l72 -65q8 -8 8 -14t-7 -13zM490.5 1529q-62.5 33 -98 90.5t-40.5 129.5v2q0 18 19 18h86q18 0 21 -19q5 -59 46 -94.5t110 -35.5q66 0 107.5 36t47.5 94q3 19 21 19h87q9 0 14 -5t4 -13q-4 -73 -39.5 -131t-98 -91t-143.5 -33t-143.5 33z" />
    <glyph glyph-name="uni1EAF" unicode="&#x1eaf;" horiz-adv-x="1089" 
d="M987 526l7 -506q0 -20 -19 -20h-145q-20 0 -20 20l4 157q-51 -94 -134.5 -145t-194.5 -51q-135 0 -231 69.5t-145.5 190t-49.5 272.5q0 150 51 272.5t148.5 193.5t229.5 71q110 0 192.5 -47.5t132.5 -139.5l-4 147q0 20 20 20h146q19 0 19 -20zM742.5 210.5
q76.5 102.5 76.5 302.5q0 197 -75.5 303.5t-212.5 106.5q-142 0 -214.5 -107.5t-72.5 -289.5q0 -192 72.5 -305t212.5 -113q137 0 213.5 102.5zM541 1364q-7 -7 -14 -7q-6 0 -14 6l-48 40q-8 6 -8 14q0 6 5 13l216 276q6 8 14 8q6 0 14 -6l72 -65q8 -8 8 -14t-7 -13z
M386.5 1159q-62.5 33 -98 90.5t-40.5 129.5v2q0 18 19 18h86q18 0 21 -19q5 -59 46 -94.5t110 -35.5q66 0 107.5 36t47.5 94q3 19 21 19h87q9 0 14 -5t4 -13q-4 -73 -39.5 -131t-98 -91t-143.5 -33t-143.5 33z" />
    <glyph glyph-name="uni1EB0" unicode="&#x1eb0;" horiz-adv-x="1258" 
d="M1243 23q2 -6 2 -9q0 -14 -17 -14h-155q-16 0 -22 16l-140 407h-571l-138 -407q-4 -16 -22 -16h-149q-18 0 -18 14q0 3 2 9l489 1361q4 16 21 16h213q16 0 22 -16zM862 573l-239 695l-235 -695h474zM650 1733q-6 -6 -13 -6q-8 0 -15 7l-238 252q-6 6 -6 13t7 14l73 65
q8 6 14 6q7 0 13 -8l217 -276q5 -7 5 -13q0 -8 -9 -14zM489.5 1529q-62.5 33 -98 90.5t-40.5 129.5v2q0 18 19 18h87q17 0 20 -19q5 -59 46 -94.5t110 -35.5q66 0 108 36t48 94q2 19 20 19h87q9 0 14 -5t5 -13q-4 -73 -40 -131t-98.5 -91t-143.5 -33t-143.5 33z" />
    <glyph glyph-name="uni1EB1" unicode="&#x1eb1;" horiz-adv-x="1089" 
d="M987 526l7 -506q0 -20 -19 -20h-145q-20 0 -20 20l4 157q-51 -94 -134.5 -145t-194.5 -51q-135 0 -231 69.5t-145.5 190t-49.5 272.5q0 150 51 272.5t148.5 193.5t229.5 71q110 0 192.5 -47.5t132.5 -139.5l-4 147q0 20 20 20h146q19 0 19 -20zM742.5 210.5
q76.5 102.5 76.5 302.5q0 197 -75.5 303.5t-212.5 106.5q-142 0 -214.5 -107.5t-72.5 -289.5q0 -192 72.5 -305t212.5 -113q137 0 213.5 102.5zM546 1363q-6 -6 -13 -6q-8 0 -15 7l-238 252q-6 6 -6 13t7 14l73 65q8 6 14 6q7 0 13 -8l217 -276q5 -7 5 -13q0 -8 -9 -14z
M385.5 1159q-62.5 33 -98 90.5t-40.5 129.5v2q0 18 19 18h87q17 0 20 -19q5 -59 46 -94.5t110 -35.5q66 0 108 36t48 94q2 19 20 19h87q9 0 14 -5t5 -13q-4 -73 -40 -131t-98.5 -91t-143.5 -33t-143.5 33z" />
    <glyph glyph-name="uni1EB2" unicode="&#x1eb2;" horiz-adv-x="1258" 
d="M1243 23q2 -6 2 -9q0 -14 -17 -14h-155q-16 0 -22 16l-140 407h-571l-138 -407q-4 -16 -22 -16h-149q-18 0 -18 14q0 3 2 9l489 1361q4 16 21 16h213q16 0 22 -16zM862 573l-239 695l-235 -695h474zM490.5 1528.5q-62.5 32.5 -98 90t-40.5 130.5v2q0 8 5 13t14 5h86
q18 0 21 -20q5 -59 46 -94t110 -35q66 0 107.5 35.5t47.5 93.5q3 20 21 20h87q9 0 14 -5t4 -13q-4 -73 -39.5 -131t-98 -91t-143.5 -33t-143.5 32.5zM584 1754q-9 0 -14.5 6t-3.5 15q5 40 28.5 63t65.5 48q34 19 49.5 34t15.5 38q0 27 -22.5 44t-63.5 17q-40 0 -64 -16.5
t-31 -45.5q-5 -19 -21 -19h-87q-9 0 -14 5.5t-4 15.5q10 74 68 115.5t155 41.5q98 0 156.5 -42t58.5 -113q0 -46 -24 -72.5t-68 -54.5q-29 -19 -44.5 -32t-20.5 -30q-5 -18 -20 -18h-95z" />
    <glyph glyph-name="uni1EB3" unicode="&#x1eb3;" horiz-adv-x="1089" 
d="M987 526l7 -506q0 -20 -19 -20h-145q-20 0 -20 20l4 157q-51 -94 -134.5 -145t-194.5 -51q-135 0 -231 69.5t-145.5 190t-49.5 272.5q0 150 51 272.5t148.5 193.5t229.5 71q110 0 192.5 -47.5t132.5 -139.5l-4 147q0 20 20 20h146q19 0 19 -20zM742.5 210.5
q76.5 102.5 76.5 302.5q0 197 -75.5 303.5t-212.5 106.5q-142 0 -214.5 -107.5t-72.5 -289.5q0 -192 72.5 -305t212.5 -113q137 0 213.5 102.5zM386.5 1158.5q-62.5 32.5 -98 90t-40.5 130.5v2q0 8 5 13t14 5h86q18 0 21 -20q5 -59 46 -94t110 -35q66 0 107.5 35.5
t47.5 93.5q3 20 21 20h87q9 0 14 -5t4 -13q-4 -73 -39.5 -131t-98 -91t-143.5 -33t-143.5 32.5zM480 1384q-9 0 -14.5 6t-3.5 15q5 40 28.5 63t65.5 48q34 19 49.5 34t15.5 38q0 27 -22.5 44t-63.5 17q-40 0 -64 -16.5t-31 -45.5q-5 -19 -21 -19h-87q-9 0 -14 5.5t-4 15.5
q10 74 68 115.5t155 41.5q98 0 156.5 -42t58.5 -113q0 -46 -24 -72.5t-68 -54.5q-29 -19 -44.5 -32t-20.5 -30q-5 -18 -20 -18h-95z" />
    <glyph glyph-name="uni1EB4" unicode="&#x1eb4;" horiz-adv-x="1258" 
d="M1243 23q2 -6 2 -9q0 -14 -17 -14h-155q-16 0 -22 16l-140 407h-571l-138 -407q-4 -16 -22 -16h-149q-18 0 -18 14q0 3 2 9l489 1361q4 16 21 16h213q16 0 22 -16zM862 573l-239 695l-235 -695h474zM666.5 1831q-28.5 19 -60.5 54q-23 25 -39 37t-36 12q-57 0 -62 -95
q0 -19 -20 -19h-63q-21 0 -19 20q3 92 44 148t118 56q42 0 70.5 -19t60.5 -54q22 -25 37.5 -37t34.5 -12q61 0 64 94q2 19 20 19h64q9 0 14 -6.5t4 -17.5q-5 -93 -45 -146t-114 -53q-44 0 -72.5 19zM490.5 1529q-62.5 33 -98 90.5t-40.5 129.5v2q0 18 19 18h86q18 0 21 -19
q5 -59 46 -94.5t110 -35.5q66 0 107.5 36t47.5 94q3 19 21 19h87q9 0 14 -5t4 -13q-4 -73 -39.5 -131t-98 -91t-143.5 -33t-143.5 33z" />
    <glyph glyph-name="uni1EB5" unicode="&#x1eb5;" horiz-adv-x="1089" 
d="M987 526l7 -506q0 -20 -19 -20h-145q-20 0 -20 20l4 157q-51 -94 -134.5 -145t-194.5 -51q-135 0 -231 69.5t-145.5 190t-49.5 272.5q0 150 51 272.5t148.5 193.5t229.5 71q110 0 192.5 -47.5t132.5 -139.5l-4 147q0 20 20 20h146q19 0 19 -20zM742.5 210.5
q76.5 102.5 76.5 302.5q0 197 -75.5 303.5t-212.5 106.5q-142 0 -214.5 -107.5t-72.5 -289.5q0 -192 72.5 -305t212.5 -113q137 0 213.5 102.5zM562.5 1461q-28.5 19 -60.5 54q-23 25 -39 37t-36 12q-57 0 -62 -95q0 -19 -20 -19h-63q-21 0 -19 20q3 92 44 148t118 56
q42 0 70.5 -19t60.5 -54q22 -25 37.5 -37t34.5 -12q61 0 64 94q2 19 20 19h64q9 0 14 -6.5t4 -17.5q-5 -93 -45 -146t-114 -53q-44 0 -72.5 19zM386.5 1159q-62.5 33 -98 90.5t-40.5 129.5v2q0 18 19 18h86q18 0 21 -19q5 -59 46 -94.5t110 -35.5q66 0 107.5 36t47.5 94
q3 19 21 19h87q9 0 14 -5t4 -13q-4 -73 -39.5 -131t-98 -91t-143.5 -33t-143.5 33z" />
    <glyph glyph-name="uni1EB6" unicode="&#x1eb6;" horiz-adv-x="1258" 
d="M1243 23q2 -6 2 -9q0 -14 -17 -14h-155q-16 0 -22 16l-140 407h-571l-138 -407q-4 -16 -22 -16h-149q-18 0 -18 14q0 3 2 9l489 1361q4 16 21 16h213q16 0 22 -16zM862 573l-239 695l-235 -695h474zM553 -298q-20 0 -20 19v154q0 9 5.5 14t14.5 5h146q9 0 14.5 -5
t5.5 -14v-154q0 -9 -5.5 -14t-14.5 -5h-146zM490.5 1552.5q-62.5 32.5 -98 90t-40.5 130.5v2q0 8 5 13t14 5h86q18 0 21 -20q5 -59 46 -94t110 -35q66 0 107.5 35.5t47.5 93.5q3 20 21 20h87q9 0 14 -5t4 -13q-4 -73 -39.5 -131t-98 -91t-143.5 -33t-143.5 32.5z" />
    <glyph glyph-name="uni1EB7" unicode="&#x1eb7;" horiz-adv-x="1089" 
d="M987 526l7 -506q0 -20 -19 -20h-145q-20 0 -20 20l4 157q-51 -94 -134.5 -145t-194.5 -51q-135 0 -231 69.5t-145.5 190t-49.5 272.5q0 150 51 272.5t148.5 193.5t229.5 71q110 0 192.5 -47.5t132.5 -139.5l-4 147q0 20 20 20h146q19 0 19 -20zM742.5 210.5
q76.5 102.5 76.5 302.5q0 197 -75.5 303.5t-212.5 106.5q-142 0 -214.5 -107.5t-72.5 -289.5q0 -192 72.5 -305t212.5 -113q137 0 213.5 102.5zM471 -298q-20 0 -20 19v154q0 9 5.5 14t14.5 5h146q9 0 14.5 -5t5.5 -14v-154q0 -9 -5.5 -14t-14.5 -5h-146zM386.5 1182.5
q-62.5 32.5 -98 90t-40.5 130.5v2q0 8 5 13t14 5h86q18 0 21 -20q5 -59 46 -94t110 -35q66 0 107.5 35.5t47.5 93.5q3 20 21 20h87q9 0 14 -5t4 -13q-4 -73 -39.5 -131t-98 -91t-143.5 -33t-143.5 32.5z" />
    <glyph glyph-name="uni1EB8" unicode="&#x1eb8;" horiz-adv-x="1071" 
d="M126 0q-19 0 -19 20l9 705l-9 655q0 20 19 20h844q9 0 14.5 -5.5t5.5 -14.5v-102q0 -9 -5.5 -14.5t-14.5 -5.5h-670l-8 -440h630q9 0 14.5 -5t5.5 -14v-103q0 -9 -5.5 -14t-14.5 -5h-630l8 -535h686q10 0 15 -5.5t5 -14.5v-102q0 -9 -5.5 -14.5t-14.5 -5.5h-860z
M499 -298q-20 0 -20 19v154q0 9 5.5 14t14.5 5h146q9 0 14.5 -5t5.5 -14v-154q0 -9 -5.5 -14t-14.5 -5h-146z" />
    <glyph glyph-name="uni1EB9" unicode="&#x1eb9;" horiz-adv-x="1077" 
d="M244 493q9 -389 309 -389q113 0 181.5 60.5t91.5 175.5q5 18 22 18h136q10 0 15 -4.5t4 -12.5q-16 -108 -73.5 -190t-153.5 -128t-225 -46q-157 0 -268 67t-167.5 188t-56.5 280q0 161 57.5 283t166.5 190t258 68q148 0 254.5 -64.5t164 -185.5t60.5 -290q0 -20 -19 -20
h-757zM341.5 846q-73.5 -81 -91.5 -230h573q-3 87 -35.5 157.5t-95 112t-150.5 41.5q-127 0 -200.5 -81zM466 -298q-20 0 -20 19v154q0 9 5.5 14t14.5 5h146q9 0 14.5 -5t5.5 -14v-154q0 -9 -5.5 -14t-14.5 -5h-146z" />
    <glyph glyph-name="uni1EBA" unicode="&#x1eba;" horiz-adv-x="1071" 
d="M126 0q-19 0 -19 20l9 705l-9 655q0 20 19 20h844q9 0 14.5 -5.5t5.5 -14.5v-102q0 -9 -5.5 -14.5t-14.5 -5.5h-670l-8 -440h630q9 0 14.5 -5t5.5 -14v-103q0 -9 -5.5 -14t-14.5 -5h-630l8 -535h686q10 0 15 -5.5t5 -14.5v-102q0 -9 -5.5 -14.5t-14.5 -5.5h-860z
M519 1522q-9 0 -14.5 6t-3.5 15q5 40 28.5 63t65.5 48q34 19 49.5 34t15.5 38q0 27 -22.5 44t-63.5 17q-40 0 -64 -16.5t-31 -45.5q-5 -19 -21 -19h-87q-9 0 -14 5.5t-4 15.5q10 74 68 115.5t155 41.5q98 0 156.5 -42t58.5 -113q0 -46 -24 -72.5t-68 -54.5
q-29 -19 -44.5 -32t-20.5 -30q-5 -18 -20 -18h-95z" />
    <glyph glyph-name="uni1EBB" unicode="&#x1ebb;" horiz-adv-x="1077" 
d="M244 493q9 -389 309 -389q113 0 181.5 60.5t91.5 175.5q5 18 22 18h136q10 0 15 -4.5t4 -12.5q-16 -108 -73.5 -190t-153.5 -128t-225 -46q-157 0 -268 67t-167.5 188t-56.5 280q0 161 57.5 283t166.5 190t258 68q148 0 254.5 -64.5t164 -185.5t60.5 -290q0 -20 -19 -20
h-757zM341.5 846q-73.5 -81 -91.5 -230h573q-3 87 -35.5 157.5t-95 112t-150.5 41.5q-127 0 -200.5 -81zM494 1152q-9 0 -14.5 6t-3.5 15q5 40 28.5 63t65.5 48q34 19 49.5 34t15.5 38q0 27 -22.5 44t-63.5 17q-40 0 -64 -16.5t-31 -45.5q-5 -19 -21 -19h-87q-9 0 -14 5.5
t-4 15.5q10 74 68 115.5t155 41.5q98 0 156.5 -42t58.5 -113q0 -46 -24 -72.5t-68 -54.5q-29 -19 -44.5 -32t-20.5 -30q-5 -18 -20 -18h-95z" />
    <glyph glyph-name="uni1EBC" unicode="&#x1ebc;" horiz-adv-x="1071" 
d="M126 0q-19 0 -19 20l9 705l-9 655q0 20 19 20h844q9 0 14.5 -5.5t5.5 -14.5v-102q0 -9 -5.5 -14.5t-14.5 -5.5h-670l-8 -440h630q9 0 14.5 -5t5.5 -14v-103q0 -9 -5.5 -14t-14.5 -5h-630l8 -535h686q10 0 15 -5.5t5 -14.5v-102q0 -9 -5.5 -14.5t-14.5 -5.5h-860z
M602 1553.5q-30 20.5 -66 59.5q-25 28 -42 41t-38 13q-63 0 -68 -106q-2 -19 -20 -19h-63q-20 0 -20 20q4 97 47 156t122 59q46 0 76.5 -21t65.5 -61q22 -26 38.5 -39t35.5 -13q68 0 73 106q0 19 20 19h63q20 0 19 -24q-5 -98 -47 -154.5t-121 -56.5q-45 0 -75 20.5z" />
    <glyph glyph-name="uni1EBD" unicode="&#x1ebd;" horiz-adv-x="1077" 
d="M244 493q9 -389 309 -389q113 0 181.5 60.5t91.5 175.5q5 18 22 18h136q10 0 15 -4.5t4 -12.5q-16 -108 -73.5 -190t-153.5 -128t-225 -46q-157 0 -268 67t-167.5 188t-56.5 280q0 161 57.5 283t166.5 190t258 68q148 0 254.5 -64.5t164 -185.5t60.5 -290q0 -20 -19 -20
h-757zM341.5 846q-73.5 -81 -91.5 -230h573q-3 87 -35.5 157.5t-95 112t-150.5 41.5q-127 0 -200.5 -81zM578 1183.5q-30 20.5 -66 59.5q-25 28 -42 41t-38 13q-63 0 -68 -106q-2 -19 -20 -19h-63q-20 0 -20 20q4 97 47 156t122 59q46 0 76.5 -21t65.5 -61q22 -26 38.5 -39
t35.5 -13q68 0 73 106q0 19 20 19h63q20 0 19 -24q-5 -98 -47 -154.5t-121 -56.5q-45 0 -75 20.5z" />
    <glyph glyph-name="uni1EBE" unicode="&#x1ebe;" horiz-adv-x="1071" 
d="M126 0q-19 0 -19 20l9 705l-9 655q0 20 19 20h844q9 0 14.5 -5.5t5.5 -14.5v-102q0 -9 -5.5 -14.5t-14.5 -5.5h-670l-8 -440h630q9 0 14.5 -5t5.5 -14v-103q0 -9 -5.5 -14t-14.5 -5h-630l8 -535h686q10 0 15 -5.5t5 -14.5v-102q0 -9 -5.5 -14.5t-14.5 -5.5h-860z
M822 1708q-7 -7 -14 -7q-6 0 -14 6l-45 40q-8 8 -8 15q0 6 5 13l216 272q6 9 14 9q7 0 14 -7l70 -64q7 -7 7 -15q0 -7 -6 -13zM243 1545q-2 4 -2 10q0 10 10 16l263 160q11 7 24 7h54q14 0 25 -7l263 -160q10 -6 10 -16q0 -6 -2 -10l-25 -58q-5 -12 -15 -12q-7 0 -10 2
l-274 125l-272 -124q-4 -3 -9 -3q-10 0 -16 13z" />
    <glyph glyph-name="uni1EBF" unicode="&#x1ebf;" horiz-adv-x="1077" 
d="M244 493q9 -389 309 -389q113 0 181.5 60.5t91.5 175.5q5 18 22 18h136q10 0 15 -4.5t4 -12.5q-16 -108 -73.5 -190t-153.5 -128t-225 -46q-157 0 -268 67t-167.5 188t-56.5 280q0 161 57.5 283t166.5 190t258 68q148 0 254.5 -64.5t164 -185.5t60.5 -290q0 -20 -19 -20
h-757zM341.5 846q-73.5 -81 -91.5 -230h573q-3 87 -35.5 157.5t-95 112t-150.5 41.5q-127 0 -200.5 -81zM798 1338q-7 -7 -14 -7q-6 0 -14 6l-45 40q-8 8 -8 15q0 6 5 13l216 272q6 9 14 9q7 0 14 -7l70 -64q7 -7 7 -15q0 -7 -6 -13zM219 1175q-2 4 -2 10q0 10 10 16
l263 160q11 7 24 7h54q14 0 25 -7l263 -160q10 -6 10 -16q0 -6 -2 -10l-25 -58q-5 -12 -15 -12q-7 0 -10 2l-274 125l-272 -124q-4 -3 -9 -3q-10 0 -16 13z" />
    <glyph glyph-name="uni1EC0" unicode="&#x1ec0;" horiz-adv-x="1071" 
d="M126 0q-19 0 -19 20l9 705l-9 655q0 20 19 20h844q9 0 14.5 -5.5t5.5 -14.5v-102q0 -9 -5.5 -14.5t-14.5 -5.5h-670l-8 -440h630q9 0 14.5 -5t5.5 -14v-103q0 -9 -5.5 -14t-14.5 -5h-630l8 -535h686q10 0 15 -5.5t5 -14.5v-102q0 -9 -5.5 -14.5t-14.5 -5.5h-860z
M836 1706q-6 -6 -13 -6q-6 0 -15 7l-239 249q-6 6 -6 14q0 7 7 14l70 64q9 7 14 7q8 0 14 -9l216 -272q5 -6 5 -13q0 -9 -7 -15zM243 1545q-2 4 -2 10q0 10 10 16l263 160q11 7 24 7h54q14 0 25 -7l263 -160q10 -6 10 -16q0 -6 -2 -10l-25 -58q-4 -12 -15 -12q-7 0 -10 2
l-274 125l-272 -124q-5 -3 -9 -3q-10 0 -16 13z" />
    <glyph glyph-name="uni1EC1" unicode="&#x1ec1;" horiz-adv-x="1077" 
d="M244 493q9 -389 309 -389q113 0 181.5 60.5t91.5 175.5q5 18 22 18h136q10 0 15 -4.5t4 -12.5q-16 -108 -73.5 -190t-153.5 -128t-225 -46q-157 0 -268 67t-167.5 188t-56.5 280q0 161 57.5 283t166.5 190t258 68q148 0 254.5 -64.5t164 -185.5t60.5 -290q0 -20 -19 -20
h-757zM341.5 846q-73.5 -81 -91.5 -230h573q-3 87 -35.5 157.5t-95 112t-150.5 41.5q-127 0 -200.5 -81zM812 1336q-6 -6 -13 -6q-6 0 -15 7l-239 249q-6 6 -6 14q0 7 7 14l70 64q9 7 14 7q8 0 14 -9l216 -272q5 -6 5 -13q0 -9 -7 -15zM219 1175q-2 4 -2 10q0 10 10 16
l263 160q11 7 24 7h54q14 0 25 -7l263 -160q10 -6 10 -16q0 -6 -2 -10l-25 -58q-4 -12 -15 -12q-7 0 -10 2l-274 125l-272 -124q-5 -3 -9 -3q-10 0 -16 13z" />
    <glyph glyph-name="uni1EC2" unicode="&#x1ec2;" horiz-adv-x="1071" 
d="M126 0q-19 0 -19 20l9 705l-9 655q0 20 19 20h844q9 0 14.5 -5.5t5.5 -14.5v-102q0 -9 -5.5 -14.5t-14.5 -5.5h-670l-8 -440h630q9 0 14.5 -5t5.5 -14v-103q0 -9 -5.5 -14t-14.5 -5h-630l8 -535h686q10 0 15 -5.5t5 -14.5v-102q0 -9 -5.5 -14.5t-14.5 -5.5h-860z
M243 1544q-2 4 -2 10q0 11 10 17l263 160q10 6 24 6h54q15 0 25 -6l263 -160q10 -6 10 -17q0 -6 -2 -10l-25 -57q-4 -12 -15 -12q-7 0 -10 2l-274 125l-272 -124q-4 -3 -10 -3q-10 0 -15 13zM763 1721q-9 0 -14.5 6t-3.5 15q5 40 28.5 63t65.5 48q34 19 49.5 34t15.5 38
q0 27 -22.5 44t-63.5 17q-40 0 -64 -16.5t-31 -45.5q-5 -19 -21 -19h-87q-9 0 -14 5.5t-4 15.5q10 74 68 115.5t155 41.5q98 0 156.5 -42t58.5 -113q0 -46 -24 -72.5t-68 -54.5q-29 -19 -44.5 -32t-20.5 -30q-5 -18 -20 -18h-95z" />
    <glyph glyph-name="uni1EC3" unicode="&#x1ec3;" horiz-adv-x="1077" 
d="M244 493q9 -389 309 -389q113 0 181.5 60.5t91.5 175.5q5 18 22 18h136q10 0 15 -4.5t4 -12.5q-16 -108 -73.5 -190t-153.5 -128t-225 -46q-157 0 -268 67t-167.5 188t-56.5 280q0 161 57.5 283t166.5 190t258 68q148 0 254.5 -64.5t164 -185.5t60.5 -290q0 -20 -19 -20
h-757zM341.5 846q-73.5 -81 -91.5 -230h573q-3 87 -35.5 157.5t-95 112t-150.5 41.5q-127 0 -200.5 -81zM219 1174q-2 4 -2 10q0 11 10 17l263 160q10 6 24 6h54q15 0 25 -6l263 -160q10 -6 10 -17q0 -6 -2 -10l-25 -57q-4 -12 -15 -12q-7 0 -10 2l-274 125l-272 -124
q-4 -3 -10 -3q-10 0 -15 13zM739 1351q-9 0 -14.5 6t-3.5 15q5 40 28.5 63t65.5 48q34 19 49.5 34t15.5 38q0 27 -22.5 44t-63.5 17q-40 0 -64 -16.5t-31 -45.5q-5 -19 -21 -19h-87q-9 0 -14 5.5t-4 15.5q10 74 68 115.5t155 41.5q98 0 156.5 -42t58.5 -113q0 -46 -24 -72.5
t-68 -54.5q-29 -19 -44.5 -32t-20.5 -30q-5 -18 -20 -18h-95z" />
    <glyph glyph-name="uni1EC4" unicode="&#x1ec4;" horiz-adv-x="1071" 
d="M126 0q-19 0 -19 20l9 705l-9 655q0 20 19 20h844q9 0 14.5 -5.5t5.5 -14.5v-102q0 -9 -5.5 -14.5t-14.5 -5.5h-670l-8 -440h630q9 0 14.5 -5t5.5 -14v-103q0 -9 -5.5 -14t-14.5 -5h-630l8 -535h686q10 0 15 -5.5t5 -14.5v-102q0 -9 -5.5 -14.5t-14.5 -5.5h-860z
M243 1544q-2 4 -2 10q0 11 10 17l263 160q10 6 24 6h54q15 0 25 -6l263 -160q10 -6 10 -17q0 -6 -2 -10l-25 -57q-4 -12 -15 -12q-7 0 -10 2l-274 125l-272 -124q-4 -3 -10 -3q-10 0 -15 13zM602 1801.5q-30 20.5 -66 59.5q-25 28 -42 41t-38 13q-63 0 -68 -106
q-2 -19 -20 -19h-63q-20 0 -20 20q4 97 47 156t122 59q46 0 76.5 -21t65.5 -61q22 -26 38.5 -39t35.5 -13q68 0 73 106q0 19 20 19h63q20 0 19 -24q-5 -98 -47 -154.5t-121 -56.5q-45 0 -75 20.5z" />
    <glyph glyph-name="uni1EC5" unicode="&#x1ec5;" horiz-adv-x="1077" 
d="M244 493q9 -389 309 -389q113 0 181.5 60.5t91.5 175.5q5 18 22 18h136q10 0 15 -4.5t4 -12.5q-16 -108 -73.5 -190t-153.5 -128t-225 -46q-157 0 -268 67t-167.5 188t-56.5 280q0 161 57.5 283t166.5 190t258 68q148 0 254.5 -64.5t164 -185.5t60.5 -290q0 -20 -19 -20
h-757zM341.5 846q-73.5 -81 -91.5 -230h573q-3 87 -35.5 157.5t-95 112t-150.5 41.5q-127 0 -200.5 -81zM219 1174q-2 4 -2 10q0 11 10 17l263 160q10 6 24 6h54q15 0 25 -6l263 -160q10 -6 10 -17q0 -6 -2 -10l-25 -57q-4 -12 -15 -12q-7 0 -10 2l-274 125l-272 -124
q-4 -3 -10 -3q-10 0 -15 13zM578 1431.5q-30 20.5 -66 59.5q-25 28 -42 41t-38 13q-63 0 -68 -106q-2 -19 -20 -19h-63q-20 0 -20 20q4 97 47 156t122 59q46 0 76.5 -21t65.5 -61q22 -26 38.5 -39t35.5 -13q68 0 73 106q0 19 20 19h63q20 0 19 -24q-5 -98 -47 -154.5
t-121 -56.5q-45 0 -75 20.5z" />
    <glyph glyph-name="uni1EC6" unicode="&#x1ec6;" horiz-adv-x="1071" 
d="M126 0q-19 0 -19 20l9 705l-9 655q0 20 19 20h844q9 0 14.5 -5.5t5.5 -14.5v-102q0 -9 -5.5 -14.5t-14.5 -5.5h-670l-8 -440h630q9 0 14.5 -5t5.5 -14v-103q0 -9 -5.5 -14t-14.5 -5h-630l8 -535h686q10 0 15 -5.5t5 -14.5v-102q0 -9 -5.5 -14.5t-14.5 -5.5h-860z
M499 -298q-20 0 -20 19v154q0 9 5.5 14t14.5 5h146q9 0 14.5 -5t5.5 -14v-154q0 -9 -5.5 -14t-14.5 -5h-146zM243 1583q-2 4 -2 10q0 11 10 17l263 160q10 6 24 6h54q15 0 25 -6l263 -160q10 -6 10 -17q0 -6 -2 -10l-25 -57q-4 -12 -15 -12q-7 0 -10 2l-274 125l-272 -124
q-4 -3 -10 -3q-10 0 -15 13z" />
    <glyph glyph-name="uni1EC7" unicode="&#x1ec7;" horiz-adv-x="1077" 
d="M244 493q9 -389 309 -389q113 0 181.5 60.5t91.5 175.5q5 18 22 18h136q10 0 15 -4.5t4 -12.5q-16 -108 -73.5 -190t-153.5 -128t-225 -46q-157 0 -268 67t-167.5 188t-56.5 280q0 161 57.5 283t166.5 190t258 68q148 0 254.5 -64.5t164 -185.5t60.5 -290q0 -20 -19 -20
h-757zM341.5 846q-73.5 -81 -91.5 -230h573q-3 87 -35.5 157.5t-95 112t-150.5 41.5q-127 0 -200.5 -81zM466 -298q-20 0 -20 19v154q0 9 5.5 14t14.5 5h146q9 0 14.5 -5t5.5 -14v-154q0 -9 -5.5 -14t-14.5 -5h-146zM219 1213q-2 4 -2 10q0 11 10 17l263 160q10 6 24 6h54
q15 0 25 -6l263 -160q10 -6 10 -17q0 -6 -2 -10l-25 -57q-4 -12 -15 -12q-7 0 -10 2l-274 125l-272 -124q-4 -3 -10 -3q-10 0 -15 13z" />
    <glyph glyph-name="uni1EC8" unicode="&#x1ec8;" horiz-adv-x="426" 
d="M136 0q-19 0 -19 20l9 694l-9 666q0 20 19 20h154q19 0 19 -20l-9 -666l9 -694q0 -20 -19 -20h-154zM167 1522q-9 0 -14.5 6t-3.5 15q5 40 28.5 63t65.5 48q34 19 49.5 34t15.5 38q0 27 -22.5 44t-63.5 17q-40 0 -64 -16.5t-31 -45.5q-5 -19 -21 -19h-87q-9 0 -14 5.5
t-4 15.5q10 74 68 115.5t155 41.5q98 0 156.5 -42t58.5 -113q0 -46 -24 -72.5t-68 -54.5q-29 -19 -44.5 -32t-20.5 -30q-5 -18 -20 -18h-95z" />
    <glyph glyph-name="uni1EC9" unicode="&#x1ec9;" horiz-adv-x="397" 
d="M153 1152q-10 0 -15 5.5t-4 15.5q6 40 29.5 63.5t65.5 47.5q34 20 49.5 34.5t15.5 37.5q0 27 -22.5 44t-63.5 17q-40 0 -64 -16.5t-31 -45.5q-5 -19 -21 -19h-77q-10 0 -15 5.5t-4 15.5q10 74 65 115.5t148 41.5t149 -42t56 -113q0 -46 -22.5 -73t-63.5 -54
q-27 -19 -41 -32t-19 -30q-5 -18 -21 -18h-94zM124 0q-20 0 -20 20l6 512l-6 478q0 20 20 20h150q19 0 19 -20l-6 -478l6 -512q0 -20 -19 -20h-150z" />
    <glyph glyph-name="uni1ECA" unicode="&#x1eca;" horiz-adv-x="426" 
d="M136 0q-19 0 -19 20l9 694l-9 666q0 20 19 20h154q19 0 19 -20l-9 -666l9 -694q0 -20 -19 -20h-154zM140 -298q-20 0 -20 19v154q0 9 5.5 14t14.5 5h146q9 0 14.5 -5t5.5 -14v-154q0 -9 -5.5 -14t-14.5 -5h-146z" />
    <glyph glyph-name="uni1ECB" unicode="&#x1ecb;" horiz-adv-x="397" 
d="M124 0q-20 0 -20 20l6 512l-6 478q0 20 20 20h150q19 0 19 -20l-6 -478l6 -512q0 -20 -19 -20h-150zM127 1155q-20 0 -20 19v154q0 9 5.5 14t14.5 5h146q9 0 14.5 -5t5.5 -14v-154q0 -9 -5.5 -14t-14.5 -5h-146zM126 -298q-20 0 -20 19v154q0 9 5.5 14t14.5 5h146
q9 0 14.5 -5t5.5 -14v-154q0 -9 -5.5 -14t-14.5 -5h-146z" />
    <glyph glyph-name="uni1ECC" unicode="&#x1ecc;" horiz-adv-x="1465" 
d="M380.5 64.5q-151.5 89.5 -234.5 253.5t-83 381q0 221 82.5 385t234 252.5t353.5 88.5q201 0 352 -88t234 -252t83 -387q0 -217 -83.5 -381t-235 -253t-351.5 -89t-351.5 89.5zM987.5 190q107.5 69 164.5 199t57 309t-57 310t-164.5 201t-255.5 70t-255.5 -69.5t-164 -200
t-56.5 -311.5q0 -178 57.5 -308t165 -199.5t254.5 -69.5t254.5 69zM660 -298q-20 0 -20 19v154q0 9 5.5 14t14.5 5h146q9 0 14.5 -5t5.5 -14v-154q0 -9 -5.5 -14t-14.5 -5h-146z" />
    <glyph glyph-name="uni1ECD" unicode="&#x1ecd;" horiz-adv-x="1094" 
d="M284 43q-110 66 -167.5 187t-57.5 283t57.5 284t167.5 189t264 67t264 -66t167 -187.5t57 -283.5q0 -163 -57 -284.5t-167 -188t-264 -66.5t-264 66zM772.5 209q74.5 105 74.5 304q0 198 -75.5 305.5t-224.5 107.5q-149 -1 -225 -108t-76 -306q0 -198 76.5 -303
t225.5 -105q150 0 224.5 105zM474 -298q-20 0 -20 19v154q0 9 5.5 14t14.5 5h146q9 0 14.5 -5t5.5 -14v-154q0 -9 -5.5 -14t-14.5 -5h-146z" />
    <glyph glyph-name="uni1ECE" unicode="&#x1ece;" horiz-adv-x="1465" 
d="M380.5 64.5q-151.5 89.5 -234.5 253.5t-83 381q0 221 82.5 385t234 252.5t353.5 88.5q201 0 352 -88t234 -252t83 -387q0 -217 -83.5 -381t-235 -253t-351.5 -89t-351.5 89.5zM987.5 190q107.5 69 164.5 199t57 309t-57 310t-164.5 201t-255.5 70t-255.5 -69.5t-164 -200
t-56.5 -311.5q0 -178 57.5 -308t165 -199.5t254.5 -69.5t254.5 69zM687 1522q-9 0 -14.5 6t-3.5 15q5 40 28.5 63t65.5 48q34 19 49.5 34t15.5 38q0 27 -22.5 44t-63.5 17q-40 0 -64 -16.5t-31 -45.5q-5 -19 -21 -19h-87q-9 0 -14 5.5t-4 15.5q10 74 68 115.5t155 41.5
q98 0 156.5 -42t58.5 -113q0 -46 -24 -72.5t-68 -54.5q-29 -19 -44.5 -32t-20.5 -30q-5 -18 -20 -18h-95z" />
    <glyph glyph-name="uni1ECF" unicode="&#x1ecf;" horiz-adv-x="1094" 
d="M284 43q-110 66 -167.5 187t-57.5 283t57.5 284t167.5 189t264 67t264 -66t167 -187.5t57 -283.5q0 -163 -57 -284.5t-167 -188t-264 -66.5t-264 66zM772.5 209q74.5 105 74.5 304q0 198 -75.5 305.5t-224.5 107.5q-149 -1 -225 -108t-76 -306q0 -198 76.5 -303
t225.5 -105q150 0 224.5 105zM501 1152q-9 0 -14.5 6t-3.5 15q5 40 28.5 63t65.5 48q34 19 49.5 34t15.5 38q0 27 -22.5 44t-63.5 17q-40 0 -64 -16.5t-31 -45.5q-5 -19 -21 -19h-87q-9 0 -14 5.5t-4 15.5q10 74 68 115.5t155 41.5q98 0 156.5 -42t58.5 -113
q0 -46 -24 -72.5t-68 -54.5q-29 -19 -44.5 -32t-20.5 -30q-5 -18 -20 -18h-95z" />
    <glyph glyph-name="uni1ED0" unicode="&#x1ed0;" horiz-adv-x="1465" 
d="M380.5 64.5q-151.5 89.5 -234.5 253.5t-83 381q0 221 82.5 385t234 252.5t353.5 88.5q201 0 352 -88t234 -252t83 -387q0 -217 -83.5 -381t-235 -253t-351.5 -89t-351.5 89.5zM987.5 190q107.5 69 164.5 199t57 309t-57 310t-164.5 201t-255.5 70t-255.5 -69.5t-164 -200
t-56.5 -311.5q0 -178 57.5 -308t165 -199.5t254.5 -69.5t254.5 69zM990 1708q-7 -7 -14 -7q-6 0 -14 6l-45 40q-8 8 -8 15q0 6 5 13l216 272q6 9 14 9q7 0 14 -7l70 -64q7 -7 7 -15q0 -7 -6 -13zM411 1545q-2 4 -2 10q0 10 10 16l263 160q11 7 24 7h54q14 0 25 -7l263 -160
q10 -6 10 -16q0 -6 -2 -10l-25 -58q-5 -12 -15 -12q-7 0 -10 2l-274 125l-272 -124q-4 -3 -9 -3q-10 0 -16 13z" />
    <glyph glyph-name="uni1ED1" unicode="&#x1ed1;" horiz-adv-x="1094" 
d="M284 43q-110 66 -167.5 187t-57.5 283t57.5 284t167.5 189t264 67t264 -66t167 -187.5t57 -283.5q0 -163 -57 -284.5t-167 -188t-264 -66.5t-264 66zM772.5 209q74.5 105 74.5 304q0 198 -75.5 305.5t-224.5 107.5q-149 -1 -225 -108t-76 -306q0 -198 76.5 -303
t225.5 -105q150 0 224.5 105zM804 1338q-7 -7 -14 -7q-6 0 -14 6l-45 40q-8 8 -8 15q0 6 5 13l216 272q6 9 14 9q7 0 14 -7l70 -64q7 -7 7 -15q0 -7 -6 -13zM225 1175q-2 4 -2 10q0 10 10 16l263 160q11 7 24 7h54q14 0 25 -7l263 -160q10 -6 10 -16q0 -6 -2 -10l-25 -58
q-5 -12 -15 -12q-7 0 -10 2l-274 125l-272 -124q-4 -3 -9 -3q-10 0 -16 13z" />
    <glyph glyph-name="uni1ED2" unicode="&#x1ed2;" horiz-adv-x="1465" 
d="M380.5 64.5q-151.5 89.5 -234.5 253.5t-83 381q0 221 82.5 385t234 252.5t353.5 88.5q201 0 352 -88t234 -252t83 -387q0 -217 -83.5 -381t-235 -253t-351.5 -89t-351.5 89.5zM987.5 190q107.5 69 164.5 199t57 309t-57 310t-164.5 201t-255.5 70t-255.5 -69.5t-164 -200
t-56.5 -311.5q0 -178 57.5 -308t165 -199.5t254.5 -69.5t254.5 69zM1004 1706q-6 -6 -13 -6q-6 0 -15 7l-239 249q-6 6 -6 14q0 7 7 14l70 64q9 7 14 7q8 0 14 -9l216 -272q5 -6 5 -13q0 -9 -7 -15zM411 1545q-2 4 -2 10q0 10 10 16l263 160q11 7 24 7h54q14 0 25 -7
l263 -160q10 -6 10 -16q0 -6 -2 -10l-25 -58q-4 -12 -15 -12q-7 0 -10 2l-274 125l-272 -124q-5 -3 -9 -3q-10 0 -16 13z" />
    <glyph glyph-name="uni1ED3" unicode="&#x1ed3;" horiz-adv-x="1094" 
d="M284 43q-110 66 -167.5 187t-57.5 283t57.5 284t167.5 189t264 67t264 -66t167 -187.5t57 -283.5q0 -163 -57 -284.5t-167 -188t-264 -66.5t-264 66zM772.5 209q74.5 105 74.5 304q0 198 -75.5 305.5t-224.5 107.5q-149 -1 -225 -108t-76 -306q0 -198 76.5 -303
t225.5 -105q150 0 224.5 105zM818 1336q-6 -6 -13 -6q-6 0 -15 7l-239 249q-6 6 -6 14q0 7 7 14l70 64q9 7 14 7q8 0 14 -9l216 -272q5 -6 5 -13q0 -9 -7 -15zM225 1175q-2 4 -2 10q0 10 10 16l263 160q11 7 24 7h54q14 0 25 -7l263 -160q10 -6 10 -16q0 -6 -2 -10l-25 -58
q-4 -12 -15 -12q-7 0 -10 2l-274 125l-272 -124q-5 -3 -9 -3q-10 0 -16 13z" />
    <glyph glyph-name="uni1ED4" unicode="&#x1ed4;" horiz-adv-x="1465" 
d="M380.5 64.5q-151.5 89.5 -234.5 253.5t-83 381q0 221 82.5 385t234 252.5t353.5 88.5q201 0 352 -88t234 -252t83 -387q0 -217 -83.5 -381t-235 -253t-351.5 -89t-351.5 89.5zM987.5 190q107.5 69 164.5 199t57 309t-57 310t-164.5 201t-255.5 70t-255.5 -69.5t-164 -200
t-56.5 -311.5q0 -178 57.5 -308t165 -199.5t254.5 -69.5t254.5 69zM411 1544q-2 4 -2 10q0 11 10 17l263 160q10 6 24 6h54q15 0 25 -6l263 -160q10 -6 10 -17q0 -6 -2 -10l-25 -57q-4 -12 -15 -12q-7 0 -10 2l-274 125l-272 -124q-4 -3 -10 -3q-10 0 -15 13zM931 1721
q-9 0 -14.5 6t-3.5 15q5 40 28.5 63t65.5 48q34 19 49.5 34t15.5 38q0 27 -22.5 44t-63.5 17q-40 0 -64 -16.5t-31 -45.5q-5 -19 -21 -19h-87q-9 0 -14 5.5t-4 15.5q10 74 68 115.5t155 41.5q98 0 156.5 -42t58.5 -113q0 -46 -24 -72.5t-68 -54.5q-29 -19 -44.5 -32
t-20.5 -30q-5 -18 -20 -18h-95z" />
    <glyph glyph-name="uni1ED5" unicode="&#x1ed5;" horiz-adv-x="1094" 
d="M284 43q-110 66 -167.5 187t-57.5 283t57.5 284t167.5 189t264 67t264 -66t167 -187.5t57 -283.5q0 -163 -57 -284.5t-167 -188t-264 -66.5t-264 66zM772.5 209q74.5 105 74.5 304q0 198 -75.5 305.5t-224.5 107.5q-149 -1 -225 -108t-76 -306q0 -198 76.5 -303
t225.5 -105q150 0 224.5 105zM225 1174q-2 4 -2 10q0 11 10 17l263 160q10 6 24 6h54q15 0 25 -6l263 -160q10 -6 10 -17q0 -6 -2 -10l-25 -57q-4 -12 -15 -12q-7 0 -10 2l-274 125l-272 -124q-4 -3 -10 -3q-10 0 -15 13zM745 1351q-9 0 -14.5 6t-3.5 15q5 40 28.5 63
t65.5 48q34 19 49.5 34t15.5 38q0 27 -22.5 44t-63.5 17q-40 0 -64 -16.5t-31 -45.5q-5 -19 -21 -19h-87q-9 0 -14 5.5t-4 15.5q10 74 68 115.5t155 41.5q98 0 156.5 -42t58.5 -113q0 -46 -24 -72.5t-68 -54.5q-29 -19 -44.5 -32t-20.5 -30q-5 -18 -20 -18h-95z" />
    <glyph glyph-name="uni1ED6" unicode="&#x1ed6;" horiz-adv-x="1465" 
d="M380.5 64.5q-151.5 89.5 -234.5 253.5t-83 381q0 221 82.5 385t234 252.5t353.5 88.5q201 0 352 -88t234 -252t83 -387q0 -217 -83.5 -381t-235 -253t-351.5 -89t-351.5 89.5zM987.5 190q107.5 69 164.5 199t57 309t-57 310t-164.5 201t-255.5 70t-255.5 -69.5t-164 -200
t-56.5 -311.5q0 -178 57.5 -308t165 -199.5t254.5 -69.5t254.5 69zM411 1544q-2 4 -2 10q0 11 10 17l263 160q10 6 24 6h54q15 0 25 -6l263 -160q10 -6 10 -17q0 -6 -2 -10l-25 -57q-4 -12 -15 -12q-7 0 -10 2l-274 125l-272 -124q-4 -3 -10 -3q-10 0 -15 13zM770 1801.5
q-30 20.5 -66 59.5q-25 28 -42 41t-38 13q-63 0 -68 -106q-2 -19 -20 -19h-63q-20 0 -20 20q4 97 47 156t122 59q46 0 76.5 -21t65.5 -61q22 -26 38.5 -39t35.5 -13q68 0 73 106q0 19 20 19h63q20 0 19 -24q-5 -98 -47 -154.5t-121 -56.5q-45 0 -75 20.5z" />
    <glyph glyph-name="uni1ED7" unicode="&#x1ed7;" horiz-adv-x="1094" 
d="M284 43q-110 66 -167.5 187t-57.5 283t57.5 284t167.5 189t264 67t264 -66t167 -187.5t57 -283.5q0 -163 -57 -284.5t-167 -188t-264 -66.5t-264 66zM772.5 209q74.5 105 74.5 304q0 198 -75.5 305.5t-224.5 107.5q-149 -1 -225 -108t-76 -306q0 -198 76.5 -303
t225.5 -105q150 0 224.5 105zM225 1174q-2 4 -2 10q0 11 10 17l263 160q10 6 24 6h54q15 0 25 -6l263 -160q10 -6 10 -17q0 -6 -2 -10l-25 -57q-4 -12 -15 -12q-7 0 -10 2l-274 125l-272 -124q-4 -3 -10 -3q-10 0 -15 13zM584 1431.5q-30 20.5 -66 59.5q-25 28 -42 41
t-38 13q-63 0 -68 -106q-2 -19 -20 -19h-63q-20 0 -20 20q4 97 47 156t122 59q46 0 76.5 -21t65.5 -61q22 -26 38.5 -39t35.5 -13q68 0 73 106q0 19 20 19h63q20 0 19 -24q-5 -98 -47 -154.5t-121 -56.5q-45 0 -75 20.5z" />
    <glyph glyph-name="uni1ED8" unicode="&#x1ed8;" horiz-adv-x="1465" 
d="M380.5 64.5q-151.5 89.5 -234.5 253.5t-83 381q0 221 82.5 385t234 252.5t353.5 88.5q201 0 352 -88t234 -252t83 -387q0 -217 -83.5 -381t-235 -253t-351.5 -89t-351.5 89.5zM987.5 190q107.5 69 164.5 199t57 309t-57 310t-164.5 201t-255.5 70t-255.5 -69.5t-164 -200
t-56.5 -311.5q0 -178 57.5 -308t165 -199.5t254.5 -69.5t254.5 69zM660 -298q-20 0 -20 19v154q0 9 5.5 14t14.5 5h146q9 0 14.5 -5t5.5 -14v-154q0 -9 -5.5 -14t-14.5 -5h-146zM411 1583q-2 4 -2 10q0 11 10 17l263 160q10 6 24 6h54q15 0 25 -6l263 -160q10 -6 10 -17
q0 -6 -2 -10l-25 -57q-4 -12 -15 -12q-7 0 -10 2l-274 125l-272 -124q-4 -3 -10 -3q-10 0 -15 13z" />
    <glyph glyph-name="uni1ED9" unicode="&#x1ed9;" horiz-adv-x="1094" 
d="M284 43q-110 66 -167.5 187t-57.5 283t57.5 284t167.5 189t264 67t264 -66t167 -187.5t57 -283.5q0 -163 -57 -284.5t-167 -188t-264 -66.5t-264 66zM772.5 209q74.5 105 74.5 304q0 198 -75.5 305.5t-224.5 107.5q-149 -1 -225 -108t-76 -306q0 -198 76.5 -303
t225.5 -105q150 0 224.5 105zM474 -298q-20 0 -20 19v154q0 9 5.5 14t14.5 5h146q9 0 14.5 -5t5.5 -14v-154q0 -9 -5.5 -14t-14.5 -5h-146zM225 1213q-2 4 -2 10q0 11 10 17l263 160q10 6 24 6h54q15 0 25 -6l263 -160q10 -6 10 -17q0 -6 -2 -10l-25 -57q-4 -12 -15 -12
q-7 0 -10 2l-274 125l-272 -124q-4 -3 -10 -3q-10 0 -15 13z" />
    <glyph glyph-name="uni1EDA" unicode="&#x1eda;" horiz-adv-x="1465" 
d="M1135 1304q128 -93 197.5 -248t69.5 -358q0 -217 -83.5 -381t-235 -253t-351.5 -89t-351.5 89.5t-234.5 253.5t-83 381q0 221 82.5 385t234 252.5t353.5 88.5q164 0 296 -59l183 297q6 11 15 11q6 0 11 -4l96 -54q10 -6 10 -14q0 -6 -5 -13zM987.5 190
q107.5 69 164.5 199t57 309t-57 310t-164.5 201t-255.5 70t-255.5 -69.5t-164 -200t-56.5 -311.5q0 -178 57.5 -308t165 -199.5t254.5 -69.5t254.5 69zM551 1511q-3 -1 -7 -1q-12 0 -18 13l-20 55q-2 6 -2 9q0 11 12 17l430 200q6 3 10 3q10 0 15 -13l35 -102q2 -6 2 -9
q0 -11 -14 -16z" />
    <glyph glyph-name="uni1EDB" unicode="&#x1edb;" horiz-adv-x="1094" 
d="M1043 1246q10 -6 10 -15q0 -7 -4 -12l-183 -271q83 -70 126.5 -180.5t43.5 -251.5q0 -163 -57 -284.5t-167 -188t-264 -66.5t-264 66t-167.5 187t-57.5 283t57.5 284t167.5 189t264 67q120 0 214 -41l159 281q6 10 15 10q6 0 12 -3zM772.5 209q74.5 105 74.5 304
q0 198 -75.5 305.5t-224.5 107.5q-149 -1 -225 -108t-76 -306q0 -198 76.5 -303t225.5 -105q150 0 224.5 105zM340 1141q-3 -1 -7 -1q-12 0 -18 13l-20 55q-2 6 -2 9q0 11 12 17l430 200q6 3 10 3q10 0 15 -13l35 -102q2 -6 2 -9q0 -11 -14 -16z" />
    <glyph glyph-name="uni1EDC" unicode="&#x1edc;" horiz-adv-x="1465" 
d="M1135 1304q128 -93 197.5 -248t69.5 -358q0 -217 -83.5 -381t-235 -253t-351.5 -89t-351.5 89.5t-234.5 253.5t-83 381q0 221 82.5 385t234 252.5t353.5 88.5q164 0 296 -59l183 297q6 11 15 11q6 0 11 -4l96 -54q10 -6 10 -14q0 -6 -5 -13zM987.5 190
q107.5 69 164.5 199t57 309t-57 310t-164.5 201t-255.5 70t-255.5 -69.5t-164 -200t-56.5 -311.5q0 -178 57.5 -308t165 -199.5t254.5 -69.5t254.5 69zM912 1523q-4 -13 -17 -13q-5 0 -8 1l-443 156q-8 3 -11.5 9.5t-0.5 15.5l36 103q5 13 15 13q4 0 10 -3l429 -200
q13 -6 13 -17q0 -3 -2 -9z" />
    <glyph glyph-name="uni1EDD" unicode="&#x1edd;" horiz-adv-x="1094" 
d="M1043 1246q10 -6 10 -15q0 -7 -4 -12l-183 -271q83 -70 126.5 -180.5t43.5 -251.5q0 -163 -57 -284.5t-167 -188t-264 -66.5t-264 66t-167.5 187t-57.5 283t57.5 284t167.5 189t264 67q120 0 214 -41l159 281q6 10 15 10q6 0 12 -3zM772.5 209q74.5 105 74.5 304
q0 198 -75.5 305.5t-224.5 107.5q-149 -1 -225 -108t-76 -306q0 -198 76.5 -303t225.5 -105q150 0 224.5 105zM705 1154q-4 -13 -17 -13q-5 0 -8 1l-443 156q-8 3 -11.5 9.5t-0.5 15.5l36 103q5 13 15 13q4 0 10 -3l429 -200q13 -6 13 -17q0 -3 -2 -9z" />
    <glyph glyph-name="uni1EDE" unicode="&#x1ede;" horiz-adv-x="1465" 
d="M1135 1304q128 -93 197.5 -248t69.5 -358q0 -217 -83.5 -381t-235 -253t-351.5 -89t-351.5 89.5t-234.5 253.5t-83 381q0 221 82.5 385t234 252.5t353.5 88.5q164 0 296 -59l183 297q6 11 15 11q6 0 11 -4l96 -54q10 -6 10 -14q0 -6 -5 -13zM987.5 190
q107.5 69 164.5 199t57 309t-57 310t-164.5 201t-255.5 70t-255.5 -69.5t-164 -200t-56.5 -311.5q0 -178 57.5 -308t165 -199.5t254.5 -69.5t254.5 69zM687 1522q-9 0 -14.5 6t-3.5 15q5 40 28.5 63t65.5 48q34 19 49.5 34t15.5 38q0 27 -22.5 44t-63.5 17q-40 0 -64 -16.5
t-31 -45.5q-5 -19 -21 -19h-87q-9 0 -14 5.5t-4 15.5q10 74 68 115.5t155 41.5q98 0 156.5 -42t58.5 -113q0 -46 -24 -72.5t-68 -54.5q-29 -19 -44.5 -32t-20.5 -30q-5 -18 -20 -18h-95z" />
    <glyph glyph-name="uni1EDF" unicode="&#x1edf;" horiz-adv-x="1094" 
d="M1043 1246q10 -6 10 -15q0 -7 -4 -12l-183 -271q83 -70 126.5 -180.5t43.5 -251.5q0 -163 -57 -284.5t-167 -188t-264 -66.5t-264 66t-167.5 187t-57.5 283t57.5 284t167.5 189t264 67q120 0 214 -41l159 281q6 10 15 10q6 0 12 -3zM772.5 209q74.5 105 74.5 304
q0 198 -75.5 305.5t-224.5 107.5q-149 -1 -225 -108t-76 -306q0 -198 76.5 -303t225.5 -105q150 0 224.5 105zM481 1152q-9 0 -14.5 6t-3.5 15q5 40 28.5 63t65.5 48q34 19 49.5 34t15.5 38q0 27 -22.5 44t-63.5 17q-40 0 -64 -16.5t-31 -45.5q-5 -19 -21 -19h-87
q-9 0 -14 5.5t-4 15.5q10 74 68 115.5t155 41.5q98 0 156.5 -42t58.5 -113q0 -46 -24 -72.5t-68 -54.5q-29 -19 -44.5 -32t-20.5 -30q-5 -18 -20 -18h-95z" />
    </font>
</defs>
</svg>
